  0
SECTION
  2
HEADER
  9
$ACADVER
  1
AC1009
  9
$INSBASE
 10
0.0
 20
0.0
 30
0.0
  9
$EXTMIN
 10
500.0
 20
600.0
 30
0.0
  9
$EXTMAX
 10
3700.0
 20
5573.3045229999998
 30
0.0
  9
$LIMMIN
 10
0.0
 20
0.0
  9
$LIMMAX
 10
297.0
 20
210.0
  9
$ORTHOMODE
 70
     0
  9
$REGENMODE
 70
     1
  9
$FILLMODE
 70
     0
  9
$QTEXTMODE
 70
     0
  9
$MIRRTEXT
 70
     1
  9
$DRAGMODE
 70
     2
  9
$LTSCALE
 40
100.0
  9
$OSMODE
 70
    37
  9
$ATTMODE
 70
     1
  9
$TEXTSIZE
 40
180.0
  9
$TRACEWID
 40
0.05
  9
$TEXTSTYLE
  7
STANDARD
  9
$CLAYER
  8
3
  9
$CELTYPE
  6
BYLAYER
  9
$CECOLOR
 62
   256
  9
$DIMSCALE
 40
20.0
  9
$DIMASZ
 40
2.0
  9
$DIMEXO
 40
0.5
  9
$DIMDLI
 40
10.0
  9
$DIMRND
 40
0.0
  9
$DIMDLE
 40
0.0
  9
$DIMEXE
 40
1.0
  9
$DIMTP
 40
1.0
  9
$DIMTM
 40
1.0
  9
$DIMTXT
 40
3.0
  9
$DIMCEN
 40
0.0
  9
$DIMTSZ
 40
0.0
  9
$DIMTOL
 70
     0
  9
$DIMLIM
 70
     0
  9
$DIMTIH
 70
     0
  9
$DIMTOH
 70
     0
  9
$DIMSE1
 70
     0
  9
$DIMSE2
 70
     0
  9
$DIMTAD
 70
     1
  9
$DIMZIN
 70
     8
  9
$DIMBLK
  1

  9
$DIMASO
 70
     1
  9
$DIMSHO
 70
     1
  9
$DIMPOST
  1

  9
$DIMAPOST
  1

  9
$DIMALT
 70
     0
  9
$DIMALTD
 70
     2
  9
$DIMALTF
 40
0.039
  9
$DIMLFAC
 40
1.0
  9
$DIMTOFL
 70
     1
  9
$DIMTVP
 40
0.0
  9
$DIMTIX
 70
     0
  9
$DIMSOXD
 70
     0
  9
$DIMSAH
 70
     1
  9
$DIMBLK1
  1
OPEN
  9
$DIMBLK2
  1
OPEN
  9
$DIMSTYLE
  2
IGA
  9
$DIMCLRD
 70
     0
  9
$DIMCLRE
 70
     0
  9
$DIMCLRT
 70
     0
  9
$DIMTFAC
 40
10.0
  9
$DIMGAP
 40
1.0
  9
$LUNITS
 70
     2
  9
$LUPREC
 70
     3
  9
$SKETCHINC
 40
0.1
  9
$FILLETRAD
 40
50.0
  9
$AUNITS
 70
     0
  9
$AUPREC
 70
     0
  9
$MENU
  1
acad
  9
$ELEVATION
 40
0.0
  9
$PELEVATION
 40
0.0
  9
$THICKNESS
 40
0.0
  9
$LIMCHECK
 70
     0
  9
$BLIPMODE
 70
     0
  9
$CHAMFERA
 40
0.5
  9
$CHAMFERB
 40
0.5
  9
$SKPOLY
 70
     0
  9
$TDCREATE
 40
2450725.5480533559
  9
$TDUPDATE
 40
2454953.7648741319
  9
$TDINDWG
 40
0.0053343634
  9
$TDUSRTIMER
 40
0.0053343634
  9
$USRTIMER
 70
     1
  9
$ANGBASE
 50
0.0
  9
$ANGDIR
 70
     0
  9
$PDMODE
 70
     0
  9
$PDSIZE
 40
0.0
  9
$PLINEWID
 40
0.0
  9
$COORDS
 70
     1
  9
$SPLFRAME
 70
     0
  9
$SPLINETYPE
 70
     6
  9
$SPLINESEGS
 70
     8
  9
$ATTDIA
 70
     0
  9
$ATTREQ
 70
     1
  9
$HANDLING
 70
 10241
  9
$HANDSEED
  5
7F78
  9
$SURFTAB1
 70
     6
  9
$SURFTAB2
 70
     6
  9
$SURFTYPE
 70
     6
  9
$SURFU
 70
     6
  9
$SURFV
 70
     6
  9
$UCSNAME
  2

  9
$UCSORG
 10
0.0
 20
0.0
 30
0.0
  9
$UCSXDIR
 10
1.0
 20
0.0
 30
0.0
  9
$UCSYDIR
 10
0.0
 20
1.0
 30
0.0
  9
$PUCSNAME
  2

  9
$PUCSORG
 10
0.0
 20
0.0
 30
0.0
  9
$PUCSXDIR
 10
1.0
 20
0.0
 30
0.0
  9
$PUCSYDIR
 10
0.0
 20
1.0
 30
0.0
  9
$USERI1
 70
     0
  9
$USERI2
 70
     0
  9
$USERI3
 70
     0
  9
$USERI4
 70
     0
  9
$USERI5
 70
     0
  9
$USERR1
 40
0.0
  9
$USERR2
 40
0.0
  9
$USERR3
 40
0.0
  9
$USERR4
 40
0.0
  9
$USERR5
 40
0.0
  9
$WORLDVIEW
 70
     1
  9
$SHADEDGE
 70
     3
  9
$SHADEDIF
 70
    70
  9
$TILEMODE
 70
     1
  9
$MAXACTVP
 70
    16
  9
$PLIMCHECK
 70
     0
  9
$PEXTMIN
 10
1.0000000000000000E+020
 20
1.0000000000000000E+020
 30
1.0000000000000000E+020
  9
$PEXTMAX
 10
-1.0000000000000000E+020
 20
-1.0000000000000000E+020
 30
-1.0000000000000000E+020
  9
$PLIMMIN
 10
0.0
 20
0.0
  9
$PLIMMAX
 10
12.0
 20
9.0
  9
$UNITMODE
 70
     0
  9
$VISRETAIN
 70
     0
  9
$PLINEGEN
 70
     0
  9
$PSLTSCALE
 70
     1
  0
ENDSEC
  0
SECTION
  2
TABLES
  0
TABLE
  2
VPORT
 70
     2
  0
VPORT
  2
*ACTIVE
 70
     0
 10
0.0
 20
0.0
 11
1.0
 21
1.0
 12
6292.1124769529506
 22
3086.6374998146398
 13
0.0
 23
0.0
 14
10.0
 24
10.0
 15
10.0
 25
10.0
 16
0.0
 26
0.0
 36
1.0
 17
0.0
 27
0.0
 37
0.0
 40
5011.4968576296578
 41
3.1666666666666661
 42
50.0
 43
0.0
 44
0.0
 50
0.0
 51
0.0
 71
     0
 72
   100
 73
     1
 74
     0
 75
     0
 76
     0
 77
     0
 78
     0
  0
ENDTAB
  0
TABLE
  2
LTYPE
 70
     2
  0
LTYPE
  2
CONTINUOUS
 70
     0
  3
Solid line
 72
    65
 73
     0
 40
0.0
  0
LTYPE
  2
CENTER
 70
     0
  3
____ _ ____ _ ____ _ ____ _ ____ _ ____ _ ____ 
 72
    65
 73
     4
 40
2.0
 49
1.25
 49
-0.25
 49
0.25
 49
-0.25
  0
ENDTAB
  0
TABLE
  2
LAYER
 70
     6
  0
LAYER
  2
0
 70
     0
 62
     7
  6
CONTINUOUS
  0
LAYER
  2
3
 70
     0
 62
     2
  6
CONTINUOUS
  0
LAYER
  2
2
 70
     0
 62
     3
  6
CENTER
  0
LAYER
  2
1
 70
     0
 62
     4
  6
CONTINUOUS
  0
LAYER
  2
4
 70
     0
 62
     7
  6
CONTINUOUS
  0
LAYER
  2
DEFPOINTS
 70
     0
 62
     7
  6
CONTINUOUS
  0
ENDTAB
  0
TABLE
  2
STYLE
 70
     1
  0
STYLE
  2
STANDARD
 70
     0
 40
0.0
 41
1.0
 50
0.0
 71
     0
 42
180.0
  3
simplex.shx
  4
extfont.shx
  0
ENDTAB
  0
TABLE
  2
VIEW
 70
     0
  0
ENDTAB
  0
TABLE
  2
UCS
 70
     0
  0
ENDTAB
  0
TABLE
  2
APPID
 70
     1
  0
APPID
  2
ACAD
 70
     0
  0
ENDTAB
  0
TABLE
  2
DIMSTYLE
 70
     1
  0
DIMSTYLE
  2
IGA
 70
     0
  3

  4

  5

  6
OPEN
  7
OPEN
 40
2.0
 41
2.0
 42
0.5
 43
10.0
 44
1.0
 45
0.0
 46
0.0
 47
1.0
 48
1.0
140
3.0
141
0.0
142
0.0
143
0.03937
144
1.0
145
0.0
146
10.0
147
1.0
 71
     0
 72
     0
 73
     0
 74
     0
 75
     0
 76
     0
 77
     1
 78
     8
170
     0
171
     2
172
     0
173
     1
174
     0
175
     0
176
     0
177
     0
178
     0
  0
ENDTAB
  0
ENDSEC
  0
SECTION
  2
BLOCKS
  0
BLOCK
  8
0
  2
$MODEL_SPACE
 70
     0
 10
0.0
 20
0.0
 30
0.0
  3
$MODEL_SPACE
  1

  0
ENDBLK
  5
1B
  8
0
  0
BLOCK
 67
     1
  8
0
  2
$PAPER_SPACE
 70
     0
 10
0.0
 20
0.0
 30
0.0
  3
$PAPER_SPACE
  1

  0
ENDBLK
  5
18
 67
     1
  8
0
  0
BLOCK
  8
0
  2
_OPEN
 70
     0
 10
0.0
 20
0.0
 30
0.0
  3
_OPEN
  1

  0
LINE
  5
7B9C
  8
0
  6
BYBLOCK
 62
     0
 10
-1.0
 20
0.166667
 30
0.0
 11
0.0
 21
0.0
 31
0.0
  0
LINE
  5
7B9D
  8
0
  6
BYBLOCK
 62
     0
 10
0.0
 20
0.0
 30
0.0
 11
-1.0
 21
-0.166667
 31
0.0
  0
LINE
  5
7B9E
  8
0
  6
BYBLOCK
 62
     0
 10
0.0
 20
0.0
 30
0.0
 11
-1.0
 21
0.0
 31
0.0
  0
ENDBLK
  5
7B9F
  8
0
  0
BLOCK
  8
0
  2
*D1
 70
     1
 10
0.0
 20
0.0
 30
0.0
  3
*D1
  1

  0
LINE
  5
7ED8
  8
3
  6
CONTINUOUS
 62
     0
 10
1893.9879219999989
 20
2665.1263479999998
 30
0.0
 11
1893.9879219999989
 21
2784.6496000000002
 31
0.0
  0
LINE
  5
7ED9
  8
3
  6
CONTINUOUS
 62
     0
 10
1493.987922
 20
2665.1263479999998
 30
0.0
 11
1493.987922
 21
2784.6496000000002
 31
0.0
  0
LINE
  5
7EDA
  8
3
  6
CONTINUOUS
 62
     0
 10
1853.9879219999989
 20
2764.6496000000002
 30
0.0
 11
1533.987922
 21
2764.6496000000002
 31
0.0
  0
INSERT
  5
7EDB
  8
3
  6
CONTINUOUS
 62
     0
  2
_OPEN
 10
1893.9879219999989
 20
2764.6496000000002
 30
0.0
 41
40.0
 42
40.0
 43
40.0
  0
INSERT
  5
7EDC
  8
3
  6
CONTINUOUS
 62
     0
  2
_OPEN
 10
1493.987922
 20
2764.6496000000002
 30
0.0
 41
40.0
 42
40.0
 43
40.0
 50
180.0
  0
TEXT
  8
3
  40
60
  5
7F67
  62
0
  72
0
  71
0
 10
1561.98
 20
2708.45
 30
0.000000
  1
400
  0
POINT
  5
7EDE
  8
DEFPOINTS
  6
CONTINUOUS
 62
     0
 10
1893.9879219999989
 20
2655.1263479999998
 30
0.0
  0
POINT
  5
7EDF
  8
DEFPOINTS
  6
CONTINUOUS
 62
     0
 10
1493.987922
 20
2655.1263479999998
 30
0.0
  0
POINT
  5
7EE0
  8
DEFPOINTS
  6
CONTINUOUS
 62
     0
 10
1493.987922
 20
2764.6496000000002
 30
0.0
  0
ENDBLK
  5
7CAC
  8
0
  0
BLOCK
  8
0
  2
*D2
 70
     1
 10
0.0
 20
0.0
 30
0.0
  3
*D2
  1

  0
LINE
  5
7EE1
  8
3
  6
CONTINUOUS
 62
     0
 10
1893.9879219999989
 20
2665.1263479999998
 30
0.0
 11
1893.9879219999989
 21
2901.0747280000001
 31
0.0
  0
LINE
  5
7EE2
  8
3
  6
CONTINUOUS
 62
     0
 10
1505.987922
 20
2874.1117097354818
 30
0.0
 11
1505.987922
 21
2901.0747280000001
 31
0.0
  0
LINE
  5
7EE3
  8
3
  6
CONTINUOUS
 62
     0
 10
1853.9879219999989
 20
2881.0747280000001
 30
0.0
 11
1545.987922
 21
2881.0747280000001
 31
0.0
  0
INSERT
  5
7EE4
  8
3
  6
CONTINUOUS
 62
     0
  2
_OPEN
 10
1893.9879219999989
 20
2881.0747280000001
 30
0.0
 41
40.0
 42
40.0
 43
40.0
  0
INSERT
  5
7EE5
  8
3
  6
CONTINUOUS
 62
     0
  2
_OPEN
 10
1505.987922
 20
2881.0747280000001
 30
0.0
 41
40.0
 42
40.0
 43
40.0
 50
180.0
  0
TEXT
  8
3
  40
60
  5
7F68
  62
0
  72
0
  71
0
 10
1561.98
 20
2824.87
 30
0.000000
  1
388
  0
POINT
  5
7EE7
  8
DEFPOINTS
  6
CONTINUOUS
 62
     0
 10
1893.9879219999989
 20
2655.1263479999998
 30
0.0
  0
POINT
  5
7EE8
  8
DEFPOINTS
  6
CONTINUOUS
 62
     0
 10
1505.987922
 20
2864.1117097354818
 30
0.0
  0
POINT
  5
7EE9
  8
DEFPOINTS
  6
CONTINUOUS
 62
     0
 10
1505.987922
 20
2881.0747280000001
 30
0.0
  0
ENDBLK
  5
7E7E
  8
0
  0
BLOCK
  8
0
  2
*D3
 70
     1
 10
0.0
 20
0.0
 30
0.0
  3
*D3
  1

  0
LINE
  5
7EEA
  8
3
  6
CONTINUOUS
 62
     0
 10
1205.987922
 20
2635.1263479999998
 30
0.0
 11
1205.987922
 21
2901.0747280000001
 31
0.0
  0
LINE
  5
7EEB
  8
3
  6
CONTINUOUS
 62
     0
 10
1465.987922
 20
2881.0747280000001
 30
0.0
 11
1245.987922
 21
2881.0747280000001
 31
0.0
  0
INSERT
  5
7EEC
  8
3
  6
CONTINUOUS
 62
     0
  2
_OPEN
 10
1505.987922
 20
2881.0747280000001
 30
0.0
 41
40.0
 42
40.0
 43
40.0
  0
INSERT
  5
7EED
  8
3
  6
CONTINUOUS
 62
     0
  2
_OPEN
 10
1205.987922
 20
2881.0747280000001
 30
0.0
 41
40.0
 42
40.0
 43
40.0
 50
180.0
  0
TEXT
  8
3
  40
60
  5
7F69
  62
0
  72
0
  71
0
 10
1235.99
 20
2824.87
 30
0.000000
  1
300
  0
POINT
  5
7EEF
  8
DEFPOINTS
  6
CONTINUOUS
 62
     0
 10
1505.987922
 20
2883.2550900000001
 30
0.0
  0
POINT
  5
7EF0
  8
DEFPOINTS
  6
CONTINUOUS
 62
     0
 10
1205.987922
 20
2625.1263479999998
 30
0.0
  0
POINT
  5
7EF1
  8
DEFPOINTS
  6
CONTINUOUS
 62
     0
 10
1205.987922
 20
2881.0747280000001
 30
0.0
  0
ENDBLK
  5
7CB6
  8
0
  0
BLOCK
  8
0
  2
*D4
 70
     1
 10
0.0
 20
0.0
 30
0.0
  3
*D4
  1

  0
LINE
  5
7EF2
  8
3
  6
CONTINUOUS
 62
     0
 10
1456.987922
 20
2655.1263479999998
 30
0.0
 11
1069.2268859999999
 21
2655.1263479999998
 31
0.0
  0
LINE
  5
7EF3
  8
3
  6
CONTINUOUS
 62
     0
 10
1105.598421529339
 20
2355.1263479999998
 30
0.0
 11
1069.2268859999999
 21
2355.1263479999998
 31
0.0
  0
LINE
  5
7EF4
  8
3
  6
CONTINUOUS
 62
     0
 10
1089.2268859999999
 20
2695.1263479999998
 30
0.0
 11
1089.2268859999999
 21
2735.1263479999998
 31
0.0
  0
LINE
  5
7EF5
  8
3
  6
CONTINUOUS
 62
     0
 10
1089.2268859999999
 20
2315.1263479999998
 30
0.0
 11
1089.2268859999999
 21
2275.1263479999998
 31
0.0
  0
LINE
  5
7EF6
  8
3
  6
CONTINUOUS
 62
     0
 10
1089.2268859999999
 20
2655.1263479999998
 30
0.0
 11
1089.2268859999999
 21
2355.1263479999998
 31
0.0
  0
INSERT
  5
7EF7
  8
3
  6
CONTINUOUS
 62
     0
  2
_OPEN
 10
1089.2268859999999
 20
2655.1263479999998
 30
0.0
 41
40.0
 42
40.0
 43
40.0
 50
270.0
  0
INSERT
  5
7EF8
  8
3
  6
CONTINUOUS
 62
     0
  2
_OPEN
 10
1089.2268859999999
 20
2355.1263479999998
 30
0.0
 41
40.0
 42
40.0
 43
40.0
 50
90.0
  0
TEXT
  8
3
  40
60
  5
7F6A
  62
0
  72
0
  71
0
 10
919.227
 20
2386.07
 30
0.000000
  1
300
  0
POINT
  5
7EFA
  8
DEFPOINTS
  6
CONTINUOUS
 62
     0
 10
1466.987922
 20
2655.1263479999998
 30
0.0
  0
POINT
  5
7EFB
  8
DEFPOINTS
  6
CONTINUOUS
 62
     0
 10
1115.598421529339
 20
2355.1263479999998
 30
0.0
  0
POINT
  5
7EFC
  8
DEFPOINTS
  6
CONTINUOUS
 62
     0
 10
1089.2268859999999
 20
2355.1263479999998
 30
0.0
  0
ENDBLK
  5
7EAB
  8
0
  0
BLOCK
  8
0
  2
*D5
 70
     1
 10
0.0
 20
0.0
 30
0.0
  3
*D5
  1

  0
LINE
  5
7EFD
  8
3
  6
CONTINUOUS
 62
     0
 10
1235.987922
 20
1935.126348
 30
0.0
 11
1069.226885999999
 21
1935.126348
 31
0.0
  0
LINE
  5
7EFE
  8
3
  6
CONTINUOUS
 62
     0
 10
1089.2268859999999
 20
2315.1263479999998
 30
0.0
 11
1089.2268859999999
 21
1975.126348
 31
0.0
  0
INSERT
  5
7EFF
  8
3
  6
CONTINUOUS
 62
     0
  2
_OPEN
 10
1089.2268859999999
 20
2355.1263479999998
 30
0.0
 41
40.0
 42
40.0
 43
40.0
 50
90.0
  0
INSERT
  5
7F00
  8
3
  6
CONTINUOUS
 62
     0
  2
_OPEN
 10
1089.2268859999999
 20
1935.126348
 30
0.0
 41
40.0
 42
40.0
 43
40.0
 50
270.0
  0
TEXT
  8
3
  40
60
  5
7F6B
  62
0
  72
0
  71
0
 10
919.227
 20
2038.93
 30
0.000000
  1
420
  0
POINT
  5
7F02
  8
DEFPOINTS
  6
CONTINUOUS
 62
     0
 10
1115.598421529339
 20
2355.1263479999998
 30
0.0
  0
POINT
  5
7F03
  8
DEFPOINTS
  6
CONTINUOUS
 62
     0
 10
1245.987922
 20
1935.126348
 30
0.0
  0
POINT
  5
7F04
  8
DEFPOINTS
  6
CONTINUOUS
 62
     0
 10
1089.2268859999999
 20
1935.126348
 30
0.0
  0
ENDBLK
  5
7EB5
  8
0
  0
BLOCK
  8
0
  2
*D6
 70
     1
 10
0.0
 20
0.0
 30
0.0
  3
*D6
  1

  0
LINE
  5
7F05
  8
3
  6
CONTINUOUS
 62
     0
 10
1235.987922
 20
1935.126348
 30
0.0
 11
1069.234222
 21
1935.126348
 31
0.0
  0
LINE
  5
7F06
  8
3
  6
CONTINUOUS
 62
     0
 10
1235.987922
 20
1895.126348
 30
0.0
 11
1069.234222
 21
1895.126348
 31
0.0
  0
LINE
  5
7F07
  8
3
  6
CONTINUOUS
 62
     0
 10
1089.234222
 20
1975.126348
 30
0.0
 11
1089.234222
 21
2015.126348
 31
0.0
  0
LINE
  5
7F08
  8
3
  6
CONTINUOUS
 62
     0
 10
1089.234222
 20
1855.1263479999991
 30
0.0
 11
1089.234222
 21
1677.9834908571429
 31
0.0
  0
LINE
  5
7F09
  8
3
  6
CONTINUOUS
 62
     0
 10
1089.234222
 20
1935.126348
 30
0.0
 11
1089.234222
 21
1895.126348
 31
0.0
  0
INSERT
  5
7F0A
  8
3
  6
CONTINUOUS
 62
     0
  2
_OPEN
 10
1089.234222
 20
1935.126348
 30
0.0
 41
40.0
 42
40.0
 43
40.0
 50
270.0
  0
INSERT
  5
7F0B
  8
3
  6
CONTINUOUS
 62
     0
  2
_OPEN
 10
1089.234222
 20
1895.126348
 30
0.0
 41
40.0
 42
40.0
 43
40.0
 50
90.0
  0
TEXT
  8
3
  40
60
  5
7F6C
  62
0
  72
0
  71
0
 10
919.234
 20
1640.35
 30
0.000000
  1
40
  0
POINT
  5
7F0D
  8
DEFPOINTS
  6
CONTINUOUS
 62
     0
 10
1245.987922
 20
1935.126348
 30
0.0
  0
POINT
  5
7F0E
  8
DEFPOINTS
  6
CONTINUOUS
 62
     0
 10
1245.987922
 20
1895.126348
 30
0.0
  0
POINT
  5
7F0F
  8
DEFPOINTS
  6
CONTINUOUS
 62
     0
 10
1089.234222
 20
1895.126348
 30
0.0
  0
ENDBLK
  5
7DF0
  8
0
  0
BLOCK
  8
0
  2
*D7
 70
     1
 10
0.0
 20
0.0
 30
0.0
  3
*D7
  1

  0
LINE
  5
7F10
  8
3
  6
CONTINUOUS
 62
     0
 10
1446.987922
 20
2655.1263479999998
 30
0.0
 11
937.09550400000035
 21
2655.1263479999998
 31
0.0
  0
LINE
  5
7F11
  8
3
  6
CONTINUOUS
 62
     0
 10
1235.987922
 20
1895.126348
 30
0.0
 11
937.09550400000012
 21
1895.126348
 31
0.0
  0
LINE
  5
7F12
  8
3
  6
CONTINUOUS
 62
     0
 10
957.09550400000023
 20
2615.1263479999998
 30
0.0
 11
957.09550400000023
 21
1935.126348
 31
0.0
  0
INSERT
  5
7F13
  8
3
  6
CONTINUOUS
 62
     0
  2
_OPEN
 10
957.09550400000023
 20
2655.1263479999998
 30
0.0
 41
40.0
 42
40.0
 43
40.0
 50
90.0
  0
INSERT
  5
7F14
  8
3
  6
CONTINUOUS
 62
     0
  2
_OPEN
 10
957.09550400000023
 20
1895.126348
 30
0.0
 41
40.0
 42
40.0
 43
40.0
 50
270.0
  0
TEXT
  8
3
  40
60
  5
7F6D
  62
0
  72
0
  71
0
 10
787.096
 20
2174.31
 30
0.000000
  1
760
  0
POINT
  5
7F16
  8
DEFPOINTS
  6
CONTINUOUS
 62
     0
 10
1456.987922
 20
2655.1263479999998
 30
0.0
  0
POINT
  5
7F17
  8
DEFPOINTS
  6
CONTINUOUS
 62
     0
 10
1245.987922
 20
1895.126348
 30
0.0
  0
POINT
  5
7F18
  8
DEFPOINTS
  6
CONTINUOUS
 62
     0
 10
957.09550400000023
 20
1895.126348
 30
0.0
  0
ENDBLK
  5
7CFA
  8
0
  0
BLOCK
  8
0
  2
*D8
 70
     1
 10
0.0
 20
0.0
 30
0.0
  3
*D8
  1

  0
LINE
  5
7E6A
  8
0
  6
BYBLOCK
 62
     0
 10
1245.987922
 20
1885.126348
 30
0.0
 11
1245.987922
 21
1740.836158999999
 31
0.0
  0
LINE
  5
7E6B
  8
0
  6
BYBLOCK
 62
     0
 10
1505.987922
 20
1769.613144621263
 30
0.0
 11
1505.987922
 21
1740.836158999999
 31
0.0
  0
LINE
  5
7E6C
  8
0
  6
BYBLOCK
 62
     0
 10
1285.987922
 20
1760.836159
 30
0.0
 11
1465.987922
 21
1760.836159
 31
0.0
  0
TEXT
  5
7E6D
  8
3
 62
     0
 10
1298.8450648571429
 20
1788.865539296221
 30
0.0
 40
60.0
  1
260
  0
INSERT
  5
7E6E
  8
0
  6
BYBLOCK
 62
     0
  2
_OPEN
 10
1245.987922
 20
1760.836159
 30
0.0
 41
40.0
 42
40.0
 43
40.0
 50
180.0
  0
INSERT
  5
7E6F
  8
0
  6
BYBLOCK
 62
     0
  2
_OPEN
 10
1505.987922
 20
1760.836159
 30
0.0
 41
40.0
 42
40.0
 43
40.0
  0
POINT
  5
7E70
  8
DEFPOINTS
  6
BYBLOCK
 62
     0
 10
1245.987922
 20
1895.126348
 30
0.0
  0
POINT
  5
7E71
  8
DEFPOINTS
  6
BYBLOCK
 62
     0
 10
1505.987922
 20
1779.6131446212639
 30
0.0
  0
POINT
  5
7E72
  8
DEFPOINTS
  6
BYBLOCK
 62
     0
 10
1505.987922
 20
1760.836159
 30
0.0
  0
ENDBLK
  5
7E73
  8
0
  0
BLOCK
  8
0
  2
*D9
 70
     1
 10
0.0
 20
0.0
 30
0.0
  3
*D9
  1

  0
LINE
  5
7F19
  8
3
  6
CONTINUOUS
 62
     0
 10
2245.9879219999989
 20
1885.126348
 30
0.0
 11
2245.9879219999989
 21
1740.836158999999
 31
0.0
  0
LINE
  5
7F1A
  8
3
  6
CONTINUOUS
 62
     0
 10
1545.987922
 20
1760.836159
 30
0.0
 11
2205.9879219999989
 21
1760.836159
 31
0.0
  0
INSERT
  5
7F1B
  8
3
  6
CONTINUOUS
 62
     0
  2
_OPEN
 10
1505.987922
 20
1760.836159
 30
0.0
 41
40.0
 42
40.0
 43
40.0
 50
180.0
  0
INSERT
  5
7F1C
  8
3
  6
CONTINUOUS
 62
     0
  2
_OPEN
 10
2245.9879219999989
 20
1760.836159
 30
0.0
 41
40.0
 42
40.0
 43
40.0
  0
TEXT
  8
3
  40
60
  5
7F6E
  62
0
  72
0
  71
0
 10
1755.99
 20
1704.64
 30
0.000000
  1
740
  0
POINT
  5
7F1E
  8
DEFPOINTS
  6
CONTINUOUS
 62
     0
 10
1505.987922
 20
1779.6131446212639
 30
0.0
  0
POINT
  5
7F1F
  8
DEFPOINTS
  6
CONTINUOUS
 62
     0
 10
2245.9879219999989
 20
1895.126348
 30
0.0
  0
POINT
  5
7F20
  8
DEFPOINTS
  6
CONTINUOUS
 62
     0
 10
2245.9879219999989
 20
1760.836159
 30
0.0
  0
ENDBLK
  5
7E68
  8
0
  0
BLOCK
  8
0
  2
*D10
 70
     1
 10
0.0
 20
0.0
 30
0.0
  3
*D10
  1

  0
LINE
  5
7F21
  8
3
  6
CONTINUOUS
 62
     0
 10
2998.6266099999998
 20
1885.126348
 30
0.0
 11
2998.6266099999998
 21
1718.7926210000001
 31
0.0
  0
LINE
  5
7F22
  8
3
  6
CONTINUOUS
 62
     0
 10
3334.6266099999998
 20
1749.497822371331
 30
0.0
 11
3334.6266099999998
 21
1718.7926210000001
 31
0.0
  0
LINE
  5
7F23
  8
3
  6
CONTINUOUS
 62
     0
 10
3038.6266099999998
 20
1738.7926209999989
 30
0.0
 11
3294.6266099999998
 21
1738.7926209999989
 31
0.0
  0
INSERT
  5
7F24
  8
3
  6
CONTINUOUS
 62
     0
  2
_OPEN
 10
2998.6266099999998
 20
1738.7926209999989
 30
0.0
 41
40.0
 42
40.0
 43
40.0
 50
180.0
  0
INSERT
  5
7F25
  8
3
  6
CONTINUOUS
 62
     0
  2
_OPEN
 10
3334.6266099999998
 20
1738.7926209999989
 30
0.0
 41
40.0
 42
40.0
 43
40.0
  0
TEXT
  8
3
  40
60
  5
7F6F
  62
0
  72
0
  71
0
 10
3048.11
 20
1682.59
 30
0.000000
  1
336
  0
POINT
  5
7F27
  8
DEFPOINTS
  6
CONTINUOUS
 62
     0
 10
2998.6266099999998
 20
1895.126348
 30
0.0
  0
POINT
  5
7F28
  8
DEFPOINTS
  6
CONTINUOUS
 62
     0
 10
3334.6266099999998
 20
1759.497822371331
 30
0.0
  0
POINT
  5
7F29
  8
DEFPOINTS
  6
CONTINUOUS
 62
     0
 10
3334.6266099999998
 20
1738.7926209999989
 30
0.0
  0
ENDBLK
  5
7E5E
  8
0
  0
BLOCK
  8
0
  2
*D11
 70
     1
 10
0.0
 20
0.0
 30
0.0
  3
*D11
  1

  0
LINE
  5
7F2A
  8
3
  6
CONTINUOUS
 62
     0
 10
3608.6266099999998
 20
1885.126348
 30
0.0
 11
3608.6266099999998
 21
1718.7926210000001
 31
0.0
  0
LINE
  5
7F2B
  8
3
  6
CONTINUOUS
 62
     0
 10
3374.6266099999989
 20
1738.7926209999989
 30
0.0
 11
3568.6266099999998
 21
1738.7926209999989
 31
0.0
  0
TEXT
  8
3
  40
60
  5
7F70
  62
0
  72
0
  71
0
 10
3366.23
 20
1681.50
 30
0.000000
  1
274
  0
INSERT
  5
7F2D
  8
3
  6
CONTINUOUS
 62
     0
  2
_OPEN
 10
3334.6266099999998
 20
1738.7926209999989
 30
0.0
 41
40.0
 42
40.0
 43
40.0
 50
180.0
  0
INSERT
  5
7F2E
  8
3
  6
CONTINUOUS
 62
     0
  2
_OPEN
 10
3608.6266099999998
 20
1738.7926209999989
 30
0.0
 41
40.0
 42
40.0
 43
40.0
  0
POINT
  5
7F2F
  8
DEFPOINTS
  6
CONTINUOUS
 62
     0
 10
3334.6266099999998
 20
1760.419159390603
 30
0.0
  0
POINT
  5
7F30
  8
DEFPOINTS
  6
CONTINUOUS
 62
     0
 10
3608.6266099999998
 20
1895.126348
 30
0.0
  0
POINT
  5
7F31
  8
DEFPOINTS
  6
CONTINUOUS
 62
     0
 10
3608.6266099999998
 20
1738.7926209999989
 30
0.0
  0
ENDBLK
  5
7E53
  8
0
  0
BLOCK
  8
0
  2
*D12
 70
     1
 10
0.0
 20
0.0
 30
0.0
  3
*D12
  1

  0
LINE
  5
7F32
  8
3
  6
CONTINUOUS
 62
     0
 10
3484.6266099999998
 20
2665.1263479999998
 30
0.0
 11
3484.6266099999998
 21
2719.604444043403
 31
0.0
  0
LINE
  5
7F33
  8
3
  6
CONTINUOUS
 62
     0
 10
3184.6266099999998
 20
2665.1263479999998
 30
0.0
 11
3184.6266099999998
 21
2719.604444043403
 31
0.0
  0
LINE
  5
7F34
  8
3
  6
CONTINUOUS
 62
     0
 10
3444.6266099999998
 20
2699.604444043403
 30
0.0
 11
3224.6266099999998
 21
2699.604444043403
 31
0.0
  0
INSERT
  5
7F35
  8
3
  6
CONTINUOUS
 62
     0
  2
_OPEN
 10
3484.6266099999998
 20
2699.604444043403
 30
0.0
 41
40.0
 42
40.0
 43
40.0
  0
INSERT
  5
7F36
  8
3
  6
CONTINUOUS
 62
     0
  2
_OPEN
 10
3184.6266099999998
 20
2699.604444043403
 30
0.0
 41
40.0
 42
40.0
 43
40.0
 50
180.0
  0
TEXT
  8
3
  40
60
  5
7F71
  62
0
  72
0
  71
0
 10
3201.77
 20
2643.40
 30
0.000000
  1
300
  0
POINT
  5
7F38
  8
DEFPOINTS
  6
CONTINUOUS
 62
     0
 10
3484.6266099999998
 20
2655.1263479999998
 30
0.0
  0
POINT
  5
7F39
  8
DEFPOINTS
  6
CONTINUOUS
 62
     0
 10
3184.6266099999998
 20
2655.1263479999998
 30
0.0
  0
POINT
  5
7F3A
  8
DEFPOINTS
  6
CONTINUOUS
 62
     0
 10
3184.6266099999998
 20
2699.604444043403
 30
0.0
  0
ENDBLK
  5
7E33
  8
0
  0
BLOCK
  8
0
  2
*D13
 70
     1
 10
0.0
 20
0.0
 30
0.0
  3
*D13
  1

  0
LINE
  5
7F3B
  8
3
  6
CONTINUOUS
 62
     0
 10
3004.6266099999998
 20
2680.1263479999998
 30
0.0
 11
3004.6266099999998
 21
2865.987329
 31
0.0
  0
LINE
  5
7F3C
  8
3
  6
CONTINUOUS
 62
     0
 10
3294.6266099999998
 20
2845.987329
 30
0.0
 11
3044.6266099999998
 21
2845.987329
 31
0.0
  0
INSERT
  5
7F3D
  8
3
  6
CONTINUOUS
 62
     0
  2
_OPEN
 10
3334.6266099999998
 20
2845.987329
 30
0.0
 41
40.0
 42
40.0
 43
40.0
  0
INSERT
  5
7F3E
  8
3
  6
CONTINUOUS
 62
     0
  2
_OPEN
 10
3004.6266099999998
 20
2845.987329
 30
0.0
 41
40.0
 42
40.0
 43
40.0
 50
180.0
  0
TEXT
  8
3
  40
60
  5
7F72
  62
0
  72
0
  71
0
 10
3049.63
 20
2839.79
 30
0.000000
  1
MAX
  0
TEXT
  8
3
  40
60
  5
7F73
  62
0
  72
0
  71
0
 10
3049.63
 20
2761.79
 30
0.000000
  1
380
  0
POINT
  5
7F40
  8
DEFPOINTS
  6
CONTINUOUS
 62
     0
 10
3334.6266099999998
 20
2752.2456499999998
 30
0.0
  0
POINT
  5
7F41
  8
DEFPOINTS
  6
CONTINUOUS
 62
     0
 10
3004.6266099999998
 20
2670.1263479999998
 30
0.0
  0
POINT
  5
7F42
  8
DEFPOINTS
  6
CONTINUOUS
 62
     0
 10
3004.6266099999998
 20
2845.987329
 30
0.0
  0
ENDBLK
  5
7E88
  8
0
  0
BLOCK
  8
0
  2
*D14
 70
     1
 10
0.0
 20
0.0
 30
0.0
  3
*D14
  1

  0
LINE
  5
7F43
  8
3
  6
CONTINUOUS
 62
     0
 10
3494.6266099999998
 20
2570.1263479999998
 30
0.0
 11
3671.85861957417
 21
2570.1263479999998
 31
0.0
  0
LINE
  5
7F44
  8
3
  6
CONTINUOUS
 62
     0
 10
3494.6266099999998
 20
2140.1263479999998
 30
0.0
 11
3671.85861957417
 21
2140.1263479999998
 31
0.0
  0
LINE
  5
7F45
  8
3
  6
CONTINUOUS
 62
     0
 10
3651.85861957417
 20
2530.1263479999998
 30
0.0
 11
3651.85861957417
 21
2180.1263479999998
 31
0.0
  0
INSERT
  5
7F46
  8
3
  6
CONTINUOUS
 62
     0
  2
_OPEN
 10
3651.85861957417
 20
2570.1263479999998
 30
0.0
 41
40.0
 42
40.0
 43
40.0
 50
90.0
  0
INSERT
  5
7F47
  8
3
  6
CONTINUOUS
 62
     0
  2
_OPEN
 10
3651.85861957417
 20
2140.1263479999998
 30
0.0
 41
40.0
 42
40.0
 43
40.0
 50
270.0
  0
TEXT
  8
3
  40
60
  5
7F74
  62
0
  72
0
  71
0
 10
3481.86
 20
2243.48
 30
0.000000
  1
φ430
  0
POINT
  5
7F49
  8
DEFPOINTS
  6
CONTINUOUS
 62
     0
 10
3484.6266099999998
 20
2570.1263479999998
 30
0.0
  0
POINT
  5
7F4A
  8
DEFPOINTS
  6
CONTINUOUS
 62
     0
 10
3484.6266099999998
 20
2140.1263479999998
 30
0.0
  0
POINT
  5
7F4B
  8
DEFPOINTS
  6
CONTINUOUS
 62
     0
 10
3651.85861957417
 20
2140.1263479999998
 30
0.0
  0
ENDBLK
  5
7E49
  8
0
  0
BLOCK
  8
0
  2
*D15
 70
     1
 10
0.0
 20
0.0
 30
0.0
  3
*D15
  1

  0
LINE
  5
7F4C
  8
3
  6
CONTINUOUS
 62
     0
 10
1245.987922
 20
4003.8963480000002
 30
0.0
 11
1245.987922
 21
4101.068804999999
 31
0.0
  0
LINE
  5
7F4D
  8
3
  6
CONTINUOUS
 62
     0
 10
2245.9879219999989
 20
4003.8963480000002
 30
0.0
 11
2245.9879219999989
 21
4101.068804999999
 31
0.0
  0
LINE
  5
7F4E
  8
3
  6
CONTINUOUS
 62
     0
 10
1285.987922
 20
4081.0688049999999
 30
0.0
 11
2205.9879219999989
 21
4081.0688049999999
 31
0.0
  0
INSERT
  5
7F4F
  8
3
  6
CONTINUOUS
 62
     0
  2
_OPEN
 10
1245.987922
 20
4081.0688049999999
 30
0.0
 41
40.0
 42
40.0
 43
40.0
 50
180.0
  0
INSERT
  5
7F50
  8
3
  6
CONTINUOUS
 62
     0
  2
_OPEN
 10
2245.9879219999989
 20
4081.0688049999999
 30
0.0
 41
40.0
 42
40.0
 43
40.0
  0
TEXT
  8
3
  40
60
  5
7F75
  62
0
  72
0
  71
0
 10
1587.42
 20
4024.87
 30
0.000000
  1
1000
  0
POINT
  5
7F52
  8
DEFPOINTS
  6
CONTINUOUS
 62
     0
 10
1245.987922
 20
3993.8963479999989
 30
0.0
  0
POINT
  5
7F53
  8
DEFPOINTS
  6
CONTINUOUS
 62
     0
 10
2245.9879219999989
 20
3993.8963479999989
 30
0.0
  0
POINT
  5
7F54
  8
DEFPOINTS
  6
CONTINUOUS
 62
     0
 10
2245.9879219999989
 20
4081.0688049999999
 30
0.0
  0
ENDBLK
  5
7D1F
  8
0
  0
BLOCK
  8
0
  2
*D16
 70
     1
 10
0.0
 20
0.0
 30
0.0
  3
*D16
  1

  0
LINE
  5
7F55
  8
3
  6
CONTINUOUS
 62
     0
 10
2255.9879219999998
 20
3993.8963479999989
 30
0.0
 11
2442.6792690000011
 21
3993.8963479999989
 31
0.0
  0
LINE
  5
7F56
  8
3
  6
CONTINUOUS
 62
     0
 10
2255.9879219999998
 20
3383.8963479999989
 30
0.0
 11
2442.6792690000011
 21
3383.8963479999989
 31
0.0
  0
LINE
  5
7F57
  8
3
  6
CONTINUOUS
 62
     0
 10
2422.6792690000011
 20
3953.8963480000002
 30
0.0
 11
2422.6792690000011
 21
3423.8963479999989
 31
0.0
  0
INSERT
  5
7F58
  8
3
  6
CONTINUOUS
 62
     0
  2
_OPEN
 10
2422.6792690000011
 20
3993.8963479999989
 30
0.0
 41
40.0
 42
40.0
 43
40.0
 50
90.0
  0
INSERT
  5
7F59
  8
3
  6
CONTINUOUS
 62
     0
  2
_OPEN
 10
2422.6792690000011
 20
3383.8963479999989
 30
0.0
 41
40.0
 42
40.0
 43
40.0
 50
270.0
  0
TEXT
  8
3
  40
60
  5
7F76
  62
0
  72
0
  71
0
 10
2252.68
 20
3596.53
 30
0.000000
  1
610
  0
POINT
  5
7F5B
  8
DEFPOINTS
  6
CONTINUOUS
 62
     0
 10
2245.9879219999989
 20
3993.8963479999989
 30
0.0
  0
POINT
  5
7F5C
  8
DEFPOINTS
  6
CONTINUOUS
 62
     0
 10
2245.9879219999989
 20
3383.8963479999989
 30
0.0
  0
POINT
  5
7F5D
  8
DEFPOINTS
  6
CONTINUOUS
 62
     0
 10
2422.6792690000011
 20
3383.8963479999989
 30
0.0
  0
ENDBLK
  5
7D2A
  8
0
  0
BLOCK
  8
0
  2
*D17
 70
     1
 10
0.0
 20
0.0
 30
0.0
  3
*D17
  1

  0
LINE
  5
7E35
  8
0
  6
BYBLOCK
 62
     0
 10
3335.1012613960079
 20
2808.7129819434899
 30
0.0
 11
3335.1012613960079
 21
2865.987329
 31
0.0
  0
LINE
  5
7E36
  8
0
  6
BYBLOCK
 62
     0
 10
3485.6266099999998
 20
2580.1263479999998
 30
0.0
 11
3485.6266099999998
 21
2865.987329
 31
0.0
  0
LINE
  5
7E37
  8
0
  6
BYBLOCK
 62
     0
 10
3375.1012613960079
 20
2845.987329
 30
0.0
 11
3445.6266099999998
 21
2845.987329
 31
0.0
  0
TEXT
  5
7E38
  8
3
 62
     0
 10
3342.2273740678129
 20
2865.2472783630742
 30
0.0
 40
60.0
  1
151
  0
INSERT
  5
7E39
  8
0
  6
BYBLOCK
 62
     0
  2
_OPEN
 10
3335.1012613960079
 20
2845.987329
 30
0.0
 41
40.0
 42
40.0
 43
40.0
 50
180.0
  0
INSERT
  5
7E3A
  8
0
  6
BYBLOCK
 62
     0
  2
_OPEN
 10
3485.6266099999998
 20
2845.987329
 30
0.0
 41
40.0
 42
40.0
 43
40.0
  0
POINT
  5
7E3B
  8
DEFPOINTS
  6
BYBLOCK
 62
     0
 10
3335.1012613960079
 20
2798.7129819434899
 30
0.0
  0
POINT
  5
7E3C
  8
DEFPOINTS
  6
BYBLOCK
 62
     0
 10
3485.6266099999998
 20
2570.1263479999998
 30
0.0
  0
POINT
  5
7E3D
  8
DEFPOINTS
  6
BYBLOCK
 62
     0
 10
3485.6266099999998
 20
2845.987329
 30
0.0
  0
ENDBLK
  5
7E3E
  8
0
  0
BLOCK
  8
0
  2
*D18
 70
     1
 10
0.0
 20
0.0
 30
0.0
  3
*D18
  1

  0
LINE
  5
7F5E
  8
3
 62
     0
 10
1205.987922
 20
2635.1263479999998
 30
0.0
 11
1205.987922
 21
3027.8950053508079
 31
0.0
  0
LINE
  5
7F5F
  8
3
 62
     0
 10
2245.9879219999989
 20
2025.126348
 30
0.0
 11
2245.9879219999989
 21
3027.8950053508079
 31
0.0
  0
LINE
  5
7F60
  8
3
 62
     0
 10
1245.987922
 20
3007.8950053508088
 30
0.0
 11
2205.9879219999989
 21
3007.8950053508088
 31
0.0
  0
INSERT
  5
7F61
  8
3
 62
     0
  2
_OPEN
 10
1205.987922
 20
3007.8950053508088
 30
0.0
 41
40.0
 42
40.0
 43
40.0
 50
180.0
  0
INSERT
  5
7F62
  8
3
 62
     0
  2
_OPEN
 10
2245.9879219999989
 20
3007.8950053508088
 30
0.0
 41
40.0
 42
40.0
 43
40.0
  0
TEXT
  8
3
  40
60
  5
7F77
  62
0
  72
0
  71
0
 10
1585.34
 20
2951.70
 30
0.000000
  1
1040
  0
POINT
  5
7F64
  8
DEFPOINTS
 62
     0
 10
1205.987922
 20
2625.1263479999998
 30
0.0
  0
POINT
  5
7F65
  8
DEFPOINTS
 62
     0
 10
2245.9879219999989
 20
2015.126348
 30
0.0
  0
POINT
  5
7F66
  8
DEFPOINTS
 62
     0
 10
2245.9879219999989
 20
3007.8950053508088
 30
0.0
  0
ENDBLK
  5
7EA0
  8
0
  0
ENDSEC
  0
SECTION
  2
ENTITIES
  0
LINE
  5
7ABE
  8
1
  6
CONTINUOUS
 10
2245.9879219999989
 20
2015.126348
 30
0.0
 11
1205.987922
 21
2015.126348
 31
0.0
  0
LINE
  5
7ABF
  8
1
  6
CONTINUOUS
 10
2097.8579219999988
 20
3464.8963479999989
 30
0.0
 11
1977.8579219999999
 21
3464.8963479999989
 31
0.0
  0
LINE
  5
7AC0
  8
1
  6
CONTINUOUS
 10
2097.8579219999988
 20
3414.8963480000002
 30
0.0
 11
1977.8579219999999
 21
3414.8963480000002
 31
0.0
  0
LINE
  5
7AC1
  8
1
  6
CONTINUOUS
 10
2200.4879219999998
 20
3489.8963480000002
 30
0.0
 11
1330.487922
 21
3489.8963480000002
 31
0.0
  0
LINE
  5
7AC2
  8
1
  6
CONTINUOUS
 10
2200.4879219999998
 20
3389.8963480000002
 30
0.0
 11
1330.487922
 21
3389.8963480000002
 31
0.0
  0
LINE
  5
7AC3
  8
1
  6
CONTINUOUS
 10
1245.987922
 20
3913.8963480000002
 30
0.0
 11
2245.9879219999989
 21
3913.8963480000002
 31
0.0
  0
LINE
  5
7AC4
  8
1
  6
CONTINUOUS
 10
1936.8579219999999
 20
3556.6163479999991
 30
0.0
 11
2138.8579219999988
 21
3556.6163479999991
 31
0.0
  0
LINE
  5
7AC5
  8
1
  6
CONTINUOUS
 10
1936.8579219999999
 20
3799.2963479999999
 30
0.0
 11
2138.8579219999988
 21
3799.2963479999999
 31
0.0
  0
LINE
  5
7AC6
  8
1
  6
CONTINUOUS
 10
1520.487922
 20
2670.1263479999998
 30
0.0
 11
2200.4879219999998
 21
2265.1263479999998
 31
0.0
  0
CIRCLE
  5
7AC7
  8
1
  6
CONTINUOUS
 10
2037.8579219999999
 20
2140.1263479999998
 30
0.0
 40
60.0
  0
ARC
  5
7AC8
  8
1
  6
CONTINUOUS
 10
2037.8579219999999
 20
2140.1263479999998
 30
0.0
 40
101.0
 50
322.88
 51
217.12
  0
LINE
  5
7AC9
  8
2
  6
CENTER
 10
2097.8579219999988
 20
2140.1263479999998
 30
0.0
 11
1977.8579219999999
 21
2140.1263479999998
 31
0.0
  0
LINE
  5
7ACA
  8
1
  6
CONTINUOUS
 10
1245.987922
 20
1935.126348
 30
0.0
 11
2245.9879219999989
 21
1935.126348
 31
0.0
  0
LINE
  5
7ACB
  8
1
  6
CONTINUOUS
 10
1519.987922
 20
3525.8963479999989
 30
0.0
 11
2023.857921999999
 21
3525.8963479999989
 31
0.0
  0
LINE
  5
7ACC
  8
1
  6
CONTINUOUS
 10
2064.1679220000001
 20
2194.0463479999999
 30
0.0
 11
1549.8379219999999
 21
2444.9963480000001
 31
0.0
  0
LINE
  5
7ACD
  8
1
  6
CONTINUOUS
 10
1475.067922
 20
2260.026347999999
 30
0.0
 11
2019.297922
 21
2083.0663479999998
 31
0.0
  0
CIRCLE
  5
7ACE
  8
1
  6
CONTINUOUS
 10
1505.987922
 20
2355.1263479999998
 30
0.0
 40
240.0
  0
ARC
  5
7ACF
  8
1
  6
CONTINUOUS
 10
1527.987922
 20
2333.1263479999998
 30
0.0
 40
310.75999999999999
 50
172.69
 51
264.17000000000002
  0
ARC
  5
7AD0
  8
1
  6
CONTINUOUS
 10
1488.987922
 20
2338.1263479999998
 30
0.0
 40
271.43999999999988
 50
88.939999999999998
 51
172.69
  0
LINE
  5
7AD1
  8
1
  6
CONTINUOUS
 10
1805.9879219999989
 20
2625.1263479999998
 30
0.0
 11
1205.987922
 21
2625.1263479999998
 31
0.0
  0
LINE
  5
7AD2
  8
1
  6
CONTINUOUS
 10
1330.487922
 20
2555.1263479999998
 30
0.0
 11
1520.487922
 21
2670.1263479999998
 31
0.0
  0
CIRCLE
  5
7AD3
  8
1
  6
CONTINUOUS
 10
1505.987922
 20
2355.1263479999998
 30
0.0
 40
215.0
  0
LINE
  5
7AD4
  8
1
  6
CONTINUOUS
 10
1205.987922
 20
2625.1263479999998
 30
0.0
 11
1205.987922
 21
2015.126348
 31
0.0
  0
LINE
  5
7AD5
  8
1
  6
CONTINUOUS
 10
1330.487922
 20
2015.126348
 30
0.0
 11
1330.487922
 21
2555.1263479999998
 31
0.0
  0
LINE
  5
7AD6
  8
1
  6
CONTINUOUS
 10
1245.987922
 20
2015.126348
 30
0.0
 11
1245.987922
 21
1895.126348
 31
0.0
  0
LINE
  5
7AD7
  8
1
  6
CONTINUOUS
 10
1245.987922
 20
1895.126348
 30
0.0
 11
1285.987922
 21
1895.126348
 31
0.0
  0
LINE
  5
7AD8
  8
1
  6
CONTINUOUS
 10
1285.987922
 20
1935.126348
 30
0.0
 11
1285.987922
 21
1895.126348
 31
0.0
  0
LINE
  5
7AD9
  8
2
  6
CENTER
 10
1505.987922
 20
4090.953771
 30
0.0
 11
1505.987922
 21
3268.594599
 31
0.0
  0
ARC
  5
7ADA
  8
1
  6
CONTINUOUS
 10
1532.987922
 20
2382.1263479999998
 30
0.0
 40
360.00999999999988
 50
264.17000000000002
 51
355.69999999999987
  0
LINE
  5
7ADB
  8
1
  6
CONTINUOUS
 10
1805.9879219999989
 20
2625.1263479999998
 30
0.0
 11
1805.9879219999989
 21
2015.126348
 31
0.0
  0
CIRCLE
  5
7ADC
  8
1
  6
CONTINUOUS
 10
1505.987922
 20
2355.1263479999998
 30
0.0
 40
100.0
  0
LINE
  5
7ADD
  8
1
  6
CONTINUOUS
 10
1937.8579219999999
 20
2052.1263479999998
 30
0.0
 11
1957.317922
 21
2079.1663480000002
 31
0.0
  0
LINE
  5
7ADE
  8
1
  6
CONTINUOUS
 10
1937.8579219999999
 20
2015.126348
 30
0.0
 11
1937.8579219999999
 21
2052.1263479999998
 31
0.0
  0
LINE
  5
7ADF
  8
1
  6
CONTINUOUS
 10
1466.987922
 20
2655.1263479999998
 30
0.0
 11
1920.9879219999989
 21
2655.1263479999998
 31
0.0
  0
LINE
  5
7AE0
  8
1
  6
CONTINUOUS
 10
1493.987922
 20
2635.1263479999998
 30
0.0
 11
1893.8579219999999
 21
2635.1263479999998
 31
0.0
  0
LINE
  5
7AE1
  8
2
  6
CENTER
 10
3546.9160029999998
 20
2355.1263479999998
 30
0.0
 11
2946.3518106699589
 21
2355.1263479999998
 31
0.0
  0
LINE
  5
7AE2
  8
1
  6
CONTINUOUS
 10
1493.987922
 20
2609.5163480000001
 30
0.0
 11
1493.987922
 21
2655.1263479999998
 31
0.0
  0
LINE
  5
7AE3
  8
1
  6
CONTINUOUS
 10
1893.9879219999989
 20
2655.1263479999998
 30
0.0
 11
1891.987922
 21
2355.1263479999998
 31
0.0
  0
LINE
  5
7AE4
  8
1
  6
CONTINUOUS
 10
1245.987922
 20
3525.8963479999989
 30
0.0
 11
1491.987922
 21
3525.8963479999989
 31
0.0
  0
LINE
  5
7AE5
  8
1
  6
CONTINUOUS
 10
1895.057922
 20
3869.8963479999989
 30
0.0
 11
1205.987922
 21
3869.8963479999989
 31
0.0
  0
LINE
  5
7AE6
  8
1
  6
CONTINUOUS
 10
1895.057922
 20
3569.8963479999989
 30
0.0
 11
1205.987922
 21
3569.8963479999989
 31
0.0
  0
LINE
  5
7AE7
  8
1
  6
CONTINUOUS
 10
1205.987922
 20
3569.8963479999989
 30
0.0
 11
1205.987922
 21
3869.8963479999989
 31
0.0
  0
LINE
  5
7AE8
  8
1
  6
CONTINUOUS
 10
1330.487922
 20
3389.8963480000002
 30
0.0
 11
1330.487922
 21
3489.8963480000002
 31
0.0
  0
LINE
  5
7AE9
  8
1
  6
CONTINUOUS
 10
1245.987922
 20
3569.8963479999989
 30
0.0
 11
1245.987922
 21
3383.8963479999989
 31
0.0
  0
LINE
  5
7AEA
  8
1
  6
CONTINUOUS
 10
1285.987922
 20
3383.8963479999989
 30
0.0
 11
1245.987922
 21
3383.8963479999989
 31
0.0
  0
LINE
  5
7AEB
  8
1
  6
CONTINUOUS
 10
1285.987922
 20
3525.8963479999989
 30
0.0
 11
1285.987922
 21
3383.8963479999989
 31
0.0
  0
LINE
  5
7AEC
  8
1
  6
CONTINUOUS
 10
1245.987922
 20
3993.8963479999989
 30
0.0
 11
1245.987922
 21
3869.8963479999989
 31
0.0
  0
LINE
  5
7AED
  8
1
  6
CONTINUOUS
 10
1285.987922
 20
3993.8963479999989
 30
0.0
 11
1285.987922
 21
3913.8963480000002
 31
0.0
  0
LINE
  5
7AEE
  8
1
  6
CONTINUOUS
 10
1285.987922
 20
3993.8963479999989
 30
0.0
 11
1245.987922
 21
3993.8963479999989
 31
0.0
  0
LINE
  5
7AEF
  8
1
  6
CONTINUOUS
 10
1895.057922
 20
3569.8963479999989
 30
0.0
 11
1495.0579219999991
 21
3869.8963479999989
 31
0.0
  0
LINE
  5
7AF0
  8
1
  6
CONTINUOUS
 10
1495.0579219999991
 20
3569.8963479999989
 30
0.0
 11
1895.057922
 21
3869.8963479999989
 31
0.0
  0
LINE
  5
7AF1
  8
1
  6
CONTINUOUS
 10
1495.0579219999991
 20
3569.8963479999989
 30
0.0
 11
1495.0579219999991
 21
3869.8963479999989
 31
0.0
  0
LINE
  5
7AF2
  8
1
  6
CONTINUOUS
 10
1607.747922
 20
3464.8963479999989
 30
0.0
 11
1404.227922
 21
3464.8963479999989
 31
0.0
  0
LINE
  5
7AF3
  8
1
  6
CONTINUOUS
 10
1607.747922
 20
3414.8963480000002
 30
0.0
 11
1404.227922
 21
3414.8963480000002
 31
0.0
  0
LINE
  5
7AF4
  8
1
  6
CONTINUOUS
 10
1490.217922
 20
3464.8963479999989
 30
0.0
 11
1490.217922
 21
3569.8963479999989
 31
0.0
  0
LINE
  5
7AF5
  8
1
  6
CONTINUOUS
 10
1518.217922
 20
3464.8963479999989
 30
0.0
 11
1518.217922
 21
3569.8963479999989
 31
0.0
  0
LINE
  5
7AF6
  8
1
  6
CONTINUOUS
 10
1404.227922
 20
3414.8963480000002
 30
0.0
 11
1404.227922
 21
3464.8963479999989
 31
0.0
  0
LINE
  5
7AF7
  8
1
  6
CONTINUOUS
 10
1607.747922
 20
3414.8963480000002
 30
0.0
 11
1607.747922
 21
3464.8963479999989
 31
0.0
  0
LINE
  5
7AF8
  8
1
  6
CONTINUOUS
 10
1936.8579219999999
 20
3556.6163479999991
 30
0.0
 11
1936.8579219999999
 21
3799.2963479999999
 31
0.0
  0
LINE
  5
7AF9
  8
1
  6
CONTINUOUS
 10
1895.057922
 20
3569.8963479999989
 30
0.0
 11
1895.057922
 21
3869.8963479999989
 31
0.0
  0
LINE
  5
7AFA
  8
1
  6
CONTINUOUS
 10
1977.8579219999999
 20
3414.8963480000002
 30
0.0
 11
1977.8579219999999
 21
3464.8963479999989
 31
0.0
  0
LINE
  5
7AFB
  8
1
  6
CONTINUOUS
 10
3608.6266099999998
 20
1935.126348
 30
0.0
 11
2998.6266099999998
 21
1935.126348
 31
0.0
  0
LINE
  5
7AFC
  8
1
  6
CONTINUOUS
 10
3528.6266099999998
 20
2015.126348
 30
0.0
 11
3004.6266099999998
 21
2015.126348
 31
0.0
  0
LINE
  5
7AFD
  8
1
  6
CONTINUOUS
 10
3511.6266099999998
 20
2655.1263479999998
 30
0.0
 11
3157.6266099999998
 21
2655.1263479999998
 31
0.0
  0
LINE
  5
7AFE
  8
1
  6
CONTINUOUS
 10
3484.6266099999998
 20
2015.126348
 30
0.0
 11
3184.6266099999998
 21
2015.126348
 31
0.0
  0
LINE
  5
7AFF
  8
1
  6
CONTINUOUS
 10
3484.6266099999998
 20
2635.1263479999998
 30
0.0
 11
3184.6266099999998
 21
2635.1263479999998
 31
0.0
  0
LINE
  5
7B00
  8
1
  6
CONTINUOUS
 10
3608.6266099999998
 20
1895.126348
 30
0.0
 11
2998.6266099999998
 21
1895.126348
 31
0.0
  0
LINE
  5
7B09
  8
1
  6
CONTINUOUS
 10
2200.4879219999998
 20
2015.126348
 30
0.0
 11
2200.4879219999998
 21
2265.1263479999998
 31
0.0
  0
LINE
  5
7B0A
  8
1
  6
CONTINUOUS
 10
2137.8579219999988
 20
2015.126348
 30
0.0
 11
2137.8579219999988
 21
2052.1263479999998
 31
0.0
  0
LINE
  5
7B0B
  8
1
  6
CONTINUOUS
 10
2137.8579219999988
 20
2052.1263479999998
 30
0.0
 11
2118.387921999999
 21
2079.1663480000002
 31
0.0
  0
LINE
  5
7B0C
  8
2
  6
CENTER
 10
2037.8579219999999
 20
2080.1263479999998
 30
0.0
 11
2037.8579219999999
 21
2200.1263479999998
 31
0.0
  0
LINE
  5
7B0D
  8
1
  6
CONTINUOUS
 10
2245.9879219999989
 20
2015.126348
 30
0.0
 11
2245.9879219999989
 21
1895.126348
 31
0.0
  0
LINE
  5
7B0E
  8
1
  6
CONTINUOUS
 10
2205.9879219999989
 20
1935.126348
 30
0.0
 11
2205.9879219999989
 21
1895.126348
 31
0.0
  0
LINE
  5
7B0F
  8
1
  6
CONTINUOUS
 10
2245.9879219999989
 20
1895.126348
 30
0.0
 11
2205.9879219999989
 21
1895.126348
 31
0.0
  0
LINE
  5
7B2B
  8
1
  6
CONTINUOUS
 10
3004.6266099999998
 20
2015.126348
 30
0.0
 11
3004.6266099999998
 21
2670.1263479999998
 31
0.0
  0
LINE
  5
7B2C
  8
1
  6
CONTINUOUS
 10
3104.6266099999998
 20
2015.126348
 30
0.0
 11
3104.6266099999998
 21
2670.1263479999998
 31
0.0
  0
LINE
  5
7B2D
  8
1
  6
CONTINUOUS
 10
3079.6266099999998
 20
2253.3563479999998
 30
0.0
 11
3079.6266099999998
 21
2456.886348
 31
0.0
  0
LINE
  5
7B2E
  8
1
  6
CONTINUOUS
 10
3029.6266099999998
 20
2253.3563479999998
 30
0.0
 11
3029.6266099999998
 21
2456.886348
 31
0.0
  0
LINE
  5
7B2F
  8
1
  6
CONTINUOUS
 10
3184.6266099999998
 20
2015.126348
 30
0.0
 11
3184.6266099999998
 21
2655.1263479999998
 31
0.0
  0
LINE
  5
7B32
  8
1
  6
CONTINUOUS
 10
3079.6266099999998
 20
2154.1263479999998
 30
0.0
 11
3184.6266099999998
 21
2154.1263479999998
 31
0.0
  0
LINE
  5
7B33
  8
1
  6
CONTINUOUS
 10
3079.6266099999998
 20
2126.1263479999998
 30
0.0
 11
3184.6266099999998
 21
2126.1263479999998
 31
0.0
  0
LINE
  5
7B34
  8
1
  6
CONTINUOUS
 10
3079.6266099999998
 20
2080.1263479999998
 30
0.0
 11
3079.6266099999998
 21
2200.1263479999998
 31
0.0
  0
LINE
  5
7B35
  8
1
  6
CONTINUOUS
 10
3029.6266099999998
 20
2080.1263479999998
 30
0.0
 11
3029.6266099999998
 21
2200.1263479999998
 31
0.0
  0
LINE
  5
7B36
  8
1
  6
CONTINUOUS
 10
3029.6266099999998
 20
2200.1263479999998
 30
0.0
 11
3079.6266099999998
 21
2200.1263479999998
 31
0.0
  0
LINE
  5
7B37
  8
1
  6
CONTINUOUS
 10
3029.6266099999998
 20
2080.1263479999998
 30
0.0
 11
3079.6266099999998
 21
2080.1263479999998
 31
0.0
  0
LINE
  5
7B38
  8
1
  6
CONTINUOUS
 10
3029.6266099999998
 20
2253.3563479999998
 30
0.0
 11
3079.6266099999998
 21
2253.3563479999998
 31
0.0
  0
LINE
  5
7B39
  8
1
  6
CONTINUOUS
 10
2998.6266099999998
 20
1935.126348
 30
0.0
 11
2998.6266099999998
 21
1895.126348
 31
0.0
  0
LINE
  5
7B3A
  8
1
  6
CONTINUOUS
 10
3140.6266099999998
 20
2015.126348
 30
0.0
 11
3140.6266099999998
 21
1935.126348
 31
0.0
  0
LINE
  5
7B3B
  8
1
  6
CONTINUOUS
 10
3004.6266099999998
 20
2670.1263479999998
 30
0.0
 11
3104.6266099999998
 21
2670.1263479999998
 31
0.0
  0
LINE
  5
7B3C
  8
1
  6
CONTINUOUS
 10
3079.6266099999998
 20
2370.886348
 30
0.0
 11
3184.6266099999998
 21
2370.886348
 31
0.0
  0
LINE
  5
7B3D
  8
1
  6
CONTINUOUS
 10
3079.6266099999998
 20
2342.8863479999991
 30
0.0
 11
3184.6266099999998
 21
2342.8863479999991
 31
0.0
  0
LINE
  5
7B3E
  8
1
  6
CONTINUOUS
 10
3029.6266099999998
 20
2456.886348
 30
0.0
 11
3079.6266099999998
 21
2456.886348
 31
0.0
  0
LINE
  5
7B3F
  8
1
  6
CONTINUOUS
 10
3484.6266099999998
 20
2015.126348
 30
0.0
 11
3484.6266099999998
 21
2655.1263479999998
 31
0.0
  0
LINE
  5
7B40
  8
1
  6
CONTINUOUS
 10
3528.6266099999998
 20
2015.126348
 30
0.0
 11
3528.6266099999998
 21
1935.126348
 31
0.0
  0
LINE
  5
7B41
  8
1
  6
CONTINUOUS
 10
3608.6266099999998
 20
1935.126348
 30
0.0
 11
3608.6266099999998
 21
1895.126348
 31
0.0
  0
LINE
  5
7B4A
  8
1
  6
CONTINUOUS
 10
2245.9879219999989
 20
3993.8963479999989
 30
0.0
 11
2245.9879219999989
 21
3383.8963479999989
 31
0.0
  0
LINE
  5
7B4B
  8
1
  6
CONTINUOUS
 10
2138.8579219999988
 20
3556.6163479999991
 30
0.0
 11
2138.8579219999988
 21
3799.2963479999999
 31
0.0
  0
LINE
  5
7B4C
  8
1
  6
CONTINUOUS
 10
2051.8579219999988
 20
3525.8963479999989
 30
0.0
 11
2245.9879219999989
 21
3525.8963479999989
 31
0.0
  0
LINE
  5
7B4D
  8
1
  6
CONTINUOUS
 10
2097.8579219999988
 20
3414.8963480000002
 30
0.0
 11
2097.8579219999988
 21
3464.8963479999989
 31
0.0
  0
LINE
  5
7B4E
  8
1
  6
CONTINUOUS
 10
2023.857921999999
 20
3464.8963479999989
 30
0.0
 11
2023.857921999999
 21
3556.6163479999991
 31
0.0
  0
LINE
  5
7B4F
  8
1
  6
CONTINUOUS
 10
2051.8579219999988
 20
3464.8963479999989
 30
0.0
 11
2051.8579219999988
 21
3556.6163479999991
 31
0.0
  0
LINE
  5
7B50
  8
1
  6
CONTINUOUS
 10
2200.4879219999998
 20
3389.8963480000002
 30
0.0
 11
2200.4879219999998
 21
3489.8963480000002
 31
0.0
  0
LINE
  5
7B51
  8
1
  6
CONTINUOUS
 10
2205.9879219999989
 20
3383.8963479999989
 30
0.0
 11
2245.9879219999989
 21
3383.8963479999989
 31
0.0
  0
LINE
  5
7B52
  8
1
  6
CONTINUOUS
 10
2205.9879219999989
 20
3525.8963479999989
 30
0.0
 11
2205.9879219999989
 21
3383.8963479999989
 31
0.0
  0
LINE
  5
7B53
  8
1
  6
CONTINUOUS
 10
2205.9879219999989
 20
3993.8963479999989
 30
0.0
 11
2245.9879219999989
 21
3993.8963479999989
 31
0.0
  0
LINE
  5
7B54
  8
1
  6
CONTINUOUS
 10
2205.9879219999989
 20
3993.8963479999989
 30
0.0
 11
2205.9879219999989
 21
3913.8963480000002
 31
0.0
  0
LINE
  5
7B77
  8
2
  6
CENTER
 10
3334.6266099999998
 20
2697.0811229999999
 30
0.0
 11
3334.6266099999998
 21
1768.711204609102
 31
0.0
  0
LINE
  5
7B78
  8
2
  6
CENTER
 10
1098.105622
 20
3719.8963479999989
 30
0.0
 11
2324.2602200000001
 21
3719.8963479999989
 31
0.0
  0
LINE
  5
7B79
  8
2
  6
CENTER
 10
2177.09437265517
 20
2355.1263479999998
 30
0.0
 11
1109.7640430548199
 21
2355.1263479999998
 31
0.0
  0
LINE
  5
7B7A
  8
2
  6
CENTER
 10
1505.987922
 20
2861.9340029585578
 30
0.0
 11
1505.987922
 21
1793.995775465949
 31
0.0
  0
LINE
  5
7B7B
  8
4
  6
CONTINUOUS
 10
3700.0
 20
1000.0
 30
0.0
 11
3700.0
 21
600.0
 31
0.0
  0
LINE
  5
7B7C
  8
4
  6
CONTINUOUS
 10
2300.0
 20
1000.0
 30
0.0
 11
2300.0
 21
600.0
 31
0.0
  0
LINE
  5
7B7D
  8
4
  6
CONTINUOUS
 10
1300.0
 20
1000.0
 30
0.0
 11
1300.0
 21
600.0
 31
0.0
  0
LINE
  5
7B80
  8
4
  6
CONTINUOUS
 10
1300.0
 20
600.0
 30
0.0
 11
3700.0
 21
600.0
 31
0.0
  0
LINE
  5
7B81
  8
4
  6
CONTINUOUS
 10
1300.0
 20
800.0
 30
0.0
 11
3700.0
 21
800.0
 31
0.0
  0
TEXT
  5
7B82
  8
4
  6
CONTINUOUS
 10
1377.004162
 20
863.086052
 30
0.0
 40
100.0
  1
機器名称
  0
TEXT
  5
7B83
  8
4
  6
CONTINUOUS
 10
1372.516212
 20
643.29031299999986
 30
0.0
 40
100.0
  1
機器型番
  0
TEXT
  5
7B84
  8
4
  6
CONTINUOUS
 10
2355.3574910000002
 20
845.14353800000015
 30
0.0
 40
100.0
  1
ミツヤ多翼送風機
  0
TEXT
  5
7B85
  8
4
  6
CONTINUOUS
 10
2373.3089909999999
 20
634.31916899999999
 30
0.0
 40
100.0
  1
MF#2 1/2-4
  0
TEXT
  5
7B87
  8
4
  6
CONTINUOUS
 10
1590.450493999999
 20
4766.8576830000002
 30
0.0
 40
108.0
  1
天井吊ベット
  0
TEXT
  5
7B88
  8
4
  6
CONTINUOUS
 10
632.33518700000002
 20
5067.7619520000007
 30
0.0
 40
144.0
  1
ベルト駆動式片吸込両持多翼ファン
  0
LINE
  5
7B89
  8
4
  6
CONTINUOUS
 10
500.0
 20
4938.8175090000004
 30
0.0
 11
3700.0
 21
4938.8175090000004
 31
0.0
  0
LINE
  5
7B8A
  8
4
  6
CONTINUOUS
 10
500.0
 20
5338.8175090000004
 30
0.0
 11
3700.0
 21
5338.8175090000004
 31
0.0
  0
LINE
  5
7B8B
  8
4
  6
CONTINUOUS
 10
1300.0
 20
1000.0
 30
0.0
 11
3700.0
 21
1000.0
 31
0.0
  0
LINE
  5
7B8C
  8
4
  6
CONTINUOUS
 10
500.0
 20
5338.8175090000004
 30
0.0
 11
500.0
 21
4938.8175090000004
 31
0.0
  0
TEXT
  5
7B8D
  8
4
  6
CONTINUOUS
 10
695.66745000000003
 20
4764.6389549999994
 30
0.0
 40
108.0
  1
左回転上向
  0
TEXT
  5
7B8E
  8
4
  6
CONTINUOUS
 10
2937.9391179999998
 20
5412.122163
 30
0.0
 40
112.0
  1
No.
  0
TEXT
  5
7B8F
  8
4
  6
CONTINUOUS
 10
2622.5921250000001
 20
4766.8576830000002
 30
0.0
 40
108.0
  1
縮尺：1/20
  0
LINE
  5
7B90
  8
4
  6
CONTINUOUS
 10
3700.0
 20
5338.8175090000004
 30
0.0
 11
3700.0
 21
4938.8175090000004
 31
0.0
  0
LINE
  5
7B92
  8
4
  6
CONTINUOUS
 10
2881.234845
 20
5362.5271659999999
 30
0.0
 11
2881.234845
 21
5573.3045229999998
 31
0.0
  0
LINE
  5
7B93
  8
4
  6
CONTINUOUS
 10
2881.234845
 20
5573.3045229999998
 30
0.0
 11
3700.0
 21
5573.3045229999998
 31
0.0
  0
LINE
  5
7B94
  8
4
  6
CONTINUOUS
 10
3700.0
 20
5573.3045229999998
 30
0.0
 11
3700.0
 21
5362.5271659999999
 31
0.0
  0
LINE
  5
7B95
  8
4
  6
CONTINUOUS
 10
3700.0
 20
5362.5271659999999
 30
0.0
 11
2881.234845
 21
5362.5271659999999
 31
0.0
  0
DIMENSION
  5
7BAD
  8
3
  6
CONTINUOUS
  2
*D1
 10
1493.987922
 20
2764.6496000000002
 30
0.0
 11
1681.9821969999989
 21
2764.6496000000002
 31
0.0
 70
   128
 13
1893.9879219999989
 23
2655.1263479999998
 33
0.0
 14
1493.987922
 24
2655.1263479999998
 34
0.0
1001
ACAD
1000
DSTYLE
1002
{
1070
   287
1070
     3
1070
    40
1040
20.0
1070
   143
1040
0.039
1070
   172
1070
     1
1070
   271
1070
     0
1070
   279
1070
     0
1070
   288
1070
     1
1002
}
  0
DIMENSION
  5
7BBA
  8
3
  6
CONTINUOUS
  2
*D2
 10
1505.987922
 20
2881.0747280000001
 30
0.0
 11
1681.9821969999989
 21
2881.0747280000001
 31
0.0
 70
   128
 13
1893.9879219999989
 23
2655.1263479999998
 33
0.0
 14
1505.987922
 24
2864.1117097354818
 34
0.0
1001
ACAD
1000
DSTYLE
1002
{
1070
   287
1070
     3
1070
    40
1040
20.0
1070
   143
1040
0.039
1070
   172
1070
     1
1070
   271
1070
     0
1070
   279
1070
     0
1070
   288
1070
     1
1002
}
  0
DIMENSION
  5
7BC6
  8
3
  6
CONTINUOUS
  2
*D3
 10
1205.987922
 20
2881.0747280000001
 30
0.0
 11
1355.987922
 21
2931.0747280000001
 31
0.0
 70
     0
 13
1505.987922
 23
2883.2550900000001
 33
0.0
 14
1205.987922
 24
2625.1263479999998
 34
0.0
1001
ACAD
1000
DSTYLE
1002
{
1070
   287
1070
     4
1070
    40
1040
20.0
1070
    75
1070
     1
1070
   143
1040
0.039
1070
   172
1070
     1
1070
   271
1070
     0
1070
   279
1070
     1
1070
   288
1070
     1
1002
}
  0
DIMENSION
  5
7BD3
  8
3
  6
CONTINUOUS
  2
*D4
 10
1089.2268859999999
 20
2355.1263479999998
 30
0.0
 11
1089.2268859999999
 21
2492.2692051428571
 31
0.0
 70
   128
 13
1466.987922
 23
2655.1263479999998
 33
0.0
 14
1115.598421529339
 24
2355.1263479999998
 34
0.0
 50
90.0
1001
ACAD
1000
DSTYLE
1002
{
1070
   287
1070
     3
1070
    40
1040
20.0
1070
   143
1040
0.039
1070
   172
1070
     1
1070
   271
1070
     0
1070
   279
1070
     0
1070
   288
1070
     1
1002
}
  0
DIMENSION
  5
7BDF
  8
3
  6
CONTINUOUS
  2
*D5
 10
1089.2268859999999
 20
1935.126348
 30
0.0
 11
1039.226885999999
 21
2145.1263480000011
 31
0.0
 70
     0
 13
1115.598421529339
 23
2355.1263479999998
 33
0.0
 14
1245.987922
 24
1935.126348
 34
0.0
 50
90.0
1001
ACAD
1000
DSTYLE
1002
{
1070
   287
1070
     4
1070
    40
1040
20.0
1070
    75
1070
     1
1070
   143
1040
0.039
1070
   172
1070
     1
1070
   271
1070
     0
1070
   279
1070
     1
1070
   288
1070
     1
1002
}
  0
DIMENSION
  5
7BEF
  8
3
  6
CONTINUOUS
  2
*D6
 10
1089.234222
 20
1895.126348
 30
0.0
 11
1089.234222
 21
1746.5549194285711
 31
0.0
 70
   128
 13
1245.987922
 23
1935.126348
 33
0.0
 14
1245.987922
 24
1895.126348
 34
0.0
 50
90.0
1001
ACAD
1000
DSTYLE
1002
{
1070
   287
1070
     3
1070
    40
1040
20.0
1070
   143
1040
0.039
1070
   172
1070
     1
1070
   271
1070
     0
1070
   279
1070
     0
1070
   288
1070
     1
1002
}
  0
DIMENSION
  5
7BFC
  8
3
  6
CONTINUOUS
  2
*D7
 10
957.09550400000023
 20
1895.126348
 30
0.0
 11
957.09550399999989
 21
2280.512659
 31
0.0
 70
   128
 13
1456.987922
 23
2655.1263479999998
 33
0.0
 14
1245.987922
 24
1895.126348
 34
0.0
 50
90.0
1001
ACAD
1000
DSTYLE
1002
{
1070
   287
1070
     3
1070
    40
1040
20.0
1070
   143
1040
0.039
1070
   172
1070
     1
1070
   271
1070
     0
1070
   279
1070
     0
1070
   288
1070
     1
1002
}
  0
DIMENSION
  5
7C0B
  8
3
  6
CONTINUOUS
  2
*D8
 10
1505.987922
 20
1760.836159
 30
0.0
 11
1375.987922
 21
1818.865539296221
 31
0.0
 70
   128
 13
1245.987922
 23
1895.126348
 33
0.0
 14
1505.987922
 24
1779.6131446212639
 34
0.0
1001
ACAD
1000
DSTYLE
1002
{
1070
   288
1070
     1
1070
   172
1070
     1
1070
    40
1040
20.0
1070
   271
1070
     0
1070
   143
1040
0.039
1002
}
  0
DIMENSION
  5
7C17
  8
3
  6
CONTINUOUS
  2
*D9
 10
2245.9879219999989
 20
1760.836159
 30
0.0
 11
1875.987922
 21
1810.836159
 31
0.0
 70
     0
 13
1505.987922
 23
1779.6131446212639
 33
0.0
 14
2245.9879219999989
 24
1895.126348
 34
0.0
1001
ACAD
1000
DSTYLE
1002
{
1070
   287
1070
     4
1070
    40
1040
20.0
1070
    75
1070
     1
1070
   143
1040
0.039
1070
   172
1070
     1
1070
   271
1070
     0
1070
   279
1070
     1
1070
   288
1070
     1
1002
}
  0
DIMENSION
  5
7C24
  8
3
  6
CONTINUOUS
  2
*D10
 10
3334.6266099999998
 20
1738.7926209999989
 30
0.0
 11
3168.1146840000001
 21
1738.7926209999989
 31
0.0
 70
   128
 13
2998.6266099999998
 23
1895.126348
 33
0.0
 14
3334.6266099999998
 24
1759.497822371331
 34
0.0
1001
ACAD
1000
DSTYLE
1002
{
1070
   287
1070
     3
1070
    40
1040
20.0
1070
   143
1040
0.039
1070
   172
1070
     1
1070
   271
1070
     0
1070
   279
1070
     0
1070
   288
1070
     1
1002
}
  0
DIMENSION
  5
7C32
  8
3
  6
CONTINUOUS
  2
*D11
 10
3608.6266099999998
 20
1738.7926209999989
 30
0.0
 11
3486.2266460000001
 21
1737.698406
 31
0.0
 70
   128
 13
3334.6266099999998
 23
1760.419159390603
 33
0.0
 14
3608.6266099999998
 24
1895.126348
 34
0.0
1001
ACAD
1000
DSTYLE
1002
{
1070
   287
1070
     4
1070
    40
1040
20.0
1070
    75
1070
     1
1070
   143
1040
0.039
1070
   172
1070
     1
1070
   271
1070
     0
1070
   279
1070
     1
1070
   288
1070
     1
1002
}
  0
DIMENSION
  5
7C3F
  8
3
  6
CONTINUOUS
  2
*D12
 10
3184.6266099999998
 20
2699.604444043403
 30
0.0
 11
3321.7694671428571
 21
2699.604444043403
 31
0.0
 70
   128
 13
3484.6266099999998
 23
2655.1263479999998
 33
0.0
 14
3184.6266099999998
 24
2655.1263479999998
 34
0.0
1001
ACAD
1000
DSTYLE
1002
{
1070
   287
1070
     3
1070
    40
1040
20.0
1070
   143
1040
0.039
1070
   172
1070
     1
1070
   271
1070
     0
1070
   279
1070
     0
1070
   288
1070
     1
1002
}
  0
DIMENSION
  5
7C59
  8
3
  6
CONTINUOUS
  2
*D13
 10
3004.6266099999998
 20
2845.987329
 30
0.0
 11
3169.6266099999998
 21
2945.987329
 31
0.0
 70
     0
  1
MAX\P380
 13
3334.6266099999998
 23
2752.2456499999998
 33
0.0
 14
3004.6266099999998
 24
2670.1263479999998
 34
0.0
1001
ACAD
1000
DSTYLE
1002
{
1070
   287
1070
     4
1070
    40
1040
20.0
1070
    75
1070
     1
1070
   143
1040
0.039
1070
   172
1070
     1
1070
   271
1070
     0
1070
   279
1070
     1
1070
   288
1070
     1
1002
}
  0
DIMENSION
  5
7C68
  8
3
  6
CONTINUOUS
  2
*D14
 10
3651.85861957417
 20
2140.1263479999998
 30
0.0
 11
3651.85861957417
 21
2349.6822557494879
 31
0.0
 70
   128
 13
3484.6266099999998
 23
2570.1263479999998
 33
0.0
 14
3484.6266099999998
 24
2140.1263479999998
 34
0.0
 50
90.0
1001
ACAD
1000
DSTYLE
1002
{
1070
   287
1070
     3
1070
     3
1000
φ<>
1070
    40
1040
20.0
1070
   143
1040
0.039
1070
   172
1070
     1
1070
   271
1070
     0
1070
   279
1070
     0
1070
   288
1070
     1
1002
}
  0
DIMENSION
  5
7C75
  8
3
  6
CONTINUOUS
  2
*D15
 10
2245.9879219999989
 20
4081.0688049999999
 30
0.0
 11
1707.4172120000001
 21
4081.0688049999999
 31
0.0
 70
   128
 13
1245.987922
 23
3993.8963479999989
 33
0.0
 14
2245.9879219999989
 24
3993.8963479999989
 34
0.0
1001
ACAD
1000
DSTYLE
1002
{
1070
   287
1070
     3
1070
    40
1040
20.0
1070
   143
1040
0.039
1070
   172
1070
     1
1070
   271
1070
     0
1070
   279
1070
     0
1070
   288
1070
     1
1002
}
  0
DIMENSION
  5
7C82
  8
3
  6
CONTINUOUS
  2
*D16
 10
2422.6792690000011
 20
3383.8963479999989
 30
0.0
 11
2422.6792690000002
 21
3702.7285400000001
 31
0.0
 70
   128
 13
2245.9879219999989
 23
3993.8963479999989
 33
0.0
 14
2245.9879219999989
 24
3383.8963479999989
 34
0.0
 50
90.0
1001
ACAD
1000
DSTYLE
1002
{
1070
   287
1070
     3
1070
    40
1040
20.0
1070
   143
1040
0.039
1070
   172
1070
     1
1070
   271
1070
     0
1070
   279
1070
     0
1070
   288
1070
     1
1002
}
  0
LINE
  5
7D65
  8
1
  6
CONTINUOUS
 10
3485.6266099999998
 20
2140.1263479999998
 30
0.0
 11
3485.6266099999998
 21
2570.1263479999998
 31
0.0
  0
DIMENSION
  5
7D75
  8
3
  6
CONTINUOUS
  2
*D17
 10
3485.6266099999998
 20
2845.987329
 30
0.0
 11
3400.7988026392409
 21
2895.2472783630742
 31
0.0
 70
   128
 13
3335.1012613960079
 23
2798.7129819434899
 33
0.0
 14
3485.6266099999998
 24
2570.1263479999998
 34
0.0
1001
ACAD
1000
DSTYLE
1002
{
1070
   288
1070
     1
1070
   172
1070
     1
1070
    40
1040
20.0
1070
   271
1070
     0
1070
   143
1040
0.039
1002
}
  0
DIMENSION
  5
7E95
  8
3
  2
*D18
 10
2245.9879219999989
 20
3007.8950053508088
 30
0.0
 11
1705.339829070057
 21
3007.8950053508088
 31
0.0
 70
   128
 13
1205.987922
 23
2625.1263479999998
 33
0.0
 14
2245.9879219999989
 24
2015.126348
 34
0.0
1001
ACAD
1000
DSTYLE
1002
{
1070
   287
1070
     3
1070
    40
1040
20.0
1070
   143
1040
0.039
1070
   172
1070
     1
1070
   271
1070
     0
1070
   279
1070
     0
1070
   288
1070
     1
1002
}
  0
ENDSEC
  0
EOF
