  0
SECTION
  2
HEADER
  9
$ACADVER
  1
AC1009
  9
$INSBASE
 10
0.0
 20
0.0
 30
0.0
  9
$EXTMIN
 10
500.0
 20
600.0
 30
0.0
  9
$EXTMAX
 10
3700.0
 20
5573.3045229999998
 30
0.0
  9
$LIMMIN
 10
0.0
 20
0.0
  9
$LIMMAX
 10
297.0
 20
210.0
  9
$ORTHOMODE
 70
     0
  9
$REGENMODE
 70
     1
  9
$FILLMODE
 70
     0
  9
$QTEXTMODE
 70
     0
  9
$MIRRTEXT
 70
     1
  9
$DRAGMODE
 70
     2
  9
$LTSCALE
 40
100.0
  9
$OSMODE
 70
    37
  9
$ATTMODE
 70
     1
  9
$TEXTSIZE
 40
180.0
  9
$TRACEWID
 40
0.05
  9
$TEXTSTYLE
  7
STANDARD
  9
$CLAYER
  8
3
  9
$CELTYPE
  6
BYLAYER
  9
$CECOLOR
 62
   256
  9
$DIMSCALE
 40
20.0
  9
$DIMASZ
 40
2.0
  9
$DIMEXO
 40
0.5
  9
$DIMDLI
 40
10.0
  9
$DIMRND
 40
0.0
  9
$DIMDLE
 40
0.0
  9
$DIMEXE
 40
1.0
  9
$DIMTP
 40
1.0
  9
$DIMTM
 40
1.0
  9
$DIMTXT
 40
3.0
  9
$DIMCEN
 40
0.0
  9
$DIMTSZ
 40
0.0
  9
$DIMTOL
 70
     0
  9
$DIMLIM
 70
     0
  9
$DIMTIH
 70
     0
  9
$DIMTOH
 70
     0
  9
$DIMSE1
 70
     0
  9
$DIMSE2
 70
     0
  9
$DIMTAD
 70
     1
  9
$DIMZIN
 70
     8
  9
$DIMBLK
  1

  9
$DIMASO
 70
     1
  9
$DIMSHO
 70
     1
  9
$DIMPOST
  1

  9
$DIMAPOST
  1

  9
$DIMALT
 70
     0
  9
$DIMALTD
 70
     2
  9
$DIMALTF
 40
0.039
  9
$DIMLFAC
 40
1.0
  9
$DIMTOFL
 70
     1
  9
$DIMTVP
 40
0.0
  9
$DIMTIX
 70
     0
  9
$DIMSOXD
 70
     0
  9
$DIMSAH
 70
     1
  9
$DIMBLK1
  1
OPEN
  9
$DIMBLK2
  1
OPEN
  9
$DIMSTYLE
  2
IGA
  9
$DIMCLRD
 70
     0
  9
$DIMCLRE
 70
     0
  9
$DIMCLRT
 70
     0
  9
$DIMTFAC
 40
10.0
  9
$DIMGAP
 40
1.0
  9
$LUNITS
 70
     2
  9
$LUPREC
 70
     3
  9
$SKETCHINC
 40
0.1
  9
$FILLETRAD
 40
50.0
  9
$AUNITS
 70
     0
  9
$AUPREC
 70
     0
  9
$MENU
  1
acad
  9
$ELEVATION
 40
0.0
  9
$PELEVATION
 40
0.0
  9
$THICKNESS
 40
0.0
  9
$LIMCHECK
 70
     0
  9
$BLIPMODE
 70
     0
  9
$CHAMFERA
 40
0.5
  9
$CHAMFERB
 40
0.5
  9
$SKPOLY
 70
     0
  9
$TDCREATE
 40
2450725.443071296
  9
$TDUPDATE
 40
2454953.764823854
  9
$TDINDWG
 40
0.010724213
  9
$TDUSRTIMER
 40
0.010724213
  9
$USRTIMER
 70
     1
  9
$ANGBASE
 50
0.0
  9
$ANGDIR
 70
     0
  9
$PDMODE
 70
     0
  9
$PDSIZE
 40
0.0
  9
$PLINEWID
 40
0.0
  9
$COORDS
 70
     1
  9
$SPLFRAME
 70
     0
  9
$SPLINETYPE
 70
     6
  9
$SPLINESEGS
 70
     8
  9
$ATTDIA
 70
     0
  9
$ATTREQ
 70
     1
  9
$HANDLING
 70
 10241
  9
$HANDSEED
  5
7EE0
  9
$SURFTAB1
 70
     6
  9
$SURFTAB2
 70
     6
  9
$SURFTYPE
 70
     6
  9
$SURFU
 70
     6
  9
$SURFV
 70
     6
  9
$UCSNAME
  2

  9
$UCSORG
 10
0.0
 20
0.0
 30
0.0
  9
$UCSXDIR
 10
1.0
 20
0.0
 30
0.0
  9
$UCSYDIR
 10
0.0
 20
1.0
 30
0.0
  9
$PUCSNAME
  2

  9
$PUCSORG
 10
0.0
 20
0.0
 30
0.0
  9
$PUCSXDIR
 10
1.0
 20
0.0
 30
0.0
  9
$PUCSYDIR
 10
0.0
 20
1.0
 30
0.0
  9
$USERI1
 70
     0
  9
$USERI2
 70
     0
  9
$USERI3
 70
     0
  9
$USERI4
 70
     0
  9
$USERI5
 70
     0
  9
$USERR1
 40
0.0
  9
$USERR2
 40
0.0
  9
$USERR3
 40
0.0
  9
$USERR4
 40
0.0
  9
$USERR5
 40
0.0
  9
$WORLDVIEW
 70
     1
  9
$SHADEDGE
 70
     3
  9
$SHADEDIF
 70
    70
  9
$TILEMODE
 70
     1
  9
$MAXACTVP
 70
    16
  9
$PLIMCHECK
 70
     0
  9
$PEXTMIN
 10
1.0000000000000000E+020
 20
1.0000000000000000E+020
 30
1.0000000000000000E+020
  9
$PEXTMAX
 10
-1.0000000000000000E+020
 20
-1.0000000000000000E+020
 30
-1.0000000000000000E+020
  9
$PLIMMIN
 10
0.0
 20
0.0
  9
$PLIMMAX
 10
12.0
 20
9.0
  9
$UNITMODE
 70
     0
  9
$VISRETAIN
 70
     0
  9
$PLINEGEN
 70
     0
  9
$PSLTSCALE
 70
     1
  0
ENDSEC
  0
SECTION
  2
TABLES
  0
TABLE
  2
VPORT
 70
     2
  0
VPORT
  2
*ACTIVE
 70
     0
 10
0.0
 20
0.0
 11
1.0
 21
1.0
 12
6292.1124769529506
 22
3086.6374998146398
 13
0.0
 23
0.0
 14
10.0
 24
10.0
 15
10.0
 25
10.0
 16
0.0
 26
0.0
 36
1.0
 17
0.0
 27
0.0
 37
0.0
 40
5011.4968576296578
 41
3.1666666666666661
 42
50.0
 43
0.0
 44
0.0
 50
0.0
 51
0.0
 71
     0
 72
   100
 73
     1
 74
     0
 75
     0
 76
     0
 77
     0
 78
     0
  0
ENDTAB
  0
TABLE
  2
LTYPE
 70
     2
  0
LTYPE
  2
CONTINUOUS
 70
     0
  3
Solid line
 72
    65
 73
     0
 40
0.0
  0
LTYPE
  2
CENTER
 70
     0
  3
____ _ ____ _ ____ _ ____ _ ____ _ ____ _ ____ 
 72
    65
 73
     4
 40
2.0
 49
1.25
 49
-0.25
 49
0.25
 49
-0.25
  0
ENDTAB
  0
TABLE
  2
LAYER
 70
     6
  0
LAYER
  2
0
 70
     0
 62
     7
  6
CONTINUOUS
  0
LAYER
  2
3
 70
     0
 62
     2
  6
CONTINUOUS
  0
LAYER
  2
2
 70
     0
 62
     3
  6
CENTER
  0
LAYER
  2
1
 70
     0
 62
     4
  6
CONTINUOUS
  0
LAYER
  2
4
 70
     0
 62
     7
  6
CONTINUOUS
  0
LAYER
  2
DEFPOINTS
 70
     0
 62
     7
  6
CONTINUOUS
  0
ENDTAB
  0
TABLE
  2
STYLE
 70
     1
  0
STYLE
  2
STANDARD
 70
     0
 40
0.0
 41
1.0
 50
0.0
 71
     0
 42
180.0
  3
simplex.shx
  4
extfont.shx
  0
ENDTAB
  0
TABLE
  2
VIEW
 70
     0
  0
ENDTAB
  0
TABLE
  2
UCS
 70
     0
  0
ENDTAB
  0
TABLE
  2
APPID
 70
     1
  0
APPID
  2
ACAD
 70
     0
  0
ENDTAB
  0
TABLE
  2
DIMSTYLE
 70
     1
  0
DIMSTYLE
  2
IGA
 70
     0
  3

  4

  5

  6
OPEN
  7
OPEN
 40
2.0
 41
2.0
 42
0.5
 43
10.0
 44
1.0
 45
0.0
 46
0.0
 47
1.0
 48
1.0
140
3.0
141
0.0
142
0.0
143
0.03937
144
1.0
145
0.0
146
10.0
147
1.0
 71
     0
 72
     0
 73
     0
 74
     0
 75
     0
 76
     0
 77
     1
 78
     8
170
     0
171
     2
172
     0
173
     1
174
     0
175
     0
176
     0
177
     0
178
     0
  0
ENDTAB
  0
ENDSEC
  0
SECTION
  2
BLOCKS
  0
BLOCK
  8
0
  2
$MODEL_SPACE
 70
     0
 10
0.0
 20
0.0
 30
0.0
  3
$MODEL_SPACE
  1

  0
ENDBLK
  5
1B
  8
0
  0
BLOCK
 67
     1
  8
0
  2
$PAPER_SPACE
 70
     0
 10
0.0
 20
0.0
 30
0.0
  3
$PAPER_SPACE
  1

  0
ENDBLK
  5
18
 67
     1
  8
0
  0
BLOCK
  8
0
  2
_OPEN
 70
     0
 10
0.0
 20
0.0
 30
0.0
  3
_OPEN
  1

  0
LINE
  5
7B97
  8
0
  6
BYBLOCK
 62
     0
 10
-1.0
 20
0.166667
 30
0.0
 11
0.0
 21
0.0
 31
0.0
  0
LINE
  5
7B98
  8
0
  6
BYBLOCK
 62
     0
 10
0.0
 20
0.0
 30
0.0
 11
-1.0
 21
-0.166667
 31
0.0
  0
LINE
  5
7B99
  8
0
  6
BYBLOCK
 62
     0
 10
0.0
 20
0.0
 30
0.0
 11
-1.0
 21
0.0
 31
0.0
  0
ENDBLK
  5
7B9A
  8
0
  0
BLOCK
  8
0
  2
*D1
 70
     1
 10
0.0
 20
0.0
 30
0.0
  3
*D1
  1

  0
LINE
  5
7E34
  8
3
  6
CONTINUOUS
 62
     0
 10
1046.9146039999989
 20
2848.1579750000001
 30
0.0
 11
999.33401300000048
 21
2848.1579750000001
 31
0.0
  0
LINE
  5
7E35
  8
3
  6
CONTINUOUS
 62
     0
 10
1046.9146039999989
 20
2448.1579750000001
 30
0.0
 11
999.33401300000048
 21
2448.1579750000001
 31
0.0
  0
LINE
  5
7E36
  8
3
  6
CONTINUOUS
 62
     0
 10
1019.334013
 20
2808.1579750000001
 30
0.0
 11
1019.334013
 21
2488.1579750000001
 31
0.0
  0
INSERT
  5
7E37
  8
3
  6
CONTINUOUS
 62
     0
  2
_OPEN
 10
1019.334013
 20
2848.1579750000001
 30
0.0
 41
40.0
 42
40.0
 43
40.0
 50
90.0
  0
INSERT
  5
7E38
  8
3
  6
CONTINUOUS
 62
     0
  2
_OPEN
 10
1019.334013
 20
2448.1579750000001
 30
0.0
 41
40.0
 42
40.0
 43
40.0
 50
270.0
  0
TEXT
  8
3
  40
60
  5
7ECE
  62
0
  72
0
  71
0
 10
849.334
 20
2537.52
 30
0.000000
  1
400
  0
POINT
  5
7E3A
  8
DEFPOINTS
  6
CONTINUOUS
 62
     0
 10
1056.9146039999989
 20
2848.1579750000001
 30
0.0
  0
POINT
  5
7E3B
  8
DEFPOINTS
  6
CONTINUOUS
 62
     0
 10
1056.9146039999989
 20
2448.1579750000001
 30
0.0
  0
POINT
  5
7E3C
  8
DEFPOINTS
  6
CONTINUOUS
 62
     0
 10
1019.334013
 20
2448.1579750000001
 30
0.0
  0
ENDBLK
  5
7BA7
  8
0
  0
BLOCK
  8
0
  2
*D2
 70
     1
 10
0.0
 20
0.0
 30
0.0
  3
*D2
  1

  0
LINE
  5
7E3D
  8
3
  6
CONTINUOUS
 62
     0
 10
1009.334012999999
 20
2848.1579750000001
 30
0.0
 11
854.72252700000047
 21
2848.1579750000001
 31
0.0
  0
LINE
  5
7E3E
  8
3
  6
CONTINUOUS
 62
     0
 10
932.48639390839514
 20
2460.1579750000001
 30
0.0
 11
854.72252700000035
 21
2460.1579750000001
 31
0.0
  0
LINE
  5
7E3F
  8
3
  6
CONTINUOUS
 62
     0
 10
874.72252700000035
 20
2808.1579750000001
 30
0.0
 11
874.72252700000035
 21
2500.1579750000001
 31
0.0
  0
INSERT
  5
7E40
  8
3
  6
CONTINUOUS
 62
     0
  2
_OPEN
 10
874.72252700000035
 20
2848.1579750000001
 30
0.0
 41
40.0
 42
40.0
 43
40.0
 50
90.0
  0
INSERT
  5
7E41
  8
3
  6
CONTINUOUS
 62
     0
  2
_OPEN
 10
874.72252700000035
 20
2460.1579750000001
 30
0.0
 41
40.0
 42
40.0
 43
40.0
 50
270.0
  0
TEXT
  8
3
  40
60
  5
7ECF
  62
0
  72
0
  71
0
 10
704.723
 20
2537.52
 30
0.000000
  1
388
  0
POINT
  5
7E43
  8
DEFPOINTS
  6
CONTINUOUS
 62
     0
 10
1019.334013
 20
2848.1579750000001
 30
0.0
  0
POINT
  5
7E44
  8
DEFPOINTS
  6
CONTINUOUS
 62
     0
 10
942.48639390839514
 20
2460.1579750000001
 30
0.0
  0
POINT
  5
7E45
  8
DEFPOINTS
  6
CONTINUOUS
 62
     0
 10
874.72252700000035
 20
2460.1579750000001
 30
0.0
  0
ENDBLK
  5
7DE5
  8
0
  0
BLOCK
  8
0
  2
*D3
 70
     1
 10
0.0
 20
0.0
 30
0.0
  3
*D3
  1

  0
LINE
  5
7E46
  8
3
  6
CONTINUOUS
 62
     0
 10
1086.9146039999989
 20
2080.1579750000001
 30
0.0
 11
854.72252699999979
 21
2080.1579750000001
 31
0.0
  0
LINE
  5
7E47
  8
3
  6
CONTINUOUS
 62
     0
 10
874.7225269999999
 20
2420.1579750000001
 30
0.0
 11
874.7225269999999
 21
2120.1579750000001
 31
0.0
  0
INSERT
  5
7E48
  8
3
  6
CONTINUOUS
 62
     0
  2
_OPEN
 10
874.7225269999999
 20
2460.1579750000001
 30
0.0
 41
40.0
 42
40.0
 43
40.0
 50
90.0
  0
INSERT
  5
7E49
  8
3
  6
CONTINUOUS
 62
     0
  2
_OPEN
 10
874.7225269999999
 20
2080.1579750000001
 30
0.0
 41
40.0
 42
40.0
 43
40.0
 50
270.0
  0
TEXT
  8
3
  40
60
  5
7ED0
  62
0
  72
0
  71
0
 10
704.723
 20
2163.96
 30
0.000000
  1
380
  0
POINT
  5
7E4B
  8
DEFPOINTS
  6
CONTINUOUS
 62
     0
 10
942.48639390839514
 20
2460.1579750000001
 30
0.0
  0
POINT
  5
7E4C
  8
DEFPOINTS
  6
CONTINUOUS
 62
     0
 10
1096.9146039999989
 20
2080.1579750000001
 30
0.0
  0
POINT
  5
7E4D
  8
DEFPOINTS
  6
CONTINUOUS
 62
     0
 10
874.7225269999999
 20
2080.1579750000001
 30
0.0
  0
ENDBLK
  5
7DEF
  8
0
  0
BLOCK
  8
0
  2
*D4
 70
     1
 10
0.0
 20
0.0
 30
0.0
  3
*D4
  1

  0
LINE
  5
7E4E
  8
3
  6
CONTINUOUS
 62
     0
 10
1086.9146039999989
 20
2080.1579750000001
 30
0.0
 11
853.97044300000016
 21
2080.1579750000001
 31
0.0
  0
LINE
  5
7E4F
  8
3
  6
CONTINUOUS
 62
     0
 10
1086.9146039999989
 20
2040.1579750000001
 30
0.0
 11
853.97044300000016
 21
2040.1579750000001
 31
0.0
  0
LINE
  5
7E50
  8
3
  6
CONTINUOUS
 62
     0
 10
873.97044300000027
 20
2120.1579750000001
 30
0.0
 11
873.97044300000027
 21
2160.1579750000001
 31
0.0
  0
LINE
  5
7E51
  8
3
  6
CONTINUOUS
 62
     0
 10
873.97044300000027
 20
2000.1579750000001
 30
0.0
 11
873.97044300000027
 21
1823.0151178571421
 31
0.0
  0
LINE
  5
7E52
  8
3
  6
CONTINUOUS
 62
     0
 10
873.97044300000027
 20
2080.1579750000001
 30
0.0
 11
873.97044300000027
 21
2040.1579750000001
 31
0.0
  0
INSERT
  5
7E53
  8
3
  6
CONTINUOUS
 62
     0
  2
_OPEN
 10
873.97044300000027
 20
2080.1579750000001
 30
0.0
 41
40.0
 42
40.0
 43
40.0
 50
270.0
  0
INSERT
  5
7E54
  8
3
  6
CONTINUOUS
 62
     0
  2
_OPEN
 10
873.97044300000027
 20
2040.1579750000001
 30
0.0
 41
40.0
 42
40.0
 43
40.0
 50
90.0
  0
TEXT
  8
3
  40
60
  5
7ED1
  62
0
  72
0
  71
0
 10
703.970
 20
1785.39
 30
0.000000
  1
40
  0
POINT
  5
7E56
  8
DEFPOINTS
  6
CONTINUOUS
 62
     0
 10
1096.9146039999989
 20
2080.1579750000001
 30
0.0
  0
POINT
  5
7E57
  8
DEFPOINTS
  6
CONTINUOUS
 62
     0
 10
1096.9146039999989
 20
2040.1579750000001
 30
0.0
  0
POINT
  5
7E58
  8
DEFPOINTS
  6
CONTINUOUS
 62
     0
 10
873.97044300000027
 20
2040.1579750000001
 30
0.0
  0
ENDBLK
  5
7DB9
  8
0
  0
BLOCK
  8
0
  2
*D5
 70
     1
 10
0.0
 20
0.0
 30
0.0
  3
*D5
  1

  0
LINE
  5
7E59
  8
3
  6
CONTINUOUS
 62
     0
 10
1046.9146039999989
 20
2875.1579750000001
 30
0.0
 11
715.1489390000005
 21
2875.1579750000001
 31
0.0
  0
LINE
  5
7E5A
  8
3
  6
CONTINUOUS
 62
     0
 10
1086.9146039999989
 20
2040.1579750000001
 30
0.0
 11
715.14893900000015
 21
2040.1579750000001
 31
0.0
  0
LINE
  5
7E5B
  8
3
  6
CONTINUOUS
 62
     0
 10
735.14893900000038
 20
2835.1579750000001
 30
0.0
 11
735.14893900000015
 21
2080.1579750000001
 31
0.0
  0
INSERT
  5
7E5C
  8
3
  6
CONTINUOUS
 62
     0
  2
_OPEN
 10
735.14893900000038
 20
2875.1579750000001
 30
0.0
 41
40.0
 42
40.0
 43
40.0
 50
90.0
  0
INSERT
  5
7E5D
  8
3
  6
CONTINUOUS
 62
     0
  2
_OPEN
 10
735.14893900000015
 20
2040.1579750000001
 30
0.0
 41
40.0
 42
40.0
 43
40.0
 50
270.0
  0
TEXT
  8
3
  40
60
  5
7ED2
  62
0
  72
0
  71
0
 10
565.149
 20
2366.37
 30
0.000000
  1
835
  0
POINT
  5
7E5F
  8
DEFPOINTS
  6
CONTINUOUS
 62
     0
 10
1056.9146039999989
 20
2875.1579750000001
 30
0.0
  0
POINT
  5
7E60
  8
DEFPOINTS
  6
CONTINUOUS
 62
     0
 10
1096.9146039999989
 20
2040.1579750000001
 30
0.0
  0
POINT
  5
7E61
  8
DEFPOINTS
  6
CONTINUOUS
 62
     0
 10
735.14893900000015
 20
2040.1579750000001
 30
0.0
  0
ENDBLK
  5
7BDD
  8
0
  0
BLOCK
  8
0
  2
*D6
 70
     1
 10
0.0
 20
0.0
 30
0.0
  3
*D6
  1

  0
LINE
  5
7E62
  8
3
  6
CONTINUOUS
 62
     0
 10
1056.9146039999989
 20
2885.1579750000001
 30
0.0
 11
1056.9146039999989
 21
2985.2466209999998
 31
0.0
  0
LINE
  5
7E63
  8
3
  6
CONTINUOUS
 62
     0
 10
1356.9146039999989
 20
2968.9236780000001
 30
0.0
 11
1356.9146039999989
 21
2985.2466209999998
 31
0.0
  0
LINE
  5
7E64
  8
3
  6
CONTINUOUS
 62
     0
 10
1016.914603999999
 20
2965.2466209999998
 30
0.0
 11
976.91460399999983
 21
2965.2466209999998
 31
0.0
  0
LINE
  5
7E65
  8
3
  6
CONTINUOUS
 62
     0
 10
1396.9146040000001
 20
2965.2466209999998
 30
0.0
 11
1436.9146040000001
 21
2965.2466209999998
 31
0.0
  0
LINE
  5
7E66
  8
3
  6
CONTINUOUS
 62
     0
 10
1056.9146039999989
 20
2965.2466209999998
 30
0.0
 11
1356.9146039999989
 21
2965.2466209999998
 31
0.0
  0
INSERT
  5
7E67
  8
3
  6
CONTINUOUS
 62
     0
  2
_OPEN
 10
1056.9146039999989
 20
2965.2466209999998
 30
0.0
 41
40.0
 42
40.0
 43
40.0
  0
INSERT
  5
7E68
  8
3
  6
CONTINUOUS
 62
     0
  2
_OPEN
 10
1356.9146039999989
 20
2965.2466209999998
 30
0.0
 41
40.0
 42
40.0
 43
40.0
 50
180.0
  0
TEXT
  8
3
  40
60
  5
7ED3
  62
0
  72
0
  71
0
 10
1099.77
 20
2909.05
 30
0.000000
  1
300
  0
POINT
  5
7E6A
  8
DEFPOINTS
  6
CONTINUOUS
 62
     0
 10
1056.9146039999989
 20
2875.1579750000001
 30
0.0
  0
POINT
  5
7E6B
  8
DEFPOINTS
  6
CONTINUOUS
 62
     0
 10
1356.9146039999989
 20
2958.9236780000001
 30
0.0
  0
POINT
  5
7E6C
  8
DEFPOINTS
  6
CONTINUOUS
 62
     0
 10
1356.9146039999989
 20
2965.2466209999998
 30
0.0
  0
ENDBLK
  5
7D06
  8
0
  0
BLOCK
  8
0
  2
*D7
 70
     1
 10
0.0
 20
0.0
 30
0.0
  3
*D7
  1

  0
LINE
  5
7E6D
  8
3
  6
CONTINUOUS
 62
     0
 10
1696.9146039999989
 20
2770.1579750000001
 30
0.0
 11
1696.9146039999989
 21
2985.2466209999998
 31
0.0
  0
LINE
  5
7E6E
  8
3
  6
CONTINUOUS
 62
     0
 10
1396.9146040000001
 20
2965.2466209999998
 30
0.0
 11
1656.9146039999989
 21
2965.2466209999998
 31
0.0
  0
INSERT
  5
7E6F
  8
3
  6
CONTINUOUS
 62
     0
  2
_OPEN
 10
1356.9146039999989
 20
2965.2466209999998
 30
0.0
 41
40.0
 42
40.0
 43
40.0
 50
180.0
  0
INSERT
  5
7E70
  8
3
  6
CONTINUOUS
 62
     0
  2
_OPEN
 10
1696.9146039999989
 20
2965.2466209999998
 30
0.0
 41
40.0
 42
40.0
 43
40.0
  0
TEXT
  8
3
  40
60
  5
7ED4
  62
0
  72
0
  71
0
 10
1406.91
 20
2909.05
 30
0.000000
  1
340
  0
POINT
  5
7E72
  8
DEFPOINTS
  6
CONTINUOUS
 62
     0
 10
1356.9146039999989
 20
2958.9236780000001
 30
0.0
  0
POINT
  5
7E73
  8
DEFPOINTS
  6
CONTINUOUS
 62
     0
 10
1696.9146039999989
 20
2760.1579750000001
 30
0.0
  0
POINT
  5
7E74
  8
DEFPOINTS
  6
CONTINUOUS
 62
     0
 10
1696.9146039999989
 20
2965.2466209999998
 30
0.0
  0
ENDBLK
  5
7CFB
  8
0
  0
BLOCK
  8
0
  2
*D8
 70
     1
 10
0.0
 20
0.0
 30
0.0
  3
*D8
  1

  0
LINE
  5
7DD1
  8
0
  6
BYBLOCK
 62
     0
 10
1096.9146039999989
 20
2030.1579750000001
 30
0.0
 11
1096.9146039999989
 21
1872.9032219999999
 31
0.0
  0
LINE
  5
7DD2
  8
0
  6
BYBLOCK
 62
     0
 10
1356.9146039999989
 20
1970.9031789999999
 30
0.0
 11
1356.9146039999989
 21
1872.9032219999999
 31
0.0
  0
LINE
  5
7DD3
  8
0
  6
BYBLOCK
 62
     0
 10
1136.9146039999989
 20
1892.9032219999999
 30
0.0
 11
1316.9146039999989
 21
1892.9032219999999
 31
0.0
  0
TEXT
  5
7DD4
  8
3
 62
     0
 10
1149.771746857142
 20
1914.993531044579
 30
0.0
 40
60.0
  1
260
  0
INSERT
  5
7DD5
  8
0
  6
BYBLOCK
 62
     0
  2
_OPEN
 10
1096.9146039999989
 20
1892.9032219999999
 30
0.0
 41
40.0
 42
40.0
 43
40.0
 50
180.0
  0
INSERT
  5
7DD6
  8
0
  6
BYBLOCK
 62
     0
  2
_OPEN
 10
1356.9146039999989
 20
1892.9032219999999
 30
0.0
 41
40.0
 42
40.0
 43
40.0
  0
POINT
  5
7DD7
  8
DEFPOINTS
  6
BYBLOCK
 62
     0
 10
1096.9146039999989
 20
2040.1579750000001
 30
0.0
  0
POINT
  5
7DD8
  8
DEFPOINTS
  6
BYBLOCK
 62
     0
 10
1356.9146039999989
 20
1980.9031789999999
 30
0.0
  0
POINT
  5
7DD9
  8
DEFPOINTS
  6
BYBLOCK
 62
     0
 10
1356.9146039999989
 20
1892.9032219999999
 30
0.0
  0
ENDBLK
  5
7DDA
  8
0
  0
BLOCK
  8
0
  2
*D9
 70
     1
 10
0.0
 20
0.0
 30
0.0
  3
*D9
  1

  0
LINE
  5
7E75
  8
3
  6
CONTINUOUS
 62
     0
 10
2096.9146040000001
 20
2030.1579750000001
 30
0.0
 11
2096.9146040000001
 21
1872.9032219999999
 31
0.0
  0
LINE
  5
7E76
  8
3
  6
CONTINUOUS
 62
     0
 10
1396.9146040000001
 20
1892.9032219999999
 30
0.0
 11
2056.9146040000001
 21
1892.9032219999999
 31
0.0
  0
INSERT
  5
7E77
  8
3
  6
CONTINUOUS
 62
     0
  2
_OPEN
 10
1356.9146039999989
 20
1892.9032219999999
 30
0.0
 41
40.0
 42
40.0
 43
40.0
 50
180.0
  0
INSERT
  5
7E78
  8
3
  6
CONTINUOUS
 62
     0
  2
_OPEN
 10
2096.9146040000001
 20
1892.9032219999999
 30
0.0
 41
40.0
 42
40.0
 43
40.0
  0
TEXT
  8
3
  40
60
  5
7ED5
  62
0
  72
0
  71
0
 10
1606.91
 20
1836.70
 30
0.000000
  1
740
  0
POINT
  5
7E7A
  8
DEFPOINTS
  6
CONTINUOUS
 62
     0
 10
1356.9146039999989
 20
1980.9031789999999
 30
0.0
  0
POINT
  5
7E7B
  8
DEFPOINTS
  6
CONTINUOUS
 62
     0
 10
2096.9146040000001
 20
2040.1579750000001
 30
0.0
  0
POINT
  5
7E7C
  8
DEFPOINTS
  6
CONTINUOUS
 62
     0
 10
2096.9146040000001
 20
1892.9032219999999
 30
0.0
  0
ENDBLK
  5
7CE4
  8
0
  0
BLOCK
  8
0
  2
*D10
 70
     1
 10
0.0
 20
0.0
 30
0.0
  3
*D10
  1

  0
LINE
  5
7E7D
  8
3
  6
CONTINUOUS
 62
     0
 10
2991.8796499999989
 20
2030.1579750000001
 30
0.0
 11
2991.8796499999989
 21
1847.2522160000001
 31
0.0
  0
LINE
  5
7E7E
  8
3
  6
CONTINUOUS
 62
     0
 10
3327.8796499999989
 20
1971.566212260424
 30
0.0
 11
3327.8796499999989
 21
1847.2522160000001
 31
0.0
  0
LINE
  5
7E7F
  8
3
  6
CONTINUOUS
 62
     0
 10
3031.8796499999999
 20
1867.252215999999
 30
0.0
 11
3287.8796499999999
 21
1867.252215999999
 31
0.0
  0
INSERT
  5
7E80
  8
3
  6
CONTINUOUS
 62
     0
  2
_OPEN
 10
2991.8796499999989
 20
1867.252215999999
 30
0.0
 41
40.0
 42
40.0
 43
40.0
 50
180.0
  0
INSERT
  5
7E81
  8
3
  6
CONTINUOUS
 62
     0
  2
_OPEN
 10
3327.8796499999989
 20
1867.252215999999
 30
0.0
 41
40.0
 42
40.0
 43
40.0
  0
TEXT
  8
3
  40
60
  5
7ED6
  62
0
  72
0
  71
0
 10
3072.17
 20
1811.05
 30
0.000000
  1
336
  0
POINT
  5
7E83
  8
DEFPOINTS
  6
CONTINUOUS
 62
     0
 10
2991.8796499999989
 20
2040.1579750000001
 30
0.0
  0
POINT
  5
7E84
  8
DEFPOINTS
  6
CONTINUOUS
 62
     0
 10
3327.8796499999989
 20
1981.566212260424
 30
0.0
  0
POINT
  5
7E85
  8
DEFPOINTS
  6
CONTINUOUS
 62
     0
 10
3327.8796499999989
 20
1867.252215999999
 30
0.0
  0
ENDBLK
  5
7E07
  8
0
  0
BLOCK
  8
0
  2
*D11
 70
     1
 10
0.0
 20
0.0
 30
0.0
  3
*D11
  1

  0
LINE
  5
7E86
  8
3
  6
CONTINUOUS
 62
     0
 10
3601.8796499999999
 20
2030.1579750000001
 30
0.0
 11
3601.8796499999999
 21
1847.2522160000001
 31
0.0
  0
LINE
  5
7E87
  8
3
  6
CONTINUOUS
 62
     0
 10
3367.8796499999989
 20
1867.252215999999
 30
0.0
 11
3561.8796499999999
 21
1867.252215999999
 31
0.0
  0
TEXT
  8
3
  40
60
  5
7ED7
  62
0
  72
0
  71
0
 10
3353.37
 20
1811.21
 30
0.000000
  1
274
  0
INSERT
  5
7E89
  8
3
  6
CONTINUOUS
 62
     0
  2
_OPEN
 10
3327.8796499999989
 20
1867.252215999999
 30
0.0
 41
40.0
 42
40.0
 43
40.0
 50
180.0
  0
INSERT
  5
7E8A
  8
3
  6
CONTINUOUS
 62
     0
  2
_OPEN
 10
3601.8796499999999
 20
1867.252215999999
 30
0.0
 41
40.0
 42
40.0
 43
40.0
  0
POINT
  5
7E8B
  8
DEFPOINTS
  6
CONTINUOUS
 62
     0
 10
3327.8796499999989
 20
1981.566212260424
 30
0.0
  0
POINT
  5
7E8C
  8
DEFPOINTS
  6
CONTINUOUS
 62
     0
 10
3601.8796499999999
 20
2040.1579750000001
 30
0.0
  0
POINT
  5
7E8D
  8
DEFPOINTS
  6
CONTINUOUS
 62
     0
 10
3601.8796499999999
 20
1867.252215999999
 30
0.0
  0
ENDBLK
  5
7E11
  8
0
  0
BLOCK
  8
0
  2
*D12
 70
     1
 10
0.0
 20
0.0
 30
0.0
  3
*D12
  1

  0
LINE
  5
7E8E
  8
3
  6
CONTINUOUS
 62
     0
 10
3477.8796499999999
 20
2858.1579750000001
 30
0.0
 11
3477.8796499999999
 21
2953.9587780000002
 31
0.0
  0
LINE
  5
7E8F
  8
3
  6
CONTINUOUS
 62
     0
 10
3177.8796499999989
 20
2858.1579750000001
 30
0.0
 11
3177.8796499999989
 21
2953.9587780000002
 31
0.0
  0
LINE
  5
7E90
  8
3
  6
CONTINUOUS
 62
     0
 10
3517.8796499999989
 20
2933.9587780000002
 30
0.0
 11
3557.8796499999999
 21
2933.9587780000002
 31
0.0
  0
LINE
  5
7E91
  8
3
  6
CONTINUOUS
 62
     0
 10
3137.8796499999999
 20
2933.9587780000002
 30
0.0
 11
3097.8796499999989
 21
2933.9587780000002
 31
0.0
  0
LINE
  5
7E92
  8
3
  6
CONTINUOUS
 62
     0
 10
3477.8796499999999
 20
2933.9587780000002
 30
0.0
 11
3177.8796499999989
 21
2933.9587780000002
 31
0.0
  0
INSERT
  5
7E93
  8
3
  6
CONTINUOUS
 62
     0
  2
_OPEN
 10
3477.8796499999999
 20
2933.9587780000002
 30
0.0
 41
40.0
 42
40.0
 43
40.0
 50
180.0
  0
INSERT
  5
7E94
  8
3
  6
CONTINUOUS
 62
     0
  2
_OPEN
 10
3177.8796499999989
 20
2933.9587780000002
 30
0.0
 41
40.0
 42
40.0
 43
40.0
  0
TEXT
  8
3
  40
60
  5
7ED8
  62
0
  72
0
  71
0
 10
3195.02
 20
2877.76
 30
0.000000
  1
300
  0
POINT
  5
7E96
  8
DEFPOINTS
  6
CONTINUOUS
 62
     0
 10
3477.8796499999999
 20
2848.1579750000001
 30
0.0
  0
POINT
  5
7E97
  8
DEFPOINTS
  6
CONTINUOUS
 62
     0
 10
3177.8796499999989
 20
2848.1579750000001
 30
0.0
  0
POINT
  5
7E98
  8
DEFPOINTS
  6
CONTINUOUS
 62
     0
 10
3177.8796499999989
 20
2933.9587780000002
 30
0.0
  0
ENDBLK
  5
7D61
  8
0
  0
BLOCK
  8
0
  2
*D13
 70
     1
 10
0.0
 20
0.0
 30
0.0
  3
*D13
  1

  0
LINE
  5
7E99
  8
3
  6
CONTINUOUS
 62
     0
 10
3487.8796499999989
 20
2675.1579750000001
 30
0.0
 11
3668.1585340000001
 21
2675.1579750000001
 31
0.0
  0
LINE
  5
7E9A
  8
3
  6
CONTINUOUS
 62
     0
 10
3487.8796499999989
 20
2245.1579750000001
 30
0.0
 11
3668.1585340000001
 21
2245.1579750000001
 31
0.0
  0
LINE
  5
7E9B
  8
3
  6
CONTINUOUS
 62
     0
 10
3648.1585340000011
 20
2635.1579750000001
 30
0.0
 11
3648.1585340000011
 21
2285.1579750000001
 31
0.0
  0
INSERT
  5
7E9C
  8
3
  6
CONTINUOUS
 62
     0
  2
_OPEN
 10
3648.1585340000011
 20
2675.1579750000001
 30
0.0
 41
40.0
 42
40.0
 43
40.0
 50
90.0
  0
INSERT
  5
7E9D
  8
3
  6
CONTINUOUS
 62
     0
  2
_OPEN
 10
3648.1585340000011
 20
2245.1579750000001
 30
0.0
 41
40.0
 42
40.0
 43
40.0
 50
270.0
  0
TEXT
  8
3
  40
60
  5
7ED9
  62
0
  72
0
  71
0
 10
3478.16
 20
2343.03
 30
0.000000
  1
φ430
  0
POINT
  5
7E9F
  8
DEFPOINTS
  6
CONTINUOUS
 62
     0
 10
3477.8796499999999
 20
2675.1579750000001
 30
0.0
  0
POINT
  5
7EA0
  8
DEFPOINTS
  6
CONTINUOUS
 62
     0
 10
3477.8796499999999
 20
2245.1579750000001
 30
0.0
  0
POINT
  5
7EA1
  8
DEFPOINTS
  6
CONTINUOUS
 62
     0
 10
3648.1585340000011
 20
2245.1579750000001
 30
0.0
  0
ENDBLK
  5
7DC4
  8
0
  0
BLOCK
  8
0
  2
*D14
 70
     1
 10
0.0
 20
0.0
 30
0.0
  3
*D14
  1

  0
LINE
  5
7EA2
  8
3
  6
CONTINUOUS
 62
     0
 10
2106.9146039999991
 20
4138.9279749999996
 30
0.0
 11
2308.7970019999998
 21
4138.9279749999996
 31
0.0
  0
LINE
  5
7EA3
  8
3
  6
CONTINUOUS
 62
     0
 10
2106.9146039999991
 20
3528.9279750000001
 30
0.0
 11
2308.7970019999998
 21
3528.9279750000001
 31
0.0
  0
LINE
  5
7EA4
  8
3
  6
CONTINUOUS
 62
     0
 10
2288.7970019999998
 20
4098.9279749999987
 30
0.0
 11
2288.7970019999998
 21
3568.9279750000001
 31
0.0
  0
INSERT
  5
7EA5
  8
3
  6
CONTINUOUS
 62
     0
  2
_OPEN
 10
2288.7970019999998
 20
4138.9279749999996
 30
0.0
 41
40.0
 42
40.0
 43
40.0
 50
90.0
  0
INSERT
  5
7EA6
  8
3
  6
CONTINUOUS
 62
     0
  2
_OPEN
 10
2288.7970019999998
 20
3528.9279750000001
 30
0.0
 41
40.0
 42
40.0
 43
40.0
 50
270.0
  0
TEXT
  8
3
  40
60
  5
7EDA
  62
0
  72
0
  71
0
 10
2118.80
 20
3744.53
 30
0.000000
  1
610
  0
POINT
  5
7EA8
  8
DEFPOINTS
  6
CONTINUOUS
 62
     0
 10
2096.9146040000001
 20
4138.9279749999996
 30
0.0
  0
POINT
  5
7EA9
  8
DEFPOINTS
  6
CONTINUOUS
 62
     0
 10
2096.9146040000001
 20
3528.9279750000001
 30
0.0
  0
POINT
  5
7EAA
  8
DEFPOINTS
  6
CONTINUOUS
 62
     0
 10
2288.7970019999998
 20
3528.9279750000001
 30
0.0
  0
ENDBLK
  5
7D1C
  8
0
  0
BLOCK
  8
0
  2
*D15
 70
     1
 10
0.0
 20
0.0
 30
0.0
  3
*D15
  1

  0
LINE
  5
7EAB
  8
3
  6
CONTINUOUS
 62
     0
 10
1096.9146039999989
 20
4148.9279749999987
 30
0.0
 11
1096.9146039999989
 21
4256.867158
 31
0.0
  0
LINE
  5
7EAC
  8
3
  6
CONTINUOUS
 62
     0
 10
2096.9146040000001
 20
4148.9279749999987
 30
0.0
 11
2096.9146040000001
 21
4256.867158
 31
0.0
  0
LINE
  5
7EAD
  8
3
  6
CONTINUOUS
 62
     0
 10
1136.9146039999989
 20
4236.867158
 30
0.0
 11
2056.9146040000001
 21
4236.867158
 31
0.0
  0
INSERT
  5
7EAE
  8
3
  6
CONTINUOUS
 62
     0
  2
_OPEN
 10
1096.9146039999989
 20
4236.867158
 30
0.0
 41
40.0
 42
40.0
 43
40.0
 50
180.0
  0
INSERT
  5
7EAF
  8
3
  6
CONTINUOUS
 62
     0
  2
_OPEN
 10
2096.9146040000001
 20
4236.867158
 30
0.0
 41
40.0
 42
40.0
 43
40.0
  0
TEXT
  8
3
  40
60
  5
7EDB
  62
0
  72
0
  71
0
 10
1428.77
 20
4180.67
 30
0.000000
  1
1000
  0
POINT
  5
7EB1
  8
DEFPOINTS
  6
CONTINUOUS
 62
     0
 10
1096.9146039999989
 20
4138.9279749999996
 30
0.0
  0
POINT
  5
7EB2
  8
DEFPOINTS
  6
CONTINUOUS
 62
     0
 10
2096.9146040000001
 20
4138.9279749999996
 30
0.0
  0
POINT
  5
7EB3
  8
DEFPOINTS
  6
CONTINUOUS
 62
     0
 10
2096.9146040000001
 20
4236.867158
 30
0.0
  0
ENDBLK
  5
7D11
  8
0
  0
BLOCK
  8
0
  2
*D16
 70
     1
 10
0.0
 20
0.0
 30
0.0
  3
*D16
  1

  0
LINE
  5
7EB4
  8
3
  6
CONTINUOUS
 62
     0
 10
2997.8796499999989
 20
2825.1579750000001
 30
0.0
 11
2997.8796499999989
 21
3069.7920989999998
 31
0.0
  0
LINE
  5
7EB5
  8
3
  6
CONTINUOUS
 62
     0
 10
3327.8796499999989
 20
3041.2319349999998
 30
0.0
 11
3327.8796499999989
 21
3069.7920989999998
 31
0.0
  0
LINE
  5
7EB6
  8
3
  6
CONTINUOUS
 62
     0
 10
3037.8796499999999
 20
3049.7920989999989
 30
0.0
 11
3287.8796499999999
 21
3049.7920989999989
 31
0.0
  0
INSERT
  5
7EB7
  8
3
  6
CONTINUOUS
 62
     0
  2
_OPEN
 10
2997.8796499999989
 20
3049.7920989999989
 30
0.0
 41
40.0
 42
40.0
 43
40.0
 50
180.0
  0
INSERT
  5
7EB8
  8
3
  6
CONTINUOUS
 62
     0
  2
_OPEN
 10
3327.8796499999989
 20
3049.7920989999989
 30
0.0
 41
40.0
 42
40.0
 43
40.0
  0
TEXT
  8
3
  40
60
  5
7EDC
  62
0
  72
0
  71
0
 10
3023.59
 20
3043.59
 30
0.000000
  1
MAX
  0
TEXT
  8
3
  40
60
  5
7EDD
  62
0
  72
0
  71
0
 10
3023.59
 20
2965.59
 30
0.000000
  1
380
  0
POINT
  5
7EBA
  8
DEFPOINTS
  6
CONTINUOUS
 62
     0
 10
2997.8796499999989
 20
2815.1579749999992
 30
0.0
  0
POINT
  5
7EBB
  8
DEFPOINTS
  6
CONTINUOUS
 62
     0
 10
3327.8796499999989
 20
3031.2319349999998
 30
0.0
  0
POINT
  5
7EBC
  8
DEFPOINTS
  6
CONTINUOUS
 62
     0
 10
3327.8796499999989
 20
3049.7920989999989
 30
0.0
  0
ENDBLK
  5
7DAC
  8
0
  0
BLOCK
  8
0
  2
*D17
 70
     1
 10
0.0
 20
0.0
 30
0.0
  3
*D17
  1

  0
LINE
  5
7EBD
  8
3
  6
CONTINUOUS
 62
     0
 10
3478.8796499999989
 20
2685.1579750000001
 30
0.0
 11
3478.8796499999989
 21
3069.7920989999998
 31
0.0
  0
LINE
  5
7EBE
  8
3
  6
CONTINUOUS
 62
     0
 10
3367.8796499999989
 20
3049.7920989999989
 30
0.0
 11
3438.8796499999999
 21
3049.7920989999989
 31
0.0
  0
TEXT
  8
3
  40
60
  5
7EDE
  62
0
  72
0
  71
0
 10
3283.07
 20
2993.59
 30
0.000000
  1
151
  0
INSERT
  5
7EC0
  8
3
  6
CONTINUOUS
 62
     0
  2
_OPEN
 10
3327.8796499999989
 20
3049.7920989999989
 30
0.0
 41
40.0
 42
40.0
 43
40.0
 50
180.0
  0
INSERT
  5
7EC1
  8
3
  6
CONTINUOUS
 62
     0
  2
_OPEN
 10
3478.8796499999989
 20
3049.7920989999989
 30
0.0
 41
40.0
 42
40.0
 43
40.0
  0
POINT
  5
7EC2
  8
DEFPOINTS
  6
CONTINUOUS
 62
     0
 10
3327.8796499999989
 20
3031.2319349999998
 30
0.0
  0
POINT
  5
7EC3
  8
DEFPOINTS
  6
CONTINUOUS
 62
     0
 10
3478.8796499999989
 20
2675.1579750000001
 30
0.0
  0
POINT
  5
7EC4
  8
DEFPOINTS
  6
CONTINUOUS
 62
     0
 10
3478.8796499999989
 20
3049.7920989999989
 30
0.0
  0
ENDBLK
  5
7D96
  8
0
  0
BLOCK
  8
0
  2
*D18
 70
     1
 10
0.0
 20
0.0
 30
0.0
  3
*D18
  1

  0
LINE
  5
7EC5
  8
3
 62
     0
 10
1056.9146039999989
 20
2885.1579750000001
 30
0.0
 11
1056.9146039999989
 21
3109.6442823335492
 31
0.0
  0
LINE
  5
7EC6
  8
3
 62
     0
 10
2096.9146040000001
 20
2170.1579749999992
 30
0.0
 11
2096.9146040000001
 21
3109.6442823335492
 31
0.0
  0
LINE
  5
7EC7
  8
3
 62
     0
 10
1096.9146039999989
 20
3089.6442823335492
 30
0.0
 11
2056.9146040000001
 21
3089.6442823335492
 31
0.0
  0
INSERT
  5
7EC8
  8
3
 62
     0
  2
_OPEN
 10
1056.9146039999989
 20
3089.6442823335492
 30
0.0
 41
40.0
 42
40.0
 43
40.0
 50
180.0
  0
INSERT
  5
7EC9
  8
3
 62
     0
  2
_OPEN
 10
2096.9146040000001
 20
3089.6442823335492
 30
0.0
 41
40.0
 42
40.0
 43
40.0
  0
TEXT
  8
3
  40
60
  5
7EDF
  62
0
  72
0
  71
0
 10
1498.68
 20
3033.44
 30
0.000000
  1
1040
  0
POINT
  5
7ECB
  8
DEFPOINTS
 62
     0
 10
1056.9146039999989
 20
2875.1579750000001
 30
0.0
  0
POINT
  5
7ECC
  8
DEFPOINTS
 62
     0
 10
2096.9146040000001
 20
2160.1579750000001
 30
0.0
  0
POINT
  5
7ECD
  8
DEFPOINTS
 62
     0
 10
2096.9146040000001
 20
3089.6442823335492
 30
0.0
  0
ENDBLK
  5
7DFB
  8
0
  0
ENDSEC
  0
SECTION
  2
ENTITIES
  0
CIRCLE
  5
7ABB
  8
1
  6
CONTINUOUS
 10
1356.9146039999989
 20
2460.1579750000001
 30
0.0
 40
240.0
  0
LINE
  5
7ABC
  8
1
  6
CONTINUOUS
 10
1086.9146039999989
 20
2760.1579750000001
 30
0.0
 11
1696.9146039999989
 21
2760.1579750000001
 31
0.0
  0
LINE
  5
7ABD
  8
1
  6
CONTINUOUS
 10
1086.9146039999989
 20
2160.1579750000001
 30
0.0
 11
2096.9146040000001
 21
2160.1579750000001
 31
0.0
  0
ARC
  5
7ABE
  8
1
  6
CONTINUOUS
 10
1378.9146039999989
 20
2482.1579750000001
 30
0.0
 40
310.75999999999999
 50
262.69
 51
354.17000000000002
  0
ARC
  5
7ABF
  8
1
  6
CONTINUOUS
 10
1329.9146039999989
 20
2487.1579750000001
 30
0.0
 40
360.00999999999988
 50
354.17000000000002
 51
85.700000000000003
  0
LINE
  5
7AC0
  8
1
  6
CONTINUOUS
 10
1096.9146039999989
 20
2080.1579750000001
 30
0.0
 11
2096.9146040000001
 21
2080.1579750000001
 31
0.0
  0
LINE
  5
7AC1
  8
1
  6
CONTINUOUS
 10
1371.4146039999989
 20
2815.1579749999992
 30
0.0
 11
2051.4146040000001
 21
2410.1579750000001
 31
0.0
  0
LINE
  5
7AC2
  8
1
  6
CONTINUOUS
 10
1911.554603999999
 20
2340.6679749999998
 30
0.0
 11
1394.874603999999
 21
2552.6679749999998
 31
0.0
  0
LINE
  5
7AC3
  8
1
  6
CONTINUOUS
 10
1332.524604
 20
2363.1779750000001
 30
0.0
 11
1874.1446039999989
 21
2226.967975
 31
0.0
  0
CIRCLE
  5
7AC4
  8
1
  6
CONTINUOUS
 10
1356.9146039999989
 20
2460.1579750000001
 30
0.0
 40
215.0
  0
LINE
  5
7AC5
  8
1
  6
CONTINUOUS
 10
1086.9146039999989
 20
2760.1579750000001
 30
0.0
 11
1086.9146039999989
 21
2160.1579750000001
 31
0.0
  0
ARC
  5
7AC6
  8
1
  6
CONTINUOUS
 10
1373.9146039999989
 20
2443.1579750000001
 30
0.0
 40
271.43999999999988
 50
178.94
 51
262.69
  0
LINE
  5
7AC7
  8
2
  6
CENTER
 10
1356.9146039999989
 20
4110.826489955105
 30
0.0
 11
1356.9146039999989
 21
3446.5369839999998
 31
0.0
  0
CIRCLE
  5
7AC8
  8
1
  6
CONTINUOUS
 10
1356.9146039999989
 20
2460.1579750000001
 30
0.0
 40
100.0
  0
LINE
  5
7AC9
  8
1
  6
CONTINUOUS
 10
1181.4146039999989
 20
2160.1579750000001
 30
0.0
 11
1181.4146039999989
 21
2700.1579750000001
 31
0.0
  0
LINE
  5
7ACA
  8
1
  6
CONTINUOUS
 10
1096.9146039999989
 20
2160.1579750000001
 30
0.0
 11
1096.9146039999989
 21
2040.1579750000001
 31
0.0
  0
LINE
  5
7ACB
  8
1
  6
CONTINUOUS
 10
1136.9146039999989
 20
2080.1579750000001
 30
0.0
 11
1136.9146039999989
 21
2040.1579750000001
 31
0.0
  0
LINE
  5
7ACC
  8
1
  6
CONTINUOUS
 10
1096.9146039999989
 20
2040.1579750000001
 30
0.0
 11
1136.9146039999989
 21
2040.1579750000001
 31
0.0
  0
LINE
  5
7ACD
  8
1
  6
CONTINUOUS
 10
1056.9146039999989
 20
2848.1579750000001
 30
0.0
 11
1356.9146039999989
 21
2846.1579750000001
 31
0.0
  0
LINE
  5
7ACE
  8
1
  6
CONTINUOUS
 10
1181.4146039999989
 20
2700.1579750000001
 30
0.0
 11
1371.4146039999989
 21
2815.1579749999992
 31
0.0
  0
LINE
  5
7ACF
  8
1
  6
CONTINUOUS
 10
1056.9146039999989
 20
2421.1579750000001
 30
0.0
 11
1056.9146039999989
 21
2875.1579750000001
 31
0.0
  0
LINE
  5
7AD0
  8
1
  6
CONTINUOUS
 10
1076.9146039999989
 20
2448.1579750000001
 30
0.0
 11
1076.9146039999989
 21
2848.0179750000002
 31
0.0
  0
LINE
  5
7AD1
  8
1
  6
CONTINUOUS
 10
1102.514604
 20
2448.1579750000001
 30
0.0
 11
1056.9146039999989
 21
2448.1579750000001
 31
0.0
  0
LINE
  5
7AD2
  8
2
  6
CENTER
 10
943.60180563017275
 20
2460.1579750000001
 30
0.0
 11
2067.5883779836872
 21
2460.1579750000001
 31
0.0
  0
LINE
  5
7AD6
  8
1
  6
CONTINUOUS
 10
1696.9146039999989
 20
2760.1579750000001
 30
0.0
 11
1696.9146039999989
 21
2160.1579750000001
 31
0.0
  0
LINE
  5
7AD7
  8
1
  6
CONTINUOUS
 10
2051.4146040000001
 20
2160.1579750000001
 30
0.0
 11
2051.4146040000001
 21
2410.1579750000001
 31
0.0
  0
LINE
  5
7AD8
  8
1
  6
CONTINUOUS
 10
1788.784603999999
 20
2197.1579750000001
 30
0.0
 11
1808.244604
 21
2224.197975
 31
0.0
  0
ARC
  5
7AD9
  8
1
  6
CONTINUOUS
 10
1888.784603999999
 20
2285.1579750000001
 30
0.0
 40
101.0
 50
322.88
 51
217.12
  0
LINE
  5
7ADA
  8
1
  6
CONTINUOUS
 10
1788.784603999999
 20
2160.1579750000001
 30
0.0
 11
1788.784603999999
 21
2197.1579750000001
 31
0.0
  0
LINE
  5
7ADB
  8
2
  6
CENTER
 10
1888.784603999999
 20
2225.1579750000001
 30
0.0
 11
1888.784603999999
 21
2345.1579750000001
 31
0.0
  0
LINE
  5
7ADC
  8
2
  6
CENTER
 10
1948.7846039999999
 20
2285.1579750000001
 30
0.0
 11
1828.7846039999999
 21
2285.1579750000001
 31
0.0
  0
CIRCLE
  5
7ADD
  8
1
  6
CONTINUOUS
 10
1888.784603999999
 20
2285.1579750000001
 30
0.0
 40
60.0
  0
LINE
  5
7ADE
  8
1
  6
CONTINUOUS
 10
2096.9146040000001
 20
2160.1579750000001
 30
0.0
 11
2096.9146040000001
 21
2040.1579750000001
 31
0.0
  0
LINE
  5
7ADF
  8
1
  6
CONTINUOUS
 10
1988.7846039999999
 20
2197.1579750000001
 30
0.0
 11
1969.3146039999999
 21
2224.197975
 31
0.0
  0
LINE
  5
7AE0
  8
1
  6
CONTINUOUS
 10
1988.7846039999999
 20
2160.1579750000001
 30
0.0
 11
1988.7846039999999
 21
2197.1579750000001
 31
0.0
  0
LINE
  5
7AE1
  8
1
  6
CONTINUOUS
 10
2096.9146040000001
 20
2040.1579750000001
 30
0.0
 11
2056.9146040000001
 21
2040.1579750000001
 31
0.0
  0
LINE
  5
7AE2
  8
1
  6
CONTINUOUS
 10
2056.9146040000001
 20
2080.1579750000001
 30
0.0
 11
2056.9146040000001
 21
2040.1579750000001
 31
0.0
  0
LINE
  5
7B05
  8
1
  6
CONTINUOUS
 10
3521.8796499999989
 20
2160.1579750000001
 30
0.0
 11
2997.8796499999989
 21
2160.1579750000001
 31
0.0
  0
LINE
  5
7B06
  8
1
  6
CONTINUOUS
 10
3601.8796499999999
 20
2080.1579750000001
 30
0.0
 11
2991.8796499999989
 21
2080.1579750000001
 31
0.0
  0
LINE
  5
7B07
  8
1
  6
CONTINUOUS
 10
3601.8796499999999
 20
2040.1579750000001
 30
0.0
 11
2991.8796499999989
 21
2040.1579750000001
 31
0.0
  0
LINE
  5
7B08
  8
1
  6
CONTINUOUS
 10
3022.8796499999999
 20
2358.3879750000001
 30
0.0
 11
3022.8796499999999
 21
2561.9179749999998
 31
0.0
  0
LINE
  5
7B09
  8
1
  6
CONTINUOUS
 10
3072.8796499999989
 20
2358.3879750000001
 30
0.0
 11
3072.8796499999989
 21
2561.9179749999998
 31
0.0
  0
LINE
  5
7B0A
  8
1
  6
CONTINUOUS
 10
3097.8796499999989
 20
2160.1579750000001
 30
0.0
 11
3097.8796499999989
 21
2815.1579749999992
 31
0.0
  0
LINE
  5
7B0B
  8
1
  6
CONTINUOUS
 10
2997.8796499999989
 20
2160.1579750000001
 30
0.0
 11
2997.8796499999989
 21
2815.1579749999992
 31
0.0
  0
LINE
  5
7B0C
  8
1
  6
CONTINUOUS
 10
3477.8796499999999
 20
2848.1579750000001
 30
0.0
 11
3477.8796499999999
 21
2160.1579750000001
 31
0.0
  0
LINE
  5
7B0D
  8
1
  6
CONTINUOUS
 10
3177.8796499999989
 20
2848.1579750000001
 30
0.0
 11
3177.8796499999989
 21
2160.1579750000001
 31
0.0
  0
LINE
  5
7B0E
  8
1
  6
CONTINUOUS
 10
3022.8796499999999
 20
2358.3879750000001
 30
0.0
 11
3072.8796499999989
 21
2358.3879750000001
 31
0.0
  0
LINE
  5
7B0F
  8
1
  6
CONTINUOUS
 10
3022.8796499999999
 20
2225.1579750000001
 30
0.0
 11
3072.8796499999989
 21
2225.1579750000001
 31
0.0
  0
LINE
  5
7B10
  8
1
  6
CONTINUOUS
 10
3022.8796499999999
 20
2345.1579750000001
 30
0.0
 11
3072.8796499999989
 21
2345.1579750000001
 31
0.0
  0
LINE
  5
7B11
  8
1
  6
CONTINUOUS
 10
3022.8796499999999
 20
2225.1579750000001
 30
0.0
 11
3022.8796499999999
 21
2345.1579750000001
 31
0.0
  0
LINE
  5
7B12
  8
1
  6
CONTINUOUS
 10
2991.8796499999989
 20
2080.1579750000001
 30
0.0
 11
2991.8796499999989
 21
2040.1579750000001
 31
0.0
  0
LINE
  5
7B13
  8
1
  6
CONTINUOUS
 10
3072.8796499999989
 20
2271.1579750000001
 30
0.0
 11
3177.8796499999989
 21
2271.1579750000001
 31
0.0
  0
LINE
  5
7B14
  8
1
  6
CONTINUOUS
 10
3072.8796499999989
 20
2299.1579749999992
 30
0.0
 11
3177.8796499999989
 21
2299.1579749999992
 31
0.0
  0
LINE
  5
7B15
  8
1
  6
CONTINUOUS
 10
3072.8796499999989
 20
2225.1579750000001
 30
0.0
 11
3072.8796499999989
 21
2345.1579750000001
 31
0.0
  0
LINE
  5
7B16
  8
1
  6
CONTINUOUS
 10
3133.8796499999999
 20
2160.1579750000001
 30
0.0
 11
3133.8796499999999
 21
2080.1579750000001
 31
0.0
  0
LINE
  5
7B17
  8
1
  6
CONTINUOUS
 10
3177.8796499999989
 20
2448.1579750000001
 30
0.0
 11
3477.8796499999999
 21
2848.1579750000001
 31
0.0
  0
LINE
  5
7B18
  8
1
  6
CONTINUOUS
 10
3477.8796499999999
 20
2448.1579750000001
 30
0.0
 11
3177.8796499999989
 21
2848.1579750000001
 31
0.0
  0
LINE
  5
7B19
  8
1
  6
CONTINUOUS
 10
3177.8796499999989
 20
2448.1579750000001
 30
0.0
 11
3477.8796499999999
 21
2448.1579750000001
 31
0.0
  0
LINE
  5
7B1A
  8
1
  6
CONTINUOUS
 10
3177.8796499999989
 20
2848.1579750000001
 30
0.0
 11
3477.8796499999999
 21
2848.1579750000001
 31
0.0
  0
LINE
  5
7B1B
  8
1
  6
CONTINUOUS
 10
3022.8796499999999
 20
2561.9179749999998
 30
0.0
 11
3072.8796499999989
 21
2561.9179749999998
 31
0.0
  0
LINE
  5
7B1C
  8
1
  6
CONTINUOUS
 10
2997.8796499999989
 20
2815.1579749999992
 30
0.0
 11
3097.8796499999989
 21
2815.1579749999992
 31
0.0
  0
LINE
  5
7B1D
  8
1
  6
CONTINUOUS
 10
3072.8796499999989
 20
2447.9179749999998
 30
0.0
 11
3178.67965
 21
2447.9179749999998
 31
0.0
  0
LINE
  5
7B1E
  8
1
  6
CONTINUOUS
 10
3072.8796499999989
 20
2475.9179749999989
 30
0.0
 11
3178.67965
 21
2475.9179749999989
 31
0.0
  0
LINE
  5
7B1F
  8
1
  6
CONTINUOUS
 10
3521.8796499999989
 20
2160.1579750000001
 30
0.0
 11
3521.8796499999989
 21
2080.1579750000001
 31
0.0
  0
LINE
  5
7B20
  8
1
  6
CONTINUOUS
 10
3601.8796499999999
 20
2080.1579750000001
 30
0.0
 11
3601.8796499999999
 21
2040.1579750000001
 31
0.0
  0
LINE
  5
7B21
  8
1
  6
CONTINUOUS
 10
1096.9146039999989
 20
4058.9279750000001
 30
0.0
 11
2096.9146040000001
 21
4058.9279750000001
 31
0.0
  0
LINE
  5
7B22
  8
1
  6
CONTINUOUS
 10
1696.9146039999989
 20
3714.9279750000001
 30
0.0
 11
1056.9146039999989
 21
3714.9279750000001
 31
0.0
  0
LINE
  5
7B23
  8
1
  6
CONTINUOUS
 10
1696.9146039999989
 20
4014.9279749999992
 30
0.0
 11
1056.9146039999989
 21
4014.9279749999992
 31
0.0
  0
LINE
  5
7B24
  8
1
  6
CONTINUOUS
 10
2051.4146040000001
 20
3534.9279750000001
 30
0.0
 11
1181.4146039999989
 21
3534.9279750000001
 31
0.0
  0
LINE
  5
7B25
  8
1
  6
CONTINUOUS
 10
2051.4146040000001
 20
3634.9279750000001
 30
0.0
 11
1181.4146039999989
 21
3634.9279750000001
 31
0.0
  0
LINE
  5
7B26
  8
1
  6
CONTINUOUS
 10
1370.9146039999989
 20
3670.9279750000001
 30
0.0
 11
1874.7846039999999
 21
3670.9279750000001
 31
0.0
  0
LINE
  5
7B27
  8
1
  6
CONTINUOUS
 10
1096.9146039999989
 20
3670.9279750000001
 30
0.0
 11
1342.9146039999989
 21
3670.9279750000001
 31
0.0
  0
LINE
  5
7B28
  8
1
  6
CONTINUOUS
 10
1056.9146039999989
 20
3687.9279750000001
 30
0.0
 11
1056.9146039999989
 21
4041.9279750000001
 31
0.0
  0
LINE
  5
7B29
  8
1
  6
CONTINUOUS
 10
1076.9146039999989
 20
3714.9279750000001
 30
0.0
 11
1076.9146039999989
 21
4014.9279749999992
 31
0.0
  0
LINE
  5
7B2A
  8
1
  6
CONTINUOUS
 10
1181.4146039999989
 20
3534.9279750000001
 30
0.0
 11
1181.4146039999989
 21
3634.9279750000001
 31
0.0
  0
LINE
  5
7B2B
  8
1
  6
CONTINUOUS
 10
1096.9146039999989
 20
3714.9279750000001
 30
0.0
 11
1096.9146039999989
 21
3528.9279750000001
 31
0.0
  0
LINE
  5
7B2C
  8
1
  6
CONTINUOUS
 10
1136.9146039999989
 20
3670.9279750000001
 30
0.0
 11
1136.9146039999989
 21
3528.9279750000001
 31
0.0
  0
LINE
  5
7B2D
  8
1
  6
CONTINUOUS
 10
1136.9146039999989
 20
3528.9279750000001
 30
0.0
 11
1096.9146039999989
 21
3528.9279750000001
 31
0.0
  0
LINE
  5
7B2E
  8
1
  6
CONTINUOUS
 10
1096.9146039999989
 20
4138.9279749999996
 30
0.0
 11
1096.9146039999989
 21
4014.9279749999992
 31
0.0
  0
LINE
  5
7B2F
  8
1
  6
CONTINUOUS
 10
1136.9146039999989
 20
4138.9279749999996
 30
0.0
 11
1096.9146039999989
 21
4138.9279749999996
 31
0.0
  0
LINE
  5
7B30
  8
1
  6
CONTINUOUS
 10
1136.9146039999989
 20
4138.9279749999996
 30
0.0
 11
1136.9146039999989
 21
4058.9279750000001
 31
0.0
  0
LINE
  5
7B31
  8
1
  6
CONTINUOUS
 10
1460.444604
 20
3559.9279750000001
 30
0.0
 11
1256.9146039999989
 21
3559.9279750000001
 31
0.0
  0
LINE
  5
7B32
  8
1
  6
CONTINUOUS
 10
1460.444604
 20
3609.9279750000001
 30
0.0
 11
1256.9146039999989
 21
3609.9279750000001
 31
0.0
  0
LINE
  5
7B33
  8
1
  6
CONTINUOUS
 10
1256.9146039999989
 20
3559.9279750000001
 30
0.0
 11
1256.9146039999989
 21
3609.9279750000001
 31
0.0
  0
LINE
  5
7B34
  8
1
  6
CONTINUOUS
 10
1342.9146039999989
 20
3609.9279750000001
 30
0.0
 11
1342.9146039999989
 21
3714.9279750000001
 31
0.0
  0
LINE
  5
7B35
  8
1
  6
CONTINUOUS
 10
1460.444604
 20
3559.9279750000001
 30
0.0
 11
1460.444604
 21
3609.9279750000001
 31
0.0
  0
LINE
  5
7B36
  8
1
  6
CONTINUOUS
 10
1370.9146039999989
 20
3609.9279750000001
 30
0.0
 11
1370.9146039999989
 21
3714.9279750000001
 31
0.0
  0
LINE
  5
7B3B
  8
1
  6
CONTINUOUS
 10
1787.7846039999999
 20
3945.1279749999999
 30
0.0
 11
1989.7846039999999
 21
3945.1279749999999
 31
0.0
  0
LINE
  5
7B3C
  8
1
  6
CONTINUOUS
 10
1787.7846039999999
 20
3702.447975
 30
0.0
 11
1989.7846039999999
 21
3702.447975
 31
0.0
  0
LINE
  5
7B3D
  8
1
  6
CONTINUOUS
 10
1787.7846039999999
 20
3702.447975
 30
0.0
 11
1787.7846039999999
 21
3945.1279749999999
 31
0.0
  0
LINE
  5
7B3E
  8
1
  6
CONTINUOUS
 10
1696.9146039999989
 20
3714.9279750000001
 30
0.0
 11
1696.9146039999989
 21
4014.9279749999992
 31
0.0
  0
LINE
  5
7B3F
  8
1
  6
CONTINUOUS
 10
1989.7846039999999
 20
3702.447975
 30
0.0
 11
1989.7846039999999
 21
3945.1279749999999
 31
0.0
  0
LINE
  5
7B40
  8
1
  6
CONTINUOUS
 10
2096.9146040000001
 20
4138.9279749999996
 30
0.0
 11
2096.9146040000001
 21
3528.9279750000001
 31
0.0
  0
LINE
  5
7B41
  8
1
  6
CONTINUOUS
 10
1902.7846039999999
 20
3670.9279750000001
 30
0.0
 11
2096.9146040000001
 21
3670.9279750000001
 31
0.0
  0
LINE
  5
7B42
  8
1
  6
CONTINUOUS
 10
1902.7846039999999
 20
3609.9279750000001
 30
0.0
 11
1902.7846039999999
 21
3702.447975
 31
0.0
  0
LINE
  5
7B43
  8
1
  6
CONTINUOUS
 10
1874.7846039999999
 20
3609.9279750000001
 30
0.0
 11
1874.7846039999999
 21
3702.447975
 31
0.0
  0
LINE
  5
7B44
  8
1
  6
CONTINUOUS
 10
1948.7846039999999
 20
3559.9279750000001
 30
0.0
 11
1948.7846039999999
 21
3609.9279750000001
 31
0.0
  0
LINE
  5
7B45
  8
1
  6
CONTINUOUS
 10
1828.7846039999999
 20
3559.9279750000001
 30
0.0
 11
1828.7846039999999
 21
3609.9279750000001
 31
0.0
  0
LINE
  5
7B46
  8
1
  6
CONTINUOUS
 10
1948.7846039999999
 20
3559.9279750000001
 30
0.0
 11
1828.7846039999999
 21
3559.9279750000001
 31
0.0
  0
LINE
  5
7B47
  8
1
  6
CONTINUOUS
 10
1948.7846039999999
 20
3609.9279750000001
 30
0.0
 11
1828.7846039999999
 21
3609.9279750000001
 31
0.0
  0
LINE
  5
7B48
  8
1
  6
CONTINUOUS
 10
2051.4146040000001
 20
3534.9279750000001
 30
0.0
 11
2051.4146040000001
 21
3634.9279750000001
 31
0.0
  0
LINE
  5
7B49
  8
1
  6
CONTINUOUS
 10
2056.9146040000001
 20
3528.9279750000001
 30
0.0
 11
2096.9146040000001
 21
3528.9279750000001
 31
0.0
  0
LINE
  5
7B4A
  8
1
  6
CONTINUOUS
 10
2056.9146040000001
 20
3670.9279750000001
 30
0.0
 11
2056.9146040000001
 21
3528.9279750000001
 31
0.0
  0
LINE
  5
7B4B
  8
1
  6
CONTINUOUS
 10
2056.9146040000001
 20
4138.9279749999996
 30
0.0
 11
2056.9146040000001
 21
4058.9279750000001
 31
0.0
  0
LINE
  5
7B4C
  8
1
  6
CONTINUOUS
 10
2056.9146040000001
 20
4138.9279749999996
 30
0.0
 11
2096.9146040000001
 21
4138.9279749999996
 31
0.0
  0
LINE
  5
7B72
  8
2
  6
CENTER
 10
3327.8796499999989
 20
3031.2319349999998
 30
0.0
 11
3327.8796499999989
 21
3028.257623
 31
0.0
  0
LINE
  5
7B73
  8
2
  6
CENTER
 10
2190.701787
 20
3864.9279750000001
 30
0.0
 11
967.55814099999986
 21
3864.9279750000001
 31
0.0
  0
LINE
  5
7B74
  8
2
  6
CENTER
 10
2874.3912049999999
 20
2460.1579750000001
 30
0.0
 11
3533.75684
 21
2460.1579750000001
 31
0.0
  0
LINE
  5
7B75
  8
2
  6
CENTER
 10
1356.9146039999989
 20
2958.9236780000001
 30
0.0
 11
1356.9146039999989
 21
1980.9031789999999
 31
0.0
  0
LINE
  5
7B76
  8
4
  6
CONTINUOUS
 10
3700.0
 20
1000.0
 30
0.0
 11
3700.0
 21
600.0
 31
0.0
  0
LINE
  5
7B77
  8
4
  6
CONTINUOUS
 10
2300.0
 20
1000.0
 30
0.0
 11
2300.0
 21
600.0
 31
0.0
  0
LINE
  5
7B78
  8
4
  6
CONTINUOUS
 10
1300.0
 20
1000.0
 30
0.0
 11
1300.0
 21
600.0
 31
0.0
  0
LINE
  5
7B7B
  8
4
  6
CONTINUOUS
 10
1300.0
 20
600.0
 30
0.0
 11
3700.0
 21
600.0
 31
0.0
  0
LINE
  5
7B7C
  8
4
  6
CONTINUOUS
 10
1300.0
 20
800.0
 30
0.0
 11
3700.0
 21
800.0
 31
0.0
  0
TEXT
  5
7B7D
  8
4
  6
CONTINUOUS
 10
1377.004162
 20
863.086052
 30
0.0
 40
100.0
  1
機器名称
  0
TEXT
  5
7B7E
  8
4
  6
CONTINUOUS
 10
1372.516212
 20
643.29031299999986
 30
0.0
 40
100.0
  1
機器型番
  0
TEXT
  5
7B7F
  8
4
  6
CONTINUOUS
 10
2355.3574910000002
 20
845.14353800000015
 30
0.0
 40
100.0
  1
ミツヤ多翼送風機
  0
TEXT
  5
7B80
  8
4
  6
CONTINUOUS
 10
2373.3089909999999
 20
634.31916899999999
 30
0.0
 40
100.0
  1
MF#2 1/2-4
  0
TEXT
  5
7B82
  8
4
  6
CONTINUOUS
 10
1627.4608920000001
 20
4766.8576830000002
 30
0.0
 40
108.0
  1
天井吊ベット
  0
TEXT
  5
7B83
  8
4
  6
CONTINUOUS
 10
632.33518700000002
 20
5067.7619520000007
 30
0.0
 40
144.0
  1
ベルト駆動式片吸込両持多翼ファン
  0
LINE
  5
7B84
  8
4
  6
CONTINUOUS
 10
500.0
 20
4938.8175090000004
 30
0.0
 11
3700.0
 21
4938.8175090000004
 31
0.0
  0
LINE
  5
7B85
  8
4
  6
CONTINUOUS
 10
500.0
 20
5338.8175090000004
 30
0.0
 11
3700.0
 21
5338.8175090000004
 31
0.0
  0
LINE
  5
7B86
  8
4
  6
CONTINUOUS
 10
1300.0
 20
1000.0
 30
0.0
 11
3700.0
 21
1000.0
 31
0.0
  0
LINE
  5
7B87
  8
4
  6
CONTINUOUS
 10
500.0
 20
5338.8175090000004
 30
0.0
 11
500.0
 21
4938.8175090000004
 31
0.0
  0
TEXT
  5
7B88
  8
4
  6
CONTINUOUS
 10
755.74322699999993
 20
4764.6389549999994
 30
0.0
 40
108.0
  1
左回転左横向
  0
TEXT
  5
7B89
  8
4
  6
CONTINUOUS
 10
2937.9391179999998
 20
5412.122163
 30
0.0
 40
112.0
  1
No.
  0
TEXT
  5
7B8A
  8
4
  6
CONTINUOUS
 10
2622.5921250000001
 20
4766.8576830000002
 30
0.0
 40
108.0
  1
縮尺：1/20
  0
LINE
  5
7B8B
  8
4
  6
CONTINUOUS
 10
3700.0
 20
5338.8175090000004
 30
0.0
 11
3700.0
 21
4938.8175090000004
 31
0.0
  0
LINE
  5
7B8D
  8
4
  6
CONTINUOUS
 10
2881.234845
 20
5362.5271659999999
 30
0.0
 11
2881.234845
 21
5573.3045229999998
 31
0.0
  0
LINE
  5
7B8E
  8
4
  6
CONTINUOUS
 10
2881.234845
 20
5573.3045229999998
 30
0.0
 11
3700.0
 21
5573.3045229999998
 31
0.0
  0
LINE
  5
7B8F
  8
4
  6
CONTINUOUS
 10
3700.0
 20
5573.3045229999998
 30
0.0
 11
3700.0
 21
5362.5271659999999
 31
0.0
  0
LINE
  5
7B90
  8
4
  6
CONTINUOUS
 10
3700.0
 20
5362.5271659999999
 30
0.0
 11
2881.234845
 21
5362.5271659999999
 31
0.0
  0
DIMENSION
  5
7BA8
  8
3
  6
CONTINUOUS
  2
*D1
 10
1019.334013
 20
2448.1579750000001
 30
0.0
 11
1019.334013
 21
2643.7195029999998
 31
0.0
 70
   128
 13
1056.9146039999989
 23
2848.1579750000001
 33
0.0
 14
1056.9146039999989
 24
2448.1579750000001
 34
0.0
 50
90.0
1001
ACAD
1000
DSTYLE
1002
{
1070
   287
1070
     3
1070
    40
1040
20.0
1070
   143
1040
0.039
1070
   172
1070
     1
1070
   271
1070
     0
1070
   279
1070
     0
1070
   288
1070
     1
1002
}
  0
DIMENSION
  5
7BB5
  8
3
  6
CONTINUOUS
  2
*D2
 10
874.72252700000035
 20
2460.1579750000001
 30
0.0
 11
874.7225269999999
 21
2643.7195029999998
 31
0.0
 70
   128
 13
1019.334013
 23
2848.1579750000001
 33
0.0
 14
942.48639390839514
 24
2460.1579750000001
 34
0.0
 50
90.0
1001
ACAD
1000
DSTYLE
1002
{
1070
   287
1070
     3
1070
    40
1040
20.0
1070
   143
1040
0.039
1070
   172
1070
     1
1070
   271
1070
     0
1070
   279
1070
     0
1070
   288
1070
     1
1002
}
  0
DIMENSION
  5
7BC1
  8
3
  6
CONTINUOUS
  2
*D3
 10
874.7225269999999
 20
2080.1579750000001
 30
0.0
 11
824.72252699999945
 21
2270.1579750000001
 31
0.0
 70
     0
 13
942.48639390839514
 23
2460.1579750000001
 33
0.0
 14
1096.9146039999989
 24
2080.1579750000001
 34
0.0
 50
90.0
1001
ACAD
1000
DSTYLE
1002
{
1070
   287
1070
     4
1070
    40
1040
20.0
1070
    75
1070
     1
1070
   143
1040
0.039
1070
   172
1070
     1
1070
   271
1070
     0
1070
   279
1070
     1
1070
   288
1070
     1
1002
}
  0
DIMENSION
  5
7BD1
  8
3
  6
CONTINUOUS
  2
*D4
 10
873.97044300000027
 20
2040.1579750000001
 30
0.0
 11
873.97044299999993
 21
1891.586546428571
 31
0.0
 70
   128
 13
1096.9146039999989
 23
2080.1579750000001
 33
0.0
 14
1096.9146039999989
 24
2040.1579750000001
 34
0.0
 50
90.0
1001
ACAD
1000
DSTYLE
1002
{
1070
   287
1070
     3
1070
    40
1040
20.0
1070
   143
1040
0.039
1070
   172
1070
     1
1070
   271
1070
     0
1070
   279
1070
     0
1070
   288
1070
     1
1002
}
  0
DIMENSION
  5
7BDE
  8
3
  6
CONTINUOUS
  2
*D5
 10
735.14893900000015
 20
2040.1579750000001
 30
0.0
 11
735.14893899999993
 21
2472.567247
 31
0.0
 70
   128
 13
1056.9146039999989
 23
2875.1579750000001
 33
0.0
 14
1096.9146039999989
 24
2040.1579750000001
 34
0.0
 50
90.0
1001
ACAD
1000
DSTYLE
1002
{
1070
   287
1070
     3
1070
    40
1040
20.0
1070
   143
1040
0.039
1070
   172
1070
     1
1070
   271
1070
     0
1070
   279
1070
     0
1070
   288
1070
     1
1002
}
  0
DIMENSION
  5
7BEB
  8
3
  6
CONTINUOUS
  2
*D6
 10
1356.9146039999989
 20
2965.2466209999998
 30
0.0
 11
1219.771747
 21
2965.2466209999998
 31
0.0
 70
   128
 13
1056.9146039999989
 23
2875.1579750000001
 33
0.0
 14
1356.9146039999989
 24
2958.9236780000001
 34
0.0
1001
ACAD
1000
DSTYLE
1002
{
1070
   287
1070
     3
1070
    40
1040
20.0
1070
   143
1040
0.039
1070
   172
1070
     1
1070
   271
1070
     0
1070
   279
1070
     0
1070
   288
1070
     1
1002
}
  0
DIMENSION
  5
7BF7
  8
3
  6
CONTINUOUS
  2
*D7
 10
1696.9146039999989
 20
2965.2466209999998
 30
0.0
 11
1526.9146039999989
 21
3015.2466209999998
 31
0.0
 70
     0
 13
1356.9146039999989
 23
2958.9236780000001
 33
0.0
 14
1696.9146039999989
 24
2760.1579750000001
 34
0.0
1001
ACAD
1000
DSTYLE
1002
{
1070
   287
1070
     4
1070
    40
1040
20.0
1070
    75
1070
     1
1070
   143
1040
0.039
1070
   172
1070
     1
1070
   271
1070
     0
1070
   279
1070
     1
1070
   288
1070
     1
1002
}
  0
DIMENSION
  5
7C06
  8
3
  6
CONTINUOUS
  2
*D8
 10
1356.9146039999989
 20
1892.9032219999999
 30
0.0
 11
1226.9146040000001
 21
1944.9935310445801
 31
0.0
 70
   128
 13
1096.9146039999989
 23
2040.1579750000001
 33
0.0
 14
1356.9146039999989
 24
1980.9031789999999
 34
0.0
1001
ACAD
1000
DSTYLE
1002
{
1070
   288
1070
     1
1070
   172
1070
     1
1070
    40
1040
20.0
1070
   271
1070
     0
1070
   143
1040
0.039
1002
}
  0
DIMENSION
  5
7C12
  8
3
  6
CONTINUOUS
  2
*D9
 10
2096.9146040000001
 20
1892.9032219999999
 30
0.0
 11
1726.9146040000001
 21
1942.903221999999
 31
0.0
 70
     0
 13
1356.9146039999989
 23
1980.9031789999999
 33
0.0
 14
2096.9146040000001
 24
2040.1579750000001
 34
0.0
1001
ACAD
1000
DSTYLE
1002
{
1070
   287
1070
     4
1070
    40
1040
20.0
1070
    75
1070
     1
1070
   143
1040
0.039
1070
   172
1070
     1
1070
   271
1070
     0
1070
   279
1070
     1
1070
   288
1070
     1
1002
}
  0
DIMENSION
  5
7C1F
  8
3
  6
CONTINUOUS
  2
*D10
 10
3327.8796499999989
 20
1867.252215999999
 30
0.0
 11
3192.1653642857141
 21
1867.252215999999
 31
0.0
 70
   128
 13
2991.8796499999989
 23
2040.1579750000001
 33
0.0
 14
3327.8796499999989
 24
1981.566212260424
 34
0.0
1001
ACAD
1000
DSTYLE
1002
{
1070
   287
1070
     3
1070
    40
1040
20.0
1070
   143
1040
0.039
1070
   172
1070
     1
1070
   271
1070
     0
1070
   279
1070
     0
1070
   288
1070
     1
1002
}
  0
DIMENSION
  5
7C2D
  8
3
  6
CONTINUOUS
  2
*D11
 10
3601.8796499999999
 20
1867.252215999999
 30
0.0
 11
3473.3671639999998
 21
1867.414403
 31
0.0
 70
   128
 13
3327.8796499999989
 23
1981.566212260424
 33
0.0
 14
3601.8796499999999
 24
2040.1579750000001
 34
0.0
1001
ACAD
1000
DSTYLE
1002
{
1070
   287
1070
     4
1070
    40
1040
20.0
1070
    75
1070
     1
1070
   143
1040
0.039
1070
   172
1070
     1
1070
   271
1070
     0
1070
   279
1070
     1
1070
   288
1070
     1
1002
}
  0
DIMENSION
  5
7C48
  8
3
  6
CONTINUOUS
  2
*D12
 10
3177.8796499999989
 20
2933.9587780000002
 30
0.0
 11
3315.0225070000001
 21
2933.9587780000002
 31
0.0
 70
   128
 13
3477.8796499999999
 23
2848.1579750000001
 33
0.0
 14
3177.8796499999989
 24
2848.1579750000001
 34
0.0
1001
ACAD
1000
DSTYLE
1002
{
1070
   287
1070
     3
1070
    40
1040
20.0
1070
   143
1040
0.039
1070
   172
1070
     1
1070
   271
1070
     0
1070
   279
1070
     0
1070
   288
1070
     1
1002
}
  0
DIMENSION
  5
7C71
  8
3
  6
CONTINUOUS
  2
*D13
 10
3648.1585340000011
 20
2245.1579750000001
 30
0.0
 11
3648.1585340000001
 21
2449.2283120000002
 31
0.0
 70
   128
 13
3477.8796499999999
 23
2675.1579750000001
 33
0.0
 14
3477.8796499999999
 24
2245.1579750000001
 34
0.0
 50
90.0
1001
ACAD
1000
DSTYLE
1002
{
1070
   287
1070
     3
1070
     3
1000
φ<>
1070
    40
1040
20.0
1070
   143
1040
0.039
1070
   172
1070
     1
1070
   271
1070
     0
1070
   279
1070
     0
1070
   288
1070
     1
1002
}
  0
DIMENSION
  5
7C7E
  8
3
  6
CONTINUOUS
  2
*D14
 10
2288.7970019999998
 20
3528.9279750000001
 30
0.0
 11
2288.7970019999989
 21
3850.7296039999992
 31
0.0
 70
   128
 13
2096.9146040000001
 23
4138.9279749999996
 33
0.0
 14
2096.9146040000001
 24
3528.9279750000001
 34
0.0
 50
90.0
1001
ACAD
1000
DSTYLE
1002
{
1070
   287
1070
     3
1070
    40
1040
20.0
1070
   143
1040
0.039
1070
   172
1070
     1
1070
   271
1070
     0
1070
   279
1070
     0
1070
   288
1070
     1
1002
}
  0
DIMENSION
  5
7C98
  8
3
  6
CONTINUOUS
  2
*D15
 10
2096.9146040000001
 20
4236.867158
 30
0.0
 11
1548.7746619999989
 21
4236.867158
 31
0.0
 70
   128
 13
1096.9146039999989
 23
4138.9279749999996
 33
0.0
 14
2096.9146040000001
 24
4138.9279749999996
 34
0.0
1001
ACAD
1000
DSTYLE
1002
{
1070
   287
1070
     3
1070
    40
1040
20.0
1070
   143
1040
0.039
1070
   172
1070
     1
1070
   271
1070
     0
1070
   279
1070
     0
1070
   288
1070
     1
1002
}
  0
LINE
  5
7D63
  8
1
  6
CONTINUOUS
 10
3478.8796499999989
 20
2675.1579750000001
 30
0.0
 11
3478.8796499999989
 21
2245.1579750000001
 31
0.0
  0
DIMENSION
  5
7D72
  8
3
  6
CONTINUOUS
  2
*D16
 10
3327.8796499999989
 20
3049.7920989999989
 30
0.0
 11
3143.5939357142852
 21
3049.7920989999989
 31
0.0
 70
   128
  1
MAX\P380
 13
2997.8796499999989
 23
2815.1579749999992
 33
0.0
 14
3327.8796499999989
 24
3031.2319349999998
 34
0.0
1001
ACAD
1000
DSTYLE
1002
{
1070
   287
1070
     3
1070
    40
1040
20.0
1070
   143
1040
0.039
1070
   172
1070
     1
1070
   271
1070
     0
1070
   279
1070
     0
1070
   288
1070
     1
1002
}
  0
DIMENSION
  5
7D80
  8
3
  6
CONTINUOUS
  2
*D17
 10
3478.8796499999989
 20
3049.7920989999989
 30
0.0
 11
3403.0670719999989
 21
3049.7920989999989
 31
0.0
 70
   128
 13
3327.8796499999989
 23
3031.2319349999998
 33
0.0
 14
3478.8796499999989
 24
2675.1579750000001
 34
0.0
1001
ACAD
1000
DSTYLE
1002
{
1070
   287
1070
     4
1070
    40
1040
20.0
1070
    75
1070
     1
1070
   143
1040
0.039
1070
   172
1070
     1
1070
   271
1070
     0
1070
   279
1070
     1
1070
   288
1070
     1
1002
}
  0
LINE
  5
7D97
  8
2
  6
CENTER
 10
3327.8796499999989
 20
2916.5673820000002
 30
0.0
 11
3327.8796499999989
 21
1981.566212260424
 31
0.0
  0
DIMENSION
  5
7DFC
  8
3
  2
*D18
 10
2096.9146040000001
 20
3089.6442823335492
 30
0.0
 11
1618.6779361599399
 21
3089.6442823335492
 31
0.0
 70
   128
 13
1056.9146039999989
 23
2875.1579750000001
 33
0.0
 14
2096.9146040000001
 24
2160.1579750000001
 34
0.0
1001
ACAD
1000
DSTYLE
1002
{
1070
   287
1070
     3
1070
    40
1040
20.0
1070
   143
1040
0.039
1070
   172
1070
     1
1070
   271
1070
     0
1070
   279
1070
     0
1070
   288
1070
     1
1002
}
  0
ENDSEC
  0
EOF
