  0
SECTION
  2
HEADER
  9
$ACADVER
  1
AC1009
  9
$INSBASE
 10
0.0
 20
0.0
 30
0.0
  9
$EXTMIN
 10
0.0
 20
0.0
 30
0.0
  9
$EXTMAX
 10
4200.0
 20
5900.0
 30
0.0
  9
$LIMMIN
 10
0.0
 20
0.0
  9
$LIMMAX
 10
297.0
 20
210.0
  9
$ORTHOMODE
 70
     0
  9
$REGENMODE
 70
     1
  9
$FILLMODE
 70
     0
  9
$QTEXTMODE
 70
     0
  9
$MIRRTEXT
 70
     1
  9
$DRAGMODE
 70
     2
  9
$LTSCALE
 40
100.0
  9
$OSMODE
 70
    37
  9
$ATTMODE
 70
     1
  9
$TEXTSIZE
 40
180.0
  9
$TRACEWID
 40
0.05
  9
$TEXTSTYLE
  7
STANDARD
  9
$CLAYER
  8
3
  9
$CELTYPE
  6
BYLAYER
  9
$CECOLOR
 62
   256
  9
$DIMSCALE
 40
20.0
  9
$DIMASZ
 40
2.0
  9
$DIMEXO
 40
0.5
  9
$DIMDLI
 40
10.0
  9
$DIMRND
 40
0.0
  9
$DIMDLE
 40
0.0
  9
$DIMEXE
 40
1.0
  9
$DIMTP
 40
1.0
  9
$DIMTM
 40
1.0
  9
$DIMTXT
 40
3.0
  9
$DIMCEN
 40
0.0
  9
$DIMTSZ
 40
0.0
  9
$DIMTOL
 70
     0
  9
$DIMLIM
 70
     0
  9
$DIMTIH
 70
     0
  9
$DIMTOH
 70
     0
  9
$DIMSE1
 70
     0
  9
$DIMSE2
 70
     0
  9
$DIMTAD
 70
     1
  9
$DIMZIN
 70
     8
  9
$DIMBLK
  1

  9
$DIMASO
 70
     1
  9
$DIMSHO
 70
     1
  9
$DIMPOST
  1

  9
$DIMAPOST
  1

  9
$DIMALT
 70
     0
  9
$DIMALTD
 70
     2
  9
$DIMALTF
 40
0.039
  9
$DIMLFAC
 40
1.0
  9
$DIMTOFL
 70
     1
  9
$DIMTVP
 40
0.0
  9
$DIMTIX
 70
     0
  9
$DIMSOXD
 70
     0
  9
$DIMSAH
 70
     1
  9
$DIMBLK1
  1
OPEN
  9
$DIMBLK2
  1
OPEN
  9
$DIMSTYLE
  2
IGA
  9
$DIMCLRD
 70
     0
  9
$DIMCLRE
 70
     0
  9
$DIMCLRT
 70
     0
  9
$DIMTFAC
 40
10.0
  9
$DIMGAP
 40
1.0
  9
$LUNITS
 70
     2
  9
$LUPREC
 70
     3
  9
$SKETCHINC
 40
0.1
  9
$FILLETRAD
 40
50.0
  9
$AUNITS
 70
     0
  9
$AUPREC
 70
     0
  9
$MENU
  1
acad
  9
$ELEVATION
 40
0.0
  9
$PELEVATION
 40
0.0
  9
$THICKNESS
 40
0.0
  9
$LIMCHECK
 70
     0
  9
$BLIPMODE
 70
     0
  9
$CHAMFERA
 40
0.5
  9
$CHAMFERB
 40
0.5
  9
$SKPOLY
 70
     0
  9
$TDCREATE
 40
2451019.6149035878
  9
$TDUPDATE
 40
2454953.753945671
  9
$TDINDWG
 40
0.0216270486
  9
$TDUSRTIMER
 40
0.0216270486
  9
$USRTIMER
 70
     1
  9
$ANGBASE
 50
0.0
  9
$ANGDIR
 70
     0
  9
$PDMODE
 70
     0
  9
$PDSIZE
 40
0.0
  9
$PLINEWID
 40
0.0
  9
$COORDS
 70
     1
  9
$SPLFRAME
 70
     0
  9
$SPLINETYPE
 70
     6
  9
$SPLINESEGS
 70
     8
  9
$ATTDIA
 70
     0
  9
$ATTREQ
 70
     1
  9
$HANDLING
 70
 10241
  9
$HANDSEED
  5
8420
  9
$SURFTAB1
 70
     6
  9
$SURFTAB2
 70
     6
  9
$SURFTYPE
 70
     6
  9
$SURFU
 70
     6
  9
$SURFV
 70
     6
  9
$UCSNAME
  2

  9
$UCSORG
 10
0.0
 20
0.0
 30
0.0
  9
$UCSXDIR
 10
1.0
 20
0.0
 30
0.0
  9
$UCSYDIR
 10
0.0
 20
1.0
 30
0.0
  9
$PUCSNAME
  2

  9
$PUCSORG
 10
0.0
 20
0.0
 30
0.0
  9
$PUCSXDIR
 10
1.0
 20
0.0
 30
0.0
  9
$PUCSYDIR
 10
0.0
 20
1.0
 30
0.0
  9
$USERI1
 70
     0
  9
$USERI2
 70
     0
  9
$USERI3
 70
     0
  9
$USERI4
 70
     0
  9
$USERI5
 70
     0
  9
$USERR1
 40
0.0
  9
$USERR2
 40
0.0
  9
$USERR3
 40
0.0
  9
$USERR4
 40
0.0
  9
$USERR5
 40
0.0
  9
$WORLDVIEW
 70
     1
  9
$SHADEDGE
 70
     3
  9
$SHADEDIF
 70
    70
  9
$TILEMODE
 70
     1
  9
$MAXACTVP
 70
    16
  9
$PLIMCHECK
 70
     0
  9
$PEXTMIN
 10
1.0000000000000000E+020
 20
1.0000000000000000E+020
 30
1.0000000000000000E+020
  9
$PEXTMAX
 10
-1.0000000000000000E+020
 20
-1.0000000000000000E+020
 30
-1.0000000000000000E+020
  9
$PLIMMIN
 10
0.0
 20
0.0
  9
$PLIMMAX
 10
12.0
 20
9.0
  9
$UNITMODE
 70
     0
  9
$VISRETAIN
 70
     0
  9
$PLINEGEN
 70
     0
  9
$PSLTSCALE
 70
     1
  0
ENDSEC
  0
SECTION
  2
TABLES
  0
TABLE
  2
VPORT
 70
     2
  0
VPORT
  2
*ACTIVE
 70
     0
 10
0.0
 20
0.0
 11
1.0
 21
1.0
 12
7073.2199177027342
 22
2950.0000137370062
 13
0.0
 23
0.0
 14
10.0
 24
10.0
 15
10.0
 25
10.0
 16
0.0
 26
0.0
 36
1.0
 17
0.0
 27
0.0
 37
0.0
 40
5945.22976603387
 41
3.1666666666666661
 42
50.0
 43
0.0
 44
0.0
 50
0.0
 51
0.0
 71
     0
 72
   100
 73
     1
 74
     0
 75
     0
 76
     0
 77
     0
 78
     0
  0
ENDTAB
  0
TABLE
  2
LTYPE
 70
     2
  0
LTYPE
  2
CONTINUOUS
 70
     0
  3
Solid line
 72
    65
 73
     0
 40
0.0
  0
LTYPE
  2
CENTER
 70
     0
  3
____ _ ____ _ ____ _ ____ _ ____ _ ____ _ ____ 
 72
    65
 73
     4
 40
2.0
 49
1.25
 49
-0.25
 49
0.25
 49
-0.25
  0
ENDTAB
  0
TABLE
  2
LAYER
 70
     6
  0
LAYER
  2
0
 70
     0
 62
     7
  6
CONTINUOUS
  0
LAYER
  2
3
 70
     0
 62
     2
  6
CONTINUOUS
  0
LAYER
  2
2
 70
     0
 62
     3
  6
CENTER
  0
LAYER
  2
1
 70
     0
 62
     4
  6
CONTINUOUS
  0
LAYER
  2
4
 70
     0
 62
     7
  6
CONTINUOUS
  0
LAYER
  2
DEFPOINTS
 70
     0
 62
     7
  6
CONTINUOUS
  0
ENDTAB
  0
TABLE
  2
STYLE
 70
     1
  0
STYLE
  2
STANDARD
 70
     0
 40
0.0
 41
1.0
 50
0.0
 71
     0
 42
180.0
  3
simplex.shx
  4
extfont.shx
  0
ENDTAB
  0
TABLE
  2
VIEW
 70
     0
  0
ENDTAB
  0
TABLE
  2
UCS
 70
     0
  0
ENDTAB
  0
TABLE
  2
APPID
 70
     1
  0
APPID
  2
ACAD
 70
     0
  0
ENDTAB
  0
TABLE
  2
DIMSTYLE
 70
     1
  0
DIMSTYLE
  2
IGA
 70
     0
  3

  4

  5

  6
OPEN
  7
OPEN
 40
2.0
 41
2.0
 42
0.5
 43
10.0
 44
1.0
 45
0.0
 46
0.0
 47
1.0
 48
1.0
140
3.0
141
0.0
142
0.0
143
0.03937
144
1.0
145
0.0
146
10.0
147
1.0
 71
     0
 72
     0
 73
     0
 74
     0
 75
     0
 76
     0
 77
     1
 78
     8
170
     0
171
     2
172
     0
173
     1
174
     0
175
     0
176
     0
177
     0
178
     0
  0
ENDTAB
  0
ENDSEC
  0
SECTION
  2
BLOCKS
  0
BLOCK
  8
0
  2
$MODEL_SPACE
 70
     0
 10
0.0
 20
0.0
 30
0.0
  3
$MODEL_SPACE
  1

  0
ENDBLK
  5
1B
  8
0
  0
BLOCK
 67
     1
  8
0
  2
$PAPER_SPACE
 70
     0
 10
0.0
 20
0.0
 30
0.0
  3
$PAPER_SPACE
  1

  0
ENDBLK
  5
18
 67
     1
  8
0
  0
BLOCK
  8
0
  2
_OPEN
 70
     0
 10
0.0
 20
0.0
 30
0.0
  3
_OPEN
  1

  0
LINE
  5
7B13
  8
0
  6
BYBLOCK
 62
     0
 10
-1.0
 20
0.1666666666666666
 30
0.0
 11
0.0
 21
0.0
 31
0.0
  0
LINE
  5
7B14
  8
0
  6
BYBLOCK
 62
     0
 10
0.0
 20
0.0
 30
0.0
 11
-1.0
 21
-0.1666666666666666
 31
0.0
  0
LINE
  5
7B15
  8
0
  6
BYBLOCK
 62
     0
 10
0.0
 20
0.0
 30
0.0
 11
-1.0
 21
0.0
 31
0.0
  0
ENDBLK
  5
7B17
  8
0
  0
BLOCK
  8
0
  2
*D1
 70
     1
 10
0.0
 20
0.0
 30
0.0
  3
*D1
  1

  0
LINE
  5
832A
  8
3
 62
     0
 10
1076.2003661677329
 20
2250.6729791784092
 30
0.0
 11
748.19922885822575
 21
2250.6729791784101
 31
0.0
  0
LINE
  5
832B
  8
3
 62
     0
 10
1423.5781358070101
 20
2532.680696140425
 30
0.0
 11
748.19922885822598
 21
2532.680696140425
 31
0.0
  0
LINE
  5
832C
  8
3
 62
     0
 10
768.19922885822575
 20
2290.6729791784101
 30
0.0
 11
768.19922885822587
 21
2492.680696140425
 31
0.0
  0
INSERT
  5
832D
  8
3
 62
     0
  2
_OPEN
 10
768.19922885822575
 20
2250.6729791784101
 30
0.0
 41
40.0
 42
40.0
 43
40.0
 50
270.0
  0
INSERT
  5
832E
  8
3
 62
     0
  2
_OPEN
 10
768.19922885822587
 20
2532.680696140425
 30
0.0
 41
40.0
 42
40.0
 43
40.0
 50
90.0
  0
TEXT
  8
3
  40
60
  5
840C
  62
0
  72
0
  71
0
 10
598.199
 20
2285.48
 30
0.000000
  1
282
  0
POINT
  5
8330
  8
DEFPOINTS
 62
     0
 10
1086.2003661677329
 20
2250.6729791784092
 30
0.0
  0
POINT
  5
8331
  8
DEFPOINTS
 62
     0
 10
1433.5781358070101
 20
2532.680696140425
 30
0.0
  0
POINT
  5
8332
  8
DEFPOINTS
 62
     0
 10
768.19922885822587
 20
2532.680696140425
 30
0.0
  0
ENDBLK
  5
826D
  8
0
  0
BLOCK
  8
0
  2
*D2
 70
     1
 10
0.0
 20
0.0
 30
0.0
  3
*D2
  1

  0
LINE
  5
8333
  8
3
 62
     0
 10
1098.5781358070101
 20
2275.6729791784092
 30
0.0
 11
1098.5781358070101
 21
2655.9534958240019
 31
0.0
  0
LINE
  5
8334
  8
3
 62
     0
 10
1403.5781358070101
 20
2581.0284067068169
 30
0.0
 11
1403.5781358070101
 21
2655.9534958240019
 31
0.0
  0
LINE
  5
8335
  8
3
 62
     0
 10
1138.5781358070101
 20
2635.9534958240019
 30
0.0
 11
1363.5781358070101
 21
2635.9534958240019
 31
0.0
  0
INSERT
  5
8336
  8
3
 62
     0
  2
_OPEN
 10
1098.5781358070101
 20
2635.9534958240019
 30
0.0
 41
40.0
 42
40.0
 43
40.0
 50
180.0
  0
INSERT
  5
8337
  8
3
 62
     0
  2
_OPEN
 10
1403.5781358070101
 20
2635.9534958240019
 30
0.0
 41
40.0
 42
40.0
 43
40.0
  0
TEXT
  8
3
  40
60
  5
840D
  62
0
  72
0
  71
0
 10
1131.08
 20
2579.75
 30
0.000000
  1
305
  0
POINT
  5
8339
  8
DEFPOINTS
 62
     0
 10
1098.5781358070101
 20
2265.6729791784092
 30
0.0
  0
POINT
  5
833A
  8
DEFPOINTS
 62
     0
 10
1403.5781358070101
 20
2571.0284067068178
 30
0.0
  0
POINT
  5
833B
  8
DEFPOINTS
 62
     0
 10
1403.5781358070101
 20
2635.9534958240019
 30
0.0
  0
ENDBLK
  5
80D2
  8
0
  0
BLOCK
  8
0
  2
*D3
 70
     1
 10
0.0
 20
0.0
 30
0.0
  3
*D3
  1

  0
LINE
  5
833C
  8
3
 62
     0
 10
1178.5781358070101
 20
1625.6729791784089
 30
0.0
 11
749.05420328319633
 21
1625.6729791784089
 31
0.0
  0
LINE
  5
833D
  8
3
 62
     0
 10
1178.5781358070101
 20
1550.6729791784089
 30
0.0
 11
749.05420328319633
 21
1550.6729791784089
 31
0.0
  0
LINE
  5
833E
  8
3
 62
     0
 10
769.05420328319633
 20
1665.6729791784089
 30
0.0
 11
769.05420328319633
 21
1705.6729791784089
 31
0.0
  0
LINE
  5
833F
  8
3
 62
     0
 10
769.05420328319633
 20
1510.6729791784089
 30
0.0
 11
769.05420328319633
 21
1333.530122035552
 31
0.0
  0
LINE
  5
8340
  8
3
 62
     0
 10
769.05420328319633
 20
1625.6729791784089
 30
0.0
 11
769.05420328319633
 21
1550.6729791784089
 31
0.0
  0
INSERT
  5
8341
  8
3
 62
     0
  2
_DOT
 10
769.05420328319633
 20
1625.6729791784089
 30
0.0
 41
40.0
 42
40.0
 43
40.0
 50
270.0
  0
INSERT
  5
8342
  8
3
 62
     0
  2
_OPEN
 10
769.05420328319633
 20
1550.6729791784089
 30
0.0
 41
40.0
 42
40.0
 43
40.0
 50
90.0
  0
TEXT
  8
3
  40
60
  5
840E
  62
0
  72
0
  71
0
 10
599.054
 20
1295.90
 30
0.000000
  1
75
  0
POINT
  5
8344
  8
DEFPOINTS
 62
     0
 10
1188.5781358070101
 20
1625.6729791784089
 30
0.0
  0
POINT
  5
8345
  8
DEFPOINTS
 62
     0
 10
1188.5781358070101
 20
1550.6729791784089
 30
0.0
  0
POINT
  5
8346
  8
DEFPOINTS
 62
     0
 10
769.05420328319633
 20
1550.6729791784089
 30
0.0
  0
ENDBLK
  5
82B0
  8
0
  0
BLOCK
  8
0
  2
*D4
 70
     1
 10
0.0
 20
0.0
 30
0.0
  3
*D4
  1

  0
LINE
  5
8347
  8
3
 62
     0
 10
1076.2003661677329
 20
2250.6729791784092
 30
0.0
 11
749.05420328319644
 21
2250.6729791784101
 31
0.0
  0
LINE
  5
8348
  8
3
 62
     0
 10
1178.5781358070101
 20
1720.6729791784089
 30
0.0
 11
749.05420328319633
 21
1720.6729791784089
 31
0.0
  0
LINE
  5
8349
  8
3
 62
     0
 10
769.05420328319644
 20
2210.6729791784101
 30
0.0
 11
769.05420328319633
 21
1760.6729791784089
 31
0.0
  0
INSERT
  5
834A
  8
3
 62
     0
  2
_OPEN
 10
769.05420328319644
 20
2250.6729791784101
 30
0.0
 41
40.0
 42
40.0
 43
40.0
 50
90.0
  0
INSERT
  5
834B
  8
3
 62
     0
  2
_OPEN
 10
769.05420328319633
 20
1720.6729791784089
 30
0.0
 41
40.0
 42
40.0
 43
40.0
 50
270.0
  0
TEXT
  8
3
  40
60
  5
840F
  62
0
  72
0
  71
0
 10
599.054
 20
1879.47
 30
0.000000
  1
530
  0
POINT
  5
834D
  8
DEFPOINTS
 62
     0
 10
1086.2003661677329
 20
2250.6729791784092
 30
0.0
  0
POINT
  5
834E
  8
DEFPOINTS
 62
     0
 10
1188.5781358070101
 20
1720.6729791784089
 30
0.0
  0
POINT
  5
834F
  8
DEFPOINTS
 62
     0
 10
769.05420328319633
 20
1720.6729791784089
 30
0.0
  0
ENDBLK
  5
8069
  8
0
  0
BLOCK
  8
0
  2
*D5
 70
     1
 10
0.0
 20
0.0
 30
0.0
  3
*D5
  1

  0
LINE
  5
8350
  8
3
 62
     0
 10
1178.5781358070101
 20
1550.6729791784089
 30
0.0
 11
561.47313309839979
 21
1550.6729791784089
 31
0.0
  0
LINE
  5
8351
  8
3
 62
     0
 10
1423.5781358070101
 20
2532.680696140425
 30
0.0
 11
561.47313309840001
 21
2532.680696140425
 31
0.0
  0
LINE
  5
8352
  8
3
 62
     0
 10
581.47313309839967
 20
1590.6729791784089
 30
0.0
 11
581.47313309840001
 21
2492.680696140425
 31
0.0
  0
INSERT
  5
8353
  8
3
 62
     0
  2
_OPEN
 10
581.47313309839967
 20
1550.6729791784089
 30
0.0
 41
40.0
 42
40.0
 43
40.0
 50
270.0
  0
INSERT
  5
8354
  8
3
 62
     0
  2
_OPEN
 10
581.47313309840001
 20
2532.680696140425
 30
0.0
 41
40.0
 42
40.0
 43
40.0
 50
90.0
  0
TEXT
  8
3
  40
60
  5
8410
  62
0
  72
0
  71
0
 10
411.473
 20
1964.98
 30
0.000000
  1
982
  0
POINT
  5
8356
  8
DEFPOINTS
 62
     0
 10
1188.5781358070101
 20
1550.6729791784089
 30
0.0
  0
POINT
  5
8357
  8
DEFPOINTS
 62
     0
 10
1433.5781358070101
 20
2532.680696140425
 30
0.0
  0
POINT
  5
8358
  8
DEFPOINTS
 62
     0
 10
581.47313309840001
 20
2532.680696140425
 30
0.0
  0
ENDBLK
  5
8296
  8
0
  0
BLOCK
  8
0
  2
*D6
 70
     1
 10
0.0
 20
0.0
 30
0.0
  3
*D6
  1

  0
LINE
  5
8359
  8
3
 62
     0
 10
1088.5781358070101
 20
1826.6729791784089
 30
0.0
 11
954.93677988864704
 21
1826.6729791784089
 31
0.0
  0
LINE
  5
835A
  8
3
 62
     0
 10
1088.5781358070101
 20
2238.6729791784092
 30
0.0
 11
954.93677988864704
 21
2238.6729791784101
 31
0.0
  0
LINE
  5
835B
  8
3
 62
     0
 10
974.93677988864692
 20
1866.6729791784089
 30
0.0
 11
974.93677988864692
 21
2198.6729791784101
 31
0.0
  0
INSERT
  5
835C
  8
3
 62
     0
  2
_OPEN
 10
974.93677988864692
 20
1826.6729791784089
 30
0.0
 41
40.0
 42
40.0
 43
40.0
 50
270.0
  0
INSERT
  5
835D
  8
3
 62
     0
  2
_OPEN
 10
974.93677988864692
 20
2238.6729791784101
 30
0.0
 41
40.0
 42
40.0
 43
40.0
 50
90.0
  0
TEXT
  8
3
  40
60
  5
8411
  62
0
  72
0
  71
0
 10
804.937
 20
1926.47
 30
0.000000
  1
412
  0
POINT
  5
835F
  8
DEFPOINTS
 62
     0
 10
1098.5781358070101
 20
1826.6729791784089
 30
0.0
  0
POINT
  5
8360
  8
DEFPOINTS
 62
     0
 10
1098.5781358070101
 20
2238.6729791784092
 30
0.0
  0
POINT
  5
8361
  8
DEFPOINTS
 62
     0
 10
974.93677988864692
 20
2238.6729791784101
 30
0.0
  0
ENDBLK
  5
80BA
  8
0
  0
BLOCK
  8
0
  2
*D7
 70
     1
 10
0.0
 20
0.0
 30
0.0
  3
*D7
  1

  0
LINE
  5
8362
  8
3
 62
     0
 10
1088.5781358070101
 20
1826.6729791784089
 30
0.0
 11
861.76651644853519
 21
1826.6729791784089
 31
0.0
  0
LINE
  5
8363
  8
3
 62
     0
 10
1076.2003661677329
 20
2250.6729791784092
 30
0.0
 11
861.76651644853519
 21
2250.6729791784101
 31
0.0
  0
LINE
  5
8364
  8
3
 62
     0
 10
881.76651644853507
 20
1866.6729791784089
 30
0.0
 11
881.76651644853507
 21
2210.6729791784101
 31
0.0
  0
INSERT
  5
8365
  8
3
 62
     0
  2
_OPEN
 10
881.76651644853507
 20
1826.6729791784089
 30
0.0
 41
40.0
 42
40.0
 43
40.0
 50
270.0
  0
INSERT
  5
8366
  8
3
 62
     0
  2
_OPEN
 10
881.76651644853507
 20
2250.6729791784101
 30
0.0
 41
40.0
 42
40.0
 43
40.0
 50
90.0
  0
TEXT
  8
3
  40
60
  5
8412
  62
0
  72
0
  71
0
 10
711.767
 20
1932.47
 30
0.000000
  1
424
  0
POINT
  5
8368
  8
DEFPOINTS
 62
     0
 10
1098.5781358070101
 20
1826.6729791784089
 30
0.0
  0
POINT
  5
8369
  8
DEFPOINTS
 62
     0
 10
1086.2003661677329
 20
2250.6729791784092
 30
0.0
  0
POINT
  5
836A
  8
DEFPOINTS
 62
     0
 10
881.76651644853507
 20
2250.6729791784101
 30
0.0
  0
ENDBLK
  5
8099
  8
0
  0
BLOCK
  8
0
  2
*D8
 70
     1
 10
0.0
 20
0.0
 30
0.0
  3
*D8
  1

  0
LINE
  5
837F
  8
3
 62
     0
 10
2118.5781358070099
 20
1540.6729791784089
 30
0.0
 11
2118.5781358070099
 21
1409.9802803625209
 31
0.0
  0
LINE
  5
8380
  8
3
 62
     0
 10
1403.5781358070101
 20
1510.7444366439991
 30
0.0
 11
1403.5781358070101
 21
1409.9802803625209
 31
0.0
  0
LINE
  5
8381
  8
3
 62
     0
 10
2078.5781358070099
 20
1429.9802803625209
 30
0.0
 11
1443.5781358070101
 21
1429.9802803625209
 31
0.0
  0
INSERT
  5
8382
  8
3
 62
     0
  2
_OPEN
 10
2118.5781358070099
 20
1429.9802803625209
 30
0.0
 41
40.0
 42
40.0
 43
40.0
  0
INSERT
  5
8383
  8
3
 62
     0
  2
_OPEN
 10
1403.5781358070101
 20
1429.9802803625209
 30
0.0
 41
40.0
 42
40.0
 43
40.0
 50
180.0
  0
TEXT
  8
3
  40
60
  5
8413
  62
0
  72
0
  71
0
 10
1641.08
 20
1373.78
 30
0.000000
  1
715
  0
POINT
  5
8385
  8
DEFPOINTS
 62
     0
 10
2118.5781358070099
 20
1550.6729791784089
 30
0.0
  0
POINT
  5
8386
  8
DEFPOINTS
 62
     0
 10
1403.5781358070101
 20
1520.744436644
 30
0.0
  0
POINT
  5
8387
  8
DEFPOINTS
 62
     0
 10
1403.5781358070101
 20
1429.9802803625209
 30
0.0
  0
ENDBLK
  5
80A4
  8
0
  0
BLOCK
  8
0
  2
*D9
 70
     1
 10
0.0
 20
0.0
 30
0.0
  3
*D9
  1

  0
LINE
  5
81BE
  8
0
  6
BYBLOCK
 62
     0
 10
1310.4046203925479
 20
1569.744436644
 30
0.0
 11
1310.4046203925479
 21
1468.9802803625209
 31
0.0
  0
LINE
  5
81BF
  8
0
  6
BYBLOCK
 62
     0
 10
1095.4046203925479
 20
1599.6729791784089
 30
0.0
 11
1095.4046203925479
 21
1468.9802803625209
 31
0.0
  0
LINE
  5
81C0
  8
0
  6
BYBLOCK
 62
     0
 10
1270.4046203925479
 20
1488.9802803625209
 30
0.0
 11
1135.4046203925479
 21
1488.9802803625209
 31
0.0
  0
TEXT
  5
81C1
  8
3
 62
     0
 10
1131.4760489639759
 20
1516.4808205342611
 30
0.0
 40
60.0
  1
215
  0
INSERT
  5
81C2
  8
0
  6
BYBLOCK
 62
     0
  2
_OPEN
 10
1310.4046203925479
 20
1488.9802803625209
 30
0.0
 41
40.0
 42
40.0
 43
40.0
  0
INSERT
  5
81C3
  8
0
  6
BYBLOCK
 62
     0
  2
_OPEN
 10
1095.4046203925479
 20
1488.9802803625209
 30
0.0
 41
40.0
 42
40.0
 43
40.0
 50
180.0
  0
POINT
  5
81C4
  8
DEFPOINTS
  6
BYBLOCK
 62
     0
 10
1310.4046203925479
 20
1579.744436644
 30
0.0
  0
POINT
  5
81C5
  8
DEFPOINTS
  6
BYBLOCK
 62
     0
 10
1095.4046203925479
 20
1609.6729791784089
 30
0.0
  0
POINT
  5
81C6
  8
DEFPOINTS
  6
BYBLOCK
 62
     0
 10
1095.4046203925479
 20
1488.9802803625209
 30
0.0
  0
ENDBLK
  5
81C7
  8
0
  0
BLOCK
  8
0
  2
*D10
 70
     1
 10
0.0
 20
0.0
 30
0.0
  3
*D10
  1

  0
LINE
  5
8388
  8
3
 62
     0
 10
1403.5781358070101
 20
2581.0284067068169
 30
0.0
 11
1403.5781358070101
 21
2655.9534958240019
 31
0.0
  0
LINE
  5
8389
  8
3
 62
     0
 10
1745.5858527690259
 20
2230.6729791784092
 30
0.0
 11
1745.5858527690259
 21
2655.9534958240019
 31
0.0
  0
LINE
  5
838A
  8
3
 62
     0
 10
1443.5781358070101
 20
2635.9534958240019
 30
0.0
 11
1705.5858527690259
 21
2635.9534958240019
 31
0.0
  0
INSERT
  5
838B
  8
3
 62
     0
  2
_OPEN
 10
1403.5781358070101
 20
2635.9534958240019
 30
0.0
 41
40.0
 42
40.0
 43
40.0
 50
180.0
  0
INSERT
  5
838C
  8
3
 62
     0
  2
_OPEN
 10
1745.5858527690259
 20
2635.9534958240019
 30
0.0
 41
40.0
 42
40.0
 43
40.0
  0
TEXT
  8
3
  40
60
  5
8414
  62
0
  72
0
  71
0
 10
1454.58
 20
2579.75
 30
0.000000
  1
342
  0
POINT
  5
838E
  8
DEFPOINTS
 62
     0
 10
1403.5781358070101
 20
2571.0284067068178
 30
0.0
  0
POINT
  5
838F
  8
DEFPOINTS
 62
     0
 10
1745.5858527690259
 20
2220.6729791784092
 30
0.0
  0
POINT
  5
8390
  8
DEFPOINTS
 62
     0
 10
1745.5858527690259
 20
2635.9534958240019
 30
0.0
  0
ENDBLK
  5
80AF
  8
0
  0
BLOCK
  8
0
  2
*D11
 70
     1
 10
0.0
 20
0.0
 30
0.0
  3
*D11
  1

  0
LINE
  5
8391
  8
3
 62
     0
 10
1178.5781358070101
 20
3421.85804484654
 30
0.0
 11
882.4356606649834
 21
3421.85804484654
 31
0.0
  0
LINE
  5
8392
  8
3
 62
     0
 10
1178.5781358070101
 20
4281.85804484654
 30
0.0
 11
882.43566066498363
 21
4281.85804484654
 31
0.0
  0
LINE
  5
8393
  8
3
 62
     0
 10
902.43566066498329
 20
3461.8580448465409
 30
0.0
 11
902.43566066498352
 21
4241.85804484654
 31
0.0
  0
INSERT
  5
8394
  8
3
 62
     0
  2
_OPEN
 10
902.43566066498329
 20
3421.85804484654
 30
0.0
 41
40.0
 42
40.0
 43
40.0
 50
270.0
  0
INSERT
  5
8395
  8
3
 62
     0
  2
_OPEN
 10
902.43566066498352
 20
4281.85804484654
 30
0.0
 41
40.0
 42
40.0
 43
40.0
 50
90.0
  0
TEXT
  8
3
  40
60
  5
8415
  62
0
  72
0
  71
0
 10
732.436
 20
3745.66
 30
0.000000
  1
860
  0
POINT
  5
8397
  8
DEFPOINTS
 62
     0
 10
1188.5781358070101
 20
3421.85804484654
 30
0.0
  0
POINT
  5
8398
  8
DEFPOINTS
 62
     0
 10
1188.5781358070101
 20
4281.85804484654
 30
0.0
  0
POINT
  5
8399
  8
DEFPOINTS
 62
     0
 10
902.43566066498352
 20
4281.85804484654
 30
0.0
  0
ENDBLK
  5
80DD
  8
0
  0
BLOCK
  8
0
  2
*D12
 70
     1
 10
0.0
 20
0.0
 30
0.0
  3
*D12
  1

  0
LINE
  5
839A
  8
3
 62
     0
 10
1618.578135807011
 20
4291.85804484654
 30
0.0
 11
1618.578135807011
 21
4416.6084862552252
 31
0.0
  0
LINE
  5
839B
  8
3
 62
     0
 10
2118.5781358070099
 20
3851.8580448465391
 30
0.0
 11
2118.5781358070099
 21
4416.6084862552252
 31
0.0
  0
LINE
  5
839C
  8
3
 62
     0
 10
1658.5781358070101
 20
4396.6084862552252
 30
0.0
 11
2078.5781358070099
 21
4396.6084862552252
 31
0.0
  0
INSERT
  5
839D
  8
3
 62
     0
  2
_OPEN
 10
1618.578135807011
 20
4396.6084862552252
 30
0.0
 41
40.0
 42
40.0
 43
40.0
 50
180.0
  0
INSERT
  5
839E
  8
3
 62
     0
  2
_OPEN
 10
2118.5781358070099
 20
4396.6084862552252
 30
0.0
 41
40.0
 42
40.0
 43
40.0
  0
TEXT
  8
3
  40
60
  5
8416
  62
0
  72
0
  71
0
 10
1748.58
 20
4340.41
 30
0.000000
  1
500
  0
POINT
  5
83A0
  8
DEFPOINTS
 62
     0
 10
1618.578135807011
 20
4281.85804484654
 30
0.0
  0
POINT
  5
83A1
  8
DEFPOINTS
 62
     0
 10
2118.5781358070099
 20
3841.85804484654
 30
0.0
  0
POINT
  5
83A2
  8
DEFPOINTS
 62
     0
 10
2118.5781358070099
 20
4396.6084862552252
 30
0.0
  0
ENDBLK
  5
80FE
  8
0
  0
BLOCK
  8
0
  2
*D13
 70
     1
 10
0.0
 20
0.0
 30
0.0
  3
*D13
  1

  0
LINE
  5
83A3
  8
3
 62
     0
 10
2118.5781358070099
 20
3411.8580448465391
 30
0.0
 11
2118.5781358070099
 21
3183.6828906223109
 31
0.0
  0
LINE
  5
83A4
  8
3
 62
     0
 10
1188.5781358070101
 20
3411.85804484654
 30
0.0
 11
1188.5781358070101
 21
3183.6828906223109
 31
0.0
  0
LINE
  5
83A5
  8
3
 62
     0
 10
2078.5781358070099
 20
3203.6828906223109
 30
0.0
 11
1228.5781358070101
 21
3203.6828906223109
 31
0.0
  0
INSERT
  5
83A6
  8
3
 62
     0
  2
_OPEN
 10
2118.5781358070099
 20
3203.6828906223109
 30
0.0
 41
40.0
 42
40.0
 43
40.0
  0
INSERT
  5
83A7
  8
3
 62
     0
  2
_OPEN
 10
1188.5781358070101
 20
3203.6828906223109
 30
0.0
 41
40.0
 42
40.0
 43
40.0
 50
180.0
  0
TEXT
  8
3
  40
60
  5
8417
  62
0
  72
0
  71
0
 10
1533.58
 20
3147.48
 30
0.000000
  1
930
  0
POINT
  5
83A9
  8
DEFPOINTS
 62
     0
 10
2118.5781358070099
 20
3421.8580448465391
 30
0.0
  0
POINT
  5
83AA
  8
DEFPOINTS
 62
     0
 10
1188.5781358070101
 20
3421.85804484654
 30
0.0
  0
POINT
  5
83AB
  8
DEFPOINTS
 62
     0
 10
1188.5781358070101
 20
3203.6828906223109
 30
0.0
  0
ENDBLK
  5
80F3
  8
0
  0
BLOCK
  8
0
  2
*D14
 70
     1
 10
0.0
 20
0.0
 30
0.0
  3
*D14
  1

  0
LINE
  5
83AC
  8
3
 62
     0
 10
2128.5781358070099
 20
3421.8580448465391
 30
0.0
 11
2213.9220739673779
 21
3421.8580448465391
 31
0.0
  0
LINE
  5
83AD
  8
3
 62
     0
 10
2128.5781358070099
 20
3841.85804484654
 30
0.0
 11
2213.9220739673779
 21
3841.85804484654
 31
0.0
  0
LINE
  5
83AE
  8
3
 62
     0
 10
2193.9220739673779
 20
3461.8580448465391
 30
0.0
 11
2193.9220739673779
 21
3801.8580448465391
 31
0.0
  0
INSERT
  5
83AF
  8
3
 62
     0
  2
_OPEN
 10
2193.9220739673779
 20
3421.8580448465391
 30
0.0
 41
40.0
 42
40.0
 43
40.0
 50
270.0
  0
INSERT
  5
83B0
  8
3
 62
     0
  2
_OPEN
 10
2193.9220739673779
 20
3841.85804484654
 30
0.0
 41
40.0
 42
40.0
 43
40.0
 50
90.0
  0
TEXT
  8
3
  40
60
  5
8418
  62
0
  72
0
  71
0
 10
2023.92
 20
3525.66
 30
0.000000
  1
420
  0
POINT
  5
83B2
  8
DEFPOINTS
 62
     0
 10
2118.5781358070099
 20
3421.8580448465391
 30
0.0
  0
POINT
  5
83B3
  8
DEFPOINTS
 62
     0
 10
2118.5781358070099
 20
3841.85804484654
 30
0.0
  0
POINT
  5
83B4
  8
DEFPOINTS
 62
     0
 10
2193.9220739673779
 20
3841.85804484654
 30
0.0
  0
ENDBLK
  5
8053
  8
0
  0
BLOCK
  8
0
  2
*D15
 70
     1
 10
0.0
 20
0.0
 30
0.0
  3
*D15
  1

  0
LINE
  5
83B5
  8
3
 62
     0
 10
1188.5781358070101
 20
4291.85804484654
 30
0.0
 11
1188.5781358070101
 21
4416.6084862552252
 31
0.0
  0
LINE
  5
83B6
  8
3
 62
     0
 10
1618.578135807011
 20
4291.85804484654
 30
0.0
 11
1618.578135807011
 21
4416.6084862552252
 31
0.0
  0
LINE
  5
83B7
  8
3
 62
     0
 10
1228.5781358070101
 20
4396.6084862552252
 30
0.0
 11
1578.578135807011
 21
4396.6084862552252
 31
0.0
  0
INSERT
  5
83B8
  8
3
 62
     0
  2
_OPEN
 10
1188.5781358070101
 20
4396.6084862552252
 30
0.0
 41
40.0
 42
40.0
 43
40.0
 50
180.0
  0
INSERT
  5
83B9
  8
3
 62
     0
  2
_OPEN
 10
1618.578135807011
 20
4396.6084862552252
 30
0.0
 41
40.0
 42
40.0
 43
40.0
  0
TEXT
  8
3
  40
60
  5
8419
  62
0
  72
0
  71
0
 10
1283.58
 20
4340.41
 30
0.000000
  1
430
  0
POINT
  5
83BB
  8
DEFPOINTS
 62
     0
 10
1188.5781358070101
 20
4281.85804484654
 30
0.0
  0
POINT
  5
83BC
  8
DEFPOINTS
 62
     0
 10
1618.578135807011
 20
4281.85804484654
 30
0.0
  0
POINT
  5
83BD
  8
DEFPOINTS
 62
     0
 10
1618.578135807011
 20
4396.6084862552252
 30
0.0
  0
ENDBLK
  5
80E8
  8
0
  0
BLOCK
  8
0
  2
*D16
 70
     1
 10
0.0
 20
0.0
 30
0.0
  3
*D16
  1

  0
LINE
  5
83BE
  8
3
 62
     0
 10
2559.866864727629
 20
1540.6729791784089
 30
0.0
 11
2559.866864727629
 21
1408.490802090932
 31
0.0
  0
LINE
  5
83BF
  8
3
 62
     0
 10
3224.8668647276322
 20
1510.7444366439991
 30
0.0
 11
3224.8668647276322
 21
1408.490802090932
 31
0.0
  0
LINE
  5
83C0
  8
3
 62
     0
 10
2599.8668647276299
 20
1428.490802090932
 30
0.0
 11
3184.8668647276331
 21
1428.490802090932
 31
0.0
  0
INSERT
  5
83C1
  8
3
 62
     0
  2
_OPEN
 10
2559.866864727629
 20
1428.490802090932
 30
0.0
 41
40.0
 42
40.0
 43
40.0
 50
180.0
  0
INSERT
  5
83C2
  8
3
 62
     0
  2
_OPEN
 10
3224.8668647276322
 20
1428.490802090932
 30
0.0
 41
40.0
 42
40.0
 43
40.0
  0
TEXT
  8
3
  40
60
  5
841A
  62
0
  72
0
  71
0
 10
2772.37
 20
1372.29
 30
0.000000
  1
665
  0
POINT
  5
83C4
  8
DEFPOINTS
 62
     0
 10
2559.866864727629
 20
1550.6729791784089
 30
0.0
  0
POINT
  5
83C5
  8
DEFPOINTS
 62
     0
 10
3224.8668647276322
 20
1520.744436644
 30
0.0
  0
POINT
  5
83C6
  8
DEFPOINTS
 62
     0
 10
3224.8668647276322
 20
1428.490802090932
 30
0.0
  0
ENDBLK
  5
8138
  8
0
  0
BLOCK
  8
0
  2
*D17
 70
     1
 10
0.0
 20
0.0
 30
0.0
  3
*D17
  1

  0
LINE
  5
81A8
  8
0
  6
BYBLOCK
 62
     0
 10
3224.8668647276322
 20
1569.744436644
 30
0.0
 11
3224.8668647276322
 21
1467.490802090932
 31
0.0
  0
LINE
  5
81A9
  8
0
  6
BYBLOCK
 62
     0
 10
3419.8668647276322
 20
1599.6729791784089
 30
0.0
 11
3419.8668647276322
 21
1467.490802090932
 31
0.0
  0
LINE
  5
81AA
  8
0
  6
BYBLOCK
 62
     0
 10
3264.8668647276322
 20
1487.490802090932
 30
0.0
 11
3379.8668647276309
 21
1487.490802090932
 31
0.0
  0
TEXT
  5
81AB
  8
3
 62
     0
 10
3250.9382932990602
 20
1512.6706553135659
 30
0.0
 40
60.0
  1
195
  0
INSERT
  5
81AC
  8
0
  6
BYBLOCK
 62
     0
  2
_OPEN
 10
3224.8668647276322
 20
1487.490802090932
 30
0.0
 41
40.0
 42
40.0
 43
40.0
 50
180.0
  0
INSERT
  5
81AD
  8
0
  6
BYBLOCK
 62
     0
  2
_OPEN
 10
3419.8668647276322
 20
1487.490802090932
 30
0.0
 41
40.0
 42
40.0
 43
40.0
  0
POINT
  5
81AE
  8
DEFPOINTS
  6
BYBLOCK
 62
     0
 10
3224.8668647276322
 20
1579.744436644
 30
0.0
  0
POINT
  5
81AF
  8
DEFPOINTS
  6
BYBLOCK
 62
     0
 10
3419.8668647276322
 20
1609.6729791784089
 30
0.0
  0
POINT
  5
81B0
  8
DEFPOINTS
  6
BYBLOCK
 62
     0
 10
3419.8668647276322
 20
1487.490802090932
 30
0.0
  0
ENDBLK
  5
81B1
  8
0
  0
BLOCK
  8
0
  2
*D18
 70
     1
 10
0.0
 20
0.0
 30
0.0
  3
*D18
  1

  0
LINE
  5
83C7
  8
3
 62
     0
 10
2464.8668647276299
 20
2410.6729791784092
 30
0.0
 11
2464.8668647276299
 21
2789.6483673304178
 31
0.0
  0
LINE
  5
83C8
  8
3
 62
     0
 10
3224.8668647276322
 20
2737.8697853468998
 30
0.0
 11
3224.8668647276322
 21
2789.6483673304178
 31
0.0
  0
LINE
  5
83C9
  8
3
 62
     0
 10
2504.8668647276299
 20
2769.6483673304178
 30
0.0
 11
3184.8668647276322
 21
2769.6483673304178
 31
0.0
  0
INSERT
  5
83CA
  8
3
 62
     0
  2
_OPEN
 10
2464.8668647276299
 20
2769.6483673304178
 30
0.0
 41
40.0
 42
40.0
 43
40.0
 50
180.0
  0
INSERT
  5
83CB
  8
3
 62
     0
  2
_OPEN
 10
3224.8668647276322
 20
2769.6483673304178
 30
0.0
 41
40.0
 42
40.0
 43
40.0
  0
TEXT
  8
3
  40
60
  5
841B
  62
0
  72
0
  71
0
 10
2724.87
 20
2763.45
 30
0.000000
  1
MAX
  0
TEXT
  8
3
  40
60
  5
841C
  62
0
  72
0
  71
0
 10
2724.87
 20
2685.45
 30
0.000000
  1
830
  0
POINT
  5
83CD
  8
DEFPOINTS
 62
     0
 10
2464.8668647276299
 20
2400.6729791784092
 30
0.0
  0
POINT
  5
83CE
  8
DEFPOINTS
 62
     0
 10
3224.8668647276322
 20
2727.8697853468998
 30
0.0
  0
POINT
  5
83CF
  8
DEFPOINTS
 62
     0
 10
3224.8668647276322
 20
2769.6483673304178
 30
0.0
  0
ENDBLK
  5
8251
  8
0
  0
BLOCK
  8
0
  2
*D19
 70
     1
 10
0.0
 20
0.0
 30
0.0
  3
*D19
  1

  0
LINE
  5
83DA
  8
3
 62
     0
 10
3413.4668647276299
 20
2450.6729791784092
 30
0.0
 11
3577.1276829578119
 21
2450.6729791784092
 31
0.0
  0
LINE
  5
83DB
  8
3
 62
     0
 10
3413.4668647276299
 20
2050.6729791784092
 30
0.0
 11
3577.1276829578119
 21
2050.6729791784092
 31
0.0
  0
LINE
  5
83DC
  8
3
 62
     0
 10
3557.1276829578128
 20
2410.6729791784092
 30
0.0
 11
3557.1276829578128
 21
2090.6729791784092
 31
0.0
  0
INSERT
  5
83DD
  8
3
 62
     0
  2
_OPEN
 10
3557.1276829578128
 20
2450.6729791784092
 30
0.0
 41
40.0
 42
40.0
 43
40.0
 50
90.0
  0
INSERT
  5
83DE
  8
3
 62
     0
  2
_OPEN
 10
3557.1276829578128
 20
2050.6729791784092
 30
0.0
 41
40.0
 42
40.0
 43
40.0
 50
270.0
  0
TEXT
  8
3
  40
60
  5
841D
  62
0
  72
0
  71
0
 10
3387.13
 20
2144.47
 30
0.000000
  1
φ400
  0
POINT
  5
83E0
  8
DEFPOINTS
 62
     0
 10
3403.4668647276299
 20
2450.6729791784092
 30
0.0
  0
POINT
  5
83E1
  8
DEFPOINTS
 62
     0
 10
3403.4668647276299
 20
2050.6729791784092
 30
0.0
  0
POINT
  5
83E2
  8
DEFPOINTS
 62
     0
 10
3557.1276829578128
 20
2050.6729791784092
 30
0.0
  0
ENDBLK
  5
81BC
  8
0
  0
BLOCK
  8
0
  2
*D20
 70
     1
 10
0.0
 20
0.0
 30
0.0
  3
*D20
  1

  0
LINE
  5
8215
  8
0
  6
BYBLOCK
 62
     0
 10
3224.8668647276322
 20
2737.8697853468998
 30
0.0
 11
3224.8668647276322
 21
2789.6483673304178
 31
0.0
  0
LINE
  5
8216
  8
0
  6
BYBLOCK
 62
     0
 10
3377.8668647276309
 20
2485.6729791784101
 30
0.0
 11
3377.8668647276309
 21
2789.6483673304178
 31
0.0
  0
LINE
  5
8217
  8
0
  6
BYBLOCK
 62
     0
 10
3264.8668647276309
 20
2769.6483673304178
 30
0.0
 11
3337.8668647276299
 21
2769.6483673304178
 31
0.0
  0
TEXT
  5
8218
  8
3
 62
     0
 10
3229.9382932990588
 20
2819.6483673304169
 30
0.0
 40
60.0
  1
153
  0
INSERT
  5
8219
  8
0
  6
BYBLOCK
 62
     0
  2
_OPEN
 10
3224.8668647276322
 20
2769.6483673304178
 30
0.0
 41
40.0
 42
40.0
 43
40.0
 50
180.0
  0
INSERT
  5
821A
  8
0
  6
BYBLOCK
 62
     0
  2
_OPEN
 10
3377.8668647276309
 20
2769.6483673304178
 30
0.0
 41
40.0
 42
40.0
 43
40.0
  0
POINT
  5
821B
  8
DEFPOINTS
  6
BYBLOCK
 62
     0
 10
3224.8668647276322
 20
2727.8697853468998
 30
0.0
  0
POINT
  5
821C
  8
DEFPOINTS
  6
BYBLOCK
 62
     0
 10
3377.8668647276309
 20
2475.6729791784092
 30
0.0
  0
POINT
  5
821D
  8
DEFPOINTS
  6
BYBLOCK
 62
     0
 10
3377.8668647276309
 20
2769.6483673304178
 30
0.0
  0
ENDBLK
  5
821E
  8
0
  0
BLOCK
  8
0
  2
*D21
 70
     1
 10
0.0
 20
0.0
 30
0.0
  3
*D21
  1

  0
LINE
  5
83E3
  8
3
 62
     0
 10
3074.8668647276309
 20
2553.8806961404262
 30
0.0
 11
3074.8668647276309
 21
2657.591904425552
 31
0.0
  0
LINE
  5
83E4
  8
3
 62
     0
 10
3374.8668647276322
 20
2553.8806961404262
 30
0.0
 11
3374.8668647276322
 21
2657.591904425552
 31
0.0
  0
LINE
  5
83E5
  8
3
 62
     0
 10
3114.8668647276309
 20
2637.591904425552
 30
0.0
 11
3334.8668647276322
 21
2637.591904425552
 31
0.0
  0
INSERT
  5
83E6
  8
3
 62
     0
  2
_OPEN
 10
3074.8668647276309
 20
2637.591904425552
 30
0.0
 41
40.0
 42
40.0
 43
40.0
 50
180.0
  0
INSERT
  5
83E7
  8
3
 62
     0
  2
_OPEN
 10
3374.8668647276322
 20
2637.591904425552
 30
0.0
 41
40.0
 42
40.0
 43
40.0
  0
TEXT
  8
3
  40
60
  5
841E
  62
0
  72
0
  71
0
 10
3104.87
 20
2581.39
 30
0.000000
  1
300
  0
POINT
  5
83E9
  8
DEFPOINTS
 62
     0
 10
3074.8668647276309
 20
2543.8806961404262
 30
0.0
  0
POINT
  5
83EA
  8
DEFPOINTS
 62
     0
 10
3374.8668647276322
 20
2543.8806961404262
 30
0.0
  0
POINT
  5
83EB
  8
DEFPOINTS
 62
     0
 10
3374.8668647276322
 20
2637.591904425552
 30
0.0
  0
ENDBLK
  5
8143
  8
0
  0
BLOCK
  8
0
  2
_DOT
 70
     0
 10
0.0
 20
0.0
 30
0.0
  3
_DOT
  1

  0
LINE
  5
81F7
  8
0
  6
BYBLOCK
 62
     0
 10
0.0
 20
0.0
 30
0.0
 11
-1.0
 21
-0.0000000000000284
 31
0.0
  0
POLYLINE
  5
81F8
  8
0
  6
BYBLOCK
 62
     0
 66
     1
 10
0.0
 20
0.0
 30
0.0
 70
     1
 40
0.1666666666666666
 41
0.1666666666666666
  0
VERTEX
  5
83F6
  8
0
  6
BYBLOCK
 62
     0
 10
-0.0833333333333286
 20
-0.0000000000000284
 30
0.0
 42
1.0
  0
VERTEX
  5
83F7
  8
0
  6
BYBLOCK
 62
     0
 10
0.0833333333333286
 20
-0.0000000000000284
 30
0.0
 42
1.0
  0
SEQEND
  5
83F8
  8
0
  6
BYBLOCK
 62
     0
  0
ENDBLK
  5
81CF
  8
0
  0
BLOCK
  8
0
  2
*D23
 70
     1
 10
0.0
 20
0.0
 30
0.0
  3
*D23
  1

  0
LINE
  5
83F9
  8
3
 62
     0
 10
1098.5781358070101
 20
2275.6729791784092
 30
0.0
 11
1098.5781358070101
 21
2778.1144047278121
 31
0.0
  0
LINE
  5
83FA
  8
3
 62
     0
 10
2118.5781358070099
 20
1805.6729791784089
 30
0.0
 11
2118.5781358070099
 21
2778.1144047278121
 31
0.0
  0
LINE
  5
83FB
  8
3
 62
     0
 10
1138.5781358070101
 20
2758.1144047278121
 30
0.0
 11
2078.5781358070099
 21
2758.1144047278121
 31
0.0
  0
INSERT
  5
83FC
  8
3
 62
     0
  2
_OPEN
 10
1098.5781358070101
 20
2758.1144047278121
 30
0.0
 41
40.0
 42
40.0
 43
40.0
 50
180.0
  0
INSERT
  5
83FD
  8
3
 62
     0
  2
_OPEN
 10
2118.5781358070099
 20
2758.1144047278121
 30
0.0
 41
40.0
 42
40.0
 43
40.0
  0
TEXT
  8
3
  40
60
  5
841F
  62
0
  72
0
  71
0
 10
1542.11
 20
2701.91
 30
0.000000
  1
1020
  0
POINT
  5
83FF
  8
DEFPOINTS
 62
     0
 10
1098.5781358070101
 20
2265.6729791784092
 30
0.0
  0
POINT
  5
8400
  8
DEFPOINTS
 62
     0
 10
2118.5781358070099
 20
1795.6729791784089
 30
0.0
  0
POINT
  5
8401
  8
DEFPOINTS
 62
     0
 10
2118.5781358070099
 20
2758.1144047278121
 30
0.0
  0
ENDBLK
  5
8213
  8
0
  0
BLOCK
  8
0
  2
*D24
 70
     1
 10
0.0
 20
0.0
 30
0.0
  3
*D24
  1

  0
LINE
  5
82F4
  8
0
  6
BYBLOCK
 62
     0
 10
1085.4046203925479
 20
1625.6729791784089
 30
0.0
 11
655.88068786873373
 21
1625.6729791784089
 31
0.0
  0
LINE
  5
82F5
  8
0
  6
BYBLOCK
 62
     0
 10
675.88068786873373
 20
1760.6729791784089
 30
0.0
 11
675.88068786873373
 21
1800.6729791784089
 31
0.0
  0
LINE
  5
82F6
  8
0
  6
BYBLOCK
 62
     0
 10
675.88068786873373
 20
1585.6729791784089
 30
0.0
 11
675.88068786873373
 21
1545.6729791784089
 31
0.0
  0
TEXT
  5
82F7
  8
3
 62
     0
 10
600.16640215444795
 20
1586.030122035552
 30
0.0
 40
60.0
  1
(95)
 50
90.0
  0
LINE
  5
82F8
  8
0
  6
BYBLOCK
 62
     0
 10
675.88068786873373
 20
1720.6729791784089
 30
0.0
 11
675.88068786873373
 21
1625.6729791784089
 31
0.0
  0
INSERT
  5
82F9
  8
0
  6
BYBLOCK
 62
     0
  2
_OPEN
 10
675.88068786873373
 20
1720.6729791784089
 30
0.0
 41
40.0
 42
40.0
 43
40.0
 50
270.0
  0
INSERT
  5
82FA
  8
0
  6
BYBLOCK
 62
     0
  2
_DOT
 10
675.88068786873373
 20
1625.6729791784089
 30
0.0
 41
40.0
 42
40.0
 43
40.0
 50
90.0
  0
POINT
  5
82FB
  8
DEFPOINTS
  6
BYBLOCK
 62
     0
 10
1095.4046203925479
 20
1720.6729791784089
 30
0.0
  0
POINT
  5
82FC
  8
DEFPOINTS
  6
BYBLOCK
 62
     0
 10
1095.4046203925479
 20
1625.6729791784089
 30
0.0
  0
POINT
  5
82FD
  8
DEFPOINTS
  6
BYBLOCK
 62
     0
 10
675.88068786873373
 20
1625.6729791784089
 30
0.0
  0
ENDBLK
  5
82FE
  8
0
  0
ENDSEC
  0
SECTION
  2
ENTITIES
  0
LINE
  5
7CA9
  8
1
 10
1170.9321983967479
 20
2238.6729791784092
 30
0.0
 11
1098.5781358070101
 21
2238.6729791784092
 31
0.0
  0
DIMENSION
  5
7CAB
  8
3
  2
*D1
 10
768.19922885822587
 20
2532.680696140425
 30
0.0
 11
718.19922885822552
 21
2391.6768376594168
 31
0.0
 70
     0
 13
1086.2003661677329
 23
2250.6729791784092
 33
0.0
 14
1433.5781358070101
 24
2532.680696140425
 34
0.0
 50
270.0
1001
ACAD
1000
DSTYLE
1002
{
1070
   287
1070
     3
1070
    40
1040
20.0
1070
   143
1040
0.039
1070
   172
1070
     1
1070
   271
1070
     0
1070
   279
1070
     0
1070
   288
1070
     1
1002
}
  0
ARC
  5
7CAC
  8
1
 10
1426.5781358070101
 20
2273.6729791784078
 30
0.0
 40
258.54745134352208
 50
97.523820438639603
 51
179.99999999999969
  0
DIMENSION
  5
7CAE
  8
3
  2
*D2
 10
1403.5781358070101
 20
2635.9534958240019
 30
0.0
 11
1251.0781358070101
 21
2685.9534958240019
 31
0.0
 70
     0
 13
1098.5781358070101
 23
2265.6729791784092
 33
0.0
 14
1403.5781358070101
 24
2571.0284067068178
 34
0.0
1001
ACAD
1000
DSTYLE
1002
{
1070
   287
1070
     3
1070
    40
1040
20.0
1070
   143
1040
0.039
1070
   172
1070
     1
1070
   271
1070
     0
1070
   279
1070
     0
1070
   288
1070
     1
1002
}
  0
DIMENSION
  5
7CAF
  8
3
  2
*D3
 10
769.05420328319633
 20
1550.6729791784089
 30
0.0
 11
719.05420328319599
 21
1402.1015506069809
 31
0.0
 70
     0
 13
1188.5781358070101
 23
1625.6729791784089
 33
0.0
 14
1188.5781358070101
 24
1550.6729791784089
 34
0.0
 50
270.0
1001
ACAD
1000
DSTYLE
1002
{
1070
   287
1070
     3
1070
    40
1040
20.0
1070
   143
1040
0.039
1070
   172
1070
     1
1070
   271
1070
     0
1070
   279
1070
     0
1070
   288
1070
     1
1070
     6
1000
DOT
1002
}
  0
LINE
  5
7CB0
  8
1
 10
1403.4867330387599
 20
1849.8695038833141
 30
0.0
 11
1098.5781358070101
 21
1826.6729791784089
 31
0.0
  0
DIMENSION
  5
7CB7
  8
3
  2
*D4
 10
769.05420328319633
 20
1720.6729791784089
 30
0.0
 11
719.05420328319599
 21
1985.6729791784101
 31
0.0
 70
     0
 13
1086.2003661677329
 23
2250.6729791784092
 33
0.0
 14
1188.5781358070101
 24
1720.6729791784089
 34
0.0
 50
270.0
1001
ACAD
1000
DSTYLE
1002
{
1070
   287
1070
     3
1070
    40
1040
20.0
1070
   143
1040
0.039
1070
   172
1070
     1
1070
   271
1070
     0
1070
   279
1070
     0
1070
   288
1070
     1
1002
}
  0
DIMENSION
  5
7CB8
  8
3
  2
*D5
 10
581.47313309840001
 20
2532.680696140425
 30
0.0
 11
581.47313309839944
 21
2071.1768376594168
 31
0.0
 70
   128
 13
1188.5781358070101
 23
1550.6729791784089
 33
0.0
 14
1433.5781358070101
 24
2532.680696140425
 34
0.0
 50
270.0
1001
ACAD
1000
DSTYLE
1002
{
1070
   287
1070
     3
1070
    40
1040
20.0
1070
   143
1040
0.039
1070
   172
1070
     1
1070
   271
1070
     0
1070
   279
1070
     0
1070
   288
1070
     1
1002
}
  0
LINE
  5
7CB9
  8
2
 10
1764.794030331843
 20
2250.6729791784092
 30
0.0
 11
1086.2003661677329
 21
2250.6729791784092
 31
0.0
  0
LINE
  5
7CBA
  8
1
 10
1098.5781358070101
 20
2238.6729791784092
 30
0.0
 11
1098.5781358070101
 21
1801.6729791784089
 31
0.0
  0
LINE
  5
7CBB
  8
1
 10
1123.5781358070101
 20
2240.6729791784092
 30
0.0
 11
1123.5781358070101
 21
1823.6781618658381
 31
0.0
  0
LINE
  5
7CBC
  8
1
 10
1101.5781358070101
 20
2238.6729791784092
 30
0.0
 11
1101.5781358070101
 21
1826.6729791784089
 31
0.0
  0
DIMENSION
  5
7CBD
  8
3
  2
*D6
 10
974.93677988864692
 20
2238.6729791784101
 30
0.0
 11
924.93677988864647
 21
2032.6729791784101
 31
0.0
 70
     0
 13
1098.5781358070101
 23
1826.6729791784089
 33
0.0
 14
1098.5781358070101
 24
2238.6729791784092
 34
0.0
 50
270.0
1001
ACAD
1000
DSTYLE
1002
{
1070
   287
1070
     3
1070
    40
1040
20.0
1070
   143
1040
0.039
1070
   172
1070
     1
1070
   271
1070
     0
1070
   279
1070
     0
1070
   288
1070
     1
1002
}
  0
DIMENSION
  5
7CBE
  8
3
  2
*D7
 10
881.76651644853507
 20
2250.6729791784101
 30
0.0
 11
831.76651644853473
 21
2038.6729791784101
 31
0.0
 70
     0
 13
1098.5781358070101
 23
1826.6729791784089
 33
0.0
 14
1086.2003661677329
 24
2250.6729791784092
 34
0.0
 50
270.0
1001
ACAD
1000
DSTYLE
1002
{
1070
   287
1070
     3
1070
    40
1040
20.0
1070
   143
1040
0.039
1070
   172
1070
     1
1070
   271
1070
     0
1070
   279
1070
     0
1070
   288
1070
     1
1002
}
  0
POLYLINE
  5
7CC0
  8
1
 66
     1
 10
0.0
 20
0.0
 30
0.0
 70
     1
  0
VERTEX
  5
836B
  8
1
 10
1098.5781358070101
 20
1826.6729791784089
 30
0.0
  0
VERTEX
  5
836C
  8
1
 10
1098.5781358070101
 20
1801.6729791784089
 30
0.0
  0
VERTEX
  5
836D
  8
1
 10
1099.5781358070101
 20
1801.6729791784089
 30
0.0
 42
0.4142135623730951
  0
VERTEX
  5
836E
  8
1
 10
1101.5781358070101
 20
1803.6729791784089
 30
0.0
  0
VERTEX
  5
836F
  8
1
 10
1101.5781358070101
 20
1819.6729791784089
 30
0.0
 42
-0.4142135623730951
  0
VERTEX
  5
8370
  8
1
 10
1105.5781358070101
 20
1823.6729791784089
 30
0.0
  0
VERTEX
  5
8371
  8
1
 10
1121.5781358070101
 20
1823.6729791784089
 30
0.0
 42
0.4142135623730951
  0
VERTEX
  5
8372
  8
1
 10
1123.5781358070101
 20
1825.6729791784089
 30
0.0
  0
VERTEX
  5
8373
  8
1
 10
1123.5781358070101
 20
1826.6729791784089
 30
0.0
  0
SEQEND
  5
8374
  8
1
  0
LINE
  5
7CCB
  8
1
 10
1123.5781358070101
 20
1825.6729791784089
 30
0.0
 11
1123.5781358070101
 21
1826.6729791784089
 31
0.0
  0
POLYLINE
  5
7CCC
  8
1
 66
     1
 10
0.0
 20
0.0
 30
0.0
 70
     1
  0
VERTEX
  5
8375
  8
1
 10
1098.5781358070101
 20
2238.6729791784092
 30
0.0
  0
VERTEX
  5
8376
  8
1
 10
1098.5781358070101
 20
2263.6729791784092
 30
0.0
  0
VERTEX
  5
8377
  8
1
 10
1099.5781358070101
 20
2263.6729791784092
 30
0.0
 42
-0.4142135623730951
  0
VERTEX
  5
8378
  8
1
 10
1101.5781358070101
 20
2261.6729791784092
 30
0.0
  0
VERTEX
  5
8379
  8
1
 10
1101.5781358070101
 20
2245.6729791784092
 30
0.0
 42
0.4142135623730951
  0
VERTEX
  5
837A
  8
1
 10
1105.5781358070101
 20
2241.6729791784092
 30
0.0
  0
VERTEX
  5
837B
  8
1
 10
1121.5781358070101
 20
2241.6729791784092
 30
0.0
 42
-0.4142135623730951
  0
VERTEX
  5
837C
  8
1
 10
1123.5781358070101
 20
2239.6729791784092
 30
0.0
  0
VERTEX
  5
837D
  8
1
 10
1123.5781358070101
 20
2238.6729791784092
 30
0.0
  0
SEQEND
  5
837E
  8
1
  0
LINE
  5
7CD8
  8
1
 10
1218.5781358070101
 20
2192.2729791784091
 30
0.0
 11
1218.578135807011
 21
1795.6729791784089
 31
0.0
  0
LINE
  5
7CD9
  8
2
 10
1403.5781358070101
 20
2571.0284067068178
 30
0.0
 11
1403.5781358070101
 21
1520.744436644
 31
0.0
  0
ARC
  5
7CDC
  8
1
 10
1963.578135807011
 20
1965.6729791784089
 30
0.0
 40
100.8
 50
180.0
 51
254.20289999999989
  0
ARC
  5
7CDE
  8
1
 10
1963.578135807011
 20
1965.6729791784089
 30
0.0
 40
100.8
 50
285.4276999999999
 51
180.0
  0
LINE
  5
7CDF
  8
2
 10
1963.578135807011
 20
2066.8978791784089
 30
0.0
 11
1963.578135807011
 21
1864.184579178409
 31
0.0
  0
CIRCLE
  5
7CE0
  8
1
 10
1963.578135807011
 20
1965.6729791784089
 30
0.0
 40
76.200000000000003
  0
ARC
  5
7CE1
  8
1
 10
1963.578135807011
 20
1965.6729791784089
 30
0.0
 40
150.0
 50
243.02715656635621
 51
63.027156566356233
  0
LINE
  5
7CE2
  8
1
 10
1588.578135807011
 20
2192.2729791784091
 30
0.0
 11
1588.578135807011
 21
1795.6729791784089
 31
0.0
  0
ARC
  5
7CE3
  8
1
 10
1373.5781358070101
 20
2220.6729791784092
 30
0.0
 40
372.00771696201542
 50
274.61143090996092
 51
0.000000000000687
  0
LINE
  5
7CE4
  8
1
 10
1927.6507099906869
 20
1898.4743179252821
 30
0.0
 11
1373.638614293408
 21
2194.6740948008028
 31
0.0
  0
LINE
  5
7CE5
  8
1
 10
1895.5429152471879
 20
1831.9897387801591
 30
0.0
 11
1335.5429152471879
 21
2116.9897387801589
 31
0.0
  0
LINE
  5
7CE6
  8
1
 10
2118.5781358070099
 20
1720.6729791784089
 30
0.0
 11
1188.5781358070101
 21
1720.6729791784089
 31
0.0
  0
LINE
  5
7CE7
  8
1
 10
2118.5781358070099
 20
1795.6729791784089
 30
0.0
 11
1188.5781358070101
 21
1795.6729791784089
 31
0.0
  0
LINE
  5
7CE8
  8
1
 10
2118.5781358070099
 20
1720.6729791784089
 30
0.0
 11
1188.5781358070101
 21
1720.6729791784089
 31
0.0
  0
LINE
  5
7CE9
  8
1
 10
2118.5781358070099
 20
1625.6729791784089
 30
0.0
 11
1188.5781358070101
 21
1625.6729791784089
 31
0.0
  0
LINE
  5
7CEA
  8
1
 10
2118.5781358070099
 20
1550.6729791784089
 30
0.0
 11
1188.5781358070101
 21
1550.6729791784089
 31
0.0
  0
DIMENSION
  5
7CEB
  8
3
  2
*D8
 10
1403.5781358070101
 20
1429.9802803625209
 30
0.0
 11
1761.078135807011
 21
1479.9802803625209
 31
0.0
 70
     0
 13
2118.5781358070099
 23
1550.6729791784089
 33
0.0
 14
1403.5781358070101
 24
1520.744436644
 34
0.0
1001
ACAD
1000
DSTYLE
1002
{
1070
   287
1070
     3
1070
    40
1040
20.0
1070
   143
1040
0.039
1070
   172
1070
     1
1070
   271
1070
     0
1070
   279
1070
     0
1070
   288
1070
     1
1002
}
  0
LINE
  5
7CEC
  8
1
 10
1188.5781358070101
 20
1625.6729791784089
 30
0.0
 11
1188.5781358070101
 21
1550.6729791784089
 31
0.0
  0
DIMENSION
  5
7CED
  8
3
  2
*D9
 10
1188.5781358070101
 20
1429.9802803625209
 30
0.0
 11
1296.0781358070101
 21
1487.4808205342611
 31
0.0
 12
93.173515414462599
 22
-59.0
 32
0.0
 70
   128
 13
1403.5781358070101
 23
1520.744436644
 33
0.0
 14
1188.5781358070101
 24
1550.6729791784089
 34
0.0
1001
ACAD
1000
DSTYLE
1002
{
1070
   288
1070
     1
1070
   172
1070
     1
1070
    40
1040
20.0
1070
   271
1070
     0
1070
   143
1040
0.039
1002
}
  0
LINE
  5
7CEE
  8
1
 10
1188.5781358070101
 20
1795.6729791784089
 30
0.0
 11
1188.5781358070101
 21
1720.6729791784089
 31
0.0
  0
LINE
  5
7CEF
  8
1
 10
1198.5781358070101
 20
1870.6729791784089
 30
0.0
 11
1198.5781358070101
 21
1795.6729791784089
 31
0.0
  0
LINE
  5
7CF0
  8
1
 10
1218.5781358070101
 20
1800.6729791784089
 30
0.0
 11
1198.5781358070101
 21
1800.6729791784089
 31
0.0
  0
LINE
  5
7CF1
  8
1
 10
1218.578135807011
 20
1870.6729791784089
 30
0.0
 11
1198.5781358070101
 21
1870.6729791784089
 31
0.0
  0
LINE
  5
7CF2
  8
1
 10
1608.5781358070101
 20
1870.6729791784089
 30
0.0
 11
1608.5781358070101
 21
1795.6729791784089
 31
0.0
  0
LINE
  5
7CF3
  8
1
 10
1608.5781358070101
 20
1800.6729791784089
 30
0.0
 11
1588.578135807011
 21
1800.6729791784089
 31
0.0
  0
LINE
  5
7CF4
  8
1
 10
1608.5781358070101
 20
1870.6729791784089
 30
0.0
 11
1588.578135807011
 21
1870.6729791784089
 31
0.0
  0
LINE
  5
7CF5
  8
1
 10
2118.5781358070099
 20
1625.6729791784089
 30
0.0
 11
2118.5781358070099
 21
1550.6729791784089
 31
0.0
  0
LINE
  5
7CF7
  8
1
 10
1935.960435807011
 20
1868.6729791784089
 30
0.0
 11
1990.84753580701
 21
1868.6729791784089
 31
0.0
  0
LINE
  5
7CF8
  8
1
 10
2113.5781358070099
 20
1825.6729791784089
 30
0.0
 11
1813.5781358070101
 21
1825.6729791784089
 31
0.0
  0
LINE
  5
7CF9
  8
1
 10
2085.1906476482009
 20
1865.6729791784089
 30
0.0
 11
1841.96562396582
 21
1865.6729791784089
 31
0.0
  0
LINE
  5
7CFA
  8
1
 10
1863.5781358070101
 20
1865.6729791784089
 30
0.0
 11
1903.5781358070101
 21
1865.6729791784089
 31
0.0
  0
LINE
  5
7CFB
  8
1
 10
1865.5781358070101
 20
1877.6729791784089
 30
0.0
 11
1901.5781358070101
 21
1877.6729791784089
 31
0.0
  0
LINE
  5
7CFC
  8
1
 10
1831.0781358070101
 20
1825.6729791784089
 30
0.0
 11
1841.96562396582
 21
1865.6729791784089
 31
0.0
  0
LINE
  5
7CFD
  8
1
 10
1813.5781358070101
 20
1825.6729791784089
 30
0.0
 11
1813.5781358070101
 21
1795.6729791784089
 31
0.0
  0
ARC
  5
7CFE
  8
1
 10
1865.5781358070101
 20
1875.6729791784089
 30
0.0
 40
2.0
 50
90.0
 51
180.0
  0
LINE
  5
7CFF
  8
1
 10
1864.66893580701
 20
1877.712479178409
 30
0.0
 11
1880.78763580701
 21
1907.846779178409
 31
0.0
  0
LINE
  5
7D00
  8
1
 10
1877.5781358070101
 20
1877.6729791784089
 30
0.0
 11
1877.5781358070101
 21
1865.6729791784089
 31
0.0
  0
LINE
  5
7D01
  8
1
 10
1863.5781358070101
 20
1865.6729791784089
 30
0.0
 11
1863.5781358070101
 21
1875.6729791784089
 31
0.0
  0
LINE
  5
7D02
  8
1
 10
1909.8315358070111
 20
1879.926479178409
 30
0.0
 11
1903.5781358070101
 21
1873.6729791784089
 31
0.0
  0
ARC
  5
7D03
  8
1
 10
1901.5781358070101
 20
1875.6729791784089
 30
0.0
 40
2.0
 50
0.0
 51
90.0
  0
LINE
  5
7D04
  8
1
 10
1903.5781358070101
 20
1865.6729791784089
 30
0.0
 11
1903.5781358070101
 21
1875.6729791784089
 31
0.0
  0
LINE
  5
7D05
  8
1
 10
1889.5781358070101
 20
1865.6729791784089
 30
0.0
 11
1889.5781358070101
 21
1877.6729791784089
 31
0.0
  0
LINE
  5
7D06
  8
1
 10
1883.5781358070101
 20
1879.0534791784089
 30
0.0
 11
1883.5781358070101
 21
1861.706379178409
 31
0.0
  0
LINE
  5
7D07
  8
1
 10
2118.5781358070099
 20
1795.6729791784089
 30
0.0
 11
2118.5781358070099
 21
1720.6729791784089
 31
0.0
  0
LINE
  5
7D08
  8
1
 10
2062.685935807011
 20
1877.341079178409
 30
0.0
 11
2046.2851358070111
 21
1908.0030791784091
 31
0.0
  0
LINE
  5
7D09
  8
1
 10
2061.5781358070099
 20
1877.6729791784089
 30
0.0
 11
2025.5781358070101
 21
1877.6729791784089
 31
0.0
  0
LINE
  5
7D0A
  8
1
 10
2063.5781358070112
 20
1865.6729791784089
 30
0.0
 11
2023.578135807011
 21
1865.6729791784089
 31
0.0
  0
LINE
  5
7D0B
  8
1
 10
2017.0285358070109
 20
1880.222679178409
 30
0.0
 11
2023.578135807011
 21
1873.6729791784089
 31
0.0
  0
ARC
  5
7D0C
  8
1
 10
2025.5781358070101
 20
1875.6729791784089
 30
0.0
 40
2.0
 50
90.0
 51
180.0
  0
LINE
  5
7D0D
  8
1
 10
2023.578135807011
 20
1865.6729791784089
 30
0.0
 11
2023.578135807011
 21
1875.6729791784089
 31
0.0
  0
LINE
  5
7D0E
  8
1
 10
2037.5781358070101
 20
1865.6729791784089
 30
0.0
 11
2037.5781358070101
 21
1877.6729791784089
 31
0.0
  0
LINE
  5
7D0F
  8
1
 10
2043.578135807011
 20
1879.0534791784089
 30
0.0
 11
2043.578135807011
 21
1861.706379178409
 31
0.0
  0
LINE
  5
7D10
  8
1
 10
2096.0781358070099
 20
1825.6729791784089
 30
0.0
 11
2085.1906476482009
 21
1865.6729791784089
 31
0.0
  0
LINE
  5
7D11
  8
1
 10
2113.5781358070099
 20
1825.6729791784089
 30
0.0
 11
2113.5781358070099
 21
1795.6729791784089
 31
0.0
  0
ARC
  5
7D12
  8
1
 10
2061.5781358070099
 20
1875.6729791784089
 30
0.0
 40
2.0
 50
0.0
 51
90.0
  0
LINE
  5
7D13
  8
1
 10
2063.5781358070112
 20
1865.6729791784089
 30
0.0
 11
2063.5781358070112
 21
1875.6729791784089
 31
0.0
  0
LINE
  5
7D14
  8
1
 10
2049.5781358070099
 20
1877.6729791784089
 30
0.0
 11
2049.5781358070099
 21
1865.6729791784089
 31
0.0
  0
ARC
  5
7D15
  8
1
 10
1433.5781358070101
 20
2220.6729791784101
 30
0.0
 40
312.00771696201508
 50
0.0000000000006361
 51
97.523820438639532
  0
LINE
  5
7D17
  8
1
 10
1996.7603737552911
 20
2034.2687449715229
 30
0.0
 11
1431.230000763911
 21
2307.8361173393369
 31
0.0
  0
LINE
  5
7D18
  8
1
 10
2031.6133563668341
 20
2099.3562195766581
 30
0.0
 11
1471.6133563668341
 21
2384.3562195766581
 31
0.0
  0
ARC
  5
7D19
  8
1
 10
1403.5781358070101
 20
2250.6729791784092
 30
0.0
 40
150.0
 50
63.027156566356233
 51
243.02715656635621
  0
DIMENSION
  5
7D1A
  8
3
  2
*D10
 10
1745.5858527690259
 20
2635.9534958240019
 30
0.0
 11
1574.581994288018
 21
2685.9534958240019
 31
0.0
 70
     0
 13
1403.5781358070101
 23
2571.0284067068178
 33
0.0
 14
1745.5858527690259
 24
2220.6729791784092
 34
0.0
1001
ACAD
1000
DSTYLE
1002
{
1070
   287
1070
     3
1070
    40
1040
20.0
1070
   143
1040
0.039
1070
   172
1070
     1
1070
   271
1070
     0
1070
   279
1070
     0
1070
   288
1070
     1
1002
}
  0
LINE
  5
7D1B
  8
1
 10
1628.5781358070101
 20
2192.2729791784091
 30
0.0
 11
1178.5781358070101
 21
2192.2729791784091
 31
0.0
  0
LINE
  5
7D1C
  8
1
 10
1593.5781358070101
 20
2195.4729791784098
 30
0.0
 11
1213.578135807011
 21
2195.4729791784098
 31
0.0
  0
LINE
  5
7D1D
  8
1
 10
1178.5781358070101
 20
2192.2729791784091
 30
0.0
 11
1178.5781358070101
 21
2152.2729791784091
 31
0.0
  0
ARC
  5
7D1E
  8
1
 10
1380.5781358070101
 20
2273.6729791784128
 30
0.0
 40
212.5474513435226
 50
180.00000000000091
 51
189.47801303797539
  0
LINE
  5
7D20
  8
1
 10
1218.5781358070101
 20
2152.2729791784091
 30
0.0
 11
1123.5781358070101
 21
2152.2729791784091
 31
0.0
  0
LINE
  5
7D21
  8
1
 10
1218.5781358070101
 20
2146.2729791784091
 30
0.0
 11
1123.5781358070101
 21
2146.2729791784091
 31
0.0
  0
LINE
  5
7D22
  8
1
 10
1213.578135807011
 20
2195.4729791784098
 30
0.0
 11
1213.578135807011
 21
2192.2729791784091
 31
0.0
  0
CIRCLE
  5
7D24
  8
1
 10
1403.5781358070101
 20
2250.6729791784092
 30
0.0
 40
63.5
  0
LINE
  5
7D25
  8
1
 10
1628.5781358070101
 20
2192.2729791784091
 30
0.0
 11
1628.5781358070101
 21
2152.2729791784091
 31
0.0
  0
LINE
  5
7D26
  8
1
 10
1738.070085621119
 20
2146.2729791784091
 30
0.0
 11
1588.578135807011
 21
2146.2729791784091
 31
0.0
  0
LINE
  5
7D27
  8
1
 10
1739.24353132495
 20
2152.27297917841
 30
0.0
 11
1588.578135807011
 21
2152.2729791784091
 31
0.0
  0
LINE
  5
7D28
  8
1
 10
1593.5781358070101
 20
2195.4729791784098
 30
0.0
 11
1593.5781358070101
 21
2192.2729791784091
 31
0.0
  0
LINE
  5
7D29
  8
2
 10
2064.1935358070109
 20
1965.6729791784089
 30
0.0
 11
1855.532635807011
 21
1965.6729791784089
 31
0.0
  0
DIMENSION
  5
7D2A
  8
3
  2
*D11
 10
902.43566066498352
 20
4281.85804484654
 30
0.0
 11
852.43566066498283
 21
3851.85804484654
 31
0.0
 70
     0
 13
1188.5781358070101
 23
3421.85804484654
 33
0.0
 14
1188.5781358070101
 24
4281.85804484654
 34
0.0
 50
270.0
1001
ACAD
1000
DSTYLE
1002
{
1070
   287
1070
     3
1070
    40
1040
20.0
1070
   143
1040
0.039
1070
   172
1070
     1
1070
   271
1070
     0
1070
   279
1070
     0
1070
   288
1070
     1
1002
}
  0
LINE
  5
7D2B
  8
2
 10
1780.7522392697149
 20
4086.8580448465409
 30
0.0
 11
1030.7322114908379
 21
4086.8580448465409
 31
0.0
  0
LINE
  5
7D2C
  8
1
 10
1756.785852769025
 20
4236.85804484654
 30
0.0
 11
1101.578135807011
 21
4236.85804484654
 31
0.0
  0
LINE
  5
7D2D
  8
1
 10
1756.785852769025
 20
3936.8580448465409
 30
0.0
 11
1101.578135807011
 21
3936.8580448465409
 31
0.0
  0
LINE
  5
7D2E
  8
1
 10
1098.5781358070101
 20
3909.85804484654
 30
0.0
 11
1098.5781358070101
 21
4263.8580448465391
 31
0.0
  0
LINE
  5
7D2F
  8
1
 10
1101.5781358070101
 20
3909.85804484654
 30
0.0
 11
1101.5781358070101
 21
4263.8580448465391
 31
0.0
  0
LINE
  5
7D30
  8
1
 10
1101.5781358070101
 20
3909.85804484654
 30
0.0
 11
1098.5781358070101
 21
3909.85804484654
 31
0.0
  0
LINE
  5
7D31
  8
1
 10
1101.5781358070101
 20
4263.8580448465391
 30
0.0
 11
1098.5781358070101
 21
4263.8580448465391
 31
0.0
  0
LINE
  5
7D32
  8
2
 10
1403.5781358070101
 20
4336.8433400022468
 30
0.0
 11
1403.5781358070101
 21
3336.9099505211489
 31
0.0
  0
LINE
  5
7D33
  8
1
 10
1188.5781358070101
 20
3936.8580448465409
 30
0.0
 11
1188.5781358070101
 21
3421.85804484654
 31
0.0
  0
LINE
  5
7D34
  8
1
 10
1213.578135807011
 20
3871.8580448465409
 30
0.0
 11
1213.578135807011
 21
3446.8580448465391
 31
0.0
  0
DIMENSION
  5
7D37
  8
3
  2
*D12
 10
2118.5781358070099
 20
4396.6084862552252
 30
0.0
 11
1868.578135807011
 21
4446.6084862552243
 31
0.0
 70
     0
 13
1618.578135807011
 23
4281.85804484654
 33
0.0
 14
2118.5781358070099
 24
3841.85804484654
 34
0.0
1001
ACAD
1000
DSTYLE
1002
{
1070
   287
1070
     3
1070
    40
1040
20.0
1070
   143
1040
0.039
1070
   172
1070
     1
1070
   271
1070
     0
1070
   279
1070
     0
1070
   288
1070
     1
1002
}
  0
LINE
  5
7D38
  8
1
 10
1618.578135807011
 20
3936.85804484654
 30
0.0
 11
1618.578135807011
 21
3461.85804484654
 31
0.0
  0
LINE
  5
7D39
  8
1
 10
1593.5781358070101
 20
3871.85804484654
 30
0.0
 11
1593.5781358070101
 21
3446.85804484654
 31
0.0
  0
LINE
  5
7D3A
  8
1
 10
2113.5781358070099
 20
3448.8580448465409
 30
0.0
 11
1253.578135807011
 21
3448.85804484654
 31
0.0
  0
LINE
  5
7D3B
  8
1
 10
2113.5781358070099
 20
3326.8580448465418
 30
0.0
 11
1253.578135807011
 21
3326.85804484654
 31
0.0
  0
LINE
  5
7D3C
  8
1
 10
1863.5781358070101
 20
3461.8580448465391
 30
0.0
 11
1593.5781358070101
 21
3461.85804484654
 31
0.0
  0
LINE
  5
7D3D
  8
1
 10
2118.5781358070099
 20
3801.8580448465391
 30
0.0
 11
1618.578135807011
 21
3801.85804484654
 31
0.0
  0
LINE
  5
7D3E
  8
1
 10
2118.5781358070099
 20
3841.85804484654
 30
0.0
 11
1618.578135807011
 21
3841.85804484654
 31
0.0
  0
LINE
  5
7D3F
  8
1
 10
2118.5781358070099
 20
3421.8580448465391
 30
0.0
 11
1423.5781358070101
 21
3421.85804484654
 31
0.0
  0
LINE
  5
7D40
  8
1
 10
1887.3781358070109
 20
3356.8580448465409
 30
0.0
 11
1467.0781358070101
 21
3356.85804484654
 31
0.0
  0
LINE
  5
7D41
  8
1
 10
1467.0781358070101
 20
3406.85804484654
 30
0.0
 11
1887.3781358070109
 21
3406.8580448465409
 31
0.0
  0
DIMENSION
  5
7D42
  8
3
  2
*D13
 10
1188.5781358070101
 20
3203.6828906223109
 30
0.0
 11
1653.5781358070101
 21
3253.6828906223109
 31
0.0
 70
     0
 13
2118.5781358070099
 23
3421.8580448465391
 33
0.0
 14
1188.5781358070101
 24
3421.85804484654
 34
0.0
1001
ACAD
1000
DSTYLE
1002
{
1070
   287
1070
     3
1070
    40
1040
20.0
1070
   143
1040
0.039
1070
   172
1070
     1
1070
   271
1070
     0
1070
   279
1070
     0
1070
   288
1070
     1
1002
}
  0
LINE
  5
7D43
  8
1
 10
1253.578135807011
 20
3326.85804484654
 30
0.0
 11
1253.578135807011
 21
3448.85804484654
 31
0.0
  0
LINE
  5
7D44
  8
1
 10
1467.0781358070101
 20
3406.85804484654
 30
0.0
 11
1467.0781358070101
 21
3356.85804484654
 31
0.0
  0
LINE
  5
7D45
  8
1
 10
1340.0781358070101
 20
3406.85804484654
 30
0.0
 11
1340.0781358070101
 21
3356.85804484654
 31
0.0
  0
LINE
  5
7D46
  8
1
 10
1467.0781358070101
 20
3356.85804484654
 30
0.0
 11
1340.0781358070101
 21
3356.8580448465391
 31
0.0
  0
LINE
  5
7D51
  8
1
 10
1593.5781358070101
 20
3446.85804484654
 30
0.0
 11
1423.5781358070101
 21
3446.85804484654
 31
0.0
  0
LINE
  5
7D56
  8
1
 10
1383.5781358070101
 20
3446.85804484654
 30
0.0
 11
1213.578135807011
 21
3446.85804484654
 31
0.0
  0
LINE
  5
7D57
  8
1
 10
1383.5781358070101
 20
3421.85804484654
 30
0.0
 11
1188.5781358070101
 21
3421.85804484654
 31
0.0
  0
LINE
  5
7D59
  8
1
 10
1213.578135807011
 20
3461.8580448465409
 30
0.0
 11
1188.5781358070101
 21
3461.85804484654
 31
0.0
  0
LINE
  5
7D5B
  8
1
 10
1467.0781358070101
 20
3406.85804484654
 30
0.0
 11
1340.0781358070101
 21
3406.85804484654
 31
0.0
  0
LINE
  5
7D5C
  8
1
 10
1383.5781358070101
 20
3936.85804484654
 30
0.0
 11
1383.5781358070101
 21
3406.85804484654
 31
0.0
  0
LINE
  5
7D5D
  8
1
 10
1423.5781358070101
 20
3936.85804484654
 30
0.0
 11
1423.5781358070101
 21
3406.85804484654
 31
0.0
  0
LINE
  5
7D66
  8
1
 10
2113.5781358070099
 20
3326.8580448465418
 30
0.0
 11
2113.5781358070112
 21
3448.8580448465409
 31
0.0
  0
LINE
  5
7D67
  8
2
 10
1963.578135807011
 20
3728.1887448465409
 30
0.0
 11
1963.578135807011
 21
3351.5400448465398
 31
0.0
  0
LINE
  5
7D68
  8
1
 10
2039.778135807011
 20
3406.85804484654
 30
0.0
 11
2039.778135807011
 21
3356.85804484654
 31
0.0
  0
LINE
  5
7D69
  8
1
 10
1887.3781358070109
 20
3406.85804484654
 30
0.0
 11
1887.3781358070109
 21
3356.8580448465409
 31
0.0
  0
LINE
  5
7D6A
  8
1
 10
2039.778135807011
 20
3356.85804484654
 30
0.0
 11
1887.3781358070109
 21
3356.8580448465409
 31
0.0
  0
DIMENSION
  5
7D6B
  8
3
  2
*D14
 10
2193.9220739673779
 20
3841.85804484654
 30
0.0
 11
2143.9220739673769
 21
3631.85804484654
 31
0.0
 70
     0
 13
2118.5781358070099
 23
3421.8580448465391
 33
0.0
 14
2118.5781358070099
 24
3841.85804484654
 34
0.0
 50
270.0
1001
ACAD
1000
DSTYLE
1002
{
1070
   287
1070
     3
1070
    40
1040
20.0
1070
   143
1040
0.039
1070
   172
1070
     1
1070
   271
1070
     0
1070
   279
1070
     0
1070
   288
1070
     1
1002
}
  0
LINE
  5
7D6C
  8
1
 10
1863.5781358070101
 20
3549.85804484654
 30
0.0
 11
1863.5781358070101
 21
3722.8580448465409
 31
0.0
  0
LINE
  5
7D6D
  8
1
 10
2063.5781358070112
 20
3427.85804484654
 30
0.0
 11
2063.5781358070112
 21
3722.8580448465409
 31
0.0
  0
LINE
  5
7D6E
  8
1
 10
1948.9781358070111
 20
3416.85804484654
 30
0.0
 11
1978.17803580701
 21
3416.85804484654
 31
0.0
  0
LINE
  5
7D6F
  8
1
 10
1863.5781358070101
 20
3427.85804484654
 30
0.0
 11
2063.5781358070112
 21
3427.85804484654
 31
0.0
  0
LINE
  5
7D70
  8
1
 10
2039.778135807011
 20
3406.85804484654
 30
0.0
 11
1887.3781358070109
 21
3406.8580448465409
 31
0.0
  0
LINE
  5
7D71
  8
1
 10
2000.5781358070101
 20
3421.85804484654
 30
0.0
 11
1926.5781358070101
 21
3421.85804484654
 31
0.0
  0
LINE
  5
7D72
  8
1
 10
1863.5781358070101
 20
3549.85804484654
 30
0.0
 11
1863.5781358070101
 21
3427.85804484654
 31
0.0
  0
ARC
  5
7D73
  8
1
 10
1926.5780358070101
 20
3424.85804484654
 30
0.0
 40
2.9998999999999989
 50
179.9987999999999
 51
270.00119999999998
  0
LINE
  5
7D74
  8
1
 10
1923.5781358070101
 20
3427.85804484654
 30
0.0
 11
1923.5781358070101
 21
3424.85804484654
 31
0.0
  0
LINE
  5
7D75
  8
1
 10
1949.5781358070101
 20
3416.85804484654
 30
0.0
 11
1949.5781358070101
 21
3406.85804484654
 31
0.0
  0
LINE
  5
7D76
  8
1
 10
1948.9781358070111
 20
3421.85804484654
 30
0.0
 11
1948.9781358070111
 21
3416.85804484654
 31
0.0
  0
LINE
  5
7D77
  8
1
 10
1977.578135807011
 20
3416.85804484654
 30
0.0
 11
1977.578135807011
 21
3406.85804484654
 31
0.0
  0
LINE
  5
7D78
  8
1
 10
1978.17803580701
 20
3421.85804484654
 30
0.0
 11
1978.17803580701
 21
3416.85804484654
 31
0.0
  0
ARC
  5
7D79
  8
1
 10
2000.5781358070101
 20
3424.85804484654
 30
0.0
 40
2.9998999999999989
 50
269.9987999999999
 51
0.0011999999999613
  0
LINE
  5
7D7A
  8
1
 10
2003.5781358070101
 20
3427.85804484654
 30
0.0
 11
2003.5781358070101
 21
3424.85804484654
 31
0.0
  0
LINE
  5
7D7B
  8
1
 10
2118.5781358070099
 20
3461.85804484654
 30
0.0
 11
2118.5781358070099
 21
3421.85804484654
 31
0.0
  0
POINT
  5
7D7C
  8
1
 10
2118.5781358070099
 20
3421.8580448465391
 30
0.0
  0
POINT
  5
7D7D
  8
1
 10
2118.5781358070099
 20
3421.8580448465391
 30
0.0
  0
LINE
  5
7D7E
  8
1
 10
2118.5781358070099
 20
3461.8580448465391
 30
0.0
 11
2063.5781358070112
 21
3461.8580448465391
 31
0.0
  0
LINE
  5
7D7F
  8
1
 10
2063.5781358070112
 20
3722.8580448465409
 30
0.0
 11
1863.5781358070101
 21
3722.8580448465409
 31
0.0
  0
LINE
  5
7D80
  8
1
 10
1905.5781358070101
 20
3801.8580448465391
 30
0.0
 11
1905.5781358070101
 21
3722.8580448465409
 31
0.0
  0
LINE
  5
7D81
  8
1
 10
1865.5781358070101
 20
3801.8580448465391
 30
0.0
 11
1865.5781358070101
 21
3722.8580448465409
 31
0.0
  0
LINE
  5
7D82
  8
1
 10
2061.5781358070099
 20
3801.8580448465391
 30
0.0
 11
2061.5781358070099
 21
3722.8580448465409
 31
0.0
  0
LINE
  5
7D83
  8
1
 10
2021.5781358070101
 20
3801.8580448465391
 30
0.0
 11
2021.5781358070101
 21
3722.8580448465409
 31
0.0
  0
LINE
  5
7D84
  8
1
 10
2118.5781358070099
 20
3841.85804484654
 30
0.0
 11
2118.5781358070099
 21
3801.8580448465391
 31
0.0
  0
DIMENSION
  5
7D85
  8
3
  2
*D15
 10
1618.578135807011
 20
4396.6084862552252
 30
0.0
 11
1403.5781358070101
 21
4446.6084862552243
 31
0.0
 70
     0
 13
1188.5781358070101
 23
4281.85804484654
 33
0.0
 14
1618.578135807011
 24
4281.85804484654
 34
0.0
1001
ACAD
1000
DSTYLE
1002
{
1070
   287
1070
     3
1070
    40
1040
20.0
1070
   143
1040
0.039
1070
   172
1070
     1
1070
   271
1070
     0
1070
   279
1070
     0
1070
   288
1070
     1
1002
}
  0
LINE
  5
7D86
  8
1
 10
1578.578135807011
 20
4239.85804484654
 30
0.0
 11
1228.5781358070101
 21
4239.85804484654
 31
0.0
  0
LINE
  5
7D87
  8
1
 10
1578.578135807011
 20
4279.85804484654
 30
0.0
 11
1228.5781358070101
 21
4279.85804484654
 31
0.0
  0
LINE
  5
7D88
  8
1
 10
1593.5781358070101
 20
3871.85804484654
 30
0.0
 11
1423.5781358070101
 21
3871.85804484654
 31
0.0
  0
LINE
  5
7D89
  8
1
 10
1228.5781358070101
 20
3936.8580448465409
 30
0.0
 11
1228.5781358070101
 21
3886.2301480799438
 31
0.0
  0
LINE
  5
7D8A
  8
1
 10
1228.5781358070101
 20
3894.85804484654
 30
0.0
 11
1228.5781358070101
 21
3871.85804484654
 31
0.0
  0
LINE
  5
7D8B
  8
1
 10
1228.5781358070101
 20
4281.85804484654
 30
0.0
 11
1228.5781358070101
 21
4236.85804484654
 31
0.0
  0
LINE
  5
7D8C
  8
1
 10
1188.5781358070101
 20
4281.85804484654
 30
0.0
 11
1188.5781358070101
 21
4236.85804484654
 31
0.0
  0
LINE
  5
7D8D
  8
1
 10
1228.5781358070101
 20
4281.85804484654
 30
0.0
 11
1188.5781358070101
 21
4281.85804484654
 31
0.0
  0
POINT
  5
7D8E
  8
1
 10
1188.5781358070101
 20
4281.85804484654
 30
0.0
  0
POINT
  5
7D8F
  8
1
 10
1188.5781358070101
 20
4281.85804484654
 30
0.0
  0
LINE
  5
7D90
  8
1
 10
1756.785852769025
 20
3936.8580448465409
 30
0.0
 11
1756.785852769025
 21
4236.85804484654
 31
0.0
  0
LINE
  5
7D91
  8
1
 10
1578.578135807011
 20
3936.8580448465409
 30
0.0
 11
1578.578135807011
 21
3879.1354073919861
 31
0.0
  0
LINE
  5
7D92
  8
1
 10
1578.578135807011
 20
3894.85804484654
 30
0.0
 11
1578.578135807011
 21
3871.85804484654
 31
0.0
  0
LINE
  5
7D93
  8
1
 10
1578.578135807011
 20
4281.85804484654
 30
0.0
 11
1578.578135807011
 21
4236.85804484654
 31
0.0
  0
LINE
  5
7D94
  8
1
 10
1618.578135807011
 20
4281.85804484654
 30
0.0
 11
1618.578135807011
 21
4236.85804484654
 31
0.0
  0
LINE
  5
7D95
  8
1
 10
1618.578135807011
 20
4281.85804484654
 30
0.0
 11
1578.578135807011
 21
4281.85804484654
 31
0.0
  0
POINT
  5
7D96
  8
1
 10
1618.578135807011
 20
4281.85804484654
 30
0.0
  0
LINE
  5
7D97
  8
1
 10
3374.8668647276322
 20
1824.678161865837
 30
0.0
 11
3074.8668647276322
 21
2240.6781618658379
 31
0.0
  0
LINE
  5
7D98
  8
1
 10
3375.040647978723
 20
2240.6781618658379
 30
0.0
 11
3074.8668647276331
 21
1824.678161865837
 31
0.0
  0
LINE
  5
7D9B
  8
1
 10
3047.8668647276309
 20
2230.6729791784092
 30
0.0
 11
3047.8668647276322
 21
1799.678161865837
 31
0.0
  0
LINE
  5
7D9C
  8
1
 10
3401.8668647276322
 20
2050.6729791784092
 30
0.0
 11
3401.8668647276322
 21
1799.678161865837
 31
0.0
  0
LINE
  5
7D9D
  8
1
 10
2544.8668647276299
 20
2314.1729791784101
 30
0.0
 11
2544.8668647276299
 21
1889.4729791784091
 31
0.0
  0
LINE
  5
7D9E
  8
1
 10
2494.866864727629
 20
2314.1729791784101
 30
0.0
 11
2494.866864727629
 21
1889.4729791784091
 31
0.0
  0
LINE
  5
7D9F
  8
1
 10
2999.8668647276299
 20
2192.2729791784091
 30
0.0
 11
2999.8668647276299
 21
1795.6729791784089
 31
0.0
  0
LINE
  5
7DA0
  8
1
 10
2598.0668647276311
 20
2192.2729791784091
 30
0.0
 11
2598.0668647276311
 21
1795.6729791784089
 31
0.0
  0
DIMENSION
  5
7DA3
  8
3
  2
*D16
 10
3224.8668647276322
 20
1428.490802090932
 30
0.0
 11
2892.3668647276309
 21
1478.490802090932
 31
0.0
 70
     0
 13
2559.866864727629
 23
1550.6729791784089
 33
0.0
 14
3224.8668647276322
 24
1520.744436644
 34
0.0
1001
ACAD
1000
DSTYLE
1002
{
1070
   287
1070
     3
1070
    40
1040
20.0
1070
   143
1040
0.039
1070
   172
1070
     1
1070
   271
1070
     0
1070
   279
1070
     0
1070
   288
1070
     1
1002
}
  0
LINE
  5
7DA4
  8
1
 10
2559.866864727629
 20
1625.6729791784089
 30
0.0
 11
3419.8668647276322
 21
1625.6729791784089
 31
0.0
  0
LINE
  5
7DA5
  8
1
 10
2559.866864727629
 20
1550.6729791784089
 30
0.0
 11
3419.8668647276322
 21
1550.6729791784089
 31
0.0
  0
LINE
  5
7DA6
  8
1
 10
2559.866864727629
 20
1720.6729791784089
 30
0.0
 11
3419.8668647276322
 21
1720.6729791784089
 31
0.0
  0
LINE
  5
7DA7
  8
1
 10
2599.8668647276299
 20
1720.6729791784089
 30
0.0
 11
3419.8668647276322
 21
1720.6729791784089
 31
0.0
  0
LINE
  5
7DA8
  8
1
 10
2559.866864727629
 20
1795.6729791784089
 30
0.0
 11
3419.8668647276322
 21
1795.6729791784089
 31
0.0
  0
LINE
  5
7DA9
  8
1
 10
2559.866864727629
 20
1625.6729791784089
 30
0.0
 11
2559.866864727629
 21
1550.6729791784089
 31
0.0
  0
LINE
  5
7DAA
  8
1
 10
2494.866864727629
 20
1889.4729791784091
 30
0.0
 11
2544.8668647276299
 21
1889.4729791784091
 31
0.0
  0
LINE
  5
7DAB
  8
1
 10
2559.866864727629
 20
1795.6729791784089
 30
0.0
 11
2559.866864727629
 21
1720.6729791784089
 31
0.0
  0
DIMENSION
  5
7DAC
  8
3
  2
*D17
 10
3419.8668647276322
 20
1428.490802090932
 30
0.0
 11
3322.3668647276322
 21
1483.6706553135659
 31
0.0
 12
0.0
 22
-59.0
 32
0.0
 70
   128
 13
3224.8668647276322
 23
1520.744436644
 33
0.0
 14
3419.8668647276322
 24
1550.6729791784089
 34
0.0
1001
ACAD
1000
DSTYLE
1002
{
1070
   288
1070
     1
1070
   172
1070
     1
1070
    40
1040
20.0
1070
   271
1070
     0
1070
   143
1040
0.039
1002
}
  0
LINE
  5
7DAD
  8
1
 10
3074.8668647276331
 20
1824.678161865837
 30
0.0
 11
3374.8668647276322
 21
1824.678161865837
 31
0.0
  0
LINE
  5
7DAE
  8
1
 10
3047.8668647276322
 20
1799.678161865837
 30
0.0
 11
3401.8668647276322
 21
1799.678161865837
 31
0.0
  0
LINE
  5
7DAF
  8
1
 10
3419.8668647276322
 20
1625.6729791784089
 30
0.0
 11
3419.8668647276322
 21
1550.6729791784089
 31
0.0
  0
LINE
  5
7DB0
  8
1
 10
3419.8668647276322
 20
1795.6729791784089
 30
0.0
 11
3419.8668647276322
 21
1720.6729791784089
 31
0.0
  0
DIMENSION
  5
7DB1
  8
3
  2
*D18
 10
3224.8668647276322
 20
2769.6483673304178
 30
0.0
 11
2844.8668647276309
 21
2869.6483673304178
 31
0.0
 70
     0
  1
MAX\P830
 13
2464.8668647276299
 23
2400.6729791784092
 33
0.0
 14
3224.8668647276322
 24
2727.8697853468998
 34
0.0
1001
ACAD
1000
DSTYLE
1002
{
1070
   287
1070
     3
1070
    40
1040
20.0
1070
   143
1040
0.039
1070
   172
1070
     1
1070
   271
1070
     0
1070
   279
1070
     0
1070
   288
1070
     1
1002
}
  0
LINE
  5
7DB2
  8
1
 10
2544.8668647276299
 20
2230.6729791784092
 30
0.0
 11
3074.8668647276309
 21
2230.6729791784092
 31
0.0
  0
LINE
  5
7DB3
  8
1
 10
2544.8668647276299
 20
2270.6729791784092
 30
0.0
 11
3074.8668647276309
 21
2270.6729791784092
 31
0.0
  0
LINE
  5
7DB4
  8
2
 10
2477.856088124006
 20
2250.6729791784092
 30
0.0
 11
3403.4668647276289
 21
2250.6729791784092
 31
0.0
  0
POLYLINE
  5
7DB5
  8
1
 66
     1
 10
0.0
 20
0.0
 30
0.0
 70
     1
  0
VERTEX
  5
83D0
  8
1
 10
2999.8668647276299
 20
2152.2729791784081
 30
0.0
  0
VERTEX
  5
83D1
  8
1
 10
3039.866864727629
 20
2152.2729791784081
 30
0.0
  0
VERTEX
  5
83D2
  8
1
 10
3039.866864727629
 20
2154.2729791784091
 30
0.0
 42
0.4142135623730951
  0
VERTEX
  5
83D3
  8
1
 10
3036.8668647276299
 20
2157.2729791784091
 30
0.0
  0
VERTEX
  5
83D4
  8
1
 10
3009.366864727629
 20
2157.2729791784091
 30
0.0
 42
-0.4142135623730951
  0
VERTEX
  5
83D5
  8
1
 10
3004.8668647276299
 20
2161.7729791784091
 30
0.0
  0
VERTEX
  5
83D6
  8
1
 10
3004.8668647276299
 20
2189.2729791784091
 30
0.0
 42
0.4142135623730951
  0
VERTEX
  5
83D7
  8
1
 10
3001.8668647276299
 20
2192.2729791784091
 30
0.0
  0
VERTEX
  5
83D8
  8
1
 10
2999.8668647276299
 20
2192.2729791784091
 30
0.0
  0
SEQEND
  5
83D9
  8
1
  0
LINE
  5
7DC2
  8
1
 10
2584.866864727629
 20
2192.2729791784091
 30
0.0
 11
3009.8668647276299
 21
2192.2729791784091
 31
0.0
  0
LINE
  5
7DC3
  8
1
 10
2584.866864727629
 20
2195.4729791784089
 30
0.0
 11
3009.8668647276299
 21
2195.4729791784089
 31
0.0
  0
LINE
  5
7DC4
  8
1
 10
2586.8668647276299
 20
2400.6729791784092
 30
0.0
 11
2586.8668647276299
 21
2350.4604367310708
 31
0.0
  0
LINE
  5
7DC5
  8
1
 10
2464.8668647276299
 20
2400.6729791784092
 30
0.0
 11
2464.8668647276299
 21
1815.6729791784089
 31
0.0
  0
LINE
  5
7DC7
  8
2
 10
2482.339524387673
 20
1965.6729791784089
 30
0.0
 11
2610.2164517175579
 21
1965.6729791784089
 31
0.0
  0
LINE
  5
7DC9
  8
1
 10
2494.866864727629
 20
2032.1729791784089
 30
0.0
 11
2544.8668647276299
 21
2032.1729791784089
 31
0.0
  0
LINE
  5
7DCA
  8
1
 10
2544.8668647276309
 20
1951.6729791784089
 30
0.0
 11
2594.8668647276299
 21
1951.6729791784089
 31
0.0
  0
LINE
  5
7DCB
  8
1
 10
2544.8668647276309
 20
1979.6729791784089
 30
0.0
 11
2594.8668647276299
 21
1979.6729791784089
 31
0.0
  0
LINE
  5
7DCC
  8
1
 10
2464.8668647276299
 20
2400.6729791784092
 30
0.0
 11
2586.8668647276299
 21
2400.6729791784092
 31
0.0
  0
LINE
  5
7DCD
  8
1
 10
2494.866864727629
 20
2314.1729791784101
 30
0.0
 11
2544.8668647276299
 21
2314.1729791784101
 31
0.0
  0
LINE
  5
7DDA
  8
1
 10
2584.866864727629
 20
2195.4729791784089
 30
0.0
 11
2584.866864727629
 21
2192.2729791784091
 31
0.0
  0
LINE
  5
7DFB
  8
1
 10
3009.8668647276299
 20
2195.4729791784089
 30
0.0
 11
3009.8668647276299
 21
2192.2729791784091
 31
0.0
  0
DIMENSION
  5
7E07
  8
3
  2
*D19
 10
3557.1276829578128
 20
2050.6729791784092
 30
0.0
 11
3507.1276829578119
 21
2250.6729791784101
 31
0.0
 70
     0
 13
3403.4668647276299
 23
2450.6729791784092
 33
0.0
 14
3403.4668647276299
 24
2050.6729791784092
 34
0.0
 50
90.0
1001
ACAD
1000
DSTYLE
1002
{
1070
   287
1070
     3
1070
     3
1000
φ<>
1070
    40
1040
20.0
1070
   143
1040
0.039
1070
   172
1070
     1
1070
   271
1070
     0
1070
   279
1070
     0
1070
   288
1070
     1
1002
}
  0
LINE
  5
7E08
  8
1
 10
3403.4668647276299
 20
2450.6729791784092
 30
0.0
 11
3403.4668647276299
 21
2050.6729791784092
 31
0.0
  0
LINE
  5
7E0B
  8
1
 10
3374.8668647276322
 20
2532.680696140425
 30
0.0
 11
3374.8668647276322
 21
1824.678161865837
 31
0.0
  0
LINE
  5
7E0C
  8
1
 10
3074.8668647276309
 20
2532.680696140425
 30
0.0
 11
3074.8668647276331
 21
1824.678161865837
 31
0.0
  0
LINE
  5
7E0D
  8
1
 10
3074.8668647276309
 20
2240.6781618658379
 30
0.0
 11
3374.8668647276331
 21
2240.6781618658379
 31
0.0
  0
LINE
  5
7E0F
  8
1
 10
3022.8668647276299
 20
2147.7729791784091
 30
0.0
 11
3047.8668647276322
 21
2147.7729791784091
 31
0.0
  0
LINE
  5
7E10
  8
1
 10
3022.8668647276299
 20
2152.2729791784091
 30
0.0
 11
3047.8668647276322
 21
2152.2729791784091
 31
0.0
  0
LINE
  5
7E11
  8
1
 10
3022.8668647276299
 20
2152.2729791784091
 30
0.0
 11
3022.8668647276299
 21
2147.7729791784091
 31
0.0
  0
LINE
  5
7E12
  8
1
 10
3403.4668647276299
 20
2050.6729791784092
 30
0.0
 11
3401.8668647276322
 21
2050.6729791784092
 31
0.0
  0
DIMENSION
  5
7E13
  8
3
  2
*D20
 10
3377.8668647276309
 20
2769.6483673304178
 30
0.0
 11
3301.3668647276309
 21
2849.6483673304178
 31
0.0
 70
     0
 13
3224.8668647276322
 23
2727.8697853468998
 33
0.0
 14
3377.8668647276309
 24
2475.6729791784092
 34
0.0
1001
ACAD
1000
DSTYLE
1002
{
1070
   288
1070
     1
1070
   172
1070
     1
1070
    40
1040
20.0
1070
   271
1070
     0
1070
   143
1040
0.039
1002
}
  0
DIMENSION
  5
7E14
  8
3
  2
*D21
 10
3374.8668647276322
 20
2637.591904425552
 30
0.0
 11
3224.8668647276322
 21
2687.591904425552
 31
0.0
 70
     0
 13
3074.8668647276309
 23
2543.8806961404262
 33
0.0
 14
3374.8668647276322
 24
2543.8806961404262
 34
0.0
1001
ACAD
1000
DSTYLE
1002
{
1070
   287
1070
     3
1070
    40
1040
20.0
1070
   143
1040
0.039
1070
   172
1070
     1
1070
   271
1070
     0
1070
   279
1070
     0
1070
   288
1070
     1
1002
}
  0
LINE
  5
7E15
  8
1
 10
3074.8668647276309
 20
2532.680696140425
 30
0.0
 11
3374.8668647276322
 21
2532.680696140425
 31
0.0
  0
POLYLINE
  5
7E17
  8
1
 66
     1
 10
0.0
 20
0.0
 30
0.0
 70
     1
  0
VERTEX
  5
83EC
  8
1
 10
3377.8668647276309
 20
2450.6729791784092
 30
0.0
  0
VERTEX
  5
83ED
  8
1
 10
3402.8668647276309
 20
2450.6729791784092
 30
0.0
  0
VERTEX
  5
83EE
  8
1
 10
3402.8668647276309
 20
2451.6729791784092
 30
0.0
 42
0.4142135623730951
  0
VERTEX
  5
83EF
  8
1
 10
3400.8668647276309
 20
2453.6729791784092
 30
0.0
  0
VERTEX
  5
83F0
  8
1
 10
3384.8668647276309
 20
2453.6729791784092
 30
0.0
 42
-0.4142135623730951
  0
VERTEX
  5
83F1
  8
1
 10
3380.8668647276299
 20
2457.6729791784092
 30
0.0
  0
VERTEX
  5
83F2
  8
1
 10
3380.8668647276299
 20
2473.6729791784101
 30
0.0
 42
0.4142135623730951
  0
VERTEX
  5
83F3
  8
1
 10
3378.8668647276309
 20
2475.6729791784092
 30
0.0
  0
VERTEX
  5
83F4
  8
1
 10
3377.8668647276309
 20
2475.6729791784092
 30
0.0
  0
SEQEND
  5
83F5
  8
1
  0
LINE
  5
7E22
  8
1
 10
3374.8668647276322
 20
2450.6729791784092
 30
0.0
 11
3402.8668647276309
 21
2450.6729791784092
 31
0.0
  0
LINE
  5
7E23
  8
1
 10
3402.8668647276309
 20
2450.6729791784092
 30
0.0
 11
3401.2668647276319
 21
2450.6729791784092
 31
0.0
  0
LINE
  5
802A
  8
4
 10
3700.0
 20
1000.0
 30
0.0
 11
3700.0
 21
600.0
 31
0.0
  0
LINE
  5
802B
  8
4
 10
2300.0
 20
1000.0
 30
0.0
 11
2300.0
 21
600.0
 31
0.0
  0
LINE
  5
802C
  8
4
 10
1300.0
 20
1000.0
 30
0.0
 11
1300.0
 21
600.0
 31
0.0
  0
LINE
  5
802F
  8
4
 10
1300.0
 20
600.0
 30
0.0
 11
3700.0
 21
600.0
 31
0.0
  0
LINE
  5
8030
  8
4
 10
1300.0
 20
800.0
 30
0.0
 11
3700.0
 21
800.0
 31
0.0
  0
TEXT
  5
8031
  8
4
 10
1377.0041616938031
 20
863.08605173322564
 30
0.0
 40
100.0
  1
機器名称
  0
TEXT
  5
8032
  8
4
 10
1372.516212049595
 20
643.29031346402189
 30
0.0
 40
100.0
  1
機器型番
  0
TEXT
  5
8033
  8
4
 10
2299.8546179137529
 20
845.45519073107846
 30
0.0
 40
90.0
  1
ミツヤ多翼送風機
  0
TEXT
  5
8034
  8
4
 10
2373.3089911709608
 20
634.31916855988675
 30
0.0
 40
100.0
  1
MF#2 1/2-1
  0
TEXT
  5
8036
  8
4
 10
1506.8135401616159
 20
4766.8576826650306
 30
0.0
 40
107.9999999999999
  1
床置防振ベット
  0
TEXT
  5
8037
  8
4
 10
632.33518665889278
 20
5067.7619523985959
 30
0.0
 40
144.0
  1
遠心式片吸込片持多翼ファン
  0
LINE
  5
8038
  8
4
 10
500.0
 20
4938.8175085296089
 30
0.0
 11
3700.0
 21
4938.8175085296089
 31
0.0
  0
LINE
  5
8039
  8
4
 10
500.0
 20
5338.8175085296098
 30
0.0
 11
3700.0
 21
5338.8175085296098
 31
0.0
  0
LINE
  5
803A
  8
4
 10
1300.0
 20
1000.0
 30
0.0
 11
3700.0
 21
1000.0
 31
0.0
  0
LINE
  5
803B
  8
4
 10
500.0
 20
5338.8175085296098
 30
0.0
 11
500.0
 21
4938.8175085296089
 31
0.0
  0
TEXT
  5
803C
  8
4
 10
635.0958756762119
 20
4764.638955092687
 30
0.0
 40
107.9999999999999
  1
右回転左横向
  0
TEXT
  5
803D
  8
4
 10
2937.9391184985789
 20
5412.1221629906177
 30
0.0
 40
112.0
  1
No.
  0
TEXT
  5
803E
  8
4
 10
2622.5921252000262
 20
4766.8576826650306
 30
0.0
 40
107.9999999999999
  1
縮尺：1/20
  0
LINE
  5
803F
  8
4
 10
3700.0
 20
5338.8175085296098
 30
0.0
 11
3700.0
 21
4938.8175085296089
 31
0.0
  0
LINE
  5
8040
  8
4
 10
4200.0
 20
5900.0
 30
0.0
 11
4200.0
 21
5900.0
 31
0.0
  0
LINE
  5
8041
  8
4
 10
2881.2348447197292
 20
5362.5271662508021
 30
0.0
 11
2881.2348447197292
 21
5573.3045230995049
 31
0.0
  0
LINE
  5
8042
  8
4
 10
2881.2348447197292
 20
5573.3045230995049
 30
0.0
 11
3700.0
 21
5573.3045230995049
 31
0.0
  0
LINE
  5
8043
  8
4
 10
3700.0
 20
5573.3045230995049
 30
0.0
 11
3700.0
 21
5362.5271662508021
 31
0.0
  0
LINE
  5
8044
  8
4
 10
3700.0
 20
5362.5271662508021
 30
0.0
 11
2881.2348447197292
 21
5362.5271662508021
 31
0.0
  0
LINE
  5
8045
  8
4
 10
0.0
 20
0.0
 30
0.0
 11
0.0
 21
5900.0
 31
0.0
  0
LINE
  5
8046
  8
4
 10
0.0
 20
5900.0
 30
0.0
 11
4200.0
 21
5900.0
 31
0.0
  0
LINE
  5
8047
  8
4
 10
4200.0
 20
5900.0
 30
0.0
 11
4200.0
 21
0.0
 31
0.0
  0
LINE
  5
8048
  8
4
 10
4200.0
 20
0.0
 30
0.0
 11
0.0
 21
0.0
 31
0.0
  0
LINE
  5
8172
  8
2
 10
3224.8668647276322
 20
2652.0629035095312
 30
0.0
 11
3224.8668647276322
 21
1520.744436644
 31
0.0
  0
DIMENSION
  5
8208
  8
3
  2
*D23
 10
2118.5781358070099
 20
2758.1144047278121
 30
0.0
 11
1662.1115566968981
 21
2758.1144047278121
 31
0.0
 70
   128
 13
1098.5781358070101
 23
2265.6729791784092
 33
0.0
 14
2118.5781358070099
 24
1795.6729791784089
 34
0.0
1001
ACAD
1000
DSTYLE
1002
{
1070
   287
1070
     3
1070
    40
1040
20.0
1070
   143
1040
0.039
1070
   172
1070
     1
1070
   271
1070
     0
1070
   279
1070
     0
1070
   288
1070
     1
1002
}
  0
LINE
  5
8256
  8
1
 10
1101.5781358070101
 20
1819.6729791784089
 30
0.0
 11
1101.5781358070101
 21
1804.232257080758
 31
0.0
  0
LINE
  5
8257
  8
1
 10
2464.8668647276299
 20
1815.6729791784089
 30
0.0
 11
2586.8668647276299
 21
1815.6729791784089
 31
0.0
  0
LINE
  5
8258
  8
1
 10
2586.8668647276299
 20
1865.832119799057
 30
0.0
 11
2586.8668647276299
 21
1815.6729791784089
 31
0.0
  0
LINE
  5
825D
  8
1
 10
1383.5781358070101
 20
3871.85804484654
 30
0.0
 11
1213.578135807011
 21
3871.8580448465409
 31
0.0
  0
LINE
  5
8272
  8
1
 10
3402.8668647276309
 20
2050.6729791784092
 30
0.0
 11
3401.2668647276319
 21
2050.6729791784092
 31
0.0
  0
LINE
  5
8273
  8
1
 10
3374.8668647276322
 20
2050.6729791784092
 30
0.0
 11
3402.8668647276309
 21
2050.6729791784092
 31
0.0
  0
POLYLINE
  5
8274
  8
1
 66
     1
 10
0.0
 20
0.0
 30
0.0
 70
     1
  0
VERTEX
  5
8402
  8
1
 10
3377.8668647276309
 20
2050.6729791784092
 30
0.0
  0
VERTEX
  5
8403
  8
1
 10
3402.8668647276309
 20
2050.6729791784092
 30
0.0
  0
VERTEX
  5
8404
  8
1
 10
3402.8668647276309
 20
2049.6729791784092
 30
0.0
 42
-0.4142135623730951
  0
VERTEX
  5
8405
  8
1
 10
3400.8668647276309
 20
2047.6729791784089
 30
0.0
  0
VERTEX
  5
8406
  8
1
 10
3384.8668647276309
 20
2047.6729791784089
 30
0.0
 42
0.4142135623730951
  0
VERTEX
  5
8407
  8
1
 10
3380.8668647276299
 20
2043.6729791784089
 30
0.0
  0
VERTEX
  5
8408
  8
1
 10
3380.8668647276299
 20
2027.6729791784089
 30
0.0
 42
-0.4142135623730951
  0
VERTEX
  5
8409
  8
1
 10
3378.8668647276309
 20
2025.6729791784089
 30
0.0
  0
VERTEX
  5
840A
  8
1
 10
3377.8668647276309
 20
2025.6729791784089
 30
0.0
  0
SEQEND
  5
840B
  8
1
  0
LINE
  5
827F
  8
1
 10
3377.8668647276309
 20
2450.6729791784092
 30
0.0
 11
3377.8668647276309
 21
2050.015148031534
 31
0.0
  0
DIMENSION
  5
82C0
  8
3
  2
*D24
 10
769.05420328319633
 20
1625.6729791784089
 30
0.0
 11
673.33991756891066
 21
1673.1729791784089
 31
0.0
 12
93.173515414462599
 22
0.0
 32
0.0
 70
     0
  1
(<>)
 13
1188.5781358070101
 23
1720.6729791784089
 33
0.0
 14
1188.5781358070101
 24
1625.6729791784089
 34
0.0
 50
90.0
1001
ACAD
1000
DSTYLE
1002
{
1070
   288
1070
     1
1070
   172
1070
     1
1070
    75
1070
     1
1070
    40
1040
20.0
1070
   271
1070
     0
1070
     7
1000
_DOT
1070
   143
1040
0.039
1002
}
  0
ENDSEC
  0
EOF
