  0
SECTION
  2
HEADER
  9
$ACADVER
  1
AC1009
  9
$INSBASE
 10
0.0
 20
0.0
 30
0.0
  9
$EXTMIN
 10
0.0
 20
0.0
 30
0.0
  9
$EXTMAX
 10
4200.0
 20
5900.0
 30
0.0
  9
$LIMMIN
 10
0.0
 20
0.0
  9
$LIMMAX
 10
297.0
 20
210.0
  9
$ORTHOMODE
 70
     0
  9
$REGENMODE
 70
     1
  9
$FILLMODE
 70
     0
  9
$QTEXTMODE
 70
     0
  9
$MIRRTEXT
 70
     1
  9
$DRAGMODE
 70
     2
  9
$LTSCALE
 40
100.0
  9
$OSMODE
 70
    37
  9
$ATTMODE
 70
     1
  9
$TEXTSIZE
 40
180.0
  9
$TRACEWID
 40
0.05
  9
$TEXTSTYLE
  7
STANDARD
  9
$CLAYER
  8
3
  9
$CELTYPE
  6
BYLAYER
  9
$CECOLOR
 62
   256
  9
$DIMSCALE
 40
20.0
  9
$DIMASZ
 40
2.0
  9
$DIMEXO
 40
0.5
  9
$DIMDLI
 40
10.0
  9
$DIMRND
 40
0.0
  9
$DIMDLE
 40
0.0
  9
$DIMEXE
 40
1.0
  9
$DIMTP
 40
1.0
  9
$DIMTM
 40
1.0
  9
$DIMTXT
 40
3.0
  9
$DIMCEN
 40
0.0
  9
$DIMTSZ
 40
0.0
  9
$DIMTOL
 70
     0
  9
$DIMLIM
 70
     0
  9
$DIMTIH
 70
     0
  9
$DIMTOH
 70
     0
  9
$DIMSE1
 70
     0
  9
$DIMSE2
 70
     0
  9
$DIMTAD
 70
     1
  9
$DIMZIN
 70
     8
  9
$DIMBLK
  1

  9
$DIMASO
 70
     1
  9
$DIMSHO
 70
     1
  9
$DIMPOST
  1

  9
$DIMAPOST
  1

  9
$DIMALT
 70
     0
  9
$DIMALTD
 70
     2
  9
$DIMALTF
 40
0.039
  9
$DIMLFAC
 40
1.0
  9
$DIMTOFL
 70
     1
  9
$DIMTVP
 40
0.0
  9
$DIMTIX
 70
     0
  9
$DIMSOXD
 70
     0
  9
$DIMSAH
 70
     1
  9
$DIMBLK1
  1
OPEN
  9
$DIMBLK2
  1
OPEN
  9
$DIMSTYLE
  2
IGA
  9
$DIMCLRD
 70
     0
  9
$DIMCLRE
 70
     0
  9
$DIMCLRT
 70
     0
  9
$DIMTFAC
 40
10.0
  9
$DIMGAP
 40
1.0
  9
$LUNITS
 70
     2
  9
$LUPREC
 70
     3
  9
$SKETCHINC
 40
0.1
  9
$FILLETRAD
 40
50.0
  9
$AUNITS
 70
     0
  9
$AUPREC
 70
     0
  9
$MENU
  1
acad
  9
$ELEVATION
 40
0.0
  9
$PELEVATION
 40
0.0
  9
$THICKNESS
 40
0.0
  9
$LIMCHECK
 70
     0
  9
$BLIPMODE
 70
     0
  9
$CHAMFERA
 40
0.5
  9
$CHAMFERB
 40
0.5
  9
$SKPOLY
 70
     0
  9
$TDCREATE
 40
2451019.6100931708
  9
$TDUPDATE
 40
2454953.7538941321
  9
$TDINDWG
 40
0.0250363889
  9
$TDUSRTIMER
 40
0.0250363889
  9
$USRTIMER
 70
     1
  9
$ANGBASE
 50
0.0
  9
$ANGDIR
 70
     0
  9
$PDMODE
 70
     0
  9
$PDSIZE
 40
0.0
  9
$PLINEWID
 40
0.0
  9
$COORDS
 70
     1
  9
$SPLFRAME
 70
     0
  9
$SPLINETYPE
 70
     6
  9
$SPLINESEGS
 70
     8
  9
$ATTDIA
 70
     0
  9
$ATTREQ
 70
     1
  9
$HANDLING
 70
 10241
  9
$HANDSEED
  5
520
  9
$SURFTAB1
 70
     6
  9
$SURFTAB2
 70
     6
  9
$SURFTYPE
 70
     6
  9
$SURFU
 70
     6
  9
$SURFV
 70
     6
  9
$UCSNAME
  2

  9
$UCSORG
 10
0.0
 20
0.0
 30
0.0
  9
$UCSXDIR
 10
1.0
 20
0.0
 30
0.0
  9
$UCSYDIR
 10
0.0
 20
1.0
 30
0.0
  9
$PUCSNAME
  2

  9
$PUCSORG
 10
0.0
 20
0.0
 30
0.0
  9
$PUCSXDIR
 10
1.0
 20
0.0
 30
0.0
  9
$PUCSYDIR
 10
0.0
 20
1.0
 30
0.0
  9
$USERI1
 70
     0
  9
$USERI2
 70
     0
  9
$USERI3
 70
     0
  9
$USERI4
 70
     0
  9
$USERI5
 70
     0
  9
$USERR1
 40
0.0
  9
$USERR2
 40
0.0
  9
$USERR3
 40
0.0
  9
$USERR4
 40
0.0
  9
$USERR5
 40
0.0
  9
$WORLDVIEW
 70
     1
  9
$SHADEDGE
 70
     3
  9
$SHADEDIF
 70
    70
  9
$TILEMODE
 70
     1
  9
$MAXACTVP
 70
    16
  9
$PLIMCHECK
 70
     0
  9
$PEXTMIN
 10
1.0000000000000000E+020
 20
1.0000000000000000E+020
 30
1.0000000000000000E+020
  9
$PEXTMAX
 10
-1.0000000000000000E+020
 20
-1.0000000000000000E+020
 30
-1.0000000000000000E+020
  9
$PLIMMIN
 10
0.0
 20
0.0
  9
$PLIMMAX
 10
12.0
 20
9.0
  9
$UNITMODE
 70
     0
  9
$VISRETAIN
 70
     0
  9
$PLINEGEN
 70
     0
  9
$PSLTSCALE
 70
     1
  0
ENDSEC
  0
SECTION
  2
TABLES
  0
TABLE
  2
VPORT
 70
     2
  0
VPORT
  2
*ACTIVE
 70
     0
 10
0.0
 20
0.0
 11
1.0
 21
1.0
 12
7073.2199177027342
 22
2950.0000137370062
 13
0.0
 23
0.0
 14
10.0
 24
10.0
 15
10.0
 25
10.0
 16
0.0
 26
0.0
 36
1.0
 17
0.0
 27
0.0
 37
0.0
 40
5945.22976603387
 41
3.1666666666666661
 42
50.0
 43
0.0
 44
0.0
 50
0.0
 51
0.0
 71
     0
 72
   100
 73
     1
 74
     0
 75
     0
 76
     0
 77
     0
 78
     0
  0
ENDTAB
  0
TABLE
  2
LTYPE
 70
     2
  0
LTYPE
  2
CONTINUOUS
 70
     0
  3
Solid line
 72
    65
 73
     0
 40
0.0
  0
LTYPE
  2
CENTER
 70
     0
  3
____ _ ____ _ ____ _ ____ _ ____ _ ____ _ ____ 
 72
    65
 73
     4
 40
2.0
 49
1.25
 49
-0.25
 49
0.25
 49
-0.25
  0
ENDTAB
  0
TABLE
  2
LAYER
 70
     6
  0
LAYER
  2
0
 70
     0
 62
     7
  6
CONTINUOUS
  0
LAYER
  2
3
 70
     0
 62
     2
  6
CONTINUOUS
  0
LAYER
  2
2
 70
     0
 62
     3
  6
CENTER
  0
LAYER
  2
1
 70
     0
 62
     4
  6
CONTINUOUS
  0
LAYER
  2
4
 70
     0
 62
     7
  6
CONTINUOUS
  0
LAYER
  2
DEFPOINTS
 70
     0
 62
     7
  6
CONTINUOUS
  0
ENDTAB
  0
TABLE
  2
STYLE
 70
     1
  0
STYLE
  2
STANDARD
 70
     0
 40
0.0
 41
1.0
 50
0.0
 71
     0
 42
180.0
  3
simplex.shx
  4
extfont.shx
  0
ENDTAB
  0
TABLE
  2
VIEW
 70
     0
  0
ENDTAB
  0
TABLE
  2
UCS
 70
     0
  0
ENDTAB
  0
TABLE
  2
APPID
 70
     1
  0
APPID
  2
ACAD
 70
     0
  0
ENDTAB
  0
TABLE
  2
DIMSTYLE
 70
     1
  0
DIMSTYLE
  2
IGA
 70
     0
  3

  4

  5

  6
OPEN
  7
OPEN
 40
2.0
 41
2.0
 42
0.5
 43
10.0
 44
1.0
 45
0.0
 46
0.0
 47
1.0
 48
1.0
140
3.0
141
0.0
142
0.0
143
0.03937
144
1.0
145
0.0
146
10.0
147
1.0
 71
     0
 72
     0
 73
     0
 74
     0
 75
     0
 76
     0
 77
     1
 78
     8
170
     0
171
     2
172
     0
173
     1
174
     0
175
     0
176
     0
177
     0
178
     0
  0
ENDTAB
  0
ENDSEC
  0
SECTION
  2
BLOCKS
  0
BLOCK
  8
0
  2
$MODEL_SPACE
 70
     0
 10
0.0
 20
0.0
 30
0.0
  3
$MODEL_SPACE
  1

  0
ENDBLK
  5
7
  8
0
  0
BLOCK
 67
     1
  8
0
  2
$PAPER_SPACE
 70
     0
 10
0.0
 20
0.0
 30
0.0
  3
$PAPER_SPACE
  1

  0
ENDBLK
  5
A
 67
     1
  8
0
  0
BLOCK
  8
0
  2
*D0
 70
     1
 10
0.0
 20
0.0
 30
0.0
  3
*D0
  1

  0
LINE
  5
30
  8
0
  6
BYBLOCK
 62
     0
 10
527.07576345990128
 20
1566.0744641198719
 30
0.0
 11
527.07576345990128
 21
1397.9224717563779
 31
0.0
  0
LINE
  5
31
  8
0
  6
BYBLOCK
 62
     0
 10
1242.0757634599011
 20
1528.129296440849
 30
0.0
 11
1242.0757634599011
 21
1397.9224717563779
 31
0.0
  0
LINE
  5
32
  8
0
  6
BYBLOCK
 62
     0
 10
567.07576345990117
 20
1417.9224717563779
 30
0.0
 11
1202.0757634599011
 21
1417.9224717563779
 31
0.0
  0
INSERT
  5
33
  8
0
  6
BYBLOCK
 62
     0
  2
_OPEN
 10
527.07576345990128
 20
1417.9224717563779
 30
0.0
 41
40.0
 42
40.0
 43
40.0
 50
180.0
  0
INSERT
  5
3A
  8
0
  6
BYBLOCK
 62
     0
  2
_OPEN
 10
1242.0757634599011
 20
1417.9224717563779
 30
0.0
 41
40.0
 42
40.0
 43
40.0
  0
TEXT
  5
3B
  8
3
 62
     0
 10
813.14719203132995
 20
1437.9224717563791
 30
0.0
 40
60.0
  1
715
  0
POINT
  5
3C
  8
DEFPOINTS
  6
BYBLOCK
 62
     0
 10
527.07576345990128
 20
1576.0744641198719
 30
0.0
  0
POINT
  5
3E
  8
DEFPOINTS
  6
BYBLOCK
 62
     0
 10
1242.0757634599011
 20
1538.1292964408501
 30
0.0
  0
POINT
  5
3F
  8
DEFPOINTS
  6
BYBLOCK
 62
     0
 10
1242.0757634599011
 20
1417.9224717563779
 30
0.0
  0
ENDBLK
  5
41
  8
0
  0
BLOCK
  8
0
  2
*D1
 70
     1
 10
0.0
 20
0.0
 30
0.0
  3
*D1
  1

  0
LINE
  5
DD
  8
0
  6
BYBLOCK
 62
     0
 10
818.07576345990128
 20
2427.0744641198721
 30
0.0
 11
818.07576345990128
 21
2597.9797560426791
 31
0.0
  0
LINE
  5
DE
  8
0
  6
BYBLOCK
 62
     0
 10
1242.0757634599011
 20
2461.2334556268929
 30
0.0
 11
1242.0757634599011
 21
2597.9797560426791
 31
0.0
  0
LINE
  5
DF
  8
0
  6
BYBLOCK
 62
     0
 10
858.07576345990128
 20
2577.9797560426791
 30
0.0
 11
1202.0757634599011
 21
2577.9797560426791
 31
0.0
  0
INSERT
  5
E0
  8
0
  6
BYBLOCK
 62
     0
  2
_OPEN
 10
818.07576345990128
 20
2577.9797560426791
 30
0.0
 41
40.0
 42
40.0
 43
40.0
 50
180.0
  0
INSERT
  5
E1
  8
0
  6
BYBLOCK
 62
     0
  2
_OPEN
 10
1242.0757634599011
 20
2577.9797560426791
 30
0.0
 41
40.0
 42
40.0
 43
40.0
  0
TEXT
  5
E2
  8
3
 62
     0
 10
951.50433488847273
 20
2597.9797560426791
 30
0.0
 40
60.0
  1
424
  0
POINT
  5
E3
  8
DEFPOINTS
  6
BYBLOCK
 62
     0
 10
818.07576345990128
 20
2417.0744641198721
 30
0.0
  0
POINT
  5
E4
  8
DEFPOINTS
  6
BYBLOCK
 62
     0
 10
1242.0757634599011
 20
2451.2334556268938
 30
0.0
  0
POINT
  5
E5
  8
DEFPOINTS
  6
BYBLOCK
 62
     0
 10
1242.0757634599011
 20
2577.9797560426791
 30
0.0
  0
ENDBLK
  5
E7
  8
0
  0
BLOCK
  8
0
  2
*D2
 70
     1
 10
0.0
 20
0.0
 30
0.0
  3
*D2
  1

  0
LINE
  5
D0
  8
0
  6
BYBLOCK
 62
     0
 10
818.07576345990128
 20
2427.0744641198721
 30
0.0
 11
818.07576345990128
 21
2508.7983719818822
 31
0.0
  0
LINE
  5
D1
  8
0
  6
BYBLOCK
 62
     0
 10
1230.0757634599011
 20
2427.0744641198721
 30
0.0
 11
1230.0757634599011
 21
2508.7983719818822
 31
0.0
  0
LINE
  5
D2
  8
0
  6
BYBLOCK
 62
     0
 10
858.07576345990128
 20
2488.7983719818822
 30
0.0
 11
1190.0757634599011
 21
2488.7983719818822
 31
0.0
  0
INSERT
  5
D3
  8
0
  6
BYBLOCK
 62
     0
  2
_OPEN
 10
818.07576345990128
 20
2488.7983719818822
 30
0.0
 41
40.0
 42
40.0
 43
40.0
 50
180.0
  0
INSERT
  5
D4
  8
0
  6
BYBLOCK
 62
     0
  2
_OPEN
 10
1230.0757634599011
 20
2488.7983719818822
 30
0.0
 41
40.0
 42
40.0
 43
40.0
  0
TEXT
  5
D5
  8
3
 62
     0
 10
952.64719203132984
 20
2508.7983719818822
 30
0.0
 40
60.0
  1
412
  0
POINT
  5
D6
  8
DEFPOINTS
  6
BYBLOCK
 62
     0
 10
818.07576345990128
 20
2417.0744641198721
 30
0.0
  0
POINT
  5
D7
  8
DEFPOINTS
  6
BYBLOCK
 62
     0
 10
1230.0757634599011
 20
2417.0744641198721
 30
0.0
  0
POINT
  5
D8
  8
DEFPOINTS
  6
BYBLOCK
 62
     0
 10
1230.0757634599011
 20
2488.7983719818822
 30
0.0
  0
ENDBLK
  5
DA
  8
0
  0
BLOCK
  8
0
  2
*D3
 70
     1
 10
0.0
 20
0.0
 30
0.0
  3
*D3
  1

  0
LINE
  5
116
  8
0
  6
BYBLOCK
 62
     0
 10
1569.453533099178
 20
2112.0744641198721
 30
0.0
 11
1703.973198485136
 21
2112.0744641198721
 31
0.0
  0
LINE
  5
117
  8
0
  6
BYBLOCK
 62
     0
 10
1467.0757634599011
 20
1687.074464119873
 30
0.0
 11
1703.973198485136
 21
1687.074464119873
 31
0.0
  0
LINE
  5
118
  8
0
  6
BYBLOCK
 62
     0
 10
1683.973198485136
 20
2072.0744641198721
 30
0.0
 11
1683.973198485136
 21
1727.074464119873
 31
0.0
  0
INSERT
  5
119
  8
0
  6
BYBLOCK
 62
     0
  2
_OPEN
 10
1683.973198485136
 20
2112.0744641198721
 30
0.0
 41
40.0
 42
40.0
 43
40.0
 50
90.0
  0
INSERT
  5
11A
  8
0
  6
BYBLOCK
 62
     0
  2
_OPEN
 10
1683.973198485136
 20
1687.074464119873
 30
0.0
 41
40.0
 42
40.0
 43
40.0
 50
270.0
  0
TEXT
  5
11B
  8
3
 62
     0
 10
1663.9731984851369
 20
1822.431606977015
 30
0.0
 40
60.0
  1
425
 50
90.0
  0
POINT
  5
11C
  8
DEFPOINTS
  6
BYBLOCK
 62
     0
 10
1559.453533099178
 20
2112.0744641198721
 30
0.0
  0
POINT
  5
11D
  8
DEFPOINTS
  6
BYBLOCK
 62
     0
 10
1457.0757634599011
 20
1687.074464119873
 30
0.0
  0
POINT
  5
11E
  8
DEFPOINTS
  6
BYBLOCK
 62
     0
 10
1683.973198485136
 20
1687.074464119873
 30
0.0
  0
ENDBLK
  5
120
  8
0
  0
BLOCK
  8
0
  2
*D4
 70
     1
 10
0.0
 20
0.0
 30
0.0
  3
*D4
  1

  0
LINE
  5
13B
  8
0
  6
BYBLOCK
 62
     0
 10
1467.0757634599011
 20
1651.0744641198719
 30
0.0
 11
1703.973198485136
 21
1651.0744641198719
 31
0.0
  0
LINE
  5
13C
  8
0
  6
BYBLOCK
 62
     0
 10
1467.0757634599011
 20
1576.0744641198719
 30
0.0
 11
1703.973198485136
 21
1576.0744641198719
 31
0.0
  0
LINE
  5
13D
  8
0
  6
BYBLOCK
 62
     0
 10
1683.973198485136
 20
1691.0744641198719
 30
0.0
 11
1683.973198485136
 21
1731.0744641198719
 31
0.0
  0
LINE
  5
13E
  8
0
  6
BYBLOCK
 62
     0
 10
1683.973198485136
 20
1536.0744641198719
 30
0.0
 11
1683.973198485136
 21
1358.931606977015
 31
0.0
  0
LINE
  5
13F
  8
0
  6
BYBLOCK
 62
     0
 10
1683.973198485136
 20
1651.0744641198719
 30
0.0
 11
1683.973198485136
 21
1576.0744641198719
 31
0.0
  0
INSERT
  5
140
  8
0
  6
BYBLOCK
 62
     0
  2
_DOT
 10
1683.973198485136
 20
1651.0744641198719
 30
0.0
 41
40.0
 42
40.0
 43
40.0
 50
270.0
  0
INSERT
  5
141
  8
0
  6
BYBLOCK
 62
     0
  2
_OPEN
 10
1683.973198485136
 20
1576.0744641198719
 30
0.0
 41
40.0
 42
40.0
 43
40.0
 50
90.0
  0
TEXT
  5
142
  8
3
 62
     0
 10
1663.9731984851369
 20
1378.931606977015
 30
0.0
 40
60.0
  1
75
 50
90.0
  0
POINT
  5
143
  8
DEFPOINTS
  6
BYBLOCK
 62
     0
 10
1457.0757634599011
 20
1651.0744641198719
 30
0.0
  0
POINT
  5
144
  8
DEFPOINTS
  6
BYBLOCK
 62
     0
 10
1457.0757634599011
 20
1576.0744641198719
 30
0.0
  0
POINT
  5
145
  8
DEFPOINTS
  6
BYBLOCK
 62
     0
 10
1683.973198485136
 20
1576.0744641198719
 30
0.0
  0
ENDBLK
  5
147
  8
0
  0
BLOCK
  8
0
  2
*D5
 70
     1
 10
0.0
 20
0.0
 30
0.0
  3
*D5
  1

  0
LINE
  5
85
  8
0
  6
BYBLOCK
 62
     0
 10
1242.0757634599011
 20
1528.129296440849
 30
0.0
 11
1242.0757634599011
 21
1397.9224717563779
 31
0.0
  0
LINE
  5
86
  8
0
  6
BYBLOCK
 62
     0
 10
1457.0757634599011
 20
1566.0744641198719
 30
0.0
 11
1457.0757634599011
 21
1397.9224717563779
 31
0.0
  0
LINE
  5
87
  8
0
  6
BYBLOCK
 62
     0
 10
1282.0757634599011
 20
1417.9224717563779
 30
0.0
 11
1417.0757634599011
 21
1417.9224717563779
 31
0.0
  0
TEXT
  5
88
  8
3
 62
     0
 10
1278.14719203133
 20
1438.0023791203221
 30
0.0
 40
60.0
  1
215
  0
INSERT
  5
89
  8
0
  6
BYBLOCK
 62
     0
  2
_OPEN
 10
1242.0757634599011
 20
1417.9224717563779
 30
0.0
 41
40.0
 42
40.0
 43
40.0
 50
180.0
  0
INSERT
  5
8A
  8
0
  6
BYBLOCK
 62
     0
  2
_OPEN
 10
1457.0757634599011
 20
1417.9224717563779
 30
0.0
 41
40.0
 42
40.0
 43
40.0
  0
POINT
  5
8B
  8
DEFPOINTS
  6
BYBLOCK
 62
     0
 10
1242.0757634599011
 20
1538.1292964408501
 30
0.0
  0
POINT
  5
8C
  8
DEFPOINTS
  6
BYBLOCK
 62
     0
 10
1457.0757634599011
 20
1576.0744641198719
 30
0.0
  0
POINT
  5
8D
  8
DEFPOINTS
  6
BYBLOCK
 62
     0
 10
1457.0757634599011
 20
1417.9224717563779
 30
0.0
  0
ENDBLK
  5
8F
  8
0
  0
BLOCK
  8
0
  2
*D6
 70
     1
 10
0.0
 20
0.0
 30
0.0
  3
*D6
  1

  0
LINE
  5
AC
  8
0
  6
BYBLOCK
 62
     0
 10
1242.0757634599011
 20
2461.2334556268929
 30
0.0
 11
1242.0757634599011
 21
2597.9797560426791
 31
0.0
  0
LINE
  5
AD
  8
0
  6
BYBLOCK
 62
     0
 10
1524.0834804219171
 20
2092.0744641198721
 30
0.0
 11
1524.0834804219171
 21
2597.9797560426791
 31
0.0
  0
LINE
  5
AE
  8
0
  6
BYBLOCK
 62
     0
 10
1282.0757634599011
 20
2577.9797560426791
 30
0.0
 11
1484.0834804219171
 21
2577.9797560426791
 31
0.0
  0
INSERT
  5
AF
  8
0
  6
BYBLOCK
 62
     0
  2
_OPEN
 10
1242.0757634599011
 20
2577.9797560426791
 30
0.0
 41
40.0
 42
40.0
 43
40.0
 50
180.0
  0
INSERT
  5
B0
  8
0
  6
BYBLOCK
 62
     0
  2
_OPEN
 10
1524.0834804219171
 20
2577.9797560426791
 30
0.0
 41
40.0
 42
40.0
 43
40.0
  0
TEXT
  5
B1
  8
3
 62
     0
 10
1305.9367647980521
 20
2597.9797560426791
 30
0.0
 40
60.0
  1
282
  0
POINT
  5
B2
  8
DEFPOINTS
  6
BYBLOCK
 62
     0
 10
1242.0757634599011
 20
2451.2334556268938
 30
0.0
  0
POINT
  5
B3
  8
DEFPOINTS
  6
BYBLOCK
 62
     0
 10
1524.0834804219171
 20
2082.0744641198721
 30
0.0
  0
POINT
  5
B4
  8
DEFPOINTS
  6
BYBLOCK
 62
     0
 10
1524.0834804219171
 20
2577.9797560426791
 30
0.0
  0
ENDBLK
  5
B6
  8
0
  0
BLOCK
  8
0
  2
*D7
 70
     1
 10
0.0
 20
0.0
 30
0.0
  3
*D7
  1

  0
LINE
  5
15B
  8
0
  6
BYBLOCK
 62
     0
 10
1027.0757634599011
 20
4153.2595297880043
 30
0.0
 11
1027.0757634599011
 21
4278.0099711966895
 31
0.0
  0
LINE
  5
15C
  8
0
  6
BYBLOCK
 62
     0
 10
527.07576345990128
 20
3713.259529788003
 30
0.0
 11
527.07576345990128
 21
4278.0099711966895
 31
0.0
  0
LINE
  5
15D
  8
0
  6
BYBLOCK
 62
     0
 10
987.07576345990117
 20
4258.0099711966886
 30
0.0
 11
567.07576345990117
 21
4258.0099711966886
 31
0.0
  0
INSERT
  5
15E
  8
0
  6
BYBLOCK
 62
     0
  2
_OPEN
 10
1027.0757634599011
 20
4258.0099711966886
 30
0.0
 41
40.0
 42
40.0
 43
40.0
  0
INSERT
  5
15F
  8
0
  6
BYBLOCK
 62
     0
  2
_OPEN
 10
527.07576345990128
 20
4258.0099711966886
 30
0.0
 41
40.0
 42
40.0
 43
40.0
 50
180.0
  0
TEXT
  5
160
  8
3
 62
     0
 10
699.93290631704406
 20
4278.0099711966895
 30
0.0
 40
60.0
  1
500
  0
POINT
  5
161
  8
DEFPOINTS
  6
BYBLOCK
 62
     0
 10
1027.0757634599011
 20
4143.2595297880043
 30
0.0
  0
POINT
  5
162
  8
DEFPOINTS
  6
BYBLOCK
 62
     0
 10
527.07576345990128
 20
3703.259529788003
 30
0.0
  0
POINT
  5
163
  8
DEFPOINTS
  6
BYBLOCK
 62
     0
 10
527.07576345990128
 20
4258.0099711966886
 30
0.0
  0
ENDBLK
  5
165
  8
0
  0
BLOCK
  8
0
  2
*D8
 70
     1
 10
0.0
 20
0.0
 30
0.0
  3
*D8
  1

  0
LINE
  5
14E
  8
0
  6
BYBLOCK
 62
     0
 10
527.07576345990128
 20
3273.259529788003
 30
0.0
 11
527.07576345990128
 21
3045.0843755637738
 31
0.0
  0
LINE
  5
14F
  8
0
  6
BYBLOCK
 62
     0
 10
1457.0757634599011
 20
3273.259529788003
 30
0.0
 11
1457.0757634599011
 21
3045.0843755637738
 31
0.0
  0
LINE
  5
150
  8
0
  6
BYBLOCK
 62
     0
 10
567.07576345990117
 20
3065.0843755637738
 30
0.0
 11
1417.0757634599011
 21
3065.0843755637738
 31
0.0
  0
INSERT
  5
151
  8
0
  6
BYBLOCK
 62
     0
  2
_OPEN
 10
527.07576345990128
 20
3065.0843755637738
 30
0.0
 41
40.0
 42
40.0
 43
40.0
 50
180.0
  0
INSERT
  5
152
  8
0
  6
BYBLOCK
 62
     0
  2
_OPEN
 10
1457.0757634599011
 20
3065.0843755637738
 30
0.0
 41
40.0
 42
40.0
 43
40.0
  0
TEXT
  5
153
  8
3
 62
     0
 10
914.93290631704406
 20
3085.0843755637738
 30
0.0
 40
60.0
  1
930
  0
POINT
  5
154
  8
DEFPOINTS
  6
BYBLOCK
 62
     0
 10
527.07576345990128
 20
3283.259529788003
 30
0.0
  0
POINT
  5
155
  8
DEFPOINTS
  6
BYBLOCK
 62
     0
 10
1457.0757634599011
 20
3283.259529788003
 30
0.0
  0
POINT
  5
156
  8
DEFPOINTS
  6
BYBLOCK
 62
     0
 10
1457.0757634599011
 20
3065.0843755637738
 30
0.0
  0
ENDBLK
  5
158
  8
0
  0
BLOCK
  8
0
  2
*D9
 70
     1
 10
0.0
 20
0.0
 30
0.0
  3
*D9
  1

  0
LINE
  5
171
  8
0
  6
BYBLOCK
 62
     0
 10
517.07576345990117
 20
3283.259529788003
 30
0.0
 11
431.73182529953368
 21
3283.259529788003
 31
0.0
  0
LINE
  5
172
  8
0
  6
BYBLOCK
 62
     0
 10
517.07576345990117
 20
3703.259529788003
 30
0.0
 11
431.73182529953368
 21
3703.259529788003
 31
0.0
  0
LINE
  5
173
  8
0
  6
BYBLOCK
 62
     0
 10
451.73182529953368
 20
3323.259529788003
 30
0.0
 11
451.73182529953368
 21
3663.259529788003
 31
0.0
  0
INSERT
  5
174
  8
0
  6
BYBLOCK
 62
     0
  2
_OPEN
 10
451.73182529953368
 20
3283.259529788003
 30
0.0
 41
40.0
 42
40.0
 43
40.0
 50
270.0
  0
INSERT
  5
175
  8
0
  6
BYBLOCK
 62
     0
  2
_OPEN
 10
451.73182529953368
 20
3703.259529788003
 30
0.0
 41
40.0
 42
40.0
 43
40.0
 50
90.0
  0
TEXT
  5
176
  8
3
 62
     0
 10
431.73182529953368
 20
3416.1166726451461
 30
0.0
 40
60.0
  1
420
 50
90.0
  0
POINT
  5
177
  8
DEFPOINTS
  6
BYBLOCK
 62
     0
 10
527.07576345990128
 20
3283.259529788003
 30
0.0
  0
POINT
  5
178
  8
DEFPOINTS
  6
BYBLOCK
 62
     0
 10
527.07576345990128
 20
3703.259529788003
 30
0.0
  0
POINT
  5
179
  8
DEFPOINTS
  6
BYBLOCK
 62
     0
 10
451.73182529953368
 20
3703.259529788003
 30
0.0
  0
ENDBLK
  5
17B
  8
0
  0
BLOCK
  8
0
  2
*D10
 70
     1
 10
0.0
 20
0.0
 30
0.0
  3
*D10
  1

  0
LINE
  5
1EC
  8
0
  6
BYBLOCK
 62
     0
 10
1467.0757634599011
 20
3283.259529788003
 30
0.0
 11
1763.2182386019281
 21
3283.259529788003
 31
0.0
  0
LINE
  5
1ED
  8
0
  6
BYBLOCK
 62
     0
 10
1467.0757634599011
 20
4143.2595297880043
 30
0.0
 11
1763.2182386019281
 21
4143.2595297880043
 31
0.0
  0
LINE
  5
1EE
  8
0
  6
BYBLOCK
 62
     0
 10
1743.2182386019281
 20
3323.259529788003
 30
0.0
 11
1743.2182386019281
 21
4103.2595297880043
 31
0.0
  0
INSERT
  5
1EF
  8
0
  6
BYBLOCK
 62
     0
  2
_OPEN
 10
1743.2182386019281
 20
3283.259529788003
 30
0.0
 41
40.0
 42
40.0
 43
40.0
 50
270.0
  0
INSERT
  5
1F0
  8
0
  6
BYBLOCK
 62
     0
  2
_OPEN
 10
1743.2182386019281
 20
4143.2595297880043
 30
0.0
 41
40.0
 42
40.0
 43
40.0
 50
90.0
  0
TEXT
  5
1F1
  8
3
 62
     0
 10
1723.2182386019281
 20
3636.1166726451461
 30
0.0
 40
60.0
  1
860
 50
90.0
  0
POINT
  5
1F2
  8
DEFPOINTS
  6
BYBLOCK
 62
     0
 10
1457.0757634599011
 20
3283.259529788003
 30
0.0
  0
POINT
  5
1F3
  8
DEFPOINTS
  6
BYBLOCK
 62
     0
 10
1457.0757634599011
 20
4143.2595297880043
 30
0.0
  0
POINT
  5
1F4
  8
DEFPOINTS
  6
BYBLOCK
 62
     0
 10
1743.2182386019281
 20
4143.2595297880043
 30
0.0
  0
ENDBLK
  5
1F6
  8
0
  0
BLOCK
  8
0
  2
*D11
 70
     1
 10
0.0
 20
0.0
 30
0.0
  3
*D11
  1

  0
LINE
  5
19D
  8
0
  6
BYBLOCK
 62
     0
 10
1457.0757634599011
 20
4153.2595297880043
 30
0.0
 11
1457.0757634599011
 21
4278.0099711966895
 31
0.0
  0
LINE
  5
19E
  8
0
  6
BYBLOCK
 62
     0
 10
1027.0757634599011
 20
4153.2595297880043
 30
0.0
 11
1027.0757634599011
 21
4278.0099711966895
 31
0.0
  0
LINE
  5
19F
  8
0
  6
BYBLOCK
 62
     0
 10
1417.0757634599011
 20
4258.0099711966886
 30
0.0
 11
1067.0757634599011
 21
4258.0099711966886
 31
0.0
  0
INSERT
  5
1A0
  8
0
  6
BYBLOCK
 62
     0
  2
_OPEN
 10
1457.0757634599011
 20
4258.0099711966886
 30
0.0
 41
40.0
 42
40.0
 43
40.0
  0
INSERT
  5
1A1
  8
0
  6
BYBLOCK
 62
     0
  2
_OPEN
 10
1027.0757634599011
 20
4258.0099711966886
 30
0.0
 41
40.0
 42
40.0
 43
40.0
 50
180.0
  0
TEXT
  5
1A2
  8
3
 62
     0
 10
1164.9329063170439
 20
4278.0099711966895
 30
0.0
 40
60.0
  1
430
  0
POINT
  5
1A3
  8
DEFPOINTS
  6
BYBLOCK
 62
     0
 10
1457.0757634599011
 20
4143.2595297880043
 30
0.0
  0
POINT
  5
1A4
  8
DEFPOINTS
  6
BYBLOCK
 62
     0
 10
1027.0757634599011
 20
4143.2595297880043
 30
0.0
  0
POINT
  5
1A5
  8
DEFPOINTS
  6
BYBLOCK
 62
     0
 10
1027.0757634599011
 20
4258.0099711966886
 30
0.0
  0
ENDBLK
  5
1A7
  8
0
  0
BLOCK
  8
0
  2
*D12
 70
     1
 10
0.0
 20
0.0
 30
0.0
  3
*D12
  1

  0
LINE
  5
21E
  8
0
  6
BYBLOCK
 62
     0
 10
2458.8796986894081
 20
1566.0744641198719
 30
0.0
 11
2458.8796986894081
 21
1398.2759560304889
 31
0.0
  0
LINE
  5
21F
  8
0
  6
BYBLOCK
 62
     0
 10
3123.8796986894099
 20
1528.129296440849
 30
0.0
 11
3123.8796986894099
 21
1398.2759560304889
 31
0.0
  0
LINE
  5
220
  8
0
  6
BYBLOCK
 62
     0
 10
2498.879698689409
 20
1418.275956030488
 30
0.0
 11
3083.8796986894099
 21
1418.275956030488
 31
0.0
  0
INSERT
  5
221
  8
0
  6
BYBLOCK
 62
     0
  2
_OPEN
 10
2458.8796986894081
 20
1418.275956030488
 30
0.0
 41
40.0
 42
40.0
 43
40.0
 50
180.0
  0
INSERT
  5
222
  8
0
  6
BYBLOCK
 62
     0
  2
_OPEN
 10
3123.8796986894099
 20
1418.275956030488
 30
0.0
 41
40.0
 42
40.0
 43
40.0
  0
TEXT
  5
223
  8
3
 62
     0
 10
2714.2368415465521
 20
1438.2759560304889
 30
0.0
 40
60.0
  1
665
  0
POINT
  5
224
  8
DEFPOINTS
  6
BYBLOCK
 62
     0
 10
2458.8796986894081
 20
1576.0744641198719
 30
0.0
  0
POINT
  5
225
  8
DEFPOINTS
  6
BYBLOCK
 62
     0
 10
3123.8796986894099
 20
1538.1292964408501
 30
0.0
  0
POINT
  5
226
  8
DEFPOINTS
  6
BYBLOCK
 62
     0
 10
3123.8796986894099
 20
1418.275956030488
 30
0.0
  0
ENDBLK
  5
228
  8
0
  0
BLOCK
  8
0
  2
*D13
 70
     1
 10
0.0
 20
0.0
 30
0.0
  3
*D13
  1

  0
LINE
  5
285
  8
0
  6
BYBLOCK
 62
     0
 10
3123.8796986894099
 20
1528.129296440849
 30
0.0
 11
3123.8796986894099
 21
1398.2759560304889
 31
0.0
  0
LINE
  5
286
  8
0
  6
BYBLOCK
 62
     0
 10
3318.8796986894099
 20
1566.0744641198719
 30
0.0
 11
3318.8796986894099
 21
1398.2759560304889
 31
0.0
  0
LINE
  5
287
  8
0
  6
BYBLOCK
 62
     0
 10
3163.8796986894099
 20
1418.275956030488
 30
0.0
 11
3278.8796986894099
 21
1418.275956030488
 31
0.0
  0
TEXT
  5
288
  8
3
 62
     0
 10
3149.9511272608379
 20
1446.0187337650091
 30
0.0
 40
60.0
  1
195
  0
INSERT
  5
289
  8
0
  6
BYBLOCK
 62
     0
  2
_OPEN
 10
3123.8796986894099
 20
1418.275956030488
 30
0.0
 41
40.0
 42
40.0
 43
40.0
 50
180.0
  0
INSERT
  5
28A
  8
0
  6
BYBLOCK
 62
     0
  2
_OPEN
 10
3318.8796986894099
 20
1418.275956030488
 30
0.0
 41
40.0
 42
40.0
 43
40.0
  0
POINT
  5
28B
  8
DEFPOINTS
  6
BYBLOCK
 62
     0
 10
3123.8796986894099
 20
1538.1292964408501
 30
0.0
  0
POINT
  5
28C
  8
DEFPOINTS
  6
BYBLOCK
 62
     0
 10
3318.8796986894099
 20
1576.0744641198719
 30
0.0
  0
POINT
  5
28D
  8
DEFPOINTS
  6
BYBLOCK
 62
     0
 10
3318.8796986894099
 20
1418.275956030488
 30
0.0
  0
ENDBLK
  5
28F
  8
0
  0
BLOCK
  8
0
  2
*D14
 70
     1
 10
0.0
 20
0.0
 30
0.0
  3
*D14
  1

  0
LINE
  5
1FF
  8
0
  6
BYBLOCK
 62
     0
 10
3311.8796986894099
 20
2312.0744641198721
 30
0.0
 11
3492.9209028191121
 21
2312.0744641198721
 31
0.0
  0
LINE
  5
200
  8
0
  6
BYBLOCK
 62
     0
 10
3311.8796986894099
 20
1912.0744641198719
 30
0.0
 11
3492.9209028191121
 21
1912.0744641198719
 31
0.0
  0
LINE
  5
201
  8
0
  6
BYBLOCK
 62
     0
 10
3472.9209028191131
 20
2272.0744641198721
 30
0.0
 11
3472.9209028191131
 21
1952.0744641198719
 31
0.0
  0
INSERT
  5
202
  8
0
  6
BYBLOCK
 62
     0
  2
_OPEN
 10
3472.9209028191131
 20
2312.0744641198721
 30
0.0
 41
40.0
 42
40.0
 43
40.0
 50
90.0
  0
INSERT
  5
203
  8
0
  6
BYBLOCK
 62
     0
  2
_OPEN
 10
3472.9209028191131
 20
1912.0744641198719
 30
0.0
 41
40.0
 42
40.0
 43
40.0
 50
270.0
  0
TEXT
  5
204
  8
3
 62
     0
 10
3452.9209028191121
 20
2004.931606977015
 30
0.0
 40
60.0
  1
φ400
 50
90.0
  0
POINT
  5
205
  8
DEFPOINTS
  6
BYBLOCK
 62
     0
 10
3301.8796986894099
 20
2312.0744641198721
 30
0.0
  0
POINT
  5
206
  8
DEFPOINTS
  6
BYBLOCK
 62
     0
 10
3301.8796986894099
 20
1912.0744641198719
 30
0.0
  0
POINT
  5
207
  8
DEFPOINTS
  6
BYBLOCK
 62
     0
 10
3472.9209028191131
 20
1912.0744641198719
 30
0.0
  0
ENDBLK
  5
209
  8
0
  0
BLOCK
  8
0
  2
*D15
 70
     1
 10
0.0
 20
0.0
 30
0.0
  3
*D15
  1

  0
LINE
  5
2E5
  8
0
  6
BYBLOCK
 62
     0
 10
3123.8796986894099
 20
2601.3534097697279
 30
0.0
 11
3123.8796986894099
 21
2641.3266003479398
 31
0.0
  0
LINE
  5
2E6
  8
0
  6
BYBLOCK
 62
     0
 10
3276.8796986894099
 20
2347.0744641198721
 30
0.0
 11
3276.8796986894099
 21
2641.3266003479398
 31
0.0
  0
LINE
  5
2E7
  8
0
  6
BYBLOCK
 62
     0
 10
3163.8796986894099
 20
2621.3266003479398
 30
0.0
 11
3236.8796986894099
 21
2621.3266003479398
 31
0.0
  0
TEXT
  5
2E8
  8
3
 62
     0
 10
3128.9511272608388
 20
2671.3266003479398
 30
0.0
 40
60.0
  1
153
  0
INSERT
  5
2E9
  8
0
  6
BYBLOCK
 62
     0
  2
_OPEN
 10
3123.8796986894099
 20
2621.3266003479398
 30
0.0
 41
40.0
 42
40.0
 43
40.0
 50
180.0
  0
INSERT
  5
2EA
  8
0
  6
BYBLOCK
 62
     0
  2
_OPEN
 10
3276.8796986894099
 20
2621.3266003479398
 30
0.0
 41
40.0
 42
40.0
 43
40.0
  0
POINT
  5
2EB
  8
DEFPOINTS
  6
BYBLOCK
 62
     0
 10
3123.8796986894099
 20
2591.3534097697279
 30
0.0
  0
POINT
  5
2EC
  8
DEFPOINTS
  6
BYBLOCK
 62
     0
 10
3276.8796986894099
 20
2337.0744641198721
 30
0.0
  0
POINT
  5
2ED
  8
DEFPOINTS
  6
BYBLOCK
 62
     0
 10
3276.8796986894099
 20
2621.3266003479398
 30
0.0
  0
ENDBLK
  5
2EF
  8
0
  0
BLOCK
  8
0
  2
*D16
 70
     1
 10
0.0
 20
0.0
 30
0.0
  3
*D16
  1

  0
LINE
  5
2B7
  8
0
  6
BYBLOCK
 62
     0
 10
2973.8796986894099
 20
2427.0744641198721
 30
0.0
 11
2973.8796986894099
 21
2508.7488576603582
 31
0.0
  0
LINE
  5
2B8
  8
0
  6
BYBLOCK
 62
     0
 10
3273.8796986894099
 20
2427.0744641198721
 30
0.0
 11
3273.8796986894099
 21
2508.7488576603582
 31
0.0
  0
LINE
  5
2B9
  8
0
  6
BYBLOCK
 62
     0
 10
3013.8796986894099
 20
2488.7488576603582
 30
0.0
 11
3233.8796986894099
 21
2488.7488576603582
 31
0.0
  0
INSERT
  5
2BA
  8
0
  6
BYBLOCK
 62
     0
  2
_OPEN
 10
2973.8796986894099
 20
2488.7488576603582
 30
0.0
 41
40.0
 42
40.0
 43
40.0
 50
180.0
  0
INSERT
  5
2BB
  8
0
  6
BYBLOCK
 62
     0
  2
_OPEN
 10
3273.8796986894099
 20
2488.7488576603582
 30
0.0
 41
40.0
 42
40.0
 43
40.0
  0
TEXT
  5
2BC
  8
3
 62
     0
 10
3046.7368415465521
 20
2508.7488576603582
 30
0.0
 40
60.0
  1
300
  0
POINT
  5
2BD
  8
DEFPOINTS
  6
BYBLOCK
 62
     0
 10
2973.8796986894099
 20
2417.0744641198721
 30
0.0
  0
POINT
  5
2BE
  8
DEFPOINTS
  6
BYBLOCK
 62
     0
 10
3273.8796986894099
 20
2417.0744641198721
 30
0.0
  0
POINT
  5
2BF
  8
DEFPOINTS
  6
BYBLOCK
 62
     0
 10
3273.8796986894099
 20
2488.7488576603582
 30
0.0
  0
ENDBLK
  5
2C1
  8
0
  0
BLOCK
  8
0
  2
_OPEN
 70
     0
 10
0.0
 20
0.0
 30
0.0
  3
_OPEN
  1

  0
LINE
  5
35
  8
0
  6
BYBLOCK
 62
     0
 10
-1.0
 20
0.1666666666666666
 30
0.0
 11
0.0
 21
0.0
 31
0.0
  0
LINE
  5
36
  8
0
  6
BYBLOCK
 62
     0
 10
0.0
 20
0.0
 30
0.0
 11
-1.0
 21
-0.1666666666666666
 31
0.0
  0
LINE
  5
37
  8
0
  6
BYBLOCK
 62
     0
 10
0.0
 20
0.0
 30
0.0
 11
-1.0
 21
0.0
 31
0.0
  0
ENDBLK
  5
39
  8
0
  0
BLOCK
  8
0
  2
_DOT
 70
     0
 10
0.0
 20
0.0
 30
0.0
  3
_DOT
  1

  0
LINE
  5
12D
  8
0
  6
BYBLOCK
 62
     0
 10
0.0
 20
0.0
 30
0.0
 11
-1.0
 21
-0.0000000000000284
 31
0.0
  0
POLYLINE
  5
12E
  8
0
  6
BYBLOCK
 62
     0
 66
     1
 10
0.0
 20
0.0
 30
0.0
 70
     1
 40
0.1666666666666666
 41
0.1666666666666666
  0
VERTEX
  5
470
  8
0
  6
BYBLOCK
 62
     0
 10
-0.0833333333333286
 20
-0.0000000000000284
 30
0.0
 42
1.0
  0
VERTEX
  5
471
  8
0
  6
BYBLOCK
 62
     0
 10
0.0833333333333286
 20
-0.0000000000000284
 30
0.0
 42
1.0
  0
SEQEND
  5
472
  8
0
  6
BYBLOCK
 62
     0
  0
ENDBLK
  5
133
  8
0
  0
BLOCK
  8
0
  2
*D19
 70
     1
 10
0.0
 20
0.0
 30
0.0
  3
*D19
  1

  0
LINE
  5
4C9
  8
3
 62
     0
 10
2363.8796986894081
 20
2272.0744641198721
 30
0.0
 11
2363.8796986894081
 21
2641.3266003479398
 31
0.0
  0
LINE
  5
4CA
  8
3
 62
     0
 10
3123.8796986894099
 20
2601.3534097697279
 30
0.0
 11
3123.8796986894099
 21
2641.3266003479398
 31
0.0
  0
LINE
  5
4CB
  8
3
 62
     0
 10
2403.8796986894081
 20
2621.3266003479398
 30
0.0
 11
3083.8796986894099
 21
2621.3266003479398
 31
0.0
  0
INSERT
  5
4CC
  8
3
 62
     0
  2
_OPEN
 10
2363.8796986894081
 20
2621.3266003479398
 30
0.0
 41
40.0
 42
40.0
 43
40.0
 50
180.0
  0
INSERT
  5
4CD
  8
3
 62
     0
  2
_OPEN
 10
3123.8796986894099
 20
2621.3266003479398
 30
0.0
 41
40.0
 42
40.0
 43
40.0
  0
TEXT
  8
3
  40
60
  5
50F
  62
0
  72
0
  71
0
 10
2623.88
 20
2615.13
 30
0.000000
  1
MAX
  0
TEXT
  8
3
  40
60
  5
510
  62
0
  72
0
  71
0
 10
2623.88
 20
2537.13
 30
0.000000
  1
830
  0
POINT
  5
4CF
  8
DEFPOINTS
 62
     0
 10
2363.8796986894081
 20
2262.0744641198721
 30
0.0
  0
POINT
  5
4D0
  8
DEFPOINTS
 62
     0
 10
3123.8796986894099
 20
2591.3534097697279
 30
0.0
  0
POINT
  5
4D1
  8
DEFPOINTS
 62
     0
 10
3123.8796986894099
 20
2621.3266003479398
 30
0.0
  0
ENDBLK
  5
312
  8
0
  0
BLOCK
  8
0
  2
*D20
 70
     1
 10
0.0
 20
0.0
 30
0.0
  3
*D20
  1

  0
LINE
  5
336
  8
0
  6
BYBLOCK
 62
     0
 10
1524.0834804219171
 20
2092.0744641198721
 30
0.0
 11
1524.0834804219171
 21
2708.0911329417372
 31
0.0
  0
LINE
  5
337
  8
0
  6
BYBLOCK
 62
     0
 10
527.07576345990128
 20
1772.0744641198719
 30
0.0
 11
527.07576345990128
 21
2708.0911329417372
 31
0.0
  0
LINE
  5
338
  8
0
  6
BYBLOCK
 62
     0
 10
1484.0834804219171
 20
2688.0911329417372
 30
0.0
 11
567.07576345990117
 21
2688.0911329417372
 31
0.0
  0
INSERT
  5
339
  8
0
  6
BYBLOCK
 62
     0
  2
_OPEN
 10
1524.0834804219171
 20
2688.0911329417372
 30
0.0
 41
40.0
 42
40.0
 43
40.0
  0
INSERT
  5
33A
  8
0
  6
BYBLOCK
 62
     0
  2
_DOT
 10
527.07576345990128
 20
2688.0911329417372
 30
0.0
 41
40.0
 42
40.0
 43
40.0
 50
180.0
  0
TEXT
  5
33B
  8
3
 62
     0
 10
948.43676479805231
 20
2708.0911329417372
 30
0.0
 40
60.0
  1
997
  0
POINT
  5
33C
  8
DEFPOINTS
  6
BYBLOCK
 62
     0
 10
1524.0834804219171
 20
2082.0744641198721
 30
0.0
  0
POINT
  5
33D
  8
DEFPOINTS
  6
BYBLOCK
 62
     0
 10
527.07576345990128
 20
1762.074464119873
 30
0.0
  0
POINT
  5
33E
  8
DEFPOINTS
  6
BYBLOCK
 62
     0
 10
527.07576345990128
 20
2688.0911329417372
 30
0.0
  0
ENDBLK
  5
33F
  8
0
  0
BLOCK
  8
0
  2
*D21
 70
     1
 10
0.0
 20
0.0
 30
0.0
  3
*D21
  1

  0
LINE
  5
423
  8
3
 62
     0
 10
1618.4827614368489
 20
1517.074464119873
 30
0.0
 11
2079.0672932786379
 21
1517.074464119873
 31
0.0
  0
LINE
  5
424
  8
3
 62
     0
 10
1416.536064347114
 20
2417.0744641198721
 30
0.0
 11
2079.0672932786379
 21
2417.0744641198721
 31
0.0
  0
LINE
  5
425
  8
3
 62
     0
 10
2059.0672932786379
 20
1557.074464119873
 30
0.0
 11
2059.0672932786379
 21
2377.0744641198721
 31
0.0
  0
INSERT
  5
426
  8
3
 62
     0
  2
_OPEN
 10
2059.0672932786379
 20
1517.074464119873
 30
0.0
 41
40.0
 42
40.0
 43
40.0
 50
270.0
  0
INSERT
  5
427
  8
3
 62
     0
  2
_OPEN
 10
2059.0672932786379
 20
2417.0744641198721
 30
0.0
 41
40.0
 42
40.0
 43
40.0
 50
90.0
  0
TEXT
  8
3
  40
60
  5
511
  62
0
  72
0
  71
0
 10
1889.07
 20
1860.87
 30
0.000000
  1
900
  0
POINT
  5
429
  8
DEFPOINTS
 62
     0
 10
1608.4827614368489
 20
1517.074464119873
 30
0.0
  0
POINT
  5
42A
  8
DEFPOINTS
 62
     0
 10
1406.536064347114
 20
2417.0744641198721
 30
0.0
  0
POINT
  5
42B
  8
DEFPOINTS
 62
     0
 10
2059.0672932786379
 20
2417.0744641198721
 30
0.0
  0
ENDBLK
  5
39D
  8
0
  0
BLOCK
  8
0
  2
L-25-3
 70
     0
 10
0.0
 20
0.0
 30
0.0
  3
L-25-3
  1

  0
LINE
  5
34E
  8
0
 10
81.202663485604475
 20
85.280529856043884
 30
0.0
 11
106.2026634856044
 21
85.280529856043884
 31
0.0
  0
LINE
  5
34F
  8
0
 10
106.2026634856044
 20
85.280529856043884
 30
0.0
 11
106.2026634856044
 21
86.28052985604387
 31
0.0
  0
LINE
  5
350
  8
0
 10
88.202663485604475
 20
88.280529856043856
 30
0.0
 11
104.2026634856044
 21
88.28052985604387
 31
0.0
  0
ARC
  5
351
  8
0
 10
104.2026634856044
 20
86.28052985604387
 30
0.0
 40
2.0
 50
359.9999999999992
 51
89.999999999999588
  0
LINE
  5
352
  8
0
 10
81.202663485604475
 20
85.280529856043884
 30
0.0
 11
81.202663485604475
 21
110.2805298560438
 31
0.0
  0
LINE
  5
353
  8
0
 10
84.202663485604504
 20
92.280529856043856
 30
0.0
 11
84.202663485604504
 21
108.2805298560438
 31
0.0
  0
LINE
  5
354
  8
0
 10
81.202663485604475
 20
110.2805298560438
 30
0.0
 11
82.202663485604475
 21
110.2805298560438
 31
0.0
  0
ARC
  5
355
  8
0
 10
82.202663485604475
 20
108.2805298560438
 30
0.0
 40
2.0
 50
0.0
 51
90.00000000000081
  0
ARC
  5
356
  8
0
 10
88.202663485604475
 20
92.280529856043856
 30
0.0
 40
4.0
 50
180.0
 51
270.0
  0
ENDBLK
  5
358
  8
0
  0
BLOCK
  8
0
  2
*D23
 70
     1
 10
0.0
 20
0.0
 30
0.0
  3
*D23
  1

  0
LINE
  5
37D
  8
0
  6
BYBLOCK
 62
     0
 10
1569.453533099178
 20
2112.0744641198721
 30
0.0
 11
1703.973198485136
 21
2112.0744641198721
 31
0.0
  0
LINE
  5
37E
  8
0
  6
BYBLOCK
 62
     0
 10
1265.0757634599011
 20
2417.0744641198721
 30
0.0
 11
1703.973198485136
 21
2417.0744641198721
 31
0.0
  0
LINE
  5
37F
  8
0
  6
BYBLOCK
 62
     0
 10
1683.973198485136
 20
2152.0744641198721
 30
0.0
 11
1683.973198485136
 21
2377.0744641198721
 31
0.0
  0
INSERT
  5
380
  8
0
  6
BYBLOCK
 62
     0
  2
_OPEN
 10
1683.973198485136
 20
2112.0744641198721
 30
0.0
 41
40.0
 42
40.0
 43
40.0
 50
270.0
  0
INSERT
  5
381
  8
0
  6
BYBLOCK
 62
     0
  2
_OPEN
 10
1683.973198485136
 20
2417.0744641198721
 30
0.0
 41
40.0
 42
40.0
 43
40.0
 50
90.0
  0
TEXT
  5
382
  8
3
 62
     0
 10
1663.9731984851369
 20
2187.4316069770148
 30
0.0
 40
60.0
  1
305
 50
90.0
  0
POINT
  5
383
  8
DEFPOINTS
  6
BYBLOCK
 62
     0
 10
1559.453533099178
 20
2112.0744641198721
 30
0.0
  0
POINT
  5
384
  8
DEFPOINTS
  6
BYBLOCK
 62
     0
 10
1255.0757634599011
 20
2417.0744641198721
 30
0.0
  0
POINT
  5
385
  8
DEFPOINTS
  6
BYBLOCK
 62
     0
 10
1683.973198485136
 20
2417.0744641198721
 30
0.0
  0
ENDBLK
  5
386
  8
0
  0
BLOCK
  8
0
  2
*D24
 70
     1
 10
0.0
 20
0.0
 30
0.0
  3
*D24
  1

  0
LINE
  5
3DF
  8
0
  6
BYBLOCK
 62
     0
 10
1467.0757634599011
 20
1592.0744641198719
 30
0.0
 11
1703.973198485136
 21
1592.0744641198719
 31
0.0
  0
LINE
  5
3E0
  8
0
  6
BYBLOCK
 62
     0
 10
1683.973198485136
 20
1727.074464119873
 30
0.0
 11
1683.973198485136
 21
1767.0744641198719
 31
0.0
  0
LINE
  5
3E1
  8
0
  6
BYBLOCK
 62
     0
 10
1683.973198485136
 20
1552.0744641198719
 30
0.0
 11
1683.973198485136
 21
1512.0744641198719
 31
0.0
  0
TEXT
  5
3E2
  8
3
 62
     0
 10
1799.687484199422
 20
1552.431606977015
 30
0.0
 40
60.0
  1
(95)
 50
90.0
  0
LINE
  5
3E3
  8
0
  6
BYBLOCK
 62
     0
 10
1683.973198485136
 20
1687.074464119873
 30
0.0
 11
1683.973198485136
 21
1592.0744641198719
 31
0.0
  0
INSERT
  5
3E4
  8
0
  6
BYBLOCK
 62
     0
  2
_OPEN
 10
1683.973198485136
 20
1687.074464119873
 30
0.0
 41
40.0
 42
40.0
 43
40.0
 50
270.0
  0
INSERT
  5
3E5
  8
0
  6
BYBLOCK
 62
     0
  2
_DOT
 10
1683.973198485136
 20
1592.0744641198719
 30
0.0
 41
40.0
 42
40.0
 43
40.0
 50
90.0
  0
POINT
  5
3E6
  8
DEFPOINTS
  6
BYBLOCK
 62
     0
 10
1457.0757634599011
 20
1687.074464119873
 30
0.0
  0
POINT
  5
3E7
  8
DEFPOINTS
  6
BYBLOCK
 62
     0
 10
1457.0757634599011
 20
1592.0744641198719
 30
0.0
  0
POINT
  5
3E8
  8
DEFPOINTS
  6
BYBLOCK
 62
     0
 10
1683.973198485136
 20
1592.0744641198719
 30
0.0
  0
ENDBLK
  5
3E9
  8
0
  0
BLOCK
  8
0
  2
*D25
 70
     1
 10
0.0
 20
0.0
 30
0.0
  3
*D25
  1

  0
LINE
  5
418
  8
3
 62
     0
 10
678.48276143684961
 20
1507.074464119873
 30
0.0
 11
678.48276143684961
 21
1338.9224717563791
 31
0.0
  0
LINE
  5
419
  8
3
 62
     0
 10
1393.4827614368501
 20
1469.1292964408501
 30
0.0
 11
1393.4827614368501
 21
1338.9224717563791
 31
0.0
  0
LINE
  5
41A
  8
3
 62
     0
 10
718.4827614368495
 20
1358.9224717563791
 30
0.0
 11
1353.4827614368501
 21
1358.9224717563791
 31
0.0
  0
INSERT
  5
41B
  8
3
 62
     0
  2
_OPEN
 10
678.48276143684961
 20
1358.9224717563791
 30
0.0
 41
40.0
 42
40.0
 43
40.0
 50
180.0
  0
INSERT
  5
41C
  8
3
 62
     0
  2
_OPEN
 10
1393.4827614368501
 20
1358.9224717563791
 30
0.0
 41
40.0
 42
40.0
 43
40.0
  0
TEXT
  8
3
  40
60
  5
512
  62
0
  72
0
  71
0
 10
915.983
 20
1302.72
 30
0.000000
  1
715
  0
POINT
  5
41E
  8
DEFPOINTS
 62
     0
 10
678.48276143684961
 20
1517.074464119873
 30
0.0
  0
POINT
  5
41F
  8
DEFPOINTS
 62
     0
 10
1393.4827614368501
 20
1479.1292964408501
 30
0.0
  0
POINT
  5
420
  8
DEFPOINTS
 62
     0
 10
1393.4827614368501
 20
1358.9224717563791
 30
0.0
  0
ENDBLK
  5
422
  8
0
  0
BLOCK
  8
0
  2
*D26
 70
     1
 10
0.0
 20
0.0
 30
0.0
  3
*D26
  1

  0
LINE
  5
42D
  8
3
 62
     0
 10
1393.4827614368489
 20
2461.2334556268929
 30
0.0
 11
1393.4827614368489
 21
2597.9797560426791
 31
0.0
  0
LINE
  5
42E
  8
3
 62
     0
 10
1675.490478398865
 20
2092.0744641198721
 30
0.0
 11
1675.490478398865
 21
2597.9797560426791
 31
0.0
  0
LINE
  5
42F
  8
3
 62
     0
 10
1433.4827614368489
 20
2577.9797560426791
 30
0.0
 11
1635.490478398865
 21
2577.9797560426791
 31
0.0
  0
INSERT
  5
430
  8
3
 62
     0
  2
_OPEN
 10
1393.4827614368489
 20
2577.9797560426791
 30
0.0
 41
40.0
 42
40.0
 43
40.0
 50
180.0
  0
INSERT
  5
431
  8
3
 62
     0
  2
_OPEN
 10
1675.490478398865
 20
2577.9797560426791
 30
0.0
 41
40.0
 42
40.0
 43
40.0
  0
TEXT
  8
3
  40
60
  5
513
  62
0
  72
0
  71
0
 10
1414.49
 20
2521.78
 30
0.000000
  1
282
  0
POINT
  5
433
  8
DEFPOINTS
 62
     0
 10
1393.4827614368489
 20
2451.2334556268938
 30
0.0
  0
POINT
  5
434
  8
DEFPOINTS
 62
     0
 10
1675.490478398865
 20
2082.0744641198721
 30
0.0
  0
POINT
  5
435
  8
DEFPOINTS
 62
     0
 10
1675.490478398865
 20
2577.9797560426791
 30
0.0
  0
ENDBLK
  5
437
  8
0
  0
BLOCK
  8
0
  2
*D27
 70
     1
 10
0.0
 20
0.0
 30
0.0
  3
*D27
  1

  0
LINE
  5
439
  8
3
 62
     0
 10
969.4827614368495
 20
2427.0744641198721
 30
0.0
 11
969.4827614368495
 21
2508.7983719818822
 31
0.0
  0
LINE
  5
43A
  8
3
 62
     0
 10
1381.4827614368489
 20
2427.0744641198721
 30
0.0
 11
1381.4827614368489
 21
2508.7983719818822
 31
0.0
  0
LINE
  5
43B
  8
3
 62
     0
 10
1009.482761436849
 20
2488.7983719818822
 30
0.0
 11
1341.4827614368489
 21
2488.7983719818822
 31
0.0
  0
INSERT
  5
43C
  8
3
 62
     0
  2
_OPEN
 10
969.4827614368495
 20
2488.7983719818822
 30
0.0
 41
40.0
 42
40.0
 43
40.0
 50
180.0
  0
INSERT
  5
43D
  8
3
 62
     0
  2
_OPEN
 10
1381.4827614368489
 20
2488.7983719818822
 30
0.0
 41
40.0
 42
40.0
 43
40.0
  0
TEXT
  8
3
  40
60
  5
514
  62
0
  72
0
  71
0
 10
1055.48
 20
2432.60
 30
0.000000
  1
412
  0
POINT
  5
43F
  8
DEFPOINTS
 62
     0
 10
969.4827614368495
 20
2417.0744641198721
 30
0.0
  0
POINT
  5
440
  8
DEFPOINTS
 62
     0
 10
1381.4827614368489
 20
2417.0744641198721
 30
0.0
  0
POINT
  5
441
  8
DEFPOINTS
 62
     0
 10
1381.4827614368489
 20
2488.7983719818822
 30
0.0
  0
ENDBLK
  5
443
  8
0
  0
BLOCK
  8
0
  2
*D28
 70
     1
 10
0.0
 20
0.0
 30
0.0
  3
*D28
  1

  0
LINE
  5
445
  8
3
 62
     0
 10
969.4827614368495
 20
2427.0744641198721
 30
0.0
 11
969.4827614368495
 21
2597.9797560426791
 31
0.0
  0
LINE
  5
446
  8
3
 62
     0
 10
1393.4827614368489
 20
2461.2334556268929
 30
0.0
 11
1393.4827614368489
 21
2597.9797560426791
 31
0.0
  0
LINE
  5
447
  8
3
 62
     0
 10
1009.482761436849
 20
2577.9797560426791
 30
0.0
 11
1353.4827614368489
 21
2577.9797560426791
 31
0.0
  0
INSERT
  5
448
  8
3
 62
     0
  2
_OPEN
 10
969.4827614368495
 20
2577.9797560426791
 30
0.0
 41
40.0
 42
40.0
 43
40.0
 50
180.0
  0
INSERT
  5
449
  8
3
 62
     0
  2
_OPEN
 10
1393.4827614368489
 20
2577.9797560426791
 30
0.0
 41
40.0
 42
40.0
 43
40.0
  0
TEXT
  8
3
  40
60
  5
515
  62
0
  72
0
  71
0
 10
1061.48
 20
2521.78
 30
0.000000
  1
424
  0
POINT
  5
44B
  8
DEFPOINTS
 62
     0
 10
969.4827614368495
 20
2417.0744641198721
 30
0.0
  0
POINT
  5
44C
  8
DEFPOINTS
 62
     0
 10
1393.4827614368489
 20
2451.2334556268938
 30
0.0
  0
POINT
  5
44D
  8
DEFPOINTS
 62
     0
 10
1393.4827614368489
 20
2577.9797560426791
 30
0.0
  0
ENDBLK
  5
44F
  8
0
  0
BLOCK
  8
0
  2
*D29
 70
     1
 10
0.0
 20
0.0
 30
0.0
  3
*D29
  1

  0
LINE
  5
465
  8
3
 62
     0
 10
1720.8605310761261
 20
2112.0744641198721
 30
0.0
 11
1855.380196462085
 21
2112.0744641198721
 31
0.0
  0
LINE
  5
466
  8
3
 62
     0
 10
1618.4827614368489
 20
1687.074464119873
 30
0.0
 11
1855.380196462085
 21
1687.074464119873
 31
0.0
  0
LINE
  5
467
  8
3
 62
     0
 10
1835.380196462085
 20
2072.0744641198721
 30
0.0
 11
1835.380196462085
 21
1727.074464119873
 31
0.0
  0
INSERT
  5
468
  8
3
 62
     0
  2
_OPEN
 10
1835.380196462085
 20
2112.0744641198721
 30
0.0
 41
40.0
 42
40.0
 43
40.0
 50
90.0
  0
INSERT
  5
469
  8
3
 62
     0
  2
_OPEN
 10
1835.380196462085
 20
1687.074464119873
 30
0.0
 41
40.0
 42
40.0
 43
40.0
 50
270.0
  0
TEXT
  8
3
  40
60
  5
516
  62
0
  72
0
  71
0
 10
1665.38
 20
1793.37
 30
0.000000
  1
425
  0
POINT
  5
46B
  8
DEFPOINTS
 62
     0
 10
1710.860531076127
 20
2112.0744641198721
 30
0.0
  0
POINT
  5
46C
  8
DEFPOINTS
 62
     0
 10
1608.4827614368489
 20
1687.074464119873
 30
0.0
  0
POINT
  5
46D
  8
DEFPOINTS
 62
     0
 10
1835.380196462085
 20
1687.074464119873
 30
0.0
  0
ENDBLK
  5
46F
  8
0
  0
BLOCK
  8
0
  2
*D30
 70
     1
 10
0.0
 20
0.0
 30
0.0
  3
*D30
  1

  0
LINE
  5
474
  8
3
 62
     0
 10
1618.4827614368489
 20
1592.0744641198719
 30
0.0
 11
1855.380196462085
 21
1592.0744641198719
 31
0.0
  0
LINE
  5
475
  8
3
 62
     0
 10
1618.4827614368489
 20
1517.074464119873
 30
0.0
 11
1855.380196462085
 21
1517.074464119873
 31
0.0
  0
LINE
  5
476
  8
3
 62
     0
 10
1835.380196462085
 20
1632.074464119873
 30
0.0
 11
1835.380196462085
 21
1672.0744641198719
 31
0.0
  0
LINE
  5
477
  8
3
 62
     0
 10
1835.380196462085
 20
1477.074464119873
 30
0.0
 11
1835.380196462085
 21
1299.931606977015
 31
0.0
  0
LINE
  5
478
  8
3
 62
     0
 10
1835.380196462085
 20
1592.0744641198719
 30
0.0
 11
1835.380196462085
 21
1517.074464119873
 31
0.0
  0
INSERT
  5
479
  8
3
 62
     0
  2
_DOT
 10
1835.380196462085
 20
1592.0744641198719
 30
0.0
 41
40.0
 42
40.0
 43
40.0
 50
270.0
  0
INSERT
  5
47A
  8
3
 62
     0
  2
_OPEN
 10
1835.380196462085
 20
1517.074464119873
 30
0.0
 41
40.0
 42
40.0
 43
40.0
 50
90.0
  0
TEXT
  8
3
  40
60
  5
517
  62
0
  72
0
  71
0
 10
1665.38
 20
1262.30
 30
0.000000
  1
75
  0
POINT
  5
47C
  8
DEFPOINTS
 62
     0
 10
1608.4827614368489
 20
1592.0744641198719
 30
0.0
  0
POINT
  5
47D
  8
DEFPOINTS
 62
     0
 10
1608.4827614368489
 20
1517.074464119873
 30
0.0
  0
POINT
  5
47E
  8
DEFPOINTS
 62
     0
 10
1835.380196462085
 20
1517.074464119873
 30
0.0
  0
ENDBLK
  5
480
  8
0
  0
BLOCK
  8
0
  2
*D31
 70
     1
 10
0.0
 20
0.0
 30
0.0
  3
*D31
  1

  0
LINE
  5
482
  8
3
 62
     0
 10
678.48276143684961
 20
3273.259529788003
 30
0.0
 11
678.48276143684961
 21
3045.0843755637738
 31
0.0
  0
LINE
  5
483
  8
3
 62
     0
 10
1608.4827614368489
 20
3273.259529788003
 30
0.0
 11
1608.4827614368489
 21
3045.0843755637738
 31
0.0
  0
LINE
  5
484
  8
3
 62
     0
 10
718.4827614368495
 20
3065.0843755637738
 30
0.0
 11
1568.4827614368489
 21
3065.0843755637738
 31
0.0
  0
INSERT
  5
485
  8
3
 62
     0
  2
_OPEN
 10
678.48276143684961
 20
3065.0843755637738
 30
0.0
 41
40.0
 42
40.0
 43
40.0
 50
180.0
  0
INSERT
  5
486
  8
3
 62
     0
  2
_OPEN
 10
1608.4827614368489
 20
3065.0843755637738
 30
0.0
 41
40.0
 42
40.0
 43
40.0
  0
TEXT
  8
3
  40
60
  5
518
  62
0
  72
0
  71
0
 10
1023.48
 20
3008.88
 30
0.000000
  1
930
  0
POINT
  5
488
  8
DEFPOINTS
 62
     0
 10
678.48276143684961
 20
3283.259529788003
 30
0.0
  0
POINT
  5
489
  8
DEFPOINTS
 62
     0
 10
1608.4827614368489
 20
3283.259529788003
 30
0.0
  0
POINT
  5
48A
  8
DEFPOINTS
 62
     0
 10
1608.4827614368489
 20
3065.0843755637738
 30
0.0
  0
ENDBLK
  5
48C
  8
0
  0
BLOCK
  8
0
  2
*D32
 70
     1
 10
0.0
 20
0.0
 30
0.0
  3
*D32
  1

  0
LINE
  5
48E
  8
3
 62
     0
 10
1178.4827614368489
 20
4153.2595297880043
 30
0.0
 11
1178.4827614368489
 21
4278.0099711966895
 31
0.0
  0
LINE
  5
48F
  8
3
 62
     0
 10
678.48276143684961
 20
3713.259529788003
 30
0.0
 11
678.48276143684961
 21
4278.0099711966895
 31
0.0
  0
LINE
  5
490
  8
3
 62
     0
 10
1138.4827614368489
 20
4258.0099711966886
 30
0.0
 11
718.4827614368495
 21
4258.0099711966886
 31
0.0
  0
INSERT
  5
491
  8
3
 62
     0
  2
_OPEN
 10
1178.4827614368489
 20
4258.0099711966886
 30
0.0
 41
40.0
 42
40.0
 43
40.0
  0
INSERT
  5
492
  8
3
 62
     0
  2
_OPEN
 10
678.48276143684961
 20
4258.0099711966886
 30
0.0
 41
40.0
 42
40.0
 43
40.0
 50
180.0
  0
TEXT
  8
3
  40
60
  5
519
  62
0
  72
0
  71
0
 10
808.483
 20
4201.81
 30
0.000000
  1
500
  0
POINT
  5
494
  8
DEFPOINTS
 62
     0
 10
1178.4827614368489
 20
4143.2595297880043
 30
0.0
  0
POINT
  5
495
  8
DEFPOINTS
 62
     0
 10
678.48276143684961
 20
3703.259529788003
 30
0.0
  0
POINT
  5
496
  8
DEFPOINTS
 62
     0
 10
678.48276143684961
 20
4258.0099711966886
 30
0.0
  0
ENDBLK
  5
498
  8
0
  0
BLOCK
  8
0
  2
*D33
 70
     1
 10
0.0
 20
0.0
 30
0.0
  3
*D33
  1

  0
LINE
  5
49A
  8
3
 62
     0
 10
668.4827614368495
 20
3283.259529788003
 30
0.0
 11
583.13882327648184
 21
3283.259529788003
 31
0.0
  0
LINE
  5
49B
  8
3
 62
     0
 10
668.4827614368495
 20
3703.259529788003
 30
0.0
 11
583.13882327648207
 21
3703.259529788003
 31
0.0
  0
LINE
  5
49C
  8
3
 62
     0
 10
603.13882327648184
 20
3323.259529788003
 30
0.0
 11
603.13882327648196
 21
3663.259529788003
 31
0.0
  0
INSERT
  5
49D
  8
3
 62
     0
  2
_OPEN
 10
603.13882327648184
 20
3283.259529788003
 30
0.0
 41
40.0
 42
40.0
 43
40.0
 50
270.0
  0
INSERT
  5
49E
  8
3
 62
     0
  2
_OPEN
 10
603.13882327648196
 20
3703.259529788003
 30
0.0
 41
40.0
 42
40.0
 43
40.0
 50
90.0
  0
TEXT
  8
3
  40
60
  5
51A
  62
0
  72
0
  71
0
 10
433.139
 20
3387.06
 30
0.000000
  1
420
  0
POINT
  5
4A0
  8
DEFPOINTS
 62
     0
 10
678.48276143684961
 20
3283.259529788003
 30
0.0
  0
POINT
  5
4A1
  8
DEFPOINTS
 62
     0
 10
678.48276143684961
 20
3703.259529788003
 30
0.0
  0
POINT
  5
4A2
  8
DEFPOINTS
 62
     0
 10
603.13882327648196
 20
3703.259529788003
 30
0.0
  0
ENDBLK
  5
4A4
  8
0
  0
BLOCK
  8
0
  2
*D34
 70
     1
 10
0.0
 20
0.0
 30
0.0
  3
*D34
  1

  0
LINE
  5
4A6
  8
3
 62
     0
 10
1608.4827614368489
 20
4153.2595297880043
 30
0.0
 11
1608.4827614368489
 21
4278.0099711966895
 31
0.0
  0
LINE
  5
4A7
  8
3
 62
     0
 10
1178.4827614368489
 20
4153.2595297880043
 30
0.0
 11
1178.4827614368489
 21
4278.0099711966895
 31
0.0
  0
LINE
  5
4A8
  8
3
 62
     0
 10
1568.4827614368489
 20
4258.0099711966886
 30
0.0
 11
1218.4827614368489
 21
4258.0099711966886
 31
0.0
  0
INSERT
  5
4A9
  8
3
 62
     0
  2
_OPEN
 10
1608.4827614368489
 20
4258.0099711966886
 30
0.0
 41
40.0
 42
40.0
 43
40.0
  0
INSERT
  5
4AA
  8
3
 62
     0
  2
_OPEN
 10
1178.4827614368489
 20
4258.0099711966886
 30
0.0
 41
40.0
 42
40.0
 43
40.0
 50
180.0
  0
TEXT
  8
3
  40
60
  5
51B
  62
0
  72
0
  71
0
 10
1273.48
 20
4201.81
 30
0.000000
  1
430
  0
POINT
  5
4AC
  8
DEFPOINTS
 62
     0
 10
1608.4827614368489
 20
4143.2595297880043
 30
0.0
  0
POINT
  5
4AD
  8
DEFPOINTS
 62
     0
 10
1178.4827614368489
 20
4143.2595297880043
 30
0.0
  0
POINT
  5
4AE
  8
DEFPOINTS
 62
     0
 10
1178.4827614368489
 20
4258.0099711966886
 30
0.0
  0
ENDBLK
  5
4B0
  8
0
  0
BLOCK
  8
0
  2
*D35
 70
     1
 10
0.0
 20
0.0
 30
0.0
  3
*D35
  1

  0
LINE
  5
4B2
  8
3
 62
     0
 10
1618.4827614368489
 20
3283.259529788003
 30
0.0
 11
1914.625236578876
 21
3283.259529788003
 31
0.0
  0
LINE
  5
4B3
  8
3
 62
     0
 10
1618.4827614368489
 20
4143.2595297880043
 30
0.0
 11
1914.625236578876
 21
4143.2595297880043
 31
0.0
  0
LINE
  5
4B4
  8
3
 62
     0
 10
1894.625236578876
 20
3323.259529788003
 30
0.0
 11
1894.625236578876
 21
4103.2595297880043
 31
0.0
  0
INSERT
  5
4B5
  8
3
 62
     0
  2
_OPEN
 10
1894.625236578876
 20
3283.259529788003
 30
0.0
 41
40.0
 42
40.0
 43
40.0
 50
270.0
  0
INSERT
  5
4B6
  8
3
 62
     0
  2
_OPEN
 10
1894.625236578876
 20
4143.2595297880043
 30
0.0
 41
40.0
 42
40.0
 43
40.0
 50
90.0
  0
TEXT
  8
3
  40
60
  5
51C
  62
0
  72
0
  71
0
 10
1724.63
 20
3607.06
 30
0.000000
  1
860
  0
POINT
  5
4B8
  8
DEFPOINTS
 62
     0
 10
1608.4827614368489
 20
3283.259529788003
 30
0.0
  0
POINT
  5
4B9
  8
DEFPOINTS
 62
     0
 10
1608.4827614368489
 20
4143.2595297880043
 30
0.0
  0
POINT
  5
4BA
  8
DEFPOINTS
 62
     0
 10
1894.625236578876
 20
4143.2595297880043
 30
0.0
  0
ENDBLK
  5
4BC
  8
0
  0
BLOCK
  8
0
  2
*D36
 70
     1
 10
0.0
 20
0.0
 30
0.0
  3
*D36
  1

  0
LINE
  5
4BE
  8
3
 62
     0
 10
3311.8796986894099
 20
2312.0744641198721
 30
0.0
 11
3492.9209028191121
 21
2312.0744641198721
 31
0.0
  0
LINE
  5
4BF
  8
3
 62
     0
 10
3311.8796986894099
 20
1912.0744641198719
 30
0.0
 11
3492.9209028191121
 21
1912.0744641198719
 31
0.0
  0
LINE
  5
4C0
  8
3
 62
     0
 10
3472.9209028191131
 20
2272.0744641198721
 30
0.0
 11
3472.9209028191131
 21
1952.0744641198719
 31
0.0
  0
INSERT
  5
4C1
  8
3
 62
     0
  2
_OPEN
 10
3472.9209028191131
 20
2312.0744641198721
 30
0.0
 41
40.0
 42
40.0
 43
40.0
 50
90.0
  0
INSERT
  5
4C2
  8
3
 62
     0
  2
_OPEN
 10
3472.9209028191131
 20
1912.0744641198719
 30
0.0
 41
40.0
 42
40.0
 43
40.0
 50
270.0
  0
TEXT
  8
3
  40
60
  5
51D
  62
0
  72
0
  71
0
 10
3302.92
 20
2005.87
 30
0.000000
  1
φ400
  0
POINT
  5
4C4
  8
DEFPOINTS
 62
     0
 10
3301.8796986894099
 20
2312.0744641198721
 30
0.0
  0
POINT
  5
4C5
  8
DEFPOINTS
 62
     0
 10
3301.8796986894099
 20
1912.0744641198719
 30
0.0
  0
POINT
  5
4C6
  8
DEFPOINTS
 62
     0
 10
3472.9209028191131
 20
1912.0744641198719
 30
0.0
  0
ENDBLK
  5
4C8
  8
0
  0
BLOCK
  8
0
  2
*D37
 70
     1
 10
0.0
 20
0.0
 30
0.0
  3
*D37
  1

  0
LINE
  5
4D3
  8
3
 62
     0
 10
2458.8796986894081
 20
1507.074464119873
 30
0.0
 11
2458.8796986894081
 21
1339.2759560304889
 31
0.0
  0
LINE
  5
4D4
  8
3
 62
     0
 10
3123.8796986894099
 20
1469.1292964408501
 30
0.0
 11
3123.8796986894099
 21
1339.2759560304889
 31
0.0
  0
LINE
  5
4D5
  8
3
 62
     0
 10
2498.879698689409
 20
1359.2759560304889
 30
0.0
 11
3083.8796986894099
 21
1359.2759560304889
 31
0.0
  0
INSERT
  5
4D6
  8
3
 62
     0
  2
_OPEN
 10
2458.8796986894081
 20
1359.2759560304889
 30
0.0
 41
40.0
 42
40.0
 43
40.0
 50
180.0
  0
INSERT
  5
4D7
  8
3
 62
     0
  2
_OPEN
 10
3123.8796986894099
 20
1359.2759560304889
 30
0.0
 41
40.0
 42
40.0
 43
40.0
  0
TEXT
  8
3
  40
60
  5
51E
  62
0
  72
0
  71
0
 10
2671.38
 20
1303.08
 30
0.000000
  1
665
  0
POINT
  5
4D9
  8
DEFPOINTS
 62
     0
 10
2458.8796986894081
 20
1517.074464119873
 30
0.0
  0
POINT
  5
4DA
  8
DEFPOINTS
 62
     0
 10
3123.8796986894099
 20
1479.1292964408501
 30
0.0
  0
POINT
  5
4DB
  8
DEFPOINTS
 62
     0
 10
3123.8796986894099
 20
1359.2759560304889
 30
0.0
  0
ENDBLK
  5
4DD
  8
0
  0
BLOCK
  8
0
  2
*D38
 70
     1
 10
0.0
 20
0.0
 30
0.0
  3
*D38
  1

  0
LINE
  5
504
  8
3
 62
     0
 10
2973.8796986894099
 20
2427.0744641198721
 30
0.0
 11
2973.8796986894099
 21
2508.7488576603582
 31
0.0
  0
LINE
  5
505
  8
3
 62
     0
 10
3273.8796986894099
 20
2427.0744641198721
 30
0.0
 11
3273.8796986894099
 21
2508.7488576603582
 31
0.0
  0
LINE
  5
506
  8
3
 62
     0
 10
3013.8796986894099
 20
2488.7488576603582
 30
0.0
 11
3233.8796986894099
 21
2488.7488576603582
 31
0.0
  0
INSERT
  5
507
  8
3
 62
     0
  2
_OPEN
 10
2973.8796986894099
 20
2488.7488576603582
 30
0.0
 41
40.0
 42
40.0
 43
40.0
 50
180.0
  0
INSERT
  5
508
  8
3
 62
     0
  2
_OPEN
 10
3273.8796986894099
 20
2488.7488576603582
 30
0.0
 41
40.0
 42
40.0
 43
40.0
  0
TEXT
  8
3
  40
60
  5
51F
  62
0
  72
0
  71
0
 10
3003.88
 20
2432.55
 30
0.000000
  1
300
  0
POINT
  5
50A
  8
DEFPOINTS
 62
     0
 10
2973.8796986894099
 20
2417.0744641198721
 30
0.0
  0
POINT
  5
50B
  8
DEFPOINTS
 62
     0
 10
3273.8796986894099
 20
2417.0744641198721
 30
0.0
  0
POINT
  5
50C
  8
DEFPOINTS
 62
     0
 10
3273.8796986894099
 20
2488.7488576603582
 30
0.0
  0
ENDBLK
  5
50E
  8
0
  0
ENDSEC
  0
SECTION
  2
ENTITIES
  0
LINE
  5
1E
  8
4
 10
4200.0
 20
0.0
 30
0.0
 11
0.0
 21
0.0
 31
0.0
  0
LINE
  5
20
  8
4
 10
0.0
 20
5900.0
 30
0.0
 11
4200.0
 21
5900.0
 31
0.0
  0
LINE
  5
21
  8
4
 10
1300.0
 20
1000.0
 30
0.0
 11
3700.0
 21
1000.0
 31
0.0
  0
LINE
  5
22
  8
4
 10
500.0
 20
5338.8175085296098
 30
0.0
 11
3700.0
 21
5338.8175085296098
 31
0.0
  0
LINE
  5
23
  8
4
 10
500.0
 20
4938.8175085296089
 30
0.0
 11
3700.0
 21
4938.8175085296089
 31
0.0
  0
TEXT
  5
24
  8
4
 10
632.33518665889278
 20
5067.7619523985959
 30
0.0
 40
144.0
  1
遠心式片吸込片持多翼ファン
  0
TEXT
  5
25
  8
4
 10
1625.7541839190339
 20
4766.8576826650306
 30
0.0
 40
107.9999999999999
  1
床置防振ベット
  0
LINE
  5
26
  8
4
 10
1300.0
 20
800.0
 30
0.0
 11
3700.0
 21
800.0
 31
0.0
  0
LINE
  5
27
  8
4
 10
1300.0
 20
600.0
 30
0.0
 11
3700.0
 21
600.0
 31
0.0
  0
LINE
  5
29
  8
4
 10
0.0
 20
0.0
 30
0.0
 11
0.0
 21
5900.0
 31
0.0
  0
LINE
  5
2A
  8
2
 10
732.86736143684993
 20
1932.0744641198719
 30
0.0
 11
941.52826143684979
 21
1932.0744641198719
 31
0.0
  0
DIMENSION
  5
2D
  8
3
  2
*D25
 10
1393.4827614368501
 20
1358.9224717563791
 30
0.0
 11
1035.9827614368489
 21
1408.9224717563791
 31
0.0
 70
     0
 13
678.48276143684961
 23
1517.074464119873
 33
0.0
 14
1393.4827614368501
 24
1479.1292964408501
 34
0.0
1001
ACAD
1000
DSTYLE
1002
{
1070
   287
1070
     3
1070
    40
1040
20.0
1070
   143
1040
0.039
1070
   172
1070
     1
1070
   271
1070
     0
1070
   279
1070
     0
1070
   288
1070
     1
1002
}
  0
LINE
  5
4F
  8
1
 10
879.38413849881817
 20
1789.2701799270831
 30
0.0
 11
1439.3841384988179
 21
1969.2701799270831
 31
0.0
  0
LINE
  5
50
  8
1
 10
787.58138437488196
 20
2074.8787483126621
 30
0.0
 11
1347.5813843748811
 21
2254.8787483126621
 31
0.0
  0
LINE
  5
51
  8
1
 10
858.3615098536693
 20
1860.0502468231009
 30
0.0
 11
1414.215051784199
 21
2052.0542830392292
 31
0.0
  0
LINE
  5
52
  8
1
 10
811.73658180615746
 20
2005.1055785264709
 30
0.0
 11
1375.360945077939
 21
2172.9337261253709
 31
0.0
  0
ARC
  5
53
  8
1
 10
1363.4827614368489
 20
2142.074464119873
 30
0.0
 40
372.00771696201542
 50
184.61143090996089
 51
270.00000000000068
  0
LINE
  5
54
  8
1
 10
678.48276143684961
 20
1517.074464119873
 30
0.0
 11
1608.4827614368489
 21
1517.074464119873
 31
0.0
  0
LINE
  5
55
  8
1
 10
678.48276143684961
 20
1592.0744641198719
 30
0.0
 11
1608.4827614368489
 21
1592.0744641198719
 31
0.0
  0
LINE
  5
56
  8
1
 10
678.48276143684961
 20
1687.0744641198719
 30
0.0
 11
1608.4827614368489
 21
1687.074464119873
 31
0.0
  0
LINE
  5
57
  8
1
 10
678.48276143684961
 20
1762.074464119873
 30
0.0
 11
1608.4827614368489
 21
1762.074464119873
 31
0.0
  0
LINE
  5
58
  8
1
 10
678.48276143684961
 20
1687.074464119873
 30
0.0
 11
1608.4827614368489
 21
1687.074464119873
 31
0.0
  0
LINE
  5
59
  8
1
 10
711.87024959565952
 20
1832.0744641198719
 30
0.0
 11
955.0952732780396
 21
1832.0744641198719
 31
0.0
  0
LINE
  5
5A
  8
1
 10
683.48276143684961
 20
1792.0744641198719
 30
0.0
 11
983.48276143684961
 21
1792.0744641198719
 31
0.0
  0
ARC
  5
5B
  8
1
 10
833.48276143684961
 20
1932.0744641198719
 30
0.0
 40
100.8
 50
285.7971
 51
0.0
  0
LINE
  5
5D
  8
2
 10
833.48276143684961
 20
2033.2993641198721
 30
0.0
 11
833.48276143684961
 21
1830.5860641198731
 31
0.0
  0
ARC
  5
5E
  8
1
 10
833.48276143684961
 20
1932.0744641198719
 30
0.0
 40
150.0
 50
107.8188889145228
 51
287.81888891452269
  0
ARC
  5
5F
  8
1
 10
833.48276143684961
 20
1932.0744641198719
 30
0.0
 40
100.8
 50
0.0
 51
254.57230000000001
  0
CIRCLE
  5
61
  8
1
 10
833.48276143684961
 20
1932.0744641198719
 30
0.0
 40
76.200000000000003
  0
LINE
  5
62
  8
1
 10
780.03236143684978
 20
1846.6241641198719
 30
0.0
 11
773.48276143684961
 21
1840.0744641198719
 31
0.0
  0
LINE
  5
63
  8
1
 10
700.98276143684961
 20
1792.0744641198719
 30
0.0
 11
711.87024959565952
 21
1832.0744641198719
 31
0.0
  0
LINE
  5
64
  8
1
 10
678.48276143684961
 20
1592.0744641198719
 30
0.0
 11
678.48276143684961
 21
1517.074464119873
 31
0.0
  0
LINE
  5
65
  8
1
 10
683.48276143684961
 20
1792.0744641198719
 30
0.0
 11
683.48276143684961
 21
1762.074464119873
 31
0.0
  0
LINE
  5
66
  8
1
 10
678.48276143684961
 20
1762.074464119873
 30
0.0
 11
678.48276143684961
 21
1687.0744641198719
 31
0.0
  0
LINE
  5
67
  8
1
 10
733.48276143684961
 20
1832.0744641198719
 30
0.0
 11
773.48276143684961
 21
1832.0744641198719
 31
0.0
  0
ARC
  5
68
  8
1
 10
735.4827614368495
 20
1842.0744641198719
 30
0.0
 40
2.0
 50
90.0
 51
180.0
  0
LINE
  5
69
  8
1
 10
733.48276143684961
 20
1832.0744641198719
 30
0.0
 11
733.48276143684961
 21
1842.0744641198719
 31
0.0
  0
LINE
  5
6A
  8
1
 10
773.48276143684961
 20
1832.0744641198719
 30
0.0
 11
773.48276143684961
 21
1842.0744641198719
 31
0.0
  0
LINE
  5
6B
  8
1
 10
753.48276143684961
 20
1845.4549641198721
 30
0.0
 11
753.48276143684961
 21
1828.1078641198719
 31
0.0
  0
LINE
  5
6C
  8
1
 10
759.48276143684961
 20
1832.0744641198719
 30
0.0
 11
759.48276143684961
 21
1844.0744641198719
 31
0.0
  0
LINE
  5
6D
  8
1
 10
747.4827614368495
 20
1844.0744641198719
 30
0.0
 11
747.4827614368495
 21
1832.0744641198719
 31
0.0
  0
ARC
  5
6E
  8
1
 10
771.48276143684961
 20
1842.0744641198719
 30
0.0
 40
2.0
 50
0.0
 51
90.0
  0
LINE
  5
6F
  8
1
 10
734.37496143684984
 20
1843.742564119872
 30
0.0
 11
750.77576143684973
 21
1874.404564119872
 31
0.0
  0
LINE
  5
70
  8
1
 10
735.4827614368495
 20
1844.0744641198719
 30
0.0
 11
771.48276143684961
 21
1844.0744641198719
 31
0.0
  0
LINE
  5
71
  8
1
 10
861.10046143684986
 20
1835.0744641198719
 30
0.0
 11
806.21336143685005
 21
1835.0744641198719
 31
0.0
  0
LINE
  5
73
  8
1
 10
933.48276143684961
 20
1832.0744641198719
 30
0.0
 11
893.4827614368495
 21
1832.0744641198719
 31
0.0
  0
LINE
  5
74
  8
1
 10
931.48276143684961
 20
1844.0744641198719
 30
0.0
 11
895.4827614368495
 21
1844.0744641198719
 31
0.0
  0
LINE
  5
75
  8
1
 10
893.4827614368495
 20
1832.0744641198719
 30
0.0
 11
893.4827614368495
 21
1842.0744641198719
 31
0.0
  0
LINE
  5
76
  8
1
 10
887.22936143685001
 20
1846.3279641198719
 30
0.0
 11
893.4827614368495
 21
1840.0744641198719
 31
0.0
  0
ARC
  5
77
  8
1
 10
895.4827614368495
 20
1842.0744641198719
 30
0.0
 40
2.0
 50
90.0
 51
180.0
  0
LINE
  5
78
  8
1
 10
933.48276143684961
 20
1832.0744641198719
 30
0.0
 11
933.48276143684961
 21
1842.0744641198719
 31
0.0
  0
LINE
  5
79
  8
1
 10
913.48276143684961
 20
1845.4549641198721
 30
0.0
 11
913.48276143684961
 21
1828.1078641198719
 31
0.0
  0
LINE
  5
7A
  8
1
 10
919.4827614368495
 20
1844.0744641198719
 30
0.0
 11
919.4827614368495
 21
1832.0744641198719
 31
0.0
  0
LINE
  5
7B
  8
1
 10
907.48276143684961
 20
1832.0744641198719
 30
0.0
 11
907.48276143684961
 21
1844.0744641198719
 31
0.0
  0
LINE
  5
7C
  8
1
 10
932.39196143684967
 20
1844.113964119872
 30
0.0
 11
916.27326143684968
 21
1874.2482641198719
 31
0.0
  0
ARC
  5
7D
  8
1
 10
931.48276143684961
 20
1842.0744641198719
 30
0.0
 40
2.0
 50
0.0
 51
90.0
  0
TEXT
  5
7E
  8
4
 10
1372.516212049595
 20
643.29031346402189
 30
0.0
 40
100.0
  1
機器型番
  0
TEXT
  5
7F
  8
4
 10
1377.0041616938031
 20
863.08605173322564
 30
0.0
 40
100.0
  1
機器名称
  0
LINE
  5
81
  8
4
 10
1300.0
 20
1000.0
 30
0.0
 11
1300.0
 21
600.0
 31
0.0
  0
LINE
  5
82
  8
2
 10
954.23967772013202
 20
2112.0744641198721
 30
0.0
 11
1710.860531076127
 21
2112.0744641198721
 31
0.0
  0
DIMENSION
  5
83
  8
3
  2
*D5
 10
1608.4827614368489
 20
1358.9224717563791
 30
0.0
 11
1500.9827614368501
 21
1409.0023791203221
 31
0.0
 12
151.4069979769483
 22
-59.0
 32
0.0
 70
   128
 13
1393.4827614368501
 23
1479.1292964408501
 33
0.0
 14
1608.4827614368489
 24
1517.074464119873
 34
0.0
1001
ACAD
1000
DSTYLE
1002
{
1070
   288
1070
     1
1070
   172
1070
     1
1070
    40
1040
20.0
1070
   271
1070
     0
1070
   143
1040
0.039
1002
}
  0
DIMENSION
  5
90
  8
3
  2
*D21
 10
2059.0672932786379
 20
2417.0744641198721
 30
0.0
 11
2009.0672932786381
 21
1967.0744641198719
 31
0.0
 70
     0
 13
1608.4827614368489
 23
1517.074464119873
 33
0.0
 14
1406.536064347114
 24
2417.0744641198721
 34
0.0
 50
90.0
1001
ACAD
1000
DSTYLE
1002
{
1070
   287
1070
     3
1070
    40
1040
20.0
1070
   143
1040
0.039
1070
   172
1070
     1
1070
   271
1070
     0
1070
   279
1070
     0
1070
   288
1070
     1
1002
}
  0
DIMENSION
  5
AA
  8
3
  2
*D26
 10
1675.490478398865
 20
2577.9797560426791
 30
0.0
 11
1534.4866199178571
 21
2627.9797560426791
 31
0.0
 70
     0
 13
1393.4827614368489
 23
2451.2334556268938
 33
0.0
 14
1675.490478398865
 24
2082.0744641198721
 34
0.0
1001
ACAD
1000
DSTYLE
1002
{
1070
   287
1070
     3
1070
    40
1040
20.0
1070
   143
1040
0.039
1070
   172
1070
     1
1070
   271
1070
     0
1070
   279
1070
     0
1070
   288
1070
     1
1002
}
  0
ARC
  5
B7
  8
1
 10
1363.4827614368501
 20
2082.0744641198721
 30
0.0
 40
312.00771696201508
 50
270.00000000000063
 51
7.5238204386395493
  0
LINE
  5
B8
  8
1
 10
1578.4827614368489
 20
1767.0744641198719
 30
0.0
 11
1598.4827614368489
 21
1767.0744641198719
 31
0.0
  0
ARC
  5
BA
  8
1
 10
1416.482761436848
 20
2089.074464119873
 30
0.0
 40
258.54745134352208
 50
7.5238204386395493
 51
89.999999999999758
  0
LINE
  5
BB
  8
1
 10
1168.4827614368489
 20
2053.6744641198729
 30
0.0
 11
1618.4827614368489
 21
2053.6744641198729
 31
0.0
  0
LINE
  5
BD
  8
1
 10
1578.4827614368489
 20
2007.674464119872
 30
0.0
 11
1666.4901135652251
 21
2007.674464119872
 31
0.0
  0
LINE
  5
BE
  8
1
 10
1578.4827614368489
 20
2013.674464119872
 30
0.0
 11
1667.900657500549
 21
2013.6744641198729
 31
0.0
  0
LINE
  5
BF
  8
1
 10
1578.4827614368489
 20
1802.0744641198719
 30
0.0
 11
1598.4827614368489
 21
1802.0744641198719
 31
0.0
  0
LINE
  5
C0
  8
2
 10
1393.4827614368489
 20
2451.2334556268938
 30
0.0
 11
1393.4827614368501
 21
1479.1292964408501
 31
0.0
  0
LINE
  5
C2
  8
1
 10
1208.4827614368489
 20
2053.6744641198729
 30
0.0
 11
1208.4827614368489
 21
1762.074464119873
 31
0.0
  0
LINE
  5
C3
  8
1
 10
1578.4827614368489
 20
2053.6744641198729
 30
0.0
 11
1578.4827614368489
 21
1762.074464119873
 31
0.0
  0
ARC
  5
C4
  8
1
 10
1393.4827614368489
 20
2112.0744641198721
 30
0.0
 40
150.0
 50
287.81888891452269
 51
107.8188889145228
  0
LINE
  5
C5
  8
1
 10
1168.4827614368489
 20
2053.6744641198729
 30
0.0
 11
1168.4827614368489
 21
2013.674464119872
 31
0.0
  0
LINE
  5
C6
  8
1
 10
1014.336400322644
 20
2013.6744641198729
 30
0.0
 11
1208.4827614368489
 21
2013.674464119872
 31
0.0
  0
LINE
  5
C7
  8
1
 10
1016.601828724642
 20
2007.6744641198729
 30
0.0
 11
1208.4827614368489
 21
2007.674464119872
 31
0.0
  0
LINE
  5
C8
  8
1
 10
1016.601828724642
 20
2007.674464119872
 30
0.0
 11
1208.4827614368501
 21
2007.674464119872
 31
0.0
  0
LINE
  5
C9
  8
1
 10
965.9827614368495
 20
1792.0744641198719
 30
0.0
 11
955.09527327804017
 21
1832.0744641198719
 31
0.0
  0
LINE
  5
CA
  8
1
 10
983.48276143684961
 20
1792.0744641198719
 30
0.0
 11
983.48276143684961
 21
1762.074464119873
 31
0.0
  0
LINE
  5
CB
  8
1
 10
1188.4827614368489
 20
1802.0744641198719
 30
0.0
 11
1188.4827614368489
 21
1762.074464119873
 31
0.0
  0
LINE
  5
CC
  8
1
 10
1188.4827614368489
 20
1767.0744641198719
 30
0.0
 11
1208.4827614368489
 21
1767.0744641198719
 31
0.0
  0
LINE
  5
CD
  8
1
 10
1188.4827614368489
 20
1802.0744641198719
 30
0.0
 11
1208.4827614368489
 21
1802.0744641198719
 31
0.0
  0
DIMENSION
  5
CE
  8
3
  2
*D27
 10
1381.4827614368489
 20
2488.7983719818822
 30
0.0
 11
1175.4827614368489
 21
2538.7983719818822
 31
0.0
 70
     0
 13
969.4827614368495
 23
2417.0744641198721
 33
0.0
 14
1381.4827614368489
 24
2417.0744641198721
 34
0.0
1001
ACAD
1000
DSTYLE
1002
{
1070
   287
1070
     3
1070
    40
1040
20.0
1070
   143
1040
0.039
1070
   172
1070
     1
1070
   271
1070
     0
1070
   279
1070
     0
1070
   288
1070
     1
1002
}
  0
DIMENSION
  5
DB
  8
3
  2
*D28
 10
1393.4827614368489
 20
2577.9797560426791
 30
0.0
 11
1181.4827614368489
 21
2627.9797560426791
 31
0.0
 70
     0
 13
969.4827614368495
 23
2417.0744641198721
 33
0.0
 14
1393.4827614368489
 24
2451.2334556268938
 34
0.0
1001
ACAD
1000
DSTYLE
1002
{
1070
   287
1070
     3
1070
    40
1040
20.0
1070
   143
1040
0.039
1070
   172
1070
     1
1070
   271
1070
     0
1070
   279
1070
     0
1070
   288
1070
     1
1002
}
  0
LINE
  5
E8
  8
1
 10
1381.4827614368489
 20
2414.0744641198721
 30
0.0
 11
969.4827614368495
 21
2414.074464119873
 31
0.0
  0
LINE
  5
E9
  8
1
 10
1383.4827614368489
 20
2392.074464119873
 30
0.0
 11
968.4827614368495
 21
2392.0744641198721
 31
0.0
  0
LINE
  5
EA
  8
1
 10
1381.4827614368489
 20
2417.0744641198721
 30
0.0
 11
944.4827614368495
 21
2417.0744641198721
 31
0.0
  0
LINE
  5
EB
  8
1
 10
1203.4827614368489
 20
2056.8744641198718
 30
0.0
 11
1583.4827614368489
 21
2056.8744641198718
 31
0.0
  0
LINE
  5
EE
  8
1
 10
992.67928614175435
 20
2112.1658668881241
 30
0.0
 11
969.4827614368495
 21
2417.0744641198721
 31
0.0
  0
LINE
  5
F3
  8
1
 10
968.4827614368495
 20
2392.0744641198721
 30
0.0
 11
969.4827614368495
 21
2392.0744641198721
 31
0.0
  0
POLYLINE
  5
F4
  8
1
 66
     1
 10
0.0
 20
0.0
 30
0.0
 70
     1
  0
VERTEX
  5
450
  8
1
 10
969.4827614368495
 20
2417.0744641198721
 30
0.0
  0
VERTEX
  5
451
  8
1
 10
944.4827614368495
 20
2417.0744641198721
 30
0.0
  0
VERTEX
  5
452
  8
1
 10
944.4827614368495
 20
2416.0744641198721
 30
0.0
 42
0.4142135623730951
  0
VERTEX
  5
453
  8
1
 10
946.48276143684973
 20
2414.0744641198721
 30
0.0
  0
VERTEX
  5
454
  8
1
 10
962.48276143684973
 20
2414.0744641198721
 30
0.0
 42
-0.4142135623730951
  0
VERTEX
  5
455
  8
1
 10
966.48276143684961
 20
2410.074464119873
 30
0.0
  0
VERTEX
  5
456
  8
1
 10
966.48276143684961
 20
2394.0744641198721
 30
0.0
 42
0.4142135623730951
  0
VERTEX
  5
457
  8
1
 10
968.4827614368495
 20
2392.0744641198721
 30
0.0
  0
VERTEX
  5
458
  8
1
 10
969.4827614368495
 20
2392.0744641198721
 30
0.0
  0
SEQEND
  5
459
  8
1
  0
LINE
  5
FF
  8
1
 10
1203.4827614368489
 20
2056.8744641198718
 30
0.0
 11
1203.4827614368489
 21
2053.6744641198729
 31
0.0
  0
CIRCLE
  5
101
  8
1
 10
1393.4827614368489
 20
2112.0744641198721
 30
0.0
 40
63.5
  0
ARC
  5
102
  8
1
 10
1416.482761436853
 20
2135.0744641198721
 30
0.0
 40
212.5474513435226
 50
90.000000000000966
 51
99.478013037975344
  0
LINE
  5
104
  8
1
 10
1381.4827614368489
 20
2344.720401530135
 30
0.0
 11
1381.4827614368489
 21
2417.0744641198721
 31
0.0
  0
POLYLINE
  5
108
  8
1
 66
     1
 10
0.0
 20
0.0
 30
0.0
 70
     1
  0
VERTEX
  5
45A
  8
1
 10
1381.4827614368489
 20
2417.0744641198721
 30
0.0
  0
VERTEX
  5
45B
  8
1
 10
1406.4827614368489
 20
2417.0744641198721
 30
0.0
  0
VERTEX
  5
45C
  8
1
 10
1406.4827614368489
 20
2416.0744641198721
 30
0.0
 42
-0.4142135623730951
  0
VERTEX
  5
45D
  8
1
 10
1404.4827614368489
 20
2414.0744641198721
 30
0.0
  0
VERTEX
  5
45E
  8
1
 10
1388.4827614368489
 20
2414.0744641198721
 30
0.0
 42
0.4142135623730951
  0
VERTEX
  5
45F
  8
1
 10
1384.4827614368489
 20
2410.074464119873
 30
0.0
  0
VERTEX
  5
460
  8
1
 10
1384.4827614368489
 20
2394.0744641198721
 30
0.0
 42
-0.4142135623730951
  0
VERTEX
  5
461
  8
1
 10
1382.4827614368489
 20
2392.0744641198721
 30
0.0
  0
VERTEX
  5
462
  8
1
 10
1381.4827614368489
 20
2392.0744641198721
 30
0.0
  0
SEQEND
  5
463
  8
1
  0
LINE
  5
113
  8
1
 10
1583.4827614368489
 20
2056.8744641198718
 30
0.0
 11
1583.4827614368489
 21
2053.6744641198729
 31
0.0
  0
DIMENSION
  5
114
  8
3
  2
*D29
 10
1835.380196462085
 20
1687.074464119873
 30
0.0
 11
1785.3801964620841
 21
1899.5744641198719
 31
0.0
 70
     0
 13
1710.860531076127
 23
2112.0744641198721
 33
0.0
 14
1608.4827614368489
 24
1687.074464119873
 34
0.0
 50
90.0
1001
ACAD
1000
DSTYLE
1002
{
1070
   287
1070
     3
1070
    40
1040
20.0
1070
   143
1040
0.039
1070
   172
1070
     1
1070
   271
1070
     0
1070
   279
1070
     0
1070
   288
1070
     1
1002
}
  0
LINE
  5
121
  8
1
 10
1618.4827614368489
 20
2053.6744641198729
 30
0.0
 11
1618.4827614368489
 21
2013.674464119872
 31
0.0
  0
DIMENSION
  5
139
  8
3
  2
*D30
 10
1835.380196462085
 20
1517.074464119873
 30
0.0
 11
1785.3801964620841
 21
1368.5030355484439
 31
0.0
 70
     0
 13
1608.4827614368489
 23
1592.0744641198719
 33
0.0
 14
1608.4827614368489
 24
1517.074464119873
 34
0.0
 50
90.0
1001
ACAD
1000
DSTYLE
1002
{
1070
   287
1070
     3
1070
    40
1040
20.0
1070
   143
1040
0.039
1070
   172
1070
     1
1070
   271
1070
     0
1070
   279
1070
     0
1070
   288
1070
     1
1070
     6
1000
DOT
1002
}
  0
LINE
  5
148
  8
1
 10
1598.4827614368489
 20
1802.0744641198719
 30
0.0
 11
1598.4827614368489
 21
1762.074464119873
 31
0.0
  0
LINE
  5
149
  8
1
 10
1608.4827614368489
 20
1592.0744641198719
 30
0.0
 11
1608.4827614368489
 21
1517.074464119873
 31
0.0
  0
LINE
  5
14A
  8
1
 10
1608.4827614368489
 20
1762.074464119873
 30
0.0
 11
1608.4827614368489
 21
1687.074464119873
 31
0.0
  0
LINE
  5
14B
  8
2
 10
911.72847613723945
 20
3948.2595297880039
 30
0.0
 11
1801.5872352957231
 21
3948.2595297880039
 31
0.0
  0
DIMENSION
  5
14C
  8
3
  2
*D31
 10
1608.4827614368489
 20
3065.0843755637738
 30
0.0
 11
1143.4827614368489
 21
3115.0843755637752
 31
0.0
 70
     0
 13
678.48276143684961
 23
3283.259529788003
 33
0.0
 14
1608.4827614368489
 24
3283.259529788003
 34
0.0
1001
ACAD
1000
DSTYLE
1002
{
1070
   287
1070
     3
1070
    40
1040
20.0
1070
   143
1040
0.039
1070
   172
1070
     1
1070
   271
1070
     0
1070
   279
1070
     0
1070
   288
1070
     1
1002
}
  0
DIMENSION
  5
159
  8
3
  2
*D32
 10
678.48276143684961
 20
4258.0099711966886
 30
0.0
 11
928.4827614368495
 21
4308.0099711966886
 31
0.0
 70
     0
 13
1178.4827614368489
 23
4143.2595297880043
 33
0.0
 14
678.48276143684961
 24
3703.259529788003
 34
0.0
1001
ACAD
1000
DSTYLE
1002
{
1070
   287
1070
     3
1070
    40
1040
20.0
1070
   143
1040
0.039
1070
   172
1070
     1
1070
   271
1070
     0
1070
   279
1070
     0
1070
   288
1070
     1
1002
}
  0
LINE
  5
166
  8
1
 10
683.48276143684996
 20
3310.2595297880048
 30
0.0
 11
1543.4827614368489
 21
3310.259529788003
 31
0.0
  0
LINE
  5
167
  8
1
 10
683.48276143684961
 20
3188.2595297880039
 30
0.0
 11
1543.4827614368489
 21
3188.259529788003
 31
0.0
  0
LINE
  5
168
  8
1
 10
1329.9827614368489
 20
3268.2595297880039
 30
0.0
 11
909.68276143684977
 21
3268.2595297880039
 31
0.0
  0
LINE
  5
169
  8
1
 10
909.68276143684977
 20
3218.2595297880039
 30
0.0
 11
1329.9827614368501
 21
3218.2595297880039
 31
0.0
  0
LINE
  5
16A
  8
1
 10
933.48276143684961
 20
3323.259529788003
 30
0.0
 11
1203.4827614368489
 21
3323.259529788003
 31
0.0
  0
LINE
  5
16B
  8
1
 10
678.48276143684961
 20
3703.259529788003
 30
0.0
 11
1178.4827614368489
 21
3703.2595297880039
 31
0.0
  0
LINE
  5
16C
  8
1
 10
678.48276143684961
 20
3663.259529788003
 30
0.0
 11
1178.4827614368489
 21
3663.2595297880039
 31
0.0
  0
LINE
  5
16D
  8
1
 10
678.48276143684961
 20
3283.259529788003
 30
0.0
 11
1373.4827614368489
 21
3283.2595297880039
 31
0.0
  0
TEXT
  5
16E
  8
4
 10
754.03651943363002
 20
4764.638955092687
 30
0.0
 40
107.9999999999999
  1
右回転上向
  0
DIMENSION
  5
16F
  8
3
  2
*D33
 10
603.13882327648196
 20
3703.259529788003
 30
0.0
 11
553.1388232764815
 21
3493.259529788003
 31
0.0
 70
     0
 13
678.48276143684961
 23
3283.259529788003
 33
0.0
 14
678.48276143684961
 24
3703.259529788003
 34
0.0
 50
90.0
1001
ACAD
1000
DSTYLE
1002
{
1070
   287
1070
     3
1070
    40
1040
20.0
1070
   143
1040
0.039
1070
   172
1070
     1
1070
   271
1070
     0
1070
   279
1070
     0
1070
   288
1070
     1
1002
}
  0
LINE
  5
17C
  8
2
 10
833.48276143684961
 20
3589.5902297880039
 30
0.0
 11
833.48276143684961
 21
3212.9415297880041
 31
0.0
  0
LINE
  5
17D
  8
1
 10
733.48276143684961
 20
3289.2595297880039
 30
0.0
 11
733.48276143684961
 21
3584.2595297880039
 31
0.0
  0
LINE
  5
17E
  8
1
 10
933.48276143684961
 20
3411.2595297880039
 30
0.0
 11
933.48276143684961
 21
3289.2595297880039
 31
0.0
  0
LINE
  5
17F
  8
1
 10
757.2827614368498
 20
3218.2595297880039
 30
0.0
 11
909.68276143684977
 21
3218.2595297880039
 31
0.0
  0
LINE
  5
180
  8
1
 10
757.2827614368498
 20
3268.2595297880039
 30
0.0
 11
909.68276143684943
 21
3268.2595297880039
 31
0.0
  0
LINE
  5
181
  8
1
 10
933.48276143684961
 20
3289.2595297880039
 30
0.0
 11
733.48276143684961
 21
3289.2595297880039
 31
0.0
  0
LINE
  5
182
  8
1
 10
678.48276143684961
 20
3323.259529788003
 30
0.0
 11
733.48276143684961
 21
3323.259529788003
 31
0.0
  0
LINE
  5
183
  8
1
 10
683.48276143684961
 20
3188.2595297880039
 30
0.0
 11
683.48276143684961
 21
3310.2595297880039
 31
0.0
  0
LINE
  5
184
  8
1
 10
678.48276143684961
 20
3323.259529788003
 30
0.0
 11
678.48276143684961
 21
3283.259529788003
 31
0.0
  0
POINT
  5
185
  8
1
 10
678.48276143684961
 20
3283.259529788003
 30
0.0
  0
POINT
  5
186
  8
1
 10
678.48276143684961
 20
3283.259529788003
 30
0.0
  0
LINE
  5
187
  8
1
 10
757.2827614368498
 20
3268.2595297880039
 30
0.0
 11
757.2827614368498
 21
3218.2595297880039
 31
0.0
  0
LINE
  5
188
  8
1
 10
796.48276143684961
 20
3283.2595297880039
 30
0.0
 11
870.4827614368495
 21
3283.2595297880039
 31
0.0
  0
LINE
  5
189
  8
1
 10
793.4827614368495
 20
3289.2595297880039
 30
0.0
 11
793.4827614368495
 21
3286.2595297880039
 31
0.0
  0
ARC
  5
18A
  8
1
 10
796.48276143684961
 20
3286.2595297880039
 30
0.0
 40
2.9998999999999989
 50
179.99879999999999
 51
270.00119999999998
  0
LINE
  5
18B
  8
1
 10
848.08276143684998
 20
3283.2595297880039
 30
0.0
 11
848.08276143684998
 21
3278.259529788003
 31
0.0
  0
LINE
  5
18C
  8
1
 10
818.88286143685002
 20
3283.2595297880039
 30
0.0
 11
818.88286143685002
 21
3278.259529788003
 31
0.0
  0
LINE
  5
18D
  8
1
 10
848.08276143684998
 20
3278.259529788003
 30
0.0
 11
818.88286143685002
 21
3278.259529788003
 31
0.0
  0
LINE
  5
18E
  8
1
 10
847.48276143684961
 20
3278.259529788003
 30
0.0
 11
847.48276143684961
 21
3268.2595297880039
 31
0.0
  0
LINE
  5
18F
  8
1
 10
819.4827614368495
 20
3278.259529788003
 30
0.0
 11
819.4827614368495
 21
3268.2595297880039
 31
0.0
  0
LINE
  5
190
  8
1
 10
873.48276143684961
 20
3289.2595297880039
 30
0.0
 11
873.48276143684961
 21
3286.2595297880039
 31
0.0
  0
ARC
  5
191
  8
1
 10
870.48286143684982
 20
3286.2595297880039
 30
0.0
 40
2.9998999999999989
 50
269.99880000000002
 51
0.0012000000000121
  0
LINE
  5
192
  8
1
 10
909.68276143684977
 20
3268.2595297880039
 30
0.0
 11
909.68276143684977
 21
3218.2595297880039
 31
0.0
  0
LINE
  5
193
  8
1
 10
733.48276143684961
 20
3584.2595297880039
 30
0.0
 11
933.48276143684961
 21
3584.2595297880039
 31
0.0
  0
LINE
  5
194
  8
1
 10
735.4827614368495
 20
3663.259529788003
 30
0.0
 11
735.4827614368495
 21
3584.2595297880039
 31
0.0
  0
LINE
  5
195
  8
1
 10
678.48276143684961
 20
3703.259529788003
 30
0.0
 11
678.48276143684961
 21
3663.259529788003
 31
0.0
  0
LINE
  5
196
  8
1
 10
931.48276143684961
 20
3663.259529788003
 30
0.0
 11
931.48276143684961
 21
3584.2595297880039
 31
0.0
  0
LINE
  5
197
  8
1
 10
775.48276143684961
 20
3663.259529788003
 30
0.0
 11
775.48276143684961
 21
3584.2595297880039
 31
0.0
  0
LINE
  5
198
  8
1
 10
891.48276143684961
 20
3663.259529788003
 30
0.0
 11
891.48276143684961
 21
3584.2595297880039
 31
0.0
  0
LINE
  5
199
  8
1
 10
933.48276143684961
 20
3411.2595297880039
 30
0.0
 11
933.48276143684961
 21
3584.2595297880039
 31
0.0
  0
LINE
  5
19A
  8
4
 10
500.0
 20
5338.8175085296098
 30
0.0
 11
500.0
 21
4938.8175085296089
 31
0.0
  0
DIMENSION
  5
19B
  8
3
  2
*D34
 10
1178.4827614368489
 20
4258.0099711966886
 30
0.0
 11
1393.4827614368489
 21
4308.0099711966886
 31
0.0
 70
     0
 13
1608.4827614368489
 23
4143.2595297880043
 33
0.0
 14
1178.4827614368489
 24
4143.2595297880043
 34
0.0
1001
ACAD
1000
DSTYLE
1002
{
1070
   287
1070
     3
1070
    40
1040
20.0
1070
   143
1040
0.039
1070
   172
1070
     1
1070
   271
1070
     0
1070
   279
1070
     0
1070
   288
1070
     1
1002
}
  0
LINE
  5
1A8
  8
1
 10
1413.4827614368489
 20
3283.2595297880039
 30
0.0
 11
1608.4827614368489
 21
3283.259529788003
 31
0.0
  0
LINE
  5
1A9
  8
1
 10
1583.4827614368489
 20
3323.259529788003
 30
0.0
 11
1608.4827614368489
 21
3323.259529788003
 31
0.0
  0
LINE
  5
1AA
  8
1
 10
1408.4879441242781
 20
3796.2595297880039
 30
0.0
 11
1675.490478398865
 21
3796.2595297880039
 31
0.0
  0
LINE
  5
1AB
  8
1
 10
1408.4879441242781
 20
4100.2595297880043
 30
0.0
 11
1675.490478398865
 21
4100.2595297880043
 31
0.0
  0
LINE
  5
1AC
  8
1
 10
1568.4827614368489
 20
4143.2595297880043
 30
0.0
 11
1608.4827614368489
 21
4143.2595297880043
 31
0.0
  0
LINE
  5
1AD
  8
2
 10
1393.4827614368489
 20
4198.2448249437111
 30
0.0
 11
1393.4827614368489
 21
3198.3114354626118
 31
0.0
  0
LINE
  5
1AE
  8
1
 10
967.48794412427833
 20
4100.2595297880043
 30
0.0
 11
1383.4879441242781
 21
3796.2595297880039
 31
0.0
  0
LINE
  5
1AF
  8
1
 10
1383.4879441242781
 20
4100.2595297880043
 30
0.0
 11
967.48794412427833
 21
3796.259529788003
 31
0.0
  0
LINE
  5
1B0
  8
1
 10
967.48794412427833
 20
3796.259529788003
 30
0.0
 11
967.48794412427833
 21
4100.2595297880043
 31
0.0
  0
LINE
  5
1B1
  8
1
 10
942.48794412427833
 20
3771.259529788003
 30
0.0
 11
942.48794412427833
 21
4125.2595297880043
 31
0.0
  0
LINE
  5
1B2
  8
1
 10
1383.4879441242781
 20
3796.2595297880039
 30
0.0
 11
1383.4879441242781
 21
4100.2595297880043
 31
0.0
  0
LINE
  5
1B3
  8
1
 10
1408.4879441242781
 20
3771.259529788003
 30
0.0
 11
1408.4879441242781
 21
4125.2595297880043
 31
0.0
  0
LINE
  5
1B4
  8
1
 10
967.48794412427833
 20
3796.259529788003
 30
0.0
 11
1383.4879441242781
 21
3796.2595297880039
 31
0.0
  0
LINE
  5
1B5
  8
1
 10
942.48794412427833
 20
3771.2595297880039
 30
0.0
 11
1408.4879441242781
 21
3771.2595297880039
 31
0.0
  0
LINE
  5
1B6
  8
1
 10
1203.4827614368489
 20
3308.2595297880039
 30
0.0
 11
1373.4827614368489
 21
3308.2595297880039
 31
0.0
  0
LINE
  5
1B7
  8
1
 10
1203.4827614368489
 20
3733.259529788003
 30
0.0
 11
1583.4827614368489
 21
3733.2595297880039
 31
0.0
  0
LINE
  5
1B8
  8
1
 10
1203.4827614368489
 20
3733.259529788003
 30
0.0
 11
1203.4827614368489
 21
3308.2595297880039
 31
0.0
  0
LINE
  5
1B9
  8
1
 10
1178.4827614368489
 20
3771.2595297880039
 30
0.0
 11
1178.4827614368489
 21
3323.259529788003
 31
0.0
  0
LINE
  5
1BA
  8
1
 10
1218.4827614368501
 20
3771.2595297880039
 30
0.0
 11
1218.4827614368489
 21
3740.5368923334499
 31
0.0
  0
LINE
  5
1BB
  8
1
 10
1218.4827614368489
 20
3756.2595297880039
 30
0.0
 11
1218.4827614368489
 21
3733.259529788003
 31
0.0
  0
LINE
  5
1BC
  8
1
 10
1583.4827614368489
 20
3733.2595297880039
 30
0.0
 11
1583.4827614368489
 21
3308.259529788003
 31
0.0
  0
LINE
  5
1BF
  8
1
 10
1329.9827614368489
 20
3218.2595297880039
 30
0.0
 11
1456.9827614368489
 21
3218.259529788003
 31
0.0
  0
LINE
  5
1C0
  8
1
 10
1413.4827614368489
 20
3308.259529788003
 30
0.0
 11
1583.4827614368489
 21
3308.259529788003
 31
0.0
  0
LINE
  5
1C3
  8
1
 10
1329.9827614368501
 20
3268.2595297880039
 30
0.0
 11
1456.9827614368489
 21
3268.2595297880039
 31
0.0
  0
LINE
  5
1C9
  8
1
 10
1329.9827614368489
 20
3268.2595297880039
 30
0.0
 11
1329.9827614368501
 21
3218.2595297880039
 31
0.0
  0
LINE
  5
1CC
  8
1
 10
1373.4827614368489
 20
3771.2595297880039
 30
0.0
 11
1373.4827614368489
 21
3268.2595297880039
 31
0.0
  0
LINE
  5
1CD
  8
1
 10
1413.4827614368489
 20
3796.2595297880039
 30
0.0
 11
1413.4827614368489
 21
3268.2595297880039
 31
0.0
  0
LINE
  5
1CE
  8
1
 10
1456.9827614368489
 20
3268.2595297880039
 30
0.0
 11
1456.9827614368489
 21
3218.259529788003
 31
0.0
  0
LINE
  5
1D1
  8
1
 10
1543.4827614368489
 20
3188.259529788003
 30
0.0
 11
1543.4827614368489
 21
3310.259529788003
 31
0.0
  0
LINE
  5
1DF
  8
1
 10
1568.4827614368489
 20
3798.2595297880039
 30
0.0
 11
1568.4827614368489
 21
3747.631633021409
 31
0.0
  0
LINE
  5
1E0
  8
1
 10
1568.4827614368489
 20
3756.2595297880039
 30
0.0
 11
1568.4827614368489
 21
3733.2595297880039
 31
0.0
  0
LINE
  5
1E1
  8
1
 10
967.48794412427833
 20
4100.2595297880043
 30
0.0
 11
1383.4879441242781
 21
4100.2595297880043
 31
0.0
  0
LINE
  5
1E2
  8
1
 10
942.48794412427833
 20
4125.2595297880043
 30
0.0
 11
1408.487944124279
 21
4125.2595297880043
 31
0.0
  0
LINE
  5
1E3
  8
1
 10
1218.4827614368489
 20
4141.2595297880043
 30
0.0
 11
1568.4827614368489
 21
4141.2595297880043
 31
0.0
  0
LINE
  5
1E4
  8
1
 10
1178.4827614368489
 20
4143.2595297880043
 30
0.0
 11
1218.4827614368489
 21
4143.2595297880043
 31
0.0
  0
POINT
  5
1E5
  8
1
 10
1178.4827614368489
 20
4143.2595297880043
 30
0.0
  0
LINE
  5
1E6
  8
1
 10
1178.4827614368489
 20
4143.2595297880043
 30
0.0
 11
1178.4827614368501
 21
4125.2595297880043
 31
0.0
  0
LINE
  5
1E7
  8
1
 10
1218.4827614368489
 20
4143.2595297880043
 30
0.0
 11
1218.4827614368489
 21
4125.2595297880043
 31
0.0
  0
LINE
  5
1E8
  8
1
 10
1408.4879441242781
 20
4101.2595297880052
 30
0.0
 11
1568.4827614368489
 21
4101.2595297880052
 31
0.0
  0
LINE
  5
1E9
  8
1
 10
1568.4827614368489
 20
4143.2595297880043
 30
0.0
 11
1568.4827614368489
 21
4100.2595297880043
 31
0.0
  0
DIMENSION
  5
1EA
  8
3
  2
*D35
 10
1894.625236578876
 20
4143.2595297880043
 30
0.0
 11
1844.625236578876
 21
3713.2595297880039
 31
0.0
 70
     0
 13
1608.4827614368489
 23
3283.259529788003
 33
0.0
 14
1608.4827614368489
 24
4143.2595297880043
 34
0.0
 50
90.0
1001
ACAD
1000
DSTYLE
1002
{
1070
   287
1070
     3
1070
    40
1040
20.0
1070
   143
1040
0.039
1070
   172
1070
     1
1070
   271
1070
     0
1070
   279
1070
     0
1070
   288
1070
     1
1002
}
  0
LINE
  5
1F7
  8
1
 10
1675.490478398865
 20
3796.2595297880039
 30
0.0
 11
1675.490478398865
 21
4100.2595297880043
 31
0.0
  0
LINE
  5
1F8
  8
1
 10
1608.4827614368489
 20
3798.2595297880039
 30
0.0
 11
1608.4827614368489
 21
3283.259529788003
 31
0.0
  0
LINE
  5
1F9
  8
1
 10
1608.4827614368489
 20
4143.2595297880043
 30
0.0
 11
1608.4827614368489
 21
4100.2595297880043
 31
0.0
  0
POINT
  5
1FA
  8
1
 10
1608.4827614368489
 20
4143.2595297880043
 30
0.0
  0
POINT
  5
1FB
  8
1
 10
1608.4827614368489
 20
4143.2595297880043
 30
0.0
  0
LINE
  5
1FC
  8
4
 10
4200.0
 20
5900.0
 30
0.0
 11
4200.0
 21
0.0
 31
0.0
  0
DIMENSION
  5
1FD
  8
3
  2
*D36
 10
3472.9209028191131
 20
1912.0744641198719
 30
0.0
 11
3422.9209028191121
 21
2112.074464119873
 31
0.0
 70
     0
 13
3301.8796986894099
 23
2312.0744641198721
 33
0.0
 14
3301.8796986894099
 24
1912.0744641198719
 34
0.0
 50
90.0
1001
ACAD
1000
DSTYLE
1002
{
1070
   287
1070
     3
1070
     3
1000
φ<>
1070
    40
1040
20.0
1070
   143
1040
0.039
1070
   172
1070
     1
1070
   271
1070
     0
1070
   279
1070
     0
1070
   288
1070
     1
1002
}
  0
TEXT
  5
20A
  8
4
 10
2311.7486801772702
 20
844.3746047138942
 30
0.0
 40
90.0
  1
ミツヤ多翼送風機
  0
TEXT
  5
20C
  8
4
 10
2373.3089911709608
 20
634.31916855988675
 30
0.0
 40
100.0
  1
MF#2 1/2-1
  0
LINE
  5
20D
  8
4
 10
2300.0
 20
1000.0
 30
0.0
 11
2300.0
 21
600.0
 31
0.0
  0
LINE
  5
20E
  8
2
 10
2376.868922085785
 20
2112.0744641198721
 30
0.0
 11
3343.096924463121
 21
2112.0744641198721
 31
0.0
  0
DIMENSION
  5
20F
  8
3
  2
*D19
 10
3123.8796986894099
 20
2621.3266003479398
 30
0.0
 11
2743.879698689409
 21
2721.3266003479412
 31
0.0
 70
     0
  1
MAX\P830
 13
2363.8796986894081
 23
2262.0744641198721
 33
0.0
 14
3123.8796986894099
 24
2591.3534097697279
 34
0.0
1001
ACAD
1000
DSTYLE
1002
{
1070
   287
1070
     3
1070
    40
1040
20.0
1070
   143
1040
0.039
1070
   172
1070
     1
1070
   271
1070
     0
1070
   279
1070
     0
1070
   288
1070
     1
1002
}
  0
DIMENSION
  5
21C
  8
3
  2
*D37
 10
3123.8796986894099
 20
1359.2759560304889
 30
0.0
 11
2791.379698689409
 21
1409.2759560304889
 31
0.0
 70
     0
 13
2458.8796986894081
 23
1517.074464119873
 33
0.0
 14
3123.8796986894099
 24
1479.1292964408501
 34
0.0
1001
ACAD
1000
DSTYLE
1002
{
1070
   287
1070
     3
1070
    40
1040
20.0
1070
   143
1040
0.039
1070
   172
1070
     1
1070
   271
1070
     0
1070
   279
1070
     0
1070
   288
1070
     1
1002
}
  0
LINE
  5
229
  8
1
 10
2458.8796986894081
 20
1592.0744641198719
 30
0.0
 11
3318.8796986894099
 21
1592.0744641198719
 31
0.0
  0
LINE
  5
22A
  8
1
 10
2458.8796986894081
 20
1517.074464119873
 30
0.0
 11
3318.8796986894099
 21
1517.074464119873
 31
0.0
  0
LINE
  5
22B
  8
1
 10
2458.8796986894081
 20
1687.074464119873
 30
0.0
 11
3318.8796986894099
 21
1687.074464119873
 31
0.0
  0
LINE
  5
22C
  8
1
 10
2498.879698689409
 20
1687.074464119873
 30
0.0
 11
3318.8796986894099
 21
1687.074464119873
 31
0.0
  0
LINE
  5
22D
  8
1
 10
2458.8796986894081
 20
1762.074464119873
 30
0.0
 11
3318.8796986894099
 21
1762.074464119873
 31
0.0
  0
LINE
  5
230
  8
1
 10
2483.8796986894081
 20
2053.6744641198729
 30
0.0
 11
2908.8796986894081
 21
2053.6744641198729
 31
0.0
  0
LINE
  5
231
  8
1
 10
2483.8796986894081
 20
2056.8744641198718
 30
0.0
 11
2908.8796986894081
 21
2056.8744641198718
 31
0.0
  0
LINE
  5
233
  8
1
 10
2497.0796986894088
 20
2053.6744641198729
 30
0.0
 11
2497.0796986894088
 21
1762.074464119873
 31
0.0
  0
LINE
  5
235
  8
1
 10
2485.8796986894081
 20
2262.0744641198721
 30
0.0
 11
2485.8796986894081
 21
2227.984542914648
 31
0.0
  0
LINE
  5
236
  8
1
 10
2363.8796986894081
 20
2262.0744641198721
 30
0.0
 11
2363.879698689409
 21
1782.0744641198719
 31
0.0
  0
LINE
  5
237
  8
1
 10
2443.8796986894081
 20
2175.5744641198721
 30
0.0
 11
2443.8796986894081
 21
1855.874464119873
 31
0.0
  0
LINE
  5
238
  8
1
 10
2393.8796986894081
 20
2175.5744641198721
 30
0.0
 11
2393.8796986894081
 21
1855.874464119873
 31
0.0
  0
LINE
  5
239
  8
2
 10
2382.915586048302
 20
1932.0744641198719
 30
0.0
 11
2505.8463986344191
 21
1932.0744641198719
 31
0.0
  0
LINE
  5
23A
  8
1
 10
2363.879698689409
 20
1782.0744641198719
 30
0.0
 11
2485.8796986894081
 21
1782.0744641198719
 31
0.0
  0
LINE
  5
23B
  8
1
 10
2393.8796986894081
 20
1855.874464119873
 30
0.0
 11
2443.8796986894081
 21
1855.874464119873
 31
0.0
  0
LINE
  5
23C
  8
1
 10
2393.8796986894081
 20
1998.574464119873
 30
0.0
 11
2443.8796986894081
 21
1998.574464119873
 31
0.0
  0
LINE
  5
23D
  8
1
 10
2458.8796986894081
 20
1592.0744641198719
 30
0.0
 11
2458.8796986894081
 21
1517.074464119873
 31
0.0
  0
LINE
  5
23E
  8
1
 10
2458.8796986894081
 20
1762.074464119873
 30
0.0
 11
2458.8796986894081
 21
1687.074464119873
 31
0.0
  0
LINE
  5
23F
  8
1
 10
2443.879698689409
 20
1918.074464119873
 30
0.0
 11
2497.0796986894088
 21
1918.0744641198719
 31
0.0
  0
LINE
  5
240
  8
1
 10
2443.879698689409
 20
1946.0744641198719
 30
0.0
 11
2497.0796986894088
 21
1946.0744641198719
 31
0.0
  0
LINE
  5
241
  8
1
 10
2363.8796986894081
 20
2262.0744641198721
 30
0.0
 11
2485.879698689409
 21
2262.0744641198721
 31
0.0
  0
LINE
  5
242
  8
1
 10
2393.8796986894081
 20
2175.5744641198721
 30
0.0
 11
2443.8796986894081
 21
2175.574464119873
 31
0.0
  0
LINE
  5
250
  8
1
 10
2483.8796986894081
 20
2056.8744641198718
 30
0.0
 11
2483.8796986894081
 21
2053.6744641198729
 31
0.0
  0
LINE
  5
261
  8
2
 10
3123.8796986894099
 20
2501.4677115031191
 30
0.0
 11
3123.8796986894099
 21
1479.1292964408501
 31
0.0
  0
LINE
  5
264
  8
1
 10
2973.8796986894099
 20
2417.0744641198721
 30
0.0
 11
2973.8796986894099
 21
1770.066747157857
 31
0.0
  0
LINE
  5
265
  8
1
 10
3273.8796986894099
 20
2417.0744641198721
 30
0.0
 11
3273.8796986894099
 21
1770.066747157857
 31
0.0
  0
LINE
  5
266
  8
1
 10
2898.879698689409
 20
2053.6744641198711
 30
0.0
 11
2898.879698689409
 21
1762.074464119873
 31
0.0
  0
POLYLINE
  5
267
  8
1
 66
     1
 10
0.0
 20
0.0
 30
0.0
 70
     1
  0
VERTEX
  5
4DE
  8
1
 10
2898.879698689409
 20
2013.674464119872
 30
0.0
  0
VERTEX
  5
4DF
  8
1
 10
2938.8796986894081
 20
2013.674464119872
 30
0.0
  0
VERTEX
  5
4E0
  8
1
 10
2938.8796986894081
 20
2015.674464119872
 30
0.0
 42
0.4142135623730951
  0
VERTEX
  5
4E1
  8
1
 10
2935.8796986894081
 20
2018.674464119872
 30
0.0
  0
VERTEX
  5
4E2
  8
1
 10
2908.3796986894081
 20
2018.674464119872
 30
0.0
 42
-0.4142135623730951
  0
VERTEX
  5
4E3
  8
1
 10
2903.8796986894081
 20
2023.174464119872
 30
0.0
  0
VERTEX
  5
4E4
  8
1
 10
2903.8796986894081
 20
2050.674464119872
 30
0.0
 42
0.4142135623730951
  0
VERTEX
  5
4E5
  8
1
 10
2900.8796986894081
 20
2053.6744641198711
 30
0.0
  0
VERTEX
  5
4E6
  8
1
 10
2898.879698689409
 20
2053.6744641198711
 30
0.0
  0
SEQEND
  5
4E7
  8
1
  0
LINE
  5
272
  8
1
 10
3301.8796986894099
 20
2312.0744641198721
 30
0.0
 11
3301.8796986894099
 21
1912.0744641198719
 31
0.0
  0
LINE
  5
273
  8
1
 10
2973.879698689409
 20
1770.066747157857
 30
0.0
 11
3273.8796986894108
 21
1770.066747157857
 31
0.0
  0
POLYLINE
  5
274
  8
1
 66
     1
 10
0.0
 20
0.0
 30
0.0
 70
     1
  0
VERTEX
  5
4E8
  8
1
 10
2971.879698689409
 20
1762.074464119873
 30
0.0
  0
VERTEX
  5
4E9
  8
1
 10
2931.879698689409
 20
1762.074464119873
 30
0.0
  0
VERTEX
  5
4EA
  8
1
 10
2931.879698689409
 20
1764.074464119873
 30
0.0
 42
-0.4142135623730951
  0
VERTEX
  5
4EB
  8
1
 10
2934.879698689409
 20
1767.0744641198719
 30
0.0
  0
VERTEX
  5
4EC
  8
1
 10
2962.379698689409
 20
1767.0744641198719
 30
0.0
 42
0.4142135623730951
  0
VERTEX
  5
4ED
  8
1
 10
2966.879698689409
 20
1771.5744641198719
 30
0.0
  0
VERTEX
  5
4EE
  8
1
 10
2966.879698689409
 20
1799.0744641198719
 30
0.0
 42
-0.4142135623730951
  0
VERTEX
  5
4EF
  8
1
 10
2969.879698689409
 20
1802.0744641198719
 30
0.0
  0
VERTEX
  5
4F0
  8
1
 10
2971.879698689409
 20
1802.0744641198719
 30
0.0
  0
SEQEND
  5
4F1
  8
1
  0
LINE
  5
280
  8
1
 10
2921.879698689409
 20
2009.174464119872
 30
0.0
 11
2973.8796986894099
 21
2009.174464119872
 31
0.0
  0
LINE
  5
281
  8
1
 10
2921.879698689409
 20
2013.674464119872
 30
0.0
 11
2973.8796986894099
 21
2013.674464119872
 31
0.0
  0
LINE
  5
282
  8
1
 10
2921.879698689409
 20
2013.674464119872
 30
0.0
 11
2921.879698689409
 21
2009.174464119872
 31
0.0
  0
DIMENSION
  5
283
  8
3
  2
*D13
 10
3318.8796986894099
 20
1359.2759560304889
 30
0.0
 11
3221.3796986894099
 21
1417.0187337650091
 31
0.0
 12
0.0
 22
-59.0
 32
0.0
 70
   128
 13
3123.8796986894099
 23
1479.1292964408501
 33
0.0
 14
3318.8796986894099
 24
1517.074464119873
 34
0.0
1001
ACAD
1000
DSTYLE
1002
{
1070
   288
1070
     1
1070
   172
1070
     1
1070
    40
1040
20.0
1070
   271
1070
     0
1070
   143
1040
0.039
1002
}
  0
POLYLINE
  5
290
  8
1
 66
     1
 10
0.0
 20
0.0
 30
0.0
  0
VERTEX
  5
4F2
  8
1
 10
3280.8796986894099
 20
1784.0744641198719
 30
0.0
  0
VERTEX
  5
4F3
  8
1
 10
3280.8796986894099
 20
1799.0744641198719
 30
0.0
 42
0.4142135623730951
  0
VERTEX
  5
4F4
  8
1
 10
3277.8796986894099
 20
1802.0744641198719
 30
0.0
  0
VERTEX
  5
4F5
  8
1
 10
3275.8796986894099
 20
1802.0744641198719
 30
0.0
  0
VERTEX
  5
4F6
  8
1
 10
3275.8796986894099
 20
1762.074464119873
 30
0.0
  0
SEQEND
  5
4F7
  8
1
  0
LINE
  5
297
  8
1
 10
3318.8796986894099
 20
1592.074464119873
 30
0.0
 11
3318.8796986894099
 21
1517.074464119873
 31
0.0
  0
POLYLINE
  5
298
  8
1
 66
     1
 10
0.0
 20
0.0
 30
0.0
  0
VERTEX
  5
4F8
  8
1
 10
3275.8796986894099
 20
1762.074464119873
 30
0.0
  0
VERTEX
  5
4F9
  8
1
 10
3315.8796986894099
 20
1762.074464119873
 30
0.0
  0
VERTEX
  5
4FA
  8
1
 10
3315.8796986894099
 20
1764.074464119873
 30
0.0
 42
0.4142135623730951
  0
VERTEX
  5
4FB
  8
1
 10
3312.8796986894099
 20
1767.0744641198719
 30
0.0
  0
VERTEX
  5
4FC
  8
1
 10
3285.3796986894099
 20
1767.0744641198719
 30
0.0
 42
-0.4142135623730951
  0
VERTEX
  5
4FD
  8
1
 10
3280.8796986894099
 20
1771.5744641198719
 30
0.0
  0
VERTEX
  5
4FE
  8
1
 10
3280.8796986894099
 20
1784.0744641198719
 30
0.0
 42
0.4142135623730951
  0
SEQEND
  5
4FF
  8
1
  0
POLYLINE
  5
2A2
  8
1
 66
     1
 10
0.0
 20
0.0
 30
0.0
  0
VERTEX
  5
500
  8
1
 10
3275.8796986894099
 20
1789.074464119873
 30
0.0
  0
VERTEX
  5
501
  8
1
 10
3275.8796986894099
 20
1783.8667471578569
 30
0.0
  0
SEQEND
  5
502
  8
1
  0
LINE
  5
2A6
  8
1
 10
3318.8796986894099
 20
1762.074464119873
 30
0.0
 11
3318.8796986894099
 21
1687.074464119873
 31
0.0
  0
DIMENSION
  5
2B5
  8
3
  2
*D38
 10
3273.8796986894099
 20
2488.7488576603582
 30
0.0
 11
3123.8796986894099
 21
2538.7488576603569
 31
0.0
 70
     0
 13
2973.8796986894099
 23
2417.0744641198721
 33
0.0
 14
3273.8796986894099
 24
2417.0744641198721
 34
0.0
1001
ACAD
1000
DSTYLE
1002
{
1070
   287
1070
     3
1070
    40
1040
20.0
1070
   143
1040
0.039
1070
   172
1070
     1
1070
   271
1070
     0
1070
   279
1070
     0
1070
   288
1070
     1
1002
}
  0
LINE
  5
2C2
  8
1
 10
2971.8796986894099
 20
2392.0744641198721
 30
0.0
 11
3275.8796986894099
 21
2392.0744641198721
 31
0.0
  0
LINE
  5
2C3
  8
1
 10
2955.1422067707622
 20
2414.0744641198721
 30
0.0
 11
3290.9791165946208
 21
2414.0744641198721
 31
0.0
  0
LINE
  5
2C4
  8
1
 10
2955.1422067707622
 20
2417.0744641198721
 30
0.0
 11
3290.9791165946208
 21
2417.0744641198721
 31
0.0
  0
LINE
  5
2C5
  8
1
 10
2443.8796986894081
 20
2092.0744641198721
 30
0.0
 11
2973.8796986894099
 21
2092.0744641198721
 31
0.0
  0
LINE
  5
2C6
  8
1
 10
2443.8796986894081
 20
2132.074464119873
 30
0.0
 11
2973.8796986894099
 21
2132.074464119873
 31
0.0
  0
LINE
  5
2D6
  8
1
 10
2908.8796986894081
 20
2056.8744641198718
 30
0.0
 11
2908.8796986894081
 21
2053.6744641198711
 31
0.0
  0
DIMENSION
  5
2E3
  8
3
  2
*D15
 10
3276.8796986894099
 20
2621.3266003479398
 30
0.0
 11
3200.3796986894099
 21
2701.3266003479412
 31
0.0
 13
3123.8796986894099
 23
2591.3534097697279
 33
0.0
 14
3276.8796986894099
 24
2337.0744641198721
 34
0.0
1001
ACAD
1000
DSTYLE
1002
{
1070
   288
1070
     1
1070
   172
1070
     1
1070
    40
1040
20.0
1070
   271
1070
     0
1070
   143
1040
0.039
1002
}
  0
LINE
  5
2F3
  8
4
 10
3700.0
 20
1000.0
 30
0.0
 11
3700.0
 21
600.0
 31
0.0
  0
LINE
  5
2F4
  8
4
 10
3700.0
 20
5362.5271662508021
 30
0.0
 11
2881.2348447197292
 21
5362.5271662508021
 31
0.0
  0
LINE
  5
2F5
  8
4
 10
2881.2348447197292
 20
5573.3045230995049
 30
0.0
 11
3700.0
 21
5573.3045230995049
 31
0.0
  0
TEXT
  5
2F6
  8
4
 10
2622.5921252000262
 20
4766.8576826650306
 30
0.0
 40
107.9999999999999
  1
縮尺：1/15
  0
TEXT
  5
2F7
  8
4
 10
2937.9391184985789
 20
5412.1221629906177
 30
0.0
 40
112.0
  1
No.
  0
LINE
  5
2F8
  8
4
 10
2881.2348447197292
 20
5362.5271662508021
 30
0.0
 11
2881.2348447197292
 21
5573.3045230995049
 31
0.0
  0
LINE
  5
2F9
  8
4
 10
3700.0
 20
5338.8175085296098
 30
0.0
 11
3700.0
 21
4938.8175085296089
 31
0.0
  0
LINE
  5
2FA
  8
4
 10
3700.0
 20
5573.3045230995049
 30
0.0
 11
3700.0
 21
5362.5271662508021
 31
0.0
  0
LINE
  5
2FB
  8
4
 10
4200.0
 20
5900.0
 30
0.0
 11
4200.0
 21
5900.0
 31
0.0
  0
LINE
  5
31B
  8
1
 10
962.48276143684973
 20
2414.074464119873
 30
0.0
 11
947.04203933919882
 21
2414.0744641198721
 31
0.0
  0
DIMENSION
  5
334
  8
3
  2
*D20
 10
678.48276143684961
 20
2688.0911329417372
 30
0.0
 11
1176.9866199178571
 21
2738.0911329417372
 31
0.0
 12
151.4069979769483
 22
0.0
 32
0.0
 70
     0
 13
1675.490478398865
 23
2082.0744641198721
 33
0.0
 14
678.48276143684961
 24
1762.074464119873
 34
0.0
1001
ACAD
1000
DSTYLE
1002
{
1070
   288
1070
     1
1070
   172
1070
     1
1070
    40
1040
20.0
1070
   271
1070
     0
1070
     7
1000
_DOT
1070
   143
1040
0.039
1002
}
  0
LINE
  5
34C
  8
1
 10
2485.8796986894081
 20
1814.168111923301
 30
0.0
 11
2485.8796986894081
 21
1782.0744641198719
 31
0.0
  0
INSERT
  5
359
  8
1
  2
L-25-3
 10
3188.5991688333661
 20
2498.2771276054768
 30
0.0
 50
270.0
  0
INSERT
  5
35A
  8
1
  2
L-25-3
 10
3195.6770352038052
 20
2226.7939342638292
 30
0.0
  0
INSERT
  5
35C
  8
1
  2
L-25-3
 10
3055.0823621750151
 20
2502.3549939759159
 30
0.0
 50
180.0
  0
INSERT
  5
35D
  8
1
  2
L-25-3
 10
3195.6770352038052
 20
1997.3549939759159
 30
0.0
 41
-1.0
 50
180.0
  0
DIMENSION
  5
371
  8
3
  2
*D23
 10
1835.380196462085
 20
2417.0744641198721
 30
0.0
 11
1785.380196462085
 21
2264.5744641198721
 31
0.0
 12
151.4069979769483
 22
0.0
 32
0.0
 70
     0
 13
1710.860531076127
 23
2112.0744641198721
 33
0.0
 14
1406.4827614368489
 24
2417.0744641198721
 34
0.0
 50
90.0
1001
ACAD
1000
DSTYLE
1002
{
1070
   288
1070
     1
1070
   172
1070
     1
1070
    40
1040
20.0
1070
   271
1070
     0
1070
   143
1040
0.039
1002
}
  0
DIMENSION
  5
3B9
  8
3
  2
*D24
 10
1835.380196462085
 20
1592.0744641198719
 30
0.0
 11
1931.0944821763701
 21
1639.5744641198719
 31
0.0
 12
151.4069979769483
 22
0.0
 32
0.0
 70
     0
  1
(<>)
 13
1608.4827614368489
 23
1687.074464119873
 33
0.0
 14
1608.4827614368489
 24
1592.0744641198719
 34
0.0
 50
90.0
1001
ACAD
1000
DSTYLE
1002
{
1070
   288
1070
     1
1070
   172
1070
     1
1070
    75
1070
     1
1070
    40
1040
20.0
1070
   271
1070
     0
1070
     7
1000
_DOT
1070
   143
1040
0.039
1002
}
  0
ENDSEC
  0
EOF
