  0
SECTION
  2
HEADER
  9
$ACADVER
  1
AC1009
  9
$INSBASE
 10
0.0
 20
0.0
 30
0.0
  9
$EXTMIN
 10
0.0
 20
0.0
 30
0.0
  9
$EXTMAX
 10
4200.0
 20
5900.0
 30
0.0
  9
$LIMMIN
 10
0.0
 20
0.0
  9
$LIMMAX
 10
297.0
 20
210.0
  9
$ORTHOMODE
 70
     0
  9
$REGENMODE
 70
     1
  9
$FILLMODE
 70
     0
  9
$QTEXTMODE
 70
     0
  9
$MIRRTEXT
 70
     1
  9
$DRAGMODE
 70
     2
  9
$LTSCALE
 40
100.0
  9
$OSMODE
 70
    37
  9
$ATTMODE
 70
     1
  9
$TEXTSIZE
 40
180.0
  9
$TRACEWID
 40
0.05
  9
$TEXTSTYLE
  7
STANDARD
  9
$CLAYER
  8
3
  9
$CELTYPE
  6
BYLAYER
  9
$CECOLOR
 62
   256
  9
$DIMSCALE
 40
20.0
  9
$DIMASZ
 40
2.0
  9
$DIMEXO
 40
0.5
  9
$DIMDLI
 40
10.0
  9
$DIMRND
 40
0.0
  9
$DIMDLE
 40
0.0
  9
$DIMEXE
 40
1.0
  9
$DIMTP
 40
1.0
  9
$DIMTM
 40
1.0
  9
$DIMTXT
 40
3.0
  9
$DIMCEN
 40
0.0
  9
$DIMTSZ
 40
0.0
  9
$DIMTOL
 70
     0
  9
$DIMLIM
 70
     0
  9
$DIMTIH
 70
     0
  9
$DIMTOH
 70
     0
  9
$DIMSE1
 70
     0
  9
$DIMSE2
 70
     0
  9
$DIMTAD
 70
     1
  9
$DIMZIN
 70
     8
  9
$DIMBLK
  1

  9
$DIMASO
 70
     1
  9
$DIMSHO
 70
     1
  9
$DIMPOST
  1

  9
$DIMAPOST
  1

  9
$DIMALT
 70
     0
  9
$DIMALTD
 70
     2
  9
$DIMALTF
 40
0.039
  9
$DIMLFAC
 40
1.0
  9
$DIMTOFL
 70
     1
  9
$DIMTVP
 40
0.0
  9
$DIMTIX
 70
     0
  9
$DIMSOXD
 70
     0
  9
$DIMSAH
 70
     1
  9
$DIMBLK1
  1
OPEN
  9
$DIMBLK2
  1
OPEN
  9
$DIMSTYLE
  2
IGA
  9
$DIMCLRD
 70
     0
  9
$DIMCLRE
 70
     0
  9
$DIMCLRT
 70
     0
  9
$DIMTFAC
 40
10.0
  9
$DIMGAP
 40
1.0
  9
$LUNITS
 70
     2
  9
$LUPREC
 70
     3
  9
$SKETCHINC
 40
0.1
  9
$FILLETRAD
 40
50.0
  9
$AUNITS
 70
     0
  9
$AUPREC
 70
     0
  9
$MENU
  1
acad
  9
$ELEVATION
 40
0.0
  9
$PELEVATION
 40
0.0
  9
$THICKNESS
 40
0.0
  9
$LIMCHECK
 70
     0
  9
$BLIPMODE
 70
     0
  9
$CHAMFERA
 40
0.5
  9
$CHAMFERB
 40
0.5
  9
$SKPOLY
 70
     0
  9
$TDCREATE
 40
2451019.6041708328
  9
$TDUPDATE
 40
2454953.7538377079
  9
$TDINDWG
 40
0.021819919
  9
$TDUSRTIMER
 40
0.021819919
  9
$USRTIMER
 70
     1
  9
$ANGBASE
 50
0.0
  9
$ANGDIR
 70
     0
  9
$PDMODE
 70
     0
  9
$PDSIZE
 40
0.0
  9
$PLINEWID
 40
0.0
  9
$COORDS
 70
     1
  9
$SPLFRAME
 70
     0
  9
$SPLINETYPE
 70
     6
  9
$SPLINESEGS
 70
     8
  9
$ATTDIA
 70
     0
  9
$ATTREQ
 70
     1
  9
$HANDLING
 70
 10241
  9
$HANDSEED
  5
8594
  9
$SURFTAB1
 70
     6
  9
$SURFTAB2
 70
     6
  9
$SURFTYPE
 70
     6
  9
$SURFU
 70
     6
  9
$SURFV
 70
     6
  9
$UCSNAME
  2

  9
$UCSORG
 10
0.0
 20
0.0
 30
0.0
  9
$UCSXDIR
 10
1.0
 20
0.0
 30
0.0
  9
$UCSYDIR
 10
0.0
 20
1.0
 30
0.0
  9
$PUCSNAME
  2

  9
$PUCSORG
 10
0.0
 20
0.0
 30
0.0
  9
$PUCSXDIR
 10
1.0
 20
0.0
 30
0.0
  9
$PUCSYDIR
 10
0.0
 20
1.0
 30
0.0
  9
$USERI1
 70
     0
  9
$USERI2
 70
     0
  9
$USERI3
 70
     0
  9
$USERI4
 70
     0
  9
$USERI5
 70
     0
  9
$USERR1
 40
0.0
  9
$USERR2
 40
0.0
  9
$USERR3
 40
0.0
  9
$USERR4
 40
0.0
  9
$USERR5
 40
0.0
  9
$WORLDVIEW
 70
     1
  9
$SHADEDGE
 70
     3
  9
$SHADEDIF
 70
    70
  9
$TILEMODE
 70
     1
  9
$MAXACTVP
 70
    16
  9
$PLIMCHECK
 70
     0
  9
$PEXTMIN
 10
1.0000000000000000E+020
 20
1.0000000000000000E+020
 30
1.0000000000000000E+020
  9
$PEXTMAX
 10
-1.0000000000000000E+020
 20
-1.0000000000000000E+020
 30
-1.0000000000000000E+020
  9
$PLIMMIN
 10
0.0
 20
0.0
  9
$PLIMMAX
 10
12.0
 20
9.0
  9
$UNITMODE
 70
     0
  9
$VISRETAIN
 70
     0
  9
$PLINEGEN
 70
     0
  9
$PSLTSCALE
 70
     1
  0
ENDSEC
  0
SECTION
  2
TABLES
  0
TABLE
  2
VPORT
 70
     2
  0
VPORT
  2
*ACTIVE
 70
     0
 10
0.0
 20
0.0
 11
1.0
 21
1.0
 12
7073.2199177027342
 22
2950.0000137370062
 13
0.0
 23
0.0
 14
10.0
 24
10.0
 15
10.0
 25
10.0
 16
0.0
 26
0.0
 36
1.0
 17
0.0
 27
0.0
 37
0.0
 40
5945.22976603387
 41
3.1666666666666661
 42
50.0
 43
0.0
 44
0.0
 50
0.0
 51
0.0
 71
     0
 72
   100
 73
     1
 74
     0
 75
     0
 76
     0
 77
     0
 78
     0
  0
ENDTAB
  0
TABLE
  2
LTYPE
 70
     2
  0
LTYPE
  2
CONTINUOUS
 70
     0
  3
Solid line
 72
    65
 73
     0
 40
0.0
  0
LTYPE
  2
CENTER
 70
     0
  3
____ _ ____ _ ____ _ ____ _ ____ _ ____ _ ____ 
 72
    65
 73
     4
 40
2.0
 49
1.25
 49
-0.25
 49
0.25
 49
-0.25
  0
ENDTAB
  0
TABLE
  2
LAYER
 70
     6
  0
LAYER
  2
0
 70
     0
 62
     7
  6
CONTINUOUS
  0
LAYER
  2
3
 70
     0
 62
     2
  6
CONTINUOUS
  0
LAYER
  2
2
 70
     0
 62
     3
  6
CENTER
  0
LAYER
  2
1
 70
     0
 62
     4
  6
CONTINUOUS
  0
LAYER
  2
4
 70
     0
 62
     7
  6
CONTINUOUS
  0
LAYER
  2
DEFPOINTS
 70
     0
 62
     7
  6
CONTINUOUS
  0
ENDTAB
  0
TABLE
  2
STYLE
 70
     1
  0
STYLE
  2
STANDARD
 70
     0
 40
0.0
 41
1.0
 50
0.0
 71
     0
 42
180.0
  3
simplex.shx
  4
extfont.shx
  0
ENDTAB
  0
TABLE
  2
VIEW
 70
     0
  0
ENDTAB
  0
TABLE
  2
UCS
 70
     0
  0
ENDTAB
  0
TABLE
  2
APPID
 70
     1
  0
APPID
  2
ACAD
 70
     0
  0
ENDTAB
  0
TABLE
  2
DIMSTYLE
 70
     1
  0
DIMSTYLE
  2
IGA
 70
     0
  3

  4

  5

  6
OPEN
  7
OPEN
 40
2.0
 41
2.0
 42
0.5
 43
10.0
 44
1.0
 45
0.0
 46
0.0
 47
1.0
 48
1.0
140
3.0
141
0.0
142
0.0
143
0.03937
144
1.0
145
0.0
146
10.0
147
1.0
 71
     0
 72
     0
 73
     0
 74
     0
 75
     0
 76
     0
 77
     1
 78
     8
170
     0
171
     2
172
     0
173
     1
174
     0
175
     0
176
     0
177
     0
178
     0
  0
ENDTAB
  0
ENDSEC
  0
SECTION
  2
BLOCKS
  0
BLOCK
  8
0
  2
$MODEL_SPACE
 70
     0
 10
0.0
 20
0.0
 30
0.0
  3
$MODEL_SPACE
  1

  0
ENDBLK
  5
1B
  8
0
  0
BLOCK
 67
     1
  8
0
  2
$PAPER_SPACE
 70
     0
 10
0.0
 20
0.0
 30
0.0
  3
$PAPER_SPACE
  1

  0
ENDBLK
  5
18
 67
     1
  8
0
  0
BLOCK
  8
0
  2
_OPEN
 70
     0
 10
0.0
 20
0.0
 30
0.0
  3
_OPEN
  1

  0
LINE
  5
7A69
  8
0
  6
BYBLOCK
 62
     0
 10
-1.0
 20
0.1666666666666666
 30
0.0
 11
0.0
 21
0.0
 31
0.0
  0
LINE
  5
7A6A
  8
0
  6
BYBLOCK
 62
     0
 10
0.0
 20
0.0
 30
0.0
 11
-1.0
 21
-0.1666666666666666
 31
0.0
  0
LINE
  5
7A6B
  8
0
  6
BYBLOCK
 62
     0
 10
0.0
 20
0.0
 30
0.0
 11
-1.0
 21
0.0
 31
0.0
  0
ENDBLK
  5
7A6D
  8
0
  0
BLOCK
  8
0
  2
*D1
 70
     1
 10
0.0
 20
0.0
 30
0.0
  3
*D1
  1

  0
LINE
  5
8497
  8
3
 62
     0
 10
1730.882746919393
 20
2421.2478494034149
 30
0.0
 11
1730.882746919393
 21
2639.3841947199348
 31
0.0
  0
LINE
  5
8498
  8
3
 62
     0
 10
710.88274691939284
 20
1670.253032090844
 30
0.0
 11
710.88274691939296
 21
2639.3841947199348
 31
0.0
  0
LINE
  5
8499
  8
3
 62
     0
 10
1690.882746919393
 20
2619.3841947199362
 30
0.0
 11
750.88274691939296
 21
2619.3841947199362
 31
0.0
  0
INSERT
  5
849A
  8
3
 62
     0
  2
_OPEN
 10
1730.882746919393
 20
2619.3841947199362
 30
0.0
 41
40.0
 42
40.0
 43
40.0
  0
INSERT
  5
849B
  8
3
 62
     0
  2
_OPEN
 10
710.88274691939296
 20
2619.3841947199362
 30
0.0
 41
40.0
 42
40.0
 43
40.0
 50
180.0
  0
TEXT
  8
3
  40
60
  5
8581
  62
0
  72
0
  71
0
 10
1100.88
 20
2563.18
 30
0.000000
  1
1020
  0
POINT
  5
849D
  8
DEFPOINTS
 62
     0
 10
1730.882746919393
 20
2411.2478494034149
 30
0.0
  0
POINT
  5
849E
  8
DEFPOINTS
 62
     0
 10
710.88274691939284
 20
1660.2530320908429
 30
0.0
  0
POINT
  5
849F
  8
DEFPOINTS
 62
     0
 10
710.88274691939296
 20
2619.3841947199362
 30
0.0
  0
ENDBLK
  5
82BA
  8
0
  0
BLOCK
  8
0
  2
*D2
 70
     1
 10
0.0
 20
0.0
 30
0.0
  3
*D2
  1

  0
LINE
  5
84A0
  8
3
 62
     0
 10
710.88274691939284
 20
1405.253032090844
 30
0.0
 11
710.88274691939284
 21
1263.577699020592
 31
0.0
  0
LINE
  5
84A1
  8
3
 62
     0
 10
1425.882746919393
 20
1370.813262654726
 30
0.0
 11
1425.882746919393
 21
1263.577699020592
 31
0.0
  0
LINE
  5
84A2
  8
3
 62
     0
 10
750.88274691939296
 20
1283.5776990205909
 30
0.0
 11
1385.882746919393
 21
1283.5776990205909
 31
0.0
  0
INSERT
  5
84A3
  8
3
 62
     0
  2
_OPEN
 10
710.88274691939284
 20
1283.5776990205909
 30
0.0
 41
40.0
 42
40.0
 43
40.0
 50
180.0
  0
INSERT
  5
84A4
  8
3
 62
     0
  2
_OPEN
 10
1425.882746919393
 20
1283.5776990205909
 30
0.0
 41
40.0
 42
40.0
 43
40.0
  0
TEXT
  8
3
  40
60
  5
8582
  62
0
  72
0
  71
0
 10
948.383
 20
1227.38
 30
0.000000
  1
715
  0
POINT
  5
84A6
  8
DEFPOINTS
 62
     0
 10
710.88274691939284
 20
1415.253032090844
 30
0.0
  0
POINT
  5
84A7
  8
DEFPOINTS
 62
     0
 10
1425.882746919393
 20
1380.813262654726
 30
0.0
  0
POINT
  5
84A8
  8
DEFPOINTS
 62
     0
 10
1425.882746919393
 20
1283.5776990205909
 30
0.0
  0
ENDBLK
  5
80BE
  8
0
  0
BLOCK
  8
0
  2
*D3
 70
     1
 10
0.0
 20
0.0
 30
0.0
  3
*D3
  1

  0
LINE
  5
84A9
  8
3
 62
     0
 10
1425.882746919393
 20
2432.792884860155
 30
0.0
 11
1425.882746919393
 21
2514.9063490632702
 31
0.0
  0
LINE
  5
84AA
  8
3
 62
     0
 10
1083.875029957378
 20
2000.253032090844
 30
0.0
 11
1083.875029957378
 21
2514.9063490632702
 31
0.0
  0
LINE
  5
84AB
  8
3
 62
     0
 10
1385.882746919393
 20
2494.9063490632702
 30
0.0
 11
1123.875029957378
 21
2494.9063490632702
 31
0.0
  0
INSERT
  5
84AC
  8
3
 62
     0
  2
_OPEN
 10
1425.882746919393
 20
2494.9063490632702
 30
0.0
 41
40.0
 42
40.0
 43
40.0
  0
INSERT
  5
84AD
  8
3
 62
     0
  2
_OPEN
 10
1083.875029957378
 20
2494.9063490632702
 30
0.0
 41
40.0
 42
40.0
 43
40.0
 50
180.0
  0
TEXT
  8
3
  40
60
  5
8583
  62
0
  72
0
  71
0
 10
1134.88
 20
2438.71
 30
0.000000
  1
342
  0
POINT
  5
84AF
  8
DEFPOINTS
 62
     0
 10
1425.882746919393
 20
2422.792884860155
 30
0.0
  0
POINT
  5
84B0
  8
DEFPOINTS
 62
     0
 10
1083.875029957378
 20
1990.2530320908429
 30
0.0
  0
POINT
  5
84B1
  8
DEFPOINTS
 62
     0
 10
1083.875029957378
 20
2494.9063490632702
 30
0.0
  0
ENDBLK
  5
80E1
  8
0
  0
BLOCK
  8
0
  2
*D4
 70
     1
 10
0.0
 20
0.0
 30
0.0
  3
*D4
  1

  0
LINE
  5
84B2
  8
3
 62
     0
 10
1753.2605165586699
 20
1960.2530320908429
 30
0.0
 11
1967.8413138123431
 21
1960.2530320908429
 31
0.0
  0
LINE
  5
84B3
  8
3
 62
     0
 10
1650.882746919393
 20
1585.253032090844
 30
0.0
 11
1967.8413138123431
 21
1585.253032090844
 31
0.0
  0
LINE
  5
84B4
  8
3
 62
     0
 10
1947.8413138123431
 20
1920.253032090844
 30
0.0
 11
1947.8413138123431
 21
1625.253032090844
 31
0.0
  0
INSERT
  5
84B5
  8
3
 62
     0
  2
_OPEN
 10
1947.8413138123431
 20
1960.2530320908429
 30
0.0
 41
40.0
 42
40.0
 43
40.0
 50
90.0
  0
INSERT
  5
84B6
  8
3
 62
     0
  2
_OPEN
 10
1947.8413138123431
 20
1585.253032090844
 30
0.0
 41
40.0
 42
40.0
 43
40.0
 50
270.0
  0
TEXT
  8
3
  40
60
  5
8584
  62
0
  72
0
  71
0
 10
1777.84
 20
1666.55
 30
0.000000
  1
375
  0
POINT
  5
84B8
  8
DEFPOINTS
 62
     0
 10
1743.2605165586699
 20
1960.2530320908429
 30
0.0
  0
POINT
  5
84B9
  8
DEFPOINTS
 62
     0
 10
1640.882746919393
 20
1585.253032090844
 30
0.0
  0
POINT
  5
84BA
  8
DEFPOINTS
 62
     0
 10
1947.8413138123431
 20
1585.253032090844
 30
0.0
  0
ENDBLK
  5
8102
  8
0
  0
BLOCK
  8
0
  2
*D5
 70
     1
 10
0.0
 20
0.0
 30
0.0
  3
*D5
  1

  0
LINE
  5
84BB
  8
3
 62
     0
 10
1650.882746919393
 20
1490.2530320908429
 30
0.0
 11
1967.8413138123431
 21
1490.2530320908429
 31
0.0
  0
LINE
  5
84BC
  8
3
 62
     0
 10
1650.882746919393
 20
1415.253032090844
 30
0.0
 11
1967.8413138123431
 21
1415.253032090844
 31
0.0
  0
LINE
  5
84BD
  8
3
 62
     0
 10
1947.8413138123431
 20
1530.253032090844
 30
0.0
 11
1947.8413138123431
 21
1570.253032090844
 31
0.0
  0
LINE
  5
84BE
  8
3
 62
     0
 10
1947.8413138123431
 20
1375.253032090844
 30
0.0
 11
1947.8413138123431
 21
1198.110174947986
 31
0.0
  0
LINE
  5
84BF
  8
3
 62
     0
 10
1947.8413138123431
 20
1490.2530320908429
 30
0.0
 11
1947.8413138123431
 21
1415.253032090844
 31
0.0
  0
INSERT
  5
84C0
  8
3
 62
     0
  2
_DOT
 10
1947.8413138123431
 20
1490.2530320908429
 30
0.0
 41
40.0
 42
40.0
 43
40.0
 50
270.0
  0
INSERT
  5
84C1
  8
3
 62
     0
  2
_OPEN
 10
1947.8413138123431
 20
1415.253032090844
 30
0.0
 41
40.0
 42
40.0
 43
40.0
 50
90.0
  0
TEXT
  8
3
  40
60
  5
8585
  62
0
  72
0
  71
0
 10
1777.84
 20
1160.48
 30
0.000000
  1
75
  0
POINT
  5
84C3
  8
DEFPOINTS
 62
     0
 10
1640.882746919393
 20
1490.2530320908429
 30
0.0
  0
POINT
  5
84C4
  8
DEFPOINTS
 62
     0
 10
1640.882746919393
 20
1415.253032090844
 30
0.0
  0
POINT
  5
84C5
  8
DEFPOINTS
 62
     0
 10
1947.8413138123431
 20
1415.253032090844
 30
0.0
  0
ENDBLK
  5
81FB
  8
0
  0
BLOCK
  8
0
  2
*D6
 70
     1
 10
0.0
 20
0.0
 30
0.0
  3
*D6
  1

  0
LINE
  5
824E
  8
0
  6
BYBLOCK
 62
     0
 10
1262.8290713251149
 20
1429.813262654726
 30
0.0
 11
1262.8290713251149
 21
1322.5776990205909
 31
0.0
  0
LINE
  5
824F
  8
0
  6
BYBLOCK
 62
     0
 10
1477.8290713251149
 20
1464.253032090844
 30
0.0
 11
1477.8290713251149
 21
1322.5776990205909
 31
0.0
  0
LINE
  5
8250
  8
0
  6
BYBLOCK
 62
     0
 10
1302.8290713251149
 20
1342.5776990205909
 30
0.0
 11
1437.8290713251149
 21
1342.5776990205909
 31
0.0
  0
TEXT
  5
8251
  8
3
 62
     0
 10
1298.900499896544
 20
1367.2914052403371
 30
0.0
 40
60.0
  1
215
  0
INSERT
  5
8252
  8
0
  6
BYBLOCK
 62
     0
  2
_OPEN
 10
1262.8290713251149
 20
1342.5776990205909
 30
0.0
 41
40.0
 42
40.0
 43
40.0
 50
180.0
  0
INSERT
  5
8253
  8
0
  6
BYBLOCK
 62
     0
  2
_OPEN
 10
1477.8290713251149
 20
1342.5776990205909
 30
0.0
 41
40.0
 42
40.0
 43
40.0
  0
POINT
  5
8254
  8
DEFPOINTS
  6
BYBLOCK
 62
     0
 10
1262.8290713251149
 20
1439.813262654726
 30
0.0
  0
POINT
  5
8255
  8
DEFPOINTS
  6
BYBLOCK
 62
     0
 10
1477.8290713251149
 20
1474.253032090844
 30
0.0
  0
POINT
  5
8256
  8
DEFPOINTS
  6
BYBLOCK
 62
     0
 10
1477.8290713251149
 20
1342.5776990205909
 30
0.0
  0
ENDBLK
  5
8257
  8
0
  0
BLOCK
  8
0
  2
*D7
 70
     1
 10
0.0
 20
0.0
 30
0.0
  3
*D7
  1

  0
LINE
  5
84C6
  8
3
 62
     0
 10
1740.882746919393
 20
2384.253032090844
 30
0.0
 11
1967.8413138123431
 21
2384.253032090844
 31
0.0
  0
LINE
  5
84C7
  8
3
 62
     0
 10
1753.2605165586699
 20
1960.2530320908429
 30
0.0
 11
1967.8413138123431
 21
1960.2530320908429
 31
0.0
  0
LINE
  5
84C8
  8
3
 62
     0
 10
1947.8413138123431
 20
2344.253032090844
 30
0.0
 11
1947.8413138123431
 21
2000.253032090844
 31
0.0
  0
INSERT
  5
84C9
  8
3
 62
     0
  2
_OPEN
 10
1947.8413138123431
 20
2384.253032090844
 30
0.0
 41
40.0
 42
40.0
 43
40.0
 50
90.0
  0
INSERT
  5
84CA
  8
3
 62
     0
  2
_OPEN
 10
1947.8413138123431
 20
1960.2530320908429
 30
0.0
 41
40.0
 42
40.0
 43
40.0
 50
270.0
  0
TEXT
  8
3
  40
60
  5
8586
  62
0
  72
0
  71
0
 10
1777.84
 20
2066.05
 30
0.000000
  1
424
  0
POINT
  5
84CC
  8
DEFPOINTS
 62
     0
 10
1730.882746919393
 20
2384.253032090844
 30
0.0
  0
POINT
  5
84CD
  8
DEFPOINTS
 62
     0
 10
1743.2605165586699
 20
1960.2530320908429
 30
0.0
  0
POINT
  5
84CE
  8
DEFPOINTS
 62
     0
 10
1947.8413138123431
 20
1960.2530320908429
 30
0.0
  0
ENDBLK
  5
80F7
  8
0
  0
BLOCK
  8
0
  2
*D8
 70
     1
 10
0.0
 20
0.0
 30
0.0
  3
*D8
  1

  0
LINE
  5
84CF
  8
3
 62
     0
 10
1740.882746919393
 20
2384.253032090844
 30
0.0
 11
1874.8612890305731
 21
2384.253032090844
 31
0.0
  0
LINE
  5
84D0
  8
3
 62
     0
 10
1740.882746919393
 20
1972.253032090844
 30
0.0
 11
1874.8612890305731
 21
1972.253032090844
 31
0.0
  0
LINE
  5
84D1
  8
3
 62
     0
 10
1854.861289030574
 20
2344.253032090844
 30
0.0
 11
1854.861289030574
 21
2012.253032090844
 31
0.0
  0
INSERT
  5
84D2
  8
3
 62
     0
  2
_OPEN
 10
1854.861289030574
 20
2384.253032090844
 30
0.0
 41
40.0
 42
40.0
 43
40.0
 50
90.0
  0
INSERT
  5
84D3
  8
3
 62
     0
  2
_OPEN
 10
1854.861289030574
 20
1972.253032090844
 30
0.0
 41
40.0
 42
40.0
 43
40.0
 50
270.0
  0
TEXT
  8
3
  40
60
  5
8587
  62
0
  72
0
  71
0
 10
1684.86
 20
2072.05
 30
0.000000
  1
412
  0
POINT
  5
84D5
  8
DEFPOINTS
 62
     0
 10
1730.882746919393
 20
2384.253032090844
 30
0.0
  0
POINT
  5
84D6
  8
DEFPOINTS
 62
     0
 10
1730.882746919393
 20
1972.253032090844
 30
0.0
  0
POINT
  5
84D7
  8
DEFPOINTS
 62
     0
 10
1854.861289030574
 20
1972.253032090844
 30
0.0
  0
ENDBLK
  5
80EC
  8
0
  0
BLOCK
  8
0
  2
*D9
 70
     1
 10
0.0
 20
0.0
 30
0.0
  3
*D9
  1

  0
LINE
  5
84E2
  8
3
 62
     0
 10
1730.882746919393
 20
2421.2478494034149
 30
0.0
 11
1730.882746919393
 21
2514.9063490632702
 31
0.0
  0
LINE
  5
84E3
  8
3
 62
     0
 10
1425.882746919393
 20
2432.792884860155
 30
0.0
 11
1425.882746919393
 21
2514.9063490632702
 31
0.0
  0
LINE
  5
84E4
  8
3
 62
     0
 10
1690.882746919393
 20
2494.9063490632702
 30
0.0
 11
1465.882746919393
 21
2494.9063490632702
 31
0.0
  0
INSERT
  5
84E5
  8
3
 62
     0
  2
_OPEN
 10
1730.882746919393
 20
2494.9063490632702
 30
0.0
 41
40.0
 42
40.0
 43
40.0
  0
INSERT
  5
84E6
  8
3
 62
     0
  2
_OPEN
 10
1425.882746919393
 20
2494.9063490632702
 30
0.0
 41
40.0
 42
40.0
 43
40.0
 50
180.0
  0
TEXT
  8
3
  40
60
  5
8588
  62
0
  72
0
  71
0
 10
1458.38
 20
2438.71
 30
0.000000
  1
305
  0
POINT
  5
84E8
  8
DEFPOINTS
 62
     0
 10
1730.882746919393
 20
2411.2478494034149
 30
0.0
  0
POINT
  5
84E9
  8
DEFPOINTS
 62
     0
 10
1425.882746919393
 20
2422.792884860155
 30
0.0
  0
POINT
  5
84EA
  8
DEFPOINTS
 62
     0
 10
1425.882746919393
 20
2494.9063490632702
 30
0.0
  0
ENDBLK
  5
80C9
  8
0
  0
BLOCK
  8
0
  2
*D10
 70
     1
 10
0.0
 20
0.0
 30
0.0
  3
*D10
  1

  0
LINE
  5
84F5
  8
3
 62
     0
 10
1210.882746919393
 20
4001.4380977589749
 30
0.0
 11
1210.882746919393
 21
4126.1885391676597
 31
0.0
  0
LINE
  5
84F6
  8
3
 62
     0
 10
710.88274691939284
 20
3561.438097758974
 30
0.0
 11
710.88274691939284
 21
4126.1885391676597
 31
0.0
  0
LINE
  5
84F7
  8
3
 62
     0
 10
1170.882746919392
 20
4106.1885391676597
 30
0.0
 11
750.88274691939296
 21
4106.1885391676597
 31
0.0
  0
INSERT
  5
84F8
  8
3
 62
     0
  2
_OPEN
 10
1210.882746919393
 20
4106.1885391676597
 30
0.0
 41
40.0
 42
40.0
 43
40.0
  0
INSERT
  5
84F9
  8
3
 62
     0
  2
_OPEN
 10
710.88274691939284
 20
4106.1885391676597
 30
0.0
 41
40.0
 42
40.0
 43
40.0
 50
180.0
  0
TEXT
  8
3
  40
60
  5
8589
  62
0
  72
0
  71
0
 10
840.883
 20
4049.99
 30
0.000000
  1
500
  0
POINT
  5
84FB
  8
DEFPOINTS
 62
     0
 10
1210.882746919393
 20
3991.4380977589749
 30
0.0
  0
POINT
  5
84FC
  8
DEFPOINTS
 62
     0
 10
710.88274691939284
 20
3551.4380977589731
 30
0.0
  0
POINT
  5
84FD
  8
DEFPOINTS
 62
     0
 10
710.88274691939284
 20
4106.1885391676597
 30
0.0
  0
ENDBLK
  5
8127
  8
0
  0
BLOCK
  8
0
  2
*D11
 70
     1
 10
0.0
 20
0.0
 30
0.0
  3
*D11
  1

  0
LINE
  5
84FE
  8
3
 62
     0
 10
710.88274691939284
 20
3121.438097758974
 30
0.0
 11
710.88274691939284
 21
2893.2629435347449
 31
0.0
  0
LINE
  5
84FF
  8
3
 62
     0
 10
1640.882746919393
 20
3121.438097758974
 30
0.0
 11
1640.882746919393
 21
2893.2629435347449
 31
0.0
  0
LINE
  5
8500
  8
3
 62
     0
 10
750.88274691939296
 20
2913.2629435347449
 30
0.0
 11
1600.882746919392
 21
2913.2629435347449
 31
0.0
  0
INSERT
  5
8501
  8
3
 62
     0
  2
_OPEN
 10
710.88274691939284
 20
2913.2629435347449
 30
0.0
 41
40.0
 42
40.0
 43
40.0
 50
180.0
  0
INSERT
  5
8502
  8
3
 62
     0
  2
_OPEN
 10
1640.882746919393
 20
2913.2629435347449
 30
0.0
 41
40.0
 42
40.0
 43
40.0
  0
TEXT
  8
3
  40
60
  5
858A
  62
0
  72
0
  71
0
 10
1055.88
 20
2857.06
 30
0.000000
  1
930
  0
POINT
  5
8504
  8
DEFPOINTS
 62
     0
 10
710.88274691939284
 20
3131.4380977589731
 30
0.0
  0
POINT
  5
8505
  8
DEFPOINTS
 62
     0
 10
1640.882746919393
 20
3131.438097758974
 30
0.0
  0
POINT
  5
8506
  8
DEFPOINTS
 62
     0
 10
1640.882746919393
 20
2913.2629435347449
 30
0.0
  0
ENDBLK
  5
80A8
  8
0
  0
BLOCK
  8
0
  2
*D12
 70
     1
 10
0.0
 20
0.0
 30
0.0
  3
*D12
  1

  0
LINE
  5
8507
  8
3
 62
     0
 10
700.88274691939296
 20
3131.4380977589731
 30
0.0
 11
615.5388087590253
 21
3131.4380977589731
 31
0.0
  0
LINE
  5
8508
  8
3
 62
     0
 10
700.88274691939296
 20
3551.4380977589731
 30
0.0
 11
615.53880875902541
 21
3551.4380977589731
 31
0.0
  0
LINE
  5
8509
  8
3
 62
     0
 10
635.53880875902519
 20
3171.438097758974
 30
0.0
 11
635.53880875902541
 21
3511.438097758974
 31
0.0
  0
INSERT
  5
850A
  8
3
 62
     0
  2
_OPEN
 10
635.53880875902519
 20
3131.4380977589731
 30
0.0
 41
40.0
 42
40.0
 43
40.0
 50
270.0
  0
INSERT
  5
850B
  8
3
 62
     0
  2
_OPEN
 10
635.53880875902541
 20
3551.4380977589731
 30
0.0
 41
40.0
 42
40.0
 43
40.0
 50
90.0
  0
TEXT
  8
3
  40
60
  5
858B
  62
0
  72
0
  71
0
 10
465.539
 20
3235.24
 30
0.000000
  1
420
  0
POINT
  5
850D
  8
DEFPOINTS
 62
     0
 10
710.88274691939284
 20
3131.4380977589731
 30
0.0
  0
POINT
  5
850E
  8
DEFPOINTS
 62
     0
 10
710.88274691939284
 20
3551.4380977589731
 30
0.0
  0
POINT
  5
850F
  8
DEFPOINTS
 62
     0
 10
635.53880875902541
 20
3551.4380977589731
 30
0.0
  0
ENDBLK
  5
8132
  8
0
  0
BLOCK
  8
0
  2
*D13
 70
     1
 10
0.0
 20
0.0
 30
0.0
  3
*D13
  1

  0
LINE
  5
8510
  8
3
 62
     0
 10
1650.882746919393
 20
3131.438097758974
 30
0.0
 11
1947.0252220614191
 21
3131.438097758974
 31
0.0
  0
LINE
  5
8511
  8
3
 62
     0
 10
1650.882746919393
 20
3991.4380977589749
 30
0.0
 11
1947.02522206142
 21
3991.4380977589749
 31
0.0
  0
LINE
  5
8512
  8
3
 62
     0
 10
1927.02522206142
 20
3171.438097758974
 30
0.0
 11
1927.02522206142
 21
3951.4380977589749
 31
0.0
  0
INSERT
  5
8513
  8
3
 62
     0
  2
_OPEN
 10
1927.02522206142
 20
3131.438097758974
 30
0.0
 41
40.0
 42
40.0
 43
40.0
 50
270.0
  0
INSERT
  5
8514
  8
3
 62
     0
  2
_OPEN
 10
1927.02522206142
 20
3991.4380977589749
 30
0.0
 41
40.0
 42
40.0
 43
40.0
 50
90.0
  0
TEXT
  8
3
  40
60
  5
858C
  62
0
  72
0
  71
0
 10
1757.03
 20
3455.24
 30
0.000000
  1
860
  0
POINT
  5
8516
  8
DEFPOINTS
 62
     0
 10
1640.882746919393
 20
3131.438097758974
 30
0.0
  0
POINT
  5
8517
  8
DEFPOINTS
 62
     0
 10
1640.882746919393
 20
3991.4380977589749
 30
0.0
  0
POINT
  5
8518
  8
DEFPOINTS
 62
     0
 10
1927.02522206142
 20
3991.4380977589749
 30
0.0
  0
ENDBLK
  5
8148
  8
0
  0
BLOCK
  8
0
  2
*D14
 70
     1
 10
0.0
 20
0.0
 30
0.0
  3
*D14
  1

  0
LINE
  5
8519
  8
3
 62
     0
 10
1640.882746919393
 20
4001.4380977589749
 30
0.0
 11
1640.882746919393
 21
4126.1885391676597
 31
0.0
  0
LINE
  5
851A
  8
3
 62
     0
 10
1210.882746919393
 20
4001.4380977589749
 30
0.0
 11
1210.882746919393
 21
4126.1885391676597
 31
0.0
  0
LINE
  5
851B
  8
3
 62
     0
 10
1600.882746919392
 20
4106.1885391676597
 30
0.0
 11
1250.882746919393
 21
4106.1885391676597
 31
0.0
  0
INSERT
  5
851C
  8
3
 62
     0
  2
_OPEN
 10
1640.882746919393
 20
4106.1885391676597
 30
0.0
 41
40.0
 42
40.0
 43
40.0
  0
INSERT
  5
851D
  8
3
 62
     0
  2
_OPEN
 10
1210.882746919393
 20
4106.1885391676597
 30
0.0
 41
40.0
 42
40.0
 43
40.0
 50
180.0
  0
TEXT
  8
3
  40
60
  5
858D
  62
0
  72
0
  71
0
 10
1305.88
 20
4049.99
 30
0.000000
  1
430
  0
POINT
  5
851F
  8
DEFPOINTS
 62
     0
 10
1640.882746919393
 20
3991.4380977589749
 30
0.0
  0
POINT
  5
8520
  8
DEFPOINTS
 62
     0
 10
1210.882746919393
 20
3991.4380977589749
 30
0.0
  0
POINT
  5
8521
  8
DEFPOINTS
 62
     0
 10
1210.882746919393
 20
4106.1885391676597
 30
0.0
  0
ENDBLK
  5
813D
  8
0
  0
BLOCK
  8
0
  2
*D15
 70
     1
 10
0.0
 20
0.0
 30
0.0
  3
*D15
  1

  0
LINE
  5
83F3
  8
0
  6
BYBLOCK
 62
     0
 10
3144.633006554624
 20
2593.7899738073252
 30
0.0
 11
3144.633006554624
 21
2654.9311444793561
 31
0.0
  0
LINE
  5
83F4
  8
0
  6
BYBLOCK
 62
     0
 10
3297.6330065546231
 20
1955.229979157657
 30
0.0
 11
3297.6330065546231
 21
2654.9311444793561
 31
0.0
  0
LINE
  5
83F5
  8
0
  6
BYBLOCK
 62
     0
 10
3184.633006554624
 20
2634.9311444793561
 30
0.0
 11
3257.6330065546231
 21
2634.9311444793561
 31
0.0
  0
TEXT
  5
83F6
  8
3
 62
     0
 10
3149.704435126052
 20
2684.9311444793561
 30
0.0
 40
60.0
  1
153
  0
INSERT
  5
83F7
  8
0
  6
BYBLOCK
 62
     0
  2
_OPEN
 10
3144.633006554624
 20
2634.9311444793561
 30
0.0
 41
40.0
 42
40.0
 43
40.0
 50
180.0
  0
INSERT
  5
83F8
  8
0
  6
BYBLOCK
 62
     0
  2
_OPEN
 10
3297.6330065546231
 20
2634.9311444793561
 30
0.0
 41
40.0
 42
40.0
 43
40.0
  0
POINT
  5
83F9
  8
DEFPOINTS
  6
BYBLOCK
 62
     0
 10
3144.633006554624
 20
2583.7899738073238
 30
0.0
  0
POINT
  5
83FA
  8
DEFPOINTS
  6
BYBLOCK
 62
     0
 10
3297.6330065546231
 20
1945.229979157657
 30
0.0
  0
POINT
  5
83FB
  8
DEFPOINTS
  6
BYBLOCK
 62
     0
 10
3297.6330065546231
 20
2634.9311444793561
 30
0.0
  0
ENDBLK
  5
83FC
  8
0
  0
BLOCK
  8
0
  2
*D16
 70
     1
 10
0.0
 20
0.0
 30
0.0
  3
*D16
  1

  0
LINE
  5
8522
  8
3
 62
     0
 10
2384.6330065546222
 20
2120.253032090844
 30
0.0
 11
2384.6330065546222
 21
2654.9311444793561
 31
0.0
  0
LINE
  5
8523
  8
3
 62
     0
 10
3144.633006554624
 20
2593.7899738073252
 30
0.0
 11
3144.633006554624
 21
2654.9311444793561
 31
0.0
  0
LINE
  5
8524
  8
3
 62
     0
 10
2424.6330065546231
 20
2634.9311444793561
 30
0.0
 11
3104.6330065546249
 21
2634.9311444793561
 31
0.0
  0
INSERT
  5
8525
  8
3
 62
     0
  2
_OPEN
 10
2384.6330065546222
 20
2634.9311444793561
 30
0.0
 41
40.0
 42
40.0
 43
40.0
 50
180.0
  0
INSERT
  5
8526
  8
3
 62
     0
  2
_OPEN
 10
3144.633006554624
 20
2634.9311444793561
 30
0.0
 41
40.0
 42
40.0
 43
40.0
  0
TEXT
  8
3
  40
60
  5
858E
  62
0
  72
0
  71
0
 10
2644.63
 20
2628.73
 30
0.000000
  1
MAX
  0
TEXT
  8
3
  40
60
  5
858F
  62
0
  72
0
  71
0
 10
2644.63
 20
2550.73
 30
0.000000
  1
830
  0
POINT
  5
8528
  8
DEFPOINTS
 62
     0
 10
2384.6330065546222
 20
2110.2530320908431
 30
0.0
  0
POINT
  5
8529
  8
DEFPOINTS
 62
     0
 10
3144.633006554624
 20
2583.7899738073238
 30
0.0
  0
POINT
  5
852A
  8
DEFPOINTS
 62
     0
 10
3144.633006554624
 20
2634.9311444793561
 30
0.0
  0
ENDBLK
  5
83C5
  8
0
  0
BLOCK
  8
0
  2
*D17
 70
     1
 10
0.0
 20
0.0
 30
0.0
  3
*D17
  1

  0
LINE
  5
852B
  8
3
 62
     0
 10
2479.6330065546222
 20
1405.253032090844
 30
0.0
 11
2479.6330065546222
 21
1257.8202185854641
 31
0.0
  0
LINE
  5
852C
  8
3
 62
     0
 10
3144.633006554624
 20
1370.813262654726
 30
0.0
 11
3144.633006554624
 21
1257.8202185854641
 31
0.0
  0
LINE
  5
852D
  8
3
 62
     0
 10
2519.6330065546222
 20
1277.820218585463
 30
0.0
 11
3104.6330065546249
 21
1277.820218585463
 31
0.0
  0
INSERT
  5
852E
  8
3
 62
     0
  2
_OPEN
 10
2479.6330065546222
 20
1277.820218585463
 30
0.0
 41
40.0
 42
40.0
 43
40.0
 50
180.0
  0
INSERT
  5
852F
  8
3
 62
     0
  2
_OPEN
 10
3144.633006554624
 20
1277.820218585463
 30
0.0
 41
40.0
 42
40.0
 43
40.0
  0
TEXT
  8
3
  40
60
  5
8590
  62
0
  72
0
  71
0
 10
2692.13
 20
1221.62
 30
0.000000
  1
665
  0
POINT
  5
8531
  8
DEFPOINTS
 62
     0
 10
2479.6330065546222
 20
1415.253032090844
 30
0.0
  0
POINT
  5
8532
  8
DEFPOINTS
 62
     0
 10
3144.633006554624
 20
1380.813262654726
 30
0.0
  0
POINT
  5
8533
  8
DEFPOINTS
 62
     0
 10
3144.633006554624
 20
1277.820218585463
 30
0.0
  0
ENDBLK
  5
815E
  8
0
  0
BLOCK
  8
0
  2
*D18
 70
     1
 10
0.0
 20
0.0
 30
0.0
  3
*D18
  1

  0
LINE
  5
8243
  8
0
  6
BYBLOCK
 62
     0
 10
3144.633006554624
 20
1429.813262654726
 30
0.0
 11
3144.633006554624
 21
1316.8202185854641
 31
0.0
  0
LINE
  5
8244
  8
0
  6
BYBLOCK
 62
     0
 10
3339.633006554624
 20
1464.253032090844
 30
0.0
 11
3339.633006554624
 21
1316.8202185854641
 31
0.0
  0
LINE
  5
8245
  8
0
  6
BYBLOCK
 62
     0
 10
3184.633006554624
 20
1336.820218585463
 30
0.0
 11
3299.633006554624
 21
1336.820218585463
 31
0.0
  0
TEXT
  5
8246
  8
3
 62
     0
 10
3170.7044351260529
 20
1359.5155443945041
 30
0.0
 40
60.0
  1
195
  0
INSERT
  5
8247
  8
0
  6
BYBLOCK
 62
     0
  2
_OPEN
 10
3144.633006554624
 20
1336.820218585463
 30
0.0
 41
40.0
 42
40.0
 43
40.0
 50
180.0
  0
INSERT
  5
8248
  8
0
  6
BYBLOCK
 62
     0
  2
_OPEN
 10
3339.633006554624
 20
1336.820218585463
 30
0.0
 41
40.0
 42
40.0
 43
40.0
  0
POINT
  5
8249
  8
DEFPOINTS
  6
BYBLOCK
 62
     0
 10
3144.633006554624
 20
1439.813262654726
 30
0.0
  0
POINT
  5
824A
  8
DEFPOINTS
  6
BYBLOCK
 62
     0
 10
3339.633006554624
 20
1474.2530320908429
 30
0.0
  0
POINT
  5
824B
  8
DEFPOINTS
  6
BYBLOCK
 62
     0
 10
3339.633006554624
 20
1336.820218585463
 30
0.0
  0
ENDBLK
  5
824C
  8
0
  0
BLOCK
  8
0
  2
*D19
 70
     1
 10
0.0
 20
0.0
 30
0.0
  3
*D19
  1

  0
LINE
  5
853E
  8
3
 62
     0
 10
3333.233006554623
 20
2160.253032090844
 30
0.0
 11
3460.4504846845848
 21
2160.253032090844
 31
0.0
  0
LINE
  5
853F
  8
3
 62
     0
 10
3333.233006554623
 20
1760.253032090844
 30
0.0
 11
3460.4504846845848
 21
1760.253032090844
 31
0.0
  0
LINE
  5
8540
  8
3
 62
     0
 10
3440.4504846845839
 20
2120.253032090844
 30
0.0
 11
3440.4504846845839
 21
1800.253032090844
 31
0.0
  0
INSERT
  5
8541
  8
3
 62
     0
  2
_OPEN
 10
3440.4504846845839
 20
2160.253032090844
 30
0.0
 41
40.0
 42
40.0
 43
40.0
 50
90.0
  0
INSERT
  5
8542
  8
3
 62
     0
  2
_OPEN
 10
3440.4504846845839
 20
1760.253032090844
 30
0.0
 41
40.0
 42
40.0
 43
40.0
 50
270.0
  0
TEXT
  8
3
  40
60
  5
8591
  62
0
  72
0
  71
0
 10
3270.45
 20
1854.05
 30
0.000000
  1
φ400
  0
POINT
  5
8544
  8
DEFPOINTS
 62
     0
 10
3323.233006554623
 20
2160.253032090844
 30
0.0
  0
POINT
  5
8545
  8
DEFPOINTS
 62
     0
 10
3323.233006554623
 20
1760.253032090844
 30
0.0
  0
POINT
  5
8546
  8
DEFPOINTS
 62
     0
 10
3440.4504846845839
 20
1760.253032090844
 30
0.0
  0
ENDBLK
  5
8241
  8
0
  0
BLOCK
  8
0
  2
*D20
 70
     1
 10
0.0
 20
0.0
 30
0.0
  3
*D20
  1

  0
LINE
  5
856C
  8
3
 62
     0
 10
2994.6330065546222
 20
2396.253032090844
 30
0.0
 11
2994.6330065546222
 21
2513.7979321986181
 31
0.0
  0
LINE
  5
856D
  8
3
 62
     0
 10
3294.633006554624
 20
2396.253032090844
 30
0.0
 11
3294.633006554624
 21
2513.7979321986181
 31
0.0
  0
LINE
  5
856E
  8
3
 62
     0
 10
3034.6330065546222
 20
2493.7979321986181
 30
0.0
 11
3254.633006554624
 21
2493.7979321986181
 31
0.0
  0
INSERT
  5
856F
  8
3
 62
     0
  2
_OPEN
 10
2994.6330065546222
 20
2493.7979321986181
 30
0.0
 41
40.0
 42
40.0
 43
40.0
 50
180.0
  0
INSERT
  5
8570
  8
3
 62
     0
  2
_OPEN
 10
3294.633006554624
 20
2493.7979321986181
 30
0.0
 41
40.0
 42
40.0
 43
40.0
  0
TEXT
  8
3
  40
60
  5
8592
  62
0
  72
0
  71
0
 10
3024.63
 20
2437.60
 30
0.000000
  1
300
  0
POINT
  5
8572
  8
DEFPOINTS
 62
     0
 10
2994.6330065546222
 20
2386.253032090844
 30
0.0
  0
POINT
  5
8573
  8
DEFPOINTS
 62
     0
 10
3294.633006554624
 20
2386.253032090844
 30
0.0
  0
POINT
  5
8574
  8
DEFPOINTS
 62
     0
 10
3294.633006554624
 20
2493.7979321986181
 30
0.0
  0
ENDBLK
  5
8181
  8
0
  0
BLOCK
  8
0
  2
_DOT
 70
     0
 10
0.0
 20
0.0
 30
0.0
  3
_DOT
  1

  0
LINE
  5
8263
  8
0
  6
BYBLOCK
 62
     0
 10
0.0
 20
0.0
 30
0.0
 11
-1.0
 21
-0.0000000000000284
 31
0.0
  0
POLYLINE
  5
8264
  8
0
  6
BYBLOCK
 62
     0
 66
     1
 10
0.0
 20
0.0
 30
0.0
 70
     1
 40
0.1666666666666666
 41
0.1666666666666666
  0
VERTEX
  5
8575
  8
0
  6
BYBLOCK
 62
     0
 10
-0.0833333333333286
 20
-0.0000000000000284
 30
0.0
 42
1.0
  0
VERTEX
  5
8576
  8
0
  6
BYBLOCK
 62
     0
 10
0.0833333333333286
 20
-0.0000000000000284
 30
0.0
 42
1.0
  0
SEQEND
  5
8577
  8
0
  6
BYBLOCK
 62
     0
  0
ENDBLK
  5
81E1
  8
0
  0
BLOCK
  8
0
  2
*D22
 70
     1
 10
0.0
 20
0.0
 30
0.0
  3
*D22
  1

  0
LINE
  5
8578
  8
3
 62
     0
 10
1740.882746919393
 20
2409.253032090844
 30
0.0
 11
2131.8086682977232
 21
2409.253032090844
 31
0.0
  0
LINE
  5
8579
  8
3
 62
     0
 10
1650.882746919393
 20
1415.253032090844
 30
0.0
 11
2131.8086682977232
 21
1415.253032090844
 31
0.0
  0
LINE
  5
857A
  8
3
 62
     0
 10
2111.8086682977232
 20
2369.253032090844
 30
0.0
 11
2111.8086682977232
 21
1455.253032090844
 31
0.0
  0
INSERT
  5
857B
  8
3
 62
     0
  2
_OPEN
 10
2111.8086682977232
 20
2409.253032090844
 30
0.0
 41
40.0
 42
40.0
 43
40.0
 50
90.0
  0
INSERT
  5
857C
  8
3
 62
     0
  2
_OPEN
 10
2111.8086682977232
 20
1415.253032090844
 30
0.0
 41
40.0
 42
40.0
 43
40.0
 50
270.0
  0
TEXT
  8
3
  40
60
  5
8593
  62
0
  72
0
  71
0
 10
1941.81
 20
1769.31
 30
0.000000
  1
994
  0
POINT
  5
857E
  8
DEFPOINTS
 62
     0
 10
1730.882746919393
 20
2409.253032090844
 30
0.0
  0
POINT
  5
857F
  8
DEFPOINTS
 62
     0
 10
1640.882746919393
 20
1415.253032090844
 30
0.0
  0
POINT
  5
8580
  8
DEFPOINTS
 62
     0
 10
2111.8086682977232
 20
1415.253032090844
 30
0.0
  0
ENDBLK
  5
842A
  8
0
  0
BLOCK
  8
0
  2
*D23
 70
     1
 10
0.0
 20
0.0
 30
0.0
  3
*D23
  1

  0
LINE
  5
8461
  8
0
  6
BYBLOCK
 62
     0
 10
1487.8290713251149
 20
1490.2530320908429
 30
0.0
 11
1804.787638218065
 21
1490.2530320908429
 31
0.0
  0
LINE
  5
8462
  8
0
  6
BYBLOCK
 62
     0
 10
1784.787638218065
 20
1625.253032090844
 30
0.0
 11
1784.787638218065
 21
1665.253032090844
 31
0.0
  0
LINE
  5
8463
  8
0
  6
BYBLOCK
 62
     0
 10
1784.787638218065
 20
1450.253032090844
 30
0.0
 11
1784.787638218065
 21
1410.253032090844
 31
0.0
  0
TEXT
  5
8464
  8
3
 62
     0
 10
1900.501923932351
 20
1450.610174947986
 30
0.0
 40
60.0
  1
(95)
 50
90.0
  0
LINE
  5
8465
  8
0
  6
BYBLOCK
 62
     0
 10
1784.787638218065
 20
1585.253032090844
 30
0.0
 11
1784.787638218065
 21
1490.2530320908429
 31
0.0
  0
INSERT
  5
8466
  8
0
  6
BYBLOCK
 62
     0
  2
_OPEN
 10
1784.787638218065
 20
1585.253032090844
 30
0.0
 41
40.0
 42
40.0
 43
40.0
 50
270.0
  0
INSERT
  5
8467
  8
0
  6
BYBLOCK
 62
     0
  2
_DOT
 10
1784.787638218065
 20
1490.2530320908429
 30
0.0
 41
40.0
 42
40.0
 43
40.0
 50
90.0
  0
POINT
  5
8468
  8
DEFPOINTS
  6
BYBLOCK
 62
     0
 10
1477.8290713251149
 20
1585.253032090844
 30
0.0
  0
POINT
  5
8469
  8
DEFPOINTS
  6
BYBLOCK
 62
     0
 10
1477.8290713251149
 20
1490.2530320908429
 30
0.0
  0
POINT
  5
846A
  8
DEFPOINTS
  6
BYBLOCK
 62
     0
 10
1784.787638218065
 20
1490.2530320908429
 30
0.0
  0
ENDBLK
  5
846B
  8
0
  0
ENDSEC
  0
SECTION
  2
ENTITIES
  0
DIMENSION
  5
7CCB
  8
3
  2
*D1
 10
710.88274691939296
 20
2619.3841947199362
 30
0.0
 11
1220.882746919393
 21
2669.3841947199362
 31
0.0
 70
     0
 13
1730.882746919393
 23
2411.2478494034149
 33
0.0
 14
710.88274691939284
 24
1660.2530320908429
 34
0.0
1001
ACAD
1000
DSTYLE
1002
{
1070
   287
1070
     3
1070
    40
1040
20.0
1070
   143
1040
0.039
1070
   172
1070
     1
1070
   271
1070
     0
1070
   279
1070
     0
1070
   288
1070
     1
1002
}
  0
DIMENSION
  5
7CCC
  8
3
  2
*D2
 10
1425.882746919393
 20
1283.5776990205909
 30
0.0
 11
1068.382746919392
 21
1333.5776990205909
 31
0.0
 70
     0
 13
710.88274691939284
 23
1415.253032090844
 33
0.0
 14
1425.882746919393
 24
1380.813262654726
 34
0.0
1001
ACAD
1000
DSTYLE
1002
{
1070
   287
1070
     3
1070
    40
1040
20.0
1070
   143
1040
0.039
1070
   172
1070
     1
1070
   271
1070
     0
1070
   279
1070
     0
1070
   288
1070
     1
1002
}
  0
ARC
  5
7CCD
  8
1
 10
1395.882746919393
 20
1990.2530320908429
 30
0.0
 40
312.00771696201508
 50
180.0000000000006
 51
277.52382043863952
  0
ARC
  5
7CCE
  8
1
 10
1455.882746919393
 20
1990.253032090844
 30
0.0
 40
372.00771696201542
 50
94.611430909960902
 51
180.0000000000006
  0
DIMENSION
  5
7CCF
  8
3
  2
*D3
 10
1083.875029957378
 20
2494.9063490632702
 30
0.0
 11
1254.878888438385
 21
2544.9063490632702
 31
0.0
 70
     0
 13
1425.882746919393
 23
2422.792884860155
 33
0.0
 14
1083.875029957378
 24
1990.2530320908429
 34
0.0
1001
ACAD
1000
DSTYLE
1002
{
1070
   287
1070
     3
1070
    40
1040
20.0
1070
   143
1040
0.039
1070
   172
1070
     1
1070
   271
1070
     0
1070
   279
1070
     0
1070
   288
1070
     1
1002
}
  0
LINE
  5
7CD0
  8
1
 10
899.80220299929579
 20
1684.1384520543411
 30
0.0
 11
1459.8022029992951
 21
1814.1384520543411
 31
0.0
  0
LINE
  5
7CD1
  8
1
 10
831.96329083949058
 20
1976.3676121273461
 30
0.0
 11
1391.9632908394899
 21
2106.3676121273461
 31
0.0
  0
LINE
  5
7CD2
  8
1
 10
884.74936655254351
 20
1756.4255936711199
 30
0.0
 11
1441.604929947018
 21
1898.7301667410741
 31
0.0
  0
LINE
  5
7CD3
  8
1
 10
850.29560928321735
 20
1904.8417788312929
 30
0.0
 11
1412.8934655559131
 21
2022.4103210412179
 31
0.0
  0
LINE
  5
7CD4
  8
1
 10
710.88274691939284
 20
1415.253032090844
 30
0.0
 11
1640.882746919393
 21
1415.253032090844
 31
0.0
  0
LINE
  5
7CD5
  8
1
 10
710.88274691939284
 20
1490.2530320908429
 30
0.0
 11
1640.882746919393
 21
1490.2530320908429
 31
0.0
  0
LINE
  5
7CD6
  8
1
 10
1111.5198529900881
 20
1861.853032090844
 30
0.0
 11
1240.882746919393
 21
1861.853032090844
 31
0.0
  0
LINE
  5
7CD7
  8
1
 10
1114.306015913706
 20
1855.853032090843
 30
0.0
 11
1240.882746919393
 21
1855.853032090843
 31
0.0
  0
LINE
  5
7CD8
  8
1
 10
710.88274691939284
 20
1585.2530320908429
 30
0.0
 11
1640.882746919393
 21
1585.253032090844
 31
0.0
  0
LINE
  5
7CD9
  8
1
 10
710.88274691939284
 20
1660.2530320908429
 30
0.0
 11
1640.882746919393
 21
1660.2530320908429
 31
0.0
  0
LINE
  5
7CDA
  8
2
 10
1064.66685239456
 20
1960.2530320908429
 30
0.0
 11
1743.2605165586699
 21
1960.2530320908429
 31
0.0
  0
LINE
  5
7CDB
  8
1
 10
710.88274691939284
 20
1585.253032090844
 30
0.0
 11
1640.882746919393
 21
1585.253032090844
 31
0.0
  0
LINE
  5
7CE2
  8
1
 10
710.88274691939284
 20
1660.2530320908429
 30
0.0
 11
710.88274691939284
 21
1585.2530320908429
 31
0.0
  0
LINE
  5
7CE3
  8
1
 10
710.88274691939284
 20
1490.2530320908429
 30
0.0
 11
710.88274691939284
 21
1415.253032090844
 31
0.0
  0
ARC
  5
7CE4
  8
1
 10
865.88274691939296
 20
1830.2530320908429
 30
0.0
 40
150.0
 50
103.0693178962821
 51
283.06931789628209
  0
CIRCLE
  5
7CE5
  8
1
 10
865.88274691939296
 20
1830.2530320908429
 30
0.0
 40
76.200000000000003
  0
LINE
  5
7CE6
  8
1
 10
744.27023507820275
 20
1730.2530320908429
 30
0.0
 11
987.49525876058306
 21
1730.2530320908429
 31
0.0
  0
LINE
  5
7CE7
  8
1
 10
715.88274691939284
 20
1690.2530320908429
 30
0.0
 11
1015.882746919393
 21
1690.2530320908429
 31
0.0
  0
LINE
  5
7CE8
  8
2
 10
765.26734691939316
 20
1830.2530320908429
 30
0.0
 11
973.92824691939313
 21
1830.2530320908429
 31
0.0
  0
LINE
  5
7CE9
  8
1
 10
812.43234691939324
 20
1744.8027320908429
 30
0.0
 11
805.88274691939284
 21
1738.253032090844
 31
0.0
  0
ARC
  5
7CEA
  8
1
 10
865.88274691939296
 20
1830.2530320908429
 30
0.0
 40
100.8
 50
0.0
 51
254.57230000000001
  0
LINE
  5
7CEC
  8
1
 10
766.77494691939319
 20
1741.921132090843
 30
0.0
 11
783.17574691939308
 21
1772.583132090843
 31
0.0
  0
LINE
  5
7CED
  8
1
 10
715.88274691939284
 20
1690.2530320908429
 30
0.0
 11
715.88274691939284
 21
1660.2530320908429
 31
0.0
  0
LINE
  5
7CEE
  8
1
 10
733.38274691939284
 20
1690.2530320908429
 30
0.0
 11
744.27023507820275
 21
1730.2530320908429
 31
0.0
  0
LINE
  5
7CEF
  8
1
 10
805.88274691939284
 20
1730.253032090844
 30
0.0
 11
805.88274691939284
 21
1740.2530320908429
 31
0.0
  0
ARC
  5
7CF0
  8
1
 10
803.88274691939284
 20
1740.2530320908429
 30
0.0
 40
2.0
 50
0.0
 51
90.0
  0
LINE
  5
7CF1
  8
1
 10
785.88274691939284
 20
1743.6335320908429
 30
0.0
 11
785.88274691939284
 21
1726.2864320908429
 31
0.0
  0
LINE
  5
7CF2
  8
1
 10
791.88274691939284
 20
1730.253032090844
 30
0.0
 11
791.88274691939284
 21
1742.253032090844
 31
0.0
  0
LINE
  5
7CF3
  8
1
 10
779.88274691939296
 20
1742.253032090844
 30
0.0
 11
779.88274691939296
 21
1730.253032090844
 31
0.0
  0
LINE
  5
7CF4
  8
1
 10
765.88274691939284
 20
1730.253032090844
 30
0.0
 11
765.88274691939284
 21
1740.2530320908429
 31
0.0
  0
ARC
  5
7CF5
  8
1
 10
767.88274691939284
 20
1740.2530320908429
 30
0.0
 40
2.0
 50
90.0
 51
180.0
  0
LINE
  5
7CF6
  8
1
 10
765.88274691939284
 20
1730.253032090844
 30
0.0
 11
805.88274691939284
 21
1730.253032090844
 31
0.0
  0
LINE
  5
7CF7
  8
1
 10
767.88274691939284
 20
1742.253032090844
 30
0.0
 11
803.88274691939284
 21
1742.253032090844
 31
0.0
  0
LINE
  5
7CF8
  8
2
 10
865.88274691939296
 20
1931.4779320908431
 30
0.0
 11
865.88274691939296
 21
1728.7646320908441
 31
0.0
  0
ARC
  5
7CF9
  8
1
 10
865.88274691939296
 20
1830.2530320908429
 30
0.0
 40
100.8
 50
285.7971
 51
0.0
  0
LINE
  5
7CFB
  8
1
 10
964.7919469193929
 20
1742.2925320908439
 30
0.0
 11
948.67324691939291
 21
1772.4268320908441
 31
0.0
  0
LINE
  5
7CFC
  8
1
 10
893.5004469193932
 20
1733.253032090844
 30
0.0
 11
838.61334691939317
 21
1733.253032090844
 31
0.0
  0
LINE
  5
7CFE
  8
1
 10
963.88274691939284
 20
1742.253032090844
 30
0.0
 11
927.88274691939284
 21
1742.253032090844
 31
0.0
  0
LINE
  5
7CFF
  8
1
 10
965.88274691939296
 20
1730.253032090844
 30
0.0
 11
925.88274691939296
 21
1730.253032090844
 31
0.0
  0
LINE
  5
7D00
  8
1
 10
925.88274691939296
 20
1730.253032090844
 30
0.0
 11
925.88274691939296
 21
1740.2530320908429
 31
0.0
  0
ARC
  5
7D01
  8
1
 10
927.88274691939284
 20
1740.2530320908429
 30
0.0
 40
2.0
 50
90.0
 51
180.0
  0
LINE
  5
7D02
  8
1
 10
919.62934691939336
 20
1744.5065320908429
 30
0.0
 11
925.88274691939296
 21
1738.253032090844
 31
0.0
  0
LINE
  5
7D03
  8
1
 10
965.88274691939296
 20
1730.253032090844
 30
0.0
 11
965.88274691939296
 21
1740.2530320908429
 31
0.0
  0
LINE
  5
7D04
  8
1
 10
945.88274691939284
 20
1743.6335320908429
 30
0.0
 11
945.88274691939284
 21
1726.2864320908429
 31
0.0
  0
LINE
  5
7D05
  8
1
 10
951.88274691939284
 20
1742.253032090844
 30
0.0
 11
951.88274691939284
 21
1730.253032090844
 31
0.0
  0
LINE
  5
7D06
  8
1
 10
939.88274691939296
 20
1730.253032090844
 30
0.0
 11
939.88274691939296
 21
1742.253032090844
 31
0.0
  0
ARC
  5
7D07
  8
1
 10
963.88274691939284
 20
1740.2530320908429
 30
0.0
 40
2.0
 50
0.0
 51
90.0
  0
LINE
  5
7D08
  8
1
 10
1015.882746919393
 20
1690.2530320908429
 30
0.0
 11
1015.882746919393
 21
1660.2530320908429
 31
0.0
  0
LINE
  5
7D09
  8
1
 10
998.38274691939284
 20
1690.2530320908429
 30
0.0
 11
987.4952587605834
 21
1730.2530320908429
 31
0.0
  0
DIMENSION
  5
7D0B
  8
3
  2
*D4
 10
1947.8413138123431
 20
1585.253032090844
 30
0.0
 11
1897.8413138123419
 21
1772.753032090844
 31
0.0
 70
     0
 13
1743.2605165586699
 23
1960.2530320908429
 33
0.0
 14
1640.882746919393
 24
1585.253032090844
 34
0.0
 50
90.0
1001
ACAD
1000
DSTYLE
1002
{
1070
   287
1070
     3
1070
    40
1040
20.0
1070
   143
1040
0.039
1070
   172
1070
     1
1070
   271
1070
     0
1070
   279
1070
     0
1070
   288
1070
     1
1002
}
  0
LINE
  5
7D0C
  8
2
 10
1425.882746919393
 20
2422.792884860155
 30
0.0
 11
1425.882746919393
 21
1380.813262654726
 31
0.0
  0
LINE
  5
7D0D
  8
1
 10
1640.882746919393
 20
1660.2530320908429
 30
0.0
 11
1640.882746919393
 21
1585.253032090844
 31
0.0
  0
DIMENSION
  5
7D0E
  8
3
  2
*D5
 10
1947.8413138123431
 20
1415.253032090844
 30
0.0
 11
1897.8413138123431
 21
1266.6816035194149
 31
0.0
 70
     0
 13
1640.882746919393
 23
1490.2530320908429
 33
0.0
 14
1640.882746919393
 24
1415.253032090844
 34
0.0
 50
90.0
1001
ACAD
1000
DSTYLE
1002
{
1070
   287
1070
     3
1070
    40
1040
20.0
1070
   143
1040
0.039
1070
   172
1070
     1
1070
   271
1070
     0
1070
   279
1070
     0
1070
   288
1070
     1
1070
     6
1000
DOT
1002
}
  0
DIMENSION
  5
7D0F
  8
3
  2
*D6
 10
1640.882746919393
 20
1283.5776990205909
 30
0.0
 11
1533.382746919393
 21
1338.2914052403371
 31
0.0
 12
163.05367559427751
 22
-59.0
 32
0.0
 70
   128
 13
1425.882746919393
 23
1380.813262654726
 33
0.0
 14
1640.882746919393
 24
1415.253032090844
 34
0.0
1001
ACAD
1000
DSTYLE
1002
{
1070
   288
1070
     1
1070
   172
1070
     1
1070
    40
1040
20.0
1070
   271
1070
     0
1070
   143
1040
0.039
1002
}
  0
LINE
  5
7D10
  8
1
 10
1640.882746919393
 20
1490.2530320908429
 30
0.0
 11
1640.882746919393
 21
1415.253032090844
 31
0.0
  0
DIMENSION
  5
7D12
  8
3
  2
*D7
 10
1947.8413138123431
 20
1960.2530320908429
 30
0.0
 11
1897.8413138123431
 21
2172.253032090844
 31
0.0
 70
     0
 13
1730.882746919393
 23
2384.253032090844
 33
0.0
 14
1743.2605165586699
 24
1960.2530320908429
 34
0.0
 50
90.0
1001
ACAD
1000
DSTYLE
1002
{
1070
   287
1070
     3
1070
    40
1040
20.0
1070
   143
1040
0.039
1070
   172
1070
     1
1070
   271
1070
     0
1070
   279
1070
     0
1070
   288
1070
     1
1002
}
  0
DIMENSION
  5
7D13
  8
3
  2
*D8
 10
1854.861289030574
 20
1972.253032090844
 30
0.0
 11
1804.8612890305731
 21
2178.253032090844
 31
0.0
 70
     0
 13
1730.882746919393
 23
2384.253032090844
 33
0.0
 14
1730.882746919393
 24
1972.253032090844
 34
0.0
 50
90.0
1001
ACAD
1000
DSTYLE
1002
{
1070
   287
1070
     3
1070
    40
1040
20.0
1070
   143
1040
0.039
1070
   172
1070
     1
1070
   271
1070
     0
1070
   279
1070
     0
1070
   288
1070
     1
1002
}
  0
LINE
  5
7D15
  8
1
 10
1727.882746919392
 20
1972.253032090844
 30
0.0
 11
1727.882746919393
 21
2384.253032090844
 31
0.0
  0
LINE
  5
7D16
  8
1
 10
1705.882746919393
 20
1970.253032090844
 30
0.0
 11
1705.882746919393
 21
2385.2530320908431
 31
0.0
  0
LINE
  5
7D17
  8
1
 10
1730.882746919393
 20
1972.253032090844
 30
0.0
 11
1730.882746919393
 21
2409.253032090844
 31
0.0
  0
ARC
  5
7D18
  8
1
 10
1402.882746919393
 20
1937.253032090844
 30
0.0
 40
258.54745134352208
 50
277.52382043863952
 51
359.99999999999972
  0
ARC
  5
7D19
  8
1
 10
1425.882746919393
 20
1960.2530320908429
 30
0.0
 40
150.0
 50
283.06931789628209
 51
103.0693178962821
  0
CIRCLE
  5
7D1A
  8
1
 10
1425.882746919393
 20
1960.2530320908429
 30
0.0
 40
63.5
  0
LINE
  5
7D1B
  8
1
 10
1235.882746919393
 20
1905.053032090844
 30
0.0
 11
1615.882746919393
 21
1905.053032090844
 31
0.0
  0
LINE
  5
7D1C
  8
1
 10
1200.882746919393
 20
1901.853032090844
 30
0.0
 11
1650.882746919393
 21
1901.853032090843
 31
0.0
  0
LINE
  5
7D1D
  8
1
 10
1200.882746919393
 20
1901.853032090843
 30
0.0
 11
1200.882746919393
 21
1861.853032090844
 31
0.0
  0
LINE
  5
7D1E
  8
1
 10
1240.882746919393
 20
1901.853032090843
 30
0.0
 11
1240.882746919393
 21
1660.2530320908429
 31
0.0
  0
LINE
  5
7D1F
  8
1
 10
1220.882746919393
 20
1700.253032090844
 30
0.0
 11
1220.882746919393
 21
1660.2530320908429
 31
0.0
  0
LINE
  5
7D20
  8
1
 10
1220.882746919393
 20
1665.253032090844
 30
0.0
 11
1240.882746919393
 21
1665.253032090844
 31
0.0
  0
LINE
  5
7D21
  8
1
 10
1220.882746919393
 20
1700.253032090844
 30
0.0
 11
1240.882746919393
 21
1700.253032090844
 31
0.0
  0
LINE
  5
7D22
  8
1
 10
1235.882746919393
 20
1905.053032090844
 30
0.0
 11
1235.882746919393
 21
1901.853032090843
 31
0.0
  0
LINE
  5
7D23
  8
1
 10
1650.882746919393
 20
1901.853032090843
 30
0.0
 11
1650.882746919393
 21
1861.853032090844
 31
0.0
  0
LINE
  5
7D24
  8
1
 10
1610.882746919393
 20
1901.853032090843
 30
0.0
 11
1610.882746919393
 21
1660.2530320908429
 31
0.0
  0
LINE
  5
7D2A
  8
1
 10
1610.882746919393
 20
1855.853032090843
 30
0.0
 11
1648.2820635366791
 21
1855.853032090843
 31
0.0
  0
LINE
  5
7D2B
  8
1
 10
1610.882746919393
 20
1861.853032090844
 30
0.0
 11
1650.1915106060669
 21
1861.853032090843
 31
0.0
  0
LINE
  5
7D2C
  8
1
 10
1610.882746919393
 20
1700.253032090844
 30
0.0
 11
1630.882746919392
 21
1700.253032090844
 31
0.0
  0
LINE
  5
7D2D
  8
1
 10
1610.882746919393
 20
1665.253032090844
 30
0.0
 11
1630.882746919392
 21
1665.253032090844
 31
0.0
  0
LINE
  5
7D2E
  8
1
 10
1630.882746919392
 20
1700.253032090844
 30
0.0
 11
1630.882746919392
 21
1660.2530320908429
 31
0.0
  0
ARC
  5
7D2F
  8
1
 10
1448.882746919393
 20
1937.25303209084
 30
0.0
 40
212.5474513435226
 50
0.0000000000009807
 51
9.4780130379753462
  0
LINE
  5
7D30
  8
1
 10
1615.882746919393
 20
1905.053032090844
 30
0.0
 11
1615.882746919393
 21
1901.853032090843
 31
0.0
  0
POLYLINE
  5
7D31
  8
1
 66
     1
 10
0.0
 20
0.0
 30
0.0
 70
     1
  0
VERTEX
  5
84D8
  8
1
 10
1730.882746919393
 20
1972.253032090844
 30
0.0
  0
VERTEX
  5
84D9
  8
1
 10
1730.882746919393
 20
1947.253032090844
 30
0.0
  0
VERTEX
  5
84DA
  8
1
 10
1729.882746919393
 20
1947.253032090844
 30
0.0
 42
-0.4142135623730951
  0
VERTEX
  5
84DB
  8
1
 10
1727.882746919393
 20
1949.253032090844
 30
0.0
  0
VERTEX
  5
84DC
  8
1
 10
1727.882746919393
 20
1965.253032090844
 30
0.0
 42
0.4142135623730951
  0
VERTEX
  5
84DD
  8
1
 10
1723.882746919392
 20
1969.253032090844
 30
0.0
  0
VERTEX
  5
84DE
  8
1
 10
1707.882746919392
 20
1969.253032090844
 30
0.0
 42
-0.4142135623730951
  0
VERTEX
  5
84DF
  8
1
 10
1705.882746919392
 20
1971.253032090844
 30
0.0
  0
VERTEX
  5
84E0
  8
1
 10
1705.882746919392
 20
1972.253032090844
 30
0.0
  0
SEQEND
  5
84E1
  8
1
  0
LINE
  5
7D3C
  8
1
 10
1658.5286843296531
 20
1972.253032090844
 30
0.0
 11
1730.882746919393
 21
1972.253032090844
 31
0.0
  0
LINE
  5
7D41
  8
1
 10
1425.9741496876441
 20
2361.0565073859389
 30
0.0
 11
1730.882746919393
 21
2384.253032090844
 31
0.0
  0
DIMENSION
  5
7D42
  8
3
  2
*D9
 10
1425.882746919393
 20
2494.9063490632702
 30
0.0
 11
1578.382746919393
 21
2544.9063490632702
 31
0.0
 70
     0
 13
1730.882746919393
 23
2411.2478494034149
 33
0.0
 14
1425.882746919393
 24
2422.792884860155
 34
0.0
1001
ACAD
1000
DSTYLE
1002
{
1070
   287
1070
     3
1070
    40
1040
20.0
1070
   143
1040
0.039
1070
   172
1070
     1
1070
   271
1070
     0
1070
   279
1070
     0
1070
   288
1070
     1
1002
}
  0
POLYLINE
  5
7D47
  8
1
 66
     1
 10
0.0
 20
0.0
 30
0.0
 70
     1
  0
VERTEX
  5
84EB
  8
1
 10
1730.882746919393
 20
2384.253032090844
 30
0.0
  0
VERTEX
  5
84EC
  8
1
 10
1730.882746919393
 20
2409.253032090844
 30
0.0
  0
VERTEX
  5
84ED
  8
1
 10
1729.882746919393
 20
2409.253032090844
 30
0.0
 42
0.4142135623730951
  0
VERTEX
  5
84EE
  8
1
 10
1727.882746919393
 20
2407.253032090844
 30
0.0
  0
VERTEX
  5
84EF
  8
1
 10
1727.882746919393
 20
2391.253032090844
 30
0.0
 42
-0.4142135623730951
  0
VERTEX
  5
84F0
  8
1
 10
1723.882746919392
 20
2387.253032090844
 30
0.0
  0
VERTEX
  5
84F1
  8
1
 10
1707.882746919392
 20
2387.253032090844
 30
0.0
 42
0.4142135623730951
  0
VERTEX
  5
84F2
  8
1
 10
1705.882746919392
 20
2385.2530320908431
 30
0.0
  0
VERTEX
  5
84F3
  8
1
 10
1705.882746919392
 20
2384.253032090844
 30
0.0
  0
SEQEND
  5
84F4
  8
1
  0
LINE
  5
7D53
  8
1
 10
715.8827469193933
 20
3158.4380977589758
 30
0.0
 11
1575.882746919393
 21
3158.438097758974
 31
0.0
  0
LINE
  5
7D54
  8
1
 10
715.88274691939284
 20
3036.4380977589749
 30
0.0
 11
1575.882746919393
 21
3036.438097758974
 31
0.0
  0
DIMENSION
  5
7D55
  8
3
  2
*D10
 10
710.88274691939284
 20
4106.1885391676597
 30
0.0
 11
960.88274691939284
 21
4156.1885391676597
 31
0.0
 70
     0
 13
1210.882746919393
 23
3991.4380977589749
 33
0.0
 14
710.88274691939284
 24
3551.4380977589731
 34
0.0
1001
ACAD
1000
DSTYLE
1002
{
1070
   287
1070
     3
1070
    40
1040
20.0
1070
   143
1040
0.039
1070
   172
1070
     1
1070
   271
1070
     0
1070
   279
1070
     0
1070
   288
1070
     1
1002
}
  0
DIMENSION
  5
7D56
  8
3
  2
*D11
 10
1640.882746919393
 20
2913.2629435347449
 30
0.0
 11
1175.882746919393
 21
2963.2629435347449
 31
0.0
 70
     0
 13
710.88274691939284
 23
3131.4380977589731
 33
0.0
 14
1640.882746919393
 24
3131.438097758974
 34
0.0
1001
ACAD
1000
DSTYLE
1002
{
1070
   287
1070
     3
1070
    40
1040
20.0
1070
   143
1040
0.039
1070
   172
1070
     1
1070
   271
1070
     0
1070
   279
1070
     0
1070
   288
1070
     1
1002
}
  0
LINE
  5
7D57
  8
1
 10
1362.382746919393
 20
3116.4380977589749
 30
0.0
 11
942.08274691939323
 21
3116.4380977589749
 31
0.0
  0
LINE
  5
7D58
  8
1
 10
942.08274691939323
 20
3066.4380977589749
 30
0.0
 11
1362.382746919393
 21
3066.4380977589749
 31
0.0
  0
LINE
  5
7D59
  8
1
 10
965.88274691939296
 20
3171.438097758974
 30
0.0
 11
1235.882746919393
 21
3171.438097758974
 31
0.0
  0
LINE
  5
7D5A
  8
1
 10
1072.6750299573771
 20
3646.438097758974
 30
0.0
 11
1727.882746919393
 21
3646.438097758974
 31
0.0
  0
LINE
  5
7D5B
  8
1
 10
1072.6750299573771
 20
3946.438097758974
 30
0.0
 11
1727.882746919393
 21
3946.438097758974
 31
0.0
  0
LINE
  5
7D5C
  8
2
 10
1048.7086434566879
 20
3796.438097758974
 30
0.0
 11
1833.987220778266
 21
3796.438097758974
 31
0.0
  0
LINE
  5
7D5D
  8
1
 10
710.88274691939284
 20
3551.4380977589731
 30
0.0
 11
1210.882746919393
 21
3551.4380977589749
 31
0.0
  0
LINE
  5
7D5E
  8
1
 10
710.88274691939284
 20
3511.438097758974
 30
0.0
 11
1210.882746919393
 21
3511.438097758974
 31
0.0
  0
LINE
  5
7D5F
  8
1
 10
710.88274691939284
 20
3131.4380977589731
 30
0.0
 11
1405.882746919393
 21
3131.4380977589749
 31
0.0
  0
LINE
  5
7D60
  8
1
 10
715.88274691939284
 20
3036.4380977589749
 30
0.0
 11
715.88274691939284
 21
3158.4380977589758
 31
0.0
  0
LINE
  5
7D61
  8
1
 10
942.08274691939323
 20
3116.4380977589749
 30
0.0
 11
942.08274691939323
 21
3066.4380977589749
 31
0.0
  0
LINE
  5
7D62
  8
1
 10
789.68274691939314
 20
3116.4380977589749
 30
0.0
 11
789.68274691939314
 21
3066.4380977589749
 31
0.0
  0
LINE
  5
7D63
  8
2
 10
865.88274691939296
 20
3437.7687977589749
 30
0.0
 11
865.88274691939296
 21
3061.1200977589751
 31
0.0
  0
LINE
  5
7D64
  8
1
 10
789.68274691939314
 20
3066.4380977589749
 30
0.0
 11
942.08274691939323
 21
3066.4380977589749
 31
0.0
  0
LINE
  5
7D65
  8
1
 10
789.68274691939314
 20
3116.4380977589749
 30
0.0
 11
942.08274691939266
 21
3116.4380977589749
 31
0.0
  0
LINE
  5
7D66
  8
1
 10
965.88274691939296
 20
3137.4380977589749
 30
0.0
 11
765.88274691939284
 21
3137.4380977589749
 31
0.0
  0
LINE
  5
7D67
  8
1
 10
765.88274691939284
 20
3432.4380977589749
 30
0.0
 11
965.88274691939296
 21
3432.4380977589749
 31
0.0
  0
DIMENSION
  5
7D68
  8
3
  2
*D12
 10
635.53880875902541
 20
3551.4380977589731
 30
0.0
 11
585.53880875902485
 21
3341.438097758974
 31
0.0
 70
     0
 13
710.88274691939284
 23
3131.4380977589731
 33
0.0
 14
710.88274691939284
 24
3551.4380977589731
 34
0.0
 50
90.0
1001
ACAD
1000
DSTYLE
1002
{
1070
   287
1070
     3
1070
    40
1040
20.0
1070
   143
1040
0.039
1070
   172
1070
     1
1070
   271
1070
     0
1070
   279
1070
     0
1070
   288
1070
     1
1002
}
  0
LINE
  5
7D69
  8
1
 10
765.88274691939284
 20
3137.4380977589749
 30
0.0
 11
765.88274691939284
 21
3432.4380977589749
 31
0.0
  0
LINE
  5
7D6A
  8
1
 10
710.88274691939284
 20
3171.438097758974
 30
0.0
 11
765.88274691939284
 21
3171.438097758974
 31
0.0
  0
LINE
  5
7D6B
  8
1
 10
710.88274691939284
 20
3171.438097758974
 30
0.0
 11
710.88274691939284
 21
3131.438097758974
 31
0.0
  0
POINT
  5
7D6C
  8
1
 10
710.88274691939284
 20
3131.4380977589731
 30
0.0
  0
POINT
  5
7D6D
  8
1
 10
710.88274691939284
 20
3131.4380977589731
 30
0.0
  0
LINE
  5
7D6E
  8
1
 10
767.88274691939284
 20
3511.438097758974
 30
0.0
 11
767.88274691939284
 21
3432.4380977589749
 31
0.0
  0
LINE
  5
7D6F
  8
1
 10
710.88274691939284
 20
3551.4380977589731
 30
0.0
 11
710.88274691939284
 21
3511.438097758974
 31
0.0
  0
LINE
  5
7D70
  8
1
 10
965.88274691939296
 20
3259.4380977589749
 30
0.0
 11
965.88274691939296
 21
3432.4380977589749
 31
0.0
  0
LINE
  5
7D71
  8
1
 10
965.88274691939296
 20
3259.4380977589749
 30
0.0
 11
965.88274691939296
 21
3137.4380977589749
 31
0.0
  0
LINE
  5
7D72
  8
1
 10
828.88274691939284
 20
3131.4380977589749
 30
0.0
 11
902.88274691939284
 21
3131.4380977589749
 31
0.0
  0
LINE
  5
7D73
  8
1
 10
825.88274691939296
 20
3137.4380977589749
 30
0.0
 11
825.88274691939296
 21
3134.4380977589749
 31
0.0
  0
ARC
  5
7D74
  8
1
 10
828.88274691939284
 20
3134.4380977589749
 30
0.0
 40
2.9998999999999989
 50
179.99879999999999
 51
270.00119999999998
  0
LINE
  5
7D75
  8
1
 10
880.48274691939321
 20
3131.4380977589749
 30
0.0
 11
880.48274691939321
 21
3126.438097758974
 31
0.0
  0
LINE
  5
7D76
  8
1
 10
851.28284691939325
 20
3131.4380977589749
 30
0.0
 11
851.28284691939325
 21
3126.438097758974
 31
0.0
  0
LINE
  5
7D77
  8
1
 10
880.48274691939321
 20
3126.438097758974
 30
0.0
 11
851.28284691939325
 21
3126.438097758974
 31
0.0
  0
LINE
  5
7D78
  8
1
 10
879.88274691939284
 20
3126.438097758974
 30
0.0
 11
879.88274691939284
 21
3116.4380977589749
 31
0.0
  0
LINE
  5
7D79
  8
1
 10
851.88274691939284
 20
3126.438097758974
 30
0.0
 11
851.88274691939284
 21
3116.4380977589749
 31
0.0
  0
LINE
  5
7D7A
  8
1
 10
905.88274691939284
 20
3137.4380977589749
 30
0.0
 11
905.88274691939284
 21
3134.4380977589749
 31
0.0
  0
ARC
  5
7D7B
  8
1
 10
902.88284691939316
 20
3134.4380977589749
 30
0.0
 40
2.9998999999999989
 50
269.99880000000002
 51
0.0012000000000121
  0
LINE
  5
7D7C
  8
1
 10
963.88274691939284
 20
3511.438097758974
 30
0.0
 11
963.88274691939284
 21
3432.4380977589749
 31
0.0
  0
LINE
  5
7D7D
  8
1
 10
807.88274691939296
 20
3511.438097758974
 30
0.0
 11
807.88274691939296
 21
3432.4380977589749
 31
0.0
  0
LINE
  5
7D7E
  8
1
 10
923.88274691939296
 20
3511.438097758974
 30
0.0
 11
923.88274691939296
 21
3432.4380977589749
 31
0.0
  0
LINE
  5
7D7F
  8
1
 10
1072.6750299573771
 20
3646.438097758974
 30
0.0
 11
1072.6750299573771
 21
3946.438097758974
 31
0.0
  0
DIMENSION
  5
7D80
  8
3
  2
*D13
 10
1927.02522206142
 20
3991.4380977589749
 30
0.0
 11
1877.0252220614191
 21
3561.4380977589749
 31
0.0
 70
     0
 13
1640.882746919393
 23
3131.438097758974
 33
0.0
 14
1640.882746919393
 24
3991.4380977589749
 34
0.0
 50
90.0
1001
ACAD
1000
DSTYLE
1002
{
1070
   287
1070
     3
1070
    40
1040
20.0
1070
   143
1040
0.039
1070
   172
1070
     1
1070
   271
1070
     0
1070
   279
1070
     0
1070
   288
1070
     1
1002
}
  0
LINE
  5
7D83
  8
1
 10
1615.882746919393
 20
3581.4380977589749
 30
0.0
 11
1615.882746919393
 21
3156.4380977589731
 31
0.0
  0
LINE
  5
7D84
  8
1
 10
1235.882746919393
 20
3581.4380977589749
 30
0.0
 11
1235.882746919393
 21
3156.4380977589749
 31
0.0
  0
LINE
  5
7D85
  8
1
 10
1210.882746919393
 20
3646.438097758974
 30
0.0
 11
1210.882746919393
 21
3171.438097758974
 31
0.0
  0
LINE
  5
7D86
  8
1
 10
1640.882746919393
 20
3646.438097758974
 30
0.0
 11
1640.882746919393
 21
3131.438097758974
 31
0.0
  0
LINE
  5
7D87
  8
2
 10
1425.882746919393
 20
4046.4233929146822
 30
0.0
 11
1425.882746919393
 21
3046.4900034335842
 31
0.0
  0
LINE
  5
7D88
  8
1
 10
1575.882746919393
 20
3036.4380977589749
 30
0.0
 11
1575.882746919393
 21
3158.438097758974
 31
0.0
  0
LINE
  5
7D89
  8
1
 10
1489.382746919392
 20
3116.4380977589749
 30
0.0
 11
1489.382746919392
 21
3066.4380977589749
 31
0.0
  0
LINE
  5
7D8A
  8
1
 10
1362.382746919393
 20
3116.4380977589749
 30
0.0
 11
1362.382746919393
 21
3066.4380977589749
 31
0.0
  0
LINE
  5
7D8B
  8
1
 10
1362.382746919393
 20
3066.4380977589749
 30
0.0
 11
1489.382746919392
 21
3066.438097758974
 31
0.0
  0
LINE
  5
7D8C
  8
1
 10
1445.882746919393
 20
3131.4380977589749
 30
0.0
 11
1640.882746919393
 21
3131.438097758974
 31
0.0
  0
LINE
  5
7D8D
  8
1
 10
1445.882746919393
 20
3156.438097758974
 30
0.0
 11
1615.882746919393
 21
3156.438097758974
 31
0.0
  0
LINE
  5
7D92
  8
1
 10
1362.382746919393
 20
3116.4380977589749
 30
0.0
 11
1489.382746919392
 21
3116.4380977589749
 31
0.0
  0
LINE
  5
7D9B
  8
1
 10
1235.882746919393
 20
3156.4380977589749
 30
0.0
 11
1405.882746919393
 21
3156.4380977589749
 31
0.0
  0
LINE
  5
7D9F
  8
1
 10
1405.882746919393
 20
3646.438097758974
 30
0.0
 11
1405.882746919393
 21
3116.4380977589749
 31
0.0
  0
LINE
  5
7DA0
  8
1
 10
1445.882746919393
 20
3646.438097758974
 30
0.0
 11
1445.882746919393
 21
3116.4380977589749
 31
0.0
  0
LINE
  5
7DA6
  8
1
 10
1615.882746919393
 20
3171.438097758974
 30
0.0
 11
1640.882746919393
 21
3171.438097758974
 31
0.0
  0
DIMENSION
  5
7DAB
  8
3
  2
*D14
 10
1210.882746919393
 20
4106.1885391676597
 30
0.0
 11
1425.882746919393
 21
4156.1885391676597
 31
0.0
 70
     0
 13
1640.882746919393
 23
3991.4380977589749
 33
0.0
 14
1210.882746919393
 24
3991.4380977589749
 34
0.0
1001
ACAD
1000
DSTYLE
1002
{
1070
   287
1070
     3
1070
    40
1040
20.0
1070
   143
1040
0.039
1070
   172
1070
     1
1070
   271
1070
     0
1070
   279
1070
     0
1070
   288
1070
     1
1002
}
  0
LINE
  5
7DAC
  8
1
 10
1235.882746919393
 20
3581.4380977589749
 30
0.0
 11
1405.882746919393
 21
3581.4380977589749
 31
0.0
  0
LINE
  5
7DAD
  8
1
 10
1250.882746919393
 20
3989.438097758974
 30
0.0
 11
1600.882746919392
 21
3989.438097758974
 31
0.0
  0
LINE
  5
7DAE
  8
1
 10
1250.882746919393
 20
3949.438097758974
 30
0.0
 11
1600.882746919392
 21
3949.438097758974
 31
0.0
  0
LINE
  5
7DAF
  8
1
 10
1250.882746919393
 20
3646.438097758974
 30
0.0
 11
1250.882746919393
 21
3588.71546030442
 31
0.0
  0
LINE
  5
7DB0
  8
1
 10
1250.882746919393
 20
3604.438097758974
 30
0.0
 11
1250.882746919393
 21
3581.4380977589749
 31
0.0
  0
LINE
  5
7DB1
  8
1
 10
1210.882746919393
 20
3991.4380977589749
 30
0.0
 11
1210.882746919393
 21
3946.438097758974
 31
0.0
  0
LINE
  5
7DB2
  8
1
 10
1250.882746919393
 20
3991.4380977589749
 30
0.0
 11
1250.882746919393
 21
3946.438097758974
 31
0.0
  0
LINE
  5
7DB3
  8
1
 10
1210.882746919393
 20
3991.4380977589749
 30
0.0
 11
1250.882746919393
 21
3991.4380977589749
 31
0.0
  0
POINT
  5
7DB4
  8
1
 10
1210.882746919393
 20
3991.4380977589749
 30
0.0
  0
LINE
  5
7DB5
  8
1
 10
1727.882746919393
 20
3619.4380977589749
 30
0.0
 11
1727.882746919393
 21
3973.4380977589749
 31
0.0
  0
LINE
  5
7DB6
  8
1
 10
1730.882746919393
 20
3619.4380977589749
 30
0.0
 11
1730.882746919393
 21
3973.4380977589749
 31
0.0
  0
LINE
  5
7DB7
  8
1
 10
1600.882746919392
 20
3646.438097758974
 30
0.0
 11
1600.882746919392
 21
3595.8102009923791
 31
0.0
  0
LINE
  5
7DB8
  8
1
 10
1600.882746919392
 20
3604.438097758974
 30
0.0
 11
1600.882746919392
 21
3581.4380977589749
 31
0.0
  0
LINE
  5
7DB9
  8
1
 10
1727.882746919393
 20
3619.4380977589749
 30
0.0
 11
1730.882746919393
 21
3619.4380977589749
 31
0.0
  0
LINE
  5
7DBA
  8
1
 10
1600.882746919392
 20
3991.4380977589749
 30
0.0
 11
1640.882746919393
 21
3991.4380977589749
 31
0.0
  0
LINE
  5
7DBB
  8
1
 10
1600.882746919392
 20
3991.4380977589749
 30
0.0
 11
1600.882746919392
 21
3946.438097758974
 31
0.0
  0
LINE
  5
7DBC
  8
1
 10
1640.882746919393
 20
3991.4380977589749
 30
0.0
 11
1640.882746919393
 21
3946.438097758974
 31
0.0
  0
POINT
  5
7DBD
  8
1
 10
1640.882746919393
 20
3991.4380977589749
 30
0.0
  0
POINT
  5
7DBE
  8
1
 10
1640.882746919393
 20
3991.4380977589749
 30
0.0
  0
LINE
  5
7DBF
  8
1
 10
1727.882746919393
 20
3973.4380977589749
 30
0.0
 11
1730.882746919393
 21
3973.4380977589749
 31
0.0
  0
DIMENSION
  5
7DC0
  8
3
  2
*D15
 10
3297.6330065546231
 20
2634.9311444793561
 30
0.0
 11
3221.133006554624
 21
2714.9311444793561
 31
0.0
 70
     0
 13
3144.633006554624
 23
2583.7899738073238
 33
0.0
 14
3297.6330065546231
 24
1945.229979157657
 34
0.0
1001
ACAD
1000
DSTYLE
1002
{
1070
   288
1070
     1
1070
   172
1070
     1
1070
    40
1040
20.0
1070
   271
1070
     0
1070
   143
1040
0.039
1002
}
  0
DIMENSION
  5
7DC1
  8
3
  2
*D16
 10
3144.633006554624
 20
2634.9311444793561
 30
0.0
 11
2764.6330065546231
 21
2734.9311444793561
 31
0.0
 70
     0
  1
MAX\P830
 13
2384.6330065546222
 23
2110.2530320908431
 33
0.0
 14
3144.633006554624
 24
2583.7899738073238
 34
0.0
1001
ACAD
1000
DSTYLE
1002
{
1070
   287
1070
     3
1070
    40
1040
20.0
1070
   143
1040
0.039
1070
   172
1070
     1
1070
   271
1070
     0
1070
   279
1070
     0
1070
   288
1070
     1
1002
}
  0
LINE
  5
7DC2
  8
1
 10
2479.6330065546222
 20
1660.2530320908429
 30
0.0
 11
2479.6330065546222
 21
1585.253032090844
 31
0.0
  0
LINE
  5
7DC3
  8
2
 10
3144.633006554624
 20
2481.6025483644121
 30
0.0
 11
3144.633006554624
 21
1380.813262654726
 31
0.0
  0
LINE
  5
7DC4
  8
1
 10
3339.633006554624
 20
1660.2530320908429
 30
0.0
 11
3339.633006554624
 21
1585.253032090844
 31
0.0
  0
DIMENSION
  5
7DC5
  8
3
  2
*D17
 10
3144.633006554624
 20
1277.820218585463
 30
0.0
 11
2812.1330065546231
 21
1327.820218585463
 31
0.0
 70
     0
 13
2479.6330065546222
 23
1415.253032090844
 33
0.0
 14
3144.633006554624
 24
1380.813262654726
 34
0.0
1001
ACAD
1000
DSTYLE
1002
{
1070
   287
1070
     3
1070
    40
1040
20.0
1070
   143
1040
0.039
1070
   172
1070
     1
1070
   271
1070
     0
1070
   279
1070
     0
1070
   288
1070
     1
1002
}
  0
LINE
  5
7DC6
  8
1
 10
2479.6330065546222
 20
1490.2530320908429
 30
0.0
 11
3339.633006554624
 21
1490.2530320908429
 31
0.0
  0
LINE
  5
7DC7
  8
1
 10
2479.6330065546222
 20
1415.253032090844
 30
0.0
 11
3339.633006554624
 21
1415.2530320908429
 31
0.0
  0
LINE
  5
7DC8
  8
1
 10
2479.6330065546222
 20
1585.253032090844
 30
0.0
 11
3339.633006554624
 21
1585.253032090844
 31
0.0
  0
LINE
  5
7DC9
  8
1
 10
2519.6330065546222
 20
1585.253032090844
 30
0.0
 11
3339.633006554624
 21
1585.253032090844
 31
0.0
  0
LINE
  5
7DCA
  8
1
 10
2479.6330065546222
 20
1490.2530320908429
 30
0.0
 11
2479.6330065546222
 21
1415.253032090844
 31
0.0
  0
DIMENSION
  5
7DCB
  8
3
  2
*D18
 10
3339.633006554624
 20
1277.820218585463
 30
0.0
 11
3242.133006554624
 21
1330.5155443945041
 31
0.0
 12
0.0
 22
-59.0
 32
0.0
 70
   128
 13
3144.633006554624
 23
1380.813262654726
 33
0.0
 14
3339.633006554624
 24
1415.2530320908429
 34
0.0
1001
ACAD
1000
DSTYLE
1002
{
1070
   288
1070
     1
1070
   172
1070
     1
1070
    40
1040
20.0
1070
   271
1070
     0
1070
   143
1040
0.039
1002
}
  0
LINE
  5
7DCC
  8
1
 10
3339.633006554624
 20
1490.2530320908429
 30
0.0
 11
3339.633006554624
 21
1415.253032090844
 31
0.0
  0
LINE
  5
7DCD
  8
1
 10
2464.6330065546222
 20
1940.2530320908429
 30
0.0
 11
2994.6330065546222
 21
1940.253032090844
 31
0.0
  0
LINE
  5
7DCE
  8
1
 10
2464.6330065546222
 20
1980.253032090844
 30
0.0
 11
2967.6330065546222
 21
1980.253032090844
 31
0.0
  0
LINE
  5
7DCF
  8
2
 10
2397.6222299509991
 20
1960.2530320908429
 30
0.0
 11
3195.2280963155731
 21
1960.2530320908429
 31
0.0
  0
POLYLINE
  5
7DD0
  8
1
 66
     1
 10
0.0
 20
0.0
 30
0.0
 70
     1
  0
VERTEX
  5
8534
  8
1
 10
2919.6330065546222
 20
1861.853032090843
 30
0.0
  0
VERTEX
  5
8535
  8
1
 10
2959.6330065546222
 20
1861.853032090843
 30
0.0
  0
VERTEX
  5
8536
  8
1
 10
2959.6330065546222
 20
1863.853032090843
 30
0.0
 42
0.4142135623730951
  0
VERTEX
  5
8537
  8
1
 10
2956.6330065546222
 20
1866.853032090843
 30
0.0
  0
VERTEX
  5
8538
  8
1
 10
2929.1330065546222
 20
1866.853032090843
 30
0.0
 42
-0.4142135623730951
  0
VERTEX
  5
8539
  8
1
 10
2924.6330065546231
 20
1871.353032090843
 30
0.0
  0
VERTEX
  5
853A
  8
1
 10
2924.6330065546231
 20
1898.853032090843
 30
0.0
 42
0.4142135623730951
  0
VERTEX
  5
853B
  8
1
 10
2921.6330065546231
 20
1901.853032090843
 30
0.0
  0
VERTEX
  5
853C
  8
1
 10
2919.6330065546222
 20
1901.853032090843
 30
0.0
  0
SEQEND
  5
853D
  8
1
  0
LINE
  5
7DDB
  8
1
 10
2479.6330065546222
 20
1660.2530320908429
 30
0.0
 11
3339.633006554624
 21
1660.2530320908429
 31
0.0
  0
LINE
  5
7DDE
  8
1
 10
2504.6330065546222
 20
1901.853032090843
 30
0.0
 11
2929.6330065546222
 21
1901.853032090843
 31
0.0
  0
LINE
  5
7DDF
  8
1
 10
2504.6330065546222
 20
1905.053032090844
 30
0.0
 11
2929.6330065546222
 21
1905.053032090844
 31
0.0
  0
LINE
  5
7DE0
  8
1
 10
2506.6330065546222
 20
2110.2530320908431
 30
0.0
 11
2506.6330065546222
 21
2074.9872290063481
 31
0.0
  0
LINE
  5
7DE1
  8
1
 10
2384.6330065546222
 20
2110.2530320908431
 30
0.0
 11
2384.6330065546222
 21
1680.253032090844
 31
0.0
  0
LINE
  5
7DE2
  8
1
 10
2464.6330065546222
 20
2023.753032090844
 30
0.0
 11
2464.6330065546222
 21
1754.0530320908431
 31
0.0
  0
LINE
  5
7DE3
  8
1
 10
2414.6330065546222
 20
2023.753032090844
 30
0.0
 11
2414.6330065546222
 21
1754.0530320908431
 31
0.0
  0
LINE
  5
7DE4
  8
1
 10
2517.8330065546229
 20
1901.853032090843
 30
0.0
 11
2517.8330065546229
 21
1660.2530320908429
 31
0.0
  0
LINE
  5
7DE7
  8
1
 10
2384.6330065546222
 20
1680.253032090844
 30
0.0
 11
2506.6330065546222
 21
1680.253032090844
 31
0.0
  0
LINE
  5
7DE8
  8
1
 10
2414.6330065546222
 20
1754.0530320908431
 30
0.0
 11
2464.6330065546222
 21
1754.0530320908431
 31
0.0
  0
LINE
  5
7DE9
  8
2
 10
2403.6688939135161
 20
1830.2530320908429
 30
0.0
 11
2526.5997064996332
 21
1830.2530320908429
 31
0.0
  0
LINE
  5
7DEA
  8
1
 10
2464.633006554624
 20
1816.2530320908429
 30
0.0
 11
2517.8330065546229
 21
1816.253032090844
 31
0.0
  0
LINE
  5
7DEB
  8
1
 10
2464.633006554624
 20
1844.2530320908429
 30
0.0
 11
2517.8330065546229
 21
1844.2530320908429
 31
0.0
  0
LINE
  5
7DEC
  8
1
 10
2384.6330065546222
 20
2110.2530320908431
 30
0.0
 11
2506.6330065546231
 21
2110.2530320908431
 31
0.0
  0
LINE
  5
7DED
  8
1
 10
2414.6330065546222
 20
1896.753032090844
 30
0.0
 11
2464.6330065546222
 21
1896.753032090844
 31
0.0
  0
LINE
  5
7DEE
  8
1
 10
2414.6330065546222
 20
2023.753032090844
 30
0.0
 11
2464.6330065546222
 21
2023.753032090844
 31
0.0
  0
LINE
  5
7DFB
  8
1
 10
2504.6330065546222
 20
1905.053032090844
 30
0.0
 11
2504.6330065546222
 21
1901.853032090843
 31
0.0
  0
LINE
  5
7E0C
  8
1
 10
2919.6330065546222
 20
1901.853032090843
 30
0.0
 11
2919.6330065546222
 21
1660.2530320908429
 31
0.0
  0
LINE
  5
7E1D
  8
1
 10
2929.6330065546222
 20
1905.053032090844
 30
0.0
 11
2929.6330065546222
 21
1901.853032090843
 31
0.0
  0
DIMENSION
  5
7E29
  8
3
  2
*D19
 10
3440.4504846845839
 20
1760.253032090844
 30
0.0
 11
3390.4504846845839
 21
1960.253032090844
 31
0.0
 70
     0
 13
3323.233006554623
 23
2160.253032090844
 33
0.0
 14
3323.233006554623
 24
1760.253032090844
 34
0.0
 50
90.0
1001
ACAD
1000
DSTYLE
1002
{
1070
   287
1070
     3
1070
     3
1000
φ<>
1070
    40
1040
20.0
1070
   143
1040
0.039
1070
   172
1070
     1
1070
   271
1070
     0
1070
   279
1070
     0
1070
   288
1070
     1
1002
}
  0
LINE
  5
7E2A
  8
1
 10
2994.6330065546222
 20
2386.253032090844
 30
0.0
 11
3294.633006554624
 21
1972.253032090844
 31
0.0
  0
LINE
  5
7E2B
  8
1
 10
3294.633006554624
 20
2386.253032090844
 30
0.0
 11
2994.6330065546222
 21
1972.253032090844
 31
0.0
  0
LINE
  5
7E2C
  8
1
 10
2967.6330065546222
 20
2411.253032090844
 30
0.0
 11
2967.6330065546222
 21
1945.253032090844
 31
0.0
  0
LINE
  5
7E2D
  8
1
 10
3322.6330065546231
 20
2160.253032090844
 30
0.0
 11
3322.6330065546231
 21
1760.253032090844
 31
0.0
  0
LINE
  5
7E31
  8
1
 10
3294.633006554624
 20
2386.253032090844
 30
0.0
 11
3294.633006554624
 21
1972.253032090844
 31
0.0
  0
LINE
  5
7E32
  8
1
 10
2994.6330065546222
 20
2386.253032090844
 30
0.0
 11
2994.6330065546222
 21
1972.253032090844
 31
0.0
  0
LINE
  5
7E33
  8
1
 10
2994.6330065546222
 20
1677.045315128828
 30
0.0
 11
3294.633006554624
 21
1677.045315128828
 31
0.0
  0
LINE
  5
7E34
  8
1
 10
3234.7080450429139
 20
1945.253032090844
 30
0.0
 11
3321.633006554624
 21
1945.253032090844
 31
0.0
  0
LINE
  5
7E36
  8
1
 10
3234.7080450429139
 20
1972.253032090844
 30
0.0
 11
3294.633006554624
 21
1972.253032090844
 31
0.0
  0
LINE
  5
7E37
  8
2
 10
3234.7080450429139
 20
1960.2530320908429
 30
0.0
 11
3339.633006554624
 21
1960.2530320908429
 31
0.0
  0
LINE
  5
7E38
  8
1
 10
2994.6330065546222
 20
1945.253032090844
 30
0.0
 11
2994.6330065546222
 21
1677.045315128828
 31
0.0
  0
POLYLINE
  5
7E3A
  8
1
 66
     1
 10
0.0
 20
0.0
 30
0.0
 70
     1
  0
VERTEX
  5
8547
  8
1
 10
2992.6330065546231
 20
1660.2530320908429
 30
0.0
  0
VERTEX
  5
8548
  8
1
 10
2952.6330065546222
 20
1660.2530320908429
 30
0.0
  0
VERTEX
  5
8549
  8
1
 10
2952.6330065546222
 20
1662.253032090844
 30
0.0
 42
-0.4142135623730951
  0
VERTEX
  5
854A
  8
1
 10
2955.6330065546222
 20
1665.253032090844
 30
0.0
  0
VERTEX
  5
854B
  8
1
 10
2983.1330065546222
 20
1665.253032090844
 30
0.0
 42
0.4142135623730951
  0
VERTEX
  5
854C
  8
1
 10
2987.6330065546222
 20
1669.753032090844
 30
0.0
  0
VERTEX
  5
854D
  8
1
 10
2987.6330065546222
 20
1697.253032090844
 30
0.0
 42
-0.4142135623730951
  0
VERTEX
  5
854E
  8
1
 10
2990.6330065546222
 20
1700.253032090844
 30
0.0
  0
VERTEX
  5
854F
  8
1
 10
2992.6330065546231
 20
1700.253032090844
 30
0.0
  0
SEQEND
  5
8550
  8
1
  0
LINE
  5
7E46
  8
1
 10
2942.6330065546231
 20
1857.353032090843
 30
0.0
 11
2994.6330065546222
 21
1857.353032090844
 31
0.0
  0
LINE
  5
7E47
  8
1
 10
2942.6330065546231
 20
1861.853032090844
 30
0.0
 11
2994.6330065546222
 21
1861.853032090844
 31
0.0
  0
LINE
  5
7E48
  8
1
 10
2942.6330065546222
 20
1861.853032090844
 30
0.0
 11
2942.6330065546222
 21
1857.353032090843
 31
0.0
  0
LINE
  5
7E49
  8
1
 10
2992.6330065546231
 20
1945.253032090844
 30
0.0
 11
3249.0183856700692
 21
1945.253032090844
 31
0.0
  0
LINE
  5
7E4A
  8
1
 10
2994.6330065546222
 20
1972.253032090844
 30
0.0
 11
3256.4529282363492
 21
1972.253032090844
 31
0.0
  0
LINE
  5
7E4C
  8
1
 10
2967.6330065546222
 20
1945.253032090844
 30
0.0
 11
2992.6330065546231
 21
1945.253032090844
 31
0.0
  0
LINE
  5
7E4E
  8
1
 10
3297.6330065546231
 20
1945.253032090844
 30
0.0
 11
3297.6330065546231
 21
1702.553032090844
 31
0.0
  0
LINE
  5
7E50
  8
1
 10
3294.633006554624
 20
1945.253032090844
 30
0.0
 11
3294.633006554624
 21
1677.045315128828
 31
0.0
  0
POLYLINE
  5
7E51
  8
1
 66
     1
 10
0.0
 20
0.0
 30
0.0
 70
     1
  0
VERTEX
  5
8551
  8
1
 10
3297.6330065546231
 20
1760.253032090844
 30
0.0
  0
VERTEX
  5
8552
  8
1
 10
3322.6330065546231
 20
1760.253032090844
 30
0.0
  0
VERTEX
  5
8553
  8
1
 10
3322.6330065546231
 20
1759.253032090844
 30
0.0
 42
-0.4142135623730951
  0
VERTEX
  5
8554
  8
1
 10
3320.6330065546231
 20
1757.253032090844
 30
0.0
  0
VERTEX
  5
8555
  8
1
 10
3304.6330065546231
 20
1757.253032090844
 30
0.0
 42
0.4142135623730951
  0
VERTEX
  5
8556
  8
1
 10
3300.6330065546231
 20
1753.253032090844
 30
0.0
  0
VERTEX
  5
8557
  8
1
 10
3300.6330065546231
 20
1737.253032090844
 30
0.0
 42
-0.4142135623730951
  0
VERTEX
  5
8558
  8
1
 10
3298.6330065546231
 20
1735.2530320908429
 30
0.0
  0
VERTEX
  5
8559
  8
1
 10
3297.6330065546231
 20
1735.2530320908429
 30
0.0
  0
SEQEND
  5
855A
  8
1
  0
POLYLINE
  5
7E5C
  8
1
 66
     1
 10
0.0
 20
0.0
 30
0.0
  0
VERTEX
  5
855B
  8
1
 10
3301.633006554624
 20
1682.253032090844
 30
0.0
  0
VERTEX
  5
855C
  8
1
 10
3301.633006554624
 20
1697.253032090844
 30
0.0
 42
0.4142135623730951
  0
VERTEX
  5
855D
  8
1
 10
3298.633006554624
 20
1700.253032090844
 30
0.0
  0
VERTEX
  5
855E
  8
1
 10
3296.633006554624
 20
1700.253032090844
 30
0.0
  0
VERTEX
  5
855F
  8
1
 10
3296.633006554624
 20
1682.253032090844
 30
0.0
  0
SEQEND
  5
8560
  8
1
  0
POLYLINE
  5
7E63
  8
1
 66
     1
 10
0.0
 20
0.0
 30
0.0
  0
VERTEX
  5
8561
  8
1
 10
3296.633006554624
 20
1660.2530320908429
 30
0.0
  0
VERTEX
  5
8562
  8
1
 10
3336.633006554624
 20
1660.2530320908429
 30
0.0
  0
VERTEX
  5
8563
  8
1
 10
3336.633006554624
 20
1662.253032090844
 30
0.0
 42
0.4142135623730951
  0
VERTEX
  5
8564
  8
1
 10
3333.633006554624
 20
1665.253032090844
 30
0.0
  0
VERTEX
  5
8565
  8
1
 10
3306.133006554624
 20
1665.253032090844
 30
0.0
 42
-0.4142135623730951
  0
VERTEX
  5
8566
  8
1
 10
3301.633006554624
 20
1669.753032090844
 30
0.0
  0
VERTEX
  5
8567
  8
1
 10
3301.633006554624
 20
1682.253032090844
 30
0.0
 42
0.4142135623730951
  0
SEQEND
  5
8568
  8
1
  0
POLYLINE
  5
7E6C
  8
1
 66
     1
 10
0.0
 20
0.0
 30
0.0
  0
VERTEX
  5
8569
  8
1
 10
3296.633006554624
 20
1687.253032090844
 30
0.0
  0
VERTEX
  5
856A
  8
1
 10
3296.633006554624
 20
1660.253032090844
 30
0.0
  0
SEQEND
  5
856B
  8
1
  0
LINE
  5
7E71
  8
1
 10
3297.6330065546231
 20
1702.553032090844
 30
0.0
 11
3296.033006554625
 21
1702.553032090844
 31
0.0
  0
LINE
  5
7E72
  8
1
 10
3297.6330065546231
 20
1760.253032090844
 30
0.0
 11
3322.6330065546231
 21
1760.253032090844
 31
0.0
  0
DIMENSION
  5
7E73
  8
3
  2
*D20
 10
3294.633006554624
 20
2493.7979321986181
 30
0.0
 11
3144.6330065546231
 21
2543.7979321986181
 31
0.0
 70
     0
 13
2994.6330065546222
 23
2386.253032090844
 33
0.0
 14
3294.633006554624
 24
2386.253032090844
 34
0.0
1001
ACAD
1000
DSTYLE
1002
{
1070
   287
1070
     3
1070
    40
1040
20.0
1070
   143
1040
0.039
1070
   172
1070
     1
1070
   271
1070
     0
1070
   279
1070
     0
1070
   288
1070
     1
1002
}
  0
LINE
  5
7E74
  8
1
 10
2994.6330065546222
 20
2386.253032090844
 30
0.0
 11
3294.633006554624
 21
2386.253032090844
 31
0.0
  0
LINE
  5
7E75
  8
1
 10
2967.6330065546222
 20
2411.253032090844
 30
0.0
 11
3321.633006554624
 21
2411.253032090844
 31
0.0
  0
LINE
  5
7E76
  8
1
 10
3321.633006554624
 20
2411.253032090844
 30
0.0
 11
3321.6330065546231
 21
1945.2530320908429
 31
0.0
  0
LINE
  5
7E77
  8
1
 10
3323.233006554623
 20
2160.253032090844
 30
0.0
 11
3321.633006554624
 21
2160.253032090844
 31
0.0
  0
LINE
  5
807F
  8
4
 10
3700.0
 20
1000.0
 30
0.0
 11
3700.0
 21
600.0
 31
0.0
  0
LINE
  5
8080
  8
4
 10
2300.0
 20
1000.0
 30
0.0
 11
2300.0
 21
600.0
 31
0.0
  0
LINE
  5
8081
  8
4
 10
1300.0
 20
1000.0
 30
0.0
 11
1300.0
 21
600.0
 31
0.0
  0
LINE
  5
8084
  8
4
 10
1300.0
 20
600.0
 30
0.0
 11
3700.0
 21
600.0
 31
0.0
  0
LINE
  5
8085
  8
4
 10
1300.0
 20
800.0
 30
0.0
 11
3700.0
 21
800.0
 31
0.0
  0
TEXT
  5
8086
  8
4
 10
1377.0041616938031
 20
863.08605173322564
 30
0.0
 40
100.0
  1
機器名称
  0
TEXT
  5
8087
  8
4
 10
1372.516212049595
 20
643.29031346402189
 30
0.0
 40
100.0
  1
機器型番
  0
TEXT
  5
8088
  8
4
 10
2299.8546179137488
 20
843.2940186967096
 30
0.0
 40
90.0
  1
ミツヤ多翼送風機
  0
TEXT
  5
8089
  8
4
 10
2373.3089911709608
 20
634.31916855988675
 30
0.0
 40
100.0
  1
MF#2 1/2-1
  0
TEXT
  5
808B
  8
4
 10
1582.5030484153251
 20
4766.8576826650306
 30
0.0
 40
107.9999999999999
  1
床置防振ベット
  0
TEXT
  5
808C
  8
4
 10
632.33518665889278
 20
5067.7619523985959
 30
0.0
 40
144.0
  1
遠心式片吸込片持多翼ファン
  0
LINE
  5
808D
  8
4
 10
500.0
 20
4938.8175085296089
 30
0.0
 11
3700.0
 21
4938.8175085296089
 31
0.0
  0
LINE
  5
808E
  8
4
 10
500.0
 20
5338.8175085296098
 30
0.0
 11
3700.0
 21
5338.8175085296098
 31
0.0
  0
LINE
  5
808F
  8
4
 10
1300.0
 20
1000.0
 30
0.0
 11
3700.0
 21
1000.0
 31
0.0
  0
LINE
  5
8090
  8
4
 10
500.0
 20
5338.8175085296098
 30
0.0
 11
500.0
 21
4938.8175085296089
 31
0.0
  0
TEXT
  5
8091
  8
4
 10
710.78538392992039
 20
4764.638955092687
 30
0.0
 40
107.9999999999999
  1
右回転右横向
  0
TEXT
  5
8092
  8
4
 10
2937.9391184985789
 20
5412.1221629906177
 30
0.0
 40
112.0
  1
No.
  0
TEXT
  5
8093
  8
4
 10
2622.5921252000262
 20
4766.8576826650306
 30
0.0
 40
107.9999999999999
  1
縮尺：1/20
  0
LINE
  5
8094
  8
4
 10
3700.0
 20
5338.8175085296098
 30
0.0
 11
3700.0
 21
4938.8175085296089
 31
0.0
  0
LINE
  5
8095
  8
4
 10
4200.0
 20
5900.0
 30
0.0
 11
4200.0
 21
5900.0
 31
0.0
  0
LINE
  5
8096
  8
4
 10
2881.2348447197292
 20
5362.5271662508021
 30
0.0
 11
2881.2348447197292
 21
5573.3045230995049
 31
0.0
  0
LINE
  5
8097
  8
4
 10
2881.2348447197292
 20
5573.3045230995049
 30
0.0
 11
3700.0
 21
5573.3045230995049
 31
0.0
  0
LINE
  5
8098
  8
4
 10
3700.0
 20
5573.3045230995049
 30
0.0
 11
3700.0
 21
5362.5271662508021
 31
0.0
  0
LINE
  5
8099
  8
4
 10
3700.0
 20
5362.5271662508021
 30
0.0
 11
2881.2348447197292
 21
5362.5271662508021
 31
0.0
  0
LINE
  5
809A
  8
4
 10
0.0
 20
0.0
 30
0.0
 11
0.0
 21
5900.0
 31
0.0
  0
LINE
  5
809B
  8
4
 10
0.0
 20
5900.0
 30
0.0
 11
4200.0
 21
5900.0
 31
0.0
  0
LINE
  5
809C
  8
4
 10
4200.0
 20
5900.0
 30
0.0
 11
4200.0
 21
0.0
 31
0.0
  0
LINE
  5
809D
  8
4
 10
4200.0
 20
0.0
 30
0.0
 11
0.0
 21
0.0
 31
0.0
  0
DIMENSION
  5
8297
  8
3
  2
*D22
 10
2111.8086682977232
 20
1415.253032090844
 30
0.0
 11
2111.8086682977219
 21
1875.5073005803911
 31
0.0
 70
   128
 13
1730.882746919393
 23
2409.253032090844
 33
0.0
 14
1640.882746919393
 24
1415.253032090844
 34
0.0
 50
90.0
1001
ACAD
1000
DSTYLE
1002
{
1070
   287
1070
     3
1070
    40
1040
20.0
1070
   143
1040
0.039
1070
   172
1070
     1
1070
   271
1070
     0
1070
   279
1070
     0
1070
   288
1070
     1
1002
}
  0
LINE
  5
83CE
  8
1
 10
1727.882746919393
 20
2391.253032090844
 30
0.0
 11
1727.882746919393
 21
2406.6937541884949
 31
0.0
  0
LINE
  5
83DA
  8
1
 10
2506.6330065546222
 20
1712.685731880068
 30
0.0
 11
2506.6330065546222
 21
1680.253032090844
 31
0.0
  0
LINE
  5
8401
  8
1
 10
1445.882746919393
 20
3581.4380977589749
 30
0.0
 11
1615.882746919393
 21
3581.4380977589749
 31
0.0
  0
DIMENSION
  5
8447
  8
3
  2
*D23
 10
1947.8413138123431
 20
1490.2530320908429
 30
0.0
 11
2043.5555995266291
 21
1537.753032090844
 31
0.0
 12
163.05367559427751
 22
0.0
 32
0.0
 70
     0
  1
(<>)
 13
1640.882746919393
 23
1585.253032090844
 33
0.0
 14
1640.882746919393
 24
1490.2530320908429
 34
0.0
 50
90.0
1001
ACAD
1000
DSTYLE
1002
{
1070
   288
1070
     1
1070
   172
1070
     1
1070
    75
1070
     1
1070
    40
1040
20.0
1070
   271
1070
     0
1070
     7
1000
_DOT
1070
   143
1040
0.039
1002
}
  0
ENDSEC
  0
EOF
