  0
SECTION
  2
HEADER
  9
$ACADVER
  1
AC1009
  9
$INSBASE
 10
0.0
 20
0.0
 30
0.0
  9
$EXTMIN
 10
0.0
 20
0.0
 30
0.0
  9
$EXTMAX
 10
4200.0
 20
5900.0
 30
0.0
  9
$LIMMIN
 10
0.0
 20
0.0
  9
$LIMMAX
 10
297.0
 20
210.0
  9
$ORTHOMODE
 70
     0
  9
$REGENMODE
 70
     1
  9
$FILLMODE
 70
     0
  9
$QTEXTMODE
 70
     0
  9
$MIRRTEXT
 70
     1
  9
$DRAGMODE
 70
     2
  9
$LTSCALE
 40
100.0
  9
$OSMODE
 70
    37
  9
$ATTMODE
 70
     1
  9
$TEXTSIZE
 40
180.0
  9
$TRACEWID
 40
0.05
  9
$TEXTSTYLE
  7
STANDARD
  9
$CLAYER
  8
3
  9
$CELTYPE
  6
BYLAYER
  9
$CECOLOR
 62
   256
  9
$DIMSCALE
 40
20.0
  9
$DIMASZ
 40
2.0
  9
$DIMEXO
 40
0.5
  9
$DIMDLI
 40
10.0
  9
$DIMRND
 40
0.0
  9
$DIMDLE
 40
0.0
  9
$DIMEXE
 40
1.0
  9
$DIMTP
 40
1.0
  9
$DIMTM
 40
1.0
  9
$DIMTXT
 40
3.0
  9
$DIMCEN
 40
0.0
  9
$DIMTSZ
 40
0.0
  9
$DIMTOL
 70
     0
  9
$DIMLIM
 70
     0
  9
$DIMTIH
 70
     0
  9
$DIMTOH
 70
     0
  9
$DIMSE1
 70
     0
  9
$DIMSE2
 70
     0
  9
$DIMTAD
 70
     1
  9
$DIMZIN
 70
     8
  9
$DIMBLK
  1

  9
$DIMASO
 70
     1
  9
$DIMSHO
 70
     1
  9
$DIMPOST
  1

  9
$DIMAPOST
  1

  9
$DIMALT
 70
     0
  9
$DIMALTD
 70
     2
  9
$DIMALTF
 40
0.039
  9
$DIMLFAC
 40
1.0
  9
$DIMTOFL
 70
     1
  9
$DIMTVP
 40
0.0
  9
$DIMTIX
 70
     0
  9
$DIMSOXD
 70
     0
  9
$DIMSAH
 70
     1
  9
$DIMBLK1
  1
OPEN
  9
$DIMBLK2
  1
OPEN
  9
$DIMSTYLE
  2
IGA
  9
$DIMCLRD
 70
     0
  9
$DIMCLRE
 70
     0
  9
$DIMCLRT
 70
     0
  9
$DIMTFAC
 40
10.0
  9
$DIMGAP
 40
1.0
  9
$LUNITS
 70
     2
  9
$LUPREC
 70
     3
  9
$SKETCHINC
 40
0.1
  9
$FILLETRAD
 40
50.0
  9
$AUNITS
 70
     0
  9
$AUPREC
 70
     0
  9
$MENU
  1
acad
  9
$ELEVATION
 40
0.0
  9
$PELEVATION
 40
0.0
  9
$THICKNESS
 40
0.0
  9
$LIMCHECK
 70
     0
  9
$BLIPMODE
 70
     0
  9
$CHAMFERA
 40
0.5
  9
$CHAMFERB
 40
0.5
  9
$SKPOLY
 70
     0
  9
$TDCREATE
 40
2451019.6362526622
  9
$TDUPDATE
 40
2454953.7537868861
  9
$TDINDWG
 40
0.0337890509
  9
$TDUSRTIMER
 40
0.0337890509
  9
$USRTIMER
 70
     1
  9
$ANGBASE
 50
0.0
  9
$ANGDIR
 70
     0
  9
$PDMODE
 70
     0
  9
$PDSIZE
 40
0.0
  9
$PLINEWID
 40
0.0
  9
$COORDS
 70
     1
  9
$SPLFRAME
 70
     0
  9
$SPLINETYPE
 70
     6
  9
$SPLINESEGS
 70
     8
  9
$ATTDIA
 70
     0
  9
$ATTREQ
 70
     1
  9
$HANDLING
 70
 10241
  9
$HANDSEED
  5
844E
  9
$SURFTAB1
 70
     6
  9
$SURFTAB2
 70
     6
  9
$SURFTYPE
 70
     6
  9
$SURFU
 70
     6
  9
$SURFV
 70
     6
  9
$UCSNAME
  2

  9
$UCSORG
 10
0.0
 20
0.0
 30
0.0
  9
$UCSXDIR
 10
1.0
 20
0.0
 30
0.0
  9
$UCSYDIR
 10
0.0
 20
1.0
 30
0.0
  9
$PUCSNAME
  2

  9
$PUCSORG
 10
0.0
 20
0.0
 30
0.0
  9
$PUCSXDIR
 10
1.0
 20
0.0
 30
0.0
  9
$PUCSYDIR
 10
0.0
 20
1.0
 30
0.0
  9
$USERI1
 70
     0
  9
$USERI2
 70
     0
  9
$USERI3
 70
     0
  9
$USERI4
 70
     0
  9
$USERI5
 70
     0
  9
$USERR1
 40
0.0
  9
$USERR2
 40
0.0
  9
$USERR3
 40
0.0
  9
$USERR4
 40
0.0
  9
$USERR5
 40
0.0
  9
$WORLDVIEW
 70
     1
  9
$SHADEDGE
 70
     3
  9
$SHADEDIF
 70
    70
  9
$TILEMODE
 70
     1
  9
$MAXACTVP
 70
    16
  9
$PLIMCHECK
 70
     0
  9
$PEXTMIN
 10
1.0000000000000000E+020
 20
1.0000000000000000E+020
 30
1.0000000000000000E+020
  9
$PEXTMAX
 10
-1.0000000000000000E+020
 20
-1.0000000000000000E+020
 30
-1.0000000000000000E+020
  9
$PLIMMIN
 10
0.0
 20
0.0
  9
$PLIMMAX
 10
12.0
 20
9.0
  9
$UNITMODE
 70
     0
  9
$VISRETAIN
 70
     0
  9
$PLINEGEN
 70
     0
  9
$PSLTSCALE
 70
     1
  0
ENDSEC
  0
SECTION
  2
TABLES
  0
TABLE
  2
VPORT
 70
     2
  0
VPORT
  2
*ACTIVE
 70
     0
 10
0.0
 20
0.0
 11
1.0
 21
1.0
 12
7073.2199177027342
 22
2950.0000137370062
 13
0.0
 23
0.0
 14
10.0
 24
10.0
 15
10.0
 25
10.0
 16
0.0
 26
0.0
 36
1.0
 17
0.0
 27
0.0
 37
0.0
 40
5945.22976603387
 41
3.1666666666666661
 42
50.0
 43
0.0
 44
0.0
 50
0.0
 51
0.0
 71
     0
 72
   100
 73
     1
 74
     0
 75
     0
 76
     0
 77
     0
 78
     0
  0
ENDTAB
  0
TABLE
  2
LTYPE
 70
     2
  0
LTYPE
  2
CONTINUOUS
 70
     0
  3
Solid line
 72
    65
 73
     0
 40
0.0
  0
LTYPE
  2
CENTER
 70
     0
  3
____ _ ____ _ ____ _ ____ _ ____ _ ____ _ ____ 
 72
    65
 73
     4
 40
2.0
 49
1.25
 49
-0.25
 49
0.25
 49
-0.25
  0
ENDTAB
  0
TABLE
  2
LAYER
 70
     6
  0
LAYER
  2
0
 70
     0
 62
     7
  6
CONTINUOUS
  0
LAYER
  2
3
 70
     0
 62
     2
  6
CONTINUOUS
  0
LAYER
  2
2
 70
     0
 62
     3
  6
CENTER
  0
LAYER
  2
1
 70
     0
 62
     4
  6
CONTINUOUS
  0
LAYER
  2
4
 70
     0
 62
     7
  6
CONTINUOUS
  0
LAYER
  2
DEFPOINTS
 70
     0
 62
     7
  6
CONTINUOUS
  0
ENDTAB
  0
TABLE
  2
STYLE
 70
     1
  0
STYLE
  2
STANDARD
 70
     0
 40
0.0
 41
1.0
 50
0.0
 71
     0
 42
180.0
  3
simplex.shx
  4
extfont.shx
  0
ENDTAB
  0
TABLE
  2
VIEW
 70
     0
  0
ENDTAB
  0
TABLE
  2
UCS
 70
     0
  0
ENDTAB
  0
TABLE
  2
APPID
 70
     1
  0
APPID
  2
ACAD
 70
     0
  0
ENDTAB
  0
TABLE
  2
DIMSTYLE
 70
     1
  0
DIMSTYLE
  2
IGA
 70
     0
  3

  4

  5

  6
OPEN
  7
OPEN
 40
2.0
 41
2.0
 42
0.5
 43
10.0
 44
1.0
 45
0.0
 46
0.0
 47
1.0
 48
1.0
140
3.0
141
0.0
142
0.0
143
0.03937
144
1.0
145
0.0
146
10.0
147
1.0
 71
     0
 72
     0
 73
     0
 74
     0
 75
     0
 76
     0
 77
     1
 78
     8
170
     0
171
     2
172
     0
173
     1
174
     0
175
     0
176
     0
177
     0
178
     0
  0
ENDTAB
  0
ENDSEC
  0
SECTION
  2
BLOCKS
  0
BLOCK
  8
0
  2
$MODEL_SPACE
 70
     0
 10
0.0
 20
0.0
 30
0.0
  3
$MODEL_SPACE
  1

  0
ENDBLK
  5
1B
  8
0
  0
BLOCK
 67
     1
  8
0
  2
$PAPER_SPACE
 70
     0
 10
0.0
 20
0.0
 30
0.0
  3
$PAPER_SPACE
  1

  0
ENDBLK
  5
18
 67
     1
  8
0
  0
BLOCK
  8
0
  2
*D0
 70
     1
 10
0.0
 20
0.0
 30
0.0
  3
*D0
  1

  0
LINE
  5
8362
  8
3
 62
     0
 10
854.36269073826224
 20
1402.9009602021811
 30
0.0
 11
854.36269073826224
 21
1272.2082613862931
 31
0.0
  0
LINE
  5
8363
  8
3
 62
     0
 10
1569.362690738262
 20
1372.9724176677721
 30
0.0
 11
1569.362690738262
 21
1272.2082613862931
 31
0.0
  0
LINE
  5
8364
  8
3
 62
     0
 10
894.36269073826224
 20
1292.2082613862931
 30
0.0
 11
1529.362690738262
 21
1292.2082613862931
 31
0.0
  0
INSERT
  5
8365
  8
3
 62
     0
  2
_OPEN
 10
854.36269073826224
 20
1292.2082613862931
 30
0.0
 41
40.0
 42
40.0
 43
40.0
 50
180.0
  0
INSERT
  5
8366
  8
3
 62
     0
  2
_OPEN
 10
1569.362690738262
 20
1292.2082613862931
 30
0.0
 41
40.0
 42
40.0
 43
40.0
  0
TEXT
  8
3
  40
60
  5
843A
  62
0
  72
0
  71
0
 10
1091.86
 20
1236.01
 30
0.000000
  1
715
  0
POINT
  5
8368
  8
DEFPOINTS
 62
     0
 10
854.36269073826224
 20
1412.9009602021811
 30
0.0
  0
POINT
  5
8369
  8
DEFPOINTS
 62
     0
 10
1569.362690738262
 20
1382.9724176677721
 30
0.0
  0
POINT
  5
836A
  8
DEFPOINTS
 62
     0
 10
1569.362690738262
 20
1292.2082613862931
 30
0.0
  0
ENDBLK
  5
804E
  8
0
  0
BLOCK
  8
0
  2
*D1
 70
     1
 10
0.0
 20
0.0
 30
0.0
  3
*D1
  1

  0
LINE
  5
836B
  8
3
 62
     0
 10
1569.362690738262
 20
2443.2563877305902
 30
0.0
 11
1569.362690738262
 21
2518.1814768477739
 31
0.0
  0
LINE
  5
836C
  8
3
 62
     0
 10
1227.3549737762471
 20
2092.9009602021811
 30
0.0
 11
1227.3549737762471
 21
2518.1814768477739
 31
0.0
  0
LINE
  5
836D
  8
3
 62
     0
 10
1529.362690738262
 20
2498.1814768477739
 30
0.0
 11
1267.3549737762471
 21
2498.1814768477739
 31
0.0
  0
INSERT
  5
836E
  8
3
 62
     0
  2
_OPEN
 10
1569.362690738262
 20
2498.1814768477739
 30
0.0
 41
40.0
 42
40.0
 43
40.0
  0
INSERT
  5
836F
  8
3
 62
     0
  2
_OPEN
 10
1227.3549737762471
 20
2498.1814768477739
 30
0.0
 41
40.0
 42
40.0
 43
40.0
 50
180.0
  0
TEXT
  8
3
  40
60
  5
843B
  62
0
  72
0
  71
0
 10
1278.36
 20
2441.98
 30
0.000000
  1
342
  0
POINT
  5
8371
  8
DEFPOINTS
 62
     0
 10
1569.362690738262
 20
2433.2563877305888
 30
0.0
  0
POINT
  5
8372
  8
DEFPOINTS
 62
     0
 10
1227.3549737762471
 20
2082.9009602021802
 30
0.0
  0
POINT
  5
8373
  8
DEFPOINTS
 62
     0
 10
1227.3549737762471
 20
2498.1814768477739
 30
0.0
  0
ENDBLK
  5
80AC
  8
0
  0
BLOCK
  8
0
  2
*D2
 70
     1
 10
0.0
 20
0.0
 30
0.0
  3
*D2
  1

  0
LINE
  5
8374
  8
3
 62
     0
 10
1794.362690738262
 20
1412.9009602021811
 30
0.0
 11
2421.2896446118771
 21
1412.9009602021811
 31
0.0
  0
LINE
  5
8375
  8
3
 62
     0
 10
1549.362690738262
 20
2394.9086771641969
 30
0.0
 11
2421.2896446118771
 21
2394.9086771641969
 31
0.0
  0
LINE
  5
8376
  8
3
 62
     0
 10
2401.2896446118771
 20
1452.9009602021811
 30
0.0
 11
2401.2896446118771
 21
2354.9086771641969
 31
0.0
  0
INSERT
  5
8377
  8
3
 62
     0
  2
_OPEN
 10
2401.2896446118771
 20
1412.9009602021811
 30
0.0
 41
40.0
 42
40.0
 43
40.0
 50
270.0
  0
INSERT
  5
8378
  8
3
 62
     0
  2
_OPEN
 10
2401.2896446118771
 20
2394.9086771641969
 30
0.0
 41
40.0
 42
40.0
 43
40.0
 50
90.0
  0
TEXT
  8
3
  40
60
  5
843C
  62
0
  72
0
  71
0
 10
2231.29
 20
1797.70
 30
0.000000
  1
982
  0
POINT
  5
837A
  8
DEFPOINTS
 62
     0
 10
1784.362690738262
 20
1412.9009602021811
 30
0.0
  0
POINT
  5
837B
  8
DEFPOINTS
 62
     0
 10
1539.362690738262
 20
2394.9086771641969
 30
0.0
  0
POINT
  5
837C
  8
DEFPOINTS
 62
     0
 10
2401.2896446118771
 20
2394.9086771641969
 30
0.0
  0
ENDBLK
  5
8301
  8
0
  0
BLOCK
  8
0
  2
*D3
 70
     1
 10
0.0
 20
0.0
 30
0.0
  3
*D3
  1

  0
LINE
  5
837D
  8
3
 62
     0
 10
1896.740460377539
 20
2112.9009602021811
 30
0.0
 11
2223.8866232620758
 21
2112.9009602021811
 31
0.0
  0
LINE
  5
837E
  8
3
 62
     0
 10
1794.362690738262
 20
1582.9009602021811
 30
0.0
 11
2223.8866232620758
 21
1582.9009602021811
 31
0.0
  0
LINE
  5
837F
  8
3
 62
     0
 10
2203.8866232620758
 20
2072.9009602021811
 30
0.0
 11
2203.8866232620758
 21
1622.9009602021811
 31
0.0
  0
INSERT
  5
8380
  8
3
 62
     0
  2
_OPEN
 10
2203.8866232620758
 20
2112.9009602021811
 30
0.0
 41
40.0
 42
40.0
 43
40.0
 50
90.0
  0
INSERT
  5
8381
  8
3
 62
     0
  2
_OPEN
 10
2203.8866232620758
 20
1582.9009602021811
 30
0.0
 41
40.0
 42
40.0
 43
40.0
 50
270.0
  0
TEXT
  8
3
  40
60
  5
843D
  62
0
  72
0
  71
0
 10
2033.89
 20
1741.70
 30
0.000000
  1
530
  0
POINT
  5
8383
  8
DEFPOINTS
 62
     0
 10
1886.740460377539
 20
2112.9009602021811
 30
0.0
  0
POINT
  5
8384
  8
DEFPOINTS
 62
     0
 10
1784.362690738262
 20
1582.9009602021811
 30
0.0
  0
POINT
  5
8385
  8
DEFPOINTS
 62
     0
 10
2203.8866232620758
 20
1582.9009602021811
 30
0.0
  0
ENDBLK
  5
8059
  8
0
  0
BLOCK
  8
0
  2
*D4
 70
     1
 10
0.0
 20
0.0
 30
0.0
  3
*D4
  1

  0
LINE
  5
8386
  8
3
 62
     0
 10
1884.362690738262
 20
1688.9009602021811
 30
0.0
 11
2111.1743100967369
 21
1688.9009602021811
 31
0.0
  0
LINE
  5
8387
  8
3
 62
     0
 10
1896.740460377539
 20
2112.9009602021811
 30
0.0
 11
2111.1743100967369
 21
2112.9009602021811
 31
0.0
  0
LINE
  5
8388
  8
3
 62
     0
 10
2091.1743100967369
 20
1728.9009602021811
 30
0.0
 11
2091.1743100967369
 21
2072.9009602021811
 31
0.0
  0
INSERT
  5
8389
  8
3
 62
     0
  2
_OPEN
 10
2091.1743100967369
 20
1688.9009602021811
 30
0.0
 41
40.0
 42
40.0
 43
40.0
 50
270.0
  0
INSERT
  5
838A
  8
3
 62
     0
  2
_OPEN
 10
2091.1743100967369
 20
2112.9009602021811
 30
0.0
 41
40.0
 42
40.0
 43
40.0
 50
90.0
  0
TEXT
  8
3
  40
60
  5
843E
  62
0
  72
0
  71
0
 10
1921.17
 20
1794.70
 30
0.000000
  1
424
  0
POINT
  5
838C
  8
DEFPOINTS
 62
     0
 10
1874.362690738262
 20
1688.9009602021811
 30
0.0
  0
POINT
  5
838D
  8
DEFPOINTS
 62
     0
 10
1886.740460377539
 20
2112.9009602021811
 30
0.0
  0
POINT
  5
838E
  8
DEFPOINTS
 62
     0
 10
2091.1743100967369
 20
2112.9009602021811
 30
0.0
  0
ENDBLK
  5
80B7
  8
0
  0
BLOCK
  8
0
  2
*D5
 70
     1
 10
0.0
 20
0.0
 30
0.0
  3
*D5
  1

  0
LINE
  5
838F
  8
3
 62
     0
 10
1884.362690738262
 20
1688.9009602021811
 30
0.0
 11
2018.0040466566261
 21
1688.9009602021811
 31
0.0
  0
LINE
  5
8390
  8
3
 62
     0
 10
1884.362690738262
 20
2100.9009602021811
 30
0.0
 11
2018.0040466566261
 21
2100.9009602021811
 31
0.0
  0
LINE
  5
8391
  8
3
 62
     0
 10
1998.0040466566261
 20
1728.9009602021811
 30
0.0
 11
1998.0040466566261
 21
2060.9009602021811
 31
0.0
  0
INSERT
  5
8392
  8
3
 62
     0
  2
_OPEN
 10
1998.0040466566261
 20
1688.9009602021811
 30
0.0
 41
40.0
 42
40.0
 43
40.0
 50
270.0
  0
INSERT
  5
8393
  8
3
 62
     0
  2
_OPEN
 10
1998.0040466566261
 20
2100.9009602021811
 30
0.0
 41
40.0
 42
40.0
 43
40.0
 50
90.0
  0
TEXT
  8
3
  40
60
  5
843F
  62
0
  72
0
  71
0
 10
1828.00
 20
1788.70
 30
0.000000
  1
412
  0
POINT
  5
8395
  8
DEFPOINTS
 62
     0
 10
1874.362690738262
 20
1688.9009602021811
 30
0.0
  0
POINT
  5
8396
  8
DEFPOINTS
 62
     0
 10
1874.362690738262
 20
2100.9009602021811
 30
0.0
  0
POINT
  5
8397
  8
DEFPOINTS
 62
     0
 10
1998.0040466566261
 20
2100.9009602021811
 30
0.0
  0
ENDBLK
  5
80C2
  8
0
  0
BLOCK
  8
0
  2
*D6
 70
     1
 10
0.0
 20
0.0
 30
0.0
  3
*D6
  1

  0
LINE
  5
8398
  8
3
 62
     0
 10
1794.362690738262
 20
1487.9009602021811
 30
0.0
 11
2223.8866232620758
 21
1487.9009602021811
 31
0.0
  0
LINE
  5
8399
  8
3
 62
     0
 10
1794.362690738262
 20
1412.9009602021811
 30
0.0
 11
2223.8866232620758
 21
1412.9009602021811
 31
0.0
  0
LINE
  5
839A
  8
3
 62
     0
 10
2203.8866232620758
 20
1527.9009602021811
 30
0.0
 11
2203.8866232620758
 21
1567.9009602021811
 31
0.0
  0
LINE
  5
839B
  8
3
 62
     0
 10
2203.8866232620758
 20
1372.9009602021811
 30
0.0
 11
2203.8866232620758
 21
1195.758103059324
 31
0.0
  0
LINE
  5
839C
  8
3
 62
     0
 10
2203.8866232620758
 20
1487.9009602021811
 30
0.0
 11
2203.8866232620758
 21
1412.9009602021811
 31
0.0
  0
INSERT
  5
839D
  8
3
 62
     0
  2
_DOT
 10
2203.8866232620758
 20
1487.9009602021811
 30
0.0
 41
40.0
 42
40.0
 43
40.0
 50
270.0
  0
INSERT
  5
839E
  8
3
 62
     0
  2
_OPEN
 10
2203.8866232620758
 20
1412.9009602021811
 30
0.0
 41
40.0
 42
40.0
 43
40.0
 50
90.0
  0
TEXT
  8
3
  40
60
  5
8440
  62
0
  72
0
  71
0
 10
2033.89
 20
1158.13
 30
0.000000
  1
75
  0
POINT
  5
83A0
  8
DEFPOINTS
 62
     0
 10
1784.362690738262
 20
1487.9009602021811
 30
0.0
  0
POINT
  5
83A1
  8
DEFPOINTS
 62
     0
 10
1784.362690738262
 20
1412.9009602021811
 30
0.0
  0
POINT
  5
83A2
  8
DEFPOINTS
 62
     0
 10
2203.8866232620758
 20
1412.9009602021811
 30
0.0
  0
ENDBLK
  5
8232
  8
0
  0
BLOCK
  8
0
  2
*D7
 70
     1
 10
0.0
 20
0.0
 30
0.0
  3
*D7
  1

  0
LINE
  5
81BA
  8
0
  6
BYBLOCK
 62
     0
 10
1173.3751557509329
 20
1431.9724176677721
 30
0.0
 11
1173.3751557509329
 21
1331.2082613862931
 31
0.0
  0
LINE
  5
81BB
  8
0
  6
BYBLOCK
 62
     0
 10
1388.3751557509329
 20
1461.9009602021811
 30
0.0
 11
1388.3751557509329
 21
1331.2082613862931
 31
0.0
  0
LINE
  5
81BC
  8
0
  6
BYBLOCK
 62
     0
 10
1213.3751557509329
 20
1351.2082613862931
 30
0.0
 11
1348.3751557509329
 21
1351.2082613862931
 31
0.0
  0
TEXT
  5
81BD
  8
3
 62
     0
 10
1209.4465843223611
 20
1378.714716447244
 30
0.0
 40
60.0
  1
215
  0
INSERT
  5
81BE
  8
0
  6
BYBLOCK
 62
     0
  2
_OPEN
 10
1173.3751557509329
 20
1351.2082613862931
 30
0.0
 41
40.0
 42
40.0
 43
40.0
 50
180.0
  0
INSERT
  5
81BF
  8
0
  6
BYBLOCK
 62
     0
  2
_OPEN
 10
1388.3751557509329
 20
1351.2082613862931
 30
0.0
 41
40.0
 42
40.0
 43
40.0
  0
POINT
  5
81C0
  8
DEFPOINTS
  6
BYBLOCK
 62
     0
 10
1173.3751557509329
 20
1441.9724176677721
 30
0.0
  0
POINT
  5
81C1
  8
DEFPOINTS
  6
BYBLOCK
 62
     0
 10
1388.3751557509329
 20
1471.9009602021811
 30
0.0
  0
POINT
  5
81C2
  8
DEFPOINTS
  6
BYBLOCK
 62
     0
 10
1388.3751557509329
 20
1351.2082613862931
 30
0.0
  0
ENDBLK
  5
81C3
  8
0
  0
BLOCK
  8
0
  2
*D8
 70
     1
 10
0.0
 20
0.0
 30
0.0
  3
*D8
  1

  0
LINE
  5
83AD
  8
3
 62
     0
 10
1896.740460377539
 20
2112.9009602021811
 30
0.0
 11
2223.8866232620758
 21
2112.9009602021811
 31
0.0
  0
LINE
  5
83AE
  8
3
 62
     0
 10
1549.362690738262
 20
2394.9086771641969
 30
0.0
 11
2223.8866232620758
 21
2394.9086771641969
 31
0.0
  0
LINE
  5
83AF
  8
3
 62
     0
 10
2203.8866232620758
 20
2152.9009602021811
 30
0.0
 11
2203.8866232620758
 21
2354.9086771641969
 31
0.0
  0
INSERT
  5
83B0
  8
3
 62
     0
  2
_OPEN
 10
2203.8866232620758
 20
2112.9009602021811
 30
0.0
 41
40.0
 42
40.0
 43
40.0
 50
270.0
  0
INSERT
  5
83B1
  8
3
 62
     0
  2
_OPEN
 10
2203.8866232620758
 20
2394.9086771641969
 30
0.0
 41
40.0
 42
40.0
 43
40.0
 50
90.0
  0
TEXT
  8
3
  40
60
  5
8441
  62
0
  72
0
  71
0
 10
2033.89
 20
2147.70
 30
0.000000
  1
282
  0
POINT
  5
83B3
  8
DEFPOINTS
 62
     0
 10
1886.740460377539
 20
2112.9009602021811
 30
0.0
  0
POINT
  5
83B4
  8
DEFPOINTS
 62
     0
 10
1539.362690738262
 20
2394.9086771641969
 30
0.0
  0
POINT
  5
83B5
  8
DEFPOINTS
 62
     0
 10
2203.8866232620758
 20
2394.9086771641969
 30
0.0
  0
ENDBLK
  5
82E1
  8
0
  0
BLOCK
  8
0
  2
*D9
 70
     1
 10
0.0
 20
0.0
 30
0.0
  3
*D9
  1

  0
LINE
  5
83B6
  8
3
 62
     0
 10
1874.362690738262
 20
2137.9009602021811
 30
0.0
 11
1874.362690738262
 21
2518.1814768477739
 31
0.0
  0
LINE
  5
83B7
  8
3
 62
     0
 10
1569.362690738262
 20
2443.2563877305902
 30
0.0
 11
1569.362690738262
 21
2518.1814768477739
 31
0.0
  0
LINE
  5
83B8
  8
3
 62
     0
 10
1834.362690738262
 20
2498.1814768477739
 30
0.0
 11
1609.362690738262
 21
2498.1814768477739
 31
0.0
  0
INSERT
  5
83B9
  8
3
 62
     0
  2
_OPEN
 10
1874.362690738262
 20
2498.1814768477739
 30
0.0
 41
40.0
 42
40.0
 43
40.0
  0
INSERT
  5
83BA
  8
3
 62
     0
  2
_OPEN
 10
1569.362690738262
 20
2498.1814768477739
 30
0.0
 41
40.0
 42
40.0
 43
40.0
 50
180.0
  0
TEXT
  8
3
  40
60
  5
8442
  62
0
  72
0
  71
0
 10
1601.86
 20
2441.98
 30
0.000000
  1
305
  0
POINT
  5
83BC
  8
DEFPOINTS
 62
     0
 10
1874.362690738262
 20
2127.9009602021811
 30
0.0
  0
POINT
  5
83BD
  8
DEFPOINTS
 62
     0
 10
1569.362690738262
 20
2433.2563877305888
 30
0.0
  0
POINT
  5
83BE
  8
DEFPOINTS
 62
     0
 10
1569.362690738262
 20
2498.1814768477739
 30
0.0
  0
ENDBLK
  5
8089
  8
0
  0
BLOCK
  8
0
  2
*D10
 70
     1
 10
0.0
 20
0.0
 30
0.0
  3
*D10
  1

  0
LINE
  5
83C9
  8
3
 62
     0
 10
1354.362690738262
 20
4154.0860258703124
 30
0.0
 11
1354.362690738262
 21
4278.8364672789967
 31
0.0
  0
LINE
  5
83CA
  8
3
 62
     0
 10
854.36269073826224
 20
3714.086025870311
 30
0.0
 11
854.36269073826224
 21
4278.8364672789967
 31
0.0
  0
LINE
  5
83CB
  8
3
 62
     0
 10
1314.362690738262
 20
4258.8364672789976
 30
0.0
 11
894.36269073826224
 21
4258.8364672789976
 31
0.0
  0
INSERT
  5
83CC
  8
3
 62
     0
  2
_OPEN
 10
1354.362690738262
 20
4258.8364672789976
 30
0.0
 41
40.0
 42
40.0
 43
40.0
  0
INSERT
  5
83CD
  8
3
 62
     0
  2
_OPEN
 10
854.36269073826224
 20
4258.8364672789976
 30
0.0
 41
40.0
 42
40.0
 43
40.0
 50
180.0
  0
TEXT
  8
3
  40
60
  5
8443
  62
0
  72
0
  71
0
 10
984.363
 20
4202.64
 30
0.000000
  1
500
  0
POINT
  5
83CF
  8
DEFPOINTS
 62
     0
 10
1354.362690738262
 20
4144.0860258703124
 30
0.0
  0
POINT
  5
83D0
  8
DEFPOINTS
 62
     0
 10
854.36269073826224
 20
3704.086025870311
 30
0.0
  0
POINT
  5
83D1
  8
DEFPOINTS
 62
     0
 10
854.36269073826224
 20
4258.8364672789976
 30
0.0
  0
ENDBLK
  5
80D8
  8
0
  0
BLOCK
  8
0
  2
*D11
 70
     1
 10
0.0
 20
0.0
 30
0.0
  3
*D11
  1

  0
LINE
  5
83D2
  8
3
 62
     0
 10
854.36269073826224
 20
3274.086025870311
 30
0.0
 11
854.36269073826224
 21
3045.9108716460828
 31
0.0
  0
LINE
  5
83D3
  8
3
 62
     0
 10
1784.362690738262
 20
3274.0860258703119
 30
0.0
 11
1784.362690738262
 21
3045.9108716460828
 31
0.0
  0
LINE
  5
83D4
  8
3
 62
     0
 10
894.36269073826224
 20
3065.9108716460828
 30
0.0
 11
1744.362690738262
 21
3065.9108716460828
 31
0.0
  0
INSERT
  5
83D5
  8
3
 62
     0
  2
_OPEN
 10
854.36269073826224
 20
3065.9108716460828
 30
0.0
 41
40.0
 42
40.0
 43
40.0
 50
180.0
  0
INSERT
  5
83D6
  8
3
 62
     0
  2
_OPEN
 10
1784.362690738262
 20
3065.9108716460828
 30
0.0
 41
40.0
 42
40.0
 43
40.0
  0
TEXT
  8
3
  40
60
  5
8444
  62
0
  72
0
  71
0
 10
1199.36
 20
3009.71
 30
0.000000
  1
930
  0
POINT
  5
83D8
  8
DEFPOINTS
 62
     0
 10
854.36269073826224
 20
3284.086025870311
 30
0.0
  0
POINT
  5
83D9
  8
DEFPOINTS
 62
     0
 10
1784.362690738262
 20
3284.0860258703119
 30
0.0
  0
POINT
  5
83DA
  8
DEFPOINTS
 62
     0
 10
1784.362690738262
 20
3065.9108716460828
 30
0.0
  0
ENDBLK
  5
80CD
  8
0
  0
BLOCK
  8
0
  2
*D12
 70
     1
 10
0.0
 20
0.0
 30
0.0
  3
*D12
  1

  0
LINE
  5
83DB
  8
3
 62
     0
 10
844.36269073826224
 20
3284.086025870311
 30
0.0
 11
759.01875257789447
 21
3284.086025870311
 31
0.0
  0
LINE
  5
83DC
  8
3
 62
     0
 10
844.36269073826224
 20
3704.086025870311
 30
0.0
 11
759.01875257789459
 21
3704.086025870311
 31
0.0
  0
LINE
  5
83DD
  8
3
 62
     0
 10
779.01875257789459
 20
3324.086025870311
 30
0.0
 11
779.0187525778947
 21
3664.086025870311
 31
0.0
  0
INSERT
  5
83DE
  8
3
 62
     0
  2
_OPEN
 10
779.01875257789459
 20
3284.086025870311
 30
0.0
 41
40.0
 42
40.0
 43
40.0
 50
270.0
  0
INSERT
  5
83DF
  8
3
 62
     0
  2
_OPEN
 10
779.0187525778947
 20
3704.086025870311
 30
0.0
 41
40.0
 42
40.0
 43
40.0
 50
90.0
  0
TEXT
  8
3
  40
60
  5
8445
  62
0
  72
0
  71
0
 10
609.019
 20
3387.89
 30
0.000000
  1
420
  0
POINT
  5
83E1
  8
DEFPOINTS
 62
     0
 10
854.36269073826224
 20
3284.086025870311
 30
0.0
  0
POINT
  5
83E2
  8
DEFPOINTS
 62
     0
 10
854.36269073826224
 20
3704.086025870311
 30
0.0
  0
POINT
  5
83E3
  8
DEFPOINTS
 62
     0
 10
779.0187525778947
 20
3704.086025870311
 30
0.0
  0
ENDBLK
  5
80E3
  8
0
  0
BLOCK
  8
0
  2
*D13
 70
     1
 10
0.0
 20
0.0
 30
0.0
  3
*D13
  1

  0
LINE
  5
83E4
  8
3
 62
     0
 10
1794.362690738262
 20
3284.0860258703119
 30
0.0
 11
2090.505165880289
 21
3284.0860258703119
 31
0.0
  0
LINE
  5
83E5
  8
3
 62
     0
 10
1794.362690738262
 20
4144.0860258703124
 30
0.0
 11
2090.505165880289
 21
4144.0860258703106
 31
0.0
  0
LINE
  5
83E6
  8
3
 62
     0
 10
2070.505165880289
 20
3324.0860258703119
 30
0.0
 11
2070.505165880289
 21
4104.0860258703106
 31
0.0
  0
INSERT
  5
83E7
  8
3
 62
     0
  2
_OPEN
 10
2070.505165880289
 20
3284.0860258703119
 30
0.0
 41
40.0
 42
40.0
 43
40.0
 50
270.0
  0
INSERT
  5
83E8
  8
3
 62
     0
  2
_OPEN
 10
2070.505165880289
 20
4144.0860258703106
 30
0.0
 41
40.0
 42
40.0
 43
40.0
 50
90.0
  0
TEXT
  8
3
  40
60
  5
8446
  62
0
  72
0
  71
0
 10
1900.51
 20
3607.89
 30
0.000000
  1
860
  0
POINT
  5
83EA
  8
DEFPOINTS
 62
     0
 10
1784.362690738262
 20
3284.0860258703119
 30
0.0
  0
POINT
  5
83EB
  8
DEFPOINTS
 62
     0
 10
1784.362690738262
 20
4144.0860258703124
 30
0.0
  0
POINT
  5
83EC
  8
DEFPOINTS
 62
     0
 10
2070.505165880289
 20
4144.0860258703106
 30
0.0
  0
ENDBLK
  5
80EE
  8
0
  0
BLOCK
  8
0
  2
*D14
 70
     1
 10
0.0
 20
0.0
 30
0.0
  3
*D14
  1

  0
LINE
  5
83ED
  8
3
 62
     0
 10
1784.362690738262
 20
4154.0860258703124
 30
0.0
 11
1784.362690738262
 21
4278.8364672789967
 31
0.0
  0
LINE
  5
83EE
  8
3
 62
     0
 10
1354.362690738262
 20
4154.0860258703124
 30
0.0
 11
1354.362690738262
 21
4278.8364672789967
 31
0.0
  0
LINE
  5
83EF
  8
3
 62
     0
 10
1744.362690738262
 20
4258.8364672789976
 30
0.0
 11
1394.362690738262
 21
4258.8364672789976
 31
0.0
  0
INSERT
  5
83F0
  8
3
 62
     0
  2
_OPEN
 10
1784.362690738262
 20
4258.8364672789976
 30
0.0
 41
40.0
 42
40.0
 43
40.0
  0
INSERT
  5
83F1
  8
3
 62
     0
  2
_OPEN
 10
1354.362690738262
 20
4258.8364672789976
 30
0.0
 41
40.0
 42
40.0
 43
40.0
 50
180.0
  0
TEXT
  8
3
  40
60
  5
8447
  62
0
  72
0
  71
0
 10
1449.36
 20
4202.64
 30
0.000000
  1
430
  0
POINT
  5
83F3
  8
DEFPOINTS
 62
     0
 10
1784.362690738262
 20
4144.0860258703124
 30
0.0
  0
POINT
  5
83F4
  8
DEFPOINTS
 62
     0
 10
1354.362690738262
 20
4144.0860258703124
 30
0.0
  0
POINT
  5
83F5
  8
DEFPOINTS
 62
     0
 10
1354.362690738262
 20
4258.8364672789976
 30
0.0
  0
ENDBLK
  5
80F9
  8
0
  0
BLOCK
  8
0
  2
*D15
 70
     1
 10
0.0
 20
0.0
 30
0.0
  3
*D15
  1

  0
LINE
  5
83F6
  8
3
 62
     0
 10
2634.7596279908171
 20
1402.9009602021811
 30
0.0
 11
2634.7596279908171
 21
1270.7187831147039
 31
0.0
  0
LINE
  5
83F7
  8
3
 62
     0
 10
3299.7596279908198
 20
1372.9724176677721
 30
0.0
 11
3299.7596279908198
 21
1270.7187831147039
 31
0.0
  0
LINE
  5
83F8
  8
3
 62
     0
 10
2674.7596279908171
 20
1290.7187831147039
 30
0.0
 11
3259.7596279908198
 21
1290.7187831147039
 31
0.0
  0
INSERT
  5
83F9
  8
3
 62
     0
  2
_OPEN
 10
2634.7596279908171
 20
1290.7187831147039
 30
0.0
 41
40.0
 42
40.0
 43
40.0
 50
180.0
  0
INSERT
  5
83FA
  8
3
 62
     0
  2
_OPEN
 10
3299.7596279908198
 20
1290.7187831147039
 30
0.0
 41
40.0
 42
40.0
 43
40.0
  0
TEXT
  8
3
  40
60
  5
8448
  62
0
  72
0
  71
0
 10
2847.26
 20
1234.52
 30
0.000000
  1
665
  0
POINT
  5
83FC
  8
DEFPOINTS
 62
     0
 10
2634.7596279908171
 20
1412.9009602021811
 30
0.0
  0
POINT
  5
83FD
  8
DEFPOINTS
 62
     0
 10
3299.7596279908198
 20
1382.9724176677721
 30
0.0
  0
POINT
  5
83FE
  8
DEFPOINTS
 62
     0
 10
3299.7596279908198
 20
1290.7187831147039
 30
0.0
  0
ENDBLK
  5
810F
  8
0
  0
BLOCK
  8
0
  2
*D16
 70
     1
 10
0.0
 20
0.0
 30
0.0
  3
*D16
  1

  0
LINE
  5
81C5
  8
0
  6
BYBLOCK
 62
     0
 10
3055.1790909804431
 20
1431.9724176677721
 30
0.0
 11
3055.1790909804431
 21
1329.7187831147039
 31
0.0
  0
LINE
  5
81C6
  8
0
  6
BYBLOCK
 62
     0
 10
3250.1790909804408
 20
1461.9009602021811
 30
0.0
 11
3250.1790909804408
 21
1329.7187831147039
 31
0.0
  0
LINE
  5
81C7
  8
0
  6
BYBLOCK
 62
     0
 10
3095.1790909804431
 20
1349.7187831147039
 30
0.0
 11
3210.1790909804422
 21
1349.7187831147039
 31
0.0
  0
TEXT
  5
81C8
  8
3
 62
     0
 10
3081.2505195518711
 20
1370.511318701788
 30
0.0
 40
60.0
  1
195
  0
INSERT
  5
81C9
  8
0
  6
BYBLOCK
 62
     0
  2
_OPEN
 10
3055.1790909804431
 20
1349.7187831147039
 30
0.0
 41
40.0
 42
40.0
 43
40.0
 50
180.0
  0
INSERT
  5
81CA
  8
0
  6
BYBLOCK
 62
     0
  2
_OPEN
 10
3250.1790909804408
 20
1349.7187831147039
 30
0.0
 41
40.0
 42
40.0
 43
40.0
  0
POINT
  5
81CB
  8
DEFPOINTS
  6
BYBLOCK
 62
     0
 10
3055.1790909804431
 20
1441.9724176677721
 30
0.0
  0
POINT
  5
81CC
  8
DEFPOINTS
  6
BYBLOCK
 62
     0
 10
3250.1790909804408
 20
1471.9009602021811
 30
0.0
  0
POINT
  5
81CD
  8
DEFPOINTS
  6
BYBLOCK
 62
     0
 10
3250.1790909804408
 20
1349.7187831147039
 30
0.0
  0
ENDBLK
  5
81CE
  8
0
  0
BLOCK
  8
0
  2
*D17
 70
     1
 10
0.0
 20
0.0
 30
0.0
  3
*D17
  1

  0
LINE
  5
83FF
  8
3
 62
     0
 10
2539.7596279908171
 20
2272.9009602021811
 30
0.0
 11
2539.7596279908171
 21
2681.2857027013761
 31
0.0
  0
LINE
  5
8400
  8
3
 62
     0
 10
3299.7596279908189
 20
2618.868127406673
 30
0.0
 11
3299.7596279908189
 21
2681.2857027013761
 31
0.0
  0
LINE
  5
8401
  8
3
 62
     0
 10
2579.7596279908171
 20
2661.2857027013761
 30
0.0
 11
3259.7596279908189
 21
2661.2857027013761
 31
0.0
  0
INSERT
  5
8402
  8
3
 62
     0
  2
_OPEN
 10
2539.7596279908171
 20
2661.2857027013761
 30
0.0
 41
40.0
 42
40.0
 43
40.0
 50
180.0
  0
INSERT
  5
8403
  8
3
 62
     0
  2
_OPEN
 10
3299.7596279908189
 20
2661.2857027013761
 30
0.0
 41
40.0
 42
40.0
 43
40.0
  0
TEXT
  8
3
  40
60
  5
8449
  62
0
  72
0
  71
0
 10
2799.76
 20
2655.09
 30
0.000000
  1
MAX
  0
TEXT
  8
3
  40
60
  5
844A
  62
0
  72
0
  71
0
 10
2799.76
 20
2577.09
 30
0.000000
  1
830
  0
POINT
  5
8405
  8
DEFPOINTS
 62
     0
 10
2539.7596279908171
 20
2262.9009602021811
 30
0.0
  0
POINT
  5
8406
  8
DEFPOINTS
 62
     0
 10
3299.7596279908189
 20
2608.8681274066721
 30
0.0
  0
POINT
  5
8407
  8
DEFPOINTS
 62
     0
 10
3299.7596279908189
 20
2661.2857027013761
 30
0.0
  0
ENDBLK
  5
8288
  8
0
  0
BLOCK
  8
0
  2
*D18
 70
     1
 10
0.0
 20
0.0
 30
0.0
  3
*D18
  1

  0
LINE
  5
8412
  8
3
 62
     0
 10
3488.3596279908179
 20
2312.9009602021811
 30
0.0
 11
3652.0204462209999
 21
2312.9009602021811
 31
0.0
  0
LINE
  5
8413
  8
3
 62
     0
 10
3488.3596279908179
 20
1912.9009602021811
 30
0.0
 11
3652.0204462209999
 21
1912.9009602021811
 31
0.0
  0
LINE
  5
8414
  8
3
 62
     0
 10
3632.0204462209999
 20
2272.9009602021811
 30
0.0
 11
3632.0204462209999
 21
1952.9009602021811
 31
0.0
  0
INSERT
  5
8415
  8
3
 62
     0
  2
_OPEN
 10
3632.0204462209999
 20
2312.9009602021811
 30
0.0
 41
40.0
 42
40.0
 43
40.0
 50
90.0
  0
INSERT
  5
8416
  8
3
 62
     0
  2
_OPEN
 10
3632.0204462209999
 20
1912.9009602021811
 30
0.0
 41
40.0
 42
40.0
 43
40.0
 50
270.0
  0
TEXT
  8
3
  40
60
  5
844B
  62
0
  72
0
  71
0
 10
3462.02
 20
2006.70
 30
0.000000
  1
φ400
  0
POINT
  5
8418
  8
DEFPOINTS
 62
     0
 10
3478.3596279908179
 20
2312.9009602021811
 30
0.0
  0
POINT
  5
8419
  8
DEFPOINTS
 62
     0
 10
3478.3596279908179
 20
1912.9009602021811
 30
0.0
  0
POINT
  5
841A
  8
DEFPOINTS
 62
     0
 10
3632.0204462209999
 20
1912.9009602021811
 30
0.0
  0
ENDBLK
  5
81D9
  8
0
  0
BLOCK
  8
0
  2
*D19
 70
     1
 10
0.0
 20
0.0
 30
0.0
  3
*D19
  1

  0
LINE
  5
81A4
  8
0
  6
BYBLOCK
 62
     0
 10
3055.1790909804422
 20
2618.868127406673
 30
0.0
 11
3055.1790909804422
 21
2681.2857027013761
 31
0.0
  0
LINE
  5
81A5
  8
0
  6
BYBLOCK
 62
     0
 10
3208.1790909804408
 20
2347.9009602021811
 30
0.0
 11
3208.1790909804408
 21
2681.2857027013761
 31
0.0
  0
LINE
  5
81A6
  8
0
  6
BYBLOCK
 62
     0
 10
3095.1790909804422
 20
2661.2857027013761
 30
0.0
 11
3168.1790909804408
 21
2661.2857027013761
 31
0.0
  0
TEXT
  5
81A7
  8
3
 62
     0
 10
3060.2505195518702
 20
2711.2857027013761
 30
0.0
 40
60.0
  1
153
  0
INSERT
  5
81A8
  8
0
  6
BYBLOCK
 62
     0
  2
_OPEN
 10
3055.1790909804422
 20
2661.2857027013761
 30
0.0
 41
40.0
 42
40.0
 43
40.0
 50
180.0
  0
INSERT
  5
81A9
  8
0
  6
BYBLOCK
 62
     0
  2
_OPEN
 10
3208.1790909804408
 20
2661.2857027013761
 30
0.0
 41
40.0
 42
40.0
 43
40.0
  0
POINT
  5
81AA
  8
DEFPOINTS
  6
BYBLOCK
 62
     0
 10
3055.1790909804422
 20
2608.8681274066721
 30
0.0
  0
POINT
  5
81AB
  8
DEFPOINTS
  6
BYBLOCK
 62
     0
 10
3208.1790909804408
 20
2337.9009602021811
 30
0.0
  0
POINT
  5
81AC
  8
DEFPOINTS
  6
BYBLOCK
 62
     0
 10
3208.1790909804408
 20
2661.2857027013761
 30
0.0
  0
ENDBLK
  5
81AD
  8
0
  0
BLOCK
  8
0
  2
*D20
 70
     1
 10
0.0
 20
0.0
 30
0.0
  3
*D20
  1

  0
LINE
  5
841B
  8
3
 62
     0
 10
3149.7596279908189
 20
2405.1476243046518
 30
0.0
 11
3149.7596279908189
 21
2519.8198854493239
 31
0.0
  0
LINE
  5
841C
  8
3
 62
     0
 10
3449.7596279908198
 20
2404.7340167311299
 30
0.0
 11
3449.7596279908198
 21
2519.8198854493239
 31
0.0
  0
LINE
  5
841D
  8
3
 62
     0
 10
3189.7596279908189
 20
2499.8198854493239
 30
0.0
 11
3409.7596279908198
 21
2499.8198854493239
 31
0.0
  0
INSERT
  5
841E
  8
3
 62
     0
  2
_OPEN
 10
3149.7596279908189
 20
2499.8198854493239
 30
0.0
 41
40.0
 42
40.0
 43
40.0
 50
180.0
  0
INSERT
  5
841F
  8
3
 62
     0
  2
_OPEN
 10
3449.7596279908198
 20
2499.8198854493239
 30
0.0
 41
40.0
 42
40.0
 43
40.0
  0
TEXT
  8
3
  40
60
  5
844C
  62
0
  72
0
  71
0
 10
3179.76
 20
2443.62
 30
0.000000
  1
300
  0
POINT
  5
8421
  8
DEFPOINTS
 62
     0
 10
3149.7596279908189
 20
2395.1476243046532
 30
0.0
  0
POINT
  5
8422
  8
DEFPOINTS
 62
     0
 10
3449.7596279908198
 20
2394.7340167311299
 30
0.0
  0
POINT
  5
8423
  8
DEFPOINTS
 62
     0
 10
3449.7596279908198
 20
2499.8198854493239
 30
0.0
  0
ENDBLK
  5
82B3
  8
0
  0
BLOCK
  8
0
  2
_OPEN
 70
     0
 10
0.0
 20
0.0
 30
0.0
  3
_OPEN
  1

  0
LINE
  5
8040
  8
0
  6
BYBLOCK
 62
     0
 10
-1.0
 20
0.1666666666666666
 30
0.0
 11
0.0
 21
0.0
 31
0.0
  0
LINE
  5
8041
  8
0
  6
BYBLOCK
 62
     0
 10
0.0
 20
0.0
 30
0.0
 11
-1.0
 21
-0.1666666666666666
 31
0.0
  0
LINE
  5
8042
  8
0
  6
BYBLOCK
 62
     0
 10
0.0
 20
0.0
 30
0.0
 11
-1.0
 21
0.0
 31
0.0
  0
ENDBLK
  5
8043
  8
0
  0
BLOCK
  8
0
  2
_DOT
 70
     0
 10
0.0
 20
0.0
 30
0.0
  3
_DOT
  1

  0
LINE
  5
8240
  8
0
  6
BYBLOCK
 62
     0
 10
0.0
 20
0.0
 30
0.0
 11
-1.0
 21
-0.0000000000000284
 31
0.0
  0
POLYLINE
  5
8241
  8
0
  6
BYBLOCK
 62
     0
 66
     1
 10
0.0
 20
0.0
 30
0.0
 70
     1
 40
0.1666666666666666
 41
0.1666666666666666
  0
VERTEX
  5
842E
  8
0
  6
BYBLOCK
 62
     0
 10
-0.0833333333333286
 20
-0.0000000000000284
 30
0.0
 42
1.0
  0
VERTEX
  5
842F
  8
0
  6
BYBLOCK
 62
     0
 10
0.0833333333333286
 20
-0.0000000000000284
 30
0.0
 42
1.0
  0
SEQEND
  5
8430
  8
0
  6
BYBLOCK
 62
     0
  0
ENDBLK
  5
8225
  8
0
  0
BLOCK
  8
0
  2
*D23
 70
     1
 10
0.0
 20
0.0
 30
0.0
  3
*D23
  1

  0
LINE
  5
8431
  8
3
 62
     0
 10
1874.362690738262
 20
2137.9009602021811
 30
0.0
 11
1874.362690738262
 21
2646.9207034277911
 31
0.0
  0
LINE
  5
8432
  8
3
 62
     0
 10
854.36269073826224
 20
1667.9009602021811
 30
0.0
 11
854.36269073826224
 21
2646.9207034277911
 31
0.0
  0
LINE
  5
8433
  8
3
 62
     0
 10
1834.362690738262
 20
2626.9207034277911
 30
0.0
 11
894.36269073826236
 21
2626.9207034277911
 31
0.0
  0
INSERT
  5
8434
  8
3
 62
     0
  2
_OPEN
 10
1874.362690738262
 20
2626.9207034277911
 30
0.0
 41
40.0
 42
40.0
 43
40.0
  0
INSERT
  5
8435
  8
3
 62
     0
  2
_OPEN
 10
854.36269073826224
 20
2626.9207034277911
 30
0.0
 41
40.0
 42
40.0
 43
40.0
 50
180.0
  0
TEXT
  8
3
  40
60
  5
844D
  62
0
  72
0
  71
0
 10
1294.18
 20
2570.72
 30
0.000000
  1
1020
  0
POINT
  5
8437
  8
DEFPOINTS
 62
     0
 10
1874.362690738262
 20
2127.9009602021811
 30
0.0
  0
POINT
  5
8438
  8
DEFPOINTS
 62
     0
 10
854.36269073826224
 20
1657.9009602021811
 30
0.0
  0
POINT
  5
8439
  8
DEFPOINTS
 62
     0
 10
854.36269073826224
 20
2626.9207034277911
 30
0.0
  0
ENDBLK
  5
825C
  8
0
  0
BLOCK
  8
0
  2
*D24
 70
     1
 10
0.0
 20
0.0
 30
0.0
  3
*D24
  1

  0
LINE
  5
832B
  8
0
  6
BYBLOCK
 62
     0
 10
1398.3751557509329
 20
1487.9009602021811
 30
0.0
 11
1827.8990882747471
 21
1487.9009602021811
 31
0.0
  0
LINE
  5
832C
  8
0
  6
BYBLOCK
 62
     0
 10
1807.8990882747471
 20
1622.9009602021811
 30
0.0
 11
1807.8990882747471
 21
1662.9009602021811
 31
0.0
  0
LINE
  5
832D
  8
0
  6
BYBLOCK
 62
     0
 10
1807.8990882747471
 20
1447.9009602021811
 30
0.0
 11
1807.8990882747471
 21
1407.9009602021811
 31
0.0
  0
TEXT
  5
832E
  8
3
 62
     0
 10
1923.6133739890331
 20
1448.258103059324
 30
0.0
 40
60.0
  1
(95)
 50
90.0
  0
LINE
  5
832F
  8
0
  6
BYBLOCK
 62
     0
 10
1807.8990882747471
 20
1582.9009602021811
 30
0.0
 11
1807.8990882747471
 21
1487.9009602021811
 31
0.0
  0
INSERT
  5
8330
  8
0
  6
BYBLOCK
 62
     0
  2
_OPEN
 10
1807.8990882747471
 20
1582.9009602021811
 30
0.0
 41
40.0
 42
40.0
 43
40.0
 50
270.0
  0
INSERT
  5
8331
  8
0
  6
BYBLOCK
 62
     0
  2
_DOT
 10
1807.8990882747471
 20
1487.9009602021811
 30
0.0
 41
40.0
 42
40.0
 43
40.0
 50
90.0
  0
POINT
  5
8332
  8
DEFPOINTS
  6
BYBLOCK
 62
     0
 10
1388.3751557509329
 20
1582.9009602021811
 30
0.0
  0
POINT
  5
8333
  8
DEFPOINTS
  6
BYBLOCK
 62
     0
 10
1388.3751557509329
 20
1487.9009602021811
 30
0.0
  0
POINT
  5
8334
  8
DEFPOINTS
  6
BYBLOCK
 62
     0
 10
1807.8990882747471
 20
1487.9009602021811
 30
0.0
  0
ENDBLK
  5
8335
  8
0
  0
ENDSEC
  0
SECTION
  2
ENTITIES
  0
DIMENSION
  5
7C9D
  8
3
  2
*D0
 10
1569.362690738262
 20
1292.2082613862931
 30
0.0
 11
1211.862690738262
 21
1342.2082613862931
 31
0.0
 70
     0
 13
854.36269073826224
 23
1412.9009602021811
 33
0.0
 14
1569.362690738262
 24
1382.9724176677721
 34
0.0
1001
ACAD
1000
DSTYLE
1002
{
1070
   287
1070
     3
1070
    40
1040
20.0
1070
   143
1040
0.039
1070
   172
1070
     1
1070
   271
1070
     0
1070
   279
1070
     0
1070
   288
1070
     1
1002
}
  0
DIMENSION
  5
7C9E
  8
3
  2
*D1
 10
1227.3549737762471
 20
2498.1814768477739
 30
0.0
 11
1398.358832257255
 21
2548.1814768477739
 31
0.0
 70
     0
 13
1569.362690738262
 23
2433.2563877305888
 33
0.0
 14
1227.3549737762471
 24
2082.9009602021802
 34
0.0
1001
ACAD
1000
DSTYLE
1002
{
1070
   287
1070
     3
1070
    40
1040
20.0
1070
   143
1040
0.039
1070
   172
1070
     1
1070
   271
1070
     0
1070
   279
1070
     0
1070
   288
1070
     1
1002
}
  0
LINE
  5
7C9F
  8
1
 10
1077.397911298086
 20
1694.217719803931
 30
0.0
 11
1637.3979112980851
 21
1979.2177198039319
 31
0.0
  0
LINE
  5
7CA0
  8
1
 10
941.32747017843894
 20
1961.5842006004309
 30
0.0
 11
1501.3274701784389
 21
2246.5842006004309
 31
0.0
  0
LINE
  5
7CA1
  8
1
 10
1045.2901165545859
 20
1760.702298949054
 30
0.0
 11
1599.3022122518651
 21
2056.9020758245751
 31
0.0
  0
LINE
  5
7CA2
  8
1
 10
976.18045278998125
 20
1896.4967259952939
 30
0.0
 11
1541.7108257813611
 21
2170.0640983631092
 31
0.0
  0
ARC
  5
7CA5
  8
1
 10
1539.362690738262
 20
2082.900960202182
 30
0.0
 40
312.00771696201508
 50
82.476179561360453
 51
179.99999999999929
  0
ARC
  5
7CA6
  8
1
 10
1599.362690738262
 20
2082.9009602021802
 30
0.0
 40
372.00771696201542
 50
179.99999999999929
 51
265.38856909003903
  0
LINE
  5
7CA7
  8
1
 10
854.36269073826224
 20
1412.9009602021811
 30
0.0
 11
1784.362690738262
 21
1412.9009602021811
 31
0.0
  0
LINE
  5
7CA8
  8
1
 10
854.36269073826224
 20
1487.9009602021811
 30
0.0
 11
1784.362690738262
 21
1487.9009602021811
 31
0.0
  0
LINE
  5
7CA9
  8
1
 10
1233.697295220323
 20
2014.5009602021819
 30
0.0
 11
1384.362690738262
 21
2014.500960202181
 31
0.0
  0
LINE
  5
7CAA
  8
1
 10
1234.870740924154
 20
2008.500960202181
 30
0.0
 11
1384.362690738262
 21
2008.500960202181
 31
0.0
  0
LINE
  5
7CAB
  8
1
 10
854.36269073826224
 20
1582.9009602021811
 30
0.0
 11
1784.362690738262
 21
1582.9009602021811
 31
0.0
  0
LINE
  5
7CAC
  8
1
 10
854.36269073826224
 20
1657.9009602021811
 30
0.0
 11
1784.362690738262
 21
1657.9009602021811
 31
0.0
  0
LINE
  5
7CAD
  8
2
 10
1208.14679621343
 20
2112.9009602021811
 30
0.0
 11
1886.740460377539
 21
2112.9009602021811
 31
0.0
  0
LINE
  5
7CAE
  8
1
 10
854.36269073826224
 20
1582.9009602021811
 30
0.0
 11
1784.362690738262
 21
1582.9009602021811
 31
0.0
  0
ARC
  5
7CAF
  8
1
 10
1009.362690738262
 20
1827.9009602021811
 30
0.0
 40
150.0
 50
116.9728434336437
 51
296.97284343364367
  0
CIRCLE
  5
7CB0
  8
1
 10
1009.362690738262
 20
1827.9009602021811
 30
0.0
 40
76.200000000000003
  0
LINE
  5
7CB1
  8
2
 10
1009.362690738262
 20
1929.125860202181
 30
0.0
 11
1009.362690738262
 21
1726.4125602021811
 31
0.0
  0
ARC
  5
7CB2
  8
1
 10
1009.362690738262
 20
1827.9009602021811
 30
0.0
 40
100.8
 50
0.0
 51
254.57230000000001
  0
ARC
  5
7CB4
  8
1
 10
1009.362690738262
 20
1827.9009602021811
 30
0.0
 40
100.8
 50
285.7971
 51
0.0
  0
LINE
  5
7CB6
  8
1
 10
887.75017889707215
 20
1727.9009602021811
 30
0.0
 11
1130.9752025794519
 21
1727.9009602021811
 31
0.0
  0
LINE
  5
7CB7
  8
1
 10
859.36269073826224
 20
1687.9009602021811
 30
0.0
 11
1159.362690738262
 21
1687.9009602021811
 31
0.0
  0
LINE
  5
7CB9
  8
1
 10
854.36269073826224
 20
1487.9009602021811
 30
0.0
 11
854.36269073826224
 21
1412.9009602021811
 31
0.0
  0
LINE
  5
7CBA
  8
1
 10
854.36269073826224
 20
1657.9009602021811
 30
0.0
 11
854.36269073826224
 21
1582.9009602021811
 31
0.0
  0
LINE
  5
7CBB
  8
1
 10
859.36269073826224
 20
1687.9009602021811
 30
0.0
 11
859.36269073826224
 21
1657.9009602021811
 31
0.0
  0
LINE
  5
7CBC
  8
1
 10
876.86269073826224
 20
1687.9009602021811
 30
0.0
 11
887.75017889707215
 21
1727.9009602021811
 31
0.0
  0
LINE
  5
7CC2
  8
1
 10
909.36269073826224
 20
1727.9009602021811
 30
0.0
 11
909.36269073826224
 21
1737.9009602021811
 31
0.0
  0
ARC
  5
7CC3
  8
1
 10
911.36269073826224
 20
1737.9009602021811
 30
0.0
 40
2.0
 50
90.0
 51
180.0
  0
LINE
  5
7CC4
  8
1
 10
910.25489073826236
 20
1739.5690602021809
 30
0.0
 11
926.65569073826225
 21
1770.231060202181
 31
0.0
  0
LINE
  5
7CC5
  8
1
 10
909.36269073826224
 20
1727.9009602021811
 30
0.0
 11
949.36269073826224
 21
1727.9009602021811
 31
0.0
  0
LINE
  5
7CC7
  8
1
 10
1036.980390738262
 20
1730.9009602021811
 30
0.0
 11
982.09329073826245
 21
1730.9009602021811
 31
0.0
  0
LINE
  5
7CCA
  8
1
 10
1109.362690738262
 20
1727.9009602021811
 30
0.0
 11
1069.362690738262
 21
1727.9009602021811
 31
0.0
  0
LINE
  5
7CCE
  8
1
 10
1109.362690738262
 20
1727.9009602021811
 30
0.0
 11
1109.362690738262
 21
1737.9009602021811
 31
0.0
  0
LINE
  5
7CD2
  8
1
 10
1108.2718907382621
 20
1739.9404602021809
 30
0.0
 11
1092.1531907382621
 21
1770.0747602021811
 31
0.0
  0
ARC
  5
7CD3
  8
1
 10
1107.362690738262
 20
1737.9009602021811
 30
0.0
 40
2.0
 50
0.0
 51
90.0
  0
LINE
  5
7CD4
  8
1
 10
1141.862690738262
 20
1687.9009602021811
 30
0.0
 11
1130.9752025794519
 21
1727.9009602021811
 31
0.0
  0
LINE
  5
7CD5
  8
1
 10
1159.362690738262
 20
1687.9009602021811
 30
0.0
 11
1159.362690738262
 21
1657.9009602021811
 31
0.0
  0
LINE
  5
7CD6
  8
2
 10
908.74729073826245
 20
1827.9009602021811
 30
0.0
 11
1117.408190738262
 21
1827.9009602021811
 31
0.0
  0
DIMENSION
  5
7CD7
  8
3
  2
*D2
 10
2401.2896446118771
 20
2394.9086771641969
 30
0.0
 11
2351.2896446118771
 21
1903.904818683189
 31
0.0
 70
     0
 13
1784.362690738262
 23
1412.9009602021811
 33
0.0
 14
1539.362690738262
 24
2394.9086771641969
 34
0.0
 50
90.0
1001
ACAD
1000
DSTYLE
1002
{
1070
   287
1070
     3
1070
    40
1040
20.0
1070
   143
1040
0.039
1070
   172
1070
     1
1070
   271
1070
     0
1070
   279
1070
     0
1070
   288
1070
     1
1002
}
  0
DIMENSION
  5
7CD8
  8
3
  2
*D3
 10
2203.8866232620758
 20
1582.9009602021811
 30
0.0
 11
2153.8866232620758
 21
1847.9009602021811
 31
0.0
 70
     0
 13
1886.740460377539
 23
2112.9009602021811
 33
0.0
 14
1784.362690738262
 24
1582.9009602021811
 34
0.0
 50
90.0
1001
ACAD
1000
DSTYLE
1002
{
1070
   287
1070
     3
1070
    40
1040
20.0
1070
   143
1040
0.039
1070
   172
1070
     1
1070
   271
1070
     0
1070
   279
1070
     0
1070
   288
1070
     1
1002
}
  0
DIMENSION
  5
7CD9
  8
3
  2
*D4
 10
2091.1743100967369
 20
2112.9009602021811
 30
0.0
 11
2041.1743100967369
 21
1900.9009602021811
 31
0.0
 70
     0
 13
1874.362690738262
 23
1688.9009602021811
 33
0.0
 14
1886.740460377539
 24
2112.9009602021811
 34
0.0
 50
90.0
1001
ACAD
1000
DSTYLE
1002
{
1070
   287
1070
     3
1070
    40
1040
20.0
1070
   143
1040
0.039
1070
   172
1070
     1
1070
   271
1070
     0
1070
   279
1070
     0
1070
   288
1070
     1
1002
}
  0
DIMENSION
  5
7CDA
  8
3
  2
*D5
 10
1998.0040466566261
 20
2100.9009602021811
 30
0.0
 11
1948.0040466566261
 21
1894.9009602021811
 31
0.0
 70
     0
 13
1874.362690738262
 23
1688.9009602021811
 33
0.0
 14
1874.362690738262
 24
2100.9009602021811
 34
0.0
 50
90.0
1001
ACAD
1000
DSTYLE
1002
{
1070
   287
1070
     3
1070
    40
1040
20.0
1070
   143
1040
0.039
1070
   172
1070
     1
1070
   271
1070
     0
1070
   279
1070
     0
1070
   288
1070
     1
1002
}
  0
LINE
  5
7CDB
  8
1
 10
1384.362690738262
 20
2054.500960202181
 30
0.0
 11
1384.362690738262
 21
1657.9009602021811
 31
0.0
  0
LINE
  5
7CDC
  8
2
 10
1569.362690738262
 20
2433.2563877305888
 30
0.0
 11
1569.362690738262
 21
1382.9724176677721
 31
0.0
  0
LINE
  5
7CDD
  8
1
 10
1754.362690738262
 20
2054.500960202181
 30
0.0
 11
1754.362690738262
 21
1657.9009602021811
 31
0.0
  0
LINE
  5
7CDE
  8
1
 10
1871.362690738262
 20
2100.9009602021811
 30
0.0
 11
1871.362690738262
 21
1688.900960202182
 31
0.0
  0
LINE
  5
7CDF
  8
1
 10
1849.362690738262
 20
2102.9009602021811
 30
0.0
 11
1849.362690738262
 21
1687.9009602021811
 31
0.0
  0
LINE
  5
7CE0
  8
1
 10
1874.362690738262
 20
2100.9009602021811
 30
0.0
 11
1874.362690738262
 21
1663.9009602021811
 31
0.0
  0
DIMENSION
  5
7CE1
  8
3
  2
*D6
 10
2203.8866232620758
 20
1412.9009602021811
 30
0.0
 11
2153.8866232620758
 21
1264.3295316307531
 31
0.0
 70
     0
 13
1784.362690738262
 23
1487.9009602021811
 33
0.0
 14
1784.362690738262
 24
1412.9009602021811
 34
0.0
 50
90.0
1001
ACAD
1000
DSTYLE
1002
{
1070
   287
1070
     3
1070
    40
1040
20.0
1070
   143
1040
0.039
1070
   172
1070
     1
1070
   271
1070
     0
1070
   279
1070
     0
1070
   288
1070
     1
1070
     6
1000
DOT
1002
}
  0
DIMENSION
  5
7CE3
  8
3
  2
*D7
 10
1784.362690738262
 20
1292.2082613862931
 30
0.0
 11
1676.862690738262
 21
1349.714716447244
 31
0.0
 12
395.98753498732913
 22
-59.0
 32
0.0
 70
   128
 13
1569.362690738262
 23
1382.9724176677721
 33
0.0
 14
1784.362690738262
 24
1412.9009602021811
 34
0.0
1001
ACAD
1000
DSTYLE
1002
{
1070
   288
1070
     1
1070
   172
1070
     1
1070
    40
1040
20.0
1070
   271
1070
     0
1070
   143
1040
0.039
1002
}
  0
LINE
  5
7CE4
  8
1
 10
1569.4540935065129
 20
1712.097484907086
 30
0.0
 11
1874.362690738262
 21
1688.9009602021811
 31
0.0
  0
LINE
  5
7CE5
  8
1
 10
1364.362690738262
 20
1732.9009602021811
 30
0.0
 11
1364.362690738262
 21
1657.9009602021811
 31
0.0
  0
LINE
  5
7CE6
  8
1
 10
1364.362690738262
 20
1662.9009602021811
 30
0.0
 11
1384.362690738262
 21
1662.9009602021811
 31
0.0
  0
LINE
  5
7CE7
  8
1
 10
1364.362690738262
 20
1732.9009602021811
 30
0.0
 11
1384.362690738262
 21
1732.9009602021811
 31
0.0
  0
LINE
  5
7CE8
  8
1
 10
1784.362690738262
 20
1487.9009602021811
 30
0.0
 11
1784.362690738262
 21
1412.9009602021811
 31
0.0
  0
LINE
  5
7CE9
  8
1
 10
1754.362690738262
 20
1732.9009602021811
 30
0.0
 11
1774.362690738262
 21
1732.9009602021811
 31
0.0
  0
LINE
  5
7CEE
  8
1
 10
1754.362690738262
 20
1662.9009602021811
 30
0.0
 11
1774.362690738262
 21
1662.9009602021811
 31
0.0
  0
LINE
  5
7CEF
  8
1
 10
1784.362690738262
 20
1657.9009602021811
 30
0.0
 11
1784.362690738262
 21
1582.9009602021811
 31
0.0
  0
POLYLINE
  5
7CF0
  8
1
 66
     1
 10
0.0
 20
0.0
 30
0.0
 70
     1
  0
VERTEX
  5
83A3
  8
1
 10
1874.362690738262
 20
1688.9009602021811
 30
0.0
  0
VERTEX
  5
83A4
  8
1
 10
1874.362690738262
 20
1663.9009602021811
 30
0.0
  0
VERTEX
  5
83A5
  8
1
 10
1873.362690738262
 20
1663.9009602021811
 30
0.0
 42
-0.4142135623730951
  0
VERTEX
  5
83A6
  8
1
 10
1871.362690738262
 20
1665.9009602021811
 30
0.0
  0
VERTEX
  5
83A7
  8
1
 10
1871.362690738262
 20
1681.9009602021811
 30
0.0
 42
0.4142135623730951
  0
VERTEX
  5
83A8
  8
1
 10
1867.362690738262
 20
1685.9009602021811
 30
0.0
  0
VERTEX
  5
83A9
  8
1
 10
1851.362690738262
 20
1685.9009602021811
 30
0.0
 42
-0.4142135623730951
  0
VERTEX
  5
83AA
  8
1
 10
1849.362690738262
 20
1687.9009602021811
 30
0.0
  0
VERTEX
  5
83AB
  8
1
 10
1849.362690738262
 20
1688.9009602021811
 30
0.0
  0
SEQEND
  5
83AC
  8
1
  0
LINE
  5
7CFB
  8
1
 10
1774.362690738262
 20
1732.9009602021811
 30
0.0
 11
1774.362690738262
 21
1657.9009602021811
 31
0.0
  0
LINE
  5
7CFD
  8
1
 10
1849.362690738262
 20
1687.9009602021811
 30
0.0
 11
1849.362690738262
 21
1688.9009602021811
 31
0.0
  0
DIMENSION
  5
7CFE
  8
3
  2
*D8
 10
2203.8866232620758
 20
2394.9086771641969
 30
0.0
 11
2153.8866232620758
 21
2253.9048186831901
 31
0.0
 70
     0
 13
1886.740460377539
 23
2112.9009602021811
 33
0.0
 14
1539.362690738262
 24
2394.9086771641969
 34
0.0
 50
90.0
1001
ACAD
1000
DSTYLE
1002
{
1070
   287
1070
     3
1070
    40
1040
20.0
1070
   143
1040
0.039
1070
   172
1070
     1
1070
   271
1070
     0
1070
   279
1070
     0
1070
   288
1070
     1
1002
}
  0
DIMENSION
  5
7CFF
  8
3
  2
*D9
 10
1569.362690738262
 20
2498.1814768477739
 30
0.0
 11
1721.862690738262
 21
2548.1814768477739
 31
0.0
 70
     0
 13
1874.362690738262
 23
2127.9009602021811
 33
0.0
 14
1569.362690738262
 24
2433.2563877305888
 34
0.0
1001
ACAD
1000
DSTYLE
1002
{
1070
   287
1070
     3
1070
    40
1040
20.0
1070
   143
1040
0.039
1070
   172
1070
     1
1070
   271
1070
     0
1070
   279
1070
     0
1070
   288
1070
     1
1002
}
  0
ARC
  5
7D00
  8
1
 10
1569.362690738262
 20
2112.9009602021811
 30
0.0
 40
150.0
 50
296.97284343364367
 51
116.9728434336437
  0
ARC
  5
7D02
  8
1
 10
1546.3626907382629
 20
2135.9009602021802
 30
0.0
 40
258.54745134352208
 50
0.0000000000002544
 51
82.476179561360411
  0
CIRCLE
  5
7D03
  8
1
 10
1569.362690738262
 20
2112.9009602021811
 30
0.0
 40
63.5
  0
LINE
  5
7D04
  8
1
 10
1379.362690738262
 20
2057.7009602021808
 30
0.0
 11
1759.362690738262
 21
2057.7009602021808
 31
0.0
  0
LINE
  5
7D05
  8
1
 10
1344.362690738262
 20
2054.500960202181
 30
0.0
 11
1794.362690738262
 21
2054.500960202181
 31
0.0
  0
LINE
  5
7D06
  8
1
 10
1344.362690738262
 20
2054.500960202181
 30
0.0
 11
1344.362690738262
 21
2014.500960202181
 31
0.0
  0
LINE
  5
7D07
  8
1
 10
1379.362690738262
 20
2057.7009602021808
 30
0.0
 11
1379.362690738262
 21
2054.500960202181
 31
0.0
  0
ARC
  5
7D08
  8
1
 10
1592.362690738262
 20
2135.9009602021852
 30
0.0
 40
212.5474513435226
 50
350.52198696202453
 51
359.99999999999898
  0
LINE
  5
7D09
  8
1
 10
1794.362690738262
 20
2054.500960202181
 30
0.0
 11
1794.362690738262
 21
2014.500960202181
 31
0.0
  0
LINE
  5
7D0B
  8
1
 10
1754.362690738262
 20
2008.500960202181
 30
0.0
 11
1849.362690738262
 21
2008.500960202181
 31
0.0
  0
LINE
  5
7D0C
  8
1
 10
1754.362690738262
 20
2014.500960202181
 30
0.0
 11
1849.3626907382629
 21
2014.5009602021819
 31
0.0
  0
LINE
  5
7D0E
  8
1
 10
1759.362690738262
 20
2057.7009602021808
 30
0.0
 11
1759.362690738262
 21
2054.500960202181
 31
0.0
  0
POLYLINE
  5
7D0F
  8
1
 66
     1
 10
0.0
 20
0.0
 30
0.0
 70
     1
  0
VERTEX
  5
83BF
  8
1
 10
1874.362690738262
 20
2100.9009602021811
 30
0.0
  0
VERTEX
  5
83C0
  8
1
 10
1874.362690738262
 20
2125.9009602021811
 30
0.0
  0
VERTEX
  5
83C1
  8
1
 10
1873.362690738262
 20
2125.9009602021811
 30
0.0
 42
0.4142135623730951
  0
VERTEX
  5
83C2
  8
1
 10
1871.362690738262
 20
2123.9009602021811
 30
0.0
  0
VERTEX
  5
83C3
  8
1
 10
1871.362690738262
 20
2107.9009602021811
 30
0.0
 42
-0.4142135623730951
  0
VERTEX
  5
83C4
  8
1
 10
1867.362690738262
 20
2103.9009602021811
 30
0.0
  0
VERTEX
  5
83C5
  8
1
 10
1851.362690738262
 20
2103.9009602021811
 30
0.0
 42
0.4142135623730951
  0
VERTEX
  5
83C6
  8
1
 10
1849.362690738262
 20
2101.9009602021811
 30
0.0
  0
VERTEX
  5
83C7
  8
1
 10
1849.362690738262
 20
2100.9009602021811
 30
0.0
  0
SEQEND
  5
83C8
  8
1
  0
LINE
  5
7D1A
  8
1
 10
1802.0086281485219
 20
2100.9009602021811
 30
0.0
 11
1874.362690738262
 21
2100.9009602021811
 31
0.0
  0
LINE
  5
7D1F
  8
1
 10
859.36269073826259
 20
3311.0860258703128
 30
0.0
 11
1719.362690738262
 21
3311.0860258703119
 31
0.0
  0
LINE
  5
7D20
  8
1
 10
859.36269073826224
 20
3189.0860258703128
 30
0.0
 11
1719.362690738262
 21
3189.0860258703119
 31
0.0
  0
DIMENSION
  5
7D21
  8
3
  2
*D10
 10
854.36269073826224
 20
4258.8364672789976
 30
0.0
 11
1104.362690738262
 21
4308.8364672789976
 31
0.0
 70
     0
 13
1354.362690738262
 23
4144.0860258703124
 33
0.0
 14
854.36269073826224
 24
3704.086025870311
 34
0.0
1001
ACAD
1000
DSTYLE
1002
{
1070
   287
1070
     3
1070
    40
1040
20.0
1070
   143
1040
0.039
1070
   172
1070
     1
1070
   271
1070
     0
1070
   279
1070
     0
1070
   288
1070
     1
1002
}
  0
DIMENSION
  5
7D22
  8
3
  2
*D11
 10
1784.362690738262
 20
3065.9108716460828
 30
0.0
 11
1319.362690738262
 21
3115.9108716460828
 31
0.0
 70
     0
 13
854.36269073826224
 23
3284.086025870311
 33
0.0
 14
1784.362690738262
 24
3284.0860258703119
 34
0.0
1001
ACAD
1000
DSTYLE
1002
{
1070
   287
1070
     3
1070
    40
1040
20.0
1070
   143
1040
0.039
1070
   172
1070
     1
1070
   271
1070
     0
1070
   279
1070
     0
1070
   288
1070
     1
1002
}
  0
LINE
  5
7D23
  8
1
 10
1505.862690738262
 20
3269.0860258703119
 30
0.0
 11
1085.5626907382621
 21
3269.0860258703128
 31
0.0
  0
LINE
  5
7D24
  8
1
 10
1085.5626907382621
 20
3219.0860258703128
 30
0.0
 11
1505.862690738262
 21
3219.0860258703119
 31
0.0
  0
LINE
  5
7D25
  8
1
 10
1109.362690738262
 20
3324.086025870311
 30
0.0
 11
1379.362690738262
 21
3324.0860258703119
 31
0.0
  0
LINE
  5
7D26
  8
1
 10
1216.1549737762471
 20
3799.0860258703119
 30
0.0
 11
1871.362690738262
 21
3799.0860258703119
 31
0.0
  0
LINE
  5
7D27
  8
1
 10
1216.1549737762471
 20
4099.0860258703124
 30
0.0
 11
1871.362690738262
 21
4099.0860258703124
 31
0.0
  0
LINE
  5
7D28
  8
2
 10
1192.188587275557
 20
3949.0860258703119
 30
0.0
 11
1927.527521735213
 21
3949.0860258703128
 31
0.0
  0
LINE
  5
7D29
  8
1
 10
854.36269073826224
 20
3704.086025870311
 30
0.0
 11
1354.362690738262
 21
3704.0860258703119
 31
0.0
  0
LINE
  5
7D2A
  8
1
 10
854.36269073826224
 20
3664.086025870311
 30
0.0
 11
1354.362690738262
 21
3664.0860258703119
 31
0.0
  0
LINE
  5
7D2B
  8
1
 10
854.36269073826224
 20
3284.086025870311
 30
0.0
 11
1549.362690738262
 21
3284.0860258703119
 31
0.0
  0
LINE
  5
7D2C
  8
1
 10
859.36269073826259
 20
3189.0860258703142
 30
0.0
 11
859.36269073826224
 21
3311.0860258703128
 31
0.0
  0
LINE
  5
7D2D
  8
1
 10
1085.5626907382621
 20
3269.0860258703119
 30
0.0
 11
1085.5626907382621
 21
3219.0860258703128
 31
0.0
  0
LINE
  5
7D2E
  8
1
 10
933.16269073826243
 20
3269.0860258703119
 30
0.0
 11
933.16269073826243
 21
3219.0860258703119
 31
0.0
  0
LINE
  5
7D2F
  8
2
 10
1009.362690738262
 20
3590.4167258703119
 30
0.0
 11
1009.362690738262
 21
3213.7680258703122
 31
0.0
  0
LINE
  5
7D30
  8
1
 10
933.16269073826243
 20
3219.0860258703119
 30
0.0
 11
1085.5626907382621
 21
3219.0860258703128
 31
0.0
  0
LINE
  5
7D31
  8
1
 10
933.16269073826243
 20
3269.0860258703119
 30
0.0
 11
1085.5626907382621
 21
3269.0860258703128
 31
0.0
  0
LINE
  5
7D32
  8
1
 10
1109.362690738262
 20
3290.0860258703119
 30
0.0
 11
909.36269073826224
 21
3290.0860258703119
 31
0.0
  0
LINE
  5
7D33
  8
1
 10
909.36269073826224
 20
3585.0860258703119
 30
0.0
 11
1109.362690738262
 21
3585.0860258703119
 31
0.0
  0
DIMENSION
  5
7D34
  8
3
  2
*D12
 10
779.0187525778947
 20
3704.086025870311
 30
0.0
 11
729.01875257789413
 21
3494.086025870311
 31
0.0
 70
     0
 13
854.36269073826224
 23
3284.086025870311
 33
0.0
 14
854.36269073826224
 24
3704.086025870311
 34
0.0
 50
90.0
1001
ACAD
1000
DSTYLE
1002
{
1070
   287
1070
     3
1070
    40
1040
20.0
1070
   143
1040
0.039
1070
   172
1070
     1
1070
   271
1070
     0
1070
   279
1070
     0
1070
   288
1070
     1
1002
}
  0
LINE
  5
7D35
  8
1
 10
909.36269073826224
 20
3290.0860258703119
 30
0.0
 11
909.36269073826224
 21
3585.0860258703119
 31
0.0
  0
LINE
  5
7D36
  8
1
 10
854.36269073826224
 20
3324.086025870311
 30
0.0
 11
909.36269073826224
 21
3324.086025870311
 31
0.0
  0
LINE
  5
7D37
  8
1
 10
854.36269073826224
 20
3324.0860258703119
 30
0.0
 11
854.36269073826224
 21
3284.0860258703119
 31
0.0
  0
POINT
  5
7D38
  8
1
 10
854.36269073826224
 20
3284.086025870311
 30
0.0
  0
POINT
  5
7D39
  8
1
 10
854.36269073826224
 20
3284.086025870311
 30
0.0
  0
LINE
  5
7D3A
  8
1
 10
911.36269073826224
 20
3664.086025870311
 30
0.0
 11
911.36269073826224
 21
3585.0860258703119
 31
0.0
  0
LINE
  5
7D3B
  8
1
 10
854.36269073826224
 20
3704.086025870311
 30
0.0
 11
854.36269073826224
 21
3664.086025870311
 31
0.0
  0
LINE
  5
7D3C
  8
1
 10
1109.362690738262
 20
3412.0860258703119
 30
0.0
 11
1109.362690738262
 21
3585.0860258703119
 31
0.0
  0
LINE
  5
7D3D
  8
1
 10
1109.362690738262
 20
3412.0860258703119
 30
0.0
 11
1109.362690738262
 21
3290.0860258703119
 31
0.0
  0
LINE
  5
7D3E
  8
1
 10
972.36269073826213
 20
3284.0860258703119
 30
0.0
 11
1046.362690738262
 21
3284.0860258703119
 31
0.0
  0
LINE
  5
7D3F
  8
1
 10
969.36269073826224
 20
3290.0860258703119
 30
0.0
 11
969.36269073826224
 21
3287.0860258703119
 31
0.0
  0
ARC
  5
7D40
  8
1
 10
972.36269073826213
 20
3287.0860258703119
 30
0.0
 40
2.9998999999999989
 50
179.99879999999999
 51
270.00119999999998
  0
LINE
  5
7D41
  8
1
 10
1023.962690738262
 20
3284.0860258703119
 30
0.0
 11
1023.962690738262
 21
3279.0860258703119
 31
0.0
  0
LINE
  5
7D42
  8
1
 10
994.76279073826242
 20
3284.0860258703119
 30
0.0
 11
994.76279073826242
 21
3279.0860258703119
 31
0.0
  0
LINE
  5
7D43
  8
1
 10
1023.962690738262
 20
3279.0860258703119
 30
0.0
 11
994.76279073826242
 21
3279.0860258703119
 31
0.0
  0
LINE
  5
7D44
  8
1
 10
1023.362690738262
 20
3279.0860258703119
 30
0.0
 11
1023.362690738262
 21
3269.0860258703119
 31
0.0
  0
LINE
  5
7D45
  8
1
 10
995.36269073826224
 20
3279.0860258703119
 30
0.0
 11
995.36269073826224
 21
3269.0860258703119
 31
0.0
  0
LINE
  5
7D46
  8
1
 10
1049.362690738262
 20
3290.0860258703119
 30
0.0
 11
1049.362690738262
 21
3287.0860258703119
 31
0.0
  0
ARC
  5
7D47
  8
1
 10
1046.362790738262
 20
3287.0860258703119
 30
0.0
 40
2.9998999999999989
 50
269.99880000000002
 51
0.0012000000000121
  0
LINE
  5
7D48
  8
1
 10
1107.362690738262
 20
3664.086025870311
 30
0.0
 11
1107.362690738262
 21
3585.0860258703119
 31
0.0
  0
LINE
  5
7D49
  8
1
 10
951.36269073826224
 20
3664.086025870311
 30
0.0
 11
951.36269073826224
 21
3585.0860258703119
 31
0.0
  0
LINE
  5
7D4A
  8
1
 10
1067.362690738262
 20
3664.086025870311
 30
0.0
 11
1067.362690738262
 21
3585.0860258703119
 31
0.0
  0
LINE
  5
7D4B
  8
1
 10
1216.1549737762471
 20
3799.0860258703119
 30
0.0
 11
1216.1549737762471
 21
4099.0860258703124
 31
0.0
  0
DIMENSION
  5
7D4C
  8
3
  2
*D13
 10
2070.505165880289
 20
4144.0860258703106
 30
0.0
 11
2020.5051658802879
 21
3714.0860258703119
 31
0.0
 70
     0
 13
1784.362690738262
 23
3284.0860258703119
 33
0.0
 14
1784.362690738262
 24
4144.0860258703124
 34
0.0
 50
90.0
1001
ACAD
1000
DSTYLE
1002
{
1070
   287
1070
     3
1070
    40
1040
20.0
1070
   143
1040
0.039
1070
   172
1070
     1
1070
   271
1070
     0
1070
   279
1070
     0
1070
   288
1070
     1
1002
}
  0
LINE
  5
7D4F
  8
1
 10
1759.362690738262
 20
3734.0860258703128
 30
0.0
 11
1759.362690738262
 21
3309.086025870311
 31
0.0
  0
LINE
  5
7D50
  8
1
 10
1379.362690738262
 20
3734.0860258703119
 30
0.0
 11
1379.362690738262
 21
3309.0860258703119
 31
0.0
  0
LINE
  5
7D51
  8
1
 10
1354.362690738262
 20
3799.0860258703119
 30
0.0
 11
1354.362690738262
 21
3324.0860258703119
 31
0.0
  0
LINE
  5
7D52
  8
1
 10
1784.362690738262
 20
3799.0860258703119
 30
0.0
 11
1784.362690738262
 21
3284.0860258703119
 31
0.0
  0
LINE
  5
7D53
  8
2
 10
1569.362690738262
 20
4199.0713210260192
 30
0.0
 11
1569.362690738262
 21
3199.1379315449208
 31
0.0
  0
LINE
  5
7D54
  8
1
 10
1719.362690738262
 20
3189.0860258703119
 30
0.0
 11
1719.362690738262
 21
3311.086025870311
 31
0.0
  0
LINE
  5
7D55
  8
1
 10
1632.862690738262
 20
3269.0860258703119
 30
0.0
 11
1632.862690738262
 21
3219.0860258703119
 31
0.0
  0
LINE
  5
7D56
  8
1
 10
1505.862690738262
 20
3269.0860258703119
 30
0.0
 11
1505.862690738262
 21
3219.0860258703119
 31
0.0
  0
LINE
  5
7D57
  8
1
 10
1505.862690738262
 20
3219.0860258703119
 30
0.0
 11
1632.862690738262
 21
3219.0860258703119
 31
0.0
  0
LINE
  5
7D58
  8
1
 10
1589.362690738262
 20
3284.0860258703119
 30
0.0
 11
1784.362690738262
 21
3284.0860258703119
 31
0.0
  0
LINE
  5
7D59
  8
1
 10
1589.362690738262
 20
3309.0860258703119
 30
0.0
 11
1759.362690738262
 21
3309.0860258703119
 31
0.0
  0
LINE
  5
7D5E
  8
1
 10
1505.862690738262
 20
3269.0860258703119
 30
0.0
 11
1632.862690738262
 21
3269.0860258703119
 31
0.0
  0
LINE
  5
7D67
  8
1
 10
1379.362690738262
 20
3309.0860258703119
 30
0.0
 11
1549.362690738262
 21
3309.0860258703119
 31
0.0
  0
LINE
  5
7D6B
  8
1
 10
1549.362690738262
 20
3799.0860258703119
 30
0.0
 11
1549.362690738262
 21
3269.0860258703119
 31
0.0
  0
LINE
  5
7D6C
  8
1
 10
1589.362690738262
 20
3799.0860258703119
 30
0.0
 11
1589.362690738262
 21
3269.0860258703119
 31
0.0
  0
LINE
  5
7D72
  8
1
 10
1759.362690738262
 20
3324.0860258703119
 30
0.0
 11
1784.362690738262
 21
3324.0860258703119
 31
0.0
  0
DIMENSION
  5
7D77
  8
3
  2
*D14
 10
1354.362690738262
 20
4258.8364672789976
 30
0.0
 11
1569.362690738262
 21
4308.8364672789976
 31
0.0
 70
     0
 13
1784.362690738262
 23
4144.0860258703124
 33
0.0
 14
1354.362690738262
 24
4144.0860258703124
 34
0.0
1001
ACAD
1000
DSTYLE
1002
{
1070
   287
1070
     3
1070
    40
1040
20.0
1070
   143
1040
0.039
1070
   172
1070
     1
1070
   271
1070
     0
1070
   279
1070
     0
1070
   288
1070
     1
1002
}
  0
LINE
  5
7D78
  8
1
 10
1379.362690738262
 20
3734.0860258703119
 30
0.0
 11
1549.362690738262
 21
3734.0860258703128
 31
0.0
  0
LINE
  5
7D79
  8
1
 10
1394.362690738262
 20
4142.0860258703124
 30
0.0
 11
1744.362690738262
 21
4142.0860258703124
 31
0.0
  0
LINE
  5
7D7A
  8
1
 10
1394.362690738262
 20
4102.0860258703124
 30
0.0
 11
1744.362690738262
 21
4102.0860258703124
 31
0.0
  0
LINE
  5
7D7B
  8
1
 10
1394.362690738262
 20
3799.0860258703119
 30
0.0
 11
1394.362690738262
 21
3741.363388415758
 31
0.0
  0
LINE
  5
7D7C
  8
1
 10
1394.362690738262
 20
3757.0860258703128
 30
0.0
 11
1394.362690738262
 21
3734.0860258703119
 31
0.0
  0
LINE
  5
7D7D
  8
1
 10
1354.362690738262
 20
4144.0860258703124
 30
0.0
 11
1354.362690738262
 21
4099.0860258703124
 31
0.0
  0
LINE
  5
7D7E
  8
1
 10
1394.362690738262
 20
4144.0860258703124
 30
0.0
 11
1394.362690738262
 21
4099.0860258703124
 31
0.0
  0
LINE
  5
7D7F
  8
1
 10
1354.362690738262
 20
4144.0860258703124
 30
0.0
 11
1394.362690738262
 21
4144.0860258703124
 31
0.0
  0
POINT
  5
7D80
  8
1
 10
1354.362690738262
 20
4144.0860258703124
 30
0.0
  0
LINE
  5
7D81
  8
1
 10
1871.362690738262
 20
3772.0860258703119
 30
0.0
 11
1871.362690738262
 21
4126.0860258703124
 31
0.0
  0
LINE
  5
7D82
  8
1
 10
1874.362690738262
 20
3772.0860258703119
 30
0.0
 11
1874.362690738262
 21
4126.0860258703124
 31
0.0
  0
LINE
  5
7D83
  8
1
 10
1744.362690738262
 20
3799.0860258703119
 30
0.0
 11
1744.362690738262
 21
3748.4581291037161
 31
0.0
  0
LINE
  5
7D84
  8
1
 10
1744.362690738262
 20
3757.0860258703128
 30
0.0
 11
1744.362690738262
 21
3734.0860258703119
 31
0.0
  0
LINE
  5
7D85
  8
1
 10
1871.362690738262
 20
3772.0860258703119
 30
0.0
 11
1874.362690738262
 21
3772.0860258703119
 31
0.0
  0
LINE
  5
7D86
  8
1
 10
1744.362690738262
 20
4144.0860258703124
 30
0.0
 11
1784.362690738262
 21
4144.0860258703124
 31
0.0
  0
LINE
  5
7D87
  8
1
 10
1744.362690738262
 20
4144.0860258703124
 30
0.0
 11
1744.362690738262
 21
4099.0860258703106
 31
0.0
  0
LINE
  5
7D88
  8
1
 10
1784.362690738262
 20
4144.0860258703124
 30
0.0
 11
1784.362690738262
 21
4099.0860258703124
 31
0.0
  0
POINT
  5
7D89
  8
1
 10
1784.362690738262
 20
4144.0860258703124
 30
0.0
  0
POINT
  5
7D8A
  8
1
 10
1784.362690738262
 20
4144.0860258703124
 30
0.0
  0
LINE
  5
7D8B
  8
1
 10
1871.362690738262
 20
4126.0860258703124
 30
0.0
 11
1874.362690738262
 21
4126.0860258703124
 31
0.0
  0
LINE
  5
7D8C
  8
1
 10
3451.7596279908189
 20
1686.9061428896091
 30
0.0
 11
3147.7596279908198
 21
2102.9061428896098
 31
0.0
  0
LINE
  5
7D8D
  8
1
 10
3451.7596279908189
 20
2102.9061428896098
 30
0.0
 11
3147.7596279908189
 21
1686.9061428896091
 31
0.0
  0
LINE
  5
7D8E
  8
1
 10
3147.7596279908198
 20
2102.9061428896098
 30
0.0
 11
3147.7596279908189
 21
1686.9061428896091
 31
0.0
  0
LINE
  5
7D8F
  8
1
 10
3451.7596279908189
 20
2102.9061428896098
 30
0.0
 11
3451.7596279908189
 21
1686.9061428896091
 31
0.0
  0
LINE
  5
7D90
  8
1
 10
3122.7596279908189
 20
2127.9061428896098
 30
0.0
 11
3122.7596279908189
 21
1661.90614288961
 31
0.0
  0
LINE
  5
7D91
  8
1
 10
3476.7596279908189
 20
2127.9061428896098
 30
0.0
 11
3476.7596279908189
 21
1661.90614288961
 31
0.0
  0
LINE
  5
7D92
  8
1
 10
2619.7596279908171
 20
2176.4009602021811
 30
0.0
 11
2619.7596279908171
 21
1751.7009602021819
 31
0.0
  0
LINE
  5
7D93
  8
1
 10
2569.7596279908171
 20
2176.4009602021811
 30
0.0
 11
2569.7596279908171
 21
1751.7009602021819
 31
0.0
  0
LINE
  5
7D94
  8
1
 10
3074.7596279908171
 20
2054.500960202181
 30
0.0
 11
3074.7596279908171
 21
1657.9009602021811
 31
0.0
  0
LINE
  5
7D95
  8
1
 10
2672.9596279908178
 20
2054.500960202181
 30
0.0
 11
2672.9596279908178
 21
1657.9009602021811
 31
0.0
  0
LINE
  5
7D96
  8
2
 10
3299.7596279908189
 20
2507.523753896839
 30
0.0
 11
3299.7596279908198
 21
1382.9724176677721
 31
0.0
  0
DIMENSION
  5
7D98
  8
3
  2
*D15
 10
3299.7596279908198
 20
1290.7187831147039
 30
0.0
 11
2967.2596279908189
 21
1340.7187831147039
 31
0.0
 70
     0
 13
2634.7596279908171
 23
1412.9009602021811
 33
0.0
 14
3299.7596279908198
 24
1382.9724176677721
 34
0.0
1001
ACAD
1000
DSTYLE
1002
{
1070
   287
1070
     3
1070
    40
1040
20.0
1070
   143
1040
0.039
1070
   172
1070
     1
1070
   271
1070
     0
1070
   279
1070
     0
1070
   288
1070
     1
1002
}
  0
LINE
  5
7D99
  8
1
 10
2634.7596279908171
 20
1487.9009602021811
 30
0.0
 11
3494.7596279908189
 21
1487.9009602021811
 31
0.0
  0
LINE
  5
7D9A
  8
1
 10
2634.7596279908171
 20
1412.9009602021811
 30
0.0
 11
3494.7596279908189
 21
1412.9009602021811
 31
0.0
  0
LINE
  5
7D9B
  8
1
 10
2634.7596279908171
 20
1582.9009602021811
 30
0.0
 11
3494.7596279908189
 21
1582.9009602021811
 31
0.0
  0
LINE
  5
7D9C
  8
1
 10
2674.7596279908171
 20
1582.9009602021811
 30
0.0
 11
3494.7596279908189
 21
1582.9009602021811
 31
0.0
  0
LINE
  5
7D9D
  8
1
 10
2634.7596279908171
 20
1657.9009602021811
 30
0.0
 11
3494.7596279908189
 21
1657.9009602021811
 31
0.0
  0
LINE
  5
7D9E
  8
1
 10
2634.7596279908171
 20
1487.9009602021811
 30
0.0
 11
2634.7596279908171
 21
1412.9009602021811
 31
0.0
  0
LINE
  5
7D9F
  8
1
 10
2569.7596279908171
 20
1751.7009602021819
 30
0.0
 11
2619.7596279908171
 21
1751.7009602021819
 31
0.0
  0
LINE
  5
7DA0
  8
1
 10
2634.7596279908171
 20
1657.9009602021811
 30
0.0
 11
2634.7596279908171
 21
1582.9009602021811
 31
0.0
  0
DIMENSION
  5
7DA1
  8
3
  2
*D16
 10
3494.7596279908189
 20
1290.7187831147039
 30
0.0
 11
3397.2596279908189
 21
1341.511318701788
 31
0.0
 12
244.5805370103771
 22
-59.0
 32
0.0
 70
   128
 13
3299.7596279908198
 23
1382.9724176677721
 33
0.0
 14
3494.7596279908189
 24
1412.9009602021811
 34
0.0
1001
ACAD
1000
DSTYLE
1002
{
1070
   288
1070
     1
1070
   172
1070
     1
1070
    40
1040
20.0
1070
   271
1070
     0
1070
   143
1040
0.039
1002
}
  0
LINE
  5
7DA2
  8
1
 10
3147.7596279908189
 20
1686.9061428896091
 30
0.0
 11
3451.7596279908189
 21
1686.9061428896091
 31
0.0
  0
LINE
  5
7DA3
  8
1
 10
3122.7596279908189
 20
1661.90614288961
 30
0.0
 11
3476.7596279908189
 21
1661.90614288961
 31
0.0
  0
LINE
  5
7DA4
  8
1
 10
3494.7596279908189
 20
1487.9009602021811
 30
0.0
 11
3494.7596279908189
 21
1412.9009602021811
 31
0.0
  0
LINE
  5
7DA5
  8
1
 10
3494.7596279908189
 20
1657.9009602021811
 30
0.0
 11
3494.7596279908189
 21
1582.9009602021811
 31
0.0
  0
DIMENSION
  5
7DA6
  8
3
  2
*D17
 10
3299.7596279908189
 20
2661.2857027013761
 30
0.0
 11
2919.759627990818
 21
2761.2857027013761
 31
0.0
 70
     0
  1
MAX\P830
 13
2539.7596279908171
 23
2262.9009602021811
 33
0.0
 14
3299.7596279908189
 24
2608.8681274066721
 34
0.0
1001
ACAD
1000
DSTYLE
1002
{
1070
   287
1070
     3
1070
    40
1040
20.0
1070
   143
1040
0.039
1070
   172
1070
     1
1070
   271
1070
     0
1070
   279
1070
     0
1070
   288
1070
     1
1002
}
  0
LINE
  5
7DA7
  8
1
 10
2619.7596279908171
 20
2092.9009602021811
 30
0.0
 11
3122.7596279908189
 21
2092.9009602021811
 31
0.0
  0
LINE
  5
7DA8
  8
1
 10
2619.7596279908171
 20
2132.9009602021811
 30
0.0
 11
3149.7596279908189
 21
2132.9009602021811
 31
0.0
  0
LINE
  5
7DA9
  8
2
 10
2552.748851387194
 20
2112.9009602021811
 30
0.0
 11
3505.5394520332452
 21
2112.9009602021811
 31
0.0
  0
POLYLINE
  5
7DAA
  8
1
 66
     1
 10
0.0
 20
0.0
 30
0.0
 70
     1
  0
VERTEX
  5
8408
  8
1
 10
3074.7596279908171
 20
2014.500960202181
 30
0.0
  0
VERTEX
  5
8409
  8
1
 10
3114.7596279908171
 20
2014.500960202181
 30
0.0
  0
VERTEX
  5
840A
  8
1
 10
3114.7596279908171
 20
2016.500960202181
 30
0.0
 42
0.4142135623730951
  0
VERTEX
  5
840B
  8
1
 10
3111.7596279908171
 20
2019.500960202181
 30
0.0
  0
VERTEX
  5
840C
  8
1
 10
3084.2596279908171
 20
2019.500960202181
 30
0.0
 42
-0.4142135623730951
  0
VERTEX
  5
840D
  8
1
 10
3079.7596279908171
 20
2024.000960202181
 30
0.0
  0
VERTEX
  5
840E
  8
1
 10
3079.7596279908171
 20
2051.500960202181
 30
0.0
 42
0.4142135623730951
  0
VERTEX
  5
840F
  8
1
 10
3076.7596279908171
 20
2054.500960202181
 30
0.0
  0
VERTEX
  5
8410
  8
1
 10
3074.7596279908171
 20
2054.500960202181
 30
0.0
  0
SEQEND
  5
8411
  8
1
  0
LINE
  5
7DB7
  8
1
 10
2659.7596279908171
 20
2054.500960202181
 30
0.0
 11
3084.759627990818
 21
2054.500960202181
 31
0.0
  0
LINE
  5
7DB8
  8
1
 10
2659.7596279908171
 20
2057.7009602021808
 30
0.0
 11
3084.759627990818
 21
2057.7009602021808
 31
0.0
  0
LINE
  5
7DB9
  8
1
 10
2661.759627990818
 20
2262.9009602021811
 30
0.0
 11
2661.759627990818
 21
2214.1560052420482
 31
0.0
  0
LINE
  5
7DBA
  8
1
 10
2539.7596279908171
 20
2262.9009602021811
 30
0.0
 11
2539.7596279908171
 21
1677.9009602021811
 31
0.0
  0
LINE
  5
7DBC
  8
2
 10
2557.2322876508601
 20
1827.9009602021811
 30
0.0
 11
2685.1092149807459
 21
1827.9009602021811
 31
0.0
  0
LINE
  5
7DBE
  8
1
 10
2569.7596279908171
 20
1894.4009602021811
 30
0.0
 11
2619.7596279908171
 21
1894.4009602021811
 31
0.0
  0
LINE
  5
7DBF
  8
1
 10
2619.759627990818
 20
1813.9009602021811
 30
0.0
 11
2669.7596279908171
 21
1813.9009602021811
 31
0.0
  0
LINE
  5
7DC0
  8
1
 10
2619.759627990818
 20
1841.9009602021811
 30
0.0
 11
2669.7596279908171
 21
1841.9009602021811
 31
0.0
  0
LINE
  5
7DC1
  8
1
 10
2539.7596279908171
 20
2262.9009602021811
 30
0.0
 11
2661.759627990818
 21
2262.9009602021811
 31
0.0
  0
LINE
  5
7DC2
  8
1
 10
2569.7596279908171
 20
2176.4009602021811
 30
0.0
 11
2619.7596279908171
 21
2176.4009602021811
 31
0.0
  0
LINE
  5
7DCF
  8
1
 10
2659.7596279908171
 20
2057.7009602021808
 30
0.0
 11
2659.7596279908171
 21
2054.500960202181
 31
0.0
  0
LINE
  5
7DF0
  8
1
 10
3084.759627990818
 20
2057.7009602021808
 30
0.0
 11
3084.759627990818
 21
2054.500960202181
 31
0.0
  0
DIMENSION
  5
7DFC
  8
3
  2
*D18
 10
3632.0204462209999
 20
1912.9009602021811
 30
0.0
 11
3582.0204462209999
 21
2112.900960202182
 31
0.0
 70
     0
 13
3478.3596279908179
 23
2312.9009602021811
 33
0.0
 14
3478.3596279908179
 24
1912.9009602021811
 34
0.0
 50
90.0
1001
ACAD
1000
DSTYLE
1002
{
1070
   287
1070
     3
1070
     3
1000
φ<>
1070
    40
1040
20.0
1070
   143
1040
0.039
1070
   172
1070
     1
1070
   271
1070
     0
1070
   279
1070
     0
1070
   288
1070
     1
1002
}
  0
LINE
  5
7DFD
  8
1
 10
3478.3596279908179
 20
2312.9009602021811
 30
0.0
 11
3478.3596279908179
 21
1912.9009602021811
 31
0.0
  0
LINE
  5
7E00
  8
1
 10
3449.7596279908198
 20
2394.9086771641969
 30
0.0
 11
3449.7596279908198
 21
2127.9061428896098
 31
0.0
  0
LINE
  5
7E01
  8
1
 10
3149.7596279908189
 20
2394.9086771641969
 30
0.0
 11
3149.7596279908189
 21
2127.9061428896098
 31
0.0
  0
LINE
  5
7E02
  8
1
 10
3147.7596279908198
 20
2102.9061428896098
 30
0.0
 11
3451.7596279908189
 21
2102.9061428896098
 31
0.0
  0
LINE
  5
7E03
  8
1
 10
3122.7596279908189
 20
2127.9061428896098
 30
0.0
 11
3476.7596279908189
 21
2127.9061428896098
 31
0.0
  0
LINE
  5
7E04
  8
1
 10
3097.759627990818
 20
2010.000960202181
 30
0.0
 11
3122.7596279908189
 21
2010.000960202181
 31
0.0
  0
LINE
  5
7E05
  8
1
 10
3097.759627990818
 20
2014.500960202181
 30
0.0
 11
3122.7596279908189
 21
2014.500960202181
 31
0.0
  0
LINE
  5
7E06
  8
1
 10
3097.7596279908171
 20
2014.500960202181
 30
0.0
 11
3097.7596279908171
 21
2010.000960202181
 31
0.0
  0
LINE
  5
7E07
  8
1
 10
3478.3596279908179
 20
1912.9009602021811
 30
0.0
 11
3476.7596279908189
 21
1912.9009602021811
 31
0.0
  0
DIMENSION
  5
7E08
  8
3
  2
*D19
 10
3452.759627990818
 20
2661.2857027013761
 30
0.0
 11
3376.2596279908189
 21
2741.2857027013761
 31
0.0
 12
244.5805370103771
 22
0.0
 32
0.0
 70
     0
 13
3299.7596279908189
 23
2608.8681274066721
 33
0.0
 14
3452.759627990818
 24
2337.9009602021811
 34
0.0
1001
ACAD
1000
DSTYLE
1002
{
1070
   288
1070
     1
1070
   172
1070
     1
1070
    40
1040
20.0
1070
   271
1070
     0
1070
   143
1040
0.039
1002
}
  0
DIMENSION
  5
7E09
  8
3
  2
*D20
 10
3449.7596279908198
 20
2499.8198854493239
 30
0.0
 11
3299.7596279908198
 21
2549.819885449323
 31
0.0
 70
     0
 13
3149.7596279908189
 23
2395.1476243046532
 33
0.0
 14
3449.7596279908198
 24
2394.7340167311299
 34
0.0
1001
ACAD
1000
DSTYLE
1002
{
1070
   287
1070
     3
1070
    40
1040
20.0
1070
   143
1040
0.039
1070
   172
1070
     1
1070
   271
1070
     0
1070
   279
1070
     0
1070
   288
1070
     1
1002
}
  0
LINE
  5
7E0A
  8
1
 10
3149.7596279908189
 20
2394.9086771641969
 30
0.0
 11
3449.7596279908198
 21
2394.9086771641969
 31
0.0
  0
POLYLINE
  5
7E0C
  8
1
 66
     1
 10
0.0
 20
0.0
 30
0.0
 70
     1
  0
VERTEX
  5
8424
  8
1
 10
3452.759627990818
 20
2312.9009602021811
 30
0.0
  0
VERTEX
  5
8425
  8
1
 10
3477.7596279908189
 20
2312.9009602021811
 30
0.0
  0
VERTEX
  5
8426
  8
1
 10
3477.7596279908189
 20
2313.9009602021811
 30
0.0
 42
0.4142135623730951
  0
VERTEX
  5
8427
  8
1
 10
3475.759627990818
 20
2315.9009602021811
 30
0.0
  0
VERTEX
  5
8428
  8
1
 10
3459.759627990818
 20
2315.9009602021811
 30
0.0
 42
-0.4142135623730951
  0
VERTEX
  5
8429
  8
1
 10
3455.759627990818
 20
2319.9009602021811
 30
0.0
  0
VERTEX
  5
842A
  8
1
 10
3455.759627990818
 20
2335.9009602021811
 30
0.0
 42
0.4142135623730951
  0
VERTEX
  5
842B
  8
1
 10
3453.759627990818
 20
2337.9009602021811
 30
0.0
  0
VERTEX
  5
842C
  8
1
 10
3452.759627990818
 20
2337.9009602021811
 30
0.0
  0
SEQEND
  5
842D
  8
1
  0
LINE
  5
7E17
  8
1
 10
3452.759627990818
 20
2312.9009602021811
 30
0.0
 11
3477.7596279908189
 21
2312.9009602021811
 31
0.0
  0
LINE
  5
7E18
  8
1
 10
3477.7596279908189
 20
2312.9009602021811
 30
0.0
 11
3476.159627990819
 21
2312.9009602021811
 31
0.0
  0
LINE
  5
801F
  8
4
 10
3700.0
 20
1000.0
 30
0.0
 11
3700.0
 21
600.0
 31
0.0
  0
LINE
  5
8020
  8
4
 10
2300.0
 20
1000.0
 30
0.0
 11
2300.0
 21
600.0
 31
0.0
  0
LINE
  5
8021
  8
4
 10
1300.0
 20
1000.0
 30
0.0
 11
1300.0
 21
600.0
 31
0.0
  0
LINE
  5
8024
  8
4
 10
1300.0
 20
600.0
 30
0.0
 11
3700.0
 21
600.0
 31
0.0
  0
LINE
  5
8025
  8
4
 10
1300.0
 20
800.0
 30
0.0
 11
3700.0
 21
800.0
 31
0.0
  0
TEXT
  5
8026
  8
4
 10
1377.0041616938031
 20
863.08605173322564
 30
0.0
 40
100.0
  1
機器名称
  0
TEXT
  5
8027
  8
4
 10
1372.516212049595
 20
643.29031346402189
 30
0.0
 40
100.0
  1
機器型番
  0
TEXT
  5
8028
  8
4
 10
2309.586123402084
 20
844.3746047138942
 30
0.0
 40
90.0
  1
ミツヤ多翼送風機
  0
TEXT
  5
8029
  8
4
 10
2373.3089911709608
 20
634.31916855988675
 30
0.0
 40
100.0
  1
MF#2 1/2-1
  0
TEXT
  5
802B
  8
4
 10
1550.0646967875509
 20
4766.8576826650306
 30
0.0
 40
107.9999999999999
  1
床置防振ベット
  0
TEXT
  5
802C
  8
4
 10
632.33518665889278
 20
5067.7619523985959
 30
0.0
 40
144.0
  1
遠心式片吸込片持多翼ファン
  0
LINE
  5
802D
  8
4
 10
500.0
 20
4938.8175085296089
 30
0.0
 11
3700.0
 21
4938.8175085296089
 31
0.0
  0
LINE
  5
802E
  8
4
 10
500.0
 20
5338.8175085296098
 30
0.0
 11
3700.0
 21
5338.8175085296098
 31
0.0
  0
LINE
  5
802F
  8
4
 10
1300.0
 20
1000.0
 30
0.0
 11
3700.0
 21
1000.0
 31
0.0
  0
LINE
  5
8030
  8
4
 10
500.0
 20
5338.8175085296098
 30
0.0
 11
500.0
 21
4938.8175085296089
 31
0.0
  0
TEXT
  5
8031
  8
4
 10
678.34703230214654
 20
4764.638955092687
 30
0.0
 40
107.9999999999999
  1
左回転右横向
  0
TEXT
  5
8032
  8
4
 10
2937.9391184985789
 20
5412.1221629906177
 30
0.0
 40
112.0
  1
No.
  0
TEXT
  5
8033
  8
4
 10
2622.5921252000262
 20
4766.8576826650306
 30
0.0
 40
107.9999999999999
  1
縮尺：1/20
  0
LINE
  5
8034
  8
4
 10
3700.0
 20
5338.8175085296098
 30
0.0
 11
3700.0
 21
4938.8175085296089
 31
0.0
  0
LINE
  5
8035
  8
4
 10
4200.0
 20
5900.0
 30
0.0
 11
4200.0
 21
5900.0
 31
0.0
  0
LINE
  5
8036
  8
4
 10
2881.2348447197292
 20
5362.5271662508021
 30
0.0
 11
2881.2348447197292
 21
5573.3045230995049
 31
0.0
  0
LINE
  5
8037
  8
4
 10
2881.2348447197292
 20
5573.3045230995049
 30
0.0
 11
3700.0
 21
5573.3045230995049
 31
0.0
  0
LINE
  5
8038
  8
4
 10
3700.0
 20
5573.3045230995049
 30
0.0
 11
3700.0
 21
5362.5271662508021
 31
0.0
  0
LINE
  5
8039
  8
4
 10
3700.0
 20
5362.5271662508021
 30
0.0
 11
2881.2348447197292
 21
5362.5271662508021
 31
0.0
  0
LINE
  5
803A
  8
4
 10
0.0
 20
0.0
 30
0.0
 11
0.0
 21
5900.0
 31
0.0
  0
LINE
  5
803B
  8
4
 10
0.0
 20
5900.0
 30
0.0
 11
4200.0
 21
5900.0
 31
0.0
  0
LINE
  5
803C
  8
4
 10
4200.0
 20
5900.0
 30
0.0
 11
4200.0
 21
0.0
 31
0.0
  0
LINE
  5
803D
  8
4
 10
4200.0
 20
0.0
 30
0.0
 11
0.0
 21
0.0
 31
0.0
  0
DIMENSION
  5
8251
  8
3
  2
*D23
 10
854.36269073826224
 20
2626.9207034277911
 30
0.0
 11
1414.1838578767311
 21
2626.9207034277911
 31
0.0
 70
   128
 13
1874.362690738262
 23
2127.9009602021811
 33
0.0
 14
854.36269073826224
 24
1657.9009602021811
 34
0.0
1001
ACAD
1000
DSTYLE
1002
{
1070
   287
1070
     3
1070
    40
1040
20.0
1070
   143
1040
0.039
1070
   172
1070
     1
1070
   271
1070
     0
1070
   279
1070
     0
1070
   288
1070
     1
1002
}
  0
LINE
  5
829A
  8
1
 10
1871.362690738262
 20
1681.9009602021811
 30
0.0
 11
1871.362690738262
 21
1666.4602381045299
 31
0.0
  0
LINE
  5
829B
  8
1
 10
2539.7596279908171
 20
1677.9009602021811
 30
0.0
 11
2661.759627990818
 21
1677.9009602021811
 31
0.0
  0
LINE
  5
829C
  8
1
 10
2661.759627990818
 20
1724.220601328848
 30
0.0
 11
2661.759627990818
 21
1677.9009602021811
 31
0.0
  0
LINE
  5
82BC
  8
1
 10
1589.362690738262
 20
3734.0860258703128
 30
0.0
 11
1759.362690738262
 21
3734.0860258703128
 31
0.0
  0
DIMENSION
  5
8311
  8
3
  2
*D24
 10
2203.8866232620758
 20
1487.9009602021811
 30
0.0
 11
2299.600908976362
 21
1535.4009602021811
 31
0.0
 12
395.98753498732913
 22
0.0
 32
0.0
 70
     0
  1
(<>)
 13
1784.362690738262
 23
1582.9009602021811
 33
0.0
 14
1784.362690738262
 24
1487.9009602021811
 34
0.0
 50
90.0
1001
ACAD
1000
DSTYLE
1002
{
1070
   288
1070
     1
1070
   172
1070
     1
1070
    75
1070
     1
1070
    40
1040
20.0
1070
   271
1070
     0
1070
     7
1000
_DOT
1070
   143
1040
0.039
1002
}
  0
ENDSEC
  0
EOF
