  0
SECTION
  2
HEADER
  9
$ACADVER
  1
AC1009
  9
$INSBASE
 10
0.0
 20
0.0
 30
0.0
  9
$EXTMIN
 10
0.0
 20
0.0
 30
0.0
  9
$EXTMAX
 10
4200.0
 20
5900.0
 30
0.0
  9
$LIMMIN
 10
0.0
 20
0.0
  9
$LIMMAX
 10
297.0
 20
210.0
  9
$ORTHOMODE
 70
     0
  9
$REGENMODE
 70
     1
  9
$FILLMODE
 70
     0
  9
$QTEXTMODE
 70
     0
  9
$MIRRTEXT
 70
     1
  9
$DRAGMODE
 70
     2
  9
$LTSCALE
 40
100.0
  9
$OSMODE
 70
    37
  9
$ATTMODE
 70
     1
  9
$TEXTSIZE
 40
180.0
  9
$TRACEWID
 40
0.05
  9
$TEXTSTYLE
  7
STANDARD
  9
$CLAYER
  8
3
  9
$CELTYPE
  6
BYLAYER
  9
$CECOLOR
 62
   256
  9
$DIMSCALE
 40
20.0
  9
$DIMASZ
 40
2.0
  9
$DIMEXO
 40
0.5
  9
$DIMDLI
 40
10.0
  9
$DIMRND
 40
0.0
  9
$DIMDLE
 40
0.0
  9
$DIMEXE
 40
1.0
  9
$DIMTP
 40
1.0
  9
$DIMTM
 40
1.0
  9
$DIMTXT
 40
3.0
  9
$DIMCEN
 40
0.0
  9
$DIMTSZ
 40
0.0
  9
$DIMTOL
 70
     0
  9
$DIMLIM
 70
     0
  9
$DIMTIH
 70
     0
  9
$DIMTOH
 70
     0
  9
$DIMSE1
 70
     0
  9
$DIMSE2
 70
     0
  9
$DIMTAD
 70
     1
  9
$DIMZIN
 70
     8
  9
$DIMBLK
  1

  9
$DIMASO
 70
     1
  9
$DIMSHO
 70
     1
  9
$DIMPOST
  1

  9
$DIMAPOST
  1

  9
$DIMALT
 70
     0
  9
$DIMALTD
 70
     2
  9
$DIMALTF
 40
0.039
  9
$DIMLFAC
 40
1.0
  9
$DIMTOFL
 70
     1
  9
$DIMTVP
 40
0.0
  9
$DIMTIX
 70
     0
  9
$DIMSOXD
 70
     0
  9
$DIMSAH
 70
     1
  9
$DIMBLK1
  1
OPEN
  9
$DIMBLK2
  1
OPEN
  9
$DIMSTYLE
  2
IGA
  9
$DIMCLRD
 70
     0
  9
$DIMCLRE
 70
     0
  9
$DIMCLRT
 70
     0
  9
$DIMTFAC
 40
10.0
  9
$DIMGAP
 40
1.0
  9
$LUNITS
 70
     2
  9
$LUPREC
 70
     3
  9
$SKETCHINC
 40
0.1
  9
$FILLETRAD
 40
50.0
  9
$AUNITS
 70
     0
  9
$AUPREC
 70
     0
  9
$MENU
  1
acad
  9
$ELEVATION
 40
0.0
  9
$PELEVATION
 40
0.0
  9
$THICKNESS
 40
0.0
  9
$LIMCHECK
 70
     0
  9
$BLIPMODE
 70
     0
  9
$CHAMFERA
 40
0.5
  9
$CHAMFERB
 40
0.5
  9
$SKPOLY
 70
     0
  9
$TDCREATE
 40
2451019.6248771991
  9
$TDUPDATE
 40
2454953.7537358911
  9
$TDINDWG
 40
0.0250714699
  9
$TDUSRTIMER
 40
0.0250714699
  9
$USRTIMER
 70
     1
  9
$ANGBASE
 50
0.0
  9
$ANGDIR
 70
     0
  9
$PDMODE
 70
     0
  9
$PDSIZE
 40
0.0
  9
$PLINEWID
 40
0.0
  9
$COORDS
 70
     1
  9
$SPLFRAME
 70
     0
  9
$SPLINETYPE
 70
     6
  9
$SPLINESEGS
 70
     8
  9
$ATTDIA
 70
     0
  9
$ATTREQ
 70
     1
  9
$HANDLING
 70
 10241
  9
$HANDSEED
  5
83ED
  9
$SURFTAB1
 70
     6
  9
$SURFTAB2
 70
     6
  9
$SURFTYPE
 70
     6
  9
$SURFU
 70
     6
  9
$SURFV
 70
     6
  9
$UCSNAME
  2

  9
$UCSORG
 10
0.0
 20
0.0
 30
0.0
  9
$UCSXDIR
 10
1.0
 20
0.0
 30
0.0
  9
$UCSYDIR
 10
0.0
 20
1.0
 30
0.0
  9
$PUCSNAME
  2

  9
$PUCSORG
 10
0.0
 20
0.0
 30
0.0
  9
$PUCSXDIR
 10
1.0
 20
0.0
 30
0.0
  9
$PUCSYDIR
 10
0.0
 20
1.0
 30
0.0
  9
$USERI1
 70
     0
  9
$USERI2
 70
     0
  9
$USERI3
 70
     0
  9
$USERI4
 70
     0
  9
$USERI5
 70
     0
  9
$USERR1
 40
0.0
  9
$USERR2
 40
0.0
  9
$USERR3
 40
0.0
  9
$USERR4
 40
0.0
  9
$USERR5
 40
0.0
  9
$WORLDVIEW
 70
     1
  9
$SHADEDGE
 70
     3
  9
$SHADEDIF
 70
    70
  9
$TILEMODE
 70
     1
  9
$MAXACTVP
 70
    16
  9
$PLIMCHECK
 70
     0
  9
$PEXTMIN
 10
1.0000000000000000E+020
 20
1.0000000000000000E+020
 30
1.0000000000000000E+020
  9
$PEXTMAX
 10
-1.0000000000000000E+020
 20
-1.0000000000000000E+020
 30
-1.0000000000000000E+020
  9
$PLIMMIN
 10
0.0
 20
0.0
  9
$PLIMMAX
 10
12.0
 20
9.0
  9
$UNITMODE
 70
     0
  9
$VISRETAIN
 70
     0
  9
$PLINEGEN
 70
     0
  9
$PSLTSCALE
 70
     1
  0
ENDSEC
  0
SECTION
  2
TABLES
  0
TABLE
  2
VPORT
 70
     2
  0
VPORT
  2
*ACTIVE
 70
     0
 10
0.0
 20
0.0
 11
1.0
 21
1.0
 12
7073.2199177027342
 22
2950.0000137370062
 13
0.0
 23
0.0
 14
10.0
 24
10.0
 15
10.0
 25
10.0
 16
0.0
 26
0.0
 36
1.0
 17
0.0
 27
0.0
 37
0.0
 40
5945.22976603387
 41
3.1666666666666661
 42
50.0
 43
0.0
 44
0.0
 50
0.0
 51
0.0
 71
     0
 72
   100
 73
     1
 74
     0
 75
     0
 76
     0
 77
     0
 78
     0
  0
ENDTAB
  0
TABLE
  2
LTYPE
 70
     2
  0
LTYPE
  2
CONTINUOUS
 70
     0
  3
Solid line
 72
    65
 73
     0
 40
0.0
  0
LTYPE
  2
CENTER
 70
     0
  3
____ _ ____ _ ____ _ ____ _ ____ _ ____ _ ____ 
 72
    65
 73
     4
 40
2.0
 49
1.25
 49
-0.25
 49
0.25
 49
-0.25
  0
ENDTAB
  0
TABLE
  2
LAYER
 70
     6
  0
LAYER
  2
0
 70
     0
 62
     7
  6
CONTINUOUS
  0
LAYER
  2
3
 70
     0
 62
     2
  6
CONTINUOUS
  0
LAYER
  2
2
 70
     0
 62
     3
  6
CENTER
  0
LAYER
  2
1
 70
     0
 62
     4
  6
CONTINUOUS
  0
LAYER
  2
4
 70
     0
 62
     7
  6
CONTINUOUS
  0
LAYER
  2
DEFPOINTS
 70
     0
 62
     7
  6
CONTINUOUS
  0
ENDTAB
  0
TABLE
  2
STYLE
 70
     1
  0
STYLE
  2
STANDARD
 70
     0
 40
0.0
 41
1.0
 50
0.0
 71
     0
 42
180.0
  3
simplex.shx
  4
extfont.shx
  0
ENDTAB
  0
TABLE
  2
VIEW
 70
     0
  0
ENDTAB
  0
TABLE
  2
UCS
 70
     0
  0
ENDTAB
  0
TABLE
  2
APPID
 70
     1
  0
APPID
  2
ACAD
 70
     0
  0
ENDTAB
  0
TABLE
  2
DIMSTYLE
 70
     1
  0
DIMSTYLE
  2
IGA
 70
     0
  3

  4

  5

  6
OPEN
  7
OPEN
 40
2.0
 41
2.0
 42
0.5
 43
10.0
 44
1.0
 45
0.0
 46
0.0
 47
1.0
 48
1.0
140
3.0
141
0.0
142
0.0
143
0.03937
144
1.0
145
0.0
146
10.0
147
1.0
 71
     0
 72
     0
 73
     0
 74
     0
 75
     0
 76
     0
 77
     1
 78
     8
170
     0
171
     2
172
     0
173
     1
174
     0
175
     0
176
     0
177
     0
178
     0
  0
ENDTAB
  0
ENDSEC
  0
SECTION
  2
BLOCKS
  0
BLOCK
  8
0
  2
$MODEL_SPACE
 70
     0
 10
0.0
 20
0.0
 30
0.0
  3
$MODEL_SPACE
  1

  0
ENDBLK
  5
1B
  8
0
  0
BLOCK
 67
     1
  8
0
  2
$PAPER_SPACE
 70
     0
 10
0.0
 20
0.0
 30
0.0
  3
$PAPER_SPACE
  1

  0
ENDBLK
  5
18
 67
     1
  8
0
  0
BLOCK
  8
0
  2
*D0
 70
     1
 10
0.0
 20
0.0
 30
0.0
  3
*D0
  1

  0
LINE
  5
82FA
  8
3
 62
     0
 10
1162.4393025224949
 20
2467.0330900100348
 30
0.0
 11
1162.4393025224949
 21
2603.779390425821
 31
0.0
  0
LINE
  5
82FB
  8
3
 62
     0
 10
880.43158556048047
 20
2097.8740985030149
 30
0.0
 11
880.43158556048047
 21
2603.779390425821
 31
0.0
  0
LINE
  5
82FC
  8
3
 62
     0
 10
1122.4393025224949
 20
2583.779390425821
 30
0.0
 11
920.43158556048036
 21
2583.779390425821
 31
0.0
  0
INSERT
  5
82FD
  8
3
 62
     0
  2
_OPEN
 10
1162.4393025224949
 20
2583.779390425821
 30
0.0
 41
40.0
 42
40.0
 43
40.0
  0
INSERT
  5
82FE
  8
3
 62
     0
  2
_OPEN
 10
880.43158556048047
 20
2583.779390425821
 30
0.0
 41
40.0
 42
40.0
 43
40.0
 50
180.0
  0
TEXT
  8
3
  40
60
  5
83DA
  62
0
  72
0
  71
0
 10
901.435
 20
2527.58
 30
0.000000
  1
282
  0
POINT
  5
8300
  8
DEFPOINTS
 62
     0
 10
1162.4393025224949
 20
2457.0330900100348
 30
0.0
  0
POINT
  5
8301
  8
DEFPOINTS
 62
     0
 10
880.43158556048047
 20
2087.874098503014
 30
0.0
  0
POINT
  5
8302
  8
DEFPOINTS
 62
     0
 10
880.43158556048047
 20
2583.779390425821
 30
0.0
  0
ENDBLK
  5
807D
  8
0
  0
BLOCK
  8
0
  2
*D1
 70
     1
 10
0.0
 20
0.0
 30
0.0
  3
*D1
  1

  0
LINE
  5
8303
  8
3
 62
     0
 10
1137.4393025224961
 20
2422.8740985030149
 30
0.0
 11
700.54186749726034
 21
2422.8740985030149
 31
0.0
  0
LINE
  5
8304
  8
3
 62
     0
 10
835.06153288321866
 20
2117.8740985030149
 30
0.0
 11
700.54186749726023
 21
2117.8740985030149
 31
0.0
  0
LINE
  5
8305
  8
3
 62
     0
 10
720.54186749726034
 20
2382.8740985030149
 30
0.0
 11
720.54186749726023
 21
2157.874098503014
 31
0.0
  0
INSERT
  5
8306
  8
3
 62
     0
  2
_OPEN
 10
720.54186749726034
 20
2422.8740985030149
 30
0.0
 41
40.0
 42
40.0
 43
40.0
 50
90.0
  0
INSERT
  5
8307
  8
3
 62
     0
  2
_OPEN
 10
720.54186749726023
 20
2117.8740985030149
 30
0.0
 41
40.0
 42
40.0
 43
40.0
 50
270.0
  0
TEXT
  8
3
  40
60
  5
83DB
  62
0
  72
0
  71
0
 10
550.542
 20
2164.17
 30
0.000000
  1
305
  0
POINT
  5
8309
  8
DEFPOINTS
 62
     0
 10
1147.4393025224961
 20
2422.8740985030149
 30
0.0
  0
POINT
  5
830A
  8
DEFPOINTS
 62
     0
 10
845.06153288321866
 20
2117.8740985030149
 30
0.0
  0
POINT
  5
830B
  8
DEFPOINTS
 62
     0
 10
720.54186749726023
 20
2117.8740985030149
 30
0.0
  0
ENDBLK
  5
8042
  8
0
  0
BLOCK
  8
0
  2
*D2
 70
     1
 10
0.0
 20
0.0
 30
0.0
  3
*D2
  1

  0
LINE
  5
830C
  8
3
 62
     0
 10
937.43930252249595
 20
1597.8740985030149
 30
0.0
 11
700.54186749726023
 21
1597.8740985030149
 31
0.0
  0
LINE
  5
830D
  8
3
 62
     0
 10
937.43930252249595
 20
1522.8740985030149
 30
0.0
 11
700.54186749726023
 21
1522.8740985030149
 31
0.0
  0
LINE
  5
830E
  8
3
 62
     0
 10
720.54186749726023
 20
1637.874098503014
 30
0.0
 11
720.54186749726023
 21
1677.8740985030149
 31
0.0
  0
LINE
  5
830F
  8
3
 62
     0
 10
720.54186749726023
 20
1482.8740985030149
 30
0.0
 11
720.54186749726023
 21
1305.7312413601569
 31
0.0
  0
LINE
  5
8310
  8
3
 62
     0
 10
720.54186749726023
 20
1597.8740985030149
 30
0.0
 11
720.54186749726023
 21
1522.8740985030149
 31
0.0
  0
INSERT
  5
8311
  8
3
 62
     0
  2
_DOT
 10
720.54186749726023
 20
1597.8740985030149
 30
0.0
 41
40.0
 42
40.0
 43
40.0
 50
270.0
  0
INSERT
  5
8312
  8
3
 62
     0
  2
_OPEN
 10
720.54186749726023
 20
1522.8740985030149
 30
0.0
 41
40.0
 42
40.0
 43
40.0
 50
90.0
  0
TEXT
  8
3
  40
60
  5
83DC
  62
0
  72
0
  71
0
 10
550.542
 20
1268.10
 30
0.000000
  1
75
  0
POINT
  5
8314
  8
DEFPOINTS
 62
     0
 10
947.43930252249595
 20
1597.8740985030149
 30
0.0
  0
POINT
  5
8315
  8
DEFPOINTS
 62
     0
 10
947.43930252249595
 20
1522.8740985030149
 30
0.0
  0
POINT
  5
8316
  8
DEFPOINTS
 62
     0
 10
720.54186749726023
 20
1522.8740985030149
 30
0.0
  0
ENDBLK
  5
829A
  8
0
  0
BLOCK
  8
0
  2
*D3
 70
     1
 10
0.0
 20
0.0
 30
0.0
  3
*D3
  1

  0
LINE
  5
8317
  8
3
 62
     0
 10
835.06153288321866
 20
2117.8740985030149
 30
0.0
 11
700.54186749726034
 21
2117.8740985030149
 31
0.0
  0
LINE
  5
8318
  8
3
 62
     0
 10
937.43930252249595
 20
1692.8740985030149
 30
0.0
 11
700.54186749726023
 21
1692.8740985030149
 31
0.0
  0
LINE
  5
8319
  8
3
 62
     0
 10
720.54186749726034
 20
2077.8740985030149
 30
0.0
 11
720.54186749726023
 21
1732.874098503014
 31
0.0
  0
INSERT
  5
831A
  8
3
 62
     0
  2
_OPEN
 10
720.54186749726034
 20
2117.8740985030149
 30
0.0
 41
40.0
 42
40.0
 43
40.0
 50
90.0
  0
INSERT
  5
831B
  8
3
 62
     0
  2
_OPEN
 10
720.54186749726023
 20
1692.8740985030149
 30
0.0
 41
40.0
 42
40.0
 43
40.0
 50
270.0
  0
TEXT
  8
3
  40
60
  5
83DD
  62
0
  72
0
  71
0
 10
550.542
 20
1799.17
 30
0.000000
  1
425
  0
POINT
  5
831D
  8
DEFPOINTS
 62
     0
 10
845.06153288321866
 20
2117.8740985030149
 30
0.0
  0
POINT
  5
831E
  8
DEFPOINTS
 62
     0
 10
947.43930252249595
 20
1692.8740985030149
 30
0.0
  0
POINT
  5
831F
  8
DEFPOINTS
 62
     0
 10
720.54186749726023
 20
1692.8740985030149
 30
0.0
  0
ENDBLK
  5
8072
  8
0
  0
BLOCK
  8
0
  2
*D4
 70
     1
 10
0.0
 20
0.0
 30
0.0
  3
*D4
  1

  0
LINE
  5
8320
  8
3
 62
     0
 10
937.43930252249595
 20
1522.8740985030149
 30
0.0
 11
512.28827369026772
 21
1522.8740985030149
 31
0.0
  0
LINE
  5
8321
  8
3
 62
     0
 10
1137.4393025224961
 20
2422.8740985030149
 30
0.0
 11
512.28827369026794
 21
2422.8740985030149
 31
0.0
  0
LINE
  5
8322
  8
3
 62
     0
 10
532.28827369026772
 20
1562.8740985030149
 30
0.0
 11
532.28827369026794
 21
2382.8740985030149
 31
0.0
  0
INSERT
  5
8323
  8
3
 62
     0
  2
_OPEN
 10
532.28827369026772
 20
1522.8740985030149
 30
0.0
 41
40.0
 42
40.0
 43
40.0
 50
270.0
  0
INSERT
  5
8324
  8
3
 62
     0
  2
_OPEN
 10
532.28827369026794
 20
2422.8740985030149
 30
0.0
 41
40.0
 42
40.0
 43
40.0
 50
90.0
  0
TEXT
  8
3
  40
60
  5
83DE
  62
0
  72
0
  71
0
 10
362.288
 20
1866.67
 30
0.000000
  1
900
  0
POINT
  5
8326
  8
DEFPOINTS
 62
     0
 10
947.43930252249595
 20
1522.8740985030149
 30
0.0
  0
POINT
  5
8327
  8
DEFPOINTS
 62
     0
 10
1147.4393025224961
 20
2422.8740985030149
 30
0.0
  0
POINT
  5
8328
  8
DEFPOINTS
 62
     0
 10
532.28827369026794
 20
2422.8740985030149
 30
0.0
  0
ENDBLK
  5
8280
  8
0
  0
BLOCK
  8
0
  2
*D5
 70
     1
 10
0.0
 20
0.0
 30
0.0
  3
*D5
  1

  0
LINE
  5
8329
  8
3
 62
     0
 10
1877.4393025224949
 20
1512.874098503014
 30
0.0
 11
1877.4393025224949
 21
1344.7221061395201
 31
0.0
  0
LINE
  5
832A
  8
3
 62
     0
 10
1162.4393025224949
 20
1474.9289308239911
 30
0.0
 11
1162.4393025224949
 21
1344.7221061395201
 31
0.0
  0
LINE
  5
832B
  8
3
 62
     0
 10
1837.4393025224949
 20
1364.7221061395201
 30
0.0
 11
1202.4393025224949
 21
1364.7221061395201
 31
0.0
  0
INSERT
  5
832C
  8
3
 62
     0
  2
_OPEN
 10
1877.4393025224949
 20
1364.7221061395201
 30
0.0
 41
40.0
 42
40.0
 43
40.0
  0
INSERT
  5
832D
  8
3
 62
     0
  2
_OPEN
 10
1162.4393025224949
 20
1364.7221061395201
 30
0.0
 41
40.0
 42
40.0
 43
40.0
 50
180.0
  0
TEXT
  8
3
  40
60
  5
83DF
  62
0
  72
0
  71
0
 10
1399.94
 20
1308.52
 30
0.000000
  1
715
  0
POINT
  5
832F
  8
DEFPOINTS
 62
     0
 10
1877.4393025224949
 20
1522.8740985030149
 30
0.0
  0
POINT
  5
8330
  8
DEFPOINTS
 62
     0
 10
1162.4393025224949
 20
1484.9289308239911
 30
0.0
  0
POINT
  5
8331
  8
DEFPOINTS
 62
     0
 10
1162.4393025224949
 20
1364.7221061395201
 30
0.0
  0
ENDBLK
  5
809E
  8
0
  0
BLOCK
  8
0
  2
*D6
 70
     1
 10
0.0
 20
0.0
 30
0.0
  3
*D6
  1

  0
LINE
  5
81D0
  8
0
  6
BYBLOCK
 62
     0
 10
1022.679005781835
 20
1533.9289308239911
 30
0.0
 11
1022.679005781835
 21
1403.7221061395201
 31
0.0
  0
LINE
  5
81D1
  8
0
  6
BYBLOCK
 62
     0
 10
807.67900578183571
 20
1571.8740985030149
 30
0.0
 11
807.67900578183571
 21
1403.7221061395201
 31
0.0
  0
LINE
  5
81D2
  8
0
  6
BYBLOCK
 62
     0
 10
982.67900578183571
 20
1423.7221061395201
 30
0.0
 11
847.67900578183571
 21
1423.7221061395201
 31
0.0
  0
TEXT
  5
81D3
  8
3
 62
     0
 10
850.41177342931144
 20
1456.4199703665561
 30
0.0
 40
60.0
  1
215
  0
INSERT
  5
81D4
  8
0
  6
BYBLOCK
 62
     0
  2
_OPEN
 10
1022.679005781835
 20
1423.7221061395201
 30
0.0
 41
40.0
 42
40.0
 43
40.0
  0
INSERT
  5
81D5
  8
0
  6
BYBLOCK
 62
     0
  2
_OPEN
 10
807.67900578183571
 20
1423.7221061395201
 30
0.0
 41
40.0
 42
40.0
 43
40.0
 50
180.0
  0
POINT
  5
81D6
  8
DEFPOINTS
  6
BYBLOCK
 62
     0
 10
1022.679005781835
 20
1543.9289308239911
 30
0.0
  0
POINT
  5
81D7
  8
DEFPOINTS
  6
BYBLOCK
 62
     0
 10
807.67900578183571
 20
1581.8740985030149
 30
0.0
  0
POINT
  5
81D8
  8
DEFPOINTS
  6
BYBLOCK
 62
     0
 10
807.67900578183571
 20
1423.7221061395201
 30
0.0
  0
ENDBLK
  5
81D9
  8
0
  0
BLOCK
  8
0
  2
*D7
 70
     1
 10
0.0
 20
0.0
 30
0.0
  3
*D7
  1

  0
LINE
  5
8332
  8
3
 62
     0
 10
1586.4393025224949
 20
2432.8740985030149
 30
0.0
 11
1586.4393025224949
 21
2514.598006365024
 31
0.0
  0
LINE
  5
8333
  8
3
 62
     0
 10
1174.4393025224949
 20
2432.8740985030149
 30
0.0
 11
1174.4393025224949
 21
2514.598006365024
 31
0.0
  0
LINE
  5
8334
  8
3
 62
     0
 10
1546.4393025224961
 20
2494.598006365024
 30
0.0
 11
1214.4393025224949
 21
2494.598006365024
 31
0.0
  0
INSERT
  5
8335
  8
3
 62
     0
  2
_OPEN
 10
1586.4393025224949
 20
2494.598006365024
 30
0.0
 41
40.0
 42
40.0
 43
40.0
  0
INSERT
  5
8336
  8
3
 62
     0
  2
_OPEN
 10
1174.4393025224949
 20
2494.598006365024
 30
0.0
 41
40.0
 42
40.0
 43
40.0
 50
180.0
  0
TEXT
  8
3
  40
60
  5
83E0
  62
0
  72
0
  71
0
 10
1260.44
 20
2438.40
 30
0.000000
  1
412
  0
POINT
  5
8338
  8
DEFPOINTS
 62
     0
 10
1586.4393025224949
 20
2422.8740985030149
 30
0.0
  0
POINT
  5
8339
  8
DEFPOINTS
 62
     0
 10
1174.4393025224949
 20
2422.8740985030149
 30
0.0
  0
POINT
  5
833A
  8
DEFPOINTS
 62
     0
 10
1174.4393025224949
 20
2494.598006365024
 30
0.0
  0
ENDBLK
  5
8093
  8
0
  0
BLOCK
  8
0
  2
*D8
 70
     1
 10
0.0
 20
0.0
 30
0.0
  3
*D8
  1

  0
LINE
  5
833B
  8
3
 62
     0
 10
1586.4393025224949
 20
2432.8740985030149
 30
0.0
 11
1586.4393025224949
 21
2603.779390425821
 31
0.0
  0
LINE
  5
833C
  8
3
 62
     0
 10
1162.4393025224949
 20
2467.0330900100348
 30
0.0
 11
1162.4393025224949
 21
2603.779390425821
 31
0.0
  0
LINE
  5
833D
  8
3
 62
     0
 10
1546.4393025224961
 20
2583.779390425821
 30
0.0
 11
1202.4393025224949
 21
2583.779390425821
 31
0.0
  0
INSERT
  5
833E
  8
3
 62
     0
  2
_OPEN
 10
1586.4393025224949
 20
2583.779390425821
 30
0.0
 41
40.0
 42
40.0
 43
40.0
  0
INSERT
  5
833F
  8
3
 62
     0
  2
_OPEN
 10
1162.4393025224949
 20
2583.779390425821
 30
0.0
 41
40.0
 42
40.0
 43
40.0
 50
180.0
  0
TEXT
  8
3
  40
60
  5
83E1
  62
0
  72
0
  71
0
 10
1254.44
 20
2527.58
 30
0.000000
  1
424
  0
POINT
  5
8341
  8
DEFPOINTS
 62
     0
 10
1586.4393025224949
 20
2422.8740985030149
 30
0.0
  0
POINT
  5
8342
  8
DEFPOINTS
 62
     0
 10
1162.4393025224949
 20
2457.0330900100348
 30
0.0
  0
POINT
  5
8343
  8
DEFPOINTS
 62
     0
 10
1162.4393025224949
 20
2583.779390425821
 30
0.0
  0
ENDBLK
  5
8088
  8
0
  0
BLOCK
  8
0
  2
*D9
 70
     1
 10
0.0
 20
0.0
 30
0.0
  3
*D9
  1

  0
LINE
  5
8358
  8
3
 62
     0
 10
937.43930252249595
 20
3289.0591641711449
 30
0.0
 11
641.29682738046836
 21
3289.0591641711449
 31
0.0
  0
LINE
  5
8359
  8
3
 62
     0
 10
937.43930252249595
 20
4149.0591641711462
 30
0.0
 11
641.29682738046847
 21
4149.0591641711462
 31
0.0
  0
LINE
  5
835A
  8
3
 62
     0
 10
661.29682738046847
 20
3329.0591641711449
 30
0.0
 11
661.29682738046847
 21
4109.0591641711462
 31
0.0
  0
INSERT
  5
835B
  8
3
 62
     0
  2
_OPEN
 10
661.29682738046824
 20
3289.0591641711449
 30
0.0
 41
40.0
 42
40.0
 43
40.0
 50
270.0
  0
INSERT
  5
835C
  8
3
 62
     0
  2
_OPEN
 10
661.29682738046847
 20
4149.0591641711462
 30
0.0
 41
40.0
 42
40.0
 43
40.0
 50
90.0
  0
TEXT
  8
3
  40
60
  5
83E2
  62
0
  72
0
  71
0
 10
491.297
 20
3612.86
 30
0.000000
  1
860
  0
POINT
  5
835E
  8
DEFPOINTS
 62
     0
 10
947.43930252249595
 20
3289.0591641711449
 30
0.0
  0
POINT
  5
835F
  8
DEFPOINTS
 62
     0
 10
947.43930252249595
 20
4149.0591641711462
 30
0.0
  0
POINT
  5
8360
  8
DEFPOINTS
 62
     0
 10
661.29682738046847
 20
4149.0591641711462
 30
0.0
  0
ENDBLK
  5
80B6
  8
0
  0
BLOCK
  8
0
  2
*D10
 70
     1
 10
0.0
 20
0.0
 30
0.0
  3
*D10
  1

  0
LINE
  5
8361
  8
3
 62
     0
 10
1377.4393025224949
 20
4159.0591641711462
 30
0.0
 11
1377.4393025224949
 21
4283.8096055798324
 31
0.0
  0
LINE
  5
8362
  8
3
 62
     0
 10
1877.4393025224949
 20
3719.0591641711449
 30
0.0
 11
1877.4393025224949
 21
4283.8096055798324
 31
0.0
  0
LINE
  5
8363
  8
3
 62
     0
 10
1417.4393025224949
 20
4263.8096055798314
 30
0.0
 11
1837.4393025224949
 21
4263.8096055798314
 31
0.0
  0
INSERT
  5
8364
  8
3
 62
     0
  2
_OPEN
 10
1377.4393025224949
 20
4263.8096055798314
 30
0.0
 41
40.0
 42
40.0
 43
40.0
 50
180.0
  0
INSERT
  5
8365
  8
3
 62
     0
  2
_OPEN
 10
1877.4393025224949
 20
4263.8096055798314
 30
0.0
 41
40.0
 42
40.0
 43
40.0
  0
TEXT
  8
3
  40
60
  5
83E3
  62
0
  72
0
  71
0
 10
1507.44
 20
4207.61
 30
0.000000
  1
500
  0
POINT
  5
8367
  8
DEFPOINTS
 62
     0
 10
1377.4393025224949
 20
4149.0591641711462
 30
0.0
  0
POINT
  5
8368
  8
DEFPOINTS
 62
     0
 10
1877.4393025224949
 20
3709.0591641711449
 30
0.0
  0
POINT
  5
8369
  8
DEFPOINTS
 62
     0
 10
1877.4393025224949
 20
4263.8096055798314
 30
0.0
  0
ENDBLK
  5
80CC
  8
0
  0
BLOCK
  8
0
  2
*D11
 70
     1
 10
0.0
 20
0.0
 30
0.0
  3
*D11
  1

  0
LINE
  5
836A
  8
3
 62
     0
 10
1877.4393025224949
 20
3279.0591641711449
 30
0.0
 11
1877.4393025224949
 21
3050.8840099469162
 31
0.0
  0
LINE
  5
836B
  8
3
 62
     0
 10
947.43930252249595
 20
3279.0591641711449
 30
0.0
 11
947.43930252249595
 21
3050.8840099469162
 31
0.0
  0
LINE
  5
836C
  8
3
 62
     0
 10
1837.4393025224949
 20
3070.8840099469171
 30
0.0
 11
987.43930252249595
 21
3070.8840099469171
 31
0.0
  0
INSERT
  5
836D
  8
3
 62
     0
  2
_OPEN
 10
1877.4393025224949
 20
3070.8840099469171
 30
0.0
 41
40.0
 42
40.0
 43
40.0
  0
INSERT
  5
836E
  8
3
 62
     0
  2
_OPEN
 10
947.43930252249595
 20
3070.8840099469171
 30
0.0
 41
40.0
 42
40.0
 43
40.0
 50
180.0
  0
TEXT
  8
3
  40
60
  5
83E4
  62
0
  72
0
  71
0
 10
1292.44
 20
3014.68
 30
0.000000
  1
930
  0
POINT
  5
8370
  8
DEFPOINTS
 62
     0
 10
1877.4393025224949
 20
3289.0591641711449
 30
0.0
  0
POINT
  5
8371
  8
DEFPOINTS
 62
     0
 10
947.43930252249595
 20
3289.0591641711449
 30
0.0
  0
POINT
  5
8372
  8
DEFPOINTS
 62
     0
 10
947.43930252249595
 20
3070.8840099469171
 30
0.0
  0
ENDBLK
  5
80C1
  8
0
  0
BLOCK
  8
0
  2
*D12
 70
     1
 10
0.0
 20
0.0
 30
0.0
  3
*D12
  1

  0
LINE
  5
8373
  8
3
 62
     0
 10
1887.4393025224949
 20
3289.0591641711449
 30
0.0
 11
1972.7832406828629
 21
3289.0591641711449
 31
0.0
  0
LINE
  5
8374
  8
3
 62
     0
 10
1887.4393025224949
 20
3709.0591641711449
 30
0.0
 11
1972.7832406828629
 21
3709.0591641711449
 31
0.0
  0
LINE
  5
8375
  8
3
 62
     0
 10
1952.7832406828629
 20
3329.0591641711449
 30
0.0
 11
1952.7832406828629
 21
3669.0591641711449
 31
0.0
  0
INSERT
  5
8376
  8
3
 62
     0
  2
_OPEN
 10
1952.7832406828629
 20
3289.0591641711449
 30
0.0
 41
40.0
 42
40.0
 43
40.0
 50
270.0
  0
INSERT
  5
8377
  8
3
 62
     0
  2
_OPEN
 10
1952.7832406828629
 20
3709.0591641711449
 30
0.0
 41
40.0
 42
40.0
 43
40.0
 50
90.0
  0
TEXT
  8
3
  40
60
  5
83E5
  62
0
  72
0
  71
0
 10
1782.78
 20
3392.86
 30
0.000000
  1
420
  0
POINT
  5
8379
  8
DEFPOINTS
 62
     0
 10
1877.4393025224949
 20
3289.0591641711449
 30
0.0
  0
POINT
  5
837A
  8
DEFPOINTS
 62
     0
 10
1877.4393025224949
 20
3709.0591641711449
 30
0.0
  0
POINT
  5
837B
  8
DEFPOINTS
 62
     0
 10
1952.7832406828629
 20
3709.0591641711449
 30
0.0
  0
ENDBLK
  5
80E2
  8
0
  0
BLOCK
  8
0
  2
*D13
 70
     1
 10
0.0
 20
0.0
 30
0.0
  3
*D13
  1

  0
LINE
  5
837C
  8
3
 62
     0
 10
947.43930252249595
 20
4159.0591641711462
 30
0.0
 11
947.43930252249595
 21
4283.8096055798324
 31
0.0
  0
LINE
  5
837D
  8
3
 62
     0
 10
1377.4393025224949
 20
4159.0591641711462
 30
0.0
 11
1377.4393025224949
 21
4283.8096055798324
 31
0.0
  0
LINE
  5
837E
  8
3
 62
     0
 10
987.43930252249595
 20
4263.8096055798314
 30
0.0
 11
1337.4393025224949
 21
4263.8096055798314
 31
0.0
  0
INSERT
  5
837F
  8
3
 62
     0
  2
_OPEN
 10
947.43930252249595
 20
4263.8096055798314
 30
0.0
 41
40.0
 42
40.0
 43
40.0
 50
180.0
  0
INSERT
  5
8380
  8
3
 62
     0
  2
_OPEN
 10
1377.4393025224949
 20
4263.8096055798314
 30
0.0
 41
40.0
 42
40.0
 43
40.0
  0
TEXT
  8
3
  40
60
  5
83E6
  62
0
  72
0
  71
0
 10
1042.44
 20
4207.61
 30
0.000000
  1
430
  0
POINT
  5
8382
  8
DEFPOINTS
 62
     0
 10
947.43930252249595
 20
4149.0591641711462
 30
0.0
  0
POINT
  5
8383
  8
DEFPOINTS
 62
     0
 10
1377.4393025224949
 20
4149.0591641711462
 30
0.0
  0
POINT
  5
8384
  8
DEFPOINTS
 62
     0
 10
1377.4393025224949
 20
4263.8096055798314
 30
0.0
  0
ENDBLK
  5
80D7
  8
0
  0
BLOCK
  8
0
  2
*D14
 70
     1
 10
0.0
 20
0.0
 30
0.0
  3
*D14
  1

  0
LINE
  5
8397
  8
3
 62
     0
 10
2275.5949296519238
 20
1512.874098503014
 30
0.0
 11
2275.5949296519238
 21
1345.0755904136299
 31
0.0
  0
LINE
  5
8398
  8
3
 62
     0
 10
2940.5949296519261
 20
1474.9289308239911
 30
0.0
 11
2940.5949296519261
 21
1345.0755904136299
 31
0.0
  0
LINE
  5
8399
  8
3
 62
     0
 10
2315.5949296519238
 20
1365.0755904136299
 30
0.0
 11
2900.5949296519261
 21
1365.0755904136299
 31
0.0
  0
INSERT
  5
839A
  8
3
 62
     0
  2
_OPEN
 10
2275.5949296519238
 20
1365.0755904136299
 30
0.0
 41
40.0
 42
40.0
 43
40.0
 50
180.0
  0
INSERT
  5
839B
  8
3
 62
     0
  2
_OPEN
 10
2940.5949296519261
 20
1365.0755904136299
 30
0.0
 41
40.0
 42
40.0
 43
40.0
  0
TEXT
  8
3
  40
60
  5
83E7
  62
0
  72
0
  71
0
 10
2488.09
 20
1308.88
 30
0.000000
  1
665
  0
POINT
  5
839D
  8
DEFPOINTS
 62
     0
 10
2275.5949296519238
 20
1522.8740985030149
 30
0.0
  0
POINT
  5
839E
  8
DEFPOINTS
 62
     0
 10
2940.5949296519261
 20
1484.9289308239911
 30
0.0
  0
POINT
  5
839F
  8
DEFPOINTS
 62
     0
 10
2940.5949296519261
 20
1365.0755904136299
 30
0.0
  0
ENDBLK
  5
80ED
  8
0
  0
BLOCK
  8
0
  2
*D15
 70
     1
 10
0.0
 20
0.0
 30
0.0
  3
*D15
  1

  0
LINE
  5
81DB
  8
0
  6
BYBLOCK
 62
     0
 10
2940.5949296519261
 20
1533.9289308239911
 30
0.0
 11
2940.5949296519261
 21
1404.0755904136299
 31
0.0
  0
LINE
  5
81DC
  8
0
  6
BYBLOCK
 62
     0
 10
3135.5949296519261
 20
1571.8740985030149
 30
0.0
 11
3135.5949296519261
 21
1404.0755904136299
 31
0.0
  0
LINE
  5
81DD
  8
0
  6
BYBLOCK
 62
     0
 10
2980.5949296519261
 20
1424.0755904136311
 30
0.0
 11
3095.5949296519261
 21
1424.0755904136311
 31
0.0
  0
TEXT
  5
81DE
  8
3
 62
     0
 10
2971.0858697460321
 20
1452.53203994364
 30
0.0
 40
60.0
  1
195
  0
INSERT
  5
81DF
  8
0
  6
BYBLOCK
 62
     0
  2
_OPEN
 10
2940.5949296519261
 20
1424.0755904136311
 30
0.0
 41
40.0
 42
40.0
 43
40.0
 50
180.0
  0
INSERT
  5
81E0
  8
0
  6
BYBLOCK
 62
     0
  2
_OPEN
 10
3135.5949296519261
 20
1424.0755904136311
 30
0.0
 41
40.0
 42
40.0
 43
40.0
  0
POINT
  5
81E1
  8
DEFPOINTS
  6
BYBLOCK
 62
     0
 10
2940.5949296519261
 20
1543.9289308239911
 30
0.0
  0
POINT
  5
81E2
  8
DEFPOINTS
  6
BYBLOCK
 62
     0
 10
3135.5949296519261
 20
1581.8740985030149
 30
0.0
  0
POINT
  5
81E3
  8
DEFPOINTS
  6
BYBLOCK
 62
     0
 10
3135.5949296519261
 20
1424.0755904136311
 30
0.0
  0
ENDBLK
  5
81E4
  8
0
  0
BLOCK
  8
0
  2
*D16
 70
     1
 10
0.0
 20
0.0
 30
0.0
  3
*D16
  1

  0
LINE
  5
83A0
  8
3
 62
     0
 10
2180.5949296519238
 20
2277.8740985030149
 30
0.0
 11
2180.5949296519238
 21
2664.3313427042299
 31
0.0
  0
LINE
  5
83A1
  8
3
 62
     0
 10
2940.5949296519261
 20
2614.2452415851358
 30
0.0
 11
2940.5949296519261
 21
2664.3313427042299
 31
0.0
  0
LINE
  5
83A2
  8
3
 62
     0
 10
2220.5949296519238
 20
2644.3313427042299
 30
0.0
 11
2900.5949296519261
 21
2644.3313427042299
 31
0.0
  0
INSERT
  5
83A3
  8
3
 62
     0
  2
_OPEN
 10
2180.5949296519238
 20
2644.3313427042299
 30
0.0
 41
40.0
 42
40.0
 43
40.0
 50
180.0
  0
INSERT
  5
83A4
  8
3
 62
     0
  2
_OPEN
 10
2940.5949296519261
 20
2644.3313427042299
 30
0.0
 41
40.0
 42
40.0
 43
40.0
  0
TEXT
  8
3
  40
60
  5
83E8
  62
0
  72
0
  71
0
 10
2440.59
 20
2638.13
 30
0.000000
  1
MAX
  0
TEXT
  8
3
  40
60
  5
83E9
  62
0
  72
0
  71
0
 10
2440.59
 20
2560.13
 30
0.000000
  1
830
  0
POINT
  5
83A6
  8
DEFPOINTS
 62
     0
 10
2180.5949296519238
 20
2267.8740985030149
 30
0.0
  0
POINT
  5
83A7
  8
DEFPOINTS
 62
     0
 10
2940.5949296519261
 20
2604.2452415851358
 30
0.0
  0
POINT
  5
83A8
  8
DEFPOINTS
 62
     0
 10
2940.5949296519261
 20
2644.3313427042299
 30
0.0
  0
ENDBLK
  5
823D
  8
0
  0
BLOCK
  8
0
  2
*D17
 70
     1
 10
0.0
 20
0.0
 30
0.0
  3
*D17
  1

  0
LINE
  5
83B3
  8
3
 62
     0
 10
3128.5949296519261
 20
2317.874098503014
 30
0.0
 11
3309.6361337816279
 21
2317.874098503014
 31
0.0
  0
LINE
  5
83B4
  8
3
 62
     0
 10
3128.5949296519261
 20
1917.874098503014
 30
0.0
 11
3309.6361337816279
 21
1917.874098503014
 31
0.0
  0
LINE
  5
83B5
  8
3
 62
     0
 10
3289.6361337816288
 20
2277.8740985030149
 30
0.0
 11
3289.6361337816288
 21
1957.874098503014
 31
0.0
  0
INSERT
  5
83B6
  8
3
 62
     0
  2
_OPEN
 10
3289.6361337816288
 20
2317.874098503014
 30
0.0
 41
40.0
 42
40.0
 43
40.0
 50
90.0
  0
INSERT
  5
83B7
  8
3
 62
     0
  2
_OPEN
 10
3289.6361337816288
 20
1917.874098503014
 30
0.0
 41
40.0
 42
40.0
 43
40.0
 50
270.0
  0
TEXT
  8
3
  40
60
  5
83EA
  62
0
  72
0
  71
0
 10
3119.64
 20
2011.67
 30
0.000000
  1
φ400
  0
POINT
  5
83B9
  8
DEFPOINTS
 62
     0
 10
3118.5949296519261
 20
2317.874098503014
 30
0.0
  0
POINT
  5
83BA
  8
DEFPOINTS
 62
     0
 10
3118.5949296519261
 20
1917.874098503014
 30
0.0
  0
POINT
  5
83BB
  8
DEFPOINTS
 62
     0
 10
3289.6361337816288
 20
1917.874098503014
 30
0.0
  0
ENDBLK
  5
81EF
  8
0
  0
BLOCK
  8
0
  2
*D18
 70
     1
 10
0.0
 20
0.0
 30
0.0
  3
*D18
  1

  0
LINE
  5
81A0
  8
0
  6
BYBLOCK
 62
     0
 10
2940.5949296519261
 20
2614.2452415851358
 30
0.0
 11
2940.5949296519261
 21
2664.3313427042299
 31
0.0
  0
LINE
  5
81A1
  8
0
  6
BYBLOCK
 62
     0
 10
3093.5949296519261
 20
2352.874098503014
 30
0.0
 11
3093.5949296519261
 21
2664.3313427042299
 31
0.0
  0
LINE
  5
81A2
  8
0
  6
BYBLOCK
 62
     0
 10
2980.5949296519261
 20
2644.3313427042299
 30
0.0
 11
3053.5949296519261
 21
2644.3313427042299
 31
0.0
  0
TEXT
  5
81A3
  8
3
 62
     0
 10
2945.6663582233541
 20
2694.3313427042308
 30
0.0
 40
60.0
  1
153
  0
INSERT
  5
81A4
  8
0
  6
BYBLOCK
 62
     0
  2
_OPEN
 10
2940.5949296519261
 20
2644.3313427042299
 30
0.0
 41
40.0
 42
40.0
 43
40.0
 50
180.0
  0
INSERT
  5
81A5
  8
0
  6
BYBLOCK
 62
     0
  2
_OPEN
 10
3093.5949296519261
 20
2644.3313427042299
 30
0.0
 41
40.0
 42
40.0
 43
40.0
  0
POINT
  5
81A6
  8
DEFPOINTS
  6
BYBLOCK
 62
     0
 10
2940.5949296519261
 20
2604.2452415851358
 30
0.0
  0
POINT
  5
81A7
  8
DEFPOINTS
  6
BYBLOCK
 62
     0
 10
3093.5949296519261
 20
2342.8740985030149
 30
0.0
  0
POINT
  5
81A8
  8
DEFPOINTS
  6
BYBLOCK
 62
     0
 10
3093.5949296519261
 20
2644.3313427042299
 30
0.0
  0
ENDBLK
  5
81A9
  8
0
  0
BLOCK
  8
0
  2
*D19
 70
     1
 10
0.0
 20
0.0
 30
0.0
  3
*D19
  1

  0
LINE
  5
83C5
  8
3
 62
     0
 10
2790.5949296519261
 20
2432.8740985030149
 30
0.0
 11
2790.5949296519261
 21
2514.5484920434992
 31
0.0
  0
LINE
  5
83C6
  8
3
 62
     0
 10
3090.5949296519252
 20
2432.8740985030149
 30
0.0
 11
3090.5949296519252
 21
2514.5484920434992
 31
0.0
  0
LINE
  5
83C7
  8
3
 62
     0
 10
2830.5949296519261
 20
2494.5484920434992
 30
0.0
 11
3050.5949296519252
 21
2494.5484920434992
 31
0.0
  0
INSERT
  5
83C8
  8
3
 62
     0
  2
_OPEN
 10
2790.5949296519261
 20
2494.5484920434992
 30
0.0
 41
40.0
 42
40.0
 43
40.0
 50
180.0
  0
INSERT
  5
83C9
  8
3
 62
     0
  2
_OPEN
 10
3090.5949296519252
 20
2494.5484920434992
 30
0.0
 41
40.0
 42
40.0
 43
40.0
  0
TEXT
  8
3
  40
60
  5
83EB
  62
0
  72
0
  71
0
 10
2820.59
 20
2438.35
 30
0.000000
  1
300
  0
POINT
  5
83CB
  8
DEFPOINTS
 62
     0
 10
2790.5949296519261
 20
2422.8740985030149
 30
0.0
  0
POINT
  5
83CC
  8
DEFPOINTS
 62
     0
 10
3090.5949296519252
 20
2422.8740985030149
 30
0.0
  0
POINT
  5
83CD
  8
DEFPOINTS
 62
     0
 10
3090.5949296519252
 20
2494.5484920434992
 30
0.0
  0
ENDBLK
  5
811B
  8
0
  0
BLOCK
  8
0
  2
_OPEN
 70
     0
 10
0.0
 20
0.0
 30
0.0
  3
_OPEN
  1

  0
LINE
  5
8034
  8
0
  6
BYBLOCK
 62
     0
 10
-1.0
 20
0.1666666666666666
 30
0.0
 11
0.0
 21
0.0
 31
0.0
  0
LINE
  5
8035
  8
0
  6
BYBLOCK
 62
     0
 10
0.0
 20
0.0
 30
0.0
 11
-1.0
 21
-0.1666666666666666
 31
0.0
  0
LINE
  5
8036
  8
0
  6
BYBLOCK
 62
     0
 10
0.0
 20
0.0
 30
0.0
 11
-1.0
 21
0.0
 31
0.0
  0
ENDBLK
  5
8037
  8
0
  0
BLOCK
  8
0
  2
_DOT
 70
     0
 10
0.0
 20
0.0
 30
0.0
  3
_DOT
  1

  0
LINE
  5
822A
  8
0
  6
BYBLOCK
 62
     0
 10
0.0
 20
0.0
 30
0.0
 11
-1.0
 21
-0.0000000000000284
 31
0.0
  0
POLYLINE
  5
822B
  8
0
  6
BYBLOCK
 62
     0
 66
     1
 10
0.0
 20
0.0
 30
0.0
 70
     1
 40
0.1666666666666666
 41
0.1666666666666666
  0
VERTEX
  5
83D7
  8
0
  6
BYBLOCK
 62
     0
 10
-0.0833333333333286
 20
-0.0000000000000284
 30
0.0
 42
1.0
  0
VERTEX
  5
83D8
  8
0
  6
BYBLOCK
 62
     0
 10
0.0833333333333286
 20
-0.0000000000000284
 30
0.0
 42
1.0
  0
SEQEND
  5
83D9
  8
0
  6
BYBLOCK
 62
     0
  0
ENDBLK
  5
8202
  8
0
  0
BLOCK
  8
0
  2
*D22
 70
     1
 10
0.0
 20
0.0
 30
0.0
  3
*D22
  1

  0
LINE
  5
83CE
  8
3
 62
     0
 10
880.43158556048024
 20
2097.8740985030149
 30
0.0
 11
880.43158556048024
 21
2719.455388751303
 31
0.0
  0
LINE
  5
83CF
  8
3
 62
     0
 10
1877.4393025224949
 20
1777.8740985030149
 30
0.0
 11
1877.4393025224949
 21
2719.455388751303
 31
0.0
  0
LINE
  5
83D0
  8
3
 62
     0
 10
920.43158556048024
 20
2699.455388751303
 30
0.0
 11
1837.4393025224949
 21
2699.455388751303
 31
0.0
  0
INSERT
  5
83D1
  8
3
 62
     0
  2
_OPEN
 10
880.43158556048024
 20
2699.455388751303
 30
0.0
 41
40.0
 42
40.0
 43
40.0
 50
180.0
  0
INSERT
  5
83D2
  8
3
 62
     0
  2
_OPEN
 10
1877.4393025224949
 20
2699.455388751303
 30
0.0
 41
40.0
 42
40.0
 43
40.0
  0
TEXT
  8
3
  40
60
  5
83EC
  62
0
  72
0
  71
0
 10
1311.26
 20
2643.26
 30
0.000000
  1
997
  0
POINT
  5
83D4
  8
DEFPOINTS
 62
     0
 10
880.43158556048024
 20
2087.874098503014
 30
0.0
  0
POINT
  5
83D5
  8
DEFPOINTS
 62
     0
 10
1877.4393025224949
 20
1767.8740985030149
 30
0.0
  0
POINT
  5
83D6
  8
DEFPOINTS
 62
     0
 10
1877.4393025224949
 20
2699.455388751303
 30
0.0
  0
ENDBLK
  5
8228
  8
0
  0
BLOCK
  8
0
  2
L-25-3
 70
     0
 10
0.0
 20
0.0
 30
0.0
  3
L-25-3
  1

  0
LINE
  5
824C
  8
0
 10
81.202663485604475
 20
85.280529856043884
 30
0.0
 11
106.2026634856044
 21
85.280529856043884
 31
0.0
  0
LINE
  5
824D
  8
0
 10
106.2026634856044
 20
85.280529856043884
 30
0.0
 11
106.2026634856044
 21
86.28052985604387
 31
0.0
  0
LINE
  5
824E
  8
0
 10
88.202663485604475
 20
88.280529856043856
 30
0.0
 11
104.2026634856044
 21
88.28052985604387
 31
0.0
  0
ARC
  5
824F
  8
0
 10
104.2026634856044
 20
86.28052985604387
 30
0.0
 40
2.0
 50
359.9999999999992
 51
89.999999999999588
  0
LINE
  5
8250
  8
0
 10
81.202663485604475
 20
85.280529856043884
 30
0.0
 11
81.202663485604475
 21
110.2805298560438
 31
0.0
  0
LINE
  5
8251
  8
0
 10
84.202663485604504
 20
92.280529856043856
 30
0.0
 11
84.202663485604504
 21
108.2805298560438
 31
0.0
  0
LINE
  5
8252
  8
0
 10
81.202663485604475
 20
110.2805298560438
 30
0.0
 11
82.202663485604475
 21
110.2805298560438
 31
0.0
  0
ARC
  5
8253
  8
0
 10
82.202663485604475
 20
108.2805298560438
 30
0.0
 40
2.0
 50
0.0
 51
90.00000000000081
  0
ARC
  5
8254
  8
0
 10
88.202663485604475
 20
92.280529856043856
 30
0.0
 40
4.0
 50
180.0
 51
270.0
  0
ENDBLK
  5
8256
  8
0
  0
BLOCK
  8
0
  2
*D24
 70
     1
 10
0.0
 20
0.0
 30
0.0
  3
*D24
  1

  0
LINE
  5
82C4
  8
0
  6
BYBLOCK
 62
     0
 10
797.67900578183571
 20
1597.8740985030149
 30
0.0
 11
560.78157075659999
 21
1597.8740985030149
 31
0.0
  0
LINE
  5
82C5
  8
0
  6
BYBLOCK
 62
     0
 10
580.7815707566001
 20
1732.874098503014
 30
0.0
 11
580.7815707566001
 21
1772.8740985030149
 31
0.0
  0
LINE
  5
82C6
  8
0
  6
BYBLOCK
 62
     0
 10
580.7815707566001
 20
1557.8740985030149
 30
0.0
 11
580.7815707566001
 21
1517.8740985030149
 31
0.0
  0
TEXT
  5
82C7
  8
3
 62
     0
 10
505.06728504231432
 20
1558.2312413601569
 30
0.0
 40
60.0
  1
(95)
 50
90.0
  0
LINE
  5
82C8
  8
0
  6
BYBLOCK
 62
     0
 10
580.7815707566001
 20
1692.8740985030149
 30
0.0
 11
580.7815707566001
 21
1597.8740985030149
 31
0.0
  0
INSERT
  5
82C9
  8
0
  6
BYBLOCK
 62
     0
  2
_OPEN
 10
580.7815707566001
 20
1692.8740985030149
 30
0.0
 41
40.0
 42
40.0
 43
40.0
 50
270.0
  0
INSERT
  5
82CA
  8
0
  6
BYBLOCK
 62
     0
  2
_DOT
 10
580.7815707566001
 20
1597.8740985030149
 30
0.0
 41
40.0
 42
40.0
 43
40.0
 50
90.0
  0
POINT
  5
82CB
  8
DEFPOINTS
  6
BYBLOCK
 62
     0
 10
807.67900578183571
 20
1692.8740985030149
 30
0.0
  0
POINT
  5
82CC
  8
DEFPOINTS
  6
BYBLOCK
 62
     0
 10
807.67900578183571
 20
1597.8740985030149
 30
0.0
  0
POINT
  5
82CD
  8
DEFPOINTS
  6
BYBLOCK
 62
     0
 10
580.7815707566001
 20
1597.8740985030149
 30
0.0
  0
ENDBLK
  5
82CE
  8
0
  0
ENDSEC
  0
SECTION
  2
ENTITIES
  0
LINE
  5
7CB2
  8
1
 10
977.43930252249584
 20
2019.4740985030139
 30
0.0
 11
888.02140645879649
 21
2019.4740985030151
 31
0.0
  0
LINE
  5
7CB3
  8
1
 10
977.43930252249584
 20
2013.4740985030139
 30
0.0
 11
889.43195039412058
 21
2013.4740985030151
 31
0.0
  0
ARC
  5
7CB5
  8
1
 10
1139.4393025224961
 20
2094.874098503014
 30
0.0
 40
258.54745134352208
 50
90.000000000000256
 51
172.4761795613604
  0
DIMENSION
  5
7CB7
  8
3
  2
*D0
 10
880.43158556048047
 20
2583.779390425821
 30
0.0
 11
1021.435444041488
 21
2633.779390425821
 31
0.0
 70
     0
 13
1162.4393025224949
 23
2457.0330900100348
 33
0.0
 14
880.43158556048047
 24
2087.874098503014
 34
0.0
1001
ACAD
1000
DSTYLE
1002
{
1070
   287
1070
     3
1070
    40
1040
20.0
1070
   143
1040
0.039
1070
   172
1070
     1
1070
   271
1070
     0
1070
   279
1070
     0
1070
   288
1070
     1
1002
}
  0
DIMENSION
  5
7CB8
  8
3
  2
*D1
 10
720.54186749726023
 20
2117.8740985030149
 30
0.0
 11
670.54186749725977
 21
2270.3740985030149
 31
0.0
 70
     0
 13
1147.4393025224961
 23
2422.8740985030149
 33
0.0
 14
845.06153288321866
 24
2117.8740985030149
 34
0.0
 50
270.0
1001
ACAD
1000
DSTYLE
1002
{
1070
   287
1070
     3
1070
    40
1040
20.0
1070
   143
1040
0.039
1070
   172
1070
     1
1070
   271
1070
     0
1070
   279
1070
     0
1070
   288
1070
     1
1002
}
  0
DIMENSION
  5
7CB9
  8
3
  2
*D2
 10
720.54186749726023
 20
1522.8740985030149
 30
0.0
 11
670.54186749726
 21
1374.302669931586
 31
0.0
 70
     0
 13
947.43930252249595
 23
1597.8740985030149
 33
0.0
 14
947.43930252249595
 24
1522.8740985030149
 34
0.0
 50
270.0
1001
ACAD
1000
DSTYLE
1002
{
1070
   287
1070
     3
1070
    40
1040
20.0
1070
   143
1040
0.039
1070
   172
1070
     1
1070
   271
1070
     0
1070
   279
1070
     0
1070
   288
1070
     1
1070
     6
1000
DOT
1002
}
  0
ARC
  5
7CBA
  8
1
 10
1192.4393025224949
 20
2087.874098503014
 30
0.0
 40
312.00771696201508
 50
172.4761795613604
 51
269.99999999999932
  0
DIMENSION
  5
7CBB
  8
3
  2
*D3
 10
720.54186749726023
 20
1692.8740985030149
 30
0.0
 11
670.54186749726
 21
1905.374098503014
 31
0.0
 70
     0
 13
845.06153288321866
 23
2117.8740985030149
 33
0.0
 14
947.43930252249595
 24
1692.8740985030149
 34
0.0
 50
270.0
1001
ACAD
1000
DSTYLE
1002
{
1070
   287
1070
     3
1070
    40
1040
20.0
1070
   143
1040
0.039
1070
   172
1070
     1
1070
   271
1070
     0
1070
   279
1070
     0
1070
   288
1070
     1
1002
}
  0
DIMENSION
  5
7CBD
  8
3
  2
*D4
 10
532.28827369026794
 20
2422.8740985030149
 30
0.0
 11
482.28827369026737
 21
1972.8740985030149
 31
0.0
 70
     0
 13
947.43930252249595
 23
1522.8740985030149
 33
0.0
 14
1147.4393025224961
 24
2422.8740985030149
 34
0.0
 50
270.0
1001
ACAD
1000
DSTYLE
1002
{
1070
   287
1070
     3
1070
    40
1040
20.0
1070
   143
1040
0.039
1070
   172
1070
     1
1070
   271
1070
     0
1070
   279
1070
     0
1070
   288
1070
     1
1002
}
  0
LINE
  5
7CBE
  8
2
 10
1601.682386239213
 20
2117.8740985030149
 30
0.0
 11
845.06153288321866
 21
2117.8740985030149
 31
0.0
  0
LINE
  5
7CBF
  8
1
 10
977.43930252249584
 20
2059.4740985030139
 30
0.0
 11
977.43930252249584
 21
1767.8740985030149
 31
0.0
  0
LINE
  5
7CC0
  8
1
 10
957.43930252249584
 20
1807.874098503014
 30
0.0
 11
957.43930252249584
 21
1767.8740985030149
 31
0.0
  0
LINE
  5
7CC1
  8
2
 10
1162.4393025224949
 20
2457.0330900100348
 30
0.0
 11
1162.4393025224949
 21
1484.9289308239911
 31
0.0
  0
LINE
  5
7CC2
  8
1
 10
1347.4393025224949
 20
2059.4740985030139
 30
0.0
 11
1347.4393025224949
 21
1767.8740985030149
 31
0.0
  0
LINE
  5
7CC3
  8
1
 10
1367.4393025224961
 20
1807.874098503014
 30
0.0
 11
1367.4393025224961
 21
1767.8740985030149
 31
0.0
  0
ARC
  5
7CC4
  8
1
 10
1722.4393025224949
 20
1937.874098503014
 30
0.0
 40
150.0
 50
252.1811110854772
 51
72.181111085477184
  0
LINE
  5
7CC5
  8
1
 10
1872.4393025224949
 20
1797.874098503014
 30
0.0
 11
1872.4393025224949
 21
1767.8740985030149
 31
0.0
  0
LINE
  5
7CC6
  8
1
 10
1572.4393025224961
 20
1797.874098503014
 30
0.0
 11
1572.4393025224961
 21
1767.8740985030149
 31
0.0
  0
ARC
  5
7CC7
  8
1
 10
1192.4393025224961
 20
2147.874098503014
 30
0.0
 40
372.00771696201542
 50
269.9999999999992
 51
355.38856909003903
  0
LINE
  5
7CC9
  8
1
 10
1877.4393025224949
 20
1692.8740985030149
 30
0.0
 11
947.43930252249595
 21
1692.8740985030149
 31
0.0
  0
LINE
  5
7CCA
  8
1
 10
1877.4393025224949
 20
1767.8740985030149
 30
0.0
 11
947.43930252249595
 21
1767.8740985030149
 31
0.0
  0
LINE
  5
7CCB
  8
1
 10
1877.4393025224949
 20
1692.874098503014
 30
0.0
 11
947.43930252249595
 21
1692.8740985030149
 31
0.0
  0
LINE
  5
7CCC
  8
1
 10
1877.4393025224949
 20
1597.8740985030149
 30
0.0
 11
947.43930252249595
 21
1597.8740985030149
 31
0.0
  0
LINE
  5
7CCD
  8
1
 10
1877.4393025224949
 20
1522.8740985030149
 30
0.0
 11
947.43930252249595
 21
1522.8740985030149
 31
0.0
  0
DIMENSION
  5
7CCE
  8
3
  2
*D5
 10
1162.4393025224949
 20
1364.7221061395201
 30
0.0
 11
1519.9393025224949
 21
1414.7221061395201
 31
0.0
 70
     0
 13
1877.4393025224949
 23
1522.8740985030149
 33
0.0
 14
1162.4393025224949
 24
1484.9289308239911
 34
0.0
1001
ACAD
1000
DSTYLE
1002
{
1070
   287
1070
     3
1070
    40
1040
20.0
1070
   143
1040
0.039
1070
   172
1070
     1
1070
   271
1070
     0
1070
   279
1070
     0
1070
   288
1070
     1
1002
}
  0
DIMENSION
  5
7CCF
  8
3
  2
*D6
 10
947.43930252249595
 20
1364.7221061395201
 30
0.0
 11
1061.600641598543
 21
1427.4199703665561
 31
0.0
 12
139.7602967406601
 22
-59.0
 32
0.0
 70
   128
 13
1162.4393025224949
 23
1484.9289308239911
 33
0.0
 14
947.43930252249595
 24
1522.8740985030149
 34
0.0
1001
ACAD
1000
DSTYLE
1002
{
1070
   288
1070
     1
1070
   172
1070
     1
1070
    40
1040
20.0
1070
   271
1070
     0
1070
   143
1040
0.039
1002
}
  0
LINE
  5
7CD0
  8
1
 10
947.43930252249595
 20
1597.8740985030149
 30
0.0
 11
947.43930252249595
 21
1522.8740985030149
 31
0.0
  0
LINE
  5
7CD1
  8
1
 10
947.43930252249595
 20
1767.8740985030149
 30
0.0
 11
947.43930252249595
 21
1692.8740985030149
 31
0.0
  0
LINE
  5
7CD2
  8
1
 10
977.43930252249584
 20
1772.8740985030149
 30
0.0
 11
957.43930252249584
 21
1772.8740985030149
 31
0.0
  0
LINE
  5
7CD3
  8
1
 10
1367.4393025224961
 20
1772.8740985030149
 30
0.0
 11
1347.4393025224949
 21
1772.8740985030149
 31
0.0
  0
LINE
  5
7CD4
  8
1
 10
1877.4393025224949
 20
1597.8740985030149
 30
0.0
 11
1877.4393025224949
 21
1522.8740985030149
 31
0.0
  0
LINE
  5
7CD5
  8
1
 10
1877.4393025224949
 20
1767.8740985030149
 30
0.0
 11
1877.4393025224949
 21
1692.874098503014
 31
0.0
  0
LINE
  5
7CD6
  8
1
 10
1563.2427778175911
 20
2117.9655012712651
 30
0.0
 11
1586.4393025224949
 21
2422.8740985030149
 31
0.0
  0
LINE
  5
7CD7
  8
1
 10
1174.4393025224949
 20
2422.874098503014
 30
0.0
 11
1611.4393025224949
 21
2422.8740985030149
 31
0.0
  0
LINE
  5
7CD8
  8
1
 10
1172.4393025224949
 20
2397.874098503014
 30
0.0
 11
1589.4341198350669
 21
2397.874098503014
 31
0.0
  0
LINE
  5
7CD9
  8
1
 10
1174.4393025224949
 20
2419.8740985030149
 30
0.0
 11
1586.4393025224949
 21
2419.8740985030149
 31
0.0
  0
DIMENSION
  5
7CDA
  8
3
  2
*D7
 10
1174.4393025224949
 20
2494.598006365024
 30
0.0
 11
1380.4393025224949
 21
2544.598006365024
 31
0.0
 70
     0
 13
1586.4393025224949
 23
2422.8740985030149
 33
0.0
 14
1174.4393025224949
 24
2422.8740985030149
 34
0.0
1001
ACAD
1000
DSTYLE
1002
{
1070
   287
1070
     3
1070
    40
1040
20.0
1070
   143
1040
0.039
1070
   172
1070
     1
1070
   271
1070
     0
1070
   279
1070
     0
1070
   288
1070
     1
1002
}
  0
DIMENSION
  5
7CDB
  8
3
  2
*D8
 10
1162.4393025224949
 20
2583.779390425821
 30
0.0
 11
1374.4393025224949
 21
2633.779390425821
 31
0.0
 70
     0
 13
1586.4393025224949
 23
2422.8740985030149
 33
0.0
 14
1162.4393025224949
 24
2457.0330900100348
 34
0.0
1001
ACAD
1000
DSTYLE
1002
{
1070
   287
1070
     3
1070
    40
1040
20.0
1070
   143
1040
0.039
1070
   172
1070
     1
1070
   271
1070
     0
1070
   279
1070
     0
1070
   288
1070
     1
1002
}
  0
LINE
  5
7CDC
  8
1
 10
1744.1854821531881
 20
2010.9052129096131
 30
0.0
 11
1180.5611188814059
 21
2178.7333605085132
 31
0.0
  0
LINE
  5
7CDD
  8
1
 10
1697.5605541056759
 20
1865.8498812062419
 30
0.0
 11
1141.707012175146
 21
2057.853917422372
 31
0.0
  0
LINE
  5
7CDE
  8
1
 10
1768.3406795844639
 20
2080.678382695804
 30
0.0
 11
1208.3406795844639
 21
2260.678382695804
 31
0.0
  0
LINE
  5
7CDF
  8
1
 10
1676.537925460527
 20
1795.069814310225
 30
0.0
 11
1116.537925460528
 21
1975.069814310225
 31
0.0
  0
LINE
  5
7CE0
  8
1
 10
1387.4393025224961
 20
2059.4740985030148
 30
0.0
 11
937.43930252249595
 21
2059.4740985030139
 31
0.0
  0
LINE
  5
7CE1
  8
1
 10
1352.4393025224949
 20
2062.6740985030142
 30
0.0
 11
972.43930252249595
 21
2062.6740985030142
 31
0.0
  0
ARC
  5
7CE2
  8
1
 10
1162.4393025224949
 20
2117.8740985030149
 30
0.0
 40
150.0
 50
72.181111085477156
 51
252.1811110854772
  0
LINE
  5
7CE3
  8
1
 10
937.43930252249595
 20
2059.4740985030139
 30
0.0
 11
937.43930252249595
 21
2019.4740985030139
 31
0.0
  0
LINE
  5
7CE4
  8
1
 10
977.43930252249584
 20
1807.874098503014
 30
0.0
 11
957.43930252249584
 21
1807.874098503014
 31
0.0
  0
LINE
  5
7CE5
  8
1
 10
972.43930252249595
 20
2062.6740985030142
 30
0.0
 11
972.43930252249595
 21
2059.4740985030139
 31
0.0
  0
CIRCLE
  5
7CE6
  8
1
 10
1162.4393025224949
 20
2117.8740985030149
 30
0.0
 40
63.5
  0
LINE
  5
7CE7
  8
1
 10
1387.4393025224961
 20
2059.4740985030139
 30
0.0
 11
1387.4393025224961
 21
2019.4740985030139
 31
0.0
  0
LINE
  5
7CE8
  8
1
 10
1539.320235234703
 20
2013.4740985030139
 30
0.0
 11
1347.4393025224949
 21
2013.4740985030139
 31
0.0
  0
LINE
  5
7CE9
  8
1
 10
1539.320235234703
 20
2013.4740985030151
 30
0.0
 11
1347.4393025224949
 21
2013.4740985030139
 31
0.0
  0
LINE
  5
7CEA
  8
1
 10
1541.5856636367009
 20
2019.4740985030151
 30
0.0
 11
1347.4393025224949
 21
2019.4740985030139
 31
0.0
  0
LINE
  5
7CEB
  8
1
 10
1367.4393025224961
 20
1807.874098503014
 30
0.0
 11
1347.4393025224949
 21
1807.874098503014
 31
0.0
  0
LINE
  5
7CEC
  8
1
 10
1352.4393025224949
 20
2062.6740985030142
 30
0.0
 11
1352.4393025224949
 21
2059.4740985030139
 31
0.0
  0
ARC
  5
7CED
  8
1
 10
1139.439302522492
 20
2140.8740985030149
 30
0.0
 40
212.5474513435226
 50
80.521986962024656
 51
89.999999999999034
  0
LINE
  5
7CEF
  8
1
 10
1174.4393025224949
 20
2350.5200359132732
 30
0.0
 11
1174.4393025224949
 21
2422.8740985030149
 31
0.0
  0
POLYLINE
  5
7CF2
  8
1
 66
     1
 10
0.0
 20
0.0
 30
0.0
 70
     1
  0
VERTEX
  5
8344
  8
1
 10
1174.4393025224949
 20
2422.8740985030149
 30
0.0
  0
VERTEX
  5
8345
  8
1
 10
1149.4393025224949
 20
2422.8740985030149
 30
0.0
  0
VERTEX
  5
8346
  8
1
 10
1149.4393025224949
 20
2421.874098503014
 30
0.0
 42
0.4142135623730951
  0
VERTEX
  5
8347
  8
1
 10
1151.4393025224949
 20
2419.8740985030149
 30
0.0
  0
VERTEX
  5
8348
  8
1
 10
1167.4393025224949
 20
2419.8740985030149
 30
0.0
 42
-0.4142135623730951
  0
VERTEX
  5
8349
  8
1
 10
1171.4393025224961
 20
2415.8740985030149
 30
0.0
  0
VERTEX
  5
834A
  8
1
 10
1171.4393025224961
 20
2399.8740985030149
 30
0.0
 42
0.4142135623730951
  0
VERTEX
  5
834B
  8
1
 10
1173.4393025224949
 20
2397.874098503014
 30
0.0
  0
VERTEX
  5
834C
  8
1
 10
1174.4393025224949
 20
2397.874098503014
 30
0.0
  0
SEQEND
  5
834D
  8
1
  0
LINE
  5
7D05
  8
2
 10
1722.4393025224949
 20
2039.0989985030139
 30
0.0
 11
1722.4393025224949
 21
1836.3856985030141
 31
0.0
  0
ARC
  5
7D07
  8
1
 10
1722.4393025224949
 20
1937.874098503014
 30
0.0
 40
100.8
 50
285.4276999999999
 51
180.0
  0
LINE
  5
7D09
  8
1
 10
1694.8216025224949
 20
1840.874098503014
 30
0.0
 11
1749.708702522496
 21
1840.874098503014
 31
0.0
  0
LINE
  5
7D0A
  8
2
 10
1823.054702522496
 20
1937.874098503014
 30
0.0
 11
1614.3938025224959
 21
1937.874098503014
 31
0.0
  0
LINE
  5
7D0B
  8
1
 10
1872.4393025224949
 20
1797.8740985030149
 30
0.0
 11
1572.4393025224961
 21
1797.874098503014
 31
0.0
  0
LINE
  5
7D0C
  8
1
 10
1844.0518143636859
 20
1837.874098503014
 30
0.0
 11
1600.8267906813051
 21
1837.874098503014
 31
0.0
  0
CIRCLE
  5
7D0D
  8
1
 10
1722.4393025224949
 20
1937.874098503014
 30
0.0
 40
76.200000000000003
  0
ARC
  5
7D0F
  8
1
 10
1722.4393025224949
 20
1937.874098503014
 30
0.0
 40
100.8
 50
180.0
 51
254.20289999999989
  0
LINE
  5
7D10
  8
1
 10
1624.4393025224949
 20
1849.874098503014
 30
0.0
 11
1660.4393025224949
 21
1849.874098503014
 31
0.0
  0
LINE
  5
7D11
  8
1
 10
1622.4393025224949
 20
1837.874098503014
 30
0.0
 11
1662.4393025224949
 21
1837.874098503014
 31
0.0
  0
LINE
  5
7D12
  8
1
 10
1636.4393025224961
 20
1849.874098503014
 30
0.0
 11
1636.4393025224961
 21
1837.874098503014
 31
0.0
  0
LINE
  5
7D13
  8
1
 10
1642.4393025224949
 20
1851.254598503014
 30
0.0
 11
1642.4393025224949
 21
1833.907498503014
 31
0.0
  0
LINE
  5
7D14
  8
1
 10
1622.4393025224949
 20
1837.874098503014
 30
0.0
 11
1622.4393025224949
 21
1847.874098503014
 31
0.0
  0
LINE
  5
7D15
  8
1
 10
1589.9393025224949
 20
1797.8740985030149
 30
0.0
 11
1600.8267906813051
 21
1837.874098503014
 31
0.0
  0
ARC
  5
7D16
  8
1
 10
1624.4393025224949
 20
1847.874098503014
 30
0.0
 40
2.0
 50
90.0
 51
180.0
  0
LINE
  5
7D17
  8
1
 10
1623.5301025224951
 20
1849.9135985030141
 30
0.0
 11
1639.6488025224951
 21
1880.047898503014
 31
0.0
  0
LINE
  5
7D18
  8
1
 10
1668.6927025224959
 20
1852.127598503014
 30
0.0
 11
1662.4393025224949
 21
1845.874098503014
 31
0.0
  0
LINE
  5
7D19
  8
1
 10
1662.4393025224949
 20
1837.874098503014
 30
0.0
 11
1662.4393025224949
 21
1847.874098503014
 31
0.0
  0
LINE
  5
7D1A
  8
1
 10
1648.4393025224949
 20
1837.874098503014
 30
0.0
 11
1648.4393025224949
 21
1849.874098503014
 31
0.0
  0
ARC
  5
7D1B
  8
1
 10
1660.4393025224949
 20
1847.874098503014
 30
0.0
 40
2.0
 50
0.0
 51
90.0
  0
LINE
  5
7D1C
  8
1
 10
1820.4393025224961
 20
1849.874098503014
 30
0.0
 11
1784.4393025224961
 21
1849.874098503014
 31
0.0
  0
LINE
  5
7D1D
  8
1
 10
1821.5471025224961
 20
1849.5421985030141
 30
0.0
 11
1805.146302522495
 21
1880.2041985030139
 31
0.0
  0
LINE
  5
7D1E
  8
1
 10
1822.4393025224961
 20
1837.874098503014
 30
0.0
 11
1782.4393025224961
 21
1837.874098503014
 31
0.0
  0
LINE
  5
7D1F
  8
1
 10
1808.4393025224949
 20
1849.874098503014
 30
0.0
 11
1808.4393025224949
 21
1837.874098503014
 31
0.0
  0
LINE
  5
7D20
  8
1
 10
1796.4393025224949
 20
1837.874098503014
 30
0.0
 11
1796.4393025224949
 21
1849.874098503014
 31
0.0
  0
LINE
  5
7D21
  8
1
 10
1802.4393025224949
 20
1851.254598503014
 30
0.0
 11
1802.4393025224949
 21
1833.907498503014
 31
0.0
  0
LINE
  5
7D22
  8
1
 10
1782.4393025224961
 20
1837.874098503014
 30
0.0
 11
1782.4393025224961
 21
1847.874098503014
 31
0.0
  0
LINE
  5
7D23
  8
1
 10
1775.889702522496
 20
1852.423798503014
 30
0.0
 11
1782.4393025224961
 21
1845.874098503014
 31
0.0
  0
ARC
  5
7D24
  8
1
 10
1784.4393025224961
 20
1847.874098503014
 30
0.0
 40
2.0
 50
90.0
 51
180.0
  0
LINE
  5
7D25
  8
1
 10
1822.4393025224961
 20
1837.874098503014
 30
0.0
 11
1822.4393025224961
 21
1847.874098503014
 31
0.0
  0
LINE
  5
7D26
  8
1
 10
1854.9393025224949
 20
1797.8740985030149
 30
0.0
 11
1844.0518143636859
 21
1837.874098503014
 31
0.0
  0
ARC
  5
7D27
  8
1
 10
1820.4393025224961
 20
1847.874098503014
 30
0.0
 40
2.0
 50
0.0
 51
90.0
  0
POLYLINE
  5
7D28
  8
1
 66
     1
 10
0.0
 20
0.0
 30
0.0
 70
     1
  0
VERTEX
  5
834E
  8
1
 10
1586.4393025224949
 20
2422.8740985030149
 30
0.0
  0
VERTEX
  5
834F
  8
1
 10
1611.4393025224949
 20
2422.8740985030149
 30
0.0
  0
VERTEX
  5
8350
  8
1
 10
1611.4393025224949
 20
2421.874098503014
 30
0.0
 42
-0.4142135623730951
  0
VERTEX
  5
8351
  8
1
 10
1609.4393025224961
 20
2419.8740985030149
 30
0.0
  0
VERTEX
  5
8352
  8
1
 10
1593.4393025224949
 20
2419.8740985030149
 30
0.0
 42
0.4142135623730951
  0
VERTEX
  5
8353
  8
1
 10
1589.4393025224949
 20
2415.8740985030149
 30
0.0
  0
VERTEX
  5
8354
  8
1
 10
1589.4393025224949
 20
2399.8740985030149
 30
0.0
 42
-0.4142135623730951
  0
VERTEX
  5
8355
  8
1
 10
1587.4393025224949
 20
2397.874098503014
 30
0.0
  0
VERTEX
  5
8356
  8
1
 10
1586.4393025224949
 20
2397.874098503014
 30
0.0
  0
SEQEND
  5
8357
  8
1
  0
LINE
  5
7D33
  8
1
 10
1587.4393025224949
 20
2397.874098503014
 30
0.0
 11
1586.4393025224949
 21
2397.874098503014
 31
0.0
  0
LINE
  5
7D34
  8
1
 10
1147.4341198350669
 20
4106.0591641711462
 30
0.0
 11
880.43158556048047
 21
4106.0591641711462
 31
0.0
  0
LINE
  5
7D35
  8
1
 10
1147.4341198350669
 20
3802.0591641711462
 30
0.0
 11
880.43158556048047
 21
3802.0591641711462
 31
0.0
  0
DIMENSION
  5
7D36
  8
3
  2
*D9
 10
661.29682738046847
 20
4149.0591641711462
 30
0.0
 11
611.29682738046779
 21
3719.0591641711449
 31
0.0
 70
     0
 13
947.43930252249595
 23
3289.0591641711449
 33
0.0
 14
947.43930252249595
 24
4149.0591641711462
 34
0.0
 50
270.0
1001
ACAD
1000
DSTYLE
1002
{
1070
   287
1070
     3
1070
    40
1040
20.0
1070
   143
1040
0.039
1070
   172
1070
     1
1070
   271
1070
     0
1070
   279
1070
     0
1070
   288
1070
     1
1002
}
  0
LINE
  5
7D37
  8
2
 10
1644.1935878221061
 20
3954.0591641711462
 30
0.0
 11
754.33482866362237
 21
3954.0591641711462
 31
0.0
  0
LINE
  5
7D38
  8
1
 10
880.43158556048047
 20
3802.0591641711462
 30
0.0
 11
880.43158556048047
 21
4106.0591641711462
 31
0.0
  0
LINE
  5
7D39
  8
2
 10
1162.4393025224949
 20
4204.044459326853
 30
0.0
 11
1162.4393025224949
 21
3204.1110698457542
 31
0.0
  0
LINE
  5
7D3A
  8
1
 10
947.43930252249595
 20
3804.0591641711462
 30
0.0
 11
947.43930252249595
 21
3289.0591641711449
 31
0.0
  0
LINE
  5
7D3B
  8
1
 10
1377.4393025224949
 20
3777.0591641711462
 30
0.0
 11
1377.4393025224949
 21
3329.0591641711449
 31
0.0
  0
LINE
  5
7D3C
  8
1
 10
1352.4393025224949
 20
3739.0591641711449
 30
0.0
 11
1352.4393025224949
 21
3314.0591641711462
 31
0.0
  0
LINE
  5
7D3D
  8
1
 10
972.43930252249595
 20
3739.0591641711462
 30
0.0
 11
972.43930252249595
 21
3314.0591641711449
 31
0.0
  0
DIMENSION
  5
7D40
  8
3
  2
*D10
 10
1877.4393025224949
 20
4263.8096055798314
 30
0.0
 11
1627.4393025224949
 21
4313.8096055798314
 31
0.0
 70
     0
 13
1377.4393025224949
 23
4149.0591641711462
 33
0.0
 14
1877.4393025224949
 24
3709.0591641711449
 34
0.0
1001
ACAD
1000
DSTYLE
1002
{
1070
   287
1070
     3
1070
    40
1040
20.0
1070
   143
1040
0.039
1070
   172
1070
     1
1070
   271
1070
     0
1070
   279
1070
     0
1070
   288
1070
     1
1002
}
  0
LINE
  5
7D41
  8
1
 10
1872.4393025224949
 20
3316.0591641711462
 30
0.0
 11
1012.439302522496
 21
3316.0591641711449
 31
0.0
  0
LINE
  5
7D42
  8
1
 10
1872.4393025224949
 20
3194.0591641711462
 30
0.0
 11
1012.439302522496
 21
3194.0591641711449
 31
0.0
  0
LINE
  5
7D43
  8
1
 10
1877.4393025224949
 20
3289.0591641711449
 30
0.0
 11
1182.4393025224949
 21
3289.0591641711449
 31
0.0
  0
LINE
  5
7D44
  8
1
 10
1877.4393025224949
 20
3669.0591641711449
 30
0.0
 11
1377.4393025224949
 21
3669.0591641711462
 31
0.0
  0
LINE
  5
7D45
  8
1
 10
1877.4393025224949
 20
3709.0591641711449
 30
0.0
 11
1377.4393025224949
 21
3709.0591641711462
 31
0.0
  0
LINE
  5
7D46
  8
1
 10
1622.4393025224949
 20
3329.0591641711449
 30
0.0
 11
1352.4393025224949
 21
3329.0591641711449
 31
0.0
  0
LINE
  5
7D47
  8
1
 10
1646.2393025224951
 20
3224.0591641711462
 30
0.0
 11
1225.9393025224961
 21
3224.0591641711462
 31
0.0
  0
LINE
  5
7D48
  8
1
 10
1225.9393025224961
 20
3274.0591641711462
 30
0.0
 11
1646.2393025224951
 21
3274.0591641711462
 31
0.0
  0
DIMENSION
  5
7D49
  8
3
  2
*D11
 10
947.43930252249595
 20
3070.8840099469171
 30
0.0
 11
1412.4393025224949
 21
3120.8840099469162
 31
0.0
 70
     0
 13
1877.4393025224949
 23
3289.0591641711449
 33
0.0
 14
947.43930252249595
 24
3289.0591641711449
 34
0.0
1001
ACAD
1000
DSTYLE
1002
{
1070
   287
1070
     3
1070
    40
1040
20.0
1070
   143
1040
0.039
1070
   172
1070
     1
1070
   271
1070
     0
1070
   279
1070
     0
1070
   288
1070
     1
1002
}
  0
LINE
  5
7D4A
  8
1
 10
1012.439302522496
 20
3194.0591641711462
 30
0.0
 11
1012.439302522496
 21
3316.0591641711462
 31
0.0
  0
LINE
  5
7D4B
  8
1
 10
1225.9393025224961
 20
3274.0591641711462
 30
0.0
 11
1225.9393025224961
 21
3224.0591641711462
 31
0.0
  0
LINE
  5
7D4C
  8
1
 10
1098.9393025224949
 20
3274.0591641711462
 30
0.0
 11
1098.9393025224949
 21
3224.0591641711462
 31
0.0
  0
LINE
  5
7D4D
  8
1
 10
1225.9393025224961
 20
3224.0591641711462
 30
0.0
 11
1098.9393025224949
 21
3224.0591641711449
 31
0.0
  0
LINE
  5
7D52
  8
1
 10
1352.4393025224949
 20
3314.0591641711462
 30
0.0
 11
1182.4393025224949
 21
3314.0591641711462
 31
0.0
  0
LINE
  5
7D5D
  8
1
 10
1142.4393025224949
 20
3314.0591641711449
 30
0.0
 11
972.43930252249595
 21
3314.0591641711449
 31
0.0
  0
LINE
  5
7D5E
  8
1
 10
1142.4393025224949
 20
3289.0591641711449
 30
0.0
 11
947.43930252249595
 21
3289.0591641711449
 31
0.0
  0
LINE
  5
7D61
  8
1
 10
972.43930252249595
 20
3329.0591641711462
 30
0.0
 11
947.43930252249595
 21
3329.0591641711449
 31
0.0
  0
LINE
  5
7D62
  8
1
 10
1225.9393025224961
 20
3274.0591641711462
 30
0.0
 11
1098.9393025224949
 21
3274.0591641711462
 31
0.0
  0
LINE
  5
7D63
  8
1
 10
1142.4393025224949
 20
3802.0591641711462
 30
0.0
 11
1142.4393025224949
 21
3274.0591641711462
 31
0.0
  0
LINE
  5
7D64
  8
1
 10
1182.4393025224949
 20
3777.0591641711462
 30
0.0
 11
1182.4393025224949
 21
3274.0591641711462
 31
0.0
  0
LINE
  5
7D6D
  8
1
 10
1872.4393025224949
 20
3194.0591641711462
 30
0.0
 11
1872.4393025224949
 21
3316.0591641711462
 31
0.0
  0
LINE
  5
7D6E
  8
2
 10
1722.4393025224949
 20
3595.3898641711471
 30
0.0
 11
1722.4393025224949
 21
3218.741164171146
 31
0.0
  0
LINE
  5
7D6F
  8
1
 10
1798.6393025224961
 20
3274.0591641711462
 30
0.0
 11
1798.6393025224961
 21
3224.0591641711462
 31
0.0
  0
LINE
  5
7D70
  8
1
 10
1646.2393025224951
 20
3274.0591641711462
 30
0.0
 11
1646.2393025224951
 21
3224.0591641711462
 31
0.0
  0
LINE
  5
7D71
  8
1
 10
1798.6393025224961
 20
3224.0591641711462
 30
0.0
 11
1646.2393025224951
 21
3224.0591641711462
 31
0.0
  0
DIMENSION
  5
7D72
  8
3
  2
*D12
 10
1952.7832406828629
 20
3709.0591641711449
 30
0.0
 11
1902.783240682862
 21
3499.0591641711449
 31
0.0
 70
     0
 13
1877.4393025224949
 23
3289.0591641711449
 33
0.0
 14
1877.4393025224949
 24
3709.0591641711449
 34
0.0
 50
270.0
1001
ACAD
1000
DSTYLE
1002
{
1070
   287
1070
     3
1070
    40
1040
20.0
1070
   143
1040
0.039
1070
   172
1070
     1
1070
   271
1070
     0
1070
   279
1070
     0
1070
   288
1070
     1
1002
}
  0
LINE
  5
7D73
  8
1
 10
1622.4393025224949
 20
3417.0591641711462
 30
0.0
 11
1622.4393025224949
 21
3590.0591641711462
 31
0.0
  0
LINE
  5
7D74
  8
1
 10
1822.4393025224961
 20
3295.0591641711449
 30
0.0
 11
1822.4393025224961
 21
3590.0591641711462
 31
0.0
  0
LINE
  5
7D75
  8
1
 10
1707.839302522495
 20
3284.0591641711449
 30
0.0
 11
1737.0392025224951
 21
3284.0591641711449
 31
0.0
  0
LINE
  5
7D76
  8
1
 10
1759.4393025224961
 20
3289.0591641711449
 30
0.0
 11
1685.4393025224949
 21
3289.0591641711449
 31
0.0
  0
LINE
  5
7D77
  8
1
 10
1622.4393025224949
 20
3295.0591641711449
 30
0.0
 11
1822.4393025224961
 21
3295.0591641711449
 31
0.0
  0
LINE
  5
7D78
  8
1
 10
1798.6393025224961
 20
3274.0591641711462
 30
0.0
 11
1646.239302522496
 21
3274.0591641711462
 31
0.0
  0
LINE
  5
7D79
  8
1
 10
1622.4393025224949
 20
3417.0591641711462
 30
0.0
 11
1622.4393025224949
 21
3295.0591641711449
 31
0.0
  0
ARC
  5
7D7A
  8
1
 10
1685.4392025224961
 20
3292.0591641711462
 30
0.0
 40
2.9998999999999989
 50
179.9987999999999
 51
270.00119999999998
  0
LINE
  5
7D7B
  8
1
 10
1682.4393025224949
 20
3295.0591641711449
 30
0.0
 11
1682.4393025224949
 21
3292.0591641711462
 31
0.0
  0
LINE
  5
7D7C
  8
1
 10
1708.4393025224961
 20
3284.0591641711449
 30
0.0
 11
1708.4393025224961
 21
3274.0591641711462
 31
0.0
  0
LINE
  5
7D7D
  8
1
 10
1707.839302522495
 20
3289.0591641711449
 30
0.0
 11
1707.839302522495
 21
3284.0591641711449
 31
0.0
  0
LINE
  5
7D7E
  8
1
 10
1736.4393025224949
 20
3284.0591641711449
 30
0.0
 11
1736.4393025224949
 21
3274.0591641711462
 31
0.0
  0
LINE
  5
7D7F
  8
1
 10
1737.0392025224951
 20
3289.0591641711449
 30
0.0
 11
1737.0392025224951
 21
3284.0591641711449
 31
0.0
  0
ARC
  5
7D80
  8
1
 10
1759.4393025224961
 20
3292.0591641711462
 30
0.0
 40
2.9998999999999989
 50
269.9987999999999
 51
0.0011999999999613
  0
LINE
  5
7D81
  8
1
 10
1762.4393025224949
 20
3295.0591641711449
 30
0.0
 11
1762.4393025224949
 21
3292.0591641711462
 31
0.0
  0
LINE
  5
7D82
  8
1
 10
1877.4393025224949
 20
3329.0591641711449
 30
0.0
 11
1877.4393025224949
 21
3289.0591641711449
 31
0.0
  0
POINT
  5
7D83
  8
1
 10
1877.4393025224949
 20
3289.0591641711449
 30
0.0
  0
POINT
  5
7D84
  8
1
 10
1877.4393025224949
 20
3289.0591641711449
 30
0.0
  0
LINE
  5
7D85
  8
1
 10
1877.4393025224949
 20
3329.0591641711449
 30
0.0
 11
1822.4393025224961
 21
3329.0591641711449
 31
0.0
  0
LINE
  5
7D86
  8
1
 10
1822.4393025224961
 20
3590.0591641711462
 30
0.0
 11
1622.4393025224949
 21
3590.0591641711462
 31
0.0
  0
LINE
  5
7D87
  8
1
 10
1664.4393025224949
 20
3669.0591641711449
 30
0.0
 11
1664.4393025224949
 21
3590.0591641711462
 31
0.0
  0
LINE
  5
7D88
  8
1
 10
1624.4393025224949
 20
3669.0591641711449
 30
0.0
 11
1624.4393025224949
 21
3590.0591641711462
 31
0.0
  0
LINE
  5
7D89
  8
1
 10
1780.4393025224949
 20
3669.0591641711449
 30
0.0
 11
1780.4393025224949
 21
3590.0591641711462
 31
0.0
  0
LINE
  5
7D8A
  8
1
 10
1820.4393025224961
 20
3669.0591641711449
 30
0.0
 11
1820.4393025224961
 21
3590.0591641711462
 31
0.0
  0
LINE
  5
7D8B
  8
1
 10
1877.4393025224949
 20
3709.0591641711449
 30
0.0
 11
1877.4393025224949
 21
3669.0591641711449
 31
0.0
  0
LINE
  5
7D8C
  8
1
 10
1613.4341198350669
 20
4131.0591641711462
 30
0.0
 11
1147.4341198350669
 21
4131.0591641711462
 31
0.0
  0
LINE
  5
7D8D
  8
1
 10
1613.4341198350669
 20
3777.0591641711462
 30
0.0
 11
1147.4341198350669
 21
3777.0591641711462
 31
0.0
  0
LINE
  5
7D8E
  8
1
 10
1588.4341198350669
 20
4106.0591641711462
 30
0.0
 11
1172.4341198350669
 21
4106.0591641711462
 31
0.0
  0
LINE
  5
7D8F
  8
1
 10
1588.4341198350669
 20
3802.0591641711449
 30
0.0
 11
1172.4341198350669
 21
3802.0591641711462
 31
0.0
  0
LINE
  5
7D90
  8
1
 10
1172.4341198350669
 20
4106.0591641711462
 30
0.0
 11
1588.4341198350669
 21
3802.0591641711449
 31
0.0
  0
LINE
  5
7D91
  8
1
 10
1588.4341198350669
 20
4106.0591641711462
 30
0.0
 11
1172.4341198350669
 21
3802.0591641711462
 31
0.0
  0
DIMENSION
  5
7D92
  8
3
  2
*D13
 10
1377.4393025224949
 20
4263.8096055798314
 30
0.0
 11
1162.4393025224949
 21
4313.8096055798314
 31
0.0
 70
     0
 13
947.43930252249595
 23
4149.0591641711462
 33
0.0
 14
1377.4393025224949
 24
4149.0591641711462
 34
0.0
1001
ACAD
1000
DSTYLE
1002
{
1070
   287
1070
     3
1070
    40
1040
20.0
1070
   143
1040
0.039
1070
   172
1070
     1
1070
   271
1070
     0
1070
   279
1070
     0
1070
   288
1070
     1
1002
}
  0
LINE
  5
7D93
  8
1
 10
1337.4393025224949
 20
4147.0591641711462
 30
0.0
 11
987.43930252249595
 21
4147.0591641711462
 31
0.0
  0
LINE
  5
7D94
  8
1
 10
1352.4393025224949
 20
3739.0591641711449
 30
0.0
 11
972.43930252249595
 21
3739.0591641711462
 31
0.0
  0
LINE
  5
7D95
  8
1
 10
1147.4341198350669
 20
3777.0591641711449
 30
0.0
 11
1147.4341198350669
 21
4131.0591641711462
 31
0.0
  0
LINE
  5
7D96
  8
1
 10
1172.4341198350669
 20
3802.0591641711462
 30
0.0
 11
1172.4341198350669
 21
4106.0591641711462
 31
0.0
  0
LINE
  5
7D97
  8
1
 10
987.43930252249595
 20
3804.0591641711462
 30
0.0
 11
987.43930252249595
 21
3753.43126740455
 31
0.0
  0
LINE
  5
7D98
  8
1
 10
987.43930252249595
 20
3762.0591641711462
 30
0.0
 11
987.43930252249595
 21
3739.0591641711462
 31
0.0
  0
LINE
  5
7D99
  8
1
 10
1147.4341198350669
 20
4107.0591641711462
 30
0.0
 11
987.43930252249595
 21
4107.0591641711462
 31
0.0
  0
LINE
  5
7D9A
  8
1
 10
987.43930252249595
 20
4149.0591641711462
 30
0.0
 11
947.43930252249595
 21
4149.0591641711462
 31
0.0
  0
LINE
  5
7D9B
  8
1
 10
947.43930252249595
 20
4149.0591641711462
 30
0.0
 11
947.43930252249595
 21
4106.0591641711462
 31
0.0
  0
POINT
  5
7D9C
  8
1
 10
947.43930252249595
 20
4149.0591641711462
 30
0.0
  0
POINT
  5
7D9D
  8
1
 10
947.43930252249595
 20
4149.0591641711462
 30
0.0
  0
LINE
  5
7D9E
  8
1
 10
987.43930252249595
 20
4149.0591641711462
 30
0.0
 11
987.43930252249595
 21
4106.0591641711462
 31
0.0
  0
LINE
  5
7D9F
  8
1
 10
1337.4393025224949
 20
3762.0591641711462
 30
0.0
 11
1337.4393025224949
 21
3739.0591641711449
 31
0.0
  0
LINE
  5
7DA0
  8
1
 10
1337.4393025224949
 20
3777.0591641711462
 30
0.0
 11
1337.4393025224949
 21
3746.3365267165918
 31
0.0
  0
LINE
  5
7DA1
  8
1
 10
1377.4393025224949
 20
4149.0591641711462
 30
0.0
 11
1337.4393025224949
 21
4149.0591641711462
 31
0.0
  0
LINE
  5
7DA2
  8
1
 10
1337.4393025224949
 20
4149.0591641711462
 30
0.0
 11
1337.4393025224949
 21
4131.0591641711462
 31
0.0
  0
LINE
  5
7DA3
  8
1
 10
1377.4393025224949
 20
4149.0591641711462
 30
0.0
 11
1377.4393025224949
 21
4131.0591641711462
 31
0.0
  0
POINT
  5
7DA4
  8
1
 10
1377.4393025224949
 20
4149.0591641711462
 30
0.0
  0
LINE
  5
7DA5
  8
1
 10
1613.4341198350669
 20
3777.0591641711449
 30
0.0
 11
1613.4341198350669
 21
4131.0591641711462
 31
0.0
  0
LINE
  5
7DA6
  8
1
 10
1588.4341198350669
 20
3802.0591641711449
 30
0.0
 11
1588.4341198350669
 21
4106.0591641711462
 31
0.0
  0
LINE
  5
7DA9
  8
1
 10
2790.5949296519261
 20
2422.8740985030149
 30
0.0
 11
2790.5949296519261
 21
1765.8663815409991
 31
0.0
  0
LINE
  5
7DAA
  8
1
 10
3090.5949296519252
 20
2422.8740985030149
 30
0.0
 11
3090.5949296519252
 21
1765.8663815409991
 31
0.0
  0
POLYLINE
  5
7DAB
  8
1
 66
     1
 10
0.0
 20
0.0
 30
0.0
 70
     1
  0
VERTEX
  5
8385
  8
1
 10
2788.5949296519252
 20
1767.8740985030149
 30
0.0
  0
VERTEX
  5
8386
  8
1
 10
2748.5949296519252
 20
1767.8740985030149
 30
0.0
  0
VERTEX
  5
8387
  8
1
 10
2748.5949296519252
 20
1769.8740985030149
 30
0.0
 42
-0.4142135623730951
  0
VERTEX
  5
8388
  8
1
 10
2751.5949296519252
 20
1772.8740985030149
 30
0.0
  0
VERTEX
  5
8389
  8
1
 10
2779.0949296519252
 20
1772.8740985030149
 30
0.0
 42
0.4142135623730951
  0
VERTEX
  5
838A
  8
1
 10
2783.5949296519252
 20
1777.374098503014
 30
0.0
  0
VERTEX
  5
838B
  8
1
 10
2783.5949296519252
 20
1804.8740985030149
 30
0.0
 42
-0.4142135623730951
  0
VERTEX
  5
838C
  8
1
 10
2786.5949296519252
 20
1807.874098503014
 30
0.0
  0
VERTEX
  5
838D
  8
1
 10
2788.5949296519252
 20
1807.874098503014
 30
0.0
  0
SEQEND
  5
838E
  8
1
  0
POLYLINE
  5
7DB6
  8
1
 66
     1
 10
0.0
 20
0.0
 30
0.0
  0
VERTEX
  5
838F
  8
1
 10
3092.5949296519261
 20
1767.8740985030149
 30
0.0
  0
VERTEX
  5
8390
  8
1
 10
3132.5949296519261
 20
1767.8740985030149
 30
0.0
  0
VERTEX
  5
8391
  8
1
 10
3132.5949296519261
 20
1769.8740985030149
 30
0.0
 42
0.4142135623730951
  0
VERTEX
  5
8392
  8
1
 10
3129.5949296519261
 20
1772.8740985030149
 30
0.0
  0
VERTEX
  5
8393
  8
1
 10
3102.0949296519261
 20
1772.8740985030149
 30
0.0
 42
-0.4142135623730951
  0
VERTEX
  5
8394
  8
1
 10
3097.5949296519261
 20
1777.374098503014
 30
0.0
  0
VERTEX
  5
8395
  8
1
 10
3097.5949296519261
 20
1789.874098503014
 30
0.0
 42
0.4142135623730951
  0
SEQEND
  5
8396
  8
1
  0
LINE
  5
7DBF
  8
1
 10
2715.5949296519238
 20
2059.4740985030139
 30
0.0
 11
2715.5949296519238
 21
1767.8740985030149
 31
0.0
  0
LINE
  5
7DC0
  8
1
 10
2313.7949296519241
 20
2059.4740985030139
 30
0.0
 11
2313.7949296519241
 21
1767.8740985030149
 31
0.0
  0
LINE
  5
7DC1
  8
2
 10
2940.5949296519261
 20
2506.328606727835
 30
0.0
 11
2940.5949296519261
 21
1484.9289308239911
 31
0.0
  0
DIMENSION
  5
7DC3
  8
3
  2
*D14
 10
2940.5949296519261
 20
1365.0755904136299
 30
0.0
 11
2608.0949296519252
 21
1415.0755904136299
 31
0.0
 70
     0
 13
2275.5949296519238
 23
1522.8740985030149
 33
0.0
 14
2940.5949296519261
 24
1484.9289308239911
 34
0.0
1001
ACAD
1000
DSTYLE
1002
{
1070
   287
1070
     3
1070
    40
1040
20.0
1070
   143
1040
0.039
1070
   172
1070
     1
1070
   271
1070
     0
1070
   279
1070
     0
1070
   288
1070
     1
1002
}
  0
LINE
  5
7DC4
  8
1
 10
2275.5949296519238
 20
1597.8740985030149
 30
0.0
 11
3135.5949296519261
 21
1597.874098503014
 31
0.0
  0
LINE
  5
7DC5
  8
1
 10
2275.5949296519238
 20
1522.8740985030149
 30
0.0
 11
3135.5949296519261
 21
1522.8740985030149
 31
0.0
  0
LINE
  5
7DC6
  8
1
 10
2275.5949296519238
 20
1692.8740985030149
 30
0.0
 11
3135.5949296519261
 21
1692.8740985030149
 31
0.0
  0
LINE
  5
7DC7
  8
1
 10
2315.5949296519238
 20
1692.8740985030149
 30
0.0
 11
3135.5949296519261
 21
1692.8740985030149
 31
0.0
  0
LINE
  5
7DC8
  8
1
 10
2275.5949296519238
 20
1767.8740985030149
 30
0.0
 11
3135.5949296519261
 21
1767.8740985030149
 31
0.0
  0
LINE
  5
7DC9
  8
1
 10
2275.5949296519238
 20
1597.8740985030149
 30
0.0
 11
2275.5949296519238
 21
1522.8740985030149
 31
0.0
  0
LINE
  5
7DCA
  8
1
 10
2275.5949296519238
 20
1767.8740985030149
 30
0.0
 11
2275.5949296519238
 21
1692.8740985030149
 31
0.0
  0
DIMENSION
  5
7DCB
  8
3
  2
*D15
 10
3135.5949296519261
 20
1365.0755904136299
 30
0.0
 11
3042.5144411746041
 21
1423.53203994364
 31
0.0
 12
0.0
 22
-59.0
 32
0.0
 70
   128
 13
2940.5949296519261
 23
1484.9289308239911
 33
0.0
 14
3135.5949296519261
 24
1522.8740985030149
 34
0.0
1001
ACAD
1000
DSTYLE
1002
{
1070
   288
1070
     1
1070
   172
1070
     1
1070
    40
1040
20.0
1070
   271
1070
     0
1070
   143
1040
0.039
1002
}
  0
LINE
  5
7DCC
  8
1
 10
2790.5949296519252
 20
1775.8663815409991
 30
0.0
 11
3090.5949296519261
 21
1775.8663815409991
 31
0.0
  0
LINE
  5
7DCD
  8
1
 10
2788.5949296519252
 20
1765.8663815409991
 30
0.0
 11
2790.5949296519252
 21
1765.8663815409991
 31
0.0
  0
LINE
  5
7DCE
  8
1
 10
3135.5949296519261
 20
1597.8740985030149
 30
0.0
 11
3135.5949296519261
 21
1522.8740985030149
 31
0.0
  0
LINE
  5
7DCF
  8
1
 10
3135.5949296519261
 20
1767.8740985030149
 30
0.0
 11
3135.5949296519261
 21
1692.8740985030149
 31
0.0
  0
LINE
  5
7DD0
  8
1
 10
3090.594929651927
 20
1765.8663815409991
 30
0.0
 11
3092.5949296519261
 21
1765.8663815409991
 31
0.0
  0
DIMENSION
  5
7DD1
  8
3
  2
*D16
 10
2940.5949296519261
 20
2644.3313427042299
 30
0.0
 11
2560.5949296519252
 21
2744.3313427042308
 31
0.0
 70
     0
  1
MAX\P830
 13
2180.5949296519238
 23
2267.8740985030149
 33
0.0
 14
2940.5949296519261
 24
2604.2452415851358
 34
0.0
1001
ACAD
1000
DSTYLE
1002
{
1070
   287
1070
     3
1070
    40
1040
20.0
1070
   143
1040
0.039
1070
   172
1070
     1
1070
   271
1070
     0
1070
   279
1070
     0
1070
   288
1070
     1
1002
}
  0
LINE
  5
7DD2
  8
1
 10
2260.5949296519238
 20
2097.8740985030149
 30
0.0
 11
2788.5949296519238
 21
2097.8740985030149
 31
0.0
  0
LINE
  5
7DD3
  8
1
 10
2260.5949296519238
 20
2137.8740985030149
 30
0.0
 11
2788.5949296519261
 21
2137.8740985030149
 31
0.0
  0
LINE
  5
7DD4
  8
2
 10
2193.5841530482999
 20
2117.8740985030149
 30
0.0
 11
3159.8121554256368
 21
2117.8740985030149
 31
0.0
  0
POLYLINE
  5
7DD5
  8
1
 66
     1
 10
0.0
 20
0.0
 30
0.0
 70
     1
  0
VERTEX
  5
83A9
  8
1
 10
2715.5949296519238
 20
2019.4740985030139
 30
0.0
  0
VERTEX
  5
83AA
  8
1
 10
2755.5949296519238
 20
2019.4740985030139
 30
0.0
  0
VERTEX
  5
83AB
  8
1
 10
2755.5949296519238
 20
2021.4740985030139
 30
0.0
 42
0.4142135623730951
  0
VERTEX
  5
83AC
  8
1
 10
2752.5949296519238
 20
2024.4740985030139
 30
0.0
  0
VERTEX
  5
83AD
  8
1
 10
2725.0949296519238
 20
2024.4740985030139
 30
0.0
 42
-0.4142135623730951
  0
VERTEX
  5
83AE
  8
1
 10
2720.5949296519238
 20
2028.9740985030139
 30
0.0
  0
VERTEX
  5
83AF
  8
1
 10
2720.5949296519238
 20
2056.4740985030139
 30
0.0
 42
0.4142135623730951
  0
VERTEX
  5
83B0
  8
1
 10
2717.5949296519238
 20
2059.4740985030139
 30
0.0
  0
VERTEX
  5
83B1
  8
1
 10
2715.5949296519238
 20
2059.4740985030139
 30
0.0
  0
SEQEND
  5
83B2
  8
1
  0
LINE
  5
7DE2
  8
1
 10
2300.5949296519238
 20
2059.4740985030139
 30
0.0
 11
2725.5949296519238
 21
2059.4740985030139
 31
0.0
  0
LINE
  5
7DE3
  8
1
 10
2300.5949296519238
 20
2062.6740985030142
 30
0.0
 11
2725.5949296519238
 21
2062.6740985030142
 31
0.0
  0
LINE
  5
7DE4
  8
1
 10
2302.5949296519238
 20
2267.8740985030149
 30
0.0
 11
2302.5949296519238
 21
2230.7594734763302
 31
0.0
  0
LINE
  5
7DE5
  8
1
 10
2180.5949296519238
 20
2267.8740985030149
 30
0.0
 11
2180.5949296519238
 21
1787.8740985030149
 31
0.0
  0
LINE
  5
7DE6
  8
1
 10
2260.5949296519238
 20
2181.3740985030149
 30
0.0
 11
2260.5949296519238
 21
1861.674098503014
 31
0.0
  0
LINE
  5
7DE7
  8
1
 10
2210.5949296519238
 20
2181.3740985030149
 30
0.0
 11
2210.5949296519238
 21
1861.674098503014
 31
0.0
  0
LINE
  5
7DE9
  8
1
 10
2180.5949296519238
 20
1787.8740985030149
 30
0.0
 11
2302.5949296519238
 21
1787.8740985030149
 31
0.0
  0
LINE
  5
7DEA
  8
1
 10
2210.5949296519238
 20
1861.674098503014
 30
0.0
 11
2260.5949296519238
 21
1861.674098503014
 31
0.0
  0
LINE
  5
7DEB
  8
2
 10
2199.6308170108182
 20
1937.874098503014
 30
0.0
 11
2322.5616295969348
 21
1937.874098503014
 31
0.0
  0
LINE
  5
7DEC
  8
1
 10
2210.5949296519238
 20
2004.3740985030149
 30
0.0
 11
2260.5949296519238
 21
2004.3740985030149
 31
0.0
  0
LINE
  5
7DED
  8
1
 10
2260.5949296519238
 20
1923.874098503014
 30
0.0
 11
2313.7949296519241
 21
1923.874098503014
 31
0.0
  0
LINE
  5
7DEE
  8
1
 10
2260.5949296519238
 20
1951.874098503014
 30
0.0
 11
2313.7949296519241
 21
1951.874098503014
 31
0.0
  0
LINE
  5
7DEF
  8
1
 10
2180.5949296519238
 20
2267.8740985030149
 30
0.0
 11
2302.5949296519238
 21
2267.8740985030149
 31
0.0
  0
LINE
  5
7DF0
  8
1
 10
2210.5949296519238
 20
2181.3740985030149
 30
0.0
 11
2260.5949296519238
 21
2181.3740985030149
 31
0.0
  0
LINE
  5
7DFD
  8
1
 10
2300.5949296519238
 20
2062.6740985030142
 30
0.0
 11
2300.5949296519238
 21
2059.4740985030139
 31
0.0
  0
LINE
  5
7E1E
  8
1
 10
2725.5949296519238
 20
2062.6740985030142
 30
0.0
 11
2725.5949296519238
 21
2059.4740985030139
 31
0.0
  0
DIMENSION
  5
7E2A
  8
3
  2
*D17
 10
3289.6361337816288
 20
1917.874098503014
 30
0.0
 11
3239.6361337816279
 21
2117.8740985030158
 31
0.0
 70
     0
 13
3118.5949296519261
 23
2317.874098503014
 33
0.0
 14
3118.5949296519261
 24
1917.874098503014
 34
0.0
 50
90.0
1001
ACAD
1000
DSTYLE
1002
{
1070
   287
1070
     3
1070
     3
1000
φ<>
1070
    40
1040
20.0
1070
   143
1040
0.039
1070
   172
1070
     1
1070
   271
1070
     0
1070
   279
1070
     0
1070
   288
1070
     1
1002
}
  0
LINE
  5
7E2B
  8
1
 10
3118.5949296519261
 20
2317.874098503014
 30
0.0
 11
3118.5949296519261
 21
1917.874098503014
 31
0.0
  0
LINE
  5
7E2C
  8
1
 10
2738.5949296519238
 20
2014.9740985030151
 30
0.0
 11
2788.5949296519238
 21
2014.9740985030151
 31
0.0
  0
LINE
  5
7E2D
  8
1
 10
2738.5949296519238
 20
2019.4740985030139
 30
0.0
 11
2788.5949296519238
 21
2019.4740985030139
 31
0.0
  0
LINE
  5
7E2E
  8
1
 10
2738.5949296519238
 20
2019.4740985030139
 30
0.0
 11
2738.5949296519238
 21
2014.9740985030151
 31
0.0
  0
POLYLINE
  5
7E30
  8
1
 66
     1
 10
0.0
 20
0.0
 30
0.0
  0
VERTEX
  5
83BC
  8
1
 10
3092.5949296519261
 20
1794.874098503014
 30
0.0
  0
VERTEX
  5
83BD
  8
1
 10
3092.5949296519261
 20
1789.6663815409991
 30
0.0
  0
SEQEND
  5
83BE
  8
1
  0
POLYLINE
  5
7E34
  8
1
 66
     1
 10
0.0
 20
0.0
 30
0.0
  0
VERTEX
  5
83BF
  8
1
 10
3097.5949296519261
 20
1789.874098503014
 30
0.0
  0
VERTEX
  5
83C0
  8
1
 10
3097.5949296519261
 20
1804.8740985030149
 30
0.0
 42
0.4142135623730951
  0
VERTEX
  5
83C1
  8
1
 10
3094.5949296519261
 20
1807.874098503014
 30
0.0
  0
VERTEX
  5
83C2
  8
1
 10
3092.5949296519261
 20
1807.874098503014
 30
0.0
  0
VERTEX
  5
83C3
  8
1
 10
3092.5949296519261
 20
1789.874098503014
 30
0.0
  0
SEQEND
  5
83C4
  8
1
  0
DIMENSION
  5
7E3B
  8
3
  2
*D18
 10
3093.5949296519261
 20
2644.3313427042299
 30
0.0
 11
3017.0949296519261
 21
2724.3313427042308
 31
0.0
 70
     0
 13
2940.5949296519261
 23
2604.2452415851358
 33
0.0
 14
3093.5949296519261
 24
2342.8740985030149
 34
0.0
1001
ACAD
1000
DSTYLE
1002
{
1070
   288
1070
     1
1070
   172
1070
     1
1070
    40
1040
20.0
1070
   271
1070
     0
1070
   143
1040
0.039
1002
}
  0
DIMENSION
  5
7E3C
  8
3
  2
*D19
 10
3090.5949296519252
 20
2494.5484920434992
 30
0.0
 11
2940.5949296519261
 21
2544.5484920434992
 31
0.0
 70
     0
 13
2790.5949296519261
 23
2422.8740985030149
 33
0.0
 14
3090.5949296519252
 24
2422.8740985030149
 34
0.0
1001
ACAD
1000
DSTYLE
1002
{
1070
   287
1070
     3
1070
    40
1040
20.0
1070
   143
1040
0.039
1070
   172
1070
     1
1070
   271
1070
     0
1070
   279
1070
     0
1070
   288
1070
     1
1002
}
  0
LINE
  5
7E3D
  8
1
 10
2788.5949296519261
 20
2397.874098503014
 30
0.0
 11
3092.5949296519261
 21
2397.874098503014
 31
0.0
  0
LINE
  5
7E3E
  8
1
 10
2771.8574377332779
 20
2419.8740985030149
 30
0.0
 11
3107.6943475571361
 21
2419.8740985030149
 31
0.0
  0
LINE
  5
7E3F
  8
1
 10
2771.8574377332779
 20
2422.8740985030149
 30
0.0
 11
3107.6943475571361
 21
2422.8740985030149
 31
0.0
  0
LINE
  5
8156
  8
4
 10
3700.0
 20
1000.0
 30
0.0
 11
3700.0
 21
600.0
 31
0.0
  0
LINE
  5
8157
  8
4
 10
2300.0
 20
1000.0
 30
0.0
 11
2300.0
 21
600.0
 31
0.0
  0
LINE
  5
8158
  8
4
 10
1300.0
 20
1000.0
 30
0.0
 11
1300.0
 21
600.0
 31
0.0
  0
LINE
  5
815B
  8
4
 10
1300.0
 20
600.0
 30
0.0
 11
3700.0
 21
600.0
 31
0.0
  0
LINE
  5
815C
  8
4
 10
1300.0
 20
800.0
 30
0.0
 11
3700.0
 21
800.0
 31
0.0
  0
TEXT
  5
815D
  8
4
 10
1377.0041616938031
 20
863.08605173322564
 30
0.0
 40
100.0
  1
機器名称
  0
TEXT
  5
815E
  8
4
 10
1372.516212049595
 20
643.29031346402189
 30
0.0
 40
100.0
  1
機器型番
  0
TEXT
  5
815F
  8
4
 10
2353.918537293383
 20
844.3746047138942
 30
0.0
 40
90.0
  1
ミツヤ多翼送風機
  0
TEXT
  5
8160
  8
4
 10
2373.3089911709608
 20
634.31916855988675
 30
0.0
 40
100.0
  1
MF#2 1/2-1
  0
TEXT
  5
8162
  8
4
 10
1604.128616167181
 20
4766.8576826650306
 30
0.0
 40
107.9999999999999
  1
床置防振ベット
  0
TEXT
  5
8163
  8
4
 10
632.33518665889278
 20
5067.7619523985959
 30
0.0
 40
144.0
  1
遠心式片吸込片持多翼ファン
  0
LINE
  5
8164
  8
4
 10
500.0
 20
4938.8175085296089
 30
0.0
 11
3700.0
 21
4938.8175085296089
 31
0.0
  0
LINE
  5
8165
  8
4
 10
500.0
 20
5338.8175085296098
 30
0.0
 11
3700.0
 21
5338.8175085296098
 31
0.0
  0
LINE
  5
8166
  8
4
 10
1300.0
 20
1000.0
 30
0.0
 11
3700.0
 21
1000.0
 31
0.0
  0
LINE
  5
8167
  8
4
 10
500.0
 20
5338.8175085296098
 30
0.0
 11
500.0
 21
4938.8175085296089
 31
0.0
  0
TEXT
  5
8168
  8
4
 10
732.41095168177696
 20
4764.638955092687
 30
0.0
 40
107.9999999999999
  1
左回転上向
  0
TEXT
  5
8169
  8
4
 10
2937.9391184985789
 20
5412.1221629906177
 30
0.0
 40
112.0
  1
No.
  0
TEXT
  5
816A
  8
4
 10
2622.5921252000262
 20
4766.8576826650306
 30
0.0
 40
107.9999999999999
  1
縮尺：1/20
  0
LINE
  5
816B
  8
4
 10
3700.0
 20
5338.8175085296098
 30
0.0
 11
3700.0
 21
4938.8175085296089
 31
0.0
  0
LINE
  5
816C
  8
4
 10
4200.0
 20
5900.0
 30
0.0
 11
4200.0
 21
5900.0
 31
0.0
  0
LINE
  5
816D
  8
4
 10
2881.2348447197292
 20
5362.5271662508021
 30
0.0
 11
2881.2348447197292
 21
5573.3045230995049
 31
0.0
  0
LINE
  5
816E
  8
4
 10
2881.2348447197292
 20
5573.3045230995049
 30
0.0
 11
3700.0
 21
5573.3045230995049
 31
0.0
  0
LINE
  5
816F
  8
4
 10
3700.0
 20
5573.3045230995049
 30
0.0
 11
3700.0
 21
5362.5271662508021
 31
0.0
  0
LINE
  5
8170
  8
4
 10
3700.0
 20
5362.5271662508021
 30
0.0
 11
2881.2348447197292
 21
5362.5271662508021
 31
0.0
  0
LINE
  5
8171
  8
4
 10
0.0
 20
0.0
 30
0.0
 11
0.0
 21
5900.0
 31
0.0
  0
LINE
  5
8172
  8
4
 10
0.0
 20
5900.0
 30
0.0
 11
4200.0
 21
5900.0
 31
0.0
  0
LINE
  5
8173
  8
4
 10
4200.0
 20
5900.0
 30
0.0
 11
4200.0
 21
0.0
 31
0.0
  0
LINE
  5
8174
  8
4
 10
4200.0
 20
0.0
 30
0.0
 11
0.0
 21
0.0
 31
0.0
  0
DIMENSION
  5
8229
  8
3
  2
*D22
 10
1877.4393025224949
 20
2699.455388751303
 30
0.0
 11
1431.2594298966501
 21
2699.455388751303
 31
0.0
 70
   128
 13
880.43158556048024
 23
2087.874098503014
 33
0.0
 14
1877.4393025224949
 24
1767.8740985030149
 34
0.0
1001
ACAD
1000
DSTYLE
1002
{
1070
   287
1070
     3
1070
    40
1040
20.0
1070
   143
1040
0.039
1070
   172
1070
     1
1070
   271
1070
     0
1070
   279
1070
     0
1070
   288
1070
     1
1002
}
  0
LINE
  5
8249
  8
1
 10
1593.4393025224949
 20
2419.8740985030149
 30
0.0
 11
1608.880024620147
 21
2419.8740985030149
 31
0.0
  0
LINE
  5
824A
  8
1
 10
2302.5949296519238
 20
1815.5710588121451
 30
0.0
 11
2302.5949296519238
 21
1787.8740985030149
 31
0.0
  0
INSERT
  5
8258
  8
1
  2
L-25-3
 10
2871.7975931375308
 20
2508.1546283590578
 30
0.0
 50
180.0
  0
INSERT
  5
825A
  8
1
  2
L-25-3
 10
3005.3143997958809
 20
2504.0767619886192
 30
0.0
 50
270.0
  0
INSERT
  5
825B
  8
1
  2
L-25-3
 10
3012.3922661663219
 20
2232.5935686469711
 30
0.0
  0
INSERT
  5
825D
  8
1
  2
L-25-3
 10
3012.3922661663219
 20
2003.1546283590581
 30
0.0
 41
-1.0
 50
180.0
  0
DIMENSION
  5
82AA
  8
3
  2
*D24
 10
720.54186749726023
 20
1597.8740985030149
 30
0.0
 11
624.82758178297445
 21
1645.374098503014
 31
0.0
 12
139.7602967406601
 22
0.0
 32
0.0
 70
     0
  1
(<>)
 13
947.43930252249595
 23
1692.8740985030149
 33
0.0
 14
947.43930252249595
 24
1597.8740985030149
 34
0.0
 50
90.0
1001
ACAD
1000
DSTYLE
1002
{
1070
   288
1070
     1
1070
   172
1070
     1
1070
    75
1070
     1
1070
    40
1040
20.0
1070
   271
1070
     0
1070
     7
1000
_DOT
1070
   143
1040
0.039
1002
}
  0
ENDSEC
  0
EOF
