  0
SECTION
  2
HEADER
  9
$ACADVER
  1
AC1009
  9
$INSBASE
 10
0.0
 20
0.0
 30
0.0
  9
$EXTMIN
 10
0.0
 20
0.0
 30
0.0
  9
$EXTMAX
 10
4200.0
 20
5900.0
 30
0.0
  9
$LIMMIN
 10
0.0
 20
0.0
  9
$LIMMAX
 10
297.0
 20
210.0
  9
$ORTHOMODE
 70
     0
  9
$REGENMODE
 70
     1
  9
$FILLMODE
 70
     0
  9
$QTEXTMODE
 70
     0
  9
$MIRRTEXT
 70
     1
  9
$DRAGMODE
 70
     2
  9
$LTSCALE
 40
100.0
  9
$OSMODE
 70
    37
  9
$ATTMODE
 70
     1
  9
$TEXTSIZE
 40
180.0
  9
$TRACEWID
 40
0.05
  9
$TEXTSTYLE
  7
STANDARD
  9
$CLAYER
  8
3
  9
$CELTYPE
  6
BYLAYER
  9
$CECOLOR
 62
   256
  9
$DIMSCALE
 40
20.0
  9
$DIMASZ
 40
2.0
  9
$DIMEXO
 40
0.5
  9
$DIMDLI
 40
10.0
  9
$DIMRND
 40
0.0
  9
$DIMDLE
 40
0.0
  9
$DIMEXE
 40
1.0
  9
$DIMTP
 40
1.0
  9
$DIMTM
 40
1.0
  9
$DIMTXT
 40
3.0
  9
$DIMCEN
 40
0.0
  9
$DIMTSZ
 40
0.0
  9
$DIMTOL
 70
     0
  9
$DIMLIM
 70
     0
  9
$DIMTIH
 70
     0
  9
$DIMTOH
 70
     0
  9
$DIMSE1
 70
     0
  9
$DIMSE2
 70
     0
  9
$DIMTAD
 70
     1
  9
$DIMZIN
 70
     8
  9
$DIMBLK
  1

  9
$DIMASO
 70
     1
  9
$DIMSHO
 70
     1
  9
$DIMPOST
  1

  9
$DIMAPOST
  1

  9
$DIMALT
 70
     0
  9
$DIMALTD
 70
     2
  9
$DIMALTF
 40
0.039
  9
$DIMLFAC
 40
1.0
  9
$DIMTOFL
 70
     1
  9
$DIMTVP
 40
0.0
  9
$DIMTIX
 70
     0
  9
$DIMSOXD
 70
     0
  9
$DIMSAH
 70
     1
  9
$DIMBLK1
  1
OPEN
  9
$DIMBLK2
  1
OPEN
  9
$DIMSTYLE
  2
IGA
  9
$DIMCLRD
 70
     0
  9
$DIMCLRE
 70
     0
  9
$DIMCLRT
 70
     0
  9
$DIMTFAC
 40
10.0
  9
$DIMGAP
 40
1.0
  9
$LUNITS
 70
     2
  9
$LUPREC
 70
     3
  9
$SKETCHINC
 40
0.1
  9
$FILLETRAD
 40
50.0
  9
$AUNITS
 70
     0
  9
$AUPREC
 70
     0
  9
$MENU
  1
acad
  9
$ELEVATION
 40
0.0
  9
$PELEVATION
 40
0.0
  9
$THICKNESS
 40
0.0
  9
$LIMCHECK
 70
     0
  9
$BLIPMODE
 70
     0
  9
$CHAMFERA
 40
0.5
  9
$CHAMFERB
 40
0.5
  9
$SKPOLY
 70
     0
  9
$TDCREATE
 40
2451019.6205143509
  9
$TDUPDATE
 40
2454953.7536796411
  9
$TDINDWG
 40
0.015910787
  9
$TDUSRTIMER
 40
0.015910787
  9
$USRTIMER
 70
     1
  9
$ANGBASE
 50
0.0
  9
$ANGDIR
 70
     0
  9
$PDMODE
 70
     0
  9
$PDSIZE
 40
0.0
  9
$PLINEWID
 40
0.0
  9
$COORDS
 70
     1
  9
$SPLFRAME
 70
     0
  9
$SPLINETYPE
 70
     6
  9
$SPLINESEGS
 70
     8
  9
$ATTDIA
 70
     0
  9
$ATTREQ
 70
     1
  9
$HANDLING
 70
 10241
  9
$HANDSEED
  5
8446
  9
$SURFTAB1
 70
     6
  9
$SURFTAB2
 70
     6
  9
$SURFTYPE
 70
     6
  9
$SURFU
 70
     6
  9
$SURFV
 70
     6
  9
$UCSNAME
  2

  9
$UCSORG
 10
0.0
 20
0.0
 30
0.0
  9
$UCSXDIR
 10
1.0
 20
0.0
 30
0.0
  9
$UCSYDIR
 10
0.0
 20
1.0
 30
0.0
  9
$PUCSNAME
  2

  9
$PUCSORG
 10
0.0
 20
0.0
 30
0.0
  9
$PUCSXDIR
 10
1.0
 20
0.0
 30
0.0
  9
$PUCSYDIR
 10
0.0
 20
1.0
 30
0.0
  9
$USERI1
 70
     0
  9
$USERI2
 70
     0
  9
$USERI3
 70
     0
  9
$USERI4
 70
     0
  9
$USERI5
 70
     0
  9
$USERR1
 40
0.0
  9
$USERR2
 40
0.0
  9
$USERR3
 40
0.0
  9
$USERR4
 40
0.0
  9
$USERR5
 40
0.0
  9
$WORLDVIEW
 70
     1
  9
$SHADEDGE
 70
     3
  9
$SHADEDIF
 70
    70
  9
$TILEMODE
 70
     1
  9
$MAXACTVP
 70
    16
  9
$PLIMCHECK
 70
     0
  9
$PEXTMIN
 10
1.0000000000000000E+020
 20
1.0000000000000000E+020
 30
1.0000000000000000E+020
  9
$PEXTMAX
 10
-1.0000000000000000E+020
 20
-1.0000000000000000E+020
 30
-1.0000000000000000E+020
  9
$PLIMMIN
 10
0.0
 20
0.0
  9
$PLIMMAX
 10
12.0
 20
9.0
  9
$UNITMODE
 70
     0
  9
$VISRETAIN
 70
     0
  9
$PLINEGEN
 70
     0
  9
$PSLTSCALE
 70
     1
  0
ENDSEC
  0
SECTION
  2
TABLES
  0
TABLE
  2
VPORT
 70
     2
  0
VPORT
  2
*ACTIVE
 70
     0
 10
0.0
 20
0.0
 11
1.0
 21
1.0
 12
7073.2199177027342
 22
2950.0000137370062
 13
0.0
 23
0.0
 14
10.0
 24
10.0
 15
10.0
 25
10.0
 16
0.0
 26
0.0
 36
1.0
 17
0.0
 27
0.0
 37
0.0
 40
5945.22976603387
 41
3.1666666666666661
 42
50.0
 43
0.0
 44
0.0
 50
0.0
 51
0.0
 71
     0
 72
   100
 73
     1
 74
     0
 75
     0
 76
     0
 77
     0
 78
     0
  0
ENDTAB
  0
TABLE
  2
LTYPE
 70
     2
  0
LTYPE
  2
CONTINUOUS
 70
     0
  3
Solid line
 72
    65
 73
     0
 40
0.0
  0
LTYPE
  2
CENTER
 70
     0
  3
____ _ ____ _ ____ _ ____ _ ____ _ ____ _ ____ 
 72
    65
 73
     4
 40
2.0
 49
1.25
 49
-0.25
 49
0.25
 49
-0.25
  0
ENDTAB
  0
TABLE
  2
LAYER
 70
     6
  0
LAYER
  2
0
 70
     0
 62
     7
  6
CONTINUOUS
  0
LAYER
  2
3
 70
     0
 62
     2
  6
CONTINUOUS
  0
LAYER
  2
2
 70
     0
 62
     3
  6
CENTER
  0
LAYER
  2
1
 70
     0
 62
     4
  6
CONTINUOUS
  0
LAYER
  2
4
 70
     0
 62
     7
  6
CONTINUOUS
  0
LAYER
  2
DEFPOINTS
 70
     0
 62
     7
  6
CONTINUOUS
  0
ENDTAB
  0
TABLE
  2
STYLE
 70
     1
  0
STYLE
  2
STANDARD
 70
     0
 40
0.0
 41
1.0
 50
0.0
 71
     0
 42
180.0
  3
simplex.shx
  4
extfont.shx
  0
ENDTAB
  0
TABLE
  2
VIEW
 70
     0
  0
ENDTAB
  0
TABLE
  2
UCS
 70
     0
  0
ENDTAB
  0
TABLE
  2
APPID
 70
     1
  0
APPID
  2
ACAD
 70
     0
  0
ENDTAB
  0
TABLE
  2
DIMSTYLE
 70
     1
  0
DIMSTYLE
  2
IGA
 70
     0
  3

  4

  5

  6
OPEN
  7
OPEN
 40
2.0
 41
2.0
 42
0.5
 43
10.0
 44
1.0
 45
0.0
 46
0.0
 47
1.0
 48
1.0
140
3.0
141
0.0
142
0.0
143
0.03937
144
1.0
145
0.0
146
10.0
147
1.0
 71
     0
 72
     0
 73
     0
 74
     0
 75
     0
 76
     0
 77
     1
 78
     8
170
     0
171
     2
172
     0
173
     1
174
     0
175
     0
176
     0
177
     0
178
     0
  0
ENDTAB
  0
ENDSEC
  0
SECTION
  2
BLOCKS
  0
BLOCK
  8
0
  2
$MODEL_SPACE
 70
     0
 10
0.0
 20
0.0
 30
0.0
  3
$MODEL_SPACE
  1

  0
ENDBLK
  5
1B
  8
0
  0
BLOCK
 67
     1
  8
0
  2
$PAPER_SPACE
 70
     0
 10
0.0
 20
0.0
 30
0.0
  3
$PAPER_SPACE
  1

  0
ENDBLK
  5
18
 67
     1
  8
0
  0
BLOCK
  8
0
  2
_OPEN
 70
     0
 10
0.0
 20
0.0
 30
0.0
  3
_OPEN
  1

  0
LINE
  5
7A06
  8
0
  6
BYBLOCK
 62
     0
 10
-1.0
 20
0.1666666666666666
 30
0.0
 11
0.0
 21
0.0
 31
0.0
  0
LINE
  5
7A07
  8
0
  6
BYBLOCK
 62
     0
 10
0.0
 20
0.0
 30
0.0
 11
-1.0
 21
-0.1666666666666666
 31
0.0
  0
LINE
  5
7A08
  8
0
  6
BYBLOCK
 62
     0
 10
0.0
 20
0.0
 30
0.0
 11
-1.0
 21
0.0
 31
0.0
  0
ENDBLK
  5
7A0A
  8
0
  0
BLOCK
  8
0
  2
*D1
 70
     1
 10
0.0
 20
0.0
 30
0.0
  3
*D1
  1

  0
LINE
  5
833F
  8
3
 62
     0
 10
912.22643816309892
 20
2565.780277887789
 30
0.0
 11
912.22643816309892
 21
2772.4902950762662
 31
0.0
  0
LINE
  5
8340
  8
3
 62
     0
 10
1932.2264381630989
 20
1814.785460575217
 30
0.0
 11
1932.2264381630989
 21
2772.4902950762662
 31
0.0
  0
LINE
  5
8341
  8
3
 62
     0
 10
952.22643816309892
 20
2752.4902950762662
 30
0.0
 11
1892.226438163098
 21
2752.4902950762662
 31
0.0
  0
INSERT
  5
8342
  8
3
 62
     0
  2
_OPEN
 10
912.22643816309892
 20
2752.4902950762662
 30
0.0
 41
40.0
 42
40.0
 43
40.0
 50
180.0
  0
INSERT
  5
8343
  8
3
 62
     0
  2
_OPEN
 10
1932.2264381630989
 20
2752.4902950762662
 30
0.0
 41
40.0
 42
40.0
 43
40.0
  0
TEXT
  8
3
  40
60
  5
8433
  62
0
  72
0
  71
0
 10
1302.23
 20
2696.29
 30
0.000000
  1
1020
  0
POINT
  5
8345
  8
DEFPOINTS
 62
     0
 10
912.22643816309892
 20
2555.780277887789
 30
0.0
  0
POINT
  5
8346
  8
DEFPOINTS
 62
     0
 10
1932.2264381630989
 20
1804.785460575217
 30
0.0
  0
POINT
  5
8347
  8
DEFPOINTS
 62
     0
 10
1932.2264381630989
 20
2752.4902950762662
 30
0.0
  0
ENDBLK
  5
82A4
  8
0
  0
BLOCK
  8
0
  2
*D2
 70
     1
 10
0.0
 20
0.0
 30
0.0
  3
*D2
  1

  0
LINE
  5
8348
  8
3
 62
     0
 10
902.22643816309892
 20
2528.7854605752168
 30
0.0
 11
768.24789605191802
 21
2528.7854605752168
 31
0.0
  0
LINE
  5
8349
  8
3
 62
     0
 10
902.22643816309892
 20
2116.7854605752168
 30
0.0
 11
768.24789605191791
 21
2116.7854605752168
 31
0.0
  0
LINE
  5
834A
  8
3
 62
     0
 10
788.24789605191802
 20
2488.7854605752168
 30
0.0
 11
788.24789605191791
 21
2156.7854605752168
 31
0.0
  0
INSERT
  5
834B
  8
3
 62
     0
  2
_OPEN
 10
788.24789605191802
 20
2528.7854605752168
 30
0.0
 41
40.0
 42
40.0
 43
40.0
 50
90.0
  0
INSERT
  5
834C
  8
3
 62
     0
  2
_OPEN
 10
788.24789605191791
 20
2116.7854605752168
 30
0.0
 41
40.0
 42
40.0
 43
40.0
 50
270.0
  0
TEXT
  8
3
  40
60
  5
8434
  62
0
  72
0
  71
0
 10
618.248
 20
2216.59
 30
0.000000
  1
412
  0
POINT
  5
834E
  8
DEFPOINTS
 62
     0
 10
912.22643816309892
 20
2528.7854605752168
 30
0.0
  0
POINT
  5
834F
  8
DEFPOINTS
 62
     0
 10
912.22643816309892
 20
2116.7854605752168
 30
0.0
  0
POINT
  5
8350
  8
DEFPOINTS
 62
     0
 10
788.24789605191791
 20
2116.7854605752168
 30
0.0
  0
ENDBLK
  5
8083
  8
0
  0
BLOCK
  8
0
  2
*D3
 70
     1
 10
0.0
 20
0.0
 30
0.0
  3
*D3
  1

  0
LINE
  5
8351
  8
3
 62
     0
 10
902.22643816309892
 20
2528.7854605752168
 30
0.0
 11
675.2678712701487
 21
2528.7854605752168
 31
0.0
  0
LINE
  5
8352
  8
3
 62
     0
 10
889.84866852382174
 20
2104.7854605752168
 30
0.0
 11
675.26787127014848
 21
2104.7854605752168
 31
0.0
  0
LINE
  5
8353
  8
3
 62
     0
 10
695.26787127014859
 20
2488.7854605752168
 30
0.0
 11
695.26787127014848
 21
2144.7854605752168
 31
0.0
  0
INSERT
  5
8354
  8
3
 62
     0
  2
_OPEN
 10
695.26787127014859
 20
2528.7854605752168
 30
0.0
 41
40.0
 42
40.0
 43
40.0
 50
90.0
  0
INSERT
  5
8355
  8
3
 62
     0
  2
_OPEN
 10
695.26787127014848
 20
2104.7854605752168
 30
0.0
 41
40.0
 42
40.0
 43
40.0
 50
270.0
  0
TEXT
  8
3
  40
60
  5
8435
  62
0
  72
0
  71
0
 10
525.268
 20
2210.59
 30
0.000000
  1
424
  0
POINT
  5
8357
  8
DEFPOINTS
 62
     0
 10
912.22643816309892
 20
2528.7854605752168
 30
0.0
  0
POINT
  5
8358
  8
DEFPOINTS
 62
     0
 10
899.84866852382174
 20
2104.7854605752168
 30
0.0
  0
POINT
  5
8359
  8
DEFPOINTS
 62
     0
 10
695.26787127014848
 20
2104.7854605752168
 30
0.0
  0
ENDBLK
  5
808E
  8
0
  0
BLOCK
  8
0
  2
*D4
 70
     1
 10
0.0
 20
0.0
 30
0.0
  3
*D4
  1

  0
LINE
  5
835A
  8
3
 62
     0
 10
889.84866852382174
 20
2104.7854605752168
 30
0.0
 11
675.2678712701487
 21
2104.7854605752168
 31
0.0
  0
LINE
  5
835B
  8
3
 62
     0
 10
992.22643816309903
 20
1729.785460575217
 30
0.0
 11
675.26787127014848
 21
1729.785460575217
 31
0.0
  0
LINE
  5
835C
  8
3
 62
     0
 10
695.26787127014859
 20
2064.7854605752168
 30
0.0
 11
695.26787127014848
 21
1769.785460575217
 31
0.0
  0
INSERT
  5
835D
  8
3
 62
     0
  2
_OPEN
 10
695.26787127014859
 20
2104.7854605752168
 30
0.0
 41
40.0
 42
40.0
 43
40.0
 50
90.0
  0
INSERT
  5
835E
  8
3
 62
     0
  2
_OPEN
 10
695.26787127014848
 20
1729.785460575217
 30
0.0
 41
40.0
 42
40.0
 43
40.0
 50
270.0
  0
TEXT
  8
3
  40
60
  5
8436
  62
0
  72
0
  71
0
 10
525.268
 20
1811.09
 30
0.000000
  1
375
  0
POINT
  5
8360
  8
DEFPOINTS
 62
     0
 10
899.84866852382174
 20
2104.7854605752168
 30
0.0
  0
POINT
  5
8361
  8
DEFPOINTS
 62
     0
 10
1002.226438163098
 20
1729.785460575217
 30
0.0
  0
POINT
  5
8362
  8
DEFPOINTS
 62
     0
 10
695.26787127014848
 20
1729.785460575217
 30
0.0
  0
ENDBLK
  5
80A6
  8
0
  0
BLOCK
  8
0
  2
*D5
 70
     1
 10
0.0
 20
0.0
 30
0.0
  3
*D5
  1

  0
LINE
  5
8363
  8
3
 62
     0
 10
992.22643816309903
 20
1634.785460575217
 30
0.0
 11
675.26787127014848
 21
1634.785460575217
 31
0.0
  0
LINE
  5
8364
  8
3
 62
     0
 10
992.22643816309903
 20
1559.785460575217
 30
0.0
 11
675.26787127014848
 21
1559.785460575217
 31
0.0
  0
LINE
  5
8365
  8
3
 62
     0
 10
695.26787127014848
 20
1674.785460575217
 30
0.0
 11
695.26787127014848
 21
1714.785460575217
 31
0.0
  0
LINE
  5
8366
  8
3
 62
     0
 10
695.26787127014848
 20
1519.785460575217
 30
0.0
 11
695.26787127014848
 21
1342.6426034323599
 31
0.0
  0
LINE
  5
8367
  8
3
 62
     0
 10
695.26787127014848
 20
1634.785460575217
 30
0.0
 11
695.26787127014848
 21
1559.785460575217
 31
0.0
  0
INSERT
  5
8368
  8
3
 62
     0
  2
_DOT
 10
695.26787127014848
 20
1634.785460575217
 30
0.0
 41
40.0
 42
40.0
 43
40.0
 50
270.0
  0
INSERT
  5
8369
  8
3
 62
     0
  2
_OPEN
 10
695.26787127014848
 20
1559.785460575217
 30
0.0
 41
40.0
 42
40.0
 43
40.0
 50
90.0
  0
TEXT
  8
3
  40
60
  5
8437
  62
0
  72
0
  71
0
 10
525.268
 20
1305.01
 30
0.000000
  1
75
  0
POINT
  5
836B
  8
DEFPOINTS
 62
     0
 10
1002.226438163098
 20
1634.785460575217
 30
0.0
  0
POINT
  5
836C
  8
DEFPOINTS
 62
     0
 10
1002.226438163098
 20
1559.785460575217
 30
0.0
  0
POINT
  5
836D
  8
DEFPOINTS
 62
     0
 10
695.26787127014848
 20
1559.785460575217
 30
0.0
  0
ENDBLK
  5
82DF
  8
0
  0
BLOCK
  8
0
  2
*D6
 70
     1
 10
0.0
 20
0.0
 30
0.0
  3
*D6
  1

  0
LINE
  5
836E
  8
3
 62
     0
 10
1932.2264381630989
 20
1549.785460575217
 30
0.0
 11
1932.2264381630989
 21
1408.110127504965
 31
0.0
  0
LINE
  5
836F
  8
3
 62
     0
 10
1217.2264381630989
 20
1515.3456911390999
 30
0.0
 11
1217.2264381630989
 21
1408.110127504965
 31
0.0
  0
LINE
  5
8370
  8
3
 62
     0
 10
1892.226438163098
 20
1428.110127504965
 30
0.0
 11
1257.226438163098
 21
1428.110127504965
 31
0.0
  0
INSERT
  5
8371
  8
3
 62
     0
  2
_OPEN
 10
1932.2264381630989
 20
1428.110127504965
 30
0.0
 41
40.0
 42
40.0
 43
40.0
  0
INSERT
  5
8372
  8
3
 62
     0
  2
_OPEN
 10
1217.2264381630989
 20
1428.110127504965
 30
0.0
 41
40.0
 42
40.0
 43
40.0
 50
180.0
  0
TEXT
  8
3
  40
60
  5
8438
  62
0
  72
0
  71
0
 10
1454.73
 20
1371.91
 30
0.000000
  1
715
  0
POINT
  5
8374
  8
DEFPOINTS
 62
     0
 10
1932.2264381630989
 20
1559.785460575217
 30
0.0
  0
POINT
  5
8375
  8
DEFPOINTS
 62
     0
 10
1217.2264381630989
 20
1525.3456911390999
 30
0.0
  0
POINT
  5
8376
  8
DEFPOINTS
 62
     0
 10
1217.2264381630989
 20
1428.110127504965
 30
0.0
  0
ENDBLK
  5
80BE
  8
0
  0
BLOCK
  8
0
  2
*D7
 70
     1
 10
0.0
 20
0.0
 30
0.0
  3
*D7
  1

  0
LINE
  5
81F6
  8
0
  6
BYBLOCK
 62
     0
 10
1100.7595202760519
 20
1574.3456911390999
 30
0.0
 11
1100.7595202760519
 21
1467.110127504965
 31
0.0
  0
LINE
  5
81F7
  8
0
  6
BYBLOCK
 62
     0
 10
885.75952027605263
 20
1608.785460575217
 30
0.0
 11
885.75952027605263
 21
1467.110127504965
 31
0.0
  0
LINE
  5
81F8
  8
0
  6
BYBLOCK
 62
     0
 10
1060.7595202760519
 20
1487.110127504965
 30
0.0
 11
925.75952027605263
 21
1487.110127504965
 31
0.0
  0
TEXT
  5
81F9
  8
3
 62
     0
 10
921.83094884748118
 20
1509.047354612537
 30
0.0
 40
60.0
  1
215
  0
INSERT
  5
81FA
  8
0
  6
BYBLOCK
 62
     0
  2
_OPEN
 10
1100.7595202760519
 20
1487.110127504965
 30
0.0
 41
40.0
 42
40.0
 43
40.0
  0
INSERT
  5
81FB
  8
0
  6
BYBLOCK
 62
     0
  2
_OPEN
 10
885.75952027605263
 20
1487.110127504965
 30
0.0
 41
40.0
 42
40.0
 43
40.0
 50
180.0
  0
POINT
  5
81FC
  8
DEFPOINTS
  6
BYBLOCK
 62
     0
 10
1100.7595202760519
 20
1584.3456911390999
 30
0.0
  0
POINT
  5
81FD
  8
DEFPOINTS
  6
BYBLOCK
 62
     0
 10
885.75952027605263
 20
1618.785460575217
 30
0.0
  0
POINT
  5
81FE
  8
DEFPOINTS
  6
BYBLOCK
 62
     0
 10
885.75952027605263
 20
1487.110127504965
 30
0.0
  0
ENDBLK
  5
81FF
  8
0
  0
BLOCK
  8
0
  2
*D8
 70
     1
 10
0.0
 20
0.0
 30
0.0
  3
*D8
  1

  0
LINE
  5
8377
  8
3
 62
     0
 10
1217.2264381630989
 20
2577.3253133445291
 30
0.0
 11
1217.2264381630989
 21
2659.438777547643
 31
0.0
  0
LINE
  5
8378
  8
3
 62
     0
 10
1559.2341551251129
 20
2144.7854605752168
 30
0.0
 11
1559.2341551251129
 21
2659.438777547643
 31
0.0
  0
LINE
  5
8379
  8
3
 62
     0
 10
1257.226438163098
 20
2639.4387775476439
 30
0.0
 11
1519.2341551251129
 21
2639.4387775476439
 31
0.0
  0
INSERT
  5
837A
  8
3
 62
     0
  2
_OPEN
 10
1217.2264381630989
 20
2639.4387775476439
 30
0.0
 41
40.0
 42
40.0
 43
40.0
 50
180.0
  0
INSERT
  5
837B
  8
3
 62
     0
  2
_OPEN
 10
1559.2341551251129
 20
2639.4387775476439
 30
0.0
 41
40.0
 42
40.0
 43
40.0
  0
TEXT
  8
3
  40
60
  5
8439
  62
0
  72
0
  71
0
 10
1268.23
 20
2583.24
 30
0.000000
  1
342
  0
POINT
  5
837D
  8
DEFPOINTS
 62
     0
 10
1217.2264381630989
 20
2567.3253133445291
 30
0.0
  0
POINT
  5
837E
  8
DEFPOINTS
 62
     0
 10
1559.2341551251129
 20
2134.7854605752168
 30
0.0
  0
POINT
  5
837F
  8
DEFPOINTS
 62
     0
 10
1559.2341551251129
 20
2639.4387775476439
 30
0.0
  0
ENDBLK
  5
80E1
  8
0
  0
BLOCK
  8
0
  2
*D9
 70
     1
 10
0.0
 20
0.0
 30
0.0
  3
*D9
  1

  0
LINE
  5
838A
  8
3
 62
     0
 10
912.22643816309892
 20
2565.780277887789
 30
0.0
 11
912.22643816309892
 21
2659.438777547643
 31
0.0
  0
LINE
  5
838B
  8
3
 62
     0
 10
1217.2264381630989
 20
2577.3253133445291
 30
0.0
 11
1217.2264381630989
 21
2659.438777547643
 31
0.0
  0
LINE
  5
838C
  8
3
 62
     0
 10
952.22643816309892
 20
2639.4387775476439
 30
0.0
 11
1177.2264381630989
 21
2639.4387775476439
 31
0.0
  0
INSERT
  5
838D
  8
3
 62
     0
  2
_OPEN
 10
912.22643816309892
 20
2639.4387775476439
 30
0.0
 41
40.0
 42
40.0
 43
40.0
 50
180.0
  0
INSERT
  5
838E
  8
3
 62
     0
  2
_OPEN
 10
1217.2264381630989
 20
2639.4387775476439
 30
0.0
 41
40.0
 42
40.0
 43
40.0
  0
TEXT
  8
3
  40
60
  5
843A
  62
0
  72
0
  71
0
 10
944.726
 20
2583.24
 30
0.000000
  1
305
  0
POINT
  5
8390
  8
DEFPOINTS
 62
     0
 10
912.22643816309892
 20
2555.780277887789
 30
0.0
  0
POINT
  5
8391
  8
DEFPOINTS
 62
     0
 10
1217.2264381630989
 20
2567.3253133445291
 30
0.0
  0
POINT
  5
8392
  8
DEFPOINTS
 62
     0
 10
1217.2264381630989
 20
2639.4387775476439
 30
0.0
  0
ENDBLK
  5
80EC
  8
0
  0
BLOCK
  8
0
  2
*D10
 70
     1
 10
0.0
 20
0.0
 30
0.0
  3
*D10
  1

  0
LINE
  5
839D
  8
3
 62
     0
 10
992.22643816309903
 20
3275.9705262433481
 30
0.0
 11
696.08396302107144
 21
3275.9705262433481
 31
0.0
  0
LINE
  5
839E
  8
3
 62
     0
 10
992.22643816309903
 20
4135.9705262433472
 30
0.0
 11
696.08396302107155
 21
4135.9705262433472
 31
0.0
  0
LINE
  5
839F
  8
3
 62
     0
 10
716.08396302107144
 20
3315.9705262433481
 30
0.0
 11
716.08396302107155
 21
4095.9705262433472
 31
0.0
  0
INSERT
  5
83A0
  8
3
 62
     0
  2
_OPEN
 10
716.08396302107144
 20
3275.9705262433481
 30
0.0
 41
40.0
 42
40.0
 43
40.0
 50
270.0
  0
INSERT
  5
83A1
  8
3
 62
     0
  2
_OPEN
 10
716.08396302107155
 20
4135.9705262433472
 30
0.0
 41
40.0
 42
40.0
 43
40.0
 50
90.0
  0
TEXT
  8
3
  40
60
  5
843B
  62
0
  72
0
  71
0
 10
546.084
 20
3599.77
 30
0.000000
  1
860
  0
POINT
  5
83A3
  8
DEFPOINTS
 62
     0
 10
1002.226438163098
 20
3275.9705262433481
 30
0.0
  0
POINT
  5
83A4
  8
DEFPOINTS
 62
     0
 10
1002.226438163098
 20
4135.9705262433472
 30
0.0
  0
POINT
  5
83A5
  8
DEFPOINTS
 62
     0
 10
716.08396302107155
 20
4135.9705262433472
 30
0.0
  0
ENDBLK
  5
80F7
  8
0
  0
BLOCK
  8
0
  2
*D11
 70
     1
 10
0.0
 20
0.0
 30
0.0
  3
*D11
  1

  0
LINE
  5
83A6
  8
3
 62
     0
 10
1432.226438163098
 20
4145.9705262433481
 30
0.0
 11
1432.226438163098
 21
4270.7209676520333
 31
0.0
  0
LINE
  5
83A7
  8
3
 62
     0
 10
1932.2264381630989
 20
3705.9705262433472
 30
0.0
 11
1932.2264381630989
 21
4270.7209676520333
 31
0.0
  0
LINE
  5
83A8
  8
3
 62
     0
 10
1472.226438163098
 20
4250.7209676520333
 30
0.0
 11
1892.226438163098
 21
4250.7209676520333
 31
0.0
  0
INSERT
  5
83A9
  8
3
 62
     0
  2
_OPEN
 10
1432.226438163098
 20
4250.7209676520333
 30
0.0
 41
40.0
 42
40.0
 43
40.0
 50
180.0
  0
INSERT
  5
83AA
  8
3
 62
     0
  2
_OPEN
 10
1932.2264381630989
 20
4250.7209676520333
 30
0.0
 41
40.0
 42
40.0
 43
40.0
  0
TEXT
  8
3
  40
60
  5
843C
  62
0
  72
0
  71
0
 10
1562.23
 20
4194.52
 30
0.000000
  1
500
  0
POINT
  5
83AC
  8
DEFPOINTS
 62
     0
 10
1432.226438163098
 20
4135.9705262433472
 30
0.0
  0
POINT
  5
83AD
  8
DEFPOINTS
 62
     0
 10
1932.2264381630989
 20
3695.9705262433472
 30
0.0
  0
POINT
  5
83AE
  8
DEFPOINTS
 62
     0
 10
1932.2264381630989
 20
4250.7209676520333
 30
0.0
  0
ENDBLK
  5
810D
  8
0
  0
BLOCK
  8
0
  2
*D12
 70
     1
 10
0.0
 20
0.0
 30
0.0
  3
*D12
  1

  0
LINE
  5
83AF
  8
3
 62
     0
 10
1932.2264381630989
 20
3265.9705262433472
 30
0.0
 11
1932.2264381630989
 21
3037.795372019119
 31
0.0
  0
LINE
  5
83B0
  8
3
 62
     0
 10
1002.226438163098
 20
3265.9705262433481
 30
0.0
 11
1002.226438163098
 21
3037.795372019119
 31
0.0
  0
LINE
  5
83B1
  8
3
 62
     0
 10
1892.226438163098
 20
3057.795372019119
 30
0.0
 11
1042.2264381630989
 21
3057.795372019119
 31
0.0
  0
INSERT
  5
83B2
  8
3
 62
     0
  2
_OPEN
 10
1932.2264381630989
 20
3057.795372019119
 30
0.0
 41
40.0
 42
40.0
 43
40.0
  0
INSERT
  5
83B3
  8
3
 62
     0
  2
_OPEN
 10
1002.226438163098
 20
3057.795372019119
 30
0.0
 41
40.0
 42
40.0
 43
40.0
 50
180.0
  0
TEXT
  8
3
  40
60
  5
843D
  62
0
  72
0
  71
0
 10
1347.23
 20
3001.60
 30
0.000000
  1
930
  0
POINT
  5
83B5
  8
DEFPOINTS
 62
     0
 10
1932.2264381630989
 20
3275.9705262433481
 30
0.0
  0
POINT
  5
83B6
  8
DEFPOINTS
 62
     0
 10
1002.226438163098
 20
3275.9705262433481
 30
0.0
  0
POINT
  5
83B7
  8
DEFPOINTS
 62
     0
 10
1002.226438163098
 20
3057.795372019119
 30
0.0
  0
ENDBLK
  5
8102
  8
0
  0
BLOCK
  8
0
  2
*D13
 70
     1
 10
0.0
 20
0.0
 30
0.0
  3
*D13
  1

  0
LINE
  5
83B8
  8
3
 62
     0
 10
1942.226438163098
 20
3275.9705262433481
 30
0.0
 11
2027.570376323466
 21
3275.9705262433481
 31
0.0
  0
LINE
  5
83B9
  8
3
 62
     0
 10
1942.226438163098
 20
3695.9705262433472
 30
0.0
 11
2027.570376323466
 21
3695.9705262433472
 31
0.0
  0
LINE
  5
83BA
  8
3
 62
     0
 10
2007.570376323466
 20
3315.9705262433472
 30
0.0
 11
2007.570376323466
 21
3655.9705262433472
 31
0.0
  0
INSERT
  5
83BB
  8
3
 62
     0
  2
_OPEN
 10
2007.570376323466
 20
3275.9705262433481
 30
0.0
 41
40.0
 42
40.0
 43
40.0
 50
270.0
  0
INSERT
  5
83BC
  8
3
 62
     0
  2
_OPEN
 10
2007.570376323466
 20
3695.9705262433472
 30
0.0
 41
40.0
 42
40.0
 43
40.0
 50
90.0
  0
TEXT
  8
3
  40
60
  5
843E
  62
0
  72
0
  71
0
 10
1837.57
 20
3379.77
 30
0.000000
  1
420
  0
POINT
  5
83BE
  8
DEFPOINTS
 62
     0
 10
1932.2264381630989
 20
3275.9705262433481
 30
0.0
  0
POINT
  5
83BF
  8
DEFPOINTS
 62
     0
 10
1932.2264381630989
 20
3695.9705262433472
 30
0.0
  0
POINT
  5
83C0
  8
DEFPOINTS
 62
     0
 10
2007.570376323466
 20
3695.9705262433472
 30
0.0
  0
ENDBLK
  5
8123
  8
0
  0
BLOCK
  8
0
  2
*D14
 70
     1
 10
0.0
 20
0.0
 30
0.0
  3
*D14
  1

  0
LINE
  5
83C1
  8
3
 62
     0
 10
1002.226438163098
 20
4145.9705262433481
 30
0.0
 11
1002.226438163098
 21
4270.7209676520333
 31
0.0
  0
LINE
  5
83C2
  8
3
 62
     0
 10
1432.226438163098
 20
4145.9705262433481
 30
0.0
 11
1432.226438163098
 21
4270.7209676520333
 31
0.0
  0
LINE
  5
83C3
  8
3
 62
     0
 10
1042.2264381630989
 20
4250.7209676520333
 30
0.0
 11
1392.2264381630989
 21
4250.7209676520333
 31
0.0
  0
INSERT
  5
83C4
  8
3
 62
     0
  2
_OPEN
 10
1002.226438163098
 20
4250.7209676520333
 30
0.0
 41
40.0
 42
40.0
 43
40.0
 50
180.0
  0
INSERT
  5
83C5
  8
3
 62
     0
  2
_OPEN
 10
1432.226438163098
 20
4250.7209676520333
 30
0.0
 41
40.0
 42
40.0
 43
40.0
  0
TEXT
  8
3
  40
60
  5
843F
  62
0
  72
0
  71
0
 10
1097.23
 20
4194.52
 30
0.000000
  1
430
  0
POINT
  5
83C7
  8
DEFPOINTS
 62
     0
 10
1002.226438163098
 20
4135.9705262433472
 30
0.0
  0
POINT
  5
83C8
  8
DEFPOINTS
 62
     0
 10
1432.226438163098
 20
4135.9705262433472
 30
0.0
  0
POINT
  5
83C9
  8
DEFPOINTS
 62
     0
 10
1432.226438163098
 20
4250.7209676520333
 30
0.0
  0
ENDBLK
  5
8118
  8
0
  0
BLOCK
  8
0
  2
*D15
 70
     1
 10
0.0
 20
0.0
 30
0.0
  3
*D15
  1

  0
LINE
  5
81E0
  8
0
  6
BYBLOCK
 62
     0
 10
2959.6229986188459
 20
2742.152686526395
 30
0.0
 11
2959.6229986188459
 21
2797.8536368385171
 31
0.0
  0
LINE
  5
81E1
  8
0
  6
BYBLOCK
 62
     0
 10
3112.6229986188441
 20
2352.485460575218
 30
0.0
 11
3112.6229986188441
 21
2797.8536368385171
 31
0.0
  0
LINE
  5
81E2
  8
0
  6
BYBLOCK
 62
     0
 10
2999.6229986188459
 20
2777.8536368385171
 30
0.0
 11
3072.6229986188441
 21
2777.8536368385171
 31
0.0
  0
TEXT
  5
81E3
  8
3
 62
     0
 10
2964.694427190273
 20
2827.8536368385171
 30
0.0
 40
60.0
  1
153
  0
INSERT
  5
81E4
  8
0
  6
BYBLOCK
 62
     0
  2
_OPEN
 10
2959.6229986188459
 20
2777.8536368385171
 30
0.0
 41
40.0
 42
40.0
 43
40.0
 50
180.0
  0
INSERT
  5
81E5
  8
0
  6
BYBLOCK
 62
     0
  2
_OPEN
 10
3112.6229986188441
 20
2777.8536368385171
 30
0.0
 41
40.0
 42
40.0
 43
40.0
  0
POINT
  5
81E6
  8
DEFPOINTS
  6
BYBLOCK
 62
     0
 10
2959.6229986188459
 20
2732.152686526395
 30
0.0
  0
POINT
  5
81E7
  8
DEFPOINTS
  6
BYBLOCK
 62
     0
 10
3112.6229986188441
 20
2342.485460575218
 30
0.0
  0
POINT
  5
81E8
  8
DEFPOINTS
  6
BYBLOCK
 62
     0
 10
3112.6229986188441
 20
2777.8536368385171
 30
0.0
  0
ENDBLK
  5
81E9
  8
0
  0
BLOCK
  8
0
  2
*D16
 70
     1
 10
0.0
 20
0.0
 30
0.0
  3
*D16
  1

  0
LINE
  5
83CA
  8
3
 62
     0
 10
2199.6229986188441
 20
2264.7854605752168
 30
0.0
 11
2199.6229986188441
 21
2797.8536368385171
 31
0.0
  0
LINE
  5
83CB
  8
3
 62
     0
 10
2959.6229986188459
 20
2742.152686526395
 30
0.0
 11
2959.6229986188459
 21
2797.8536368385171
 31
0.0
  0
LINE
  5
83CC
  8
3
 62
     0
 10
2239.6229986188441
 20
2777.8536368385171
 30
0.0
 11
2919.6229986188459
 21
2777.8536368385171
 31
0.0
  0
INSERT
  5
83CD
  8
3
 62
     0
  2
_OPEN
 10
2199.6229986188441
 20
2777.8536368385171
 30
0.0
 41
40.0
 42
40.0
 43
40.0
 50
180.0
  0
INSERT
  5
83CE
  8
3
 62
     0
  2
_OPEN
 10
2959.6229986188459
 20
2777.8536368385171
 30
0.0
 41
40.0
 42
40.0
 43
40.0
  0
TEXT
  8
3
  40
60
  5
8440
  62
0
  72
0
  71
0
 10
2459.62
 20
2771.65
 30
0.000000
  1
MAX
  0
TEXT
  8
3
  40
60
  5
8441
  62
0
  72
0
  71
0
 10
2459.62
 20
2693.65
 30
0.000000
  1
830
  0
POINT
  5
83D0
  8
DEFPOINTS
 62
     0
 10
2199.6229986188441
 20
2254.7854605752168
 30
0.0
  0
POINT
  5
83D1
  8
DEFPOINTS
 62
     0
 10
2959.6229986188459
 20
2732.152686526395
 30
0.0
  0
POINT
  5
83D2
  8
DEFPOINTS
 62
     0
 10
2959.6229986188459
 20
2777.8536368385171
 30
0.0
  0
ENDBLK
  5
8294
  8
0
  0
BLOCK
  8
0
  2
*D17
 70
     1
 10
0.0
 20
0.0
 30
0.0
  3
*D17
  1

  0
LINE
  5
83D3
  8
3
 62
     0
 10
2294.6229986188441
 20
1549.785460575217
 30
0.0
 11
2294.6229986188441
 21
1402.3526470698371
 31
0.0
  0
LINE
  5
83D4
  8
3
 62
     0
 10
2959.6229986188459
 20
1515.3456911390999
 30
0.0
 11
2959.6229986188459
 21
1402.3526470698371
 31
0.0
  0
LINE
  5
83D5
  8
3
 62
     0
 10
2334.6229986188441
 20
1422.3526470698371
 30
0.0
 11
2919.6229986188459
 21
1422.3526470698371
 31
0.0
  0
INSERT
  5
83D6
  8
3
 62
     0
  2
_OPEN
 10
2294.6229986188441
 20
1422.3526470698371
 30
0.0
 41
40.0
 42
40.0
 43
40.0
 50
180.0
  0
INSERT
  5
83D7
  8
3
 62
     0
  2
_OPEN
 10
2959.6229986188459
 20
1422.3526470698371
 30
0.0
 41
40.0
 42
40.0
 43
40.0
  0
TEXT
  8
3
  40
60
  5
8442
  62
0
  72
0
  71
0
 10
2507.12
 20
1366.15
 30
0.000000
  1
665
  0
POINT
  5
83D9
  8
DEFPOINTS
 62
     0
 10
2294.6229986188441
 20
1559.785460575217
 30
0.0
  0
POINT
  5
83DA
  8
DEFPOINTS
 62
     0
 10
2959.6229986188459
 20
1525.3456911390999
 30
0.0
  0
POINT
  5
83DB
  8
DEFPOINTS
 62
     0
 10
2959.6229986188459
 20
1422.3526470698371
 30
0.0
  0
ENDBLK
  5
812E
  8
0
  0
BLOCK
  8
0
  2
*D18
 70
     1
 10
0.0
 20
0.0
 30
0.0
  3
*D18
  1

  0
LINE
  5
8201
  8
0
  6
BYBLOCK
 62
     0
 10
2959.6229986188459
 20
1574.3456911390999
 30
0.0
 11
2959.6229986188459
 21
1461.3526470698371
 31
0.0
  0
LINE
  5
8202
  8
0
  6
BYBLOCK
 62
     0
 10
3154.6229986188459
 20
1608.785460575217
 30
0.0
 11
3154.6229986188459
 21
1461.3526470698371
 31
0.0
  0
LINE
  5
8203
  8
0
  6
BYBLOCK
 62
     0
 10
2999.6229986188459
 20
1481.3526470698371
 30
0.0
 11
3114.6229986188459
 21
1481.3526470698371
 31
0.0
  0
TEXT
  5
8204
  8
3
 62
     0
 10
2985.6944271902739
 20
1509.047354612537
 30
0.0
 40
60.0
  1
195
  0
INSERT
  5
8205
  8
0
  6
BYBLOCK
 62
     0
  2
_OPEN
 10
2959.6229986188459
 20
1481.3526470698371
 30
0.0
 41
40.0
 42
40.0
 43
40.0
 50
180.0
  0
INSERT
  5
8206
  8
0
  6
BYBLOCK
 62
     0
  2
_OPEN
 10
3154.6229986188459
 20
1481.3526470698371
 30
0.0
 41
40.0
 42
40.0
 43
40.0
  0
POINT
  5
8207
  8
DEFPOINTS
  6
BYBLOCK
 62
     0
 10
2959.6229986188459
 20
1584.3456911390999
 30
0.0
  0
POINT
  5
8208
  8
DEFPOINTS
  6
BYBLOCK
 62
     0
 10
3154.6229986188459
 20
1618.785460575217
 30
0.0
  0
POINT
  5
8209
  8
DEFPOINTS
  6
BYBLOCK
 62
     0
 10
3154.6229986188459
 20
1481.3526470698371
 30
0.0
  0
ENDBLK
  5
820A
  8
0
  0
BLOCK
  8
0
  2
*D19
 70
     1
 10
0.0
 20
0.0
 30
0.0
  3
*D19
  1

  0
LINE
  5
83E6
  8
3
 62
     0
 10
3147.6229986188441
 20
2304.7854605752168
 30
0.0
 11
3274.8404767488059
 21
2304.7854605752168
 31
0.0
  0
LINE
  5
83E7
  8
3
 62
     0
 10
3147.6229986188441
 20
1904.785460575217
 30
0.0
 11
3274.8404767488059
 21
1904.785460575217
 31
0.0
  0
LINE
  5
83E8
  8
3
 62
     0
 10
3254.8404767488059
 20
2264.7854605752168
 30
0.0
 11
3254.8404767488059
 21
1944.785460575217
 31
0.0
  0
INSERT
  5
83E9
  8
3
 62
     0
  2
_OPEN
 10
3254.8404767488059
 20
2304.7854605752168
 30
0.0
 41
40.0
 42
40.0
 43
40.0
 50
90.0
  0
INSERT
  5
83EA
  8
3
 62
     0
  2
_OPEN
 10
3254.8404767488059
 20
1904.785460575217
 30
0.0
 41
40.0
 42
40.0
 43
40.0
 50
270.0
  0
TEXT
  8
3
  40
60
  5
8443
  62
0
  72
0
  71
0
 10
3084.84
 20
1998.59
 30
0.000000
  1
φ400
  0
POINT
  5
83EC
  8
DEFPOINTS
 62
     0
 10
3137.6229986188441
 20
2304.7854605752168
 30
0.0
  0
POINT
  5
83ED
  8
DEFPOINTS
 62
     0
 10
3137.6229986188441
 20
1904.785460575217
 30
0.0
  0
POINT
  5
83EE
  8
DEFPOINTS
 62
     0
 10
3254.8404767488059
 20
1904.785460575217
 30
0.0
  0
ENDBLK
  5
81F4
  8
0
  0
BLOCK
  8
0
  2
*D20
 70
     1
 10
0.0
 20
0.0
 30
0.0
  3
*D20
  1

  0
LINE
  5
8414
  8
3
 62
     0
 10
2809.6229986188441
 20
2540.7854605752168
 30
0.0
 11
2809.6229986188441
 21
2658.3303606829918
 31
0.0
  0
LINE
  5
8415
  8
3
 62
     0
 10
3109.6229986188459
 20
2540.7854605752168
 30
0.0
 11
3109.6229986188459
 21
2658.3303606829918
 31
0.0
  0
LINE
  5
8416
  8
3
 62
     0
 10
2849.6229986188441
 20
2638.3303606829918
 30
0.0
 11
3069.6229986188459
 21
2638.3303606829918
 31
0.0
  0
INSERT
  5
8417
  8
3
 62
     0
  2
_OPEN
 10
2809.6229986188441
 20
2638.3303606829918
 30
0.0
 41
40.0
 42
40.0
 43
40.0
 50
180.0
  0
INSERT
  5
8418
  8
3
 62
     0
  2
_OPEN
 10
3109.6229986188459
 20
2638.3303606829918
 30
0.0
 41
40.0
 42
40.0
 43
40.0
  0
TEXT
  8
3
  40
60
  5
8444
  62
0
  72
0
  71
0
 10
2839.62
 20
2582.13
 30
0.000000
  1
300
  0
POINT
  5
841A
  8
DEFPOINTS
 62
     0
 10
2809.6229986188441
 20
2530.7854605752168
 30
0.0
  0
POINT
  5
841B
  8
DEFPOINTS
 62
     0
 10
3109.6229986188459
 20
2530.7854605752168
 30
0.0
  0
POINT
  5
841C
  8
DEFPOINTS
 62
     0
 10
3109.6229986188459
 20
2638.3303606829918
 30
0.0
  0
ENDBLK
  5
815C
  8
0
  0
BLOCK
  8
0
  2
_DOT
 70
     0
 10
0.0
 20
0.0
 30
0.0
  3
_DOT
  1

  0
LINE
  5
8269
  8
0
  6
BYBLOCK
 62
     0
 10
0.0
 20
0.0
 30
0.0
 11
-1.0
 21
-0.0000000000000284
 31
0.0
  0
POLYLINE
  5
826A
  8
0
  6
BYBLOCK
 62
     0
 66
     1
 10
0.0
 20
0.0
 30
0.0
 70
     1
 40
0.1666666666666666
 41
0.1666666666666666
  0
VERTEX
  5
8427
  8
0
  6
BYBLOCK
 62
     0
 10
-0.0833333333333286
 20
-0.0000000000000284
 30
0.0
 42
1.0
  0
VERTEX
  5
8428
  8
0
  6
BYBLOCK
 62
     0
 10
0.0833333333333286
 20
-0.0000000000000284
 30
0.0
 42
1.0
  0
SEQEND
  5
8429
  8
0
  6
BYBLOCK
 62
     0
  0
ENDBLK
  5
824E
  8
0
  0
BLOCK
  8
0
  2
*D22
 70
     1
 10
0.0
 20
0.0
 30
0.0
  3
*D22
  1

  0
LINE
  5
842A
  8
3
 62
     0
 10
902.22643816309892
 20
2565.780277887789
 30
0.0
 11
501.49364207084773
 21
2565.780277887789
 31
0.0
  0
LINE
  5
842B
  8
3
 62
     0
 10
992.22643816309903
 20
1559.785460575217
 30
0.0
 11
501.49364207084739
 21
1559.785460575217
 31
0.0
  0
LINE
  5
842C
  8
3
 62
     0
 10
521.49364207084773
 20
2525.780277887789
 30
0.0
 11
521.49364207084739
 21
1599.785460575217
 31
0.0
  0
INSERT
  5
842D
  8
3
 62
     0
  2
_OPEN
 10
521.49364207084773
 20
2565.780277887789
 30
0.0
 41
40.0
 42
40.0
 43
40.0
 50
90.0
  0
INSERT
  5
842E
  8
3
 62
     0
  2
_OPEN
 10
521.49364207084739
 20
1559.785460575217
 30
0.0
 41
40.0
 42
40.0
 43
40.0
 50
270.0
  0
TEXT
  8
3
  40
60
  5
8445
  62
0
  72
0
  71
0
 10
351.494
 20
1924.21
 30
0.000000
  1
1006
  0
POINT
  5
8430
  8
DEFPOINTS
 62
     0
 10
912.22643816309892
 20
2565.780277887789
 30
0.0
  0
POINT
  5
8431
  8
DEFPOINTS
 62
     0
 10
1002.226438163098
 20
1559.785460575217
 30
0.0
  0
POINT
  5
8432
  8
DEFPOINTS
 62
     0
 10
521.49364207084739
 20
1559.785460575217
 30
0.0
  0
ENDBLK
  5
82C5
  8
0
  0
BLOCK
  8
0
  2
*D23
 70
     1
 10
0.0
 20
0.0
 30
0.0
  3
*D23
  1

  0
LINE
  5
8309
  8
0
  6
BYBLOCK
 62
     0
 10
875.75952027605263
 20
1634.785460575217
 30
0.0
 11
558.8009533831023
 21
1634.785460575217
 31
0.0
  0
LINE
  5
830A
  8
0
  6
BYBLOCK
 62
     0
 10
578.80095338310218
 20
1769.785460575217
 30
0.0
 11
578.80095338310218
 21
1809.785460575217
 31
0.0
  0
LINE
  5
830B
  8
0
  6
BYBLOCK
 62
     0
 10
578.80095338310218
 20
1594.785460575217
 30
0.0
 11
578.80095338310218
 21
1554.785460575217
 31
0.0
  0
TEXT
  5
830C
  8
3
 62
     0
 10
503.08666766881652
 20
1595.1426034323599
 30
0.0
 40
60.0
  1
(95)
 50
90.0
  0
LINE
  5
830D
  8
0
  6
BYBLOCK
 62
     0
 10
578.80095338310218
 20
1729.785460575217
 30
0.0
 11
578.80095338310218
 21
1634.785460575217
 31
0.0
  0
INSERT
  5
830E
  8
0
  6
BYBLOCK
 62
     0
  2
_OPEN
 10
578.80095338310218
 20
1729.785460575217
 30
0.0
 41
40.0
 42
40.0
 43
40.0
 50
270.0
  0
INSERT
  5
830F
  8
0
  6
BYBLOCK
 62
     0
  2
_DOT
 10
578.80095338310218
 20
1634.785460575217
 30
0.0
 41
40.0
 42
40.0
 43
40.0
 50
90.0
  0
POINT
  5
8310
  8
DEFPOINTS
  6
BYBLOCK
 62
     0
 10
885.75952027605263
 20
1729.785460575217
 30
0.0
  0
POINT
  5
8311
  8
DEFPOINTS
  6
BYBLOCK
 62
     0
 10
885.75952027605263
 20
1634.785460575217
 30
0.0
  0
POINT
  5
8312
  8
DEFPOINTS
  6
BYBLOCK
 62
     0
 10
578.80095338310218
 20
1634.785460575217
 30
0.0
  0
ENDBLK
  5
8313
  8
0
  0
ENDSEC
  0
SECTION
  2
ENTITIES
  0
DIMENSION
  5
7CD4
  8
3
  2
*D1
 10
1932.2264381630989
 20
2752.4902950762662
 30
0.0
 11
1422.226438163098
 21
2752.4902950762662
 31
0.0
 70
   128
 13
912.22643816309892
 23
2555.780277887789
 33
0.0
 14
1932.2264381630989
 24
1804.785460575217
 34
0.0
1001
ACAD
1000
DSTYLE
1002
{
1070
   287
1070
     3
1070
    40
1040
20.0
1070
   143
1040
0.039
1070
   172
1070
     1
1070
   271
1070
     0
1070
   279
1070
     0
1070
   288
1070
     1
1002
}
  0
DIMENSION
  5
7CD5
  8
3
  2
*D2
 10
788.24789605191791
 20
2116.7854605752168
 30
0.0
 11
738.24789605191756
 21
2322.7854605752168
 31
0.0
 70
     0
 13
912.22643816309892
 23
2528.7854605752168
 33
0.0
 14
912.22643816309892
 24
2116.7854605752168
 34
0.0
 50
270.0
1001
ACAD
1000
DSTYLE
1002
{
1070
   287
1070
     3
1070
    40
1040
20.0
1070
   143
1040
0.039
1070
   172
1070
     1
1070
   271
1070
     0
1070
   279
1070
     0
1070
   288
1070
     1
1002
}
  0
DIMENSION
  5
7CD6
  8
3
  2
*D3
 10
695.26787127014848
 20
2104.7854605752168
 30
0.0
 11
645.26787127014825
 21
2316.7854605752168
 31
0.0
 70
     0
 13
912.22643816309892
 23
2528.7854605752168
 33
0.0
 14
899.84866852382174
 24
2104.7854605752168
 34
0.0
 50
270.0
1001
ACAD
1000
DSTYLE
1002
{
1070
   287
1070
     3
1070
    40
1040
20.0
1070
   143
1040
0.039
1070
   172
1070
     1
1070
   271
1070
     0
1070
   279
1070
     0
1070
   288
1070
     1
1002
}
  0
DIMENSION
  5
7CD7
  8
3
  2
*D4
 10
695.26787127014848
 20
1729.785460575217
 30
0.0
 11
645.26787127014836
 21
1917.285460575217
 31
0.0
 70
     0
 13
899.84866852382174
 23
2104.7854605752168
 33
0.0
 14
1002.226438163098
 24
1729.785460575217
 34
0.0
 50
270.0
1001
ACAD
1000
DSTYLE
1002
{
1070
   287
1070
     3
1070
    40
1040
20.0
1070
   143
1040
0.039
1070
   172
1070
     1
1070
   271
1070
     0
1070
   279
1070
     0
1070
   288
1070
     1
1002
}
  0
DIMENSION
  5
7CD8
  8
3
  2
*D5
 10
695.26787127014848
 20
1559.785460575217
 30
0.0
 11
645.26787127014836
 21
1411.214032003789
 31
0.0
 70
     0
 13
1002.226438163098
 23
1634.785460575217
 33
0.0
 14
1002.226438163098
 24
1559.785460575217
 34
0.0
 50
270.0
1001
ACAD
1000
DSTYLE
1002
{
1070
   287
1070
     3
1070
    40
1040
20.0
1070
   143
1040
0.039
1070
   172
1070
     1
1070
   271
1070
     0
1070
   279
1070
     0
1070
   288
1070
     1
1070
     6
1000
DOT
1002
}
  0
LINE
  5
7CDA
  8
2
 10
1578.442332687931
 20
2104.7854605752168
 30
0.0
 11
899.84866852382174
 21
2104.7854605752168
 31
0.0
  0
LINE
  5
7CDC
  8
1
 10
1002.226438163098
 20
1804.785460575217
 30
0.0
 11
1002.226438163098
 21
1729.785460575217
 31
0.0
  0
ARC
  5
7CDD
  8
1
 10
1247.2264381630989
 20
2134.7854605752168
 30
0.0
 40
312.00771696201508
 50
262.47617956136042
 51
359.99999999999932
  0
LINE
  5
7CDE
  8
1
 10
1932.2264381630989
 20
1804.785460575217
 30
0.0
 11
1932.2264381630989
 21
1729.785460575217
 31
0.0
  0
LINE
  5
7CDF
  8
2
 10
1217.2264381630989
 20
2567.3253133445291
 30
0.0
 11
1217.2264381630989
 21
1525.3456911390999
 31
0.0
  0
LINE
  5
7CE0
  8
1
 10
1932.2264381630989
 20
1729.785460575217
 30
0.0
 11
1002.226438163098
 21
1729.785460575217
 31
0.0
  0
LINE
  5
7CE1
  8
1
 10
1932.2264381630989
 20
1729.785460575217
 30
0.0
 11
1002.226438163098
 21
1729.785460575217
 31
0.0
  0
LINE
  5
7CE2
  8
1
 10
1932.2264381630989
 20
1634.785460575217
 30
0.0
 11
1002.226438163098
 21
1634.785460575217
 31
0.0
  0
LINE
  5
7CE3
  8
1
 10
1932.2264381630989
 20
1559.785460575217
 30
0.0
 11
1002.226438163098
 21
1559.785460575217
 31
0.0
  0
DIMENSION
  5
7CE4
  8
3
  2
*D6
 10
1217.2264381630989
 20
1428.110127504965
 30
0.0
 11
1574.726438163098
 21
1478.110127504965
 31
0.0
 70
     0
 13
1932.2264381630989
 23
1559.785460575217
 33
0.0
 14
1217.2264381630989
 24
1525.3456911390999
 34
0.0
1001
ACAD
1000
DSTYLE
1002
{
1070
   287
1070
     3
1070
    40
1040
20.0
1070
   143
1040
0.039
1070
   172
1070
     1
1070
   271
1070
     0
1070
   279
1070
     0
1070
   288
1070
     1
1002
}
  0
DIMENSION
  5
7CE5
  8
3
  2
*D7
 10
1002.226438163098
 20
1428.110127504965
 30
0.0
 11
1109.726438163098
 21
1480.047354612537
 31
0.0
 12
116.46691788704631
 22
-59.0
 32
0.0
 70
   128
 13
1217.2264381630989
 23
1525.3456911390999
 33
0.0
 14
1002.226438163098
 24
1559.785460575217
 34
0.0
1001
ACAD
1000
DSTYLE
1002
{
1070
   288
1070
     1
1070
   172
1070
     1
1070
    40
1040
20.0
1070
   271
1070
     0
1070
   143
1040
0.039
1002
}
  0
LINE
  5
7CE6
  8
1
 10
1002.226438163098
 20
1634.785460575217
 30
0.0
 11
1002.226438163098
 21
1559.785460575217
 31
0.0
  0
LINE
  5
7CE7
  8
1
 10
1932.2264381630989
 20
1634.785460575217
 30
0.0
 11
1932.2264381630989
 21
1559.785460575217
 31
0.0
  0
LINE
  5
7CE8
  8
1
 10
1792.8135757992741
 20
2049.3742073156659
 30
0.0
 11
1230.2157195265791
 21
2166.9427495255918
 31
0.0
  0
LINE
  5
7CE9
  8
1
 10
1758.3598185299491
 20
1900.9580221554941
 30
0.0
 11
1201.5042551354729
 21
2043.2625952254471
 31
0.0
  0
LINE
  5
7CEA
  8
1
 10
1743.3069820831961
 20
1828.6708805387141
 30
0.0
 11
1183.3069820831961
 21
1958.6708805387141
 31
0.0
  0
LINE
  5
7CEB
  8
1
 10
1811.1458942430011
 20
2120.9000406117202
 30
0.0
 11
1251.1458942430011
 21
2250.9000406117202
 31
0.0
  0
ARC
  5
7CEC
  8
1
 10
1187.226438163098
 20
2134.7854605752182
 30
0.0
 40
372.00771696201542
 50
359.9999999999992
 51
85.388569090039113
  0
LINE
  5
7CED
  8
1
 10
1932.2264381630989
 20
1804.785460575217
 30
0.0
 11
1002.226438163098
 21
1804.785460575217
 31
0.0
  0
DIMENSION
  5
7CEE
  8
3
  2
*D8
 10
1559.2341551251129
 20
2639.4387775476439
 30
0.0
 11
1388.2302966441059
 21
2689.4387775476439
 31
0.0
 70
     0
 13
1217.2264381630989
 23
2567.3253133445291
 33
0.0
 14
1559.2341551251129
 24
2134.7854605752168
 34
0.0
1001
ACAD
1000
DSTYLE
1002
{
1070
   287
1070
     3
1070
    40
1040
20.0
1070
   143
1040
0.039
1070
   172
1070
     1
1070
   271
1070
     0
1070
   279
1070
     0
1070
   288
1070
     1
1002
}
  0
LINE
  5
7CF5
  8
1
 10
912.22643816309892
 20
2116.7854605752168
 30
0.0
 11
912.22643816309892
 21
2553.7854605752168
 31
0.0
  0
LINE
  5
7CF6
  8
1
 10
937.22643816309835
 20
2114.7854605752168
 30
0.0
 11
937.22643816309869
 21
2529.7854605752168
 31
0.0
  0
LINE
  5
7CF7
  8
1
 10
915.22643816309881
 20
2116.7854605752159
 30
0.0
 11
915.22643816309881
 21
2528.7854605752168
 31
0.0
  0
ARC
  5
7CF9
  8
1
 10
1217.2264381630989
 20
2104.7854605752168
 30
0.0
 40
150.0
 50
76.930682103717828
 51
256.9306821037178
  0
CIRCLE
  5
7CFA
  8
1
 10
1217.2264381630989
 20
2104.7854605752168
 30
0.0
 40
63.5
  0
LINE
  5
7CFB
  8
1
 10
1442.2264381630989
 20
2046.3854605752169
 30
0.0
 11
992.22643816309903
 21
2046.3854605752169
 31
0.0
  0
LINE
  5
7CFC
  8
1
 10
1407.2264381630989
 20
2049.585460575217
 30
0.0
 11
1027.2264381630989
 21
2049.585460575217
 31
0.0
  0
LINE
  5
7CFD
  8
1
 10
992.22643816309903
 20
2046.3854605752169
 30
0.0
 11
992.22643816309903
 21
2006.3854605752169
 31
0.0
  0
LINE
  5
7D03
  8
1
 10
1032.2264381630989
 20
2046.3854605752169
 30
0.0
 11
1032.2264381630989
 21
1804.785460575217
 31
0.0
  0
ARC
  5
7D04
  8
1
 10
1240.226438163098
 20
2081.7854605752182
 30
0.0
 40
258.54745134352208
 50
180.0000000000002
 51
262.47617956136042
  0
LINE
  5
7D05
  8
1
 10
1012.226438163098
 20
1844.785460575217
 30
0.0
 11
1012.226438163098
 21
1804.785460575217
 31
0.0
  0
LINE
  5
7D06
  8
1
 10
1032.2264381630989
 20
1809.785460575217
 30
0.0
 11
1012.226438163098
 21
1809.785460575217
 31
0.0
  0
LINE
  5
7D07
  8
1
 10
1032.2264381630989
 20
1844.785460575217
 30
0.0
 11
1012.226438163098
 21
1844.785460575217
 31
0.0
  0
LINE
  5
7D08
  8
1
 10
1032.2264381630989
 20
2006.3854605752169
 30
0.0
 11
992.9176744764253
 21
2006.3854605752169
 31
0.0
  0
LINE
  5
7D09
  8
1
 10
1032.2264381630989
 20
2000.3854605752169
 30
0.0
 11
994.8271215458127
 21
2000.3854605752181
 31
0.0
  0
ARC
  5
7D0A
  8
1
 10
1194.226438163098
 20
2081.7854605752132
 30
0.0
 40
212.5474513435226
 50
170.5219869620245
 51
179.99999999999901
  0
LINE
  5
7D0C
  8
1
 10
984.58050075283847
 20
2116.7854605752168
 30
0.0
 11
912.22643816309892
 21
2116.7854605752168
 31
0.0
  0
POLYLINE
  5
7D0E
  8
1
 66
     1
 10
0.0
 20
0.0
 30
0.0
 70
     1
  0
VERTEX
  5
8380
  8
1
 10
912.22643816309892
 20
2116.7854605752168
 30
0.0
  0
VERTEX
  5
8381
  8
1
 10
912.22643816309892
 20
2091.7854605752168
 30
0.0
  0
VERTEX
  5
8382
  8
1
 10
913.22643816309892
 20
2091.7854605752168
 30
0.0
 42
0.4142135623730951
  0
VERTEX
  5
8383
  8
1
 10
915.22643816309881
 20
2093.7854605752168
 30
0.0
  0
VERTEX
  5
8384
  8
1
 10
915.22643816309881
 20
2109.7854605752168
 30
0.0
 42
-0.4142135623730951
  0
VERTEX
  5
8385
  8
1
 10
919.22643816309892
 20
2113.7854605752168
 30
0.0
  0
VERTEX
  5
8386
  8
1
 10
935.22643816309892
 20
2113.7854605752168
 30
0.0
 42
0.4142135623730951
  0
VERTEX
  5
8387
  8
1
 10
937.22643816309892
 20
2115.7854605752168
 30
0.0
  0
VERTEX
  5
8388
  8
1
 10
937.22643816309892
 20
2116.7854605752168
 30
0.0
  0
SEQEND
  5
8389
  8
1
  0
LINE
  5
7D1A
  8
1
 10
1027.2264381630989
 20
2049.585460575217
 30
0.0
 11
1027.2264381630989
 21
2046.3854605752169
 31
0.0
  0
LINE
  5
7D1C
  8
1
 10
1442.2264381630989
 20
2046.3854605752169
 30
0.0
 11
1442.2264381630989
 21
2006.3854605752169
 31
0.0
  0
LINE
  5
7D1D
  8
1
 10
1402.2264381630989
 20
2046.3854605752169
 30
0.0
 11
1402.2264381630989
 21
1804.785460575217
 31
0.0
  0
LINE
  5
7D1E
  8
1
 10
1422.226438163098
 20
1844.785460575217
 30
0.0
 11
1422.226438163098
 21
1804.785460575217
 31
0.0
  0
LINE
  5
7D1F
  8
1
 10
1422.226438163098
 20
1809.785460575217
 30
0.0
 11
1402.2264381630989
 21
1809.785460575217
 31
0.0
  0
LINE
  5
7D20
  8
1
 10
1422.226438163098
 20
1844.785460575217
 30
0.0
 11
1402.2264381630989
 21
1844.785460575217
 31
0.0
  0
LINE
  5
7D21
  8
1
 10
1528.8031691687861
 20
2000.3854605752169
 30
0.0
 11
1402.2264381630989
 21
2000.3854605752169
 31
0.0
  0
LINE
  5
7D22
  8
1
 10
1531.5893320924031
 20
2006.3854605752169
 30
0.0
 11
1402.2264381630989
 21
2006.3854605752169
 31
0.0
  0
LINE
  5
7D23
  8
1
 10
1407.2264381630989
 20
2049.585460575217
 30
0.0
 11
1407.2264381630989
 21
2046.3854605752169
 31
0.0
  0
DIMENSION
  5
7D28
  8
3
  2
*D9
 10
1217.2264381630989
 20
2639.4387775476439
 30
0.0
 11
1064.726438163098
 21
2689.4387775476439
 31
0.0
 70
     0
 13
912.22643816309892
 23
2555.780277887789
 33
0.0
 14
1217.2264381630989
 24
2567.3253133445291
 34
0.0
1001
ACAD
1000
DSTYLE
1002
{
1070
   287
1070
     3
1070
    40
1040
20.0
1070
   143
1040
0.039
1070
   172
1070
     1
1070
   271
1070
     0
1070
   279
1070
     0
1070
   288
1070
     1
1002
}
  0
LINE
  5
7D29
  8
1
 10
1217.135035394848
 20
2505.5889358703121
 30
0.0
 11
912.22643816309892
 21
2528.7854605752168
 31
0.0
  0
POLYLINE
  5
7D2A
  8
1
 66
     1
 10
0.0
 20
0.0
 30
0.0
 70
     1
  0
VERTEX
  5
8393
  8
1
 10
912.22643816309892
 20
2528.7854605752168
 30
0.0
  0
VERTEX
  5
8394
  8
1
 10
912.22643816309892
 20
2553.7854605752168
 30
0.0
  0
VERTEX
  5
8395
  8
1
 10
913.22643816309892
 20
2553.7854605752168
 30
0.0
 42
-0.4142135623730951
  0
VERTEX
  5
8396
  8
1
 10
915.22643816309881
 20
2551.7854605752168
 30
0.0
  0
VERTEX
  5
8397
  8
1
 10
915.22643816309881
 20
2535.7854605752168
 30
0.0
 42
0.4142135623730951
  0
VERTEX
  5
8398
  8
1
 10
919.22643816309892
 20
2531.7854605752168
 30
0.0
  0
VERTEX
  5
8399
  8
1
 10
935.22643816309892
 20
2531.7854605752168
 30
0.0
 42
-0.4142135623730951
  0
VERTEX
  5
839A
  8
1
 10
937.22643816309892
 20
2529.7854605752168
 30
0.0
  0
VERTEX
  5
839B
  8
1
 10
937.22643816309892
 20
2528.7854605752168
 30
0.0
  0
SEQEND
  5
839C
  8
1
  0
LINE
  5
7D35
  8
1
 10
937.22643816309892
 20
2529.7854605752168
 30
0.0
 11
937.22643816309892
 21
2528.7854605752168
 31
0.0
  0
LINE
  5
7D36
  8
1
 10
1927.226438163098
 20
1834.785460575217
 30
0.0
 11
1627.226438163098
 21
1834.785460575217
 31
0.0
  0
LINE
  5
7D37
  8
1
 10
1898.838950004289
 20
1874.785460575217
 30
0.0
 11
1655.6139263219079
 21
1874.785460575217
 31
0.0
  0
ARC
  5
7D38
  8
1
 10
1777.2264381630989
 20
1974.785460575217
 30
0.0
 40
150.0
 50
256.93068210371769
 51
76.930682103717814
  0
LINE
  5
7D39
  8
2
 10
1777.2264381630989
 20
2076.010360575217
 30
0.0
 11
1777.2264381630989
 21
1873.2970605752171
 31
0.0
  0
ARC
  5
7D3B
  8
1
 10
1777.2264381630989
 20
1974.785460575217
 30
0.0
 40
100.8
 50
285.4276999999999
 51
180.0
  0
CIRCLE
  5
7D3C
  8
1
 10
1777.2264381630989
 20
1974.785460575217
 30
0.0
 40
76.200000000000003
  0
LINE
  5
7D3D
  8
1
 10
1723.479838163099
 20
1889.0389605752171
 30
0.0
 11
1717.226438163098
 21
1882.785460575217
 31
0.0
  0
ARC
  5
7D3F
  8
1
 10
1777.2264381630989
 20
1974.785460575217
 30
0.0
 40
100.8
 50
180.0
 51
254.20289999999989
  0
LINE
  5
7D40
  8
2
 10
1877.8418381630991
 20
1974.785460575217
 30
0.0
 11
1669.180938163099
 21
1974.785460575217
 31
0.0
  0
LINE
  5
7D41
  8
1
 10
1678.3172381630991
 20
1886.8249605752169
 30
0.0
 11
1694.4359381630979
 21
1916.9592605752171
 31
0.0
  0
LINE
  5
7D42
  8
1
 10
1627.226438163098
 20
1834.785460575217
 30
0.0
 11
1627.226438163098
 21
1804.785460575217
 31
0.0
  0
LINE
  5
7D43
  8
1
 10
1677.226438163098
 20
1874.785460575217
 30
0.0
 11
1717.226438163098
 21
1874.785460575217
 31
0.0
  0
LINE
  5
7D44
  8
1
 10
1679.2264381630989
 20
1886.785460575217
 30
0.0
 11
1715.2264381630989
 21
1886.785460575217
 31
0.0
  0
ARC
  5
7D45
  8
1
 10
1679.2264381630989
 20
1884.785460575217
 30
0.0
 40
2.0
 50
90.0
 51
180.0
  0
LINE
  5
7D46
  8
1
 10
1677.226438163098
 20
1874.785460575217
 30
0.0
 11
1677.226438163098
 21
1884.785460575217
 31
0.0
  0
LINE
  5
7D47
  8
1
 10
1644.7264381630989
 20
1834.785460575217
 30
0.0
 11
1655.6139263219079
 21
1874.785460575217
 31
0.0
  0
ARC
  5
7D48
  8
1
 10
1715.2264381630989
 20
1884.785460575217
 30
0.0
 40
2.0
 50
0.0
 51
90.0
  0
LINE
  5
7D49
  8
1
 10
1717.226438163098
 20
1874.785460575217
 30
0.0
 11
1717.226438163098
 21
1884.785460575217
 31
0.0
  0
LINE
  5
7D4A
  8
1
 10
1703.226438163098
 20
1874.785460575217
 30
0.0
 11
1703.226438163098
 21
1886.785460575217
 31
0.0
  0
LINE
  5
7D4B
  8
1
 10
1691.2264381630989
 20
1886.785460575217
 30
0.0
 11
1691.2264381630989
 21
1874.785460575217
 31
0.0
  0
LINE
  5
7D4C
  8
1
 10
1697.2264381630989
 20
1888.165960575217
 30
0.0
 11
1697.2264381630989
 21
1870.8188605752171
 31
0.0
  0
LINE
  5
7D4D
  8
1
 10
1876.3342381630989
 20
1886.4535605752169
 30
0.0
 11
1859.9334381630979
 21
1917.1155605752169
 31
0.0
  0
LINE
  5
7D4E
  8
1
 10
1749.608738163098
 20
1877.785460575217
 30
0.0
 11
1804.4958381630991
 21
1877.785460575217
 31
0.0
  0
LINE
  5
7D50
  8
1
 10
1875.2264381630989
 20
1886.785460575217
 30
0.0
 11
1839.2264381630989
 21
1886.785460575217
 31
0.0
  0
LINE
  5
7D51
  8
1
 10
1877.226438163098
 20
1874.785460575217
 30
0.0
 11
1837.2264381630989
 21
1874.785460575217
 31
0.0
  0
LINE
  5
7D52
  8
1
 10
1830.6768381630991
 20
1889.3351605752171
 30
0.0
 11
1837.2264381630989
 21
1882.785460575217
 31
0.0
  0
LINE
  5
7D53
  8
1
 10
1837.2264381630989
 20
1874.785460575217
 30
0.0
 11
1837.2264381630989
 21
1884.785460575217
 31
0.0
  0
ARC
  5
7D54
  8
1
 10
1839.2264381630989
 20
1884.785460575217
 30
0.0
 40
2.0
 50
90.0
 51
180.0
  0
ARC
  5
7D55
  8
1
 10
1875.2264381630989
 20
1884.785460575217
 30
0.0
 40
2.0
 50
0.0
 51
90.0
  0
LINE
  5
7D56
  8
1
 10
1877.226438163098
 20
1874.785460575217
 30
0.0
 11
1877.226438163098
 21
1884.785460575217
 31
0.0
  0
LINE
  5
7D57
  8
1
 10
1863.226438163098
 20
1886.785460575217
 30
0.0
 11
1863.226438163098
 21
1874.785460575217
 31
0.0
  0
LINE
  5
7D58
  8
1
 10
1851.226438163098
 20
1874.785460575217
 30
0.0
 11
1851.226438163098
 21
1886.785460575217
 31
0.0
  0
LINE
  5
7D59
  8
1
 10
1857.2264381630989
 20
1888.165960575217
 30
0.0
 11
1857.2264381630989
 21
1870.8188605752171
 31
0.0
  0
LINE
  5
7D5A
  8
1
 10
1927.226438163098
 20
1834.785460575217
 30
0.0
 11
1927.226438163098
 21
1804.785460575217
 31
0.0
  0
LINE
  5
7D5B
  8
1
 10
1909.726438163098
 20
1834.785460575217
 30
0.0
 11
1898.838950004289
 21
1874.785460575217
 31
0.0
  0
LINE
  5
7D5C
  8
2
 10
1594.400541625804
 20
3940.9705262433481
 30
0.0
 11
844.3851570429506
 21
3940.9705262433481
 31
0.0
  0
DIMENSION
  5
7D5D
  8
3
  2
*D10
 10
716.08396302107155
 20
4135.9705262433472
 30
0.0
 11
666.08396302107087
 21
3705.9705262433481
 31
0.0
 70
     0
 13
1002.226438163098
 23
3275.9705262433481
 33
0.0
 14
1002.226438163098
 24
4135.9705262433472
 34
0.0
 50
270.0
1001
ACAD
1000
DSTYLE
1002
{
1070
   287
1070
     3
1070
    40
1040
20.0
1070
   143
1040
0.039
1070
   172
1070
     1
1070
   271
1070
     0
1070
   279
1070
     0
1070
   288
1070
     1
1002
}
  0
DIMENSION
  5
7D60
  8
3
  2
*D11
 10
1932.2264381630989
 20
4250.7209676520333
 30
0.0
 11
1682.2264381630989
 21
4300.7209676520333
 31
0.0
 70
     0
 13
1432.226438163098
 23
4135.9705262433472
 33
0.0
 14
1932.2264381630989
 24
3695.9705262433472
 34
0.0
1001
ACAD
1000
DSTYLE
1002
{
1070
   287
1070
     3
1070
    40
1040
20.0
1070
   143
1040
0.039
1070
   172
1070
     1
1070
   271
1070
     0
1070
   279
1070
     0
1070
   288
1070
     1
1002
}
  0
LINE
  5
7D61
  8
2
 10
1217.2264381630989
 20
4190.9558213990549
 30
0.0
 11
1217.2264381630989
 21
3191.022431917957
 31
0.0
  0
LINE
  5
7D62
  8
1
 10
1407.2264381630989
 20
3725.9705262433481
 30
0.0
 11
1407.2264381630989
 21
3300.9705262433481
 31
0.0
  0
LINE
  5
7D63
  8
1
 10
1432.226438163098
 20
3790.9705262433481
 30
0.0
 11
1432.226438163098
 21
3315.9705262433481
 31
0.0
  0
LINE
  5
7D64
  8
1
 10
1027.2264381630989
 20
3725.970526243349
 30
0.0
 11
1027.2264381630989
 21
3300.9705262433472
 31
0.0
  0
LINE
  5
7D65
  8
1
 10
1002.226438163098
 20
3790.9705262433481
 30
0.0
 11
1002.226438163098
 21
3275.9705262433481
 31
0.0
  0
LINE
  5
7D66
  8
1
 10
1927.226438163098
 20
3302.970526243349
 30
0.0
 11
1067.2264381630989
 21
3302.9705262433481
 31
0.0
  0
LINE
  5
7D67
  8
1
 10
1927.226438163098
 20
3180.970526243349
 30
0.0
 11
1067.2264381630989
 21
3180.9705262433481
 31
0.0
  0
LINE
  5
7D68
  8
1
 10
1677.226438163098
 20
3315.9705262433472
 30
0.0
 11
1407.2264381630989
 21
3315.9705262433481
 31
0.0
  0
LINE
  5
7D69
  8
1
 10
1280.7264381630989
 20
3260.9705262433481
 30
0.0
 11
1701.026438163098
 21
3260.970526243349
 31
0.0
  0
LINE
  5
7D6A
  8
1
 10
1701.026438163098
 20
3210.970526243349
 30
0.0
 11
1280.7264381630989
 21
3210.9705262433481
 31
0.0
  0
DIMENSION
  5
7D6B
  8
3
  2
*D12
 10
1002.226438163098
 20
3057.795372019119
 30
0.0
 11
1467.2264381630989
 21
3107.795372019119
 31
0.0
 70
     0
 13
1932.2264381630989
 23
3275.9705262433481
 33
0.0
 14
1002.226438163098
 24
3275.9705262433481
 34
0.0
1001
ACAD
1000
DSTYLE
1002
{
1070
   287
1070
     3
1070
    40
1040
20.0
1070
   143
1040
0.039
1070
   172
1070
     1
1070
   271
1070
     0
1070
   279
1070
     0
1070
   288
1070
     1
1002
}
  0
LINE
  5
7D6C
  8
1
 10
1932.2264381630989
 20
3275.9705262433481
 30
0.0
 11
1237.2264381630989
 21
3275.9705262433481
 31
0.0
  0
LINE
  5
7D6D
  8
1
 10
1932.2264381630989
 20
3695.9705262433472
 30
0.0
 11
1432.226438163098
 21
3695.9705262433481
 31
0.0
  0
LINE
  5
7D6E
  8
1
 10
1932.2264381630989
 20
3655.9705262433472
 30
0.0
 11
1432.226438163098
 21
3655.9705262433481
 31
0.0
  0
LINE
  5
7D6F
  8
1
 10
1067.2264381630989
 20
3180.9705262433481
 30
0.0
 11
1067.2264381630989
 21
3302.9705262433481
 31
0.0
  0
LINE
  5
7D70
  8
1
 10
1153.726438163098
 20
3260.9705262433481
 30
0.0
 11
1153.726438163098
 21
3210.9705262433481
 31
0.0
  0
LINE
  5
7D71
  8
1
 10
1280.7264381630989
 20
3260.9705262433481
 30
0.0
 11
1280.7264381630989
 21
3210.9705262433481
 31
0.0
  0
LINE
  5
7D72
  8
1
 10
1280.7264381630989
 20
3210.9705262433481
 30
0.0
 11
1153.726438163098
 21
3210.9705262433481
 31
0.0
  0
LINE
  5
7D76
  8
1
 10
1280.7264381630989
 20
3260.9705262433481
 30
0.0
 11
1153.726438163098
 21
3260.9705262433481
 31
0.0
  0
LINE
  5
7D7B
  8
1
 10
1197.2264381630989
 20
3275.9705262433481
 30
0.0
 11
1002.226438163098
 21
3275.9705262433481
 31
0.0
  0
LINE
  5
7D7C
  8
1
 10
1197.2264381630989
 20
3300.9705262433481
 30
0.0
 11
1027.2264381630989
 21
3300.9705262433481
 31
0.0
  0
LINE
  5
7D7D
  8
1
 10
1027.2264381630989
 20
3315.9705262433481
 30
0.0
 11
1002.226438163098
 21
3315.9705262433481
 31
0.0
  0
LINE
  5
7D81
  8
1
 10
1197.2264381630989
 20
3790.9705262433481
 30
0.0
 11
1197.2264381630989
 21
3260.9705262433481
 31
0.0
  0
LINE
  5
7D88
  8
1
 10
1407.2264381630989
 20
3300.9705262433481
 30
0.0
 11
1237.2264381630989
 21
3300.9705262433481
 31
0.0
  0
LINE
  5
7D8C
  8
1
 10
1237.226438163098
 20
3790.9705262433481
 30
0.0
 11
1237.2264381630989
 21
3260.9705262433481
 31
0.0
  0
LINE
  5
7D92
  8
1
 10
1927.226438163098
 20
3180.970526243349
 30
0.0
 11
1927.226438163098
 21
3302.970526243349
 31
0.0
  0
LINE
  5
7D93
  8
1
 10
1701.026438163098
 20
3260.9705262433481
 30
0.0
 11
1701.026438163098
 21
3210.970526243349
 31
0.0
  0
LINE
  5
7D94
  8
2
 10
1777.2264381630989
 20
3582.3012262433481
 30
0.0
 11
1777.2264381630989
 21
3205.6525262433488
 31
0.0
  0
LINE
  5
7D95
  8
1
 10
1853.426438163099
 20
3260.9705262433481
 30
0.0
 11
1853.426438163099
 21
3210.9705262433481
 31
0.0
  0
LINE
  5
7D96
  8
1
 10
1853.426438163099
 20
3210.9705262433481
 30
0.0
 11
1701.026438163098
 21
3210.970526243349
 31
0.0
  0
LINE
  5
7D97
  8
1
 10
1932.2264381630989
 20
3315.9705262433472
 30
0.0
 11
1877.226438163098
 21
3315.9705262433472
 31
0.0
  0
LINE
  5
7D98
  8
1
 10
1677.226438163098
 20
3403.9705262433481
 30
0.0
 11
1677.226438163098
 21
3576.9705262433481
 31
0.0
  0
LINE
  5
7D99
  8
1
 10
1877.226438163098
 20
3281.9705262433481
 30
0.0
 11
1877.226438163098
 21
3576.9705262433481
 31
0.0
  0
LINE
  5
7D9A
  8
1
 10
1853.426438163099
 20
3260.9705262433481
 30
0.0
 11
1701.0264381630991
 21
3260.970526243349
 31
0.0
  0
LINE
  5
7D9B
  8
1
 10
1677.226438163098
 20
3281.9705262433481
 30
0.0
 11
1877.226438163098
 21
3281.9705262433481
 31
0.0
  0
LINE
  5
7D9C
  8
1
 10
1677.226438163098
 20
3403.9705262433481
 30
0.0
 11
1677.226438163098
 21
3281.9705262433481
 31
0.0
  0
LINE
  5
7D9D
  8
1
 10
1814.2264381630989
 20
3275.9705262433481
 30
0.0
 11
1740.226438163098
 21
3275.9705262433481
 31
0.0
  0
LINE
  5
7D9E
  8
1
 10
1762.6264381630981
 20
3270.970526243349
 30
0.0
 11
1791.8263381630979
 21
3270.970526243349
 31
0.0
  0
ARC
  5
7D9F
  8
1
 10
1740.2263381630989
 20
3278.9705262433481
 30
0.0
 40
2.9998999999999989
 50
179.9987999999999
 51
270.00119999999998
  0
LINE
  5
7DA0
  8
1
 10
1762.6264381630981
 20
3275.9705262433481
 30
0.0
 11
1762.6264381630981
 21
3270.970526243349
 31
0.0
  0
LINE
  5
7DA1
  8
1
 10
1737.2264381630989
 20
3281.9705262433481
 30
0.0
 11
1737.2264381630989
 21
3278.9705262433481
 31
0.0
  0
LINE
  5
7DA2
  8
1
 10
1763.2264381630989
 20
3270.970526243349
 30
0.0
 11
1763.2264381630989
 21
3260.9705262433481
 31
0.0
  0
LINE
  5
7DA3
  8
1
 10
1791.8263381630979
 20
3275.9705262433481
 30
0.0
 11
1791.8263381630979
 21
3270.970526243349
 31
0.0
  0
LINE
  5
7DA4
  8
1
 10
1791.2264381630989
 20
3270.970526243349
 30
0.0
 11
1791.2264381630989
 21
3260.9705262433481
 31
0.0
  0
ARC
  5
7DA5
  8
1
 10
1814.2264381630989
 20
3278.9705262433481
 30
0.0
 40
2.9998999999999989
 50
269.9987999999999
 51
0.0011999999999613
  0
LINE
  5
7DA6
  8
1
 10
1817.226438163098
 20
3281.9705262433481
 30
0.0
 11
1817.226438163098
 21
3278.9705262433481
 31
0.0
  0
LINE
  5
7DA7
  8
1
 10
1877.226438163098
 20
3576.9705262433481
 30
0.0
 11
1677.226438163098
 21
3576.9705262433481
 31
0.0
  0
LINE
  5
7DA8
  8
1
 10
1719.226438163098
 20
3655.9705262433472
 30
0.0
 11
1719.226438163098
 21
3576.9705262433481
 31
0.0
  0
LINE
  5
7DA9
  8
1
 10
1679.2264381630989
 20
3655.9705262433472
 30
0.0
 11
1679.2264381630989
 21
3576.9705262433481
 31
0.0
  0
LINE
  5
7DAA
  8
1
 10
1835.226438163098
 20
3655.9705262433472
 30
0.0
 11
1835.226438163098
 21
3576.9705262433481
 31
0.0
  0
LINE
  5
7DAB
  8
1
 10
1875.2264381630989
 20
3655.9705262433472
 30
0.0
 11
1875.2264381630989
 21
3576.9705262433481
 31
0.0
  0
DIMENSION
  5
7DAC
  8
3
  2
*D13
 10
2007.570376323466
 20
3695.9705262433472
 30
0.0
 11
1957.5703763234651
 21
3485.9705262433481
 31
0.0
 70
     0
 13
1932.2264381630989
 23
3275.9705262433481
 33
0.0
 14
1932.2264381630989
 24
3695.9705262433472
 34
0.0
 50
270.0
1001
ACAD
1000
DSTYLE
1002
{
1070
   287
1070
     3
1070
    40
1040
20.0
1070
   143
1040
0.039
1070
   172
1070
     1
1070
   271
1070
     0
1070
   279
1070
     0
1070
   288
1070
     1
1002
}
  0
LINE
  5
7DAD
  8
1
 10
1932.2264381630989
 20
3315.9705262433481
 30
0.0
 11
1932.2264381630989
 21
3275.9705262433481
 31
0.0
  0
POINT
  5
7DAE
  8
1
 10
1932.2264381630989
 20
3275.9705262433481
 30
0.0
  0
POINT
  5
7DAF
  8
1
 10
1932.2264381630989
 20
3275.9705262433481
 30
0.0
  0
LINE
  5
7DB0
  8
1
 10
1932.2264381630989
 20
3695.9705262433472
 30
0.0
 11
1932.2264381630989
 21
3655.9705262433472
 31
0.0
  0
LINE
  5
7DB1
  8
1
 10
1570.4341551251141
 20
3790.9705262433481
 30
0.0
 11
915.22643816309937
 21
3790.9705262433481
 31
0.0
  0
LINE
  5
7DB2
  8
1
 10
1570.4341551251141
 20
4090.9705262433481
 30
0.0
 11
915.22643816309937
 21
4090.9705262433481
 31
0.0
  0
DIMENSION
  5
7DB3
  8
3
  2
*D14
 10
1432.226438163098
 20
4250.7209676520333
 30
0.0
 11
1217.2264381630989
 21
4300.7209676520333
 31
0.0
 70
     0
 13
1002.226438163098
 23
4135.9705262433472
 33
0.0
 14
1432.226438163098
 24
4135.9705262433472
 34
0.0
1001
ACAD
1000
DSTYLE
1002
{
1070
   287
1070
     3
1070
    40
1040
20.0
1070
   143
1040
0.039
1070
   172
1070
     1
1070
   271
1070
     0
1070
   279
1070
     0
1070
   288
1070
     1
1002
}
  0
LINE
  5
7DB4
  8
1
 10
1407.2264381630989
 20
3725.9705262433481
 30
0.0
 11
1237.226438163098
 21
3725.9705262433481
 31
0.0
  0
LINE
  5
7DB5
  8
1
 10
1392.2264381630989
 20
4133.9705262433481
 30
0.0
 11
1042.2264381630989
 21
4133.9705262433481
 31
0.0
  0
LINE
  5
7DB6
  8
1
 10
1392.2264381630989
 20
4093.970526243349
 30
0.0
 11
1042.2264381630989
 21
4093.970526243349
 31
0.0
  0
LINE
  5
7DB7
  8
1
 10
915.22643816309881
 20
3763.9705262433481
 30
0.0
 11
915.22643816309881
 21
4117.9705262433481
 31
0.0
  0
LINE
  5
7DB8
  8
1
 10
912.22643816309892
 20
3763.9705262433481
 30
0.0
 11
912.22643816309892
 21
4117.9705262433481
 31
0.0
  0
LINE
  5
7DB9
  8
1
 10
915.22643816309881
 20
3763.9705262433481
 30
0.0
 11
912.22643816309892
 21
3763.9705262433481
 31
0.0
  0
LINE
  5
7DBA
  8
1
 10
1042.2264381630989
 20
3790.9705262433481
 30
0.0
 11
1042.2264381630989
 21
3740.3426294767528
 31
0.0
  0
LINE
  5
7DBB
  8
1
 10
1042.2264381630989
 20
3748.9705262433481
 30
0.0
 11
1042.2264381630989
 21
3725.9705262433481
 31
0.0
  0
LINE
  5
7DBC
  8
1
 10
1002.226438163098
 20
4135.9705262433472
 30
0.0
 11
1002.226438163098
 21
4090.9705262433481
 31
0.0
  0
LINE
  5
7DBD
  8
1
 10
1042.2264381630989
 20
4135.9705262433472
 30
0.0
 11
1042.2264381630989
 21
4090.9705262433472
 31
0.0
  0
LINE
  5
7DBE
  8
1
 10
915.22643816309881
 20
4117.9705262433481
 30
0.0
 11
912.22643816309892
 21
4117.9705262433481
 31
0.0
  0
LINE
  5
7DBF
  8
1
 10
1042.2264381630989
 20
4135.9705262433472
 30
0.0
 11
1002.226438163098
 21
4135.9705262433472
 31
0.0
  0
POINT
  5
7DC0
  8
1
 10
1002.226438163098
 20
4135.9705262433472
 30
0.0
  0
POINT
  5
7DC1
  8
1
 10
1002.226438163098
 20
4135.9705262433472
 30
0.0
  0
LINE
  5
7DC2
  8
1
 10
1392.2264381630989
 20
3790.9705262433481
 30
0.0
 11
1392.2264381630989
 21
3733.2478887887942
 31
0.0
  0
LINE
  5
7DC3
  8
1
 10
1392.2264381630989
 20
3748.9705262433481
 30
0.0
 11
1392.2264381630989
 21
3725.9705262433481
 31
0.0
  0
LINE
  5
7DC4
  8
1
 10
1432.226438163098
 20
4135.9705262433472
 30
0.0
 11
1392.2264381630989
 21
4135.9705262433472
 31
0.0
  0
LINE
  5
7DC5
  8
1
 10
1392.2264381630989
 20
4135.9705262433472
 30
0.0
 11
1392.2264381630989
 21
4090.9705262433481
 31
0.0
  0
LINE
  5
7DC6
  8
1
 10
1432.226438163098
 20
4135.9705262433472
 30
0.0
 11
1432.226438163098
 21
4090.9705262433481
 31
0.0
  0
POINT
  5
7DC7
  8
1
 10
1432.226438163098
 20
4135.9705262433472
 30
0.0
  0
LINE
  5
7DC8
  8
1
 10
1570.4341551251141
 20
3790.9705262433481
 30
0.0
 11
1570.4341551251141
 21
4090.9705262433481
 31
0.0
  0
DIMENSION
  5
7DC9
  8
3
  2
*D15
 10
3112.6229986188441
 20
2777.8536368385171
 30
0.0
 11
3036.122998618845
 21
2857.8536368385171
 31
0.0
 70
     0
 13
2959.6229986188459
 23
2732.152686526395
 33
0.0
 14
3112.6229986188441
 24
2342.485460575218
 34
0.0
1001
ACAD
1000
DSTYLE
1002
{
1070
   288
1070
     1
1070
   172
1070
     1
1070
    40
1040
20.0
1070
   271
1070
     0
1070
   143
1040
0.039
1002
}
  0
DIMENSION
  5
7DCA
  8
3
  2
*D16
 10
2959.6229986188459
 20
2777.8536368385171
 30
0.0
 11
2579.622998618845
 21
2877.8536368385171
 31
0.0
 70
     0
  1
MAX\P830
 13
2199.6229986188441
 23
2254.7854605752168
 33
0.0
 14
2959.6229986188459
 24
2732.152686526395
 34
0.0
1001
ACAD
1000
DSTYLE
1002
{
1070
   287
1070
     3
1070
    40
1040
20.0
1070
   143
1040
0.039
1070
   172
1070
     1
1070
   271
1070
     0
1070
   279
1070
     0
1070
   288
1070
     1
1002
}
  0
LINE
  5
7DCB
  8
1
 10
2294.6229986188441
 20
1804.785460575217
 30
0.0
 11
2294.6229986188441
 21
1729.785460575217
 31
0.0
  0
LINE
  5
7DCC
  8
2
 10
2959.6229986188459
 20
2648.0927433567958
 30
0.0
 11
2959.6229986188459
 21
1525.3456911390999
 31
0.0
  0
LINE
  5
7DCD
  8
1
 10
3154.6229986188459
 20
1804.785460575217
 30
0.0
 11
3154.6229986188459
 21
1729.785460575217
 31
0.0
  0
DIMENSION
  5
7DCE
  8
3
  2
*D17
 10
2959.6229986188459
 20
1422.3526470698371
 30
0.0
 11
2627.122998618845
 21
1472.3526470698371
 31
0.0
 70
     0
 13
2294.6229986188441
 23
1559.785460575217
 33
0.0
 14
2959.6229986188459
 24
1525.3456911390999
 34
0.0
1001
ACAD
1000
DSTYLE
1002
{
1070
   287
1070
     3
1070
    40
1040
20.0
1070
   143
1040
0.039
1070
   172
1070
     1
1070
   271
1070
     0
1070
   279
1070
     0
1070
   288
1070
     1
1002
}
  0
LINE
  5
7DCF
  8
1
 10
2294.6229986188441
 20
1634.785460575217
 30
0.0
 11
3154.6229986188459
 21
1634.785460575217
 31
0.0
  0
LINE
  5
7DD0
  8
1
 10
2294.6229986188441
 20
1559.785460575217
 30
0.0
 11
3154.6229986188459
 21
1559.785460575217
 31
0.0
  0
LINE
  5
7DD1
  8
1
 10
2294.6229986188441
 20
1729.785460575217
 30
0.0
 11
3154.6229986188459
 21
1729.785460575217
 31
0.0
  0
LINE
  5
7DD2
  8
1
 10
2334.6229986188441
 20
1729.785460575217
 30
0.0
 11
3154.6229986188459
 21
1729.785460575217
 31
0.0
  0
LINE
  5
7DD3
  8
1
 10
2294.6229986188441
 20
1634.785460575217
 30
0.0
 11
2294.6229986188441
 21
1559.785460575217
 31
0.0
  0
DIMENSION
  5
7DD4
  8
3
  2
*D18
 10
3154.6229986188459
 20
1422.3526470698371
 30
0.0
 11
3057.122998618845
 21
1480.047354612537
 31
0.0
 12
0.0
 22
-59.0
 32
0.0
 70
   128
 13
2959.6229986188459
 23
1525.3456911390999
 33
0.0
 14
3154.6229986188459
 24
1559.785460575217
 34
0.0
1001
ACAD
1000
DSTYLE
1002
{
1070
   288
1070
     1
1070
   172
1070
     1
1070
    40
1040
20.0
1070
   271
1070
     0
1070
   143
1040
0.039
1002
}
  0
LINE
  5
7DD5
  8
1
 10
3154.6229986188459
 20
1634.785460575217
 30
0.0
 11
3154.6229986188459
 21
1559.785460575217
 31
0.0
  0
LINE
  5
7DD6
  8
1
 10
2279.6229986188441
 20
2084.7854605752168
 30
0.0
 11
2809.6229986188441
 21
2084.7854605752168
 31
0.0
  0
LINE
  5
7DD7
  8
1
 10
2279.6229986188441
 20
2124.7854605752168
 30
0.0
 11
2782.6229986188441
 21
2124.7854605752168
 31
0.0
  0
LINE
  5
7DD8
  8
2
 10
2216.1497355343022
 20
2104.7854605752168
 30
0.0
 11
3164.5214963029689
 21
2104.7854605752168
 31
0.0
  0
POLYLINE
  5
7DD9
  8
1
 66
     1
 10
0.0
 20
0.0
 30
0.0
 70
     1
  0
VERTEX
  5
83DC
  8
1
 10
2734.6229986188441
 20
2006.385460575216
 30
0.0
  0
VERTEX
  5
83DD
  8
1
 10
2774.6229986188441
 20
2006.385460575216
 30
0.0
  0
VERTEX
  5
83DE
  8
1
 10
2774.6229986188441
 20
2008.3854605752169
 30
0.0
 42
0.4142135623730951
  0
VERTEX
  5
83DF
  8
1
 10
2771.6229986188441
 20
2011.3854605752169
 30
0.0
  0
VERTEX
  5
83E0
  8
1
 10
2744.1229986188441
 20
2011.3854605752169
 30
0.0
 42
-0.4142135623730951
  0
VERTEX
  5
83E1
  8
1
 10
2739.6229986188441
 20
2015.8854605752169
 30
0.0
  0
VERTEX
  5
83E2
  8
1
 10
2739.6229986188441
 20
2043.3854605752169
 30
0.0
 42
0.4142135623730951
  0
VERTEX
  5
83E3
  8
1
 10
2736.6229986188441
 20
2046.3854605752169
 30
0.0
  0
VERTEX
  5
83E4
  8
1
 10
2734.6229986188441
 20
2046.3854605752169
 30
0.0
  0
SEQEND
  5
83E5
  8
1
  0
LINE
  5
7DE4
  8
1
 10
2294.6229986188441
 20
1804.785460575217
 30
0.0
 11
3154.6229986188459
 21
1804.785460575217
 31
0.0
  0
LINE
  5
7DE5
  8
2
 10
2600.953698618845
 20
1974.785460575217
 30
0.0
 11
2224.3049986188439
 21
1974.785460575217
 31
0.0
  0
LINE
  5
7DE6
  8
1
 10
2422.6229986188441
 20
2074.7854605752168
 30
0.0
 11
2595.6229986188441
 21
2074.7854605752168
 31
0.0
  0
LINE
  5
7DE7
  8
1
 10
2300.6229986188441
 20
1874.785460575217
 30
0.0
 11
2595.6229986188441
 21
1874.785460575217
 31
0.0
  0
LINE
  5
7DEA
  8
1
 10
2300.6229986188441
 20
2074.7854605752168
 30
0.0
 11
2300.6229986188441
 21
1874.785460575217
 31
0.0
  0
LINE
  5
7DEB
  8
1
 10
2199.6229986188441
 20
2254.7854605752168
 30
0.0
 11
2199.6229986188441
 21
1824.785460575217
 31
0.0
  0
LINE
  5
7DEC
  8
1
 10
2279.6229986188441
 20
2168.2854605752168
 30
0.0
 11
2279.6229986188441
 21
1898.585460575217
 31
0.0
  0
LINE
  5
7DED
  8
1
 10
2229.6229986188441
 20
2168.2854605752168
 30
0.0
 11
2229.6229986188441
 21
1898.585460575217
 31
0.0
  0
LINE
  5
7DEF
  8
1
 10
2199.6229986188441
 20
1824.785460575217
 30
0.0
 11
2321.6229986188441
 21
1824.785460575217
 31
0.0
  0
LINE
  5
7DF0
  8
1
 10
2229.6229986188441
 20
1898.585460575217
 30
0.0
 11
2279.6229986188441
 21
1898.585460575217
 31
0.0
  0
LINE
  5
7DF2
  8
1
 10
2321.6229986188441
 20
1845.3289347890041
 30
0.0
 11
2321.6229986188441
 21
1824.785460575217
 31
0.0
  0
LINE
  5
7DF3
  8
1
 10
2332.8229986188448
 20
1874.785460575217
 30
0.0
 11
2332.8229986188448
 21
1804.785460575217
 31
0.0
  0
LINE
  5
7DF5
  8
1
 10
2294.6229986188441
 20
1937.785460575217
 30
0.0
 11
2294.6229986188441
 21
2011.785460575217
 31
0.0
  0
ARC
  5
7DF6
  8
1
 10
2297.6229986188441
 20
1937.785460575217
 30
0.0
 40
2.9998999999999989
 50
179.9987999999999
 51
270.00119999999998
  0
LINE
  5
7DF7
  8
1
 10
2300.6229986188441
 20
1934.785460575217
 30
0.0
 11
2297.6229986188441
 21
1934.785460575217
 31
0.0
  0
LINE
  5
7DF8
  8
1
 10
2289.6229986188441
 20
1989.3854605752169
 30
0.0
 11
2289.6229986188441
 21
1960.1855605752171
 31
0.0
  0
LINE
  5
7DF9
  8
1
 10
2294.6229986188441
 20
1989.3854605752169
 30
0.0
 11
2289.6229986188441
 21
1989.3854605752169
 31
0.0
  0
LINE
  5
7DFA
  8
1
 10
2294.6229986188441
 20
1960.1855605752171
 30
0.0
 11
2289.6229986188441
 21
1960.1855605752171
 31
0.0
  0
ARC
  5
7DFB
  8
1
 10
2297.6229986188441
 20
2011.785560575217
 30
0.0
 40
2.9998999999999989
 50
89.998799999999989
 51
180.0011999999999
  0
LINE
  5
7DFC
  8
1
 10
2300.6229986188441
 20
2014.785460575217
 30
0.0
 11
2297.6229986188441
 21
2014.785460575217
 31
0.0
  0
LINE
  5
7DFD
  8
1
 10
2289.6229986188441
 20
1988.785460575217
 30
0.0
 11
2279.6229986188441
 21
1988.785460575217
 31
0.0
  0
LINE
  5
7DFE
  8
1
 10
2289.6229986188441
 20
1960.785460575217
 30
0.0
 11
2279.6229986188441
 21
1960.785460575217
 31
0.0
  0
LINE
  5
7DFF
  8
1
 10
2279.6229986188441
 20
2050.9854605752171
 30
0.0
 11
2229.6229986188441
 21
2050.9854605752171
 31
0.0
  0
LINE
  5
7E00
  8
1
 10
2199.6229986188441
 20
2254.7854605752168
 30
0.0
 11
2321.6229986188441
 21
2254.7854605752168
 31
0.0
  0
LINE
  5
7E01
  8
1
 10
2229.6229986188441
 20
2041.285460575217
 30
0.0
 11
2279.6229986188441
 21
2041.285460575217
 31
0.0
  0
LINE
  5
7E02
  8
1
 10
2229.6229986188441
 20
2168.2854605752168
 30
0.0
 11
2279.6229986188441
 21
2168.2854605752168
 31
0.0
  0
LINE
  5
7E03
  8
1
 10
2321.6229986188441
 20
2254.7854605752168
 30
0.0
 11
2321.6229986188441
 21
2214.3834626203202
 31
0.0
  0
LINE
  5
7E06
  8
1
 10
2422.6229986188441
 20
2074.7854605752168
 30
0.0
 11
2300.6229986188441
 21
2074.7854605752168
 31
0.0
  0
LINE
  5
7E18
  8
1
 10
2595.6229986188441
 20
1874.785460575217
 30
0.0
 11
2595.6229986188441
 21
2074.7854605752168
 31
0.0
  0
LINE
  5
7E19
  8
1
 10
2734.6229986188441
 20
2046.3854605752169
 30
0.0
 11
2734.6229986188441
 21
1804.785460575217
 31
0.0
  0
LINE
  5
7E20
  8
1
 10
2595.6229986188441
 20
2046.3854605752169
 30
0.0
 11
2744.6229986188441
 21
2046.3854605752169
 31
0.0
  0
LINE
  5
7E21
  8
1
 10
2595.6229986188441
 20
2049.585460575217
 30
0.0
 11
2744.6229986188441
 21
2049.585460575217
 31
0.0
  0
DIMENSION
  5
7E38
  8
3
  2
*D19
 10
3254.8404767488059
 20
1904.785460575217
 30
0.0
 11
3204.8404767488059
 21
2104.7854605752182
 31
0.0
 70
     0
 13
3137.6229986188441
 23
2304.7854605752168
 33
0.0
 14
3137.6229986188441
 24
1904.785460575217
 34
0.0
 50
90.0
1001
ACAD
1000
DSTYLE
1002
{
1070
   287
1070
     3
1070
     3
1000
φ<>
1070
    40
1040
20.0
1070
   143
1040
0.039
1070
   172
1070
     1
1070
   271
1070
     0
1070
   279
1070
     0
1070
   288
1070
     1
1002
}
  0
LINE
  5
7E39
  8
1
 10
2782.6229986188441
 20
2555.7854605752168
 30
0.0
 11
2782.6229986188441
 21
2089.7854605752168
 31
0.0
  0
LINE
  5
7E3A
  8
1
 10
3137.6229986188441
 20
2304.7854605752168
 30
0.0
 11
3137.6229986188441
 21
1904.785460575217
 31
0.0
  0
LINE
  5
7E3B
  8
1
 10
3112.6229986188441
 20
2342.4854605752171
 30
0.0
 11
3112.6229986188441
 21
2114.7854605752168
 31
0.0
  0
LINE
  5
7E3E
  8
1
 10
3109.6229986188459
 20
2530.7854605752168
 30
0.0
 11
3109.6229986188459
 21
2114.7854605752168
 31
0.0
  0
LINE
  5
7E3F
  8
1
 10
2809.6229986188441
 20
2530.7854605752168
 30
0.0
 11
2809.6229986188441
 21
2114.7854605752168
 31
0.0
  0
LINE
  5
7E40
  8
1
 10
2809.6229986188441
 20
1821.5777436132009
 30
0.0
 11
3109.6229986188459
 21
1821.5777436132009
 31
0.0
  0
LINE
  5
7E41
  8
1
 10
2809.6229986188441
 20
2140.7996967415679
 30
0.0
 11
2809.6229986188441
 21
1821.5777436132009
 31
0.0
  0
POLYLINE
  5
7E43
  8
1
 66
     1
 10
0.0
 20
0.0
 30
0.0
 70
     1
  0
VERTEX
  5
83EF
  8
1
 10
2807.6229986188441
 20
1804.785460575217
 30
0.0
  0
VERTEX
  5
83F0
  8
1
 10
2767.6229986188441
 20
1804.785460575217
 30
0.0
  0
VERTEX
  5
83F1
  8
1
 10
2767.6229986188441
 20
1806.785460575217
 30
0.0
 42
-0.4142135623730951
  0
VERTEX
  5
83F2
  8
1
 10
2770.6229986188441
 20
1809.785460575217
 30
0.0
  0
VERTEX
  5
83F3
  8
1
 10
2798.1229986188441
 20
1809.785460575217
 30
0.0
 42
0.4142135623730951
  0
VERTEX
  5
83F4
  8
1
 10
2802.6229986188441
 20
1814.285460575217
 30
0.0
  0
VERTEX
  5
83F5
  8
1
 10
2802.6229986188441
 20
1841.785460575217
 30
0.0
 42
-0.4142135623730951
  0
VERTEX
  5
83F6
  8
1
 10
2805.6229986188441
 20
1844.785460575217
 30
0.0
  0
VERTEX
  5
83F7
  8
1
 10
2807.6229986188441
 20
1844.785460575217
 30
0.0
  0
SEQEND
  5
83F8
  8
1
  0
LINE
  5
7E4F
  8
1
 10
2757.6229986188441
 20
2001.8854605752169
 30
0.0
 11
2809.6229986188441
 21
2001.8854605752169
 31
0.0
  0
LINE
  5
7E50
  8
1
 10
2757.6229986188441
 20
2006.3854605752169
 30
0.0
 11
2809.6229986188441
 21
2006.3854605752169
 31
0.0
  0
LINE
  5
7E51
  8
1
 10
2757.6229986188441
 20
2006.3854605752169
 30
0.0
 11
2757.6229986188441
 21
2001.8854605752169
 31
0.0
  0
LINE
  5
7E52
  8
1
 10
2782.6229986188441
 20
2089.7854605752168
 30
0.0
 11
2809.6229986188441
 21
2089.7854605752168
 31
0.0
  0
LINE
  5
7E53
  8
1
 10
2809.6229986188441
 20
2116.7854605752168
 30
0.0
 11
2809.6229986188441
 21
2114.7854605752168
 31
0.0
  0
LINE
  5
7E54
  8
1
 10
3112.6229986188441
 20
2118.3800511261211
 30
0.0
 11
3112.6229986188441
 21
1847.085460575217
 31
0.0
  0
LINE
  5
7E56
  8
1
 10
3109.6229986188459
 20
2119.9862109861442
 30
0.0
 11
3109.6229986188459
 21
1821.5777436132009
 31
0.0
  0
POLYLINE
  5
7E57
  8
1
 66
     1
 10
0.0
 20
0.0
 30
0.0
 70
     1
  0
VERTEX
  5
83F9
  8
1
 10
3112.6229986188441
 20
1904.785460575217
 30
0.0
  0
VERTEX
  5
83FA
  8
1
 10
3137.6229986188441
 20
1904.785460575217
 30
0.0
  0
VERTEX
  5
83FB
  8
1
 10
3137.6229986188441
 20
1903.785460575217
 30
0.0
 42
-0.4142135623730951
  0
VERTEX
  5
83FC
  8
1
 10
3135.6229986188441
 20
1901.785460575217
 30
0.0
  0
VERTEX
  5
83FD
  8
1
 10
3119.6229986188441
 20
1901.785460575217
 30
0.0
 42
0.4142135623730951
  0
VERTEX
  5
83FE
  8
1
 10
3115.6229986188441
 20
1897.785460575217
 30
0.0
  0
VERTEX
  5
83FF
  8
1
 10
3115.6229986188441
 20
1881.785460575217
 30
0.0
 42
-0.4142135623730951
  0
VERTEX
  5
8400
  8
1
 10
3113.6229986188441
 20
1879.785460575217
 30
0.0
  0
VERTEX
  5
8401
  8
1
 10
3112.6229986188441
 20
1879.785460575217
 30
0.0
  0
SEQEND
  5
8402
  8
1
  0
POLYLINE
  5
7E62
  8
1
 66
     1
 10
0.0
 20
0.0
 30
0.0
  0
VERTEX
  5
8403
  8
1
 10
3116.622998618845
 20
1826.785460575217
 30
0.0
  0
VERTEX
  5
8404
  8
1
 10
3116.622998618845
 20
1841.785460575217
 30
0.0
 42
0.4142135623730951
  0
VERTEX
  5
8405
  8
1
 10
3113.6229986188459
 20
1844.785460575217
 30
0.0
  0
VERTEX
  5
8406
  8
1
 10
3111.6229986188459
 20
1844.785460575217
 30
0.0
  0
VERTEX
  5
8407
  8
1
 10
3111.6229986188459
 20
1826.785460575217
 30
0.0
  0
SEQEND
  5
8408
  8
1
  0
POLYLINE
  5
7E69
  8
1
 66
     1
 10
0.0
 20
0.0
 30
0.0
  0
VERTEX
  5
8409
  8
1
 10
3111.6229986188459
 20
1804.785460575217
 30
0.0
  0
VERTEX
  5
840A
  8
1
 10
3151.622998618845
 20
1804.785460575217
 30
0.0
  0
VERTEX
  5
840B
  8
1
 10
3151.622998618845
 20
1806.785460575217
 30
0.0
 42
0.4142135623730951
  0
VERTEX
  5
840C
  8
1
 10
3148.622998618845
 20
1809.785460575217
 30
0.0
  0
VERTEX
  5
840D
  8
1
 10
3121.1229986188459
 20
1809.785460575217
 30
0.0
 42
-0.4142135623730951
  0
VERTEX
  5
840E
  8
1
 10
3116.622998618845
 20
1814.285460575217
 30
0.0
  0
VERTEX
  5
840F
  8
1
 10
3116.622998618845
 20
1826.785460575217
 30
0.0
 42
0.4142135623730951
  0
SEQEND
  5
8410
  8
1
  0
POLYLINE
  5
7E72
  8
1
 66
     1
 10
0.0
 20
0.0
 30
0.0
  0
VERTEX
  5
8411
  8
1
 10
3111.6229986188459
 20
1831.785460575217
 30
0.0
  0
VERTEX
  5
8412
  8
1
 10
3111.6229986188459
 20
1804.785460575217
 30
0.0
  0
SEQEND
  5
8413
  8
1
  0
LINE
  5
7E77
  8
1
 10
3112.622998618845
 20
1847.085460575217
 30
0.0
 11
3109.6229986188459
 21
1847.0854605752179
 31
0.0
  0
LINE
  5
7E78
  8
1
 10
3112.6229986188441
 20
1904.785460575217
 30
0.0
 11
3137.6229986188441
 21
1904.785460575217
 31
0.0
  0
DIMENSION
  5
7E79
  8
3
  2
*D20
 10
3109.6229986188459
 20
2638.3303606829918
 30
0.0
 11
2959.622998618845
 21
2688.3303606829918
 31
0.0
 70
     0
 13
2809.6229986188441
 23
2530.7854605752168
 33
0.0
 14
3109.6229986188459
 24
2530.7854605752168
 34
0.0
1001
ACAD
1000
DSTYLE
1002
{
1070
   287
1070
     3
1070
    40
1040
20.0
1070
   143
1040
0.039
1070
   172
1070
     1
1070
   271
1070
     0
1070
   279
1070
     0
1070
   288
1070
     1
1002
}
  0
LINE
  5
7E7A
  8
1
 10
2809.622998618845
 20
2530.7854605752168
 30
0.0
 11
3109.6229986188459
 21
2530.7854605752168
 31
0.0
  0
LINE
  5
7E7B
  8
1
 10
2782.6229986188441
 20
2555.7854605752168
 30
0.0
 11
3136.6229986188459
 21
2555.7854605752168
 31
0.0
  0
LINE
  5
7E7C
  8
1
 10
3136.6229986188459
 20
2555.7854605752168
 30
0.0
 11
3136.6229986188459
 21
2307.517511382785
 31
0.0
  0
POLYLINE
  5
7E7D
  8
1
 66
     1
 10
0.0
 20
0.0
 30
0.0
 70
     1
  0
VERTEX
  5
841D
  8
1
 10
3112.6229986188441
 20
2304.7854605752168
 30
0.0
  0
VERTEX
  5
841E
  8
1
 10
3137.6229986188441
 20
2304.7854605752168
 30
0.0
  0
VERTEX
  5
841F
  8
1
 10
3137.6229986188441
 20
2305.7854605752168
 30
0.0
 42
0.4142135623730951
  0
VERTEX
  5
8420
  8
1
 10
3135.6229986188441
 20
2307.7854605752168
 30
0.0
  0
VERTEX
  5
8421
  8
1
 10
3119.6229986188441
 20
2307.7854605752168
 30
0.0
 42
-0.4142135623730951
  0
VERTEX
  5
8422
  8
1
 10
3115.6229986188441
 20
2311.7854605752168
 30
0.0
  0
VERTEX
  5
8423
  8
1
 10
3115.6229986188441
 20
2327.7854605752168
 30
0.0
 42
0.4142135623730951
  0
VERTEX
  5
8424
  8
1
 10
3113.6229986188441
 20
2329.7854605752168
 30
0.0
  0
VERTEX
  5
8425
  8
1
 10
3112.6229986188441
 20
2329.7854605752168
 30
0.0
  0
SEQEND
  5
8426
  8
1
  0
LINE
  5
7E88
  8
1
 10
3112.6229986188441
 20
2304.7854605752168
 30
0.0
 11
3137.6229986188441
 21
2304.7854605752168
 31
0.0
  0
LINE
  5
7E89
  8
1
 10
3137.6229986188441
 20
2304.7854605752168
 30
0.0
 11
3136.022998618846
 21
2304.7854605752168
 31
0.0
  0
LINE
  5
7E8A
  8
1
 10
3112.622998618845
 20
2342.485460575218
 30
0.0
 11
3109.6229986188459
 21
2342.485460575218
 31
0.0
  0
LINE
  5
8197
  8
4
 10
3700.0
 20
1000.0
 30
0.0
 11
3700.0
 21
600.0
 31
0.0
  0
LINE
  5
8198
  8
4
 10
2300.0
 20
1000.0
 30
0.0
 11
2300.0
 21
600.0
 31
0.0
  0
LINE
  5
8199
  8
4
 10
1300.0
 20
1000.0
 30
0.0
 11
1300.0
 21
600.0
 31
0.0
  0
LINE
  5
819C
  8
4
 10
1300.0
 20
600.0
 30
0.0
 11
3700.0
 21
600.0
 31
0.0
  0
LINE
  5
819D
  8
4
 10
1300.0
 20
800.0
 30
0.0
 11
3700.0
 21
800.0
 31
0.0
  0
TEXT
  5
819E
  8
4
 10
1377.0041616938031
 20
863.08605173322564
 30
0.0
 40
100.0
  1
機器名称
  0
TEXT
  5
819F
  8
4
 10
1372.516212049595
 20
643.29031346402189
 30
0.0
 40
100.0
  1
機器型番
  0
TEXT
  5
81A0
  8
4
 10
2299.8546179137529
 20
845.45519073107846
 30
0.0
 40
90.0
  1
ミツヤ多翼送風機
  0
TEXT
  5
81A1
  8
4
 10
2373.3089911709608
 20
634.31916855988675
 30
0.0
 40
100.0
  1
MF#2 1/2-1
  0
TEXT
  5
81A3
  8
4
 10
1582.5030484153281
 20
4766.8576826650306
 30
0.0
 40
107.9999999999999
  1
床置防振ベット
  0
TEXT
  5
81A4
  8
4
 10
632.33518665889278
 20
5067.7619523985959
 30
0.0
 40
144.0
  1
遠心式片吸込片持多翼ファン
  0
LINE
  5
81A5
  8
4
 10
500.0
 20
4938.8175085296089
 30
0.0
 11
3700.0
 21
4938.8175085296089
 31
0.0
  0
LINE
  5
81A6
  8
4
 10
500.0
 20
5338.8175085296098
 30
0.0
 11
3700.0
 21
5338.8175085296098
 31
0.0
  0
LINE
  5
81A7
  8
4
 10
1300.0
 20
1000.0
 30
0.0
 11
3700.0
 21
1000.0
 31
0.0
  0
LINE
  5
81A8
  8
4
 10
500.0
 20
5338.8175085296098
 30
0.0
 11
500.0
 21
4938.8175085296089
 31
0.0
  0
TEXT
  5
81A9
  8
4
 10
710.78538392992414
 20
4764.638955092687
 30
0.0
 40
107.9999999999999
  1
左回転左横向
  0
TEXT
  5
81AA
  8
4
 10
2937.9391184985789
 20
5412.1221629906177
 30
0.0
 40
112.0
  1
No.
  0
TEXT
  5
81AB
  8
4
 10
2622.5921252000262
 20
4766.8576826650306
 30
0.0
 40
107.9999999999999
  1
縮尺：1/20
  0
LINE
  5
81AC
  8
4
 10
3700.0
 20
5338.8175085296098
 30
0.0
 11
3700.0
 21
4938.8175085296089
 31
0.0
  0
LINE
  5
81AD
  8
4
 10
4200.0
 20
5900.0
 30
0.0
 11
4200.0
 21
5900.0
 31
0.0
  0
LINE
  5
81AE
  8
4
 10
2881.2348447197292
 20
5362.5271662508021
 30
0.0
 11
2881.2348447197292
 21
5573.3045230995049
 31
0.0
  0
LINE
  5
81AF
  8
4
 10
2881.2348447197292
 20
5573.3045230995049
 30
0.0
 11
3700.0
 21
5573.3045230995049
 31
0.0
  0
LINE
  5
81B0
  8
4
 10
3700.0
 20
5573.3045230995049
 30
0.0
 11
3700.0
 21
5362.5271662508021
 31
0.0
  0
LINE
  5
81B1
  8
4
 10
3700.0
 20
5362.5271662508021
 30
0.0
 11
2881.2348447197292
 21
5362.5271662508021
 31
0.0
  0
LINE
  5
81B2
  8
4
 10
0.0
 20
0.0
 30
0.0
 11
0.0
 21
5900.0
 31
0.0
  0
LINE
  5
81B3
  8
4
 10
0.0
 20
5900.0
 30
0.0
 11
4200.0
 21
5900.0
 31
0.0
  0
LINE
  5
81B4
  8
4
 10
4200.0
 20
5900.0
 30
0.0
 11
4200.0
 21
0.0
 31
0.0
  0
LINE
  5
81B5
  8
4
 10
4200.0
 20
0.0
 30
0.0
 11
0.0
 21
0.0
 31
0.0
  0
DIMENSION
  5
827A
  8
3
  2
*D22
 10
521.49364207084739
 20
1559.785460575217
 30
0.0
 11
521.49364207084727
 21
2030.410074866759
 31
0.0
 70
   128
 13
912.22643816309892
 23
2565.780277887789
 33
0.0
 14
1002.226438163098
 24
1559.785460575217
 34
0.0
 50
90.0
1001
ACAD
1000
DSTYLE
1002
{
1070
   287
1070
     3
1070
    40
1040
20.0
1070
   143
1040
0.039
1070
   172
1070
     1
1070
   271
1070
     0
1070
   279
1070
     0
1070
   288
1070
     1
1002
}
  0
LINE
  5
8299
  8
1
 10
915.22643816309881
 20
2535.7854605752168
 30
0.0
 11
915.22643816309881
 21
2551.2261826728682
 31
0.0
  0
LINE
  5
82AE
  8
1
 10
1197.2264381630989
 20
3725.9705262433481
 30
0.0
 11
1027.2264381630989
 21
3725.970526243349
 31
0.0
  0
DIMENSION
  5
82EF
  8
3
  2
*D23
 10
695.26787127014848
 20
1634.785460575217
 30
0.0
 11
599.55358555586281
 21
1682.285460575217
 31
0.0
 12
116.46691788704631
 22
0.0
 32
0.0
 70
     0
  1
(<>)
 13
1002.226438163098
 23
1729.785460575217
 33
0.0
 14
1002.226438163098
 24
1634.785460575217
 34
0.0
 50
90.0
1001
ACAD
1000
DSTYLE
1002
{
1070
   288
1070
     1
1070
   172
1070
     1
1070
    75
1070
     1
1070
    40
1040
20.0
1070
   271
1070
     0
1070
     7
1000
_DOT
1070
   143
1040
0.039
1002
}
  0
ENDSEC
  0
EOF
