  0
SECTION
  2
HEADER
  9
$ACADVER
  1
AC1009
  9
$INSBASE
 10
0.0
 20
0.0
 30
0.0
  9
$EXTMIN
 10
0.0
 20
0.0
 30
0.0
  9
$EXTMAX
 10
4200.0
 20
5900.0
 30
0.0
  9
$LIMMIN
 10
0.0
 20
0.0
  9
$LIMMAX
 10
297.0
 20
210.0
  9
$ORTHOMODE
 70
     0
  9
$REGENMODE
 70
     1
  9
$FILLMODE
 70
     0
  9
$QTEXTMODE
 70
     0
  9
$MIRRTEXT
 70
     1
  9
$DRAGMODE
 70
     2
  9
$LTSCALE
 40
100.0
  9
$OSMODE
 70
    37
  9
$ATTMODE
 70
     1
  9
$TEXTSIZE
 40
180.0
  9
$TRACEWID
 40
0.05
  9
$TEXTSTYLE
  7
STANDARD
  9
$CLAYER
  8
3
  9
$CELTYPE
  6
BYLAYER
  9
$CECOLOR
 62
   256
  9
$DIMSCALE
 40
20.0
  9
$DIMASZ
 40
2.0
  9
$DIMEXO
 40
0.5
  9
$DIMDLI
 40
10.0
  9
$DIMRND
 40
0.0
  9
$DIMDLE
 40
0.0
  9
$DIMEXE
 40
1.0
  9
$DIMTP
 40
1.0
  9
$DIMTM
 40
1.0
  9
$DIMTXT
 40
3.0
  9
$DIMCEN
 40
0.0
  9
$DIMTSZ
 40
0.0
  9
$DIMTOL
 70
     0
  9
$DIMLIM
 70
     0
  9
$DIMTIH
 70
     0
  9
$DIMTOH
 70
     0
  9
$DIMSE1
 70
     0
  9
$DIMSE2
 70
     0
  9
$DIMTAD
 70
     1
  9
$DIMZIN
 70
     8
  9
$DIMBLK
  1

  9
$DIMASO
 70
     1
  9
$DIMSHO
 70
     1
  9
$DIMPOST
  1

  9
$DIMAPOST
  1

  9
$DIMALT
 70
     0
  9
$DIMALTD
 70
     2
  9
$DIMALTF
 40
0.039
  9
$DIMLFAC
 40
1.0
  9
$DIMTOFL
 70
     1
  9
$DIMTVP
 40
0.0
  9
$DIMTIX
 70
     0
  9
$DIMSOXD
 70
     0
  9
$DIMSAH
 70
     1
  9
$DIMBLK1
  1
OPEN
  9
$DIMBLK2
  1
OPEN
  9
$DIMSTYLE
  2
IGA
  9
$DIMCLRD
 70
     0
  9
$DIMCLRE
 70
     0
  9
$DIMCLRT
 70
     0
  9
$DIMTFAC
 40
10.0
  9
$DIMGAP
 40
1.0
  9
$LUNITS
 70
     2
  9
$LUPREC
 70
     3
  9
$SKETCHINC
 40
0.1
  9
$FILLETRAD
 40
50.0
  9
$AUNITS
 70
     0
  9
$AUPREC
 70
     0
  9
$MENU
  1
acad
  9
$ELEVATION
 40
0.0
  9
$PELEVATION
 40
0.0
  9
$THICKNESS
 40
0.0
  9
$LIMCHECK
 70
     0
  9
$BLIPMODE
 70
     0
  9
$CHAMFERA
 40
0.5
  9
$CHAMFERB
 40
0.5
  9
$SKPOLY
 70
     0
  9
$TDCREATE
 40
2451019.6041708328
  9
$TDUPDATE
 40
2454953.7535203239
  9
$TDINDWG
 40
0.0080725926
  9
$TDUSRTIMER
 40
0.0080725926
  9
$USRTIMER
 70
     1
  9
$ANGBASE
 50
0.0
  9
$ANGDIR
 70
     0
  9
$PDMODE
 70
     0
  9
$PDSIZE
 40
0.0
  9
$PLINEWID
 40
0.0
  9
$COORDS
 70
     1
  9
$SPLFRAME
 70
     0
  9
$SPLINETYPE
 70
     6
  9
$SPLINESEGS
 70
     8
  9
$ATTDIA
 70
     0
  9
$ATTREQ
 70
     1
  9
$HANDLING
 70
 10241
  9
$HANDSEED
  5
8355
  9
$SURFTAB1
 70
     6
  9
$SURFTAB2
 70
     6
  9
$SURFTYPE
 70
     6
  9
$SURFU
 70
     6
  9
$SURFV
 70
     6
  9
$UCSNAME
  2

  9
$UCSORG
 10
0.0
 20
0.0
 30
0.0
  9
$UCSXDIR
 10
1.0
 20
0.0
 30
0.0
  9
$UCSYDIR
 10
0.0
 20
1.0
 30
0.0
  9
$PUCSNAME
  2

  9
$PUCSORG
 10
0.0
 20
0.0
 30
0.0
  9
$PUCSXDIR
 10
1.0
 20
0.0
 30
0.0
  9
$PUCSYDIR
 10
0.0
 20
1.0
 30
0.0
  9
$USERI1
 70
     0
  9
$USERI2
 70
     0
  9
$USERI3
 70
     0
  9
$USERI4
 70
     0
  9
$USERI5
 70
     0
  9
$USERR1
 40
0.0
  9
$USERR2
 40
0.0
  9
$USERR3
 40
0.0
  9
$USERR4
 40
0.0
  9
$USERR5
 40
0.0
  9
$WORLDVIEW
 70
     1
  9
$SHADEDGE
 70
     3
  9
$SHADEDIF
 70
    70
  9
$TILEMODE
 70
     1
  9
$MAXACTVP
 70
    16
  9
$PLIMCHECK
 70
     0
  9
$PEXTMIN
 10
1.0000000000000000E+020
 20
1.0000000000000000E+020
 30
1.0000000000000000E+020
  9
$PEXTMAX
 10
-1.0000000000000000E+020
 20
-1.0000000000000000E+020
 30
-1.0000000000000000E+020
  9
$PLIMMIN
 10
0.0
 20
0.0
  9
$PLIMMAX
 10
12.0
 20
9.0
  9
$UNITMODE
 70
     0
  9
$VISRETAIN
 70
     0
  9
$PLINEGEN
 70
     0
  9
$PSLTSCALE
 70
     1
  0
ENDSEC
  0
SECTION
  2
TABLES
  0
TABLE
  2
VPORT
 70
     2
  0
VPORT
  2
*ACTIVE
 70
     0
 10
0.0
 20
0.0
 11
1.0
 21
1.0
 12
7073.2199177027342
 22
2950.0000137370062
 13
0.0
 23
0.0
 14
10.0
 24
10.0
 15
10.0
 25
10.0
 16
0.0
 26
0.0
 36
1.0
 17
0.0
 27
0.0
 37
0.0
 40
5945.22976603387
 41
3.1666666666666661
 42
50.0
 43
0.0
 44
0.0
 50
0.0
 51
0.0
 71
     0
 72
   100
 73
     1
 74
     0
 75
     0
 76
     0
 77
     0
 78
     0
  0
ENDTAB
  0
TABLE
  2
LTYPE
 70
     2
  0
LTYPE
  2
CONTINUOUS
 70
     0
  3
Solid line
 72
    65
 73
     0
 40
0.0
  0
LTYPE
  2
CENTER
 70
     0
  3
____ _ ____ _ ____ _ ____ _ ____ _ ____ _ ____ 
 72
    65
 73
     4
 40
2.0
 49
1.25
 49
-0.25
 49
0.25
 49
-0.25
  0
ENDTAB
  0
TABLE
  2
LAYER
 70
     6
  0
LAYER
  2
0
 70
     0
 62
     7
  6
CONTINUOUS
  0
LAYER
  2
3
 70
     0
 62
     2
  6
CONTINUOUS
  0
LAYER
  2
2
 70
     0
 62
     3
  6
CENTER
  0
LAYER
  2
1
 70
     0
 62
     4
  6
CONTINUOUS
  0
LAYER
  2
4
 70
     0
 62
     7
  6
CONTINUOUS
  0
LAYER
  2
DEFPOINTS
 70
     0
 62
     7
  6
CONTINUOUS
  0
ENDTAB
  0
TABLE
  2
STYLE
 70
     1
  0
STYLE
  2
STANDARD
 70
     0
 40
0.0
 41
1.0
 50
0.0
 71
     0
 42
180.0
  3
simplex.shx
  4
extfont.shx
  0
ENDTAB
  0
TABLE
  2
VIEW
 70
     0
  0
ENDTAB
  0
TABLE
  2
UCS
 70
     0
  0
ENDTAB
  0
TABLE
  2
APPID
 70
     1
  0
APPID
  2
ACAD
 70
     0
  0
ENDTAB
  0
TABLE
  2
DIMSTYLE
 70
     1
  0
DIMSTYLE
  2
IGA
 70
     0
  3

  4

  5

  6
OPEN
  7
OPEN
 40
2.0
 41
2.0
 42
0.5
 43
10.0
 44
1.0
 45
0.0
 46
0.0
 47
1.0
 48
1.0
140
3.0
141
0.0
142
0.0
143
0.03937
144
1.0
145
0.0
146
10.0
147
1.0
 71
     0
 72
     0
 73
     0
 74
     0
 75
     0
 76
     0
 77
     1
 78
     8
170
     0
171
     2
172
     0
173
     1
174
     0
175
     0
176
     0
177
     0
178
     0
  0
ENDTAB
  0
ENDSEC
  0
SECTION
  2
BLOCKS
  0
BLOCK
  8
0
  2
$MODEL_SPACE
 70
     0
 10
0.0
 20
0.0
 30
0.0
  3
$MODEL_SPACE
  1

  0
ENDBLK
  5
1B
  8
0
  0
BLOCK
 67
     1
  8
0
  2
$PAPER_SPACE
 70
     0
 10
0.0
 20
0.0
 30
0.0
  3
$PAPER_SPACE
  1

  0
ENDBLK
  5
18
 67
     1
  8
0
  0
BLOCK
  8
0
  2
_OPEN
 70
     0
 10
0.0
 20
0.0
 30
0.0
  3
_OPEN
  1

  0
LINE
  5
7A69
  8
0
  6
BYBLOCK
 62
     0
 10
-1.0
 20
0.1666666666666666
 30
0.0
 11
0.0
 21
0.0
 31
0.0
  0
LINE
  5
7A6A
  8
0
  6
BYBLOCK
 62
     0
 10
0.0
 20
0.0
 30
0.0
 11
-1.0
 21
-0.1666666666666666
 31
0.0
  0
LINE
  5
7A6B
  8
0
  6
BYBLOCK
 62
     0
 10
0.0
 20
0.0
 30
0.0
 11
-1.0
 21
0.0
 31
0.0
  0
ENDBLK
  5
7A6D
  8
0
  0
BLOCK
  8
0
  2
*D1
 70
     1
 10
0.0
 20
0.0
 30
0.0
  3
*D1
  1

  0
LINE
  5
820B
  8
3
 62
     0
 10
1567.8290713251149
 20
2421.2478494034149
 30
0.0
 11
1567.8290713251149
 21
2607.0909478637031
 31
0.0
  0
LINE
  5
820C
  8
3
 62
     0
 10
547.82907132511525
 20
1670.253032090844
 30
0.0
 11
547.82907132511536
 21
2607.0909478637031
 31
0.0
  0
LINE
  5
820D
  8
3
 62
     0
 10
1527.8290713251149
 20
2587.0909478637031
 30
0.0
 11
587.82907132511525
 21
2587.0909478637031
 31
0.0
  0
INSERT
  5
820E
  8
3
 62
     0
  2
_OPEN
 10
1567.8290713251149
 20
2587.0909478637031
 30
0.0
 41
40.0
 42
40.0
 43
40.0
  0
INSERT
  5
820F
  8
3
 62
     0
  2
_OPEN
 10
547.82907132511525
 20
2587.0909478637031
 30
0.0
 41
40.0
 42
40.0
 43
40.0
 50
180.0
  0
TEXT
  8
3
  40
60
  5
833F
  62
0
  72
0
  71
0
 10
937.829
 20
2530.89
 30
0.000000
  1
1020
  0
POINT
  5
8211
  8
DEFPOINTS
 62
     0
 10
1567.8290713251149
 20
2411.2478494034149
 30
0.0
  0
POINT
  5
8212
  8
DEFPOINTS
 62
     0
 10
547.82907132511525
 20
1660.2530320908429
 30
0.0
  0
POINT
  5
8213
  8
DEFPOINTS
 62
     0
 10
547.82907132511525
 20
2587.0909478637031
 30
0.0
  0
ENDBLK
  5
80B3
  8
0
  0
BLOCK
  8
0
  2
*D2
 70
     1
 10
0.0
 20
0.0
 30
0.0
  3
*D2
  1

  0
LINE
  5
8214
  8
3
 62
     0
 10
547.82907132511525
 20
1464.253032090844
 30
0.0
 11
547.82907132511525
 21
1322.5776990205909
 31
0.0
  0
LINE
  5
8215
  8
3
 62
     0
 10
1262.8290713251149
 20
1429.813262654726
 30
0.0
 11
1262.8290713251149
 21
1322.5776990205909
 31
0.0
  0
LINE
  5
8216
  8
3
 62
     0
 10
587.82907132511525
 20
1342.5776990205909
 30
0.0
 11
1222.8290713251149
 21
1342.5776990205909
 31
0.0
  0
INSERT
  5
8217
  8
3
 62
     0
  2
_OPEN
 10
547.82907132511525
 20
1342.5776990205909
 30
0.0
 41
40.0
 42
40.0
 43
40.0
 50
180.0
  0
INSERT
  5
8218
  8
3
 62
     0
  2
_OPEN
 10
1262.8290713251149
 20
1342.5776990205909
 30
0.0
 41
40.0
 42
40.0
 43
40.0
  0
TEXT
  8
3
  40
60
  5
8340
  62
0
  72
0
  71
0
 10
785.329
 20
1286.38
 30
0.000000
  1
715
  0
POINT
  5
821A
  8
DEFPOINTS
 62
     0
 10
547.82907132511525
 20
1474.253032090844
 30
0.0
  0
POINT
  5
821B
  8
DEFPOINTS
 62
     0
 10
1262.8290713251149
 20
1439.813262654726
 30
0.0
  0
POINT
  5
821C
  8
DEFPOINTS
 62
     0
 10
1262.8290713251149
 20
1342.5776990205909
 30
0.0
  0
ENDBLK
  5
80BE
  8
0
  0
BLOCK
  8
0
  2
*D3
 70
     1
 10
0.0
 20
0.0
 30
0.0
  3
*D3
  1

  0
LINE
  5
821D
  8
3
 62
     0
 10
1262.8290713251149
 20
2432.792884860155
 30
0.0
 11
1262.8290713251149
 21
2514.9063490632702
 31
0.0
  0
LINE
  5
821E
  8
3
 62
     0
 10
920.82135436310034
 20
2000.253032090844
 30
0.0
 11
920.82135436310034
 21
2514.9063490632702
 31
0.0
  0
LINE
  5
821F
  8
3
 62
     0
 10
1222.8290713251149
 20
2494.9063490632702
 30
0.0
 11
960.82135436310045
 21
2494.9063490632702
 31
0.0
  0
INSERT
  5
8220
  8
3
 62
     0
  2
_OPEN
 10
1262.8290713251149
 20
2494.9063490632702
 30
0.0
 41
40.0
 42
40.0
 43
40.0
  0
INSERT
  5
8221
  8
3
 62
     0
  2
_OPEN
 10
920.82135436310034
 20
2494.9063490632702
 30
0.0
 41
40.0
 42
40.0
 43
40.0
 50
180.0
  0
TEXT
  8
3
  40
60
  5
8341
  62
0
  72
0
  71
0
 10
971.825
 20
2438.71
 30
0.000000
  1
342
  0
POINT
  5
8223
  8
DEFPOINTS
 62
     0
 10
1262.8290713251149
 20
2422.792884860155
 30
0.0
  0
POINT
  5
8224
  8
DEFPOINTS
 62
     0
 10
920.82135436310034
 20
1990.2530320908429
 30
0.0
  0
POINT
  5
8225
  8
DEFPOINTS
 62
     0
 10
920.82135436310034
 20
2494.9063490632702
 30
0.0
  0
ENDBLK
  5
80E1
  8
0
  0
BLOCK
  8
0
  2
*D4
 70
     1
 10
0.0
 20
0.0
 30
0.0
  3
*D4
  1

  0
LINE
  5
822B
  8
3
 62
     0
 10
1590.2068409643921
 20
1960.2530320908429
 30
0.0
 11
1804.787638218065
 21
1960.2530320908429
 31
0.0
  0
LINE
  5
822C
  8
3
 62
     0
 10
1487.8290713251149
 20
1585.253032090844
 30
0.0
 11
1804.787638218065
 21
1585.253032090844
 31
0.0
  0
LINE
  5
822D
  8
3
 62
     0
 10
1784.787638218065
 20
1920.253032090844
 30
0.0
 11
1784.787638218065
 21
1625.2530320908429
 31
0.0
  0
INSERT
  5
822E
  8
3
 62
     0
  2
_OPEN
 10
1784.787638218065
 20
1960.2530320908429
 30
0.0
 41
40.0
 42
40.0
 43
40.0
 50
90.0
  0
INSERT
  5
822F
  8
3
 62
     0
  2
_OPEN
 10
1784.787638218065
 20
1585.253032090844
 30
0.0
 41
40.0
 42
40.0
 43
40.0
 50
270.0
  0
TEXT
  8
3
  40
60
  5
8342
  62
0
  72
0
  71
0
 10
1614.79
 20
1666.55
 30
0.000000
  1
375
  0
POINT
  5
8231
  8
DEFPOINTS
 62
     0
 10
1580.2068409643921
 20
1960.2530320908429
 30
0.0
  0
POINT
  5
8232
  8
DEFPOINTS
 62
     0
 10
1477.8290713251149
 20
1585.253032090844
 30
0.0
  0
POINT
  5
8233
  8
DEFPOINTS
 62
     0
 10
1784.787638218065
 20
1585.253032090844
 30
0.0
  0
ENDBLK
  5
8102
  8
0
  0
BLOCK
  8
0
  2
*D5
 70
     1
 10
0.0
 20
0.0
 30
0.0
  3
*D5
  1

  0
LINE
  5
8234
  8
3
 62
     0
 10
1262.8290713251149
 20
1429.813262654726
 30
0.0
 11
1262.8290713251149
 21
1322.5776990205909
 31
0.0
  0
LINE
  5
8235
  8
3
 62
     0
 10
1477.8290713251149
 20
1464.253032090844
 30
0.0
 11
1477.8290713251149
 21
1322.5776990205909
 31
0.0
  0
LINE
  5
8236
  8
3
 62
     0
 10
1302.8290713251149
 20
1342.5776990205909
 30
0.0
 11
1437.8290713251149
 21
1342.5776990205909
 31
0.0
  0
INSERT
  5
8237
  8
3
 62
     0
  2
_OPEN
 10
1262.8290713251149
 20
1342.5776990205909
 30
0.0
 41
40.0
 42
40.0
 43
40.0
 50
180.0
  0
INSERT
  5
8238
  8
3
 62
     0
  2
_OPEN
 10
1477.8290713251149
 20
1342.5776990205909
 30
0.0
 41
40.0
 42
40.0
 43
40.0
  0
TEXT
  8
3
  40
60
  5
8343
  62
0
  72
0
  71
0
 10
1250.33
 20
1286.38
 30
0.000000
  1
215
  0
POINT
  5
823A
  8
DEFPOINTS
 62
     0
 10
1262.8290713251149
 20
1439.813262654726
 30
0.0
  0
POINT
  5
823B
  8
DEFPOINTS
 62
     0
 10
1477.8290713251149
 20
1474.253032090844
 30
0.0
  0
POINT
  5
823C
  8
DEFPOINTS
 62
     0
 10
1477.8290713251149
 20
1342.5776990205909
 30
0.0
  0
ENDBLK
  5
80D6
  8
0
  0
BLOCK
  8
0
  2
*D6
 70
     1
 10
0.0
 20
0.0
 30
0.0
  3
*D6
  1

  0
LINE
  5
823D
  8
3
 62
     0
 10
1577.8290713251149
 20
2384.253032090844
 30
0.0
 11
1804.787638218065
 21
2384.253032090844
 31
0.0
  0
LINE
  5
823E
  8
3
 62
     0
 10
1590.2068409643921
 20
1960.2530320908429
 30
0.0
 11
1804.787638218065
 21
1960.2530320908429
 31
0.0
  0
LINE
  5
823F
  8
3
 62
     0
 10
1784.787638218065
 20
2344.253032090844
 30
0.0
 11
1784.787638218065
 21
2000.253032090844
 31
0.0
  0
INSERT
  5
8240
  8
3
 62
     0
  2
_OPEN
 10
1784.787638218065
 20
2384.253032090844
 30
0.0
 41
40.0
 42
40.0
 43
40.0
 50
90.0
  0
INSERT
  5
8241
  8
3
 62
     0
  2
_OPEN
 10
1784.787638218065
 20
1960.2530320908429
 30
0.0
 41
40.0
 42
40.0
 43
40.0
 50
270.0
  0
TEXT
  8
3
  40
60
  5
8344
  62
0
  72
0
  71
0
 10
1614.79
 20
2066.05
 30
0.000000
  1
424
  0
POINT
  5
8243
  8
DEFPOINTS
 62
     0
 10
1567.8290713251149
 20
2384.253032090844
 30
0.0
  0
POINT
  5
8244
  8
DEFPOINTS
 62
     0
 10
1580.2068409643921
 20
1960.2530320908429
 30
0.0
  0
POINT
  5
8245
  8
DEFPOINTS
 62
     0
 10
1784.787638218065
 20
1960.2530320908429
 30
0.0
  0
ENDBLK
  5
80F7
  8
0
  0
BLOCK
  8
0
  2
*D7
 70
     1
 10
0.0
 20
0.0
 30
0.0
  3
*D7
  1

  0
LINE
  5
8246
  8
3
 62
     0
 10
1577.8290713251149
 20
2384.253032090844
 30
0.0
 11
1711.8076134362959
 21
2384.253032090844
 31
0.0
  0
LINE
  5
8247
  8
3
 62
     0
 10
1577.8290713251149
 20
1972.253032090844
 30
0.0
 11
1711.8076134362959
 21
1972.253032090844
 31
0.0
  0
LINE
  5
8248
  8
3
 62
     0
 10
1691.8076134362959
 20
2344.253032090844
 30
0.0
 11
1691.8076134362959
 21
2012.253032090844
 31
0.0
  0
INSERT
  5
8249
  8
3
 62
     0
  2
_OPEN
 10
1691.8076134362959
 20
2384.253032090844
 30
0.0
 41
40.0
 42
40.0
 43
40.0
 50
90.0
  0
INSERT
  5
824A
  8
3
 62
     0
  2
_OPEN
 10
1691.8076134362959
 20
1972.253032090844
 30
0.0
 41
40.0
 42
40.0
 43
40.0
 50
270.0
  0
TEXT
  8
3
  40
60
  5
8345
  62
0
  72
0
  71
0
 10
1521.81
 20
2072.05
 30
0.000000
  1
412
  0
POINT
  5
824C
  8
DEFPOINTS
 62
     0
 10
1567.8290713251149
 20
2384.253032090844
 30
0.0
  0
POINT
  5
824D
  8
DEFPOINTS
 62
     0
 10
1567.8290713251149
 20
1972.253032090844
 30
0.0
  0
POINT
  5
824E
  8
DEFPOINTS
 62
     0
 10
1691.8076134362959
 20
1972.253032090844
 30
0.0
  0
ENDBLK
  5
80EC
  8
0
  0
BLOCK
  8
0
  2
*D8
 70
     1
 10
0.0
 20
0.0
 30
0.0
  3
*D8
  1

  0
LINE
  5
825D
  8
3
 62
     0
 10
1567.8290713251149
 20
2421.2478494034149
 30
0.0
 11
1567.8290713251149
 21
2514.9063490632702
 31
0.0
  0
LINE
  5
825E
  8
3
 62
     0
 10
1262.8290713251149
 20
2432.792884860155
 30
0.0
 11
1262.8290713251149
 21
2514.9063490632702
 31
0.0
  0
LINE
  5
825F
  8
3
 62
     0
 10
1527.8290713251149
 20
2494.9063490632702
 30
0.0
 11
1302.8290713251149
 21
2494.9063490632702
 31
0.0
  0
INSERT
  5
8260
  8
3
 62
     0
  2
_OPEN
 10
1567.8290713251149
 20
2494.9063490632702
 30
0.0
 41
40.0
 42
40.0
 43
40.0
  0
INSERT
  5
8261
  8
3
 62
     0
  2
_OPEN
 10
1262.8290713251149
 20
2494.9063490632702
 30
0.0
 41
40.0
 42
40.0
 43
40.0
 50
180.0
  0
TEXT
  8
3
  40
60
  5
8346
  62
0
  72
0
  71
0
 10
1295.33
 20
2438.71
 30
0.000000
  1
305
  0
POINT
  5
8263
  8
DEFPOINTS
 62
     0
 10
1567.8290713251149
 20
2411.2478494034149
 30
0.0
  0
POINT
  5
8264
  8
DEFPOINTS
 62
     0
 10
1262.8290713251149
 20
2422.792884860155
 30
0.0
  0
POINT
  5
8265
  8
DEFPOINTS
 62
     0
 10
1262.8290713251149
 20
2494.9063490632702
 30
0.0
  0
ENDBLK
  5
80C9
  8
0
  0
BLOCK
  8
0
  2
*D9
 70
     1
 10
0.0
 20
0.0
 30
0.0
  3
*D9
  1

  0
LINE
  5
8273
  8
3
 62
     0
 10
1047.8290713251149
 20
4001.4380977589749
 30
0.0
 11
1047.8290713251149
 21
4126.1885391676597
 31
0.0
  0
LINE
  5
8274
  8
3
 62
     0
 10
547.82907132511525
 20
3561.438097758974
 30
0.0
 11
547.82907132511525
 21
4126.1885391676597
 31
0.0
  0
LINE
  5
8275
  8
3
 62
     0
 10
1007.829071325115
 20
4106.1885391676597
 30
0.0
 11
587.82907132511525
 21
4106.1885391676597
 31
0.0
  0
INSERT
  5
8276
  8
3
 62
     0
  2
_OPEN
 10
1047.8290713251149
 20
4106.1885391676597
 30
0.0
 41
40.0
 42
40.0
 43
40.0
  0
INSERT
  5
8277
  8
3
 62
     0
  2
_OPEN
 10
547.82907132511525
 20
4106.1885391676597
 30
0.0
 41
40.0
 42
40.0
 43
40.0
 50
180.0
  0
TEXT
  8
3
  40
60
  5
8347
  62
0
  72
0
  71
0
 10
677.829
 20
4049.99
 30
0.000000
  1
500
  0
POINT
  5
8279
  8
DEFPOINTS
 62
     0
 10
1047.8290713251149
 20
3991.4380977589749
 30
0.0
  0
POINT
  5
827A
  8
DEFPOINTS
 62
     0
 10
547.82907132511525
 20
3551.4380977589731
 30
0.0
  0
POINT
  5
827B
  8
DEFPOINTS
 62
     0
 10
547.82907132511525
 20
4106.1885391676597
 30
0.0
  0
ENDBLK
  5
8127
  8
0
  0
BLOCK
  8
0
  2
*D10
 70
     1
 10
0.0
 20
0.0
 30
0.0
  3
*D10
  1

  0
LINE
  5
827C
  8
3
 62
     0
 10
547.82907132511525
 20
3121.438097758974
 30
0.0
 11
547.82907132511525
 21
2893.2629435347449
 31
0.0
  0
LINE
  5
827D
  8
3
 62
     0
 10
1477.8290713251149
 20
3121.438097758974
 30
0.0
 11
1477.8290713251149
 21
2893.2629435347449
 31
0.0
  0
LINE
  5
827E
  8
3
 62
     0
 10
587.82907132511525
 20
2913.2629435347449
 30
0.0
 11
1437.8290713251149
 21
2913.2629435347449
 31
0.0
  0
INSERT
  5
827F
  8
3
 62
     0
  2
_OPEN
 10
547.82907132511525
 20
2913.2629435347449
 30
0.0
 41
40.0
 42
40.0
 43
40.0
 50
180.0
  0
INSERT
  5
8280
  8
3
 62
     0
  2
_OPEN
 10
1477.8290713251149
 20
2913.2629435347449
 30
0.0
 41
40.0
 42
40.0
 43
40.0
  0
TEXT
  8
3
  40
60
  5
8348
  62
0
  72
0
  71
0
 10
892.829
 20
2857.06
 30
0.000000
  1
930
  0
POINT
  5
8282
  8
DEFPOINTS
 62
     0
 10
547.82907132511525
 20
3131.4380977589731
 30
0.0
  0
POINT
  5
8283
  8
DEFPOINTS
 62
     0
 10
1477.8290713251149
 20
3131.438097758974
 30
0.0
  0
POINT
  5
8284
  8
DEFPOINTS
 62
     0
 10
1477.8290713251149
 20
2913.2629435347449
 30
0.0
  0
ENDBLK
  5
80A8
  8
0
  0
BLOCK
  8
0
  2
*D11
 70
     1
 10
0.0
 20
0.0
 30
0.0
  3
*D11
  1

  0
LINE
  5
8285
  8
3
 62
     0
 10
537.82907132511525
 20
3131.4380977589731
 30
0.0
 11
452.48513316474771
 21
3131.4380977589731
 31
0.0
  0
LINE
  5
8286
  8
3
 62
     0
 10
537.82907132511525
 20
3551.4380977589731
 30
0.0
 11
452.48513316474782
 21
3551.4380977589731
 31
0.0
  0
LINE
  5
8287
  8
3
 62
     0
 10
472.48513316474771
 20
3171.438097758974
 30
0.0
 11
472.48513316474782
 21
3511.438097758974
 31
0.0
  0
INSERT
  5
8288
  8
3
 62
     0
  2
_OPEN
 10
472.48513316474771
 20
3131.4380977589731
 30
0.0
 41
40.0
 42
40.0
 43
40.0
 50
270.0
  0
INSERT
  5
8289
  8
3
 62
     0
  2
_OPEN
 10
472.48513316474782
 20
3551.4380977589731
 30
0.0
 41
40.0
 42
40.0
 43
40.0
 50
90.0
  0
TEXT
  8
3
  40
60
  5
8349
  62
0
  72
0
  71
0
 10
302.485
 20
3235.24
 30
0.000000
  1
420
  0
POINT
  5
828B
  8
DEFPOINTS
 62
     0
 10
547.82907132511525
 20
3131.4380977589731
 30
0.0
  0
POINT
  5
828C
  8
DEFPOINTS
 62
     0
 10
547.82907132511525
 20
3551.4380977589731
 30
0.0
  0
POINT
  5
828D
  8
DEFPOINTS
 62
     0
 10
472.48513316474782
 20
3551.4380977589731
 30
0.0
  0
ENDBLK
  5
8132
  8
0
  0
BLOCK
  8
0
  2
*D12
 70
     1
 10
0.0
 20
0.0
 30
0.0
  3
*D12
  1

  0
LINE
  5
828E
  8
3
 62
     0
 10
1487.8290713251149
 20
3131.438097758974
 30
0.0
 11
1783.9715464671419
 21
3131.438097758974
 31
0.0
  0
LINE
  5
828F
  8
3
 62
     0
 10
1487.8290713251149
 20
3991.4380977589749
 30
0.0
 11
1783.9715464671419
 21
3991.4380977589749
 31
0.0
  0
LINE
  5
8290
  8
3
 62
     0
 10
1763.9715464671419
 20
3171.438097758974
 30
0.0
 11
1763.9715464671419
 21
3951.4380977589749
 31
0.0
  0
INSERT
  5
8291
  8
3
 62
     0
  2
_OPEN
 10
1763.9715464671419
 20
3131.438097758974
 30
0.0
 41
40.0
 42
40.0
 43
40.0
 50
270.0
  0
INSERT
  5
8292
  8
3
 62
     0
  2
_OPEN
 10
1763.9715464671419
 20
3991.4380977589749
 30
0.0
 41
40.0
 42
40.0
 43
40.0
 50
90.0
  0
TEXT
  8
3
  40
60
  5
834A
  62
0
  72
0
  71
0
 10
1593.97
 20
3455.24
 30
0.000000
  1
860
  0
POINT
  5
8294
  8
DEFPOINTS
 62
     0
 10
1477.8290713251149
 20
3131.438097758974
 30
0.0
  0
POINT
  5
8295
  8
DEFPOINTS
 62
     0
 10
1477.8290713251149
 20
3991.4380977589749
 30
0.0
  0
POINT
  5
8296
  8
DEFPOINTS
 62
     0
 10
1763.9715464671419
 20
3991.4380977589749
 30
0.0
  0
ENDBLK
  5
8148
  8
0
  0
BLOCK
  8
0
  2
*D13
 70
     1
 10
0.0
 20
0.0
 30
0.0
  3
*D13
  1

  0
LINE
  5
8297
  8
3
 62
     0
 10
1477.8290713251149
 20
4001.4380977589749
 30
0.0
 11
1477.8290713251149
 21
4126.1885391676597
 31
0.0
  0
LINE
  5
8298
  8
3
 62
     0
 10
1047.8290713251149
 20
4001.4380977589749
 30
0.0
 11
1047.8290713251149
 21
4126.1885391676597
 31
0.0
  0
LINE
  5
8299
  8
3
 62
     0
 10
1437.8290713251149
 20
4106.1885391676597
 30
0.0
 11
1087.8290713251149
 21
4106.1885391676597
 31
0.0
  0
INSERT
  5
829A
  8
3
 62
     0
  2
_OPEN
 10
1477.8290713251149
 20
4106.1885391676597
 30
0.0
 41
40.0
 42
40.0
 43
40.0
  0
INSERT
  5
829B
  8
3
 62
     0
  2
_OPEN
 10
1047.8290713251149
 20
4106.1885391676597
 30
0.0
 41
40.0
 42
40.0
 43
40.0
 50
180.0
  0
TEXT
  8
3
  40
60
  5
834B
  62
0
  72
0
  71
0
 10
1142.83
 20
4049.99
 30
0.000000
  1
430
  0
POINT
  5
829D
  8
DEFPOINTS
 62
     0
 10
1477.8290713251149
 20
3991.4380977589749
 30
0.0
  0
POINT
  5
829E
  8
DEFPOINTS
 62
     0
 10
1047.8290713251149
 20
3991.4380977589749
 30
0.0
  0
POINT
  5
829F
  8
DEFPOINTS
 62
     0
 10
1047.8290713251149
 20
4106.1885391676597
 30
0.0
  0
ENDBLK
  5
813D
  8
0
  0
BLOCK
  8
0
  2
*D14
 70
     1
 10
0.0
 20
0.0
 30
0.0
  3
*D14
  1

  0
LINE
  5
82A0
  8
3
 62
     0
 10
3144.633006554624
 20
2551.4423882656761
 30
0.0
 11
3144.633006554624
 21
2654.9311444793561
 31
0.0
  0
LINE
  5
82A1
  8
3
 62
     0
 10
3297.6330065546231
 20
2207.9530320908439
 30
0.0
 11
3297.6330065546231
 21
2654.9311444793561
 31
0.0
  0
LINE
  5
82A2
  8
3
 62
     0
 10
3184.633006554624
 20
2634.9311444793561
 30
0.0
 11
3257.6330065546231
 21
2634.9311444793561
 31
0.0
  0
LINE
  5
82A3
  8
3
 62
     0
 10
3297.6330065546231
 20
2634.9311444793561
 30
0.0
 11
3520.4901494117662
 21
2634.9311444793561
 31
0.0
  0
INSERT
  5
82A4
  8
3
 62
     0
  2
_OPEN
 10
3144.633006554624
 20
2634.9311444793561
 30
0.0
 41
40.0
 42
40.0
 43
40.0
 50
180.0
  0
INSERT
  5
82A5
  8
3
 62
     0
  2
_OPEN
 10
3297.6330065546231
 20
2634.9311444793561
 30
0.0
 41
40.0
 42
40.0
 43
40.0
  0
TEXT
  8
3
  40
60
  5
834C
  62
0
  72
0
  71
0
 10
3309.06
 20
2578.73
 30
0.000000
  1
153
  0
POINT
  5
82A7
  8
DEFPOINTS
 62
     0
 10
3144.633006554624
 20
2541.4423882656761
 30
0.0
  0
POINT
  5
82A8
  8
DEFPOINTS
 62
     0
 10
3297.6330065546231
 20
2197.9530320908439
 30
0.0
  0
POINT
  5
82A9
  8
DEFPOINTS
 62
     0
 10
3297.6330065546231
 20
2634.9311444793561
 30
0.0
  0
ENDBLK
  5
8199
  8
0
  0
BLOCK
  8
0
  2
*D15
 70
     1
 10
0.0
 20
0.0
 30
0.0
  3
*D15
  1

  0
LINE
  5
82AA
  8
3
 62
     0
 10
2384.6330065546222
 20
2120.253032090844
 30
0.0
 11
2384.6330065546222
 21
2654.9311444793561
 31
0.0
  0
LINE
  5
82AB
  8
3
 62
     0
 10
3144.633006554624
 20
2551.4423882656761
 30
0.0
 11
3144.633006554624
 21
2654.9311444793561
 31
0.0
  0
LINE
  5
82AC
  8
3
 62
     0
 10
2424.6330065546231
 20
2634.9311444793561
 30
0.0
 11
3104.6330065546249
 21
2634.9311444793561
 31
0.0
  0
INSERT
  5
82AD
  8
3
 62
     0
  2
_OPEN
 10
2384.6330065546222
 20
2634.9311444793561
 30
0.0
 41
40.0
 42
40.0
 43
40.0
 50
180.0
  0
INSERT
  5
82AE
  8
3
 62
     0
  2
_OPEN
 10
3144.633006554624
 20
2634.9311444793561
 30
0.0
 41
40.0
 42
40.0
 43
40.0
  0
TEXT
  8
3
  40
60
  5
834D
  62
0
  72
0
  71
0
 10
2644.63
 20
2578.73
 30
0.000000
  1
760
  0
POINT
  5
82B0
  8
DEFPOINTS
 62
     0
 10
2384.6330065546222
 20
2110.2530320908431
 30
0.0
  0
POINT
  5
82B1
  8
DEFPOINTS
 62
     0
 10
3144.633006554624
 20
2541.4423882656761
 30
0.0
  0
POINT
  5
82B2
  8
DEFPOINTS
 62
     0
 10
3144.633006554624
 20
2634.9311444793561
 30
0.0
  0
ENDBLK
  5
81A4
  8
0
  0
BLOCK
  8
0
  2
*D16
 70
     1
 10
0.0
 20
0.0
 30
0.0
  3
*D16
  1

  0
LINE
  5
82B3
  8
3
 62
     0
 10
2479.6330065546222
 20
1464.253032090844
 30
0.0
 11
2479.6330065546222
 21
1316.8202185854641
 31
0.0
  0
LINE
  5
82B4
  8
3
 62
     0
 10
3144.633006554624
 20
1429.813262654726
 30
0.0
 11
3144.633006554624
 21
1316.8202185854641
 31
0.0
  0
LINE
  5
82B5
  8
3
 62
     0
 10
2519.6330065546222
 20
1336.820218585463
 30
0.0
 11
3104.6330065546249
 21
1336.820218585463
 31
0.0
  0
INSERT
  5
82B6
  8
3
 62
     0
  2
_OPEN
 10
2479.6330065546222
 20
1336.820218585463
 30
0.0
 41
40.0
 42
40.0
 43
40.0
 50
180.0
  0
INSERT
  5
82B7
  8
3
 62
     0
  2
_OPEN
 10
3144.633006554624
 20
1336.820218585463
 30
0.0
 41
40.0
 42
40.0
 43
40.0
  0
TEXT
  8
3
  40
60
  5
834E
  62
0
  72
0
  71
0
 10
2692.13
 20
1280.62
 30
0.000000
  1
665
  0
POINT
  5
82B9
  8
DEFPOINTS
 62
     0
 10
2479.6330065546222
 20
1474.253032090844
 30
0.0
  0
POINT
  5
82BA
  8
DEFPOINTS
 62
     0
 10
3144.633006554624
 20
1439.813262654726
 30
0.0
  0
POINT
  5
82BB
  8
DEFPOINTS
 62
     0
 10
3144.633006554624
 20
1336.820218585463
 30
0.0
  0
ENDBLK
  5
815E
  8
0
  0
BLOCK
  8
0
  2
*D17
 70
     1
 10
0.0
 20
0.0
 30
0.0
  3
*D17
  1

  0
LINE
  5
82BC
  8
3
 62
     0
 10
3144.633006554624
 20
1429.813262654726
 30
0.0
 11
3144.633006554624
 21
1316.8202185854641
 31
0.0
  0
LINE
  5
82BD
  8
3
 62
     0
 10
3339.633006554624
 20
1464.253032090844
 30
0.0
 11
3339.633006554624
 21
1316.8202185854641
 31
0.0
  0
LINE
  5
82BE
  8
3
 62
     0
 10
3184.633006554624
 20
1336.820218585463
 30
0.0
 11
3299.633006554624
 21
1336.820218585463
 31
0.0
  0
INSERT
  5
82BF
  8
3
 62
     0
  2
_OPEN
 10
3144.633006554624
 20
1336.820218585463
 30
0.0
 41
40.0
 42
40.0
 43
40.0
 50
180.0
  0
INSERT
  5
82C0
  8
3
 62
     0
  2
_OPEN
 10
3339.633006554624
 20
1336.820218585463
 30
0.0
 41
40.0
 42
40.0
 43
40.0
  0
TEXT
  8
3
  40
60
  5
834F
  62
0
  72
0
  71
0
 10
3122.13
 20
1280.62
 30
0.000000
  1
195
  0
POINT
  5
82C2
  8
DEFPOINTS
 62
     0
 10
3144.633006554624
 20
1439.813262654726
 30
0.0
  0
POINT
  5
82C3
  8
DEFPOINTS
 62
     0
 10
3339.633006554624
 20
1474.2530320908429
 30
0.0
  0
POINT
  5
82C4
  8
DEFPOINTS
 62
     0
 10
3339.633006554624
 20
1336.820218585463
 30
0.0
  0
ENDBLK
  5
8176
  8
0
  0
BLOCK
  8
0
  2
*D18
 70
     1
 10
0.0
 20
0.0
 30
0.0
  3
*D18
  1

  0
LINE
  5
82E3
  8
3
 62
     0
 10
3333.233006554623
 20
2160.253032090844
 30
0.0
 11
3460.4504846845848
 21
2160.253032090844
 31
0.0
  0
LINE
  5
82E4
  8
3
 62
     0
 10
3333.233006554623
 20
1760.253032090844
 30
0.0
 11
3460.4504846845848
 21
1760.253032090844
 31
0.0
  0
LINE
  5
82E5
  8
3
 62
     0
 10
3440.4504846845839
 20
2120.253032090844
 30
0.0
 11
3440.4504846845839
 21
1800.253032090844
 31
0.0
  0
INSERT
  5
82E6
  8
3
 62
     0
  2
_OPEN
 10
3440.4504846845839
 20
2160.253032090844
 30
0.0
 41
40.0
 42
40.0
 43
40.0
 50
90.0
  0
INSERT
  5
82E7
  8
3
 62
     0
  2
_OPEN
 10
3440.4504846845839
 20
1760.253032090844
 30
0.0
 41
40.0
 42
40.0
 43
40.0
 50
270.0
  0
TEXT
  8
3
  40
60
  5
8350
  62
0
  72
0
  71
0
 10
3270.45
 20
1854.05
 30
0.000000
  1
400
  0
POINT
  5
82E9
  8
DEFPOINTS
 62
     0
 10
3323.233006554623
 20
2160.253032090844
 30
0.0
  0
POINT
  5
82EA
  8
DEFPOINTS
 62
     0
 10
3323.233006554623
 20
1760.253032090844
 30
0.0
  0
POINT
  5
82EB
  8
DEFPOINTS
 62
     0
 10
3440.4504846845839
 20
1760.253032090844
 30
0.0
  0
ENDBLK
  5
8153
  8
0
  0
BLOCK
  8
0
  2
*D19
 70
     1
 10
0.0
 20
0.0
 30
0.0
  3
*D19
  1

  0
LINE
  5
8311
  8
3
 62
     0
 10
2994.6330065546222
 20
2396.253032090844
 30
0.0
 11
2994.6330065546222
 21
2513.7979321986181
 31
0.0
  0
LINE
  5
8312
  8
3
 62
     0
 10
3294.633006554624
 20
2396.253032090844
 30
0.0
 11
3294.633006554624
 21
2513.7979321986181
 31
0.0
  0
LINE
  5
8313
  8
3
 62
     0
 10
3034.6330065546222
 20
2493.7979321986181
 30
0.0
 11
3254.633006554624
 21
2493.7979321986181
 31
0.0
  0
INSERT
  5
8314
  8
3
 62
     0
  2
_OPEN
 10
2994.6330065546222
 20
2493.7979321986181
 30
0.0
 41
40.0
 42
40.0
 43
40.0
 50
180.0
  0
INSERT
  5
8315
  8
3
 62
     0
  2
_OPEN
 10
3294.633006554624
 20
2493.7979321986181
 30
0.0
 41
40.0
 42
40.0
 43
40.0
  0
TEXT
  8
3
  40
60
  5
8351
  62
0
  72
0
  71
0
 10
3024.63
 20
2437.60
 30
0.000000
  1
300
  0
POINT
  5
8317
  8
DEFPOINTS
 62
     0
 10
2994.6330065546222
 20
2386.253032090844
 30
0.0
  0
POINT
  5
8318
  8
DEFPOINTS
 62
     0
 10
3294.633006554624
 20
2386.253032090844
 30
0.0
  0
POINT
  5
8319
  8
DEFPOINTS
 62
     0
 10
3294.633006554624
 20
2493.7979321986181
 30
0.0
  0
ENDBLK
  5
8181
  8
0
  0
BLOCK
  8
0
  2
*D20
 70
     1
 10
0.0
 20
0.0
 30
0.0
  3
*D20
  1

  0
LINE
  5
831A
  8
3
 62
     0
 10
1577.8290713251149
 20
2411.2478494034149
 30
0.0
 11
2051.1146458922158
 21
2411.2478494034149
 31
0.0
  0
LINE
  5
831B
  8
3
 62
     0
 10
1487.8290713251149
 20
1474.253032090844
 30
0.0
 11
2051.1146458922158
 21
1474.2530320908429
 31
0.0
  0
LINE
  5
831C
  8
3
 62
     0
 10
2031.114645892216
 20
2371.2478494034149
 30
0.0
 11
2031.114645892216
 21
1514.2530320908429
 31
0.0
  0
INSERT
  5
831D
  8
3
 62
     0
  2
_OPEN
 10
2031.114645892216
 20
2411.2478494034149
 30
0.0
 41
40.0
 42
40.0
 43
40.0
 50
90.0
  0
INSERT
  5
831E
  8
3
 62
     0
  2
_OPEN
 10
2031.114645892216
 20
1474.2530320908429
 30
0.0
 41
40.0
 42
40.0
 43
40.0
 50
270.0
  0
TEXT
  8
3
  40
60
  5
8352
  62
0
  72
0
  71
0
 10
1861.11
 20
1836.55
 30
0.000000
  1
937
  0
POINT
  5
8320
  8
DEFPOINTS
 62
     0
 10
1567.8290713251149
 20
2411.2478494034149
 30
0.0
  0
POINT
  5
8321
  8
DEFPOINTS
 62
     0
 10
1477.8290713251149
 20
1474.253032090844
 30
0.0
  0
POINT
  5
8322
  8
DEFPOINTS
 62
     0
 10
2031.114645892216
 20
1474.2530320908429
 30
0.0
  0
ENDBLK
  5
81C3
  8
0
  0
BLOCK
  8
0
  2
_DOT
 70
     0
 10
0.0
 20
0.0
 30
0.0
  3
_DOT
  1

  0
POLYLINE
  5
81C7
  8
0
  6
BYBLOCK
 62
     0
 66
     1
 10
0.0
 20
0.0
 30
0.0
 70
     1
 40
0.5
 41
0.5
  0
VERTEX
  5
8323
  8
0
  6
BYBLOCK
 62
     0
 10
-0.25
 20
0.0
 30
0.0
 42
1.0
  0
VERTEX
  5
8324
  8
0
  6
BYBLOCK
 62
     0
 10
0.25
 20
0.0
 30
0.0
 42
1.0
  0
SEQEND
  5
8325
  8
0
  6
BYBLOCK
 62
     0
  0
LINE
  5
81CB
  8
0
  6
BYBLOCK
 62
     0
 10
-0.5
 20
0.0
 30
0.0
 11
-1.0
 21
0.0
 31
0.0
  0
ENDBLK
  5
81CC
  8
0
  0
BLOCK
  8
0
  2
*D22
 70
     1
 10
0.0
 20
0.0
 30
0.0
  3
*D22
  1

  0
LINE
  5
8326
  8
3
 62
     0
 10
1487.8290713251149
 20
1549.253032090844
 30
0.0
 11
1804.1859036365131
 21
1549.2530320908429
 31
0.0
  0
LINE
  5
8327
  8
3
 62
     0
 10
1487.8290713251149
 20
1474.253032090844
 30
0.0
 11
1804.1859036365131
 21
1474.2530320908429
 31
0.0
  0
LINE
  5
8328
  8
3
 62
     0
 10
1784.1859036365131
 20
1589.253032090844
 30
0.0
 11
1784.1859036365131
 21
1629.2530320908429
 31
0.0
  0
LINE
  5
8329
  8
3
 62
     0
 10
1784.1859036365131
 20
1434.2530320908429
 30
0.0
 11
1784.1859036365131
 21
1257.110174947986
 31
0.0
  0
LINE
  5
832A
  8
3
 62
     0
 10
1784.1859036365131
 20
1549.2530320908429
 30
0.0
 11
1784.1859036365131
 21
1474.2530320908429
 31
0.0
  0
INSERT
  5
832B
  8
3
 62
     0
  2
_DOT
 10
1784.1859036365131
 20
1549.2530320908429
 30
0.0
 41
40.0
 42
40.0
 43
40.0
 50
270.0
  0
INSERT
  5
832C
  8
3
 62
     0
  2
_OPEN
 10
1784.1859036365131
 20
1474.2530320908429
 30
0.0
 41
40.0
 42
40.0
 43
40.0
 50
90.0
  0
TEXT
  8
3
  40
60
  5
8353
  62
0
  72
0
  71
0
 10
1614.19
 20
1219.48
 30
0.000000
  1
75
  0
POINT
  5
832E
  8
DEFPOINTS
 62
     0
 10
1477.8290713251149
 20
1549.253032090844
 30
0.0
  0
POINT
  5
832F
  8
DEFPOINTS
 62
     0
 10
1477.8290713251149
 20
1474.253032090844
 30
0.0
  0
POINT
  5
8330
  8
DEFPOINTS
 62
     0
 10
1784.1859036365131
 20
1474.2530320908429
 30
0.0
  0
ENDBLK
  5
81DA
  8
0
  0
BLOCK
  8
0
  2
*D23
 70
     1
 10
0.0
 20
0.0
 30
0.0
  3
*D23
  1

  0
LINE
  5
8331
  8
3
 62
     0
 10
1487.8290713251149
 20
1549.253032090844
 30
0.0
 11
1804.1859036365131
 21
1549.2530320908429
 31
0.0
  0
LINE
  5
8332
  8
3
 62
     0
 10
1487.8290713251149
 20
1585.253032090844
 30
0.0
 11
1804.1859036365131
 21
1585.253032090844
 31
0.0
  0
LINE
  5
8333
  8
3
 62
     0
 10
1784.1859036365131
 20
1509.2530320908429
 30
0.0
 11
1784.1859036365131
 21
1469.2530320908429
 31
0.0
  0
LINE
  5
8334
  8
3
 62
     0
 10
1784.1859036365131
 20
1625.2530320908429
 30
0.0
 11
1784.1859036365131
 21
1665.253032090844
 31
0.0
  0
LINE
  5
8335
  8
3
 62
     0
 10
1784.1859036365131
 20
1567.2530320908429
 30
0.0
 11
1971.32876077937
 21
1623.3958892337009
 31
0.0
  0
LINE
  5
8336
  8
3
 62
     0
 10
1971.32876077937
 20
1623.3958892337009
 30
0.0
 11
1971.32876077937
 21
1837.6816035194149
 31
0.0
  0
TEXT
  8
3
  40
60
  5
8354
  62
0
  72
0
  71
0
 10
1785.61
 20
1624.34
 30
0.000000
  1
(36)
  0
LINE
  5
8338
  8
3
 62
     0
 10
1784.1859036365131
 20
1549.2530320908429
 30
0.0
 11
1784.1859036365131
 21
1585.253032090844
 31
0.0
  0
LINE
  5
8339
  8
3
 62
     0
 10
1784.1859036365131
 20
1549.2530320908429
 30
0.0
 11
1784.1859036365131
 21
1585.253032090844
 31
0.0
  0
INSERT
  5
833A
  8
3
 62
     0
  2
_DOT
 10
1784.1859036365131
 20
1549.2530320908429
 30
0.0
 41
40.0
 42
40.0
 43
40.0
 50
90.0
  0
INSERT
  5
833B
  8
3
 62
     0
  2
_OPEN
 10
1784.1859036365131
 20
1585.253032090844
 30
0.0
 41
40.0
 42
40.0
 43
40.0
 50
270.0
  0
POINT
  5
833C
  8
DEFPOINTS
 62
     0
 10
1477.8290713251149
 20
1549.253032090844
 30
0.0
  0
POINT
  5
833D
  8
DEFPOINTS
 62
     0
 10
1477.8290713251149
 20
1585.253032090844
 30
0.0
  0
POINT
  5
833E
  8
DEFPOINTS
 62
     0
 10
1784.1859036365131
 20
1585.253032090844
 30
0.0
  0
ENDBLK
  5
81EB
  8
0
  0
ENDSEC
  0
SECTION
  2
ENTITIES
  0
DIMENSION
  5
7CCB
  8
3
  2
*D1
 10
547.82907132511525
 20
2587.0909478637031
 30
0.0
 11
1057.8290713251149
 21
2637.0909478637031
 31
0.0
 70
     0
 13
1567.8290713251149
 23
2411.2478494034149
 33
0.0
 14
547.82907132511525
 24
1660.2530320908429
 34
0.0
1001
ACAD
1000
DSTYLE
1002
{
1070
   287
1070
     3
1070
    40
1040
20.0
1070
   143
1040
0.039
1070
   172
1070
     1
1070
   271
1070
     0
1070
   279
1070
     0
1070
   288
1070
     1
1002
}
  0
DIMENSION
  5
7CCC
  8
3
  2
*D2
 10
1262.8290713251149
 20
1342.5776990205909
 30
0.0
 11
905.32907132511536
 21
1392.5776990205909
 31
0.0
 70
     0
 13
547.82907132511525
 23
1474.253032090844
 33
0.0
 14
1262.8290713251149
 24
1439.813262654726
 34
0.0
1001
ACAD
1000
DSTYLE
1002
{
1070
   287
1070
     3
1070
    40
1040
20.0
1070
   143
1040
0.039
1070
   172
1070
     1
1070
   271
1070
     0
1070
   279
1070
     0
1070
   288
1070
     1
1002
}
  0
ARC
  5
7CCD
  8
1
 10
1232.8290713251149
 20
1990.2530320908429
 30
0.0
 40
312.00771696201508
 50
180.0000000000006
 51
277.52382043863952
  0
ARC
  5
7CCE
  8
1
 10
1292.8290713251149
 20
1990.253032090844
 30
0.0
 40
372.00771696201542
 50
94.611430909960902
 51
180.0000000000006
  0
DIMENSION
  5
7CCF
  8
3
  2
*D3
 10
920.82135436310034
 20
2494.9063490632702
 30
0.0
 11
1091.825212844107
 21
2544.9063490632702
 31
0.0
 70
     0
 13
1262.8290713251149
 23
2422.792884860155
 33
0.0
 14
920.82135436310034
 24
1990.2530320908429
 34
0.0
1001
ACAD
1000
DSTYLE
1002
{
1070
   287
1070
     3
1070
    40
1040
20.0
1070
   143
1040
0.039
1070
   172
1070
     1
1070
   271
1070
     0
1070
   279
1070
     0
1070
   288
1070
     1
1002
}
  0
LINE
  5
7CD0
  8
1
 10
736.74852740501808
 20
1684.1384520543411
 30
0.0
 11
1296.748527405018
 21
1814.1384520543411
 31
0.0
  0
LINE
  5
7CD1
  8
1
 10
668.90961524521299
 20
1976.3676121273461
 30
0.0
 11
1228.909615245213
 21
2106.3676121273461
 31
0.0
  0
LINE
  5
7CD2
  8
1
 10
721.69569095826591
 20
1756.4255936711199
 30
0.0
 11
1278.55125435274
 21
1898.7301667410741
 31
0.0
  0
LINE
  5
7CD3
  8
1
 10
687.24193368893975
 20
1904.8417788312929
 30
0.0
 11
1249.839789961635
 21
2022.4103210412179
 31
0.0
  0
LINE
  5
7CD4
  8
1
 10
547.82907132511525
 20
1474.253032090844
 30
0.0
 11
1477.8290713251149
 21
1474.253032090844
 31
0.0
  0
LINE
  5
7CD5
  8
1
 10
547.82907132511525
 20
1549.253032090844
 30
0.0
 11
1477.8290713251149
 21
1549.253032090844
 31
0.0
  0
LINE
  5
7CD6
  8
1
 10
936.22046001418494
 20
1861.853032090844
 30
0.0
 11
1077.8290713251149
 21
1861.853032090844
 31
0.0
  0
LINE
  5
7CD7
  8
1
 10
938.89052621100745
 20
1855.853032090843
 30
0.0
 11
1077.8290713251149
 21
1855.853032090843
 31
0.0
  0
LINE
  5
7CD8
  8
1
 10
547.82907132511525
 20
1585.2530320908429
 30
0.0
 11
1477.8290713251149
 21
1585.253032090844
 31
0.0
  0
LINE
  5
7CD9
  8
1
 10
547.82907132511525
 20
1660.2530320908429
 30
0.0
 11
1477.8290713251149
 21
1660.2530320908429
 31
0.0
  0
LINE
  5
7CDA
  8
2
 10
901.61317680028344
 20
1960.2530320908429
 30
0.0
 11
1580.2068409643921
 21
1960.2530320908429
 31
0.0
  0
LINE
  5
7CDB
  8
1
 10
547.82907132511525
 20
1585.253032090844
 30
0.0
 11
1477.8290713251149
 21
1585.253032090844
 31
0.0
  0
POLYLINE
  5
7CDC
  8
1
 66
     1
 10
0.0
 20
0.0
 30
0.0
  0
VERTEX
  5
8226
  8
1
 10
1542.8290713251149
 20
2392.4757341645459
 30
0.0
  0
VERTEX
  5
8227
  8
1
 10
1262.0676946310971
 20
2372.2240938784212
 30
0.0
 42
0.3908678423645363
  0
VERTEX
  5
8228
  8
1
 10
909.62135436310018
 20
1990.2530320908429
 30
0.0
 42
0.2742389869207948
  0
VERTEX
  5
8229
  8
1
 10
1077.8290713251149
 20
1706.636692110583
 30
0.0
 42
0.3762546939936961
  0
SEQEND
  5
822A
  8
1
  0
LINE
  5
7CE2
  8
1
 10
547.82907132511525
 20
1660.2530320908429
 30
0.0
 11
547.82907132511525
 21
1585.2530320908429
 31
0.0
  0
LINE
  5
7CE3
  8
1
 10
547.82907132511525
 20
1549.253032090844
 30
0.0
 11
547.82907132511525
 21
1474.253032090844
 31
0.0
  0
ARC
  5
7CE4
  8
1
 10
702.82907132511525
 20
1830.2530320908429
 30
0.0
 40
150.0
 50
103.0693178962821
 51
283.06931789628209
  0
CIRCLE
  5
7CE5
  8
1
 10
702.82907132511525
 20
1830.2530320908429
 30
0.0
 40
76.200000000000003
  0
LINE
  5
7CE6
  8
1
 10
581.21655948392515
 20
1730.2530320908429
 30
0.0
 11
824.44158316630535
 21
1730.2530320908429
 31
0.0
  0
LINE
  5
7CE7
  8
1
 10
552.82907132511525
 20
1690.2530320908429
 30
0.0
 11
852.82907132511536
 21
1690.2530320908429
 31
0.0
  0
LINE
  5
7CE8
  8
2
 10
602.21367132511568
 20
1830.2530320908429
 30
0.0
 11
810.87457132511543
 21
1830.2530320908429
 31
0.0
  0
LINE
  5
7CE9
  8
1
 10
649.37867132511565
 20
1744.8027320908429
 30
0.0
 11
642.82907132511525
 21
1738.253032090844
 31
0.0
  0
ARC
  5
7CEA
  8
1
 10
702.82907132511525
 20
1830.2530320908429
 30
0.0
 40
100.8
 50
0.0
 51
254.57230000000001
  0
ARC
  5
7CEB
  8
1
 10
702.82907132511525
 20
1830.2530320908429
 30
0.0
 40
97.0
 50
0.0
 51
261.65320000000003
  0
LINE
  5
7CEC
  8
1
 10
603.72127132511559
 20
1741.921132090843
 30
0.0
 11
620.12207132511548
 21
1772.583132090843
 31
0.0
  0
LINE
  5
7CED
  8
1
 10
552.82907132511525
 20
1690.2530320908429
 30
0.0
 11
552.82907132511525
 21
1660.2530320908429
 31
0.0
  0
LINE
  5
7CEE
  8
1
 10
570.32907132511536
 20
1690.2530320908429
 30
0.0
 11
581.21655948392515
 21
1730.2530320908429
 31
0.0
  0
LINE
  5
7CEF
  8
1
 10
642.82907132511525
 20
1730.253032090844
 30
0.0
 11
642.82907132511525
 21
1740.2530320908429
 31
0.0
  0
ARC
  5
7CF0
  8
1
 10
640.82907132511536
 20
1740.2530320908429
 30
0.0
 40
2.0
 50
0.0
 51
90.0
  0
LINE
  5
7CF1
  8
1
 10
622.82907132511525
 20
1743.6335320908429
 30
0.0
 11
622.82907132511525
 21
1726.2864320908429
 31
0.0
  0
LINE
  5
7CF2
  8
1
 10
628.82907132511536
 20
1730.253032090844
 30
0.0
 11
628.82907132511536
 21
1742.253032090844
 31
0.0
  0
LINE
  5
7CF3
  8
1
 10
616.82907132511525
 20
1742.253032090844
 30
0.0
 11
616.82907132511525
 21
1730.253032090844
 31
0.0
  0
LINE
  5
7CF4
  8
1
 10
602.82907132511525
 20
1730.253032090844
 30
0.0
 11
602.82907132511525
 21
1740.2530320908429
 31
0.0
  0
ARC
  5
7CF5
  8
1
 10
604.82907132511525
 20
1740.2530320908429
 30
0.0
 40
2.0
 50
90.0
 51
180.0
  0
LINE
  5
7CF6
  8
1
 10
602.82907132511525
 20
1730.253032090844
 30
0.0
 11
642.82907132511525
 21
1730.253032090844
 31
0.0
  0
LINE
  5
7CF7
  8
1
 10
604.82907132511525
 20
1742.253032090844
 30
0.0
 11
640.82907132511536
 21
1742.253032090844
 31
0.0
  0
LINE
  5
7CF8
  8
2
 10
702.82907132511525
 20
1931.4779320908431
 30
0.0
 11
702.82907132511525
 21
1728.7646320908441
 31
0.0
  0
ARC
  5
7CF9
  8
1
 10
702.82907132511525
 20
1830.2530320908429
 30
0.0
 40
100.8
 50
285.7971
 51
0.0
  0
ARC
  5
7CFA
  8
1
 10
702.82907132511525
 20
1830.2530320908429
 30
0.0
 40
97.0
 50
278.38409999999988
 51
0.0
  0
LINE
  5
7CFB
  8
1
 10
801.73827132511531
 20
1742.2925320908439
 30
0.0
 11
785.61957132511543
 21
1772.4268320908441
 31
0.0
  0
LINE
  5
7CFC
  8
1
 10
730.44677132511561
 20
1733.253032090844
 30
0.0
 11
675.55967132511569
 21
1733.253032090844
 31
0.0
  0
LINE
  5
7CFD
  8
1
 10
688.12047132511543
 20
1734.2530320908429
 30
0.0
 11
717.60147132511565
 21
1734.2530320908429
 31
0.0
  0
LINE
  5
7CFE
  8
1
 10
800.82907132511525
 20
1742.253032090844
 30
0.0
 11
764.82907132511525
 21
1742.253032090844
 31
0.0
  0
LINE
  5
7CFF
  8
1
 10
802.82907132511536
 20
1730.253032090844
 30
0.0
 11
762.82907132511525
 21
1730.253032090844
 31
0.0
  0
LINE
  5
7D00
  8
1
 10
762.82907132511525
 20
1730.253032090844
 30
0.0
 11
762.82907132511525
 21
1740.2530320908429
 31
0.0
  0
ARC
  5
7D01
  8
1
 10
764.82907132511525
 20
1740.2530320908429
 30
0.0
 40
2.0
 50
90.0
 51
180.0
  0
LINE
  5
7D02
  8
1
 10
756.57567132511576
 20
1744.5065320908429
 30
0.0
 11
762.82907132511525
 21
1738.253032090844
 31
0.0
  0
LINE
  5
7D03
  8
1
 10
802.82907132511536
 20
1730.253032090844
 30
0.0
 11
802.82907132511536
 21
1740.2530320908429
 31
0.0
  0
LINE
  5
7D04
  8
1
 10
782.82907132511536
 20
1743.6335320908429
 30
0.0
 11
782.82907132511536
 21
1726.2864320908429
 31
0.0
  0
LINE
  5
7D05
  8
1
 10
788.82907132511525
 20
1742.253032090844
 30
0.0
 11
788.82907132511525
 21
1730.253032090844
 31
0.0
  0
LINE
  5
7D06
  8
1
 10
776.82907132511525
 20
1730.253032090844
 30
0.0
 11
776.82907132511525
 21
1742.253032090844
 31
0.0
  0
ARC
  5
7D07
  8
1
 10
800.82907132511525
 20
1740.2530320908429
 30
0.0
 40
2.0
 50
0.0
 51
90.0
  0
LINE
  5
7D08
  8
1
 10
852.82907132511536
 20
1690.2530320908429
 30
0.0
 11
852.82907132511536
 21
1660.2530320908429
 31
0.0
  0
LINE
  5
7D09
  8
1
 10
835.32907132511525
 20
1690.2530320908429
 30
0.0
 11
824.4415831663058
 21
1730.2530320908429
 31
0.0
  0
DIMENSION
  5
7D0B
  8
3
  2
*D4
 10
1784.787638218065
 20
1585.253032090844
 30
0.0
 11
1734.787638218065
 21
1772.753032090844
 31
0.0
 70
     0
 13
1580.2068409643921
 23
1960.2530320908429
 33
0.0
 14
1477.8290713251149
 24
1585.253032090844
 34
0.0
 50
90.0
1001
ACAD
1000
DSTYLE
1002
{
1070
   287
1070
     3
1070
    40
1040
20.0
1070
   143
1040
0.039
1070
   172
1070
     1
1070
   271
1070
     0
1070
   279
1070
     0
1070
   288
1070
     1
1002
}
  0
LINE
  5
7D0C
  8
2
 10
1262.8290713251149
 20
2422.792884860155
 30
0.0
 11
1262.8290713251149
 21
1439.813262654726
 31
0.0
  0
LINE
  5
7D0D
  8
1
 10
1477.8290713251149
 20
1660.2530320908429
 30
0.0
 11
1477.8290713251149
 21
1585.253032090844
 31
0.0
  0
DIMENSION
  5
7D0F
  8
3
  2
*D5
 10
1477.8290713251149
 20
1342.5776990205909
 30
0.0
 11
1370.3290713251149
 21
1392.5776990205909
 31
0.0
 70
     0
 13
1262.8290713251149
 23
1439.813262654726
 33
0.0
 14
1477.8290713251149
 24
1474.253032090844
 34
0.0
1001
ACAD
1000
DSTYLE
1002
{
1070
   287
1070
     3
1070
    40
1040
20.0
1070
   143
1040
0.039
1070
   172
1070
     1
1070
   271
1070
     0
1070
   279
1070
     0
1070
   288
1070
     1
1002
}
  0
LINE
  5
7D10
  8
1
 10
1477.8290713251149
 20
1549.253032090844
 30
0.0
 11
1477.8290713251149
 21
1474.253032090844
 31
0.0
  0
DIMENSION
  5
7D12
  8
3
  2
*D6
 10
1784.787638218065
 20
1960.2530320908429
 30
0.0
 11
1734.787638218065
 21
2172.253032090844
 31
0.0
 70
     0
 13
1567.8290713251149
 23
2384.253032090844
 33
0.0
 14
1580.2068409643921
 24
1960.2530320908429
 34
0.0
 50
90.0
1001
ACAD
1000
DSTYLE
1002
{
1070
   287
1070
     3
1070
    40
1040
20.0
1070
   143
1040
0.039
1070
   172
1070
     1
1070
   271
1070
     0
1070
   279
1070
     0
1070
   288
1070
     1
1002
}
  0
DIMENSION
  5
7D13
  8
3
  2
*D7
 10
1691.8076134362959
 20
1972.253032090844
 30
0.0
 11
1641.8076134362959
 21
2178.253032090844
 31
0.0
 70
     0
 13
1567.8290713251149
 23
2384.253032090844
 33
0.0
 14
1567.8290713251149
 24
1972.253032090844
 34
0.0
 50
90.0
1001
ACAD
1000
DSTYLE
1002
{
1070
   287
1070
     3
1070
    40
1040
20.0
1070
   143
1040
0.039
1070
   172
1070
     1
1070
   271
1070
     0
1070
   279
1070
     0
1070
   288
1070
     1
1002
}
  0
ARC
  5
7D14
  8
1
 10
1477.8290713251149
 20
2084.253032090844
 30
0.0
 40
31.0
 50
81.053177905375136
 51
240.96585194849621
  0
LINE
  5
7D15
  8
1
 10
1564.8290713251149
 20
1945.253032090844
 30
0.0
 11
1564.8290713251149
 21
2406.6937541884949
 31
0.0
  0
LINE
  5
7D16
  8
1
 10
1542.8290713251149
 20
1970.253032090844
 30
0.0
 11
1542.8290713251149
 21
2387.2478494034149
 31
0.0
  0
LINE
  5
7D17
  8
1
 10
1567.8290713251149
 20
1945.253032090844
 30
0.0
 11
1567.8290713251149
 21
2411.2478494034149
 31
0.0
  0
ARC
  5
7D18
  8
1
 10
1239.829071325116
 20
1937.253032090844
 30
0.0
 40
258.54745134352208
 50
277.52382043863952
 51
359.99999999999972
  0
ARC
  5
7D19
  8
1
 10
1262.8290713251149
 20
1960.2530320908429
 30
0.0
 40
150.0
 50
283.06931789628209
 51
103.0693178962821
  0
CIRCLE
  5
7D1A
  8
1
 10
1262.8290713251149
 20
1960.2530320908429
 30
0.0
 40
63.5
  0
LINE
  5
7D1B
  8
1
 10
1072.8290713251149
 20
1905.053032090844
 30
0.0
 11
1452.8290713251149
 21
1905.053032090844
 31
0.0
  0
LINE
  5
7D1C
  8
1
 10
1037.8290713251149
 20
1901.853032090844
 30
0.0
 11
1487.8290713251149
 21
1901.853032090843
 31
0.0
  0
LINE
  5
7D1D
  8
1
 10
1037.8290713251149
 20
1901.853032090843
 30
0.0
 11
1037.8290713251149
 21
1861.853032090844
 31
0.0
  0
LINE
  5
7D1E
  8
1
 10
1077.8290713251149
 20
1901.853032090843
 30
0.0
 11
1077.8290713251149
 21
1660.2530320908429
 31
0.0
  0
LINE
  5
7D1F
  8
1
 10
1057.8290713251149
 20
1700.253032090844
 30
0.0
 11
1057.8290713251149
 21
1660.2530320908429
 31
0.0
  0
LINE
  5
7D20
  8
1
 10
1057.8290713251149
 20
1665.253032090844
 30
0.0
 11
1077.8290713251149
 21
1665.253032090844
 31
0.0
  0
LINE
  5
7D21
  8
1
 10
1057.8290713251149
 20
1700.253032090844
 30
0.0
 11
1077.8290713251149
 21
1700.253032090844
 31
0.0
  0
LINE
  5
7D22
  8
1
 10
1072.8290713251149
 20
1905.053032090844
 30
0.0
 11
1072.8290713251149
 21
1901.853032090843
 31
0.0
  0
LINE
  5
7D23
  8
1
 10
1487.8290713251149
 20
1901.853032090843
 30
0.0
 11
1487.8290713251149
 21
1861.853032090844
 31
0.0
  0
LINE
  5
7D24
  8
1
 10
1447.8290713251149
 20
1901.853032090843
 30
0.0
 11
1447.8290713251149
 21
1660.2530320908429
 31
0.0
  0
POLYLINE
  5
7D25
  8
1
 66
     1
 10
0.0
 20
0.0
 30
0.0
  0
VERTEX
  5
824F
  8
1
 10
1447.8290713251149
 20
1765.498301424333
 30
0.0
 42
0.1742940674201054
  0
VERTEX
  5
8250
  8
1
 10
1509.5765226686381
 20
1937.253032090844
 30
0.0
 42
0.027999042372295
  0
VERTEX
  5
8251
  8
1
 10
1508.175472201588
 20
1962.253032090844
 30
0.0
 42
0.1344533035351137
  0
SEQEND
  5
8252
  8
1
  0
LINE
  5
7D2A
  8
1
 10
1447.8290713251149
 20
1855.853032090843
 30
0.0
 11
1497.001634998468
 21
1855.853032090843
 31
0.0
  0
LINE
  5
7D2B
  8
1
 10
1447.8290713251149
 20
1861.853032090844
 30
0.0
 11
1498.824298127319
 21
1861.853032090844
 31
0.0
  0
LINE
  5
7D2C
  8
1
 10
1447.8290713251149
 20
1700.253032090844
 30
0.0
 11
1467.8290713251149
 21
1700.253032090844
 31
0.0
  0
LINE
  5
7D2D
  8
1
 10
1447.8290713251149
 20
1665.253032090844
 30
0.0
 11
1467.8290713251149
 21
1665.253032090844
 31
0.0
  0
LINE
  5
7D2E
  8
1
 10
1467.8290713251149
 20
1700.253032090844
 30
0.0
 11
1467.8290713251149
 21
1660.2530320908429
 31
0.0
  0
ARC
  5
7D2F
  8
1
 10
1285.8290713251149
 20
1937.25303209084
 30
0.0
 40
212.5474513435226
 50
0.0000000000009807
 51
34.119617631949467
  0
LINE
  5
7D30
  8
1
 10
1452.8290713251149
 20
1905.053032090844
 30
0.0
 11
1452.8290713251149
 21
1901.853032090843
 31
0.0
  0
POLYLINE
  5
7D31
  8
1
 66
     1
 10
0.0
 20
0.0
 30
0.0
 70
     1
  0
VERTEX
  5
8253
  8
1
 10
1567.8290713251149
 20
1970.253032090844
 30
0.0
  0
VERTEX
  5
8254
  8
1
 10
1567.8290713251149
 20
1945.253032090844
 30
0.0
  0
VERTEX
  5
8255
  8
1
 10
1566.8290713251149
 20
1945.253032090844
 30
0.0
 42
-0.4142135623730951
  0
VERTEX
  5
8256
  8
1
 10
1564.8290713251149
 20
1947.253032090844
 30
0.0
  0
VERTEX
  5
8257
  8
1
 10
1564.8290713251149
 20
1963.253032090844
 30
0.0
 42
0.4142135623730951
  0
VERTEX
  5
8258
  8
1
 10
1560.8290713251149
 20
1967.253032090844
 30
0.0
  0
VERTEX
  5
8259
  8
1
 10
1544.8290713251149
 20
1967.253032090844
 30
0.0
 42
-0.4142135623730951
  0
VERTEX
  5
825A
  8
1
 10
1542.8290713251149
 20
1969.253032090844
 30
0.0
  0
VERTEX
  5
825B
  8
1
 10
1542.8290713251149
 20
1970.253032090844
 30
0.0
  0
SEQEND
  5
825C
  8
1
  0
LINE
  5
7D3C
  8
1
 10
1496.6915216472401
 20
1972.253032090844
 30
0.0
 11
1567.8290713251149
 21
1972.253032090844
 31
0.0
  0
LINE
  5
7D3D
  8
1
 10
1496.6915216472401
 20
1970.253032090844
 30
0.0
 11
1567.8290713251149
 21
1970.253032090844
 31
0.0
  0
LINE
  5
7D3E
  8
1
 10
1542.8290713251149
 20
1962.253032090844
 30
0.0
 11
1542.8290713251149
 21
1970.253032090844
 31
0.0
  0
LINE
  5
7D3F
  8
1
 10
1508.175472201588
 20
1962.253032090844
 30
0.0
 11
1542.8290713251149
 21
1962.253032090844
 31
0.0
  0
LINE
  5
7D40
  8
1
 10
1562.8290713251149
 20
2102.253032090844
 30
0.0
 11
1482.650119872292
 21
2114.8758583958361
 31
0.0
  0
LINE
  5
7D41
  8
1
 10
1262.920474093366
 20
2361.0565073859389
 30
0.0
 11
1567.8290713251149
 21
2384.253032090844
 31
0.0
  0
DIMENSION
  5
7D42
  8
3
  2
*D8
 10
1262.8290713251149
 20
2494.9063490632702
 30
0.0
 11
1415.3290713251149
 21
2544.9063490632702
 31
0.0
 70
     0
 13
1567.8290713251149
 23
2411.2478494034149
 33
0.0
 14
1262.8290713251149
 24
2422.792884860155
 34
0.0
1001
ACAD
1000
DSTYLE
1002
{
1070
   287
1070
     3
1070
    40
1040
20.0
1070
   143
1040
0.039
1070
   172
1070
     1
1070
   271
1070
     0
1070
   279
1070
     0
1070
   288
1070
     1
1002
}
  0
POLYLINE
  5
7D43
  8
1
 66
     1
 10
0.0
 20
0.0
 30
0.0
  0
VERTEX
  5
8266
  8
1
 10
1567.8290713251149
 20
2386.2582282432891
 30
0.0
  0
VERTEX
  5
8267
  8
1
 10
1386.5325761803831
 20
2373.1811040033408
 30
0.0
 42
0.3908423130543746
  0
SEQEND
  5
8268
  8
1
  0
POLYLINE
  5
7D47
  8
1
 66
     1
 10
0.0
 20
0.0
 30
0.0
 70
     1
  0
VERTEX
  5
8269
  8
1
 10
1567.8290713251149
 20
2386.2478494034149
 30
0.0
  0
VERTEX
  5
826A
  8
1
 10
1567.8290713251149
 20
2411.2478494034149
 30
0.0
  0
VERTEX
  5
826B
  8
1
 10
1566.8290713251149
 20
2411.2478494034149
 30
0.0
 42
0.4142135623730951
  0
VERTEX
  5
826C
  8
1
 10
1564.8290713251149
 20
2409.2478494034149
 30
0.0
  0
VERTEX
  5
826D
  8
1
 10
1564.8290713251149
 20
2393.2478494034149
 30
0.0
 42
-0.4142135623730951
  0
VERTEX
  5
826E
  8
1
 10
1560.8290713251149
 20
2389.2478494034149
 30
0.0
  0
VERTEX
  5
826F
  8
1
 10
1544.8290713251149
 20
2389.2478494034149
 30
0.0
 42
0.4142135623730951
  0
VERTEX
  5
8270
  8
1
 10
1542.8290713251149
 20
2387.2478494034149
 30
0.0
  0
VERTEX
  5
8271
  8
1
 10
1542.8290713251149
 20
2386.2478494034149
 30
0.0
  0
SEQEND
  5
8272
  8
1
  0
LINE
  5
7D52
  8
1
 10
1542.8290713251149
 20
2392.4757341645459
 30
0.0
 11
1542.8290713251149
 21
2386.2478494034149
 31
0.0
  0
LINE
  5
7D53
  8
1
 10
552.82907132511582
 20
3158.4380977589758
 30
0.0
 11
1412.8290713251149
 21
3158.438097758974
 31
0.0
  0
LINE
  5
7D54
  8
1
 10
552.82907132511525
 20
3036.4380977589749
 30
0.0
 11
1412.8290713251149
 21
3036.438097758974
 31
0.0
  0
DIMENSION
  5
7D55
  8
3
  2
*D9
 10
547.82907132511525
 20
4106.1885391676597
 30
0.0
 11
797.82907132511525
 21
4156.1885391676597
 31
0.0
 70
     0
 13
1047.8290713251149
 23
3991.4380977589749
 33
0.0
 14
547.82907132511525
 24
3551.4380977589731
 34
0.0
1001
ACAD
1000
DSTYLE
1002
{
1070
   287
1070
     3
1070
    40
1040
20.0
1070
   143
1040
0.039
1070
   172
1070
     1
1070
   271
1070
     0
1070
   279
1070
     0
1070
   288
1070
     1
1002
}
  0
DIMENSION
  5
7D56
  8
3
  2
*D10
 10
1477.8290713251149
 20
2913.2629435347449
 30
0.0
 11
1012.829071325115
 21
2963.2629435347449
 31
0.0
 70
     0
 13
547.82907132511525
 23
3131.4380977589731
 33
0.0
 14
1477.8290713251149
 24
3131.438097758974
 34
0.0
1001
ACAD
1000
DSTYLE
1002
{
1070
   287
1070
     3
1070
    40
1040
20.0
1070
   143
1040
0.039
1070
   172
1070
     1
1070
   271
1070
     0
1070
   279
1070
     0
1070
   288
1070
     1
1002
}
  0
LINE
  5
7D57
  8
1
 10
1199.3290713251149
 20
3116.4380977589749
 30
0.0
 11
779.02907132511564
 21
3116.4380977589749
 31
0.0
  0
LINE
  5
7D58
  8
1
 10
779.02907132511564
 20
3066.4380977589749
 30
0.0
 11
1199.3290713251149
 21
3066.4380977589749
 31
0.0
  0
LINE
  5
7D59
  8
1
 10
802.82907132511536
 20
3171.438097758974
 30
0.0
 11
1072.8290713251149
 21
3171.438097758974
 31
0.0
  0
LINE
  5
7D5A
  8
1
 10
909.62135436310018
 20
3646.438097758974
 30
0.0
 11
1564.8290713251149
 21
3646.438097758974
 31
0.0
  0
LINE
  5
7D5B
  8
1
 10
909.62135436310018
 20
3946.438097758974
 30
0.0
 11
1564.8290713251149
 21
3946.438097758974
 31
0.0
  0
LINE
  5
7D5C
  8
2
 10
885.65496786241044
 20
3796.438097758974
 30
0.0
 11
1670.9335451839879
 21
3796.438097758974
 31
0.0
  0
LINE
  5
7D5D
  8
1
 10
547.82907132511525
 20
3551.4380977589731
 30
0.0
 11
1047.8290713251149
 21
3551.4380977589749
 31
0.0
  0
LINE
  5
7D5E
  8
1
 10
547.82907132511525
 20
3511.438097758974
 30
0.0
 11
1047.8290713251149
 21
3511.438097758974
 31
0.0
  0
LINE
  5
7D5F
  8
1
 10
547.82907132511525
 20
3131.4380977589731
 30
0.0
 11
1242.8290713251149
 21
3131.4380977589749
 31
0.0
  0
LINE
  5
7D60
  8
1
 10
552.82907132511525
 20
3036.4380977589749
 30
0.0
 11
552.82907132511525
 21
3158.4380977589758
 31
0.0
  0
LINE
  5
7D61
  8
1
 10
779.02907132511564
 20
3116.4380977589749
 30
0.0
 11
779.02907132511564
 21
3066.4380977589749
 31
0.0
  0
LINE
  5
7D62
  8
1
 10
626.62907132511555
 20
3116.4380977589749
 30
0.0
 11
626.62907132511555
 21
3066.4380977589749
 31
0.0
  0
LINE
  5
7D63
  8
2
 10
702.82907132511525
 20
3437.7687977589749
 30
0.0
 11
702.82907132511525
 21
3061.1200977589751
 31
0.0
  0
LINE
  5
7D64
  8
1
 10
626.62907132511555
 20
3066.4380977589749
 30
0.0
 11
779.02907132511564
 21
3066.4380977589749
 31
0.0
  0
LINE
  5
7D65
  8
1
 10
626.62907132511555
 20
3116.4380977589749
 30
0.0
 11
779.02907132511518
 21
3116.4380977589749
 31
0.0
  0
LINE
  5
7D66
  8
1
 10
802.82907132511536
 20
3137.4380977589749
 30
0.0
 11
602.82907132511525
 21
3137.4380977589749
 31
0.0
  0
LINE
  5
7D67
  8
1
 10
602.82907132511525
 20
3432.4380977589749
 30
0.0
 11
802.82907132511536
 21
3432.4380977589749
 31
0.0
  0
DIMENSION
  5
7D68
  8
3
  2
*D11
 10
472.48513316474782
 20
3551.4380977589731
 30
0.0
 11
422.4851331647472
 21
3341.438097758974
 31
0.0
 70
     0
 13
547.82907132511525
 23
3131.4380977589731
 33
0.0
 14
547.82907132511525
 24
3551.4380977589731
 34
0.0
 50
90.0
1001
ACAD
1000
DSTYLE
1002
{
1070
   287
1070
     3
1070
    40
1040
20.0
1070
   143
1040
0.039
1070
   172
1070
     1
1070
   271
1070
     0
1070
   279
1070
     0
1070
   288
1070
     1
1002
}
  0
LINE
  5
7D69
  8
1
 10
602.82907132511525
 20
3137.4380977589749
 30
0.0
 11
602.82907132511525
 21
3432.4380977589749
 31
0.0
  0
LINE
  5
7D6A
  8
1
 10
547.82907132511525
 20
3171.438097758974
 30
0.0
 11
602.82907132511525
 21
3171.438097758974
 31
0.0
  0
LINE
  5
7D6B
  8
1
 10
547.82907132511525
 20
3171.438097758974
 30
0.0
 11
547.82907132511525
 21
3131.438097758974
 31
0.0
  0
POINT
  5
7D6C
  8
1
 10
547.82907132511525
 20
3131.4380977589731
 30
0.0
  0
POINT
  5
7D6D
  8
1
 10
547.82907132511525
 20
3131.4380977589731
 30
0.0
  0
LINE
  5
7D6E
  8
1
 10
604.82907132511525
 20
3511.438097758974
 30
0.0
 11
604.82907132511525
 21
3432.4380977589749
 31
0.0
  0
LINE
  5
7D6F
  8
1
 10
547.82907132511525
 20
3551.4380977589731
 30
0.0
 11
547.82907132511525
 21
3511.438097758974
 31
0.0
  0
LINE
  5
7D70
  8
1
 10
802.82907132511536
 20
3259.4380977589749
 30
0.0
 11
802.82907132511536
 21
3432.4380977589749
 31
0.0
  0
LINE
  5
7D71
  8
1
 10
802.82907132511536
 20
3259.4380977589749
 30
0.0
 11
802.82907132511536
 21
3137.4380977589749
 31
0.0
  0
LINE
  5
7D72
  8
1
 10
665.82907132511536
 20
3131.4380977589749
 30
0.0
 11
739.82907132511525
 21
3131.4380977589749
 31
0.0
  0
LINE
  5
7D73
  8
1
 10
662.82907132511525
 20
3137.4380977589749
 30
0.0
 11
662.82907132511525
 21
3134.4380977589749
 31
0.0
  0
ARC
  5
7D74
  8
1
 10
665.82907132511536
 20
3134.4380977589749
 30
0.0
 40
2.9998999999999989
 50
179.99879999999999
 51
270.00119999999998
  0
LINE
  5
7D75
  8
1
 10
717.42907132511573
 20
3131.4380977589749
 30
0.0
 11
717.42907132511573
 21
3126.438097758974
 31
0.0
  0
LINE
  5
7D76
  8
1
 10
688.22917132511554
 20
3131.4380977589749
 30
0.0
 11
688.22917132511554
 21
3126.438097758974
 31
0.0
  0
LINE
  5
7D77
  8
1
 10
717.42907132511573
 20
3126.438097758974
 30
0.0
 11
688.22917132511554
 21
3126.438097758974
 31
0.0
  0
LINE
  5
7D78
  8
1
 10
716.82907132511525
 20
3126.438097758974
 30
0.0
 11
716.82907132511525
 21
3116.4380977589749
 31
0.0
  0
LINE
  5
7D79
  8
1
 10
688.82907132511525
 20
3126.438097758974
 30
0.0
 11
688.82907132511525
 21
3116.4380977589749
 31
0.0
  0
LINE
  5
7D7A
  8
1
 10
742.82907132511525
 20
3137.4380977589749
 30
0.0
 11
742.82907132511525
 21
3134.4380977589749
 31
0.0
  0
ARC
  5
7D7B
  8
1
 10
739.82917132511545
 20
3134.4380977589749
 30
0.0
 40
2.9998999999999989
 50
269.99880000000002
 51
0.0012000000000121
  0
LINE
  5
7D7C
  8
1
 10
800.82907132511525
 20
3511.438097758974
 30
0.0
 11
800.82907132511525
 21
3432.4380977589749
 31
0.0
  0
LINE
  5
7D7D
  8
1
 10
644.82907132511536
 20
3511.438097758974
 30
0.0
 11
644.82907132511536
 21
3432.4380977589749
 31
0.0
  0
LINE
  5
7D7E
  8
1
 10
760.82907132511525
 20
3511.438097758974
 30
0.0
 11
760.82907132511525
 21
3432.4380977589749
 31
0.0
  0
LINE
  5
7D7F
  8
1
 10
909.62135436310018
 20
3646.438097758974
 30
0.0
 11
909.62135436310018
 21
3946.438097758974
 31
0.0
  0
DIMENSION
  5
7D80
  8
3
  2
*D12
 10
1763.9715464671419
 20
3991.4380977589749
 30
0.0
 11
1713.971546467141
 21
3561.4380977589749
 31
0.0
 70
     0
 13
1477.8290713251149
 23
3131.438097758974
 33
0.0
 14
1477.8290713251149
 24
3991.4380977589749
 34
0.0
 50
90.0
1001
ACAD
1000
DSTYLE
1002
{
1070
   287
1070
     3
1070
    40
1040
20.0
1070
   143
1040
0.039
1070
   172
1070
     1
1070
   271
1070
     0
1070
   279
1070
     0
1070
   288
1070
     1
1002
}
  0
LINE
  5
7D81
  8
1
 10
1282.8290713251149
 20
3646.438097758974
 30
0.0
 11
1282.8290713251149
 21
3561.0380977589748
 31
0.0
  0
LINE
  5
7D82
  8
1
 10
1242.8290713251149
 20
3646.438097758974
 30
0.0
 11
1242.8290713251149
 21
3561.0380977589748
 31
0.0
  0
LINE
  5
7D83
  8
1
 10
1452.8290713251149
 20
3581.4380977589749
 30
0.0
 11
1452.8290713251149
 21
3156.4380977589731
 31
0.0
  0
LINE
  5
7D84
  8
1
 10
1072.8290713251149
 20
3581.4380977589749
 30
0.0
 11
1072.8290713251149
 21
3156.4380977589749
 31
0.0
  0
LINE
  5
7D85
  8
1
 10
1047.8290713251149
 20
3646.438097758974
 30
0.0
 11
1047.8290713251149
 21
3171.438097758974
 31
0.0
  0
LINE
  5
7D86
  8
1
 10
1477.8290713251149
 20
3646.438097758974
 30
0.0
 11
1477.8290713251149
 21
3131.438097758974
 31
0.0
  0
LINE
  5
7D87
  8
2
 10
1262.8290713251149
 20
4046.4233929146822
 30
0.0
 11
1262.8290713251149
 21
3046.4900034335842
 31
0.0
  0
LINE
  5
7D88
  8
1
 10
1412.8290713251149
 20
3036.4380977589749
 30
0.0
 11
1412.8290713251149
 21
3158.438097758974
 31
0.0
  0
LINE
  5
7D89
  8
1
 10
1326.3290713251149
 20
3116.4380977589749
 30
0.0
 11
1326.3290713251149
 21
3066.4380977589749
 31
0.0
  0
LINE
  5
7D8A
  8
1
 10
1199.3290713251149
 20
3116.4380977589749
 30
0.0
 11
1199.3290713251149
 21
3066.4380977589749
 31
0.0
  0
LINE
  5
7D8B
  8
1
 10
1199.3290713251149
 20
3066.4380977589749
 30
0.0
 11
1326.3290713251149
 21
3066.438097758974
 31
0.0
  0
LINE
  5
7D8C
  8
1
 10
1282.8290713251149
 20
3131.4380977589749
 30
0.0
 11
1477.8290713251149
 21
3131.438097758974
 31
0.0
  0
LINE
  5
7D8D
  8
1
 10
1282.8290713251149
 20
3156.438097758974
 30
0.0
 11
1452.8290713251149
 21
3156.438097758974
 31
0.0
  0
LINE
  5
7D8E
  8
1
 10
1282.829071325116
 20
3168.938097758974
 30
0.0
 11
1362.8290713251149
 21
3168.938097758974
 31
0.0
  0
LINE
  5
7D8F
  8
1
 10
1282.8290713251149
 20
3233.938097758974
 30
0.0
 11
1362.8290713251149
 21
3233.938097758974
 31
0.0
  0
LINE
  5
7D90
  8
1
 10
1282.8290713251149
 20
3503.9380977589749
 30
0.0
 11
1362.829071325116
 21
3503.9380977589749
 31
0.0
  0
LINE
  5
7D91
  8
1
 10
1282.8290713251149
 20
3568.9380977589749
 30
0.0
 11
1362.829071325116
 21
3568.9380977589749
 31
0.0
  0
LINE
  5
7D92
  8
1
 10
1199.3290713251149
 20
3116.4380977589749
 30
0.0
 11
1326.3290713251149
 21
3116.4380977589749
 31
0.0
  0
LINE
  5
7D93
  8
1
 10
1170.829071325114
 20
3176.8380977589741
 30
0.0
 11
1354.8290713251149
 21
3176.8380977589741
 31
0.0
  0
LINE
  5
7D94
  8
1
 10
1170.829071325114
 20
3226.0380977589748
 30
0.0
 11
1354.8290713251149
 21
3226.0380977589748
 31
0.0
  0
LINE
  5
7D95
  8
1
 10
1170.8290713251149
 20
3511.8380977589741
 30
0.0
 11
1354.8290713251149
 21
3511.8380977589741
 31
0.0
  0
LINE
  5
7D96
  8
1
 10
1170.8290713251149
 20
3561.0380977589748
 30
0.0
 11
1354.8290713251149
 21
3561.0380977589748
 31
0.0
  0
LINE
  5
7D97
  8
2
 10
1154.921840255392
 20
3201.4380977589749
 30
0.0
 11
1370.736302394838
 21
3201.4380977589749
 31
0.0
  0
LINE
  5
7D98
  8
2
 10
1154.921840255392
 20
3536.438097758974
 30
0.0
 11
1370.736302394838
 21
3536.438097758974
 31
0.0
  0
LINE
  5
7D99
  8
1
 10
1242.8290713251149
 20
3511.8380977589741
 30
0.0
 11
1242.8290713251149
 21
3226.0380977589748
 31
0.0
  0
LINE
  5
7D9A
  8
1
 10
1282.8290713251149
 20
3511.8380977589741
 30
0.0
 11
1282.8290713251149
 21
3226.0380977589748
 31
0.0
  0
LINE
  5
7D9B
  8
1
 10
1072.8290713251149
 20
3156.4380977589749
 30
0.0
 11
1242.8290713251149
 21
3156.4380977589749
 31
0.0
  0
LINE
  5
7D9C
  8
1
 10
1170.829071325114
 20
3226.0380977589748
 30
0.0
 11
1170.829071325114
 21
3176.8380977589741
 31
0.0
  0
LINE
  5
7D9D
  8
1
 10
1162.8290713251149
 20
3233.938097758974
 30
0.0
 11
1162.8290713251149
 21
3168.938097758974
 31
0.0
  0
LINE
  5
7D9E
  8
1
 10
1162.8290713251149
 20
3168.938097758974
 30
0.0
 11
1242.8290713251149
 21
3168.938097758974
 31
0.0
  0
LINE
  5
7D9F
  8
1
 10
1242.8290713251149
 20
3176.8380977589741
 30
0.0
 11
1242.8290713251149
 21
3116.4380977589749
 31
0.0
  0
LINE
  5
7DA0
  8
1
 10
1282.8290713251149
 20
3176.8380977589741
 30
0.0
 11
1282.8290713251149
 21
3116.4380977589749
 31
0.0
  0
LINE
  5
7DA1
  8
1
 10
1162.8290713251149
 20
3233.938097758974
 30
0.0
 11
1242.8290713251149
 21
3233.938097758974
 31
0.0
  0
LINE
  5
7DA2
  8
1
 10
1162.8290713251149
 20
3503.9380977589749
 30
0.0
 11
1242.8290713251149
 21
3503.9380977589749
 31
0.0
  0
LINE
  5
7DA3
  8
1
 10
1162.8290713251149
 20
3568.9380977589749
 30
0.0
 11
1242.8290713251149
 21
3568.9380977589749
 31
0.0
  0
LINE
  5
7DA4
  8
1
 10
1170.8290713251149
 20
3561.0380977589748
 30
0.0
 11
1170.8290713251149
 21
3511.8380977589741
 31
0.0
  0
LINE
  5
7DA5
  8
1
 10
1162.8290713251149
 20
3568.9380977589749
 30
0.0
 11
1162.8290713251149
 21
3503.9380977589749
 31
0.0
  0
LINE
  5
7DA6
  8
1
 10
1452.8290713251149
 20
3171.438097758974
 30
0.0
 11
1477.8290713251149
 21
3171.438097758974
 31
0.0
  0
LINE
  5
7DA7
  8
1
 10
1354.8290713251149
 20
3226.0380977589748
 30
0.0
 11
1354.8290713251149
 21
3176.8380977589741
 31
0.0
  0
LINE
  5
7DA8
  8
1
 10
1362.8290713251149
 20
3233.938097758974
 30
0.0
 11
1362.8290713251149
 21
3168.938097758974
 31
0.0
  0
LINE
  5
7DA9
  8
1
 10
1354.8290713251149
 20
3561.0380977589748
 30
0.0
 11
1354.829071325116
 21
3511.8380977589741
 31
0.0
  0
LINE
  5
7DAA
  8
1
 10
1362.8290713251149
 20
3568.9380977589749
 30
0.0
 11
1362.8290713251149
 21
3503.9380977589749
 31
0.0
  0
DIMENSION
  5
7DAB
  8
3
  2
*D13
 10
1047.8290713251149
 20
4106.1885391676597
 30
0.0
 11
1262.8290713251149
 21
4156.1885391676597
 31
0.0
 70
     0
 13
1477.8290713251149
 23
3991.4380977589749
 33
0.0
 14
1047.8290713251149
 24
3991.4380977589749
 34
0.0
1001
ACAD
1000
DSTYLE
1002
{
1070
   287
1070
     3
1070
    40
1040
20.0
1070
   143
1040
0.039
1070
   172
1070
     1
1070
   271
1070
     0
1070
   279
1070
     0
1070
   288
1070
     1
1002
}
  0
LINE
  5
7DAC
  8
1
 10
1072.8290713251149
 20
3581.4380977589749
 30
0.0
 11
1452.8290713251149
 21
3581.4380977589749
 31
0.0
  0
LINE
  5
7DAD
  8
1
 10
1087.8290713251149
 20
3989.438097758974
 30
0.0
 11
1437.8290713251149
 21
3989.438097758974
 31
0.0
  0
LINE
  5
7DAE
  8
1
 10
1087.8290713251149
 20
3949.438097758974
 30
0.0
 11
1437.8290713251149
 21
3949.438097758974
 31
0.0
  0
LINE
  5
7DAF
  8
1
 10
1087.8290713251149
 20
3646.438097758974
 30
0.0
 11
1087.8290713251149
 21
3588.71546030442
 31
0.0
  0
LINE
  5
7DB0
  8
1
 10
1087.8290713251149
 20
3604.438097758974
 30
0.0
 11
1087.8290713251149
 21
3581.4380977589749
 31
0.0
  0
LINE
  5
7DB1
  8
1
 10
1047.8290713251149
 20
3991.4380977589749
 30
0.0
 11
1047.8290713251149
 21
3946.438097758974
 31
0.0
  0
LINE
  5
7DB2
  8
1
 10
1087.8290713251149
 20
3991.4380977589749
 30
0.0
 11
1087.8290713251149
 21
3946.438097758974
 31
0.0
  0
LINE
  5
7DB3
  8
1
 10
1047.8290713251149
 20
3991.4380977589749
 30
0.0
 11
1087.8290713251149
 21
3991.4380977589749
 31
0.0
  0
POINT
  5
7DB4
  8
1
 10
1047.8290713251149
 20
3991.4380977589749
 30
0.0
  0
LINE
  5
7DB5
  8
1
 10
1564.8290713251149
 20
3619.4380977589749
 30
0.0
 11
1564.8290713251149
 21
3973.4380977589749
 31
0.0
  0
LINE
  5
7DB6
  8
1
 10
1567.8290713251149
 20
3619.4380977589749
 30
0.0
 11
1567.8290713251149
 21
3973.4380977589749
 31
0.0
  0
LINE
  5
7DB7
  8
1
 10
1437.8290713251149
 20
3646.438097758974
 30
0.0
 11
1437.8290713251149
 21
3595.8102009923791
 31
0.0
  0
LINE
  5
7DB8
  8
1
 10
1437.8290713251149
 20
3604.438097758974
 30
0.0
 11
1437.8290713251149
 21
3581.4380977589749
 31
0.0
  0
LINE
  5
7DB9
  8
1
 10
1564.8290713251149
 20
3619.4380977589749
 30
0.0
 11
1567.8290713251149
 21
3619.4380977589749
 31
0.0
  0
LINE
  5
7DBA
  8
1
 10
1437.8290713251149
 20
3991.4380977589749
 30
0.0
 11
1477.8290713251149
 21
3991.4380977589749
 31
0.0
  0
LINE
  5
7DBB
  8
1
 10
1437.8290713251149
 20
3991.4380977589749
 30
0.0
 11
1437.8290713251149
 21
3946.438097758974
 31
0.0
  0
LINE
  5
7DBC
  8
1
 10
1477.8290713251149
 20
3991.4380977589749
 30
0.0
 11
1477.8290713251149
 21
3946.438097758974
 31
0.0
  0
POINT
  5
7DBD
  8
1
 10
1477.8290713251149
 20
3991.4380977589749
 30
0.0
  0
POINT
  5
7DBE
  8
1
 10
1477.8290713251149
 20
3991.4380977589749
 30
0.0
  0
LINE
  5
7DBF
  8
1
 10
1564.8290713251149
 20
3973.4380977589749
 30
0.0
 11
1567.8290713251149
 21
3973.4380977589749
 31
0.0
  0
DIMENSION
  5
7DC0
  8
3
  2
*D14
 10
3297.6330065546231
 20
2634.9311444793561
 30
0.0
 11
3429.0615779831951
 21
2684.9311444793561
 31
0.0
 70
     0
 13
3144.633006554624
 23
2541.4423882656761
 33
0.0
 14
3297.6330065546231
 24
2197.9530320908439
 34
0.0
1001
ACAD
1000
DSTYLE
1002
{
1070
   287
1070
     3
1070
    40
1040
20.0
1070
   143
1040
0.039
1070
   172
1070
     1
1070
   271
1070
     0
1070
   279
1070
     0
1070
   288
1070
     1
1002
}
  0
DIMENSION
  5
7DC1
  8
3
  2
*D15
 10
3144.633006554624
 20
2634.9311444793561
 30
0.0
 11
2764.6330065546231
 21
2684.9311444793561
 31
0.0
 70
     0
 13
2384.6330065546222
 23
2110.2530320908431
 33
0.0
 14
3144.633006554624
 24
2541.4423882656761
 34
0.0
1001
ACAD
1000
DSTYLE
1002
{
1070
   287
1070
     3
1070
    40
1040
20.0
1070
   143
1040
0.039
1070
   172
1070
     1
1070
   271
1070
     0
1070
   279
1070
     0
1070
   288
1070
     1
1002
}
  0
LINE
  5
7DC2
  8
1
 10
2479.6330065546222
 20
1660.2530320908429
 30
0.0
 11
2479.6330065546222
 21
1585.253032090844
 31
0.0
  0
LINE
  5
7DC3
  8
2
 10
3144.633006554624
 20
2481.6025483644121
 30
0.0
 11
3144.633006554624
 21
1439.813262654726
 31
0.0
  0
LINE
  5
7DC4
  8
1
 10
3339.633006554624
 20
1660.2530320908429
 30
0.0
 11
3339.633006554624
 21
1585.253032090844
 31
0.0
  0
DIMENSION
  5
7DC5
  8
3
  2
*D16
 10
3144.633006554624
 20
1336.820218585463
 30
0.0
 11
2812.1330065546231
 21
1386.820218585463
 31
0.0
 70
     0
 13
2479.6330065546222
 23
1474.253032090844
 33
0.0
 14
3144.633006554624
 24
1439.813262654726
 34
0.0
1001
ACAD
1000
DSTYLE
1002
{
1070
   287
1070
     3
1070
    40
1040
20.0
1070
   143
1040
0.039
1070
   172
1070
     1
1070
   271
1070
     0
1070
   279
1070
     0
1070
   288
1070
     1
1002
}
  0
LINE
  5
7DC6
  8
1
 10
2479.6330065546222
 20
1549.253032090844
 30
0.0
 11
3339.633006554624
 21
1549.2530320908429
 31
0.0
  0
LINE
  5
7DC7
  8
1
 10
2479.6330065546222
 20
1474.253032090844
 30
0.0
 11
3339.633006554624
 21
1474.2530320908429
 31
0.0
  0
LINE
  5
7DC8
  8
1
 10
2479.6330065546222
 20
1585.253032090844
 30
0.0
 11
3339.633006554624
 21
1585.253032090844
 31
0.0
  0
LINE
  5
7DC9
  8
1
 10
2519.6330065546222
 20
1585.253032090844
 30
0.0
 11
3339.633006554624
 21
1585.253032090844
 31
0.0
  0
LINE
  5
7DCA
  8
1
 10
2479.6330065546222
 20
1549.253032090844
 30
0.0
 11
2479.6330065546222
 21
1474.253032090844
 31
0.0
  0
DIMENSION
  5
7DCB
  8
3
  2
*D17
 10
3339.633006554624
 20
1336.820218585463
 30
0.0
 11
3242.133006554624
 21
1386.820218585463
 31
0.0
 70
     0
 13
3144.633006554624
 23
1439.813262654726
 33
0.0
 14
3339.633006554624
 24
1474.2530320908429
 34
0.0
1001
ACAD
1000
DSTYLE
1002
{
1070
   287
1070
     3
1070
    40
1040
20.0
1070
   143
1040
0.039
1070
   172
1070
     1
1070
   271
1070
     0
1070
   279
1070
     0
1070
   288
1070
     1
1002
}
  0
LINE
  5
7DCC
  8
1
 10
3339.633006554624
 20
1549.253032090844
 30
0.0
 11
3339.633006554624
 21
1474.253032090844
 31
0.0
  0
LINE
  5
7DCD
  8
1
 10
2909.1634114081862
 20
1940.2530320908429
 30
0.0
 11
2992.6330065546231
 21
1940.2530320908429
 31
0.0
  0
LINE
  5
7DCE
  8
1
 10
2906.0330065546232
 20
1980.253032090844
 30
0.0
 11
2967.6330065546222
 21
1980.253032090844
 31
0.0
  0
LINE
  5
7DCF
  8
2
 10
2397.6222299509991
 20
1960.2530320908429
 30
0.0
 11
3195.2280963155731
 21
1960.2530320908429
 31
0.0
  0
POLYLINE
  5
7DD0
  8
1
 66
     1
 10
0.0
 20
0.0
 30
0.0
 70
     1
  0
VERTEX
  5
82C5
  8
1
 10
2919.6330065546222
 20
1861.853032090843
 30
0.0
  0
VERTEX
  5
82C6
  8
1
 10
2959.6330065546222
 20
1861.853032090843
 30
0.0
  0
VERTEX
  5
82C7
  8
1
 10
2959.6330065546222
 20
1863.853032090843
 30
0.0
 42
0.4142135623730951
  0
VERTEX
  5
82C8
  8
1
 10
2956.6330065546222
 20
1866.853032090843
 30
0.0
  0
VERTEX
  5
82C9
  8
1
 10
2929.1330065546222
 20
1866.853032090843
 30
0.0
 42
-0.4142135623730951
  0
VERTEX
  5
82CA
  8
1
 10
2924.6330065546231
 20
1871.353032090843
 30
0.0
  0
VERTEX
  5
82CB
  8
1
 10
2924.6330065546231
 20
1898.853032090843
 30
0.0
 42
0.4142135623730951
  0
VERTEX
  5
82CC
  8
1
 10
2921.6330065546231
 20
1901.853032090843
 30
0.0
  0
VERTEX
  5
82CD
  8
1
 10
2919.6330065546222
 20
1901.853032090843
 30
0.0
  0
SEQEND
  5
82CE
  8
1
  0
LINE
  5
7DDB
  8
1
 10
2479.6330065546222
 20
1660.2530320908429
 30
0.0
 11
3339.633006554624
 21
1660.2530320908429
 31
0.0
  0
LINE
  5
7DDC
  8
1
 10
2584.5330065546218
 20
1940.2530320908429
 30
0.0
 11
2849.733006554623
 21
1940.2530320908429
 31
0.0
  0
LINE
  5
7DDD
  8
1
 10
2584.5330065546218
 20
1980.253032090844
 30
0.0
 11
2849.733006554623
 21
1980.253032090844
 31
0.0
  0
LINE
  5
7DDE
  8
1
 10
2504.6330065546222
 20
1901.853032090843
 30
0.0
 11
2929.6330065546222
 21
1901.853032090843
 31
0.0
  0
LINE
  5
7DDF
  8
1
 10
2504.6330065546222
 20
1905.053032090844
 30
0.0
 11
2929.6330065546222
 21
1905.053032090844
 31
0.0
  0
LINE
  5
7DE0
  8
1
 10
2506.6330065546222
 20
2110.2530320908431
 30
0.0
 11
2506.6330065546222
 21
1680.253032090844
 31
0.0
  0
LINE
  5
7DE1
  8
1
 10
2384.6330065546222
 20
2110.2530320908431
 30
0.0
 11
2384.6330065546222
 21
1680.253032090844
 31
0.0
  0
LINE
  5
7DE2
  8
1
 10
2464.6330065546222
 20
2023.753032090844
 30
0.0
 11
2464.6330065546222
 21
1754.0530320908431
 31
0.0
  0
LINE
  5
7DE3
  8
1
 10
2414.6330065546222
 20
2023.753032090844
 30
0.0
 11
2414.6330065546222
 21
1754.0530320908431
 31
0.0
  0
LINE
  5
7DE4
  8
1
 10
2517.8330065546229
 20
1901.853032090843
 30
0.0
 11
2517.8330065546229
 21
1660.2530320908429
 31
0.0
  0
LINE
  5
7DE5
  8
1
 10
2514.6330065546222
 20
1901.853032090843
 30
0.0
 11
2514.6330065546222
 21
1660.2530320908429
 31
0.0
  0
LINE
  5
7DE6
  8
2
 10
2549.6330065546231
 20
2058.3463680103291
 30
0.0
 11
2549.6330065546231
 21
1846.3766711216369
 31
0.0
  0
LINE
  5
7DE7
  8
1
 10
2384.6330065546222
 20
1680.253032090844
 30
0.0
 11
2506.6330065546222
 21
1680.253032090844
 31
0.0
  0
LINE
  5
7DE8
  8
1
 10
2414.6330065546222
 20
1754.0530320908431
 30
0.0
 11
2464.6330065546222
 21
1754.0530320908431
 31
0.0
  0
LINE
  5
7DE9
  8
2
 10
2403.6688939135161
 20
1830.2530320908429
 30
0.0
 11
2526.5997064996332
 21
1830.2530320908429
 31
0.0
  0
LINE
  5
7DEA
  8
1
 10
2464.633006554624
 20
1816.2530320908429
 30
0.0
 11
2514.6330065546222
 21
1816.2530320908429
 31
0.0
  0
LINE
  5
7DEB
  8
1
 10
2464.633006554624
 20
1844.2530320908429
 30
0.0
 11
2514.6330065546222
 21
1844.2530320908429
 31
0.0
  0
LINE
  5
7DEC
  8
1
 10
2384.6330065546222
 20
2110.2530320908431
 30
0.0
 11
2506.6330065546231
 21
2110.2530320908431
 31
0.0
  0
LINE
  5
7DED
  8
1
 10
2414.6330065546222
 20
1896.753032090844
 30
0.0
 11
2464.6330065546222
 21
1896.753032090844
 31
0.0
  0
LINE
  5
7DEE
  8
1
 10
2414.6330065546222
 20
2023.753032090844
 30
0.0
 11
2464.6330065546222
 21
2023.753032090844
 31
0.0
  0
ARC
  5
7DEF
  8
1
 10
2760.2819051365791
 20
1995.2622885238841
 30
0.0
 40
194.8824391137272
 50
176.8950460354223
 51
199.54871276881059
  0
ARC
  5
7DF0
  8
1
 10
2338.9841079726648
 20
1995.2622885238841
 30
0.0
 40
194.8824391137272
 50
340.45128723118921
 51
3.1049539645776858
  0
LINE
  5
7DF1
  8
1
 10
2522.6330065546222
 20
1930.0530320908431
 30
0.0
 11
2576.6330065546222
 21
1930.0530320908431
 31
0.0
  0
LINE
  5
7DF2
  8
1
 10
2533.8021575083899
 20
1990.2530320908429
 30
0.0
 11
2528.2330065546221
 21
1990.2530320908429
 31
0.0
  0
LINE
  5
7DF3
  8
1
 10
2576.6330065546222
 20
1911.0530320908431
 30
0.0
 11
2522.6330065546222
 21
1911.0530320908431
 31
0.0
  0
POLYLINE
  5
7DF4
  8
1
 66
     1
 10
0.0
 20
0.0
 30
0.0
 70
     1
  0
VERTEX
  5
82CF
  8
1
 10
2517.1330065546222
 20
1905.053032090844
 30
0.0
  0
VERTEX
  5
82D0
  8
1
 10
2582.1330065546222
 20
1905.053032090844
 30
0.0
  0
VERTEX
  5
82D1
  8
1
 10
2582.1330065546222
 20
1911.0530320908431
 30
0.0
  0
VERTEX
  5
82D2
  8
1
 10
2517.1330065546222
 20
1911.0530320908431
 30
0.0
  0
SEQEND
  5
82D3
  8
1
  0
LINE
  5
7DFA
  8
1
 10
2522.6330065546222
 20
1911.0530320908431
 30
0.0
 11
2522.6330065546222
 21
1930.0530320908431
 31
0.0
  0
LINE
  5
7DFB
  8
1
 10
2504.6330065546222
 20
1905.053032090844
 30
0.0
 11
2504.6330065546222
 21
1901.853032090843
 31
0.0
  0
LINE
  5
7DFC
  8
1
 10
2464.633006554624
 20
1940.2530320908429
 30
0.0
 11
2525.9417148828938
 21
1940.2530320908429
 31
0.0
  0
LINE
  5
7DFD
  8
1
 10
2464.633006554624
 20
1980.253032090844
 30
0.0
 11
2528.2330065546221
 21
1980.253032090844
 31
0.0
  0
LINE
  5
7DFE
  8
1
 10
2528.2330065546221
 20
1990.2530320908429
 30
0.0
 11
2528.2330065546221
 21
1948.74326595857
 31
0.0
  0
LINE
  5
7DFF
  8
1
 10
2584.5330065546218
 20
1990.2530320908429
 30
0.0
 11
2584.5330065546218
 21
1930.253032090844
 31
0.0
  0
LINE
  5
7E00
  8
1
 10
2584.5330065546218
 20
1930.253032090844
 30
0.0
 11
2576.562114006339
 21
1930.253032090844
 31
0.0
  0
LINE
  5
7E01
  8
1
 10
2576.6330065546222
 20
1911.0530320908431
 30
0.0
 11
2576.6330065546222
 21
1930.0530320908431
 31
0.0
  0
LINE
  5
7E02
  8
1
 10
2584.5330065546218
 20
1990.2530320908429
 30
0.0
 11
2565.4638556008558
 21
1990.2530320908429
 31
0.0
  0
POLYLINE
  5
7E03
  8
1
 66
     1
 10
0.0
 20
0.0
 30
0.0
 70
     1
  0
VERTEX
  5
82D4
  8
1
 10
2555.337090055813
 20
2018.1186886538001
 30
0.0
  0
VERTEX
  5
82D5
  8
1
 10
2550.5943689424639
 20
2018.1186886538001
 30
0.0
  0
VERTEX
  5
82D6
  8
1
 10
2550.5943689424639
 20
2011.0530320908431
 30
0.0
  0
VERTEX
  5
82D7
  8
1
 10
2555.337090055813
 20
2011.0530320908431
 30
0.0
  0
SEQEND
  5
82D8
  8
1
  0
ARC
  5
7E09
  8
1
 10
2536.5760538408508
 20
2005.980620372743
 30
0.0
 40
3.0
 50
108.0376136626346
 51
183.10495396457819
  0
ARC
  5
7E0A
  8
1
 10
2562.689959268394
 20
2005.980620372743
 30
0.0
 40
3.0
 50
356.89504603542167
 51
71.962386337365331
  0
ARC
  5
7E0B
  8
1
 10
2549.6330065546231
 20
1965.88503454178
 30
0.0
 40
45.167997549063401
 50
71.962386337365885
 51
108.0376136626341
  0
LINE
  5
7E0C
  8
1
 10
2919.6330065546222
 20
1901.853032090843
 30
0.0
 11
2919.6330065546222
 21
1660.2530320908429
 31
0.0
  0
LINE
  5
7E0D
  8
2
 10
2884.6330065546222
 20
2058.3463680103291
 30
0.0
 11
2884.6330065546222
 21
1843.0732472740219
 31
0.0
  0
ARC
  5
7E0E
  8
1
 10
3095.2819051365791
 20
1995.2622885238841
 30
0.0
 40
194.8824391137272
 50
176.8950460354223
 51
199.54871276881059
  0
ARC
  5
7E0F
  8
1
 10
2673.9841079726662
 20
1995.2622885238841
 30
0.0
 40
194.8824391137272
 50
340.45128723118921
 51
3.1049539645776889
  0
LINE
  5
7E10
  8
1
 10
2857.6330065546231
 20
1911.0530320908431
 30
0.0
 11
2911.6330065546222
 21
1911.0530320908431
 31
0.0
  0
LINE
  5
7E11
  8
1
 10
2911.6330065546222
 20
1930.0530320908431
 30
0.0
 11
2857.6330065546231
 21
1930.0530320908431
 31
0.0
  0
LINE
  5
7E12
  8
1
 10
2849.733006554623
 20
1990.2530320908429
 30
0.0
 11
2868.8021575083899
 21
1990.2530320908429
 31
0.0
  0
POLYLINE
  5
7E13
  8
1
 66
     1
 10
0.0
 20
0.0
 30
0.0
 70
     1
  0
VERTEX
  5
82D9
  8
1
 10
2852.1330065546222
 20
1905.053032090844
 30
0.0
  0
VERTEX
  5
82DA
  8
1
 10
2917.1330065546222
 20
1905.053032090844
 30
0.0
  0
VERTEX
  5
82DB
  8
1
 10
2917.1330065546222
 20
1911.0530320908431
 30
0.0
  0
VERTEX
  5
82DC
  8
1
 10
2852.1330065546222
 20
1911.0530320908431
 30
0.0
  0
SEQEND
  5
82DD
  8
1
  0
LINE
  5
7E19
  8
1
 10
2849.733006554623
 20
1990.2530320908429
 30
0.0
 11
2849.733006554623
 21
1930.253032090844
 31
0.0
  0
LINE
  5
7E1A
  8
1
 10
2857.6330065546231
 20
1911.0530320908431
 30
0.0
 11
2857.6330065546231
 21
1930.0530320908431
 31
0.0
  0
LINE
  5
7E1B
  8
1
 10
2849.733006554623
 20
1930.253032090844
 30
0.0
 11
2857.7038991029058
 21
1930.253032090844
 31
0.0
  0
LINE
  5
7E1C
  8
1
 10
2911.6330065546222
 20
1911.0530320908431
 30
0.0
 11
2911.6330065546222
 21
1930.0530320908431
 31
0.0
  0
LINE
  5
7E1D
  8
1
 10
2929.6330065546222
 20
1905.053032090844
 30
0.0
 11
2929.6330065546222
 21
1901.853032090843
 31
0.0
  0
LINE
  5
7E1E
  8
1
 10
2906.0330065546232
 20
1990.2530320908429
 30
0.0
 11
2906.0330065546232
 21
1948.74326595857
 31
0.0
  0
LINE
  5
7E1F
  8
1
 10
2900.4638556008558
 20
1990.2530320908429
 30
0.0
 11
2906.0330065546232
 21
1990.2530320908429
 31
0.0
  0
ARC
  5
7E20
  8
1
 10
2897.689959268394
 20
2005.980620372743
 30
0.0
 40
3.0
 50
356.89504603542167
 51
71.962386337365317
  0
ARC
  5
7E21
  8
1
 10
2884.6330065546222
 20
1965.88503454178
 30
0.0
 40
45.167997549063401
 50
71.962386337365871
 51
108.0376136626341
  0
ARC
  5
7E22
  8
1
 10
2871.5760538408508
 20
2005.980620372743
 30
0.0
 40
3.0
 50
108.0376136626346
 51
183.10495396457819
  0
POLYLINE
  5
7E23
  8
1
 66
     1
 10
0.0
 20
0.0
 30
0.0
 70
     1
  0
VERTEX
  5
82DE
  8
1
 10
2878.9289230534318
 20
2018.1186886538001
 30
0.0
  0
VERTEX
  5
82DF
  8
1
 10
2883.6716441667818
 20
2018.1186886538001
 30
0.0
  0
VERTEX
  5
82E0
  8
1
 10
2883.6716441667818
 20
2011.0530320908431
 30
0.0
  0
VERTEX
  5
82E1
  8
1
 10
2878.9289230534318
 20
2011.0530320908431
 30
0.0
  0
SEQEND
  5
82E2
  8
1
  0
DIMENSION
  5
7E29
  8
3
  2
*D18
 10
3440.4504846845839
 20
1760.253032090844
 30
0.0
 11
3390.4504846845839
 21
1960.253032090844
 31
0.0
 70
     0
 13
3323.233006554623
 23
2160.253032090844
 33
0.0
 14
3323.233006554623
 24
1760.253032090844
 34
0.0
 50
90.0
1001
ACAD
1000
DSTYLE
1002
{
1070
   287
1070
     3
1070
    40
1040
20.0
1070
   143
1040
0.039
1070
   172
1070
     1
1070
   271
1070
     0
1070
   279
1070
     0
1070
   288
1070
     1
1002
}
  0
LINE
  5
7E2A
  8
1
 10
2994.6330065546222
 20
2386.253032090844
 30
0.0
 11
3294.633006554624
 21
1972.253032090844
 31
0.0
  0
LINE
  5
7E2B
  8
1
 10
3294.633006554624
 20
2386.253032090844
 30
0.0
 11
2994.6330065546222
 21
1972.253032090844
 31
0.0
  0
LINE
  5
7E2C
  8
1
 10
2967.6330065546222
 20
2411.253032090844
 30
0.0
 11
2967.6330065546222
 21
1945.253032090844
 31
0.0
  0
LINE
  5
7E2D
  8
1
 10
3323.233006554623
 20
2160.253032090844
 30
0.0
 11
3323.233006554623
 21
1760.253032090844
 31
0.0
  0
LINE
  5
7E2E
  8
1
 10
3297.6330065546231
 20
2197.953032090843
 30
0.0
 11
3297.6330065546231
 21
1970.253032090844
 31
0.0
  0
LINE
  5
7E2F
  8
1
 10
3296.633006554624
 20
2386.253032090844
 30
0.0
 11
3296.633006554624
 21
1970.253032090844
 31
0.0
  0
LINE
  5
7E30
  8
1
 10
2992.6330065546231
 20
2386.253032090844
 30
0.0
 11
2992.6330065546231
 21
1970.253032090844
 31
0.0
  0
LINE
  5
7E31
  8
1
 10
3294.633006554624
 20
2386.253032090844
 30
0.0
 11
3294.633006554624
 21
1970.253032090844
 31
0.0
  0
LINE
  5
7E32
  8
1
 10
2994.6330065546222
 20
2386.253032090844
 30
0.0
 11
2994.6330065546222
 21
1970.253032090844
 31
0.0
  0
LINE
  5
7E33
  8
1
 10
2994.6330065546222
 20
1677.045315128828
 30
0.0
 11
3294.633006554624
 21
1677.045315128828
 31
0.0
  0
LINE
  5
7E34
  8
1
 10
3234.7080450429139
 20
1945.253032090844
 30
0.0
 11
3321.633006554624
 21
1945.253032090844
 31
0.0
  0
LINE
  5
7E35
  8
1
 10
3234.7080450429139
 20
1970.253032090844
 30
0.0
 11
3298.233006554623
 21
1970.253032090844
 31
0.0
  0
LINE
  5
7E36
  8
1
 10
3234.7080450429139
 20
1972.253032090844
 30
0.0
 11
3294.633006554624
 21
1972.253032090844
 31
0.0
  0
LINE
  5
7E37
  8
2
 10
3234.7080450429139
 20
1960.2530320908429
 30
0.0
 11
3339.633006554624
 21
1960.2530320908429
 31
0.0
  0
LINE
  5
7E38
  8
1
 10
2994.6330065546222
 20
1945.253032090844
 30
0.0
 11
2994.6330065546222
 21
1667.045315128827
 31
0.0
  0
LINE
  5
7E39
  8
1
 10
2992.6330065546231
 20
1945.253032090844
 30
0.0
 11
2992.6330065546231
 21
1667.045315128827
 31
0.0
  0
POLYLINE
  5
7E3A
  8
1
 66
     1
 10
0.0
 20
0.0
 30
0.0
 70
     1
  0
VERTEX
  5
82EC
  8
1
 10
2992.6330065546231
 20
1660.2530320908429
 30
0.0
  0
VERTEX
  5
82ED
  8
1
 10
2952.6330065546222
 20
1660.2530320908429
 30
0.0
  0
VERTEX
  5
82EE
  8
1
 10
2952.6330065546222
 20
1662.253032090844
 30
0.0
 42
-0.4142135623730951
  0
VERTEX
  5
82EF
  8
1
 10
2955.6330065546222
 20
1665.253032090844
 30
0.0
  0
VERTEX
  5
82F0
  8
1
 10
2983.1330065546222
 20
1665.253032090844
 30
0.0
 42
0.4142135623730951
  0
VERTEX
  5
82F1
  8
1
 10
2987.6330065546222
 20
1669.753032090844
 30
0.0
  0
VERTEX
  5
82F2
  8
1
 10
2987.6330065546222
 20
1697.253032090844
 30
0.0
 42
-0.4142135623730951
  0
VERTEX
  5
82F3
  8
1
 10
2990.6330065546222
 20
1700.253032090844
 30
0.0
  0
VERTEX
  5
82F4
  8
1
 10
2992.6330065546231
 20
1700.253032090844
 30
0.0
  0
SEQEND
  5
82F5
  8
1
  0
LINE
  5
7E45
  8
1
 10
2992.6330065546231
 20
1667.045315128827
 30
0.0
 11
2994.6330065546222
 21
1667.045315128827
 31
0.0
  0
LINE
  5
7E46
  8
1
 10
2942.6330065546231
 20
1857.353032090843
 30
0.0
 11
2992.6330065546231
 21
1857.353032090843
 31
0.0
  0
LINE
  5
7E47
  8
1
 10
2942.6330065546231
 20
1861.853032090844
 30
0.0
 11
2992.6330065546231
 21
1861.853032090844
 31
0.0
  0
LINE
  5
7E48
  8
1
 10
2942.6330065546222
 20
1861.853032090844
 30
0.0
 11
2942.6330065546222
 21
1857.353032090843
 31
0.0
  0
LINE
  5
7E49
  8
1
 10
2992.6330065546231
 20
1945.253032090844
 30
0.0
 11
3249.0183856700692
 21
1945.253032090844
 31
0.0
  0
LINE
  5
7E4A
  8
1
 10
2994.6330065546222
 20
1972.253032090844
 30
0.0
 11
3256.4529282363492
 21
1972.253032090844
 31
0.0
  0
LINE
  5
7E4B
  8
1
 10
2992.6330065546231
 20
1970.253032090844
 30
0.0
 11
3250.0230520669252
 21
1970.253032090844
 31
0.0
  0
LINE
  5
7E4C
  8
1
 10
2967.6330065546222
 20
1945.253032090844
 30
0.0
 11
2992.6330065546231
 21
1945.253032090844
 31
0.0
  0
LINE
  5
7E4D
  8
1
 10
2994.6330065546222
 20
1972.253032090844
 30
0.0
 11
2994.6330065546222
 21
1970.253032090844
 31
0.0
  0
LINE
  5
7E4E
  8
1
 10
3298.233006554623
 20
1945.253032090844
 30
0.0
 11
3298.233006554623
 21
1702.553032090844
 31
0.0
  0
LINE
  5
7E4F
  8
1
 10
3296.633006554624
 20
1945.253032090844
 30
0.0
 11
3296.633006554624
 21
1660.2530320908429
 31
0.0
  0
LINE
  5
7E50
  8
1
 10
3294.633006554624
 20
1945.253032090844
 30
0.0
 11
3294.633006554624
 21
1667.045315128827
 31
0.0
  0
POLYLINE
  5
7E51
  8
1
 66
     1
 10
0.0
 20
0.0
 30
0.0
 70
     1
  0
VERTEX
  5
82F6
  8
1
 10
3298.233006554623
 20
1760.253032090844
 30
0.0
  0
VERTEX
  5
82F7
  8
1
 10
3323.233006554623
 20
1760.253032090844
 30
0.0
  0
VERTEX
  5
82F8
  8
1
 10
3323.233006554623
 20
1759.253032090844
 30
0.0
 42
-0.4142135623730951
  0
VERTEX
  5
82F9
  8
1
 10
3321.233006554623
 20
1757.253032090844
 30
0.0
  0
VERTEX
  5
82FA
  8
1
 10
3305.2330065546221
 20
1757.253032090844
 30
0.0
 42
0.4142135623730951
  0
VERTEX
  5
82FB
  8
1
 10
3301.233006554623
 20
1753.253032090844
 30
0.0
  0
VERTEX
  5
82FC
  8
1
 10
3301.233006554623
 20
1737.253032090844
 30
0.0
 42
-0.4142135623730951
  0
VERTEX
  5
82FD
  8
1
 10
3299.2330065546221
 20
1735.2530320908429
 30
0.0
  0
VERTEX
  5
82FE
  8
1
 10
3298.233006554623
 20
1735.2530320908429
 30
0.0
  0
SEQEND
  5
82FF
  8
1
  0
POLYLINE
  5
7E5C
  8
1
 66
     1
 10
0.0
 20
0.0
 30
0.0
  0
VERTEX
  5
8300
  8
1
 10
3301.633006554624
 20
1682.253032090844
 30
0.0
  0
VERTEX
  5
8301
  8
1
 10
3301.633006554624
 20
1697.253032090844
 30
0.0
 42
0.4142135623730951
  0
VERTEX
  5
8302
  8
1
 10
3298.633006554624
 20
1700.253032090844
 30
0.0
  0
VERTEX
  5
8303
  8
1
 10
3296.633006554624
 20
1700.253032090844
 30
0.0
  0
VERTEX
  5
8304
  8
1
 10
3296.633006554624
 20
1682.253032090844
 30
0.0
  0
SEQEND
  5
8305
  8
1
  0
POLYLINE
  5
7E63
  8
1
 66
     1
 10
0.0
 20
0.0
 30
0.0
  0
VERTEX
  5
8306
  8
1
 10
3296.633006554624
 20
1660.2530320908429
 30
0.0
  0
VERTEX
  5
8307
  8
1
 10
3336.633006554624
 20
1660.2530320908429
 30
0.0
  0
VERTEX
  5
8308
  8
1
 10
3336.633006554624
 20
1662.253032090844
 30
0.0
 42
0.4142135623730951
  0
VERTEX
  5
8309
  8
1
 10
3333.633006554624
 20
1665.253032090844
 30
0.0
  0
VERTEX
  5
830A
  8
1
 10
3306.133006554624
 20
1665.253032090844
 30
0.0
 42
-0.4142135623730951
  0
VERTEX
  5
830B
  8
1
 10
3301.633006554624
 20
1669.753032090844
 30
0.0
  0
VERTEX
  5
830C
  8
1
 10
3301.633006554624
 20
1682.253032090844
 30
0.0
 42
0.4142135623730951
  0
SEQEND
  5
830D
  8
1
  0
POLYLINE
  5
7E6C
  8
1
 66
     1
 10
0.0
 20
0.0
 30
0.0
  0
VERTEX
  5
830E
  8
1
 10
3296.633006554624
 20
1687.253032090844
 30
0.0
  0
VERTEX
  5
830F
  8
1
 10
3296.633006554624
 20
1682.045315128828
 30
0.0
  0
SEQEND
  5
8310
  8
1
  0
LINE
  5
7E70
  8
1
 10
3294.633006554624
 20
1667.045315128827
 30
0.0
 11
3296.633006554624
 21
1667.045315128827
 31
0.0
  0
LINE
  5
7E71
  8
1
 10
3298.233006554623
 20
1702.553032090844
 30
0.0
 11
3296.633006554624
 21
1702.553032090844
 31
0.0
  0
LINE
  5
7E72
  8
1
 10
3298.233006554623
 20
1760.253032090844
 30
0.0
 11
3323.233006554623
 21
1760.253032090844
 31
0.0
  0
DIMENSION
  5
7E73
  8
3
  2
*D19
 10
3294.633006554624
 20
2493.7979321986181
 30
0.0
 11
3144.6330065546231
 21
2543.7979321986181
 31
0.0
 70
     0
 13
2994.6330065546222
 23
2386.253032090844
 33
0.0
 14
3294.633006554624
 24
2386.253032090844
 34
0.0
1001
ACAD
1000
DSTYLE
1002
{
1070
   287
1070
     3
1070
    40
1040
20.0
1070
   143
1040
0.039
1070
   172
1070
     1
1070
   271
1070
     0
1070
   279
1070
     0
1070
   288
1070
     1
1002
}
  0
LINE
  5
7E74
  8
1
 10
2992.6330065546231
 20
2386.253032090844
 30
0.0
 11
3296.633006554624
 21
2386.253032090844
 31
0.0
  0
LINE
  5
7E75
  8
1
 10
2967.6330065546222
 20
2411.253032090844
 30
0.0
 11
3321.633006554624
 21
2411.253032090844
 31
0.0
  0
LINE
  5
7E76
  8
1
 10
3321.633006554624
 20
2411.253032090844
 30
0.0
 11
3321.633006554624
 21
2160.253032090844
 31
0.0
  0
LINE
  5
7E77
  8
1
 10
3323.233006554623
 20
2160.253032090844
 30
0.0
 11
3321.633006554624
 21
2160.253032090844
 31
0.0
  0
LINE
  5
7E78
  8
1
 10
3297.6330065546231
 20
2197.9530320908439
 30
0.0
 11
3296.633006554624
 21
2197.9530320908452
 31
0.0
  0
LINE
  5
807F
  8
4
 10
3700.0
 20
1000.0
 30
0.0
 11
3700.0
 21
600.0
 31
0.0
  0
LINE
  5
8080
  8
4
 10
2300.0
 20
1000.0
 30
0.0
 11
2300.0
 21
600.0
 31
0.0
  0
LINE
  5
8081
  8
4
 10
1300.0
 20
1000.0
 30
0.0
 11
1300.0
 21
600.0
 31
0.0
  0
LINE
  5
8084
  8
4
 10
1300.0
 20
600.0
 30
0.0
 11
3700.0
 21
600.0
 31
0.0
  0
LINE
  5
8085
  8
4
 10
1300.0
 20
800.0
 30
0.0
 11
3700.0
 21
800.0
 31
0.0
  0
TEXT
  5
8086
  8
4
 10
1377.0041616938031
 20
863.08605173322564
 30
0.0
 40
100.0
  1
機器名称
  0
TEXT
  5
8087
  8
4
 10
1372.516212049595
 20
643.29031346402189
 30
0.0
 40
100.0
  1
機器型番
  0
TEXT
  5
8088
  8
4
 10
2299.8546179137488
 20
843.2940186967096
 30
0.0
 40
90.0
  1
ミツヤ多翼送風機
  0
TEXT
  5
8089
  8
4
 10
2373.3089911709608
 20
634.31916855988675
 30
0.0
 40
100.0
  1
MF#2 1/2-1
  0
TEXT
  5
808B
  8
4
 10
1582.5030484153251
 20
4766.8576826650306
 30
0.0
 40
107.9999999999999
  1
床置防振ベット
  0
TEXT
  5
808C
  8
4
 10
632.33518665889278
 20
5067.7619523985959
 30
0.0
 40
144.0
  1
遠心式片吸込片持多翼ファン
  0
LINE
  5
808D
  8
4
 10
500.0
 20
4938.8175085296089
 30
0.0
 11
3700.0
 21
4938.8175085296089
 31
0.0
  0
LINE
  5
808E
  8
4
 10
500.0
 20
5338.8175085296098
 30
0.0
 11
3700.0
 21
5338.8175085296098
 31
0.0
  0
LINE
  5
808F
  8
4
 10
1300.0
 20
1000.0
 30
0.0
 11
3700.0
 21
1000.0
 31
0.0
  0
LINE
  5
8090
  8
4
 10
500.0
 20
5338.8175085296098
 30
0.0
 11
500.0
 21
4938.8175085296089
 31
0.0
  0
TEXT
  5
8091
  8
4
 10
710.78538392992039
 20
4764.638955092687
 30
0.0
 40
107.9999999999999
  1
右回転右横向
  0
TEXT
  5
8092
  8
4
 10
2937.9391184985789
 20
5412.1221629906177
 30
0.0
 40
112.0
  1
No.
  0
TEXT
  5
8093
  8
4
 10
2622.5921252000262
 20
4766.8576826650306
 30
0.0
 40
107.9999999999999
  1
縮尺：1/20
  0
LINE
  5
8094
  8
4
 10
3700.0
 20
5338.8175085296098
 30
0.0
 11
3700.0
 21
4938.8175085296089
 31
0.0
  0
LINE
  5
8095
  8
4
 10
4200.0
 20
5900.0
 30
0.0
 11
4200.0
 21
5900.0
 31
0.0
  0
LINE
  5
8096
  8
4
 10
2881.2348447197292
 20
5362.5271662508021
 30
0.0
 11
2881.2348447197292
 21
5573.3045230995049
 31
0.0
  0
LINE
  5
8097
  8
4
 10
2881.2348447197292
 20
5573.3045230995049
 30
0.0
 11
3700.0
 21
5573.3045230995049
 31
0.0
  0
LINE
  5
8098
  8
4
 10
3700.0
 20
5573.3045230995049
 30
0.0
 11
3700.0
 21
5362.5271662508021
 31
0.0
  0
LINE
  5
8099
  8
4
 10
3700.0
 20
5362.5271662508021
 30
0.0
 11
2881.2348447197292
 21
5362.5271662508021
 31
0.0
  0
LINE
  5
809A
  8
4
 10
0.0
 20
0.0
 30
0.0
 11
0.0
 21
5900.0
 31
0.0
  0
LINE
  5
809B
  8
4
 10
0.0
 20
5900.0
 30
0.0
 11
4200.0
 21
5900.0
 31
0.0
  0
LINE
  5
809C
  8
4
 10
4200.0
 20
5900.0
 30
0.0
 11
4200.0
 21
0.0
 31
0.0
  0
LINE
  5
809D
  8
4
 10
4200.0
 20
0.0
 30
0.0
 11
0.0
 21
0.0
 31
0.0
  0
DIMENSION
  5
81C4
  8
3
  2
*D20
 10
2031.114645892216
 20
1474.2530320908429
 30
0.0
 11
1981.1146458922151
 21
1942.7504407471299
 31
0.0
 70
     0
 13
1567.8290713251149
 23
2411.2478494034149
 33
0.0
 14
1477.8290713251149
 24
1474.253032090844
 34
0.0
 50
90.0
1001
ACAD
1000
DSTYLE
1002
{
1070
   287
1070
     3
1070
    40
1040
20.0
1070
   143
1040
0.039
1070
   172
1070
     1
1070
   271
1070
     0
1070
   279
1070
     0
1002
}
  0
DIMENSION
  5
81DB
  8
3
  2
*D22
 10
1784.1859036365131
 20
1474.2530320908429
 30
0.0
 11
1734.1859036365131
 21
1325.6816035194149
 31
0.0
 70
     0
 13
1477.8290713251149
 23
1549.253032090844
 33
0.0
 14
1477.8290713251149
 24
1474.253032090844
 34
0.0
 50
90.0
1001
ACAD
1000
DSTYLE
1002
{
1070
   287
1070
     3
1070
    40
1040
20.0
1070
   143
1040
0.039
1070
   172
1070
     1
1070
   271
1070
     0
1070
   279
1070
     0
1070
     6
1000
DOT
1002
}
  0
DIMENSION
  5
81EC
  8
3
  2
*D23
 10
1784.1859036365131
 20
1585.253032090844
 30
0.0
 11
1905.614475065084
 21
1643.3958892337009
 31
0.0
 70
     0
 13
1477.8290713251149
 23
1549.253032090844
 33
0.0
 14
1477.8290713251149
 24
1585.253032090844
 34
0.0
 50
90.0
1001
ACAD
1000
DSTYLE
1002
{
1070
   287
1070
     4
1070
     3
1000
(<>)
1070
    40
1040
20.0
1070
   143
1040
0.039
1070
   172
1070
     1
1070
   271
1070
     0
1070
   279
1070
     1
1070
     6
1000
DOT
1002
}
  0
ENDSEC
  0
EOF
