  0
SECTION
  2
HEADER
  9
$ACADVER
  1
AC1009
  9
$INSBASE
 10
0.0
 20
0.0
 30
0.0
  9
$EXTMIN
 10
0.0
 20
0.0
 30
0.0
  9
$EXTMAX
 10
4200.0
 20
5900.0
 30
0.0
  9
$LIMMIN
 10
0.0
 20
0.0
  9
$LIMMAX
 10
297.0
 20
210.0
  9
$ORTHOMODE
 70
     0
  9
$REGENMODE
 70
     1
  9
$FILLMODE
 70
     0
  9
$QTEXTMODE
 70
     0
  9
$MIRRTEXT
 70
     1
  9
$DRAGMODE
 70
     2
  9
$LTSCALE
 40
100.0
  9
$OSMODE
 70
    37
  9
$ATTMODE
 70
     1
  9
$TEXTSIZE
 40
180.0
  9
$TRACEWID
 40
0.05
  9
$TEXTSTYLE
  7
STANDARD
  9
$CLAYER
  8
3
  9
$CELTYPE
  6
BYLAYER
  9
$CECOLOR
 62
   256
  9
$DIMSCALE
 40
20.0
  9
$DIMASZ
 40
2.0
  9
$DIMEXO
 40
0.5
  9
$DIMDLI
 40
10.0
  9
$DIMRND
 40
0.0
  9
$DIMDLE
 40
0.0
  9
$DIMEXE
 40
1.0
  9
$DIMTP
 40
1.0
  9
$DIMTM
 40
1.0
  9
$DIMTXT
 40
3.0
  9
$DIMCEN
 40
0.0
  9
$DIMTSZ
 40
0.0
  9
$DIMTOL
 70
     0
  9
$DIMLIM
 70
     0
  9
$DIMTIH
 70
     0
  9
$DIMTOH
 70
     0
  9
$DIMSE1
 70
     0
  9
$DIMSE2
 70
     0
  9
$DIMTAD
 70
     1
  9
$DIMZIN
 70
     8
  9
$DIMBLK
  1

  9
$DIMASO
 70
     1
  9
$DIMSHO
 70
     1
  9
$DIMPOST
  1

  9
$DIMAPOST
  1

  9
$DIMALT
 70
     0
  9
$DIMALTD
 70
     2
  9
$DIMALTF
 40
0.039
  9
$DIMLFAC
 40
1.0
  9
$DIMTOFL
 70
     1
  9
$DIMTVP
 40
0.0
  9
$DIMTIX
 70
     0
  9
$DIMSOXD
 70
     0
  9
$DIMSAH
 70
     1
  9
$DIMBLK1
  1
OPEN
  9
$DIMBLK2
  1
OPEN
  9
$DIMSTYLE
  2
IGA
  9
$DIMCLRD
 70
     0
  9
$DIMCLRE
 70
     0
  9
$DIMCLRT
 70
     0
  9
$DIMTFAC
 40
10.0
  9
$DIMGAP
 40
1.0
  9
$LUNITS
 70
     2
  9
$LUPREC
 70
     3
  9
$SKETCHINC
 40
0.1
  9
$FILLETRAD
 40
50.0
  9
$AUNITS
 70
     0
  9
$AUPREC
 70
     0
  9
$MENU
  1
acad
  9
$ELEVATION
 40
0.0
  9
$PELEVATION
 40
0.0
  9
$THICKNESS
 40
0.0
  9
$LIMCHECK
 70
     0
  9
$BLIPMODE
 70
     0
  9
$CHAMFERA
 40
0.5
  9
$CHAMFERB
 40
0.5
  9
$SKPOLY
 70
     0
  9
$TDCREATE
 40
2451019.6362526622
  9
$TDUPDATE
 40
2454953.7534684138
  9
$TDINDWG
 40
0.0071560532
  9
$TDUSRTIMER
 40
0.0071560532
  9
$USRTIMER
 70
     1
  9
$ANGBASE
 50
0.0
  9
$ANGDIR
 70
     0
  9
$PDMODE
 70
     0
  9
$PDSIZE
 40
0.0
  9
$PLINEWID
 40
0.0
  9
$COORDS
 70
     1
  9
$SPLFRAME
 70
     0
  9
$SPLINETYPE
 70
     6
  9
$SPLINESEGS
 70
     8
  9
$ATTDIA
 70
     0
  9
$ATTREQ
 70
     1
  9
$HANDLING
 70
 10241
  9
$HANDSEED
  5
8304
  9
$SURFTAB1
 70
     6
  9
$SURFTAB2
 70
     6
  9
$SURFTYPE
 70
     6
  9
$SURFU
 70
     6
  9
$SURFV
 70
     6
  9
$UCSNAME
  2

  9
$UCSORG
 10
0.0
 20
0.0
 30
0.0
  9
$UCSXDIR
 10
1.0
 20
0.0
 30
0.0
  9
$UCSYDIR
 10
0.0
 20
1.0
 30
0.0
  9
$PUCSNAME
  2

  9
$PUCSORG
 10
0.0
 20
0.0
 30
0.0
  9
$PUCSXDIR
 10
1.0
 20
0.0
 30
0.0
  9
$PUCSYDIR
 10
0.0
 20
1.0
 30
0.0
  9
$USERI1
 70
     0
  9
$USERI2
 70
     0
  9
$USERI3
 70
     0
  9
$USERI4
 70
     0
  9
$USERI5
 70
     0
  9
$USERR1
 40
0.0
  9
$USERR2
 40
0.0
  9
$USERR3
 40
0.0
  9
$USERR4
 40
0.0
  9
$USERR5
 40
0.0
  9
$WORLDVIEW
 70
     1
  9
$SHADEDGE
 70
     3
  9
$SHADEDIF
 70
    70
  9
$TILEMODE
 70
     1
  9
$MAXACTVP
 70
    16
  9
$PLIMCHECK
 70
     0
  9
$PEXTMIN
 10
1.0000000000000000E+020
 20
1.0000000000000000E+020
 30
1.0000000000000000E+020
  9
$PEXTMAX
 10
-1.0000000000000000E+020
 20
-1.0000000000000000E+020
 30
-1.0000000000000000E+020
  9
$PLIMMIN
 10
0.0
 20
0.0
  9
$PLIMMAX
 10
12.0
 20
9.0
  9
$UNITMODE
 70
     0
  9
$VISRETAIN
 70
     0
  9
$PLINEGEN
 70
     0
  9
$PSLTSCALE
 70
     1
  0
ENDSEC
  0
SECTION
  2
TABLES
  0
TABLE
  2
VPORT
 70
     2
  0
VPORT
  2
*ACTIVE
 70
     0
 10
0.0
 20
0.0
 11
1.0
 21
1.0
 12
7073.2199177027342
 22
2950.0000137370062
 13
0.0
 23
0.0
 14
10.0
 24
10.0
 15
10.0
 25
10.0
 16
0.0
 26
0.0
 36
1.0
 17
0.0
 27
0.0
 37
0.0
 40
5945.22976603387
 41
3.1666666666666661
 42
50.0
 43
0.0
 44
0.0
 50
0.0
 51
0.0
 71
     0
 72
   100
 73
     1
 74
     0
 75
     0
 76
     0
 77
     0
 78
     0
  0
ENDTAB
  0
TABLE
  2
LTYPE
 70
     2
  0
LTYPE
  2
CONTINUOUS
 70
     0
  3
Solid line
 72
    65
 73
     0
 40
0.0
  0
LTYPE
  2
CENTER
 70
     0
  3
____ _ ____ _ ____ _ ____ _ ____ _ ____ _ ____ 
 72
    65
 73
     4
 40
2.0
 49
1.25
 49
-0.25
 49
0.25
 49
-0.25
  0
ENDTAB
  0
TABLE
  2
LAYER
 70
     6
  0
LAYER
  2
0
 70
     0
 62
     7
  6
CONTINUOUS
  0
LAYER
  2
3
 70
     0
 62
     2
  6
CONTINUOUS
  0
LAYER
  2
2
 70
     0
 62
     3
  6
CENTER
  0
LAYER
  2
1
 70
     0
 62
     4
  6
CONTINUOUS
  0
LAYER
  2
4
 70
     0
 62
     7
  6
CONTINUOUS
  0
LAYER
  2
DEFPOINTS
 70
     0
 62
     7
  6
CONTINUOUS
  0
ENDTAB
  0
TABLE
  2
STYLE
 70
     1
  0
STYLE
  2
STANDARD
 70
     0
 40
0.0
 41
1.0
 50
0.0
 71
     0
 42
180.0
  3
simplex.shx
  4
extfont.shx
  0
ENDTAB
  0
TABLE
  2
VIEW
 70
     0
  0
ENDTAB
  0
TABLE
  2
UCS
 70
     0
  0
ENDTAB
  0
TABLE
  2
APPID
 70
     1
  0
APPID
  2
ACAD
 70
     0
  0
ENDTAB
  0
TABLE
  2
DIMSTYLE
 70
     1
  0
DIMSTYLE
  2
IGA
 70
     0
  3

  4

  5

  6
OPEN
  7
OPEN
 40
2.0
 41
2.0
 42
0.5
 43
10.0
 44
1.0
 45
0.0
 46
0.0
 47
1.0
 48
1.0
140
3.0
141
0.0
142
0.0
143
0.03937
144
1.0
145
0.0
146
10.0
147
1.0
 71
     0
 72
     0
 73
     0
 74
     0
 75
     0
 76
     0
 77
     1
 78
     8
170
     0
171
     2
172
     0
173
     1
174
     0
175
     0
176
     0
177
     0
178
     0
  0
ENDTAB
  0
ENDSEC
  0
SECTION
  2
BLOCKS
  0
BLOCK
  8
0
  2
$MODEL_SPACE
 70
     0
 10
0.0
 20
0.0
 30
0.0
  3
$MODEL_SPACE
  1

  0
ENDBLK
  5
1B
  8
0
  0
BLOCK
 67
     1
  8
0
  2
$PAPER_SPACE
 70
     0
 10
0.0
 20
0.0
 30
0.0
  3
$PAPER_SPACE
  1

  0
ENDBLK
  5
18
 67
     1
  8
0
  0
BLOCK
  8
0
  2
*D0
 70
     1
 10
0.0
 20
0.0
 30
0.0
  3
*D0
  1

  0
LINE
  5
81DE
  8
3
 62
     0
 10
458.37515575093312
 20
1461.9009602021811
 30
0.0
 11
458.37515575093312
 21
1331.2082613862931
 31
0.0
  0
LINE
  5
81DF
  8
3
 62
     0
 10
1173.3751557509329
 20
1431.9724176677721
 30
0.0
 11
1173.3751557509329
 21
1331.2082613862931
 31
0.0
  0
LINE
  5
81E0
  8
3
 62
     0
 10
498.375155750933
 20
1351.2082613862931
 30
0.0
 11
1133.3751557509329
 21
1351.2082613862931
 31
0.0
  0
INSERT
  5
81E1
  8
3
 62
     0
  2
_OPEN
 10
458.37515575093312
 20
1351.2082613862931
 30
0.0
 41
40.0
 42
40.0
 43
40.0
 50
180.0
  0
INSERT
  5
81E2
  8
3
 62
     0
  2
_OPEN
 10
1173.3751557509329
 20
1351.2082613862931
 30
0.0
 41
40.0
 42
40.0
 43
40.0
  0
TEXT
  8
3
  40
60
  5
82EE
  62
0
  72
0
  71
0
 10
695.875
 20
1295.01
 30
0.000000
  1
715
  0
POINT
  5
81E4
  8
DEFPOINTS
 62
     0
 10
458.37515575093312
 20
1471.9009602021811
 30
0.0
  0
POINT
  5
81E5
  8
DEFPOINTS
 62
     0
 10
1173.3751557509329
 20
1441.9724176677721
 30
0.0
  0
POINT
  5
81E6
  8
DEFPOINTS
 62
     0
 10
1173.3751557509329
 20
1351.2082613862931
 30
0.0
  0
ENDBLK
  5
804E
  8
0
  0
BLOCK
  8
0
  2
*D1
 70
     1
 10
0.0
 20
0.0
 30
0.0
  3
*D1
  1

  0
LINE
  5
81E7
  8
3
 62
     0
 10
1173.3751557509329
 20
2443.2563877305902
 30
0.0
 11
1173.3751557509329
 21
2518.1814768477739
 31
0.0
  0
LINE
  5
81E8
  8
3
 62
     0
 10
831.36743878891821
 20
2092.9009602021811
 30
0.0
 11
831.36743878891821
 21
2518.1814768477739
 31
0.0
  0
LINE
  5
81E9
  8
3
 62
     0
 10
1133.3751557509329
 20
2498.1814768477739
 30
0.0
 11
871.36743878891832
 21
2498.1814768477739
 31
0.0
  0
INSERT
  5
81EA
  8
3
 62
     0
  2
_OPEN
 10
1173.3751557509329
 20
2498.1814768477739
 30
0.0
 41
40.0
 42
40.0
 43
40.0
  0
INSERT
  5
81EB
  8
3
 62
     0
  2
_OPEN
 10
831.36743878891821
 20
2498.1814768477739
 30
0.0
 41
40.0
 42
40.0
 43
40.0
 50
180.0
  0
TEXT
  8
3
  40
60
  5
82EF
  62
0
  72
0
  71
0
 10
882.371
 20
2441.98
 30
0.000000
  1
342
  0
POINT
  5
81ED
  8
DEFPOINTS
 62
     0
 10
1173.3751557509329
 20
2433.2563877305888
 30
0.0
  0
POINT
  5
81EE
  8
DEFPOINTS
 62
     0
 10
831.36743878891821
 20
2082.9009602021802
 30
0.0
  0
POINT
  5
81EF
  8
DEFPOINTS
 62
     0
 10
831.36743878891821
 20
2498.1814768477739
 30
0.0
  0
ENDBLK
  5
80AC
  8
0
  0
BLOCK
  8
0
  2
*D2
 70
     1
 10
0.0
 20
0.0
 30
0.0
  3
*D2
  1

  0
LINE
  5
81F0
  8
3
 62
     0
 10
1500.7529253902101
 20
2112.9009602021811
 30
0.0
 11
1827.8990882747471
 21
2112.9009602021811
 31
0.0
  0
LINE
  5
81F1
  8
3
 62
     0
 10
1398.3751557509329
 20
1582.9009602021811
 30
0.0
 11
1827.8990882747471
 21
1582.9009602021811
 31
0.0
  0
LINE
  5
81F2
  8
3
 62
     0
 10
1807.8990882747471
 20
2072.9009602021811
 30
0.0
 11
1807.8990882747471
 21
1622.9009602021811
 31
0.0
  0
INSERT
  5
81F3
  8
3
 62
     0
  2
_OPEN
 10
1807.8990882747471
 20
2112.9009602021811
 30
0.0
 41
40.0
 42
40.0
 43
40.0
 50
90.0
  0
INSERT
  5
81F4
  8
3
 62
     0
  2
_OPEN
 10
1807.8990882747471
 20
1582.9009602021811
 30
0.0
 41
40.0
 42
40.0
 43
40.0
 50
270.0
  0
TEXT
  8
3
  40
60
  5
82F0
  62
0
  72
0
  71
0
 10
1637.90
 20
1741.70
 30
0.000000
  1
530
  0
POINT
  5
81F6
  8
DEFPOINTS
 62
     0
 10
1490.7529253902101
 20
2112.9009602021811
 30
0.0
  0
POINT
  5
81F7
  8
DEFPOINTS
 62
     0
 10
1388.3751557509329
 20
1582.9009602021811
 30
0.0
  0
POINT
  5
81F8
  8
DEFPOINTS
 62
     0
 10
1807.8990882747471
 20
1582.9009602021811
 30
0.0
  0
ENDBLK
  5
8059
  8
0
  0
BLOCK
  8
0
  2
*D3
 70
     1
 10
0.0
 20
0.0
 30
0.0
  3
*D3
  1

  0
LINE
  5
81F9
  8
3
 62
     0
 10
1488.3751557509329
 20
1688.9009602021811
 30
0.0
 11
1715.186775109408
 21
1688.9009602021811
 31
0.0
  0
LINE
  5
81FA
  8
3
 62
     0
 10
1500.7529253902101
 20
2112.9009602021811
 30
0.0
 11
1715.186775109408
 21
2112.9009602021811
 31
0.0
  0
LINE
  5
81FB
  8
3
 62
     0
 10
1695.1867751094089
 20
1728.9009602021811
 30
0.0
 11
1695.1867751094089
 21
2072.9009602021811
 31
0.0
  0
INSERT
  5
81FC
  8
3
 62
     0
  2
_OPEN
 10
1695.1867751094089
 20
1688.9009602021811
 30
0.0
 41
40.0
 42
40.0
 43
40.0
 50
270.0
  0
INSERT
  5
81FD
  8
3
 62
     0
  2
_OPEN
 10
1695.1867751094089
 20
2112.9009602021811
 30
0.0
 41
40.0
 42
40.0
 43
40.0
 50
90.0
  0
TEXT
  8
3
  40
60
  5
82F1
  62
0
  72
0
  71
0
 10
1525.19
 20
1794.70
 30
0.000000
  1
424
  0
POINT
  5
81FF
  8
DEFPOINTS
 62
     0
 10
1478.3751557509329
 20
1688.9009602021811
 30
0.0
  0
POINT
  5
8200
  8
DEFPOINTS
 62
     0
 10
1490.7529253902101
 20
2112.9009602021811
 30
0.0
  0
POINT
  5
8201
  8
DEFPOINTS
 62
     0
 10
1695.1867751094089
 20
2112.9009602021811
 30
0.0
  0
ENDBLK
  5
80B7
  8
0
  0
BLOCK
  8
0
  2
*D4
 70
     1
 10
0.0
 20
0.0
 30
0.0
  3
*D4
  1

  0
LINE
  5
8202
  8
3
 62
     0
 10
1488.3751557509329
 20
1688.9009602021811
 30
0.0
 11
1622.016511669297
 21
1688.9009602021811
 31
0.0
  0
LINE
  5
8203
  8
3
 62
     0
 10
1488.3751557509329
 20
2100.9009602021811
 30
0.0
 11
1622.016511669297
 21
2100.9009602021811
 31
0.0
  0
LINE
  5
8204
  8
3
 62
     0
 10
1602.016511669297
 20
1728.9009602021811
 30
0.0
 11
1602.016511669297
 21
2060.9009602021811
 31
0.0
  0
INSERT
  5
8205
  8
3
 62
     0
  2
_OPEN
 10
1602.016511669297
 20
1688.9009602021811
 30
0.0
 41
40.0
 42
40.0
 43
40.0
 50
270.0
  0
INSERT
  5
8206
  8
3
 62
     0
  2
_OPEN
 10
1602.016511669297
 20
2100.9009602021811
 30
0.0
 41
40.0
 42
40.0
 43
40.0
 50
90.0
  0
TEXT
  8
3
  40
60
  5
82F2
  62
0
  72
0
  71
0
 10
1432.02
 20
1788.70
 30
0.000000
  1
412
  0
POINT
  5
8208
  8
DEFPOINTS
 62
     0
 10
1478.3751557509329
 20
1688.9009602021811
 30
0.0
  0
POINT
  5
8209
  8
DEFPOINTS
 62
     0
 10
1478.3751557509329
 20
2100.9009602021811
 30
0.0
  0
POINT
  5
820A
  8
DEFPOINTS
 62
     0
 10
1602.016511669297
 20
2100.9009602021811
 30
0.0
  0
ENDBLK
  5
80C2
  8
0
  0
BLOCK
  8
0
  2
*D5
 70
     1
 10
0.0
 20
0.0
 30
0.0
  3
*D5
  1

  0
LINE
  5
820B
  8
3
 62
     0
 10
1173.3751557509329
 20
1431.9724176677721
 30
0.0
 11
1173.3751557509329
 21
1331.2082613862931
 31
0.0
  0
LINE
  5
820C
  8
3
 62
     0
 10
1388.3751557509329
 20
1461.9009602021811
 30
0.0
 11
1388.3751557509329
 21
1331.2082613862931
 31
0.0
  0
LINE
  5
820D
  8
3
 62
     0
 10
1213.3751557509329
 20
1351.2082613862931
 30
0.0
 11
1348.3751557509329
 21
1351.2082613862931
 31
0.0
  0
INSERT
  5
820E
  8
3
 62
     0
  2
_OPEN
 10
1173.3751557509329
 20
1351.2082613862931
 30
0.0
 41
40.0
 42
40.0
 43
40.0
 50
180.0
  0
INSERT
  5
820F
  8
3
 62
     0
  2
_OPEN
 10
1388.3751557509329
 20
1351.2082613862931
 30
0.0
 41
40.0
 42
40.0
 43
40.0
  0
TEXT
  8
3
  40
60
  5
82F3
  62
0
  72
0
  71
0
 10
1160.88
 20
1295.01
 30
0.000000
  1
215
  0
POINT
  5
8211
  8
DEFPOINTS
 62
     0
 10
1173.3751557509329
 20
1441.9724176677721
 30
0.0
  0
POINT
  5
8212
  8
DEFPOINTS
 62
     0
 10
1388.3751557509329
 20
1471.9009602021811
 30
0.0
  0
POINT
  5
8213
  8
DEFPOINTS
 62
     0
 10
1388.3751557509329
 20
1351.2082613862931
 30
0.0
  0
ENDBLK
  5
80A1
  8
0
  0
BLOCK
  8
0
  2
*D6
 70
     1
 10
0.0
 20
0.0
 30
0.0
  3
*D6
  1

  0
LINE
  5
8221
  8
3
 62
     0
 10
1500.7529253902101
 20
2112.9009602021811
 30
0.0
 11
1715.186775109408
 21
2112.9009602021811
 31
0.0
  0
LINE
  5
8222
  8
3
 62
     0
 10
1153.3751557509329
 20
2394.9086771641969
 30
0.0
 11
1715.186775109408
 21
2394.9086771641969
 31
0.0
  0
LINE
  5
8223
  8
3
 62
     0
 10
1695.1867751094089
 20
2152.9009602021811
 30
0.0
 11
1695.1867751094089
 21
2354.9086771641969
 31
0.0
  0
INSERT
  5
8224
  8
3
 62
     0
  2
_OPEN
 10
1695.1867751094089
 20
2112.9009602021811
 30
0.0
 41
40.0
 42
40.0
 43
40.0
 50
270.0
  0
INSERT
  5
8225
  8
3
 62
     0
  2
_OPEN
 10
1695.1867751094089
 20
2394.9086771641969
 30
0.0
 41
40.0
 42
40.0
 43
40.0
 50
90.0
  0
TEXT
  8
3
  40
60
  5
82F4
  62
0
  72
0
  71
0
 10
1525.19
 20
2147.70
 30
0.000000
  1
282
  0
POINT
  5
8227
  8
DEFPOINTS
 62
     0
 10
1490.7529253902101
 20
2112.9009602021811
 30
0.0
  0
POINT
  5
8228
  8
DEFPOINTS
 62
     0
 10
1143.3751557509329
 20
2394.9086771641969
 30
0.0
  0
POINT
  5
8229
  8
DEFPOINTS
 62
     0
 10
1695.1867751094089
 20
2394.9086771641969
 30
0.0
  0
ENDBLK
  5
8094
  8
0
  0
BLOCK
  8
0
  2
*D7
 70
     1
 10
0.0
 20
0.0
 30
0.0
  3
*D7
  1

  0
LINE
  5
822A
  8
3
 62
     0
 10
1478.3751557509329
 20
2137.9009602021811
 30
0.0
 11
1478.3751557509329
 21
2518.1814768477739
 31
0.0
  0
LINE
  5
822B
  8
3
 62
     0
 10
1173.3751557509329
 20
2443.2563877305902
 30
0.0
 11
1173.3751557509329
 21
2518.1814768477739
 31
0.0
  0
LINE
  5
822C
  8
3
 62
     0
 10
1438.3751557509329
 20
2498.1814768477739
 30
0.0
 11
1213.3751557509329
 21
2498.1814768477739
 31
0.0
  0
INSERT
  5
822D
  8
3
 62
     0
  2
_OPEN
 10
1478.3751557509329
 20
2498.1814768477739
 30
0.0
 41
40.0
 42
40.0
 43
40.0
  0
INSERT
  5
822E
  8
3
 62
     0
  2
_OPEN
 10
1173.3751557509329
 20
2498.1814768477739
 30
0.0
 41
40.0
 42
40.0
 43
40.0
 50
180.0
  0
TEXT
  8
3
  40
60
  5
82F5
  62
0
  72
0
  71
0
 10
1205.88
 20
2441.98
 30
0.000000
  1
305
  0
POINT
  5
8230
  8
DEFPOINTS
 62
     0
 10
1478.3751557509329
 20
2127.9009602021811
 30
0.0
  0
POINT
  5
8231
  8
DEFPOINTS
 62
     0
 10
1173.3751557509329
 20
2433.2563877305888
 30
0.0
  0
POINT
  5
8232
  8
DEFPOINTS
 62
     0
 10
1173.3751557509329
 20
2498.1814768477739
 30
0.0
  0
ENDBLK
  5
8089
  8
0
  0
BLOCK
  8
0
  2
*D8
 70
     1
 10
0.0
 20
0.0
 30
0.0
  3
*D8
  1

  0
LINE
  5
823D
  8
3
 62
     0
 10
958.375155750933
 20
4154.0860258703124
 30
0.0
 11
958.375155750933
 21
4278.8364672789967
 31
0.0
  0
LINE
  5
823E
  8
3
 62
     0
 10
458.37515575093312
 20
3714.086025870311
 30
0.0
 11
458.37515575093312
 21
4278.8364672789967
 31
0.0
  0
LINE
  5
823F
  8
3
 62
     0
 10
918.37515575093323
 20
4258.8364672789976
 30
0.0
 11
498.37515575093312
 21
4258.8364672789976
 31
0.0
  0
INSERT
  5
8240
  8
3
 62
     0
  2
_OPEN
 10
958.375155750933
 20
4258.8364672789976
 30
0.0
 41
40.0
 42
40.0
 43
40.0
  0
INSERT
  5
8241
  8
3
 62
     0
  2
_OPEN
 10
458.37515575093312
 20
4258.8364672789976
 30
0.0
 41
40.0
 42
40.0
 43
40.0
 50
180.0
  0
TEXT
  8
3
  40
60
  5
82F6
  62
0
  72
0
  71
0
 10
588.375
 20
4202.64
 30
0.000000
  1
500
  0
POINT
  5
8243
  8
DEFPOINTS
 62
     0
 10
958.375155750933
 20
4144.0860258703124
 30
0.0
  0
POINT
  5
8244
  8
DEFPOINTS
 62
     0
 10
458.37515575093312
 20
3704.086025870311
 30
0.0
  0
POINT
  5
8245
  8
DEFPOINTS
 62
     0
 10
458.37515575093312
 20
4258.8364672789976
 30
0.0
  0
ENDBLK
  5
80D8
  8
0
  0
BLOCK
  8
0
  2
*D9
 70
     1
 10
0.0
 20
0.0
 30
0.0
  3
*D9
  1

  0
LINE
  5
8246
  8
3
 62
     0
 10
458.37515575093312
 20
3274.086025870311
 30
0.0
 11
458.37515575093312
 21
3045.9108716460828
 31
0.0
  0
LINE
  5
8247
  8
3
 62
     0
 10
1388.3751557509329
 20
3274.0860258703119
 30
0.0
 11
1388.3751557509329
 21
3045.9108716460828
 31
0.0
  0
LINE
  5
8248
  8
3
 62
     0
 10
498.375155750933
 20
3065.9108716460828
 30
0.0
 11
1348.3751557509329
 21
3065.9108716460828
 31
0.0
  0
INSERT
  5
8249
  8
3
 62
     0
  2
_OPEN
 10
458.37515575093312
 20
3065.9108716460828
 30
0.0
 41
40.0
 42
40.0
 43
40.0
 50
180.0
  0
INSERT
  5
824A
  8
3
 62
     0
  2
_OPEN
 10
1388.3751557509329
 20
3065.9108716460828
 30
0.0
 41
40.0
 42
40.0
 43
40.0
  0
TEXT
  8
3
  40
60
  5
82F7
  62
0
  72
0
  71
0
 10
803.375
 20
3009.71
 30
0.000000
  1
930
  0
POINT
  5
824C
  8
DEFPOINTS
 62
     0
 10
458.37515575093312
 20
3284.086025870311
 30
0.0
  0
POINT
  5
824D
  8
DEFPOINTS
 62
     0
 10
1388.3751557509329
 20
3284.0860258703119
 30
0.0
  0
POINT
  5
824E
  8
DEFPOINTS
 62
     0
 10
1388.3751557509329
 20
3065.9108716460828
 30
0.0
  0
ENDBLK
  5
80CD
  8
0
  0
BLOCK
  8
0
  2
*D10
 70
     1
 10
0.0
 20
0.0
 30
0.0
  3
*D10
  1

  0
LINE
  5
824F
  8
3
 62
     0
 10
448.375155750933
 20
3284.086025870311
 30
0.0
 11
363.03121759056552
 21
3284.086025870311
 31
0.0
  0
LINE
  5
8250
  8
3
 62
     0
 10
448.375155750933
 20
3704.086025870311
 30
0.0
 11
363.03121759056552
 21
3704.086025870311
 31
0.0
  0
LINE
  5
8251
  8
3
 62
     0
 10
383.03121759056552
 20
3324.086025870311
 30
0.0
 11
383.03121759056552
 21
3664.086025870311
 31
0.0
  0
INSERT
  5
8252
  8
3
 62
     0
  2
_OPEN
 10
383.03121759056552
 20
3284.086025870311
 30
0.0
 41
40.0
 42
40.0
 43
40.0
 50
270.0
  0
INSERT
  5
8253
  8
3
 62
     0
  2
_OPEN
 10
383.03121759056552
 20
3704.086025870311
 30
0.0
 41
40.0
 42
40.0
 43
40.0
 50
90.0
  0
TEXT
  8
3
  40
60
  5
82F8
  62
0
  72
0
  71
0
 10
213.031
 20
3387.89
 30
0.000000
  1
420
  0
POINT
  5
8255
  8
DEFPOINTS
 62
     0
 10
458.37515575093312
 20
3284.086025870311
 30
0.0
  0
POINT
  5
8256
  8
DEFPOINTS
 62
     0
 10
458.37515575093312
 20
3704.086025870311
 30
0.0
  0
POINT
  5
8257
  8
DEFPOINTS
 62
     0
 10
383.03121759056552
 20
3704.086025870311
 30
0.0
  0
ENDBLK
  5
80E3
  8
0
  0
BLOCK
  8
0
  2
*D11
 70
     1
 10
0.0
 20
0.0
 30
0.0
  3
*D11
  1

  0
LINE
  5
8258
  8
3
 62
     0
 10
1398.3751557509329
 20
3284.0860258703119
 30
0.0
 11
1694.5176308929599
 21
3284.0860258703119
 31
0.0
  0
LINE
  5
8259
  8
3
 62
     0
 10
1398.3751557509329
 20
4144.0860258703124
 30
0.0
 11
1694.5176308929599
 21
4144.0860258703124
 31
0.0
  0
LINE
  5
825A
  8
3
 62
     0
 10
1674.5176308929599
 20
3324.0860258703119
 30
0.0
 11
1674.5176308929599
 21
4104.0860258703124
 31
0.0
  0
INSERT
  5
825B
  8
3
 62
     0
  2
_OPEN
 10
1674.5176308929599
 20
3284.0860258703119
 30
0.0
 41
40.0
 42
40.0
 43
40.0
 50
270.0
  0
INSERT
  5
825C
  8
3
 62
     0
  2
_OPEN
 10
1674.5176308929599
 20
4144.0860258703124
 30
0.0
 41
40.0
 42
40.0
 43
40.0
 50
90.0
  0
TEXT
  8
3
  40
60
  5
82F9
  62
0
  72
0
  71
0
 10
1504.52
 20
3607.89
 30
0.000000
  1
860
  0
POINT
  5
825E
  8
DEFPOINTS
 62
     0
 10
1388.3751557509329
 20
3284.0860258703119
 30
0.0
  0
POINT
  5
825F
  8
DEFPOINTS
 62
     0
 10
1388.3751557509329
 20
4144.0860258703124
 30
0.0
  0
POINT
  5
8260
  8
DEFPOINTS
 62
     0
 10
1674.5176308929599
 20
4144.0860258703124
 30
0.0
  0
ENDBLK
  5
80EE
  8
0
  0
BLOCK
  8
0
  2
*D12
 70
     1
 10
0.0
 20
0.0
 30
0.0
  3
*D12
  1

  0
LINE
  5
8261
  8
3
 62
     0
 10
1388.3751557509329
 20
4154.0860258703124
 30
0.0
 11
1388.3751557509329
 21
4278.8364672789967
 31
0.0
  0
LINE
  5
8262
  8
3
 62
     0
 10
958.375155750933
 20
4154.0860258703124
 30
0.0
 11
958.375155750933
 21
4278.8364672789967
 31
0.0
  0
LINE
  5
8263
  8
3
 62
     0
 10
1348.3751557509329
 20
4258.8364672789976
 30
0.0
 11
998.375155750933
 21
4258.8364672789976
 31
0.0
  0
INSERT
  5
8264
  8
3
 62
     0
  2
_OPEN
 10
1388.3751557509329
 20
4258.8364672789976
 30
0.0
 41
40.0
 42
40.0
 43
40.0
  0
INSERT
  5
8265
  8
3
 62
     0
  2
_OPEN
 10
958.375155750933
 20
4258.8364672789976
 30
0.0
 41
40.0
 42
40.0
 43
40.0
 50
180.0
  0
TEXT
  8
3
  40
60
  5
82FA
  62
0
  72
0
  71
0
 10
1053.38
 20
4202.64
 30
0.000000
  1
430
  0
POINT
  5
8267
  8
DEFPOINTS
 62
     0
 10
1388.3751557509329
 20
4144.0860258703124
 30
0.0
  0
POINT
  5
8268
  8
DEFPOINTS
 62
     0
 10
958.375155750933
 20
4144.0860258703124
 30
0.0
  0
POINT
  5
8269
  8
DEFPOINTS
 62
     0
 10
958.375155750933
 20
4258.8364672789976
 30
0.0
  0
ENDBLK
  5
80F9
  8
0
  0
BLOCK
  8
0
  2
*D13
 70
     1
 10
0.0
 20
0.0
 30
0.0
  3
*D13
  1

  0
LINE
  5
826A
  8
3
 62
     0
 10
2390.1790909804399
 20
1461.9009602021811
 30
0.0
 11
2390.1790909804399
 21
1329.7187831147039
 31
0.0
  0
LINE
  5
826B
  8
3
 62
     0
 10
3055.1790909804431
 20
1431.9724176677721
 30
0.0
 11
3055.1790909804431
 21
1329.7187831147039
 31
0.0
  0
LINE
  5
826C
  8
3
 62
     0
 10
2430.1790909804399
 20
1349.7187831147039
 30
0.0
 11
3015.1790909804431
 21
1349.7187831147039
 31
0.0
  0
INSERT
  5
826D
  8
3
 62
     0
  2
_OPEN
 10
2390.1790909804399
 20
1349.7187831147039
 30
0.0
 41
40.0
 42
40.0
 43
40.0
 50
180.0
  0
INSERT
  5
826E
  8
3
 62
     0
  2
_OPEN
 10
3055.1790909804431
 20
1349.7187831147039
 30
0.0
 41
40.0
 42
40.0
 43
40.0
  0
TEXT
  8
3
  40
60
  5
82FB
  62
0
  72
0
  71
0
 10
2602.68
 20
1293.52
 30
0.000000
  1
665
  0
POINT
  5
8270
  8
DEFPOINTS
 62
     0
 10
2390.1790909804399
 20
1471.9009602021811
 30
0.0
  0
POINT
  5
8271
  8
DEFPOINTS
 62
     0
 10
3055.1790909804431
 20
1441.9724176677721
 30
0.0
  0
POINT
  5
8272
  8
DEFPOINTS
 62
     0
 10
3055.1790909804431
 20
1349.7187831147039
 30
0.0
  0
ENDBLK
  5
810F
  8
0
  0
BLOCK
  8
0
  2
*D14
 70
     1
 10
0.0
 20
0.0
 30
0.0
  3
*D14
  1

  0
LINE
  5
8273
  8
3
 62
     0
 10
3055.1790909804431
 20
1431.9724176677721
 30
0.0
 11
3055.1790909804431
 21
1329.7187831147039
 31
0.0
  0
LINE
  5
8274
  8
3
 62
     0
 10
3250.1790909804408
 20
1461.9009602021811
 30
0.0
 11
3250.1790909804408
 21
1329.7187831147039
 31
0.0
  0
LINE
  5
8275
  8
3
 62
     0
 10
3095.1790909804431
 20
1349.7187831147039
 30
0.0
 11
3210.1790909804422
 21
1349.7187831147039
 31
0.0
  0
INSERT
  5
8276
  8
3
 62
     0
  2
_OPEN
 10
3055.1790909804431
 20
1349.7187831147039
 30
0.0
 41
40.0
 42
40.0
 43
40.0
 50
180.0
  0
INSERT
  5
8277
  8
3
 62
     0
  2
_OPEN
 10
3250.1790909804408
 20
1349.7187831147039
 30
0.0
 41
40.0
 42
40.0
 43
40.0
  0
TEXT
  8
3
  40
60
  5
82FC
  62
0
  72
0
  71
0
 10
3032.68
 20
1293.52
 30
0.000000
  1
195
  0
POINT
  5
8279
  8
DEFPOINTS
 62
     0
 10
3055.1790909804431
 20
1441.9724176677721
 30
0.0
  0
POINT
  5
827A
  8
DEFPOINTS
 62
     0
 10
3250.1790909804408
 20
1471.9009602021811
 30
0.0
  0
POINT
  5
827B
  8
DEFPOINTS
 62
     0
 10
3250.1790909804408
 20
1349.7187831147039
 30
0.0
  0
ENDBLK
  5
8127
  8
0
  0
BLOCK
  8
0
  2
*D15
 70
     1
 10
0.0
 20
0.0
 30
0.0
  3
*D15
  1

  0
LINE
  5
827C
  8
3
 62
     0
 10
2295.1790909804399
 20
2272.9009602021811
 30
0.0
 11
2295.1790909804399
 21
2681.2857027013761
 31
0.0
  0
LINE
  5
827D
  8
3
 62
     0
 10
3055.1790909804422
 20
2618.868127406673
 30
0.0
 11
3055.1790909804422
 21
2681.2857027013761
 31
0.0
  0
LINE
  5
827E
  8
3
 62
     0
 10
2335.1790909804399
 20
2661.2857027013761
 30
0.0
 11
3015.1790909804422
 21
2661.2857027013761
 31
0.0
  0
INSERT
  5
827F
  8
3
 62
     0
  2
_OPEN
 10
2295.1790909804399
 20
2661.2857027013761
 30
0.0
 41
40.0
 42
40.0
 43
40.0
 50
180.0
  0
INSERT
  5
8280
  8
3
 62
     0
  2
_OPEN
 10
3055.1790909804422
 20
2661.2857027013761
 30
0.0
 41
40.0
 42
40.0
 43
40.0
  0
TEXT
  8
3
  40
60
  5
82FD
  62
0
  72
0
  71
0
 10
2555.18
 20
2605.09
 30
0.000000
  1
760
  0
POINT
  5
8282
  8
DEFPOINTS
 62
     0
 10
2295.1790909804399
 20
2262.9009602021811
 30
0.0
  0
POINT
  5
8283
  8
DEFPOINTS
 62
     0
 10
3055.1790909804422
 20
2608.8681274066721
 30
0.0
  0
POINT
  5
8284
  8
DEFPOINTS
 62
     0
 10
3055.1790909804422
 20
2661.2857027013761
 30
0.0
  0
ENDBLK
  5
8184
  8
0
  0
BLOCK
  8
0
  2
*D16
 70
     1
 10
0.0
 20
0.0
 30
0.0
  3
*D16
  1

  0
LINE
  5
82A3
  8
3
 62
     0
 10
3243.7790909804398
 20
2312.9009602021811
 30
0.0
 11
3407.4399092106228
 21
2312.9009602021811
 31
0.0
  0
LINE
  5
82A4
  8
3
 62
     0
 10
3243.7790909804398
 20
1912.9009602021811
 30
0.0
 11
3407.4399092106228
 21
1912.9009602021811
 31
0.0
  0
LINE
  5
82A5
  8
3
 62
     0
 10
3387.4399092106228
 20
2272.9009602021811
 30
0.0
 11
3387.4399092106228
 21
1952.9009602021811
 31
0.0
  0
INSERT
  5
82A6
  8
3
 62
     0
  2
_OPEN
 10
3387.4399092106228
 20
2312.9009602021811
 30
0.0
 41
40.0
 42
40.0
 43
40.0
 50
90.0
  0
INSERT
  5
82A7
  8
3
 62
     0
  2
_OPEN
 10
3387.4399092106228
 20
1912.9009602021811
 30
0.0
 41
40.0
 42
40.0
 43
40.0
 50
270.0
  0
TEXT
  8
3
  40
60
  5
82FE
  62
0
  72
0
  71
0
 10
3217.44
 20
2006.70
 30
0.000000
  1
400
  0
POINT
  5
82A9
  8
DEFPOINTS
 62
     0
 10
3233.7790909804412
 20
2312.9009602021811
 30
0.0
  0
POINT
  5
82AA
  8
DEFPOINTS
 62
     0
 10
3233.7790909804412
 20
1912.9009602021811
 30
0.0
  0
POINT
  5
82AB
  8
DEFPOINTS
 62
     0
 10
3387.4399092106228
 20
1912.9009602021811
 30
0.0
  0
ENDBLK
  5
811A
  8
0
  0
BLOCK
  8
0
  2
*D17
 70
     1
 10
0.0
 20
0.0
 30
0.0
  3
*D17
  1

  0
LINE
  5
82AC
  8
3
 62
     0
 10
3055.1790909804422
 20
2618.868127406673
 30
0.0
 11
3055.1790909804422
 21
2681.2857027013761
 31
0.0
  0
LINE
  5
82AD
  8
3
 62
     0
 10
3208.1790909804408
 20
2347.9009602021811
 30
0.0
 11
3208.1790909804408
 21
2681.2857027013761
 31
0.0
  0
LINE
  5
82AE
  8
3
 62
     0
 10
3095.1790909804422
 20
2661.2857027013761
 30
0.0
 11
3168.1790909804408
 21
2661.2857027013761
 31
0.0
  0
LINE
  5
82AF
  8
3
 62
     0
 10
3208.1790909804408
 20
2661.2857027013761
 30
0.0
 11
3431.0362338375839
 21
2661.2857027013761
 31
0.0
  0
INSERT
  5
82B0
  8
3
 62
     0
  2
_OPEN
 10
3055.1790909804422
 20
2661.2857027013761
 30
0.0
 41
40.0
 42
40.0
 43
40.0
 50
180.0
  0
INSERT
  5
82B1
  8
3
 62
     0
  2
_OPEN
 10
3208.1790909804408
 20
2661.2857027013761
 30
0.0
 41
40.0
 42
40.0
 43
40.0
  0
TEXT
  8
3
  40
60
  5
82FF
  62
0
  72
0
  71
0
 10
3219.61
 20
2605.09
 30
0.000000
  1
153
  0
POINT
  5
82B3
  8
DEFPOINTS
 62
     0
 10
3055.1790909804422
 20
2608.8681274066721
 30
0.0
  0
POINT
  5
82B4
  8
DEFPOINTS
 62
     0
 10
3208.1790909804408
 20
2337.9009602021811
 30
0.0
  0
POINT
  5
82B5
  8
DEFPOINTS
 62
     0
 10
3208.1790909804408
 20
2661.2857027013761
 30
0.0
  0
ENDBLK
  5
8179
  8
0
  0
BLOCK
  8
0
  2
*D18
 70
     1
 10
0.0
 20
0.0
 30
0.0
  3
*D18
  1

  0
LINE
  5
82B6
  8
3
 62
     0
 10
2905.1790909804422
 20
2416.1086771641972
 30
0.0
 11
2905.1790909804422
 21
2519.8198854493239
 31
0.0
  0
LINE
  5
82B7
  8
3
 62
     0
 10
3205.1790909804431
 20
2416.1086771641972
 30
0.0
 11
3205.1790909804431
 21
2519.8198854493239
 31
0.0
  0
LINE
  5
82B8
  8
3
 62
     0
 10
2945.1790909804422
 20
2499.8198854493239
 30
0.0
 11
3165.1790909804431
 21
2499.8198854493239
 31
0.0
  0
INSERT
  5
82B9
  8
3
 62
     0
  2
_OPEN
 10
2905.1790909804422
 20
2499.8198854493239
 30
0.0
 41
40.0
 42
40.0
 43
40.0
 50
180.0
  0
INSERT
  5
82BA
  8
3
 62
     0
  2
_OPEN
 10
3205.1790909804431
 20
2499.8198854493239
 30
0.0
 41
40.0
 42
40.0
 43
40.0
  0
TEXT
  8
3
  40
60
  5
8300
  62
0
  72
0
  71
0
 10
2935.18
 20
2443.62
 30
0.000000
  1
300
  0
POINT
  5
82BC
  8
DEFPOINTS
 62
     0
 10
2905.1790909804422
 20
2406.1086771641981
 30
0.0
  0
POINT
  5
82BD
  8
DEFPOINTS
 62
     0
 10
3205.1790909804431
 20
2406.1086771641981
 30
0.0
  0
POINT
  5
82BE
  8
DEFPOINTS
 62
     0
 10
3205.1790909804431
 20
2499.8198854493239
 30
0.0
  0
ENDBLK
  5
813E
  8
0
  0
BLOCK
  8
0
  2
_OPEN
 70
     0
 10
0.0
 20
0.0
 30
0.0
  3
_OPEN
  1

  0
LINE
  5
8040
  8
0
  6
BYBLOCK
 62
     0
 10
-1.0
 20
0.1666666666666666
 30
0.0
 11
0.0
 21
0.0
 31
0.0
  0
LINE
  5
8041
  8
0
  6
BYBLOCK
 62
     0
 10
0.0
 20
0.0
 30
0.0
 11
-1.0
 21
-0.1666666666666666
 31
0.0
  0
LINE
  5
8042
  8
0
  6
BYBLOCK
 62
     0
 10
0.0
 20
0.0
 30
0.0
 11
-1.0
 21
0.0
 31
0.0
  0
ENDBLK
  5
8043
  8
0
  0
BLOCK
  8
0
  2
_DOT
 70
     0
 10
0.0
 20
0.0
 30
0.0
  3
_DOT
  1

  0
POLYLINE
  5
818D
  8
0
  6
BYBLOCK
 62
     0
 66
     1
 10
0.0
 20
0.0
 30
0.0
 70
     1
 40
0.5
 41
0.5
  0
VERTEX
  5
82C9
  8
0
  6
BYBLOCK
 62
     0
 10
-0.25
 20
0.0
 30
0.0
 42
1.0
  0
VERTEX
  5
82CA
  8
0
  6
BYBLOCK
 62
     0
 10
0.25
 20
0.0
 30
0.0
 42
1.0
  0
SEQEND
  5
82CB
  8
0
  6
BYBLOCK
 62
     0
  0
LINE
  5
8191
  8
0
  6
BYBLOCK
 62
     0
 10
-0.5
 20
0.0
 30
0.0
 11
-1.0
 21
0.0
 31
0.0
  0
ENDBLK
  5
8192
  8
0
  0
BLOCK
  8
0
  2
*D21
 70
     1
 10
0.0
 20
0.0
 30
0.0
  3
*D21
  1

  0
LINE
  5
82CC
  8
3
 62
     0
 10
1398.3751557509329
 20
1546.9009602021811
 30
0.0
 11
1828.7386917764411
 21
1546.9009602021811
 31
0.0
  0
LINE
  5
82CD
  8
3
 62
     0
 10
1398.3751557509329
 20
1471.9009602021811
 30
0.0
 11
1828.7386917764411
 21
1471.9009602021811
 31
0.0
  0
LINE
  5
82CE
  8
3
 62
     0
 10
1808.738691776442
 20
1586.9009602021811
 30
0.0
 11
1808.738691776442
 21
1626.9009602021811
 31
0.0
  0
LINE
  5
82CF
  8
3
 62
     0
 10
1808.7386917764411
 20
1431.9009602021811
 30
0.0
 11
1808.7386917764411
 21
1254.758103059324
 31
0.0
  0
LINE
  5
82D0
  8
3
 62
     0
 10
1808.738691776442
 20
1546.9009602021811
 30
0.0
 11
1808.7386917764411
 21
1471.9009602021811
 31
0.0
  0
INSERT
  5
82D1
  8
3
 62
     0
  2
_DOT
 10
1808.738691776442
 20
1546.9009602021811
 30
0.0
 41
40.0
 42
40.0
 43
40.0
 50
270.0
  0
INSERT
  5
82D2
  8
3
 62
     0
  2
_OPEN
 10
1808.7386917764411
 20
1471.9009602021811
 30
0.0
 41
40.0
 42
40.0
 43
40.0
 50
90.0
  0
TEXT
  8
3
  40
60
  5
8301
  62
0
  72
0
  71
0
 10
1638.74
 20
1217.13
 30
0.000000
  1
75
  0
POINT
  5
82D4
  8
DEFPOINTS
 62
     0
 10
1388.3751557509329
 20
1546.9009602021811
 30
0.0
  0
POINT
  5
82D5
  8
DEFPOINTS
 62
     0
 10
1388.3751557509329
 20
1471.9009602021811
 30
0.0
  0
POINT
  5
82D6
  8
DEFPOINTS
 62
     0
 10
1808.7386917764411
 20
1471.9009602021811
 30
0.0
  0
ENDBLK
  5
81A0
  8
0
  0
BLOCK
  8
0
  2
*D22
 70
     1
 10
0.0
 20
0.0
 30
0.0
  3
*D22
  1

  0
LINE
  5
82D7
  8
3
 62
     0
 10
1398.3751557509329
 20
1546.9009602021811
 30
0.0
 11
1828.7386917764411
 21
1546.9009602021811
 31
0.0
  0
LINE
  5
82D8
  8
3
 62
     0
 10
1398.3751557509329
 20
1582.9009602021811
 30
0.0
 11
1828.7386917764411
 21
1582.9009602021811
 31
0.0
  0
LINE
  5
82D9
  8
3
 62
     0
 10
1808.7386917764411
 20
1506.9009602021811
 30
0.0
 11
1808.7386917764411
 21
1466.9009602021811
 31
0.0
  0
LINE
  5
82DA
  8
3
 62
     0
 10
1808.7386917764411
 20
1622.9009602021811
 30
0.0
 11
1808.7386917764411
 21
1662.9009602021811
 31
0.0
  0
LINE
  5
82DB
  8
3
 62
     0
 10
1808.7386917764411
 20
1564.9009602021811
 30
0.0
 11
1995.881548919298
 21
1621.043817345038
 31
0.0
  0
LINE
  5
82DC
  8
3
 62
     0
 10
1995.881548919298
 20
1621.043817345038
 30
0.0
 11
1995.881548919298
 21
1835.3295316307519
 31
0.0
  0
TEXT
  8
3
  40
60
  5
8302
  62
0
  72
0
  71
0
 10
1810.17
 20
1621.99
 30
0.000000
  1
(36)
  0
LINE
  5
82DE
  8
3
 62
     0
 10
1808.7386917764411
 20
1546.9009602021811
 30
0.0
 11
1808.7386917764411
 21
1582.9009602021811
 31
0.0
  0
LINE
  5
82DF
  8
3
 62
     0
 10
1808.7386917764411
 20
1546.9009602021811
 30
0.0
 11
1808.7386917764411
 21
1582.9009602021811
 31
0.0
  0
INSERT
  5
82E0
  8
3
 62
     0
  2
_DOT
 10
1808.7386917764411
 20
1546.9009602021811
 30
0.0
 41
40.0
 42
40.0
 43
40.0
 50
90.0
  0
INSERT
  5
82E1
  8
3
 62
     0
  2
_OPEN
 10
1808.7386917764411
 20
1582.9009602021811
 30
0.0
 41
40.0
 42
40.0
 43
40.0
 50
270.0
  0
POINT
  5
82E2
  8
DEFPOINTS
 62
     0
 10
1388.3751557509329
 20
1546.9009602021811
 30
0.0
  0
POINT
  5
82E3
  8
DEFPOINTS
 62
     0
 10
1388.3751557509329
 20
1582.9009602021811
 30
0.0
  0
POINT
  5
82E4
  8
DEFPOINTS
 62
     0
 10
1808.7386917764411
 20
1582.9009602021811
 30
0.0
  0
ENDBLK
  5
81B1
  8
0
  0
BLOCK
  8
0
  2
*D23
 70
     1
 10
0.0
 20
0.0
 30
0.0
  3
*D23
  1

  0
LINE
  5
82E5
  8
3
 62
     0
 10
1163.3751557509329
 20
2394.9086771641969
 30
0.0
 11
2050.5644955680509
 21
2394.9086771641969
 31
0.0
  0
LINE
  5
82E6
  8
3
 62
     0
 10
1398.3751557509329
 20
1471.9009602021811
 30
0.0
 11
2050.5644955680509
 21
1471.9009602021811
 31
0.0
  0
LINE
  5
82E7
  8
3
 62
     0
 10
2030.5644955680509
 20
2354.9086771641969
 30
0.0
 11
2030.5644955680509
 21
1511.9009602021811
 31
0.0
  0
INSERT
  5
82E8
  8
3
 62
     0
  2
_OPEN
 10
2030.5644955680509
 20
2394.9086771641969
 30
0.0
 41
40.0
 42
40.0
 43
40.0
 50
90.0
  0
INSERT
  5
82E9
  8
3
 62
     0
  2
_OPEN
 10
2030.5644955680509
 20
1471.9009602021811
 30
0.0
 41
40.0
 42
40.0
 43
40.0
 50
270.0
  0
TEXT
  8
3
  40
60
  5
8303
  62
0
  72
0
  71
0
 10
1860.56
 20
1827.20
 30
0.000000
  1
923
  0
POINT
  5
82EB
  8
DEFPOINTS
 62
     0
 10
1153.3751557509329
 20
2394.9086771641969
 30
0.0
  0
POINT
  5
82EC
  8
DEFPOINTS
 62
     0
 10
1388.3751557509329
 20
1471.9009602021811
 30
0.0
  0
POINT
  5
82ED
  8
DEFPOINTS
 62
     0
 10
2030.5644955680509
 20
1471.9009602021811
 30
0.0
  0
ENDBLK
  5
81BE
  8
0
  0
ENDSEC
  0
SECTION
  2
ENTITIES
  0
DIMENSION
  5
7C9D
  8
3
  2
*D0
 10
1173.3751557509329
 20
1351.2082613862931
 30
0.0
 11
815.87515575093312
 21
1401.2082613862931
 31
0.0
 70
     0
 13
458.37515575093312
 23
1471.9009602021811
 33
0.0
 14
1173.3751557509329
 24
1441.9724176677721
 34
0.0
1001
ACAD
1000
DSTYLE
1002
{
1070
   287
1070
     3
1070
    40
1040
20.0
1070
   143
1040
0.039
1070
   172
1070
     1
1070
   271
1070
     0
1070
   279
1070
     0
1070
   288
1070
     1
1002
}
  0
DIMENSION
  5
7C9E
  8
3
  2
*D1
 10
831.36743878891821
 20
2498.1814768477739
 30
0.0
 11
1002.371297269925
 21
2548.1814768477739
 31
0.0
 70
     0
 13
1173.3751557509329
 23
2433.2563877305888
 33
0.0
 14
831.36743878891821
 24
2082.9009602021802
 34
0.0
1001
ACAD
1000
DSTYLE
1002
{
1070
   287
1070
     3
1070
    40
1040
20.0
1070
   143
1040
0.039
1070
   172
1070
     1
1070
   271
1070
     0
1070
   279
1070
     0
1070
   288
1070
     1
1002
}
  0
LINE
  5
7C9F
  8
1
 10
681.41037631075676
 20
1694.217719803931
 30
0.0
 11
1241.410376310756
 21
1979.2177198039319
 31
0.0
  0
LINE
  5
7CA0
  8
1
 10
545.33993519110982
 20
1961.5842006004309
 30
0.0
 11
1105.3399351911089
 21
2246.5842006004309
 31
0.0
  0
LINE
  5
7CA1
  8
1
 10
649.30258156725722
 20
1760.702298949054
 30
0.0
 11
1203.3146772645359
 21
2056.9020758245751
 31
0.0
  0
LINE
  5
7CA2
  8
1
 10
580.192917802652
 20
1896.4967259952939
 30
0.0
 11
1145.723290794032
 21
2170.0640983631092
 31
0.0
  0
ARC
  5
7CA3
  8
1
 10
1143.375155750934
 20
2082.900960202182
 30
0.0
 40
323.20771696201558
 50
82.476179561360837
 51
179.99999999999989
  0
ARC
  5
7CA4
  8
1
 10
1203.3751557509329
 20
2082.9009602021811
 30
0.0
 40
383.20771696201541
 50
179.9999999999998
 51
235.87131993038651
  0
ARC
  5
7CA5
  8
1
 10
1143.3751557509329
 20
2082.900960202182
 30
0.0
 40
312.00771696201508
 50
82.476179561360453
 51
179.99999999999929
  0
ARC
  5
7CA6
  8
1
 10
1203.3751557509329
 20
2082.9009602021802
 30
0.0
 40
372.00771696201542
 50
179.99999999999929
 51
265.38856909003903
  0
LINE
  5
7CA7
  8
1
 10
458.37515575093312
 20
1471.9009602021811
 30
0.0
 11
1388.3751557509329
 21
1471.9009602021811
 31
0.0
  0
LINE
  5
7CA8
  8
1
 10
458.37515575093312
 20
1546.9009602021811
 30
0.0
 11
1388.3751557509329
 21
1546.9009602021811
 31
0.0
  0
LINE
  5
7CA9
  8
1
 10
846.76654444000258
 20
2014.5009602021819
 30
0.0
 11
988.37515575093312
 21
2014.500960202181
 31
0.0
  0
LINE
  5
7CAA
  8
1
 10
849.43661063682521
 20
2008.500960202181
 30
0.0
 11
988.37515575093312
 21
2008.500960202181
 31
0.0
  0
LINE
  5
7CAB
  8
1
 10
458.37515575093312
 20
1582.9009602021811
 30
0.0
 11
1388.3751557509329
 21
1582.9009602021811
 31
0.0
  0
LINE
  5
7CAC
  8
1
 10
458.37515575093312
 20
1657.9009602021811
 30
0.0
 11
1388.3751557509329
 21
1657.9009602021811
 31
0.0
  0
LINE
  5
7CAD
  8
2
 10
812.15926122610108
 20
2112.9009602021811
 30
0.0
 11
1490.7529253902101
 21
2112.9009602021811
 31
0.0
  0
LINE
  5
7CAE
  8
1
 10
458.37515575093312
 20
1582.9009602021811
 30
0.0
 11
1388.3751557509329
 21
1582.9009602021811
 31
0.0
  0
ARC
  5
7CAF
  8
1
 10
613.37515575093312
 20
1827.9009602021811
 30
0.0
 40
150.0
 50
116.9728434336437
 51
296.97284343364367
  0
CIRCLE
  5
7CB0
  8
1
 10
613.37515575093312
 20
1827.9009602021811
 30
0.0
 40
76.200000000000003
  0
LINE
  5
7CB1
  8
2
 10
613.37515575093312
 20
1929.125860202181
 30
0.0
 11
613.37515575093312
 21
1726.4125602021811
 31
0.0
  0
ARC
  5
7CB2
  8
1
 10
613.37515575093312
 20
1827.9009602021811
 30
0.0
 40
100.8
 50
0.0
 51
254.57230000000001
  0
ARC
  5
7CB3
  8
1
 10
613.37515575093312
 20
1827.9009602021811
 30
0.0
 40
97.0
 50
0.0
 51
261.65320000000003
  0
ARC
  5
7CB4
  8
1
 10
613.37515575093312
 20
1827.9009602021811
 30
0.0
 40
100.8
 50
285.7971
 51
0.0
  0
ARC
  5
7CB5
  8
1
 10
613.37515575093312
 20
1827.9009602021811
 30
0.0
 40
97.0
 50
278.38409999999988
 51
0.0
  0
LINE
  5
7CB6
  8
1
 10
491.76264390974302
 20
1727.9009602021811
 30
0.0
 11
734.9876675921231
 21
1727.9009602021811
 31
0.0
  0
LINE
  5
7CB7
  8
1
 10
463.37515575093312
 20
1687.9009602021811
 30
0.0
 11
763.37515575093312
 21
1687.9009602021811
 31
0.0
  0
LINE
  5
7CB8
  8
1
 10
559.92475575093329
 20
1742.4506602021811
 30
0.0
 11
553.37515575093312
 21
1735.9009602021811
 31
0.0
  0
LINE
  5
7CB9
  8
1
 10
458.37515575093312
 20
1546.9009602021811
 30
0.0
 11
458.37515575093312
 21
1471.9009602021811
 31
0.0
  0
LINE
  5
7CBA
  8
1
 10
458.37515575093312
 20
1657.9009602021811
 30
0.0
 11
458.37515575093312
 21
1582.9009602021811
 31
0.0
  0
LINE
  5
7CBB
  8
1
 10
463.37515575093312
 20
1687.9009602021811
 30
0.0
 11
463.37515575093312
 21
1657.9009602021811
 31
0.0
  0
LINE
  5
7CBC
  8
1
 10
480.87515575093312
 20
1687.9009602021811
 30
0.0
 11
491.76264390974302
 21
1727.9009602021811
 31
0.0
  0
LINE
  5
7CBD
  8
1
 10
553.37515575093312
 20
1727.9009602021811
 30
0.0
 11
553.37515575093312
 21
1737.9009602021811
 31
0.0
  0
ARC
  5
7CBE
  8
1
 10
551.37515575093312
 20
1737.9009602021811
 30
0.0
 40
2.0
 50
0.0
 51
90.0
  0
LINE
  5
7CBF
  8
1
 10
533.37515575093312
 20
1741.2814602021811
 30
0.0
 11
533.37515575093312
 21
1723.9343602021811
 31
0.0
  0
LINE
  5
7CC0
  8
1
 10
539.37515575093312
 20
1727.9009602021811
 30
0.0
 11
539.37515575093312
 21
1739.9009602021811
 31
0.0
  0
LINE
  5
7CC1
  8
1
 10
527.37515575093312
 20
1739.9009602021811
 30
0.0
 11
527.37515575093312
 21
1727.9009602021811
 31
0.0
  0
LINE
  5
7CC2
  8
1
 10
513.37515575093312
 20
1727.9009602021811
 30
0.0
 11
513.37515575093312
 21
1737.9009602021811
 31
0.0
  0
ARC
  5
7CC3
  8
1
 10
515.375155750933
 20
1737.9009602021811
 30
0.0
 40
2.0
 50
90.0
 51
180.0
  0
LINE
  5
7CC4
  8
1
 10
514.26735575093335
 20
1739.5690602021809
 30
0.0
 11
530.66815575093324
 21
1770.231060202181
 31
0.0
  0
LINE
  5
7CC5
  8
1
 10
513.37515575093312
 20
1727.9009602021811
 30
0.0
 11
553.37515575093312
 21
1727.9009602021811
 31
0.0
  0
LINE
  5
7CC6
  8
1
 10
515.375155750933
 20
1739.9009602021811
 30
0.0
 11
551.37515575093312
 21
1739.9009602021811
 31
0.0
  0
LINE
  5
7CC7
  8
1
 10
640.99285575093324
 20
1730.9009602021811
 30
0.0
 11
586.10575575093344
 21
1730.9009602021811
 31
0.0
  0
LINE
  5
7CC8
  8
1
 10
598.66655575093318
 20
1731.9009602021811
 30
0.0
 11
628.14755575093341
 21
1731.9009602021811
 31
0.0
  0
LINE
  5
7CC9
  8
1
 10
711.37515575093312
 20
1739.9009602021811
 30
0.0
 11
675.37515575093312
 21
1739.9009602021811
 31
0.0
  0
LINE
  5
7CCA
  8
1
 10
713.37515575093312
 20
1727.9009602021811
 30
0.0
 11
673.375155750933
 21
1727.9009602021811
 31
0.0
  0
LINE
  5
7CCB
  8
1
 10
673.375155750933
 20
1727.9009602021811
 30
0.0
 11
673.375155750933
 21
1737.9009602021811
 31
0.0
  0
ARC
  5
7CCC
  8
1
 10
675.37515575093312
 20
1737.9009602021811
 30
0.0
 40
2.0
 50
90.0
 51
180.0
  0
LINE
  5
7CCD
  8
1
 10
667.12175575093352
 20
1742.1544602021811
 30
0.0
 11
673.375155750933
 21
1735.9009602021811
 31
0.0
  0
LINE
  5
7CCE
  8
1
 10
713.37515575093312
 20
1727.9009602021811
 30
0.0
 11
713.37515575093312
 21
1737.9009602021811
 31
0.0
  0
LINE
  5
7CCF
  8
1
 10
693.37515575093312
 20
1741.2814602021811
 30
0.0
 11
693.37515575093312
 21
1723.9343602021811
 31
0.0
  0
LINE
  5
7CD0
  8
1
 10
699.37515575093312
 20
1739.9009602021811
 30
0.0
 11
699.37515575093312
 21
1727.9009602021811
 31
0.0
  0
LINE
  5
7CD1
  8
1
 10
687.37515575093312
 20
1727.9009602021811
 30
0.0
 11
687.37515575093312
 21
1739.9009602021811
 31
0.0
  0
LINE
  5
7CD2
  8
1
 10
712.28435575093306
 20
1739.9404602021809
 30
0.0
 11
696.16565575093307
 21
1770.0747602021811
 31
0.0
  0
ARC
  5
7CD3
  8
1
 10
711.37515575093312
 20
1737.9009602021811
 30
0.0
 40
2.0
 50
0.0
 51
90.0
  0
LINE
  5
7CD4
  8
1
 10
745.87515575093312
 20
1687.9009602021811
 30
0.0
 11
734.98766759212367
 21
1727.9009602021811
 31
0.0
  0
LINE
  5
7CD5
  8
1
 10
763.37515575093312
 20
1687.9009602021811
 30
0.0
 11
763.37515575093312
 21
1657.9009602021811
 31
0.0
  0
LINE
  5
7CD6
  8
2
 10
512.75975575093344
 20
1827.9009602021811
 30
0.0
 11
721.42065575093318
 21
1827.9009602021811
 31
0.0
  0
DIMENSION
  5
7CD8
  8
3
  2
*D2
 10
1807.8990882747471
 20
1582.9009602021811
 30
0.0
 11
1757.8990882747471
 21
1847.9009602021811
 31
0.0
 70
     0
 13
1490.7529253902101
 23
2112.9009602021811
 33
0.0
 14
1388.3751557509329
 24
1582.9009602021811
 34
0.0
 50
90.0
1001
ACAD
1000
DSTYLE
1002
{
1070
   287
1070
     3
1070
    40
1040
20.0
1070
   143
1040
0.039
1070
   172
1070
     1
1070
   271
1070
     0
1070
   279
1070
     0
1070
   288
1070
     1
1002
}
  0
DIMENSION
  5
7CD9
  8
3
  2
*D3
 10
1695.1867751094089
 20
2112.9009602021811
 30
0.0
 11
1645.186775109408
 21
1900.9009602021811
 31
0.0
 70
     0
 13
1478.3751557509329
 23
1688.9009602021811
 33
0.0
 14
1490.7529253902101
 24
2112.9009602021811
 34
0.0
 50
90.0
1001
ACAD
1000
DSTYLE
1002
{
1070
   287
1070
     3
1070
    40
1040
20.0
1070
   143
1040
0.039
1070
   172
1070
     1
1070
   271
1070
     0
1070
   279
1070
     0
1070
   288
1070
     1
1002
}
  0
DIMENSION
  5
7CDA
  8
3
  2
*D4
 10
1602.016511669297
 20
2100.9009602021811
 30
0.0
 11
1552.0165116692961
 21
1894.900960202182
 31
0.0
 70
     0
 13
1478.3751557509329
 23
1688.9009602021811
 33
0.0
 14
1478.3751557509329
 24
2100.9009602021811
 34
0.0
 50
90.0
1001
ACAD
1000
DSTYLE
1002
{
1070
   287
1070
     3
1070
    40
1040
20.0
1070
   143
1040
0.039
1070
   172
1070
     1
1070
   271
1070
     0
1070
   279
1070
     0
1070
   288
1070
     1
1002
}
  0
LINE
  5
7CDB
  8
1
 10
988.37515575093312
 20
2054.500960202181
 30
0.0
 11
988.37515575093312
 21
1657.9009602021811
 31
0.0
  0
LINE
  5
7CDC
  8
2
 10
1173.3751557509329
 20
2433.2563877305888
 30
0.0
 11
1173.3751557509329
 21
1441.9724176677721
 31
0.0
  0
LINE
  5
7CDD
  8
1
 10
1358.3751557509329
 20
2054.500960202181
 30
0.0
 11
1358.3751557509329
 21
1657.9009602021811
 31
0.0
  0
LINE
  5
7CDE
  8
1
 10
1475.3751557509329
 20
2127.9009602021811
 30
0.0
 11
1475.3751557509329
 21
1666.4602381045299
 31
0.0
  0
LINE
  5
7CDF
  8
1
 10
1453.3751557509329
 20
2102.9009602021811
 30
0.0
 11
1453.3751557509329
 21
1685.90614288961
 31
0.0
  0
LINE
  5
7CE0
  8
1
 10
1478.3751557509329
 20
2127.9009602021811
 30
0.0
 11
1478.3751557509329
 21
1661.90614288961
 31
0.0
  0
DIMENSION
  5
7CE3
  8
3
  2
*D5
 10
1388.3751557509329
 20
1351.2082613862931
 30
0.0
 11
1280.8751557509329
 21
1401.2082613862931
 31
0.0
 70
     0
 13
1173.3751557509329
 23
1441.9724176677721
 33
0.0
 14
1388.3751557509329
 24
1471.9009602021811
 34
0.0
1001
ACAD
1000
DSTYLE
1002
{
1070
   287
1070
     3
1070
    40
1040
20.0
1070
   143
1040
0.039
1070
   172
1070
     1
1070
   271
1070
     0
1070
   279
1070
     0
1070
   288
1070
     1
1002
}
  0
LINE
  5
7CE4
  8
1
 10
1173.466558519184
 20
1712.097484907086
 30
0.0
 11
1478.3751557509329
 21
1688.9009602021811
 31
0.0
  0
LINE
  5
7CE5
  8
1
 10
968.37515575093323
 20
1732.9009602021811
 30
0.0
 11
968.37515575093323
 21
1657.9009602021811
 31
0.0
  0
LINE
  5
7CE6
  8
1
 10
968.37515575093323
 20
1662.9009602021811
 30
0.0
 11
988.37515575093312
 21
1662.9009602021811
 31
0.0
  0
LINE
  5
7CE7
  8
1
 10
968.37515575093323
 20
1732.9009602021811
 30
0.0
 11
988.37515575093312
 21
1732.9009602021811
 31
0.0
  0
LINE
  5
7CE8
  8
1
 10
1388.3751557509329
 20
1546.9009602021811
 30
0.0
 11
1388.3751557509329
 21
1471.9009602021811
 31
0.0
  0
LINE
  5
7CE9
  8
1
 10
1358.3751557509329
 20
1732.9009602021811
 30
0.0
 11
1378.3751557509329
 21
1732.9009602021811
 31
0.0
  0
POLYLINE
  5
7CEA
  8
1
 66
     1
 10
0.0
 20
0.0
 30
0.0
  0
VERTEX
  5
8214
  8
1
 10
1478.3751557509329
 20
1686.895764049736
 30
0.0
  0
VERTEX
  5
8215
  8
1
 10
1297.0786606062011
 20
1699.9728882896841
 30
0.0
 42
-0.3908423130543746
  0
SEQEND
  5
8216
  8
1
  0
LINE
  5
7CEE
  8
1
 10
1358.3751557509329
 20
1662.9009602021811
 30
0.0
 11
1378.3751557509329
 21
1662.9009602021811
 31
0.0
  0
LINE
  5
7CEF
  8
1
 10
1388.3751557509329
 20
1657.9009602021811
 30
0.0
 11
1388.3751557509329
 21
1582.9009602021811
 31
0.0
  0
POLYLINE
  5
7CF0
  8
1
 66
     1
 10
0.0
 20
0.0
 30
0.0
 70
     1
  0
VERTEX
  5
8217
  8
1
 10
1478.3751557509329
 20
1686.9061428896091
 30
0.0
  0
VERTEX
  5
8218
  8
1
 10
1478.3751557509329
 20
1661.90614288961
 30
0.0
  0
VERTEX
  5
8219
  8
1
 10
1477.3751557509329
 20
1661.90614288961
 30
0.0
 42
-0.4142135623730951
  0
VERTEX
  5
821A
  8
1
 10
1475.3751557509329
 20
1663.90614288961
 30
0.0
  0
VERTEX
  5
821B
  8
1
 10
1475.3751557509329
 20
1679.90614288961
 30
0.0
 42
0.4142135623730951
  0
VERTEX
  5
821C
  8
1
 10
1471.3751557509329
 20
1683.90614288961
 30
0.0
  0
VERTEX
  5
821D
  8
1
 10
1455.3751557509329
 20
1683.90614288961
 30
0.0
 42
-0.4142135623730951
  0
VERTEX
  5
821E
  8
1
 10
1453.3751557509329
 20
1685.90614288961
 30
0.0
  0
VERTEX
  5
821F
  8
1
 10
1453.3751557509329
 20
1686.9061428896091
 30
0.0
  0
SEQEND
  5
8220
  8
1
  0
LINE
  5
7CFB
  8
1
 10
1378.3751557509329
 20
1732.9009602021811
 30
0.0
 11
1378.3751557509329
 21
1657.9009602021811
 31
0.0
  0
LINE
  5
7CFC
  8
1
 10
1453.3751557509329
 20
1680.6782581284781
 30
0.0
 11
1378.3751557509329
 21
1686.088094194052
 31
0.0
  0
LINE
  5
7CFD
  8
1
 10
1453.3751557509329
 20
1680.6782581284781
 30
0.0
 11
1453.3751557509329
 21
1686.9061428896091
 31
0.0
  0
DIMENSION
  5
7CFE
  8
3
  2
*D6
 10
1695.1867751094089
 20
2394.9086771641969
 30
0.0
 11
1645.186775109408
 21
2253.9048186831901
 31
0.0
 70
     0
 13
1490.7529253902101
 23
2112.9009602021811
 33
0.0
 14
1143.3751557509329
 24
2394.9086771641969
 34
0.0
 50
90.0
1001
ACAD
1000
DSTYLE
1002
{
1070
   287
1070
     3
1070
    40
1040
20.0
1070
   143
1040
0.039
1070
   172
1070
     1
1070
   271
1070
     0
1070
   279
1070
     0
1070
   288
1070
     1
1002
}
  0
DIMENSION
  5
7CFF
  8
3
  2
*D7
 10
1173.3751557509329
 20
2498.1814768477739
 30
0.0
 11
1325.8751557509329
 21
2548.1814768477739
 31
0.0
 70
     0
 13
1478.3751557509329
 23
2127.9009602021811
 33
0.0
 14
1173.3751557509329
 24
2433.2563877305888
 34
0.0
1001
ACAD
1000
DSTYLE
1002
{
1070
   287
1070
     3
1070
    40
1040
20.0
1070
   143
1040
0.039
1070
   172
1070
     1
1070
   271
1070
     0
1070
   279
1070
     0
1070
   288
1070
     1
1002
}
  0
ARC
  5
7D00
  8
1
 10
1173.3751557509329
 20
2112.9009602021811
 30
0.0
 40
150.0
 50
296.97284343364367
 51
116.9728434336437
  0
ARC
  5
7D01
  8
1
 10
1150.375155750934
 20
2135.9009602021802
 30
0.0
 40
269.74745134352202
 50
0.0000000000002898
 51
82.476179561360837
  0
ARC
  5
7D02
  8
1
 10
1150.375155750934
 20
2135.9009602021802
 30
0.0
 40
258.54745134352208
 50
0.0000000000002544
 51
82.476179561360411
  0
CIRCLE
  5
7D03
  8
1
 10
1173.3751557509329
 20
2112.9009602021811
 30
0.0
 40
63.5
  0
LINE
  5
7D04
  8
1
 10
983.375155750933
 20
2057.7009602021808
 30
0.0
 11
1363.3751557509329
 21
2057.7009602021808
 31
0.0
  0
LINE
  5
7D05
  8
1
 10
948.375155750933
 20
2054.500960202181
 30
0.0
 11
1398.3751557509329
 21
2054.500960202181
 31
0.0
  0
LINE
  5
7D06
  8
1
 10
948.375155750933
 20
2054.500960202181
 30
0.0
 11
948.375155750933
 21
2014.500960202181
 31
0.0
  0
LINE
  5
7D07
  8
1
 10
983.375155750933
 20
2057.7009602021808
 30
0.0
 11
983.375155750933
 21
2054.500960202181
 31
0.0
  0
ARC
  5
7D08
  8
1
 10
1196.3751557509329
 20
2135.9009602021852
 30
0.0
 40
212.5474513435226
 50
325.8803823680505
 51
359.99999999999898
  0
LINE
  5
7D09
  8
1
 10
1398.3751557509329
 20
2054.500960202181
 30
0.0
 11
1398.3751557509329
 21
2014.500960202181
 31
0.0
  0
ARC
  5
7D0A
  8
1
 10
1388.3751557509329
 20
1988.9009602021811
 30
0.0
 40
31.0
 50
119.03414805150371
 51
278.94682209462479
  0
LINE
  5
7D0B
  8
1
 10
1358.3751557509329
 20
2008.500960202181
 30
0.0
 11
1407.547719424286
 21
2008.500960202181
 31
0.0
  0
LINE
  5
7D0C
  8
1
 10
1358.3751557509329
 20
2014.500960202181
 30
0.0
 11
1409.370382553137
 21
2014.500960202181
 31
0.0
  0
LINE
  5
7D0D
  8
1
 10
1473.3751557509329
 20
1970.9009602021811
 30
0.0
 11
1393.1962042981099
 21
1958.2781338971879
 31
0.0
  0
LINE
  5
7D0E
  8
1
 10
1363.3751557509329
 20
2057.7009602021808
 30
0.0
 11
1363.3751557509329
 21
2054.500960202181
 31
0.0
  0
POLYLINE
  5
7D0F
  8
1
 66
     1
 10
0.0
 20
0.0
 30
0.0
 70
     1
  0
VERTEX
  5
8233
  8
1
 10
1478.3751557509329
 20
2102.9009602021811
 30
0.0
  0
VERTEX
  5
8234
  8
1
 10
1478.3751557509329
 20
2127.9009602021811
 30
0.0
  0
VERTEX
  5
8235
  8
1
 10
1477.3751557509329
 20
2127.9009602021811
 30
0.0
 42
0.4142135623730951
  0
VERTEX
  5
8236
  8
1
 10
1475.3751557509329
 20
2125.9009602021811
 30
0.0
  0
VERTEX
  5
8237
  8
1
 10
1475.3751557509329
 20
2109.9009602021811
 30
0.0
 42
-0.4142135623730951
  0
VERTEX
  5
8238
  8
1
 10
1471.3751557509329
 20
2105.9009602021811
 30
0.0
  0
VERTEX
  5
8239
  8
1
 10
1455.3751557509329
 20
2105.9009602021811
 30
0.0
 42
0.4142135623730951
  0
VERTEX
  5
823A
  8
1
 10
1453.3751557509329
 20
2103.9009602021811
 30
0.0
  0
VERTEX
  5
823B
  8
1
 10
1453.3751557509329
 20
2102.9009602021811
 30
0.0
  0
SEQEND
  5
823C
  8
1
  0
LINE
  5
7D1A
  8
1
 10
1407.237606073058
 20
2100.9009602021811
 30
0.0
 11
1478.3751557509329
 21
2100.9009602021811
 31
0.0
  0
LINE
  5
7D1B
  8
1
 10
1407.237606073058
 20
2102.9009602021811
 30
0.0
 11
1478.3751557509329
 21
2102.9009602021811
 31
0.0
  0
ARC
  5
7D1C
  8
1
 10
1196.375155750934
 20
2135.900960202197
 30
0.0
 40
223.74745134352219
 50
353.58476821555422
 51
359.99999999999608
  0
LINE
  5
7D1D
  8
1
 10
1453.3751557509329
 20
2110.9009602021811
 30
0.0
 11
1453.3751557509329
 21
2102.9009602021811
 31
0.0
  0
LINE
  5
7D1E
  8
1
 10
1418.721556627406
 20
2110.9009602021811
 30
0.0
 11
1453.3751557509329
 21
2110.9009602021811
 31
0.0
  0
LINE
  5
7D1F
  8
1
 10
463.37515575093352
 20
3311.0860258703128
 30
0.0
 11
1323.3751557509329
 21
3311.0860258703119
 31
0.0
  0
LINE
  5
7D20
  8
1
 10
463.37515575093312
 20
3189.0860258703128
 30
0.0
 11
1323.3751557509329
 21
3189.0860258703119
 31
0.0
  0
DIMENSION
  5
7D21
  8
3
  2
*D8
 10
458.37515575093312
 20
4258.8364672789976
 30
0.0
 11
708.37515575093312
 21
4308.8364672789976
 31
0.0
 70
     0
 13
958.375155750933
 23
4144.0860258703124
 33
0.0
 14
458.37515575093312
 24
3704.086025870311
 34
0.0
1001
ACAD
1000
DSTYLE
1002
{
1070
   287
1070
     3
1070
    40
1040
20.0
1070
   143
1040
0.039
1070
   172
1070
     1
1070
   271
1070
     0
1070
   279
1070
     0
1070
   288
1070
     1
1002
}
  0
DIMENSION
  5
7D22
  8
3
  2
*D9
 10
1388.3751557509329
 20
3065.9108716460828
 30
0.0
 11
923.375155750933
 21
3115.9108716460828
 31
0.0
 70
     0
 13
458.37515575093312
 23
3284.086025870311
 33
0.0
 14
1388.3751557509329
 24
3284.0860258703119
 34
0.0
1001
ACAD
1000
DSTYLE
1002
{
1070
   287
1070
     3
1070
    40
1040
20.0
1070
   143
1040
0.039
1070
   172
1070
     1
1070
   271
1070
     0
1070
   279
1070
     0
1070
   288
1070
     1
1002
}
  0
LINE
  5
7D23
  8
1
 10
1109.8751557509329
 20
3269.0860258703119
 30
0.0
 11
689.57515575093339
 21
3269.0860258703128
 31
0.0
  0
LINE
  5
7D24
  8
1
 10
689.57515575093339
 20
3219.0860258703128
 30
0.0
 11
1109.8751557509329
 21
3219.0860258703119
 31
0.0
  0
LINE
  5
7D25
  8
1
 10
713.37515575093312
 20
3324.086025870311
 30
0.0
 11
983.375155750933
 21
3324.0860258703119
 31
0.0
  0
LINE
  5
7D26
  8
1
 10
820.16743878891793
 20
3799.0860258703119
 30
0.0
 11
1475.3751557509329
 21
3799.0860258703119
 31
0.0
  0
LINE
  5
7D27
  8
1
 10
820.16743878891793
 20
4099.0860258703124
 30
0.0
 11
1475.3751557509329
 21
4099.0860258703124
 31
0.0
  0
LINE
  5
7D28
  8
2
 10
796.20105228822831
 20
3949.0860258703119
 30
0.0
 11
1581.4796296098059
 21
3949.0860258703119
 31
0.0
  0
LINE
  5
7D29
  8
1
 10
458.37515575093312
 20
3704.086025870311
 30
0.0
 11
958.375155750933
 21
3704.0860258703119
 31
0.0
  0
LINE
  5
7D2A
  8
1
 10
458.37515575093312
 20
3664.086025870311
 30
0.0
 11
958.375155750933
 21
3664.0860258703119
 31
0.0
  0
LINE
  5
7D2B
  8
1
 10
458.37515575093312
 20
3284.086025870311
 30
0.0
 11
1153.3751557509329
 21
3284.0860258703119
 31
0.0
  0
LINE
  5
7D2C
  8
1
 10
463.37515575093352
 20
3189.0860258703142
 30
0.0
 11
463.37515575093312
 21
3311.0860258703128
 31
0.0
  0
LINE
  5
7D2D
  8
1
 10
689.57515575093339
 20
3269.0860258703119
 30
0.0
 11
689.57515575093339
 21
3219.0860258703128
 31
0.0
  0
LINE
  5
7D2E
  8
1
 10
537.1751557509333
 20
3269.0860258703119
 30
0.0
 11
537.1751557509333
 21
3219.0860258703119
 31
0.0
  0
LINE
  5
7D2F
  8
2
 10
613.37515575093312
 20
3590.4167258703119
 30
0.0
 11
613.37515575093312
 21
3213.7680258703122
 31
0.0
  0
LINE
  5
7D30
  8
1
 10
537.1751557509333
 20
3219.0860258703119
 30
0.0
 11
689.57515575093339
 21
3219.0860258703128
 31
0.0
  0
LINE
  5
7D31
  8
1
 10
537.1751557509333
 20
3269.0860258703119
 30
0.0
 11
689.57515575093294
 21
3269.0860258703128
 31
0.0
  0
LINE
  5
7D32
  8
1
 10
713.37515575093312
 20
3290.0860258703119
 30
0.0
 11
513.37515575093312
 21
3290.0860258703119
 31
0.0
  0
LINE
  5
7D33
  8
1
 10
513.37515575093312
 20
3585.0860258703119
 30
0.0
 11
713.37515575093312
 21
3585.0860258703119
 31
0.0
  0
DIMENSION
  5
7D34
  8
3
  2
*D10
 10
383.03121759056552
 20
3704.086025870311
 30
0.0
 11
333.03121759056501
 21
3494.086025870311
 31
0.0
 70
     0
 13
458.37515575093312
 23
3284.086025870311
 33
0.0
 14
458.37515575093312
 24
3704.086025870311
 34
0.0
 50
90.0
1001
ACAD
1000
DSTYLE
1002
{
1070
   287
1070
     3
1070
    40
1040
20.0
1070
   143
1040
0.039
1070
   172
1070
     1
1070
   271
1070
     0
1070
   279
1070
     0
1070
   288
1070
     1
1002
}
  0
LINE
  5
7D35
  8
1
 10
513.37515575093312
 20
3290.0860258703119
 30
0.0
 11
513.37515575093312
 21
3585.0860258703119
 31
0.0
  0
LINE
  5
7D36
  8
1
 10
458.37515575093312
 20
3324.086025870311
 30
0.0
 11
513.37515575093312
 21
3324.086025870311
 31
0.0
  0
LINE
  5
7D37
  8
1
 10
458.37515575093312
 20
3324.0860258703119
 30
0.0
 11
458.37515575093312
 21
3284.0860258703119
 31
0.0
  0
POINT
  5
7D38
  8
1
 10
458.37515575093312
 20
3284.086025870311
 30
0.0
  0
POINT
  5
7D39
  8
1
 10
458.37515575093312
 20
3284.086025870311
 30
0.0
  0
LINE
  5
7D3A
  8
1
 10
515.375155750933
 20
3664.086025870311
 30
0.0
 11
515.375155750933
 21
3585.0860258703119
 31
0.0
  0
LINE
  5
7D3B
  8
1
 10
458.37515575093312
 20
3704.086025870311
 30
0.0
 11
458.37515575093312
 21
3664.086025870311
 31
0.0
  0
LINE
  5
7D3C
  8
1
 10
713.37515575093312
 20
3412.0860258703119
 30
0.0
 11
713.37515575093312
 21
3585.0860258703119
 31
0.0
  0
LINE
  5
7D3D
  8
1
 10
713.37515575093312
 20
3412.0860258703119
 30
0.0
 11
713.37515575093312
 21
3290.0860258703119
 31
0.0
  0
LINE
  5
7D3E
  8
1
 10
576.37515575093312
 20
3284.0860258703119
 30
0.0
 11
650.37515575093312
 21
3284.0860258703119
 31
0.0
  0
LINE
  5
7D3F
  8
1
 10
573.375155750933
 20
3290.0860258703119
 30
0.0
 11
573.375155750933
 21
3287.0860258703119
 31
0.0
  0
ARC
  5
7D40
  8
1
 10
576.37515575093312
 20
3287.0860258703119
 30
0.0
 40
2.9998999999999989
 50
179.99879999999999
 51
270.00119999999998
  0
LINE
  5
7D41
  8
1
 10
627.97515575093337
 20
3284.0860258703119
 30
0.0
 11
627.97515575093337
 21
3279.0860258703119
 31
0.0
  0
LINE
  5
7D42
  8
1
 10
598.77525575093341
 20
3284.0860258703119
 30
0.0
 11
598.77525575093341
 21
3279.0860258703119
 31
0.0
  0
LINE
  5
7D43
  8
1
 10
627.97515575093337
 20
3279.0860258703119
 30
0.0
 11
598.77525575093341
 21
3279.0860258703119
 31
0.0
  0
LINE
  5
7D44
  8
1
 10
627.37515575093312
 20
3279.0860258703119
 30
0.0
 11
627.37515575093312
 21
3269.0860258703119
 31
0.0
  0
LINE
  5
7D45
  8
1
 10
599.37515575093312
 20
3279.0860258703119
 30
0.0
 11
599.37515575093312
 21
3269.0860258703119
 31
0.0
  0
LINE
  5
7D46
  8
1
 10
653.37515575093312
 20
3290.0860258703119
 30
0.0
 11
653.37515575093312
 21
3287.0860258703119
 31
0.0
  0
ARC
  5
7D47
  8
1
 10
650.37525575093332
 20
3287.0860258703119
 30
0.0
 40
2.9998999999999989
 50
269.99880000000002
 51
0.0012000000000121
  0
LINE
  5
7D48
  8
1
 10
711.37515575093312
 20
3664.086025870311
 30
0.0
 11
711.37515575093312
 21
3585.0860258703119
 31
0.0
  0
LINE
  5
7D49
  8
1
 10
555.37515575093312
 20
3664.086025870311
 30
0.0
 11
555.37515575093312
 21
3585.0860258703119
 31
0.0
  0
LINE
  5
7D4A
  8
1
 10
671.37515575093312
 20
3664.086025870311
 30
0.0
 11
671.37515575093312
 21
3585.0860258703119
 31
0.0
  0
LINE
  5
7D4B
  8
1
 10
820.16743878891793
 20
3799.0860258703119
 30
0.0
 11
820.16743878891793
 21
4099.0860258703124
 31
0.0
  0
DIMENSION
  5
7D4C
  8
3
  2
*D11
 10
1674.5176308929599
 20
4144.0860258703124
 30
0.0
 11
1624.517630892959
 21
3714.0860258703119
 31
0.0
 70
     0
 13
1388.3751557509329
 23
3284.0860258703119
 33
0.0
 14
1388.3751557509329
 24
4144.0860258703124
 34
0.0
 50
90.0
1001
ACAD
1000
DSTYLE
1002
{
1070
   287
1070
     3
1070
    40
1040
20.0
1070
   143
1040
0.039
1070
   172
1070
     1
1070
   271
1070
     0
1070
   279
1070
     0
1070
   288
1070
     1
1002
}
  0
LINE
  5
7D4D
  8
1
 10
1193.3751557509329
 20
3799.0860258703119
 30
0.0
 11
1193.3751557509329
 21
3713.6860258703132
 31
0.0
  0
LINE
  5
7D4E
  8
1
 10
1153.3751557509329
 20
3799.0860258703119
 30
0.0
 11
1153.3751557509329
 21
3713.6860258703132
 31
0.0
  0
LINE
  5
7D4F
  8
1
 10
1363.3751557509329
 20
3734.0860258703128
 30
0.0
 11
1363.3751557509329
 21
3309.086025870311
 31
0.0
  0
LINE
  5
7D50
  8
1
 10
983.375155750933
 20
3734.0860258703119
 30
0.0
 11
983.375155750933
 21
3309.0860258703119
 31
0.0
  0
LINE
  5
7D51
  8
1
 10
958.375155750933
 20
3799.0860258703119
 30
0.0
 11
958.375155750933
 21
3324.0860258703119
 31
0.0
  0
LINE
  5
7D52
  8
1
 10
1388.3751557509329
 20
3799.0860258703119
 30
0.0
 11
1388.3751557509329
 21
3284.0860258703119
 31
0.0
  0
LINE
  5
7D53
  8
2
 10
1173.3751557509329
 20
4199.0713210260192
 30
0.0
 11
1173.3751557509329
 21
3199.1379315449208
 31
0.0
  0
LINE
  5
7D54
  8
1
 10
1323.3751557509329
 20
3189.0860258703119
 30
0.0
 11
1323.3751557509329
 21
3311.086025870311
 31
0.0
  0
LINE
  5
7D55
  8
1
 10
1236.8751557509329
 20
3269.0860258703119
 30
0.0
 11
1236.8751557509329
 21
3219.0860258703119
 31
0.0
  0
LINE
  5
7D56
  8
1
 10
1109.8751557509329
 20
3269.0860258703119
 30
0.0
 11
1109.8751557509329
 21
3219.0860258703119
 31
0.0
  0
LINE
  5
7D57
  8
1
 10
1109.8751557509329
 20
3219.0860258703119
 30
0.0
 11
1236.8751557509329
 21
3219.0860258703119
 31
0.0
  0
LINE
  5
7D58
  8
1
 10
1193.3751557509329
 20
3284.0860258703119
 30
0.0
 11
1388.3751557509329
 21
3284.0860258703119
 31
0.0
  0
LINE
  5
7D59
  8
1
 10
1193.3751557509329
 20
3309.0860258703119
 30
0.0
 11
1363.3751557509329
 21
3309.0860258703119
 31
0.0
  0
LINE
  5
7D5A
  8
1
 10
1193.3751557509329
 20
3321.5860258703119
 30
0.0
 11
1273.3751557509329
 21
3321.5860258703119
 31
0.0
  0
LINE
  5
7D5B
  8
1
 10
1193.3751557509329
 20
3386.5860258703119
 30
0.0
 11
1273.3751557509329
 21
3386.5860258703119
 31
0.0
  0
LINE
  5
7D5C
  8
1
 10
1193.3751557509329
 20
3656.5860258703119
 30
0.0
 11
1273.3751557509329
 21
3656.5860258703119
 31
0.0
  0
LINE
  5
7D5D
  8
1
 10
1193.3751557509329
 20
3721.5860258703119
 30
0.0
 11
1273.3751557509329
 21
3721.5860258703119
 31
0.0
  0
LINE
  5
7D5E
  8
1
 10
1109.8751557509329
 20
3269.0860258703119
 30
0.0
 11
1236.8751557509329
 21
3269.0860258703119
 31
0.0
  0
LINE
  5
7D5F
  8
1
 10
1081.375155750932
 20
3329.4860258703111
 30
0.0
 11
1265.3751557509329
 21
3329.4860258703111
 31
0.0
  0
LINE
  5
7D60
  8
1
 10
1081.375155750932
 20
3378.6860258703118
 30
0.0
 11
1265.3751557509329
 21
3378.6860258703118
 31
0.0
  0
LINE
  5
7D61
  8
1
 10
1081.3751557509329
 20
3664.486025870312
 30
0.0
 11
1265.3751557509329
 21
3664.486025870312
 31
0.0
  0
LINE
  5
7D62
  8
1
 10
1081.3751557509329
 20
3713.6860258703132
 30
0.0
 11
1265.3751557509329
 21
3713.6860258703132
 31
0.0
  0
LINE
  5
7D63
  8
2
 10
1065.46792468121
 20
3354.0860258703119
 30
0.0
 11
1281.282386820656
 21
3354.0860258703119
 31
0.0
  0
LINE
  5
7D64
  8
2
 10
1065.46792468121
 20
3689.0860258703119
 30
0.0
 11
1281.282386820656
 21
3689.0860258703119
 31
0.0
  0
LINE
  5
7D65
  8
1
 10
1153.3751557509329
 20
3664.486025870312
 30
0.0
 11
1153.3751557509329
 21
3378.6860258703118
 31
0.0
  0
LINE
  5
7D66
  8
1
 10
1193.3751557509329
 20
3664.486025870312
 30
0.0
 11
1193.3751557509329
 21
3378.6860258703118
 31
0.0
  0
LINE
  5
7D67
  8
1
 10
983.375155750933
 20
3309.0860258703119
 30
0.0
 11
1153.3751557509329
 21
3309.0860258703119
 31
0.0
  0
LINE
  5
7D68
  8
1
 10
1081.375155750932
 20
3378.6860258703118
 30
0.0
 11
1081.375155750932
 21
3329.4860258703111
 31
0.0
  0
LINE
  5
7D69
  8
1
 10
1073.3751557509329
 20
3386.5860258703119
 30
0.0
 11
1073.3751557509329
 21
3321.5860258703119
 31
0.0
  0
LINE
  5
7D6A
  8
1
 10
1073.3751557509329
 20
3321.5860258703119
 30
0.0
 11
1153.3751557509329
 21
3321.5860258703119
 31
0.0
  0
LINE
  5
7D6B
  8
1
 10
1153.3751557509329
 20
3329.4860258703111
 30
0.0
 11
1153.3751557509329
 21
3269.0860258703119
 31
0.0
  0
LINE
  5
7D6C
  8
1
 10
1193.3751557509329
 20
3329.4860258703111
 30
0.0
 11
1193.3751557509329
 21
3269.0860258703119
 31
0.0
  0
LINE
  5
7D6D
  8
1
 10
1073.3751557509329
 20
3386.5860258703119
 30
0.0
 11
1153.3751557509329
 21
3386.5860258703119
 31
0.0
  0
LINE
  5
7D6E
  8
1
 10
1073.3751557509329
 20
3656.5860258703119
 30
0.0
 11
1153.3751557509329
 21
3656.5860258703119
 31
0.0
  0
LINE
  5
7D6F
  8
1
 10
1073.3751557509329
 20
3721.5860258703119
 30
0.0
 11
1153.3751557509329
 21
3721.5860258703119
 31
0.0
  0
LINE
  5
7D70
  8
1
 10
1081.3751557509329
 20
3713.6860258703132
 30
0.0
 11
1081.3751557509329
 21
3664.486025870312
 31
0.0
  0
LINE
  5
7D71
  8
1
 10
1073.3751557509329
 20
3721.5860258703119
 30
0.0
 11
1073.3751557509329
 21
3656.5860258703119
 31
0.0
  0
LINE
  5
7D72
  8
1
 10
1363.3751557509329
 20
3324.0860258703119
 30
0.0
 11
1388.3751557509329
 21
3324.0860258703119
 31
0.0
  0
LINE
  5
7D73
  8
1
 10
1265.3751557509329
 20
3378.6860258703118
 30
0.0
 11
1265.3751557509329
 21
3329.4860258703111
 31
0.0
  0
LINE
  5
7D74
  8
1
 10
1273.3751557509329
 20
3386.5860258703119
 30
0.0
 11
1273.3751557509329
 21
3321.5860258703119
 31
0.0
  0
LINE
  5
7D75
  8
1
 10
1265.3751557509329
 20
3713.6860258703132
 30
0.0
 11
1265.3751557509329
 21
3664.486025870312
 31
0.0
  0
LINE
  5
7D76
  8
1
 10
1273.3751557509329
 20
3721.5860258703119
 30
0.0
 11
1273.3751557509329
 21
3656.5860258703119
 31
0.0
  0
DIMENSION
  5
7D77
  8
3
  2
*D12
 10
958.375155750933
 20
4258.8364672789976
 30
0.0
 11
1173.3751557509329
 21
4308.8364672789976
 31
0.0
 70
     0
 13
1388.3751557509329
 23
4144.0860258703124
 33
0.0
 14
958.375155750933
 24
4144.0860258703124
 34
0.0
1001
ACAD
1000
DSTYLE
1002
{
1070
   287
1070
     3
1070
    40
1040
20.0
1070
   143
1040
0.039
1070
   172
1070
     1
1070
   271
1070
     0
1070
   279
1070
     0
1070
   288
1070
     1
1002
}
  0
LINE
  5
7D78
  8
1
 10
983.375155750933
 20
3734.0860258703119
 30
0.0
 11
1363.3751557509329
 21
3734.0860258703128
 31
0.0
  0
LINE
  5
7D79
  8
1
 10
998.375155750933
 20
4142.0860258703124
 30
0.0
 11
1348.3751557509329
 21
4142.0860258703124
 31
0.0
  0
LINE
  5
7D7A
  8
1
 10
998.375155750933
 20
4102.0860258703124
 30
0.0
 11
1348.3751557509329
 21
4102.0860258703124
 31
0.0
  0
LINE
  5
7D7B
  8
1
 10
998.375155750933
 20
3799.0860258703119
 30
0.0
 11
998.375155750933
 21
3741.363388415758
 31
0.0
  0
LINE
  5
7D7C
  8
1
 10
998.375155750933
 20
3757.0860258703128
 30
0.0
 11
998.375155750933
 21
3734.0860258703119
 31
0.0
  0
LINE
  5
7D7D
  8
1
 10
958.375155750933
 20
4144.0860258703124
 30
0.0
 11
958.375155750933
 21
4099.0860258703124
 31
0.0
  0
LINE
  5
7D7E
  8
1
 10
998.375155750933
 20
4144.0860258703124
 30
0.0
 11
998.375155750933
 21
4099.0860258703124
 31
0.0
  0
LINE
  5
7D7F
  8
1
 10
958.375155750933
 20
4144.0860258703124
 30
0.0
 11
998.375155750933
 21
4144.0860258703124
 31
0.0
  0
POINT
  5
7D80
  8
1
 10
958.375155750933
 20
4144.0860258703124
 30
0.0
  0
LINE
  5
7D81
  8
1
 10
1475.3751557509329
 20
3772.0860258703119
 30
0.0
 11
1475.3751557509329
 21
4126.0860258703124
 31
0.0
  0
LINE
  5
7D82
  8
1
 10
1478.3751557509329
 20
3772.0860258703119
 30
0.0
 11
1478.3751557509329
 21
4126.0860258703124
 31
0.0
  0
LINE
  5
7D83
  8
1
 10
1348.3751557509329
 20
3799.0860258703119
 30
0.0
 11
1348.3751557509329
 21
3748.4581291037161
 31
0.0
  0
LINE
  5
7D84
  8
1
 10
1348.3751557509329
 20
3757.0860258703128
 30
0.0
 11
1348.3751557509329
 21
3734.0860258703119
 31
0.0
  0
LINE
  5
7D85
  8
1
 10
1475.3751557509329
 20
3772.0860258703119
 30
0.0
 11
1478.3751557509329
 21
3772.0860258703119
 31
0.0
  0
LINE
  5
7D86
  8
1
 10
1348.3751557509329
 20
4144.0860258703124
 30
0.0
 11
1388.3751557509329
 21
4144.0860258703124
 31
0.0
  0
LINE
  5
7D87
  8
1
 10
1348.3751557509329
 20
4144.0860258703124
 30
0.0
 11
1348.3751557509329
 21
4099.0860258703106
 31
0.0
  0
LINE
  5
7D88
  8
1
 10
1388.3751557509329
 20
4144.0860258703124
 30
0.0
 11
1388.3751557509329
 21
4099.0860258703124
 31
0.0
  0
POINT
  5
7D89
  8
1
 10
1388.3751557509329
 20
4144.0860258703124
 30
0.0
  0
POINT
  5
7D8A
  8
1
 10
1388.3751557509329
 20
4144.0860258703124
 30
0.0
  0
LINE
  5
7D8B
  8
1
 10
1475.3751557509329
 20
4126.0860258703124
 30
0.0
 11
1478.3751557509329
 21
4126.0860258703124
 31
0.0
  0
LINE
  5
7D8C
  8
1
 10
3207.1790909804422
 20
1686.9061428896091
 30
0.0
 11
2903.1790909804431
 21
2102.9061428896098
 31
0.0
  0
LINE
  5
7D8D
  8
1
 10
3207.1790909804422
 20
2102.9061428896098
 30
0.0
 11
2903.1790909804422
 21
1686.9061428896091
 31
0.0
  0
LINE
  5
7D8E
  8
1
 10
2903.1790909804431
 20
2102.9061428896098
 30
0.0
 11
2903.1790909804422
 21
1686.9061428896091
 31
0.0
  0
LINE
  5
7D8F
  8
1
 10
3207.1790909804422
 20
2102.9061428896098
 30
0.0
 11
3207.1790909804422
 21
1686.9061428896091
 31
0.0
  0
LINE
  5
7D90
  8
1
 10
2878.1790909804422
 20
2127.9061428896098
 30
0.0
 11
2878.1790909804422
 21
1661.90614288961
 31
0.0
  0
LINE
  5
7D91
  8
1
 10
3232.1790909804422
 20
2127.9061428896098
 30
0.0
 11
3232.1790909804422
 21
1661.90614288961
 31
0.0
  0
LINE
  5
7D92
  8
1
 10
2375.1790909804399
 20
2176.4009602021811
 30
0.0
 11
2375.1790909804399
 21
1751.7009602021819
 31
0.0
  0
LINE
  5
7D93
  8
1
 10
2325.1790909804399
 20
2176.4009602021811
 30
0.0
 11
2325.1790909804399
 21
1751.7009602021819
 31
0.0
  0
LINE
  5
7D94
  8
1
 10
2830.1790909804399
 20
2054.500960202181
 30
0.0
 11
2830.1790909804399
 21
1657.9009602021811
 31
0.0
  0
LINE
  5
7D95
  8
1
 10
2428.3790909804411
 20
2054.500960202181
 30
0.0
 11
2428.3790909804411
 21
1657.9009602021811
 31
0.0
  0
LINE
  5
7D96
  8
2
 10
3055.1790909804422
 20
2507.523753896839
 30
0.0
 11
3055.1790909804431
 21
1441.9724176677721
 31
0.0
  0
LINE
  5
7D97
  8
1
 10
2425.1790909804399
 20
2054.500960202181
 30
0.0
 11
2425.1790909804399
 21
1657.9009602021811
 31
0.0
  0
DIMENSION
  5
7D98
  8
3
  2
*D13
 10
3055.1790909804431
 20
1349.7187831147039
 30
0.0
 11
2722.6790909804422
 21
1399.7187831147039
 31
0.0
 70
     0
 13
2390.1790909804399
 23
1471.9009602021811
 33
0.0
 14
3055.1790909804431
 24
1441.9724176677721
 34
0.0
1001
ACAD
1000
DSTYLE
1002
{
1070
   287
1070
     3
1070
    40
1040
20.0
1070
   143
1040
0.039
1070
   172
1070
     1
1070
   271
1070
     0
1070
   279
1070
     0
1070
   288
1070
     1
1002
}
  0
LINE
  5
7D99
  8
1
 10
2390.1790909804399
 20
1546.9009602021811
 30
0.0
 11
3250.1790909804408
 21
1546.9009602021811
 31
0.0
  0
LINE
  5
7D9A
  8
1
 10
2390.1790909804399
 20
1471.9009602021811
 30
0.0
 11
3250.1790909804408
 21
1471.9009602021811
 31
0.0
  0
LINE
  5
7D9B
  8
1
 10
2390.1790909804399
 20
1582.9009602021811
 30
0.0
 11
3250.1790909804408
 21
1582.9009602021811
 31
0.0
  0
LINE
  5
7D9C
  8
1
 10
2430.1790909804399
 20
1582.9009602021811
 30
0.0
 11
3250.1790909804408
 21
1582.9009602021811
 31
0.0
  0
LINE
  5
7D9D
  8
1
 10
2390.1790909804399
 20
1657.9009602021811
 30
0.0
 11
3250.1790909804408
 21
1657.9009602021811
 31
0.0
  0
LINE
  5
7D9E
  8
1
 10
2390.1790909804399
 20
1546.9009602021811
 30
0.0
 11
2390.1790909804399
 21
1471.9009602021811
 31
0.0
  0
LINE
  5
7D9F
  8
1
 10
2325.1790909804399
 20
1751.7009602021819
 30
0.0
 11
2375.1790909804399
 21
1751.7009602021819
 31
0.0
  0
LINE
  5
7DA0
  8
1
 10
2390.1790909804399
 20
1657.9009602021811
 30
0.0
 11
2390.1790909804399
 21
1582.9009602021811
 31
0.0
  0
DIMENSION
  5
7DA1
  8
3
  2
*D14
 10
3250.1790909804408
 20
1349.7187831147039
 30
0.0
 11
3152.6790909804422
 21
1399.7187831147039
 31
0.0
 70
     0
 13
3055.1790909804431
 23
1441.9724176677721
 33
0.0
 14
3250.1790909804408
 24
1471.9009602021811
 34
0.0
1001
ACAD
1000
DSTYLE
1002
{
1070
   287
1070
     3
1070
    40
1040
20.0
1070
   143
1040
0.039
1070
   172
1070
     1
1070
   271
1070
     0
1070
   279
1070
     0
1070
   288
1070
     1
1002
}
  0
LINE
  5
7DA2
  8
1
 10
2903.1790909804422
 20
1686.9061428896091
 30
0.0
 11
3207.1790909804422
 21
1686.9061428896091
 31
0.0
  0
LINE
  5
7DA3
  8
1
 10
2878.1790909804422
 20
1661.90614288961
 30
0.0
 11
3232.1790909804422
 21
1661.90614288961
 31
0.0
  0
LINE
  5
7DA4
  8
1
 10
3250.1790909804408
 20
1546.9009602021811
 30
0.0
 11
3250.1790909804408
 21
1471.9009602021811
 31
0.0
  0
LINE
  5
7DA5
  8
1
 10
3250.1790909804408
 20
1657.9009602021811
 30
0.0
 11
3250.1790909804408
 21
1582.9009602021811
 31
0.0
  0
DIMENSION
  5
7DA6
  8
3
  2
*D15
 10
3055.1790909804422
 20
2661.2857027013761
 30
0.0
 11
2675.1790909804408
 21
2711.2857027013761
 31
0.0
 70
     0
 13
2295.1790909804399
 23
2262.9009602021811
 33
0.0
 14
3055.1790909804422
 24
2608.8681274066721
 34
0.0
1001
ACAD
1000
DSTYLE
1002
{
1070
   287
1070
     3
1070
    40
1040
20.0
1070
   143
1040
0.039
1070
   172
1070
     1
1070
   271
1070
     0
1070
   279
1070
     0
1070
   288
1070
     1
1002
}
  0
LINE
  5
7DA7
  8
1
 10
2819.709495834004
 20
2092.9009602021811
 30
0.0
 11
2878.1790909804422
 21
2092.9009602021811
 31
0.0
  0
LINE
  5
7DA8
  8
1
 10
2816.5790909804409
 20
2132.9009602021811
 30
0.0
 11
2878.1790909804399
 21
2132.9009602021811
 31
0.0
  0
LINE
  5
7DA9
  8
2
 10
2308.1683143768169
 20
2112.9009602021811
 30
0.0
 11
3306.204859614174
 21
2112.9009602021811
 31
0.0
  0
POLYLINE
  5
7DAA
  8
1
 66
     1
 10
0.0
 20
0.0
 30
0.0
 70
     1
  0
VERTEX
  5
8285
  8
1
 10
2830.1790909804399
 20
2014.500960202181
 30
0.0
  0
VERTEX
  5
8286
  8
1
 10
2870.1790909804399
 20
2014.500960202181
 30
0.0
  0
VERTEX
  5
8287
  8
1
 10
2870.1790909804399
 20
2016.500960202181
 30
0.0
 42
0.4142135623730951
  0
VERTEX
  5
8288
  8
1
 10
2867.1790909804399
 20
2019.500960202181
 30
0.0
  0
VERTEX
  5
8289
  8
1
 10
2839.6790909804399
 20
2019.500960202181
 30
0.0
 42
-0.4142135623730951
  0
VERTEX
  5
828A
  8
1
 10
2835.1790909804399
 20
2024.000960202181
 30
0.0
  0
VERTEX
  5
828B
  8
1
 10
2835.1790909804399
 20
2051.500960202181
 30
0.0
 42
0.4142135623730951
  0
VERTEX
  5
828C
  8
1
 10
2832.1790909804399
 20
2054.500960202181
 30
0.0
  0
VERTEX
  5
828D
  8
1
 10
2830.1790909804399
 20
2054.500960202181
 30
0.0
  0
SEQEND
  5
828E
  8
1
  0
LINE
  5
7DB5
  8
1
 10
2495.07909098044
 20
2092.9009602021811
 30
0.0
 11
2760.2790909804412
 21
2092.9009602021811
 31
0.0
  0
LINE
  5
7DB6
  8
1
 10
2495.07909098044
 20
2132.9009602021811
 30
0.0
 11
2760.2790909804412
 21
2132.9009602021811
 31
0.0
  0
LINE
  5
7DB7
  8
1
 10
2415.1790909804399
 20
2054.500960202181
 30
0.0
 11
2840.1790909804399
 21
2054.500960202181
 31
0.0
  0
LINE
  5
7DB8
  8
1
 10
2415.1790909804399
 20
2057.7009602021808
 30
0.0
 11
2840.1790909804399
 21
2057.7009602021808
 31
0.0
  0
LINE
  5
7DB9
  8
1
 10
2417.1790909804399
 20
2262.9009602021811
 30
0.0
 11
2417.1790909804399
 21
1832.9009602021811
 31
0.0
  0
LINE
  5
7DBA
  8
1
 10
2295.1790909804399
 20
2262.9009602021811
 30
0.0
 11
2295.1790909804399
 21
1832.9009602021811
 31
0.0
  0
LINE
  5
7DBB
  8
2
 10
2460.1790909804399
 20
2210.9942961216661
 30
0.0
 11
2460.1790909804399
 21
1999.0245992329751
 31
0.0
  0
LINE
  5
7DBC
  8
2
 10
2312.651750640483
 20
1827.9009602021811
 30
0.0
 11
2440.5286779703688
 21
1827.9009602021811
 31
0.0
  0
LINE
  5
7DBD
  8
1
 10
2295.1790909804399
 20
1832.9009602021811
 30
0.0
 11
2417.1790909804399
 21
1832.9009602021811
 31
0.0
  0
LINE
  5
7DBE
  8
1
 10
2325.1790909804399
 20
1894.4009602021811
 30
0.0
 11
2375.1790909804399
 21
1894.4009602021811
 31
0.0
  0
LINE
  5
7DBF
  8
1
 10
2375.1790909804408
 20
1813.9009602021811
 30
0.0
 11
2425.1790909804399
 21
1813.9009602021811
 31
0.0
  0
LINE
  5
7DC0
  8
1
 10
2375.1790909804408
 20
1841.9009602021811
 30
0.0
 11
2425.1790909804399
 21
1841.9009602021811
 31
0.0
  0
LINE
  5
7DC1
  8
1
 10
2295.1790909804399
 20
2262.9009602021811
 30
0.0
 11
2417.1790909804408
 21
2262.9009602021811
 31
0.0
  0
LINE
  5
7DC2
  8
1
 10
2325.1790909804399
 20
2176.4009602021811
 30
0.0
 11
2375.1790909804399
 21
2176.4009602021811
 31
0.0
  0
ARC
  5
7DC3
  8
1
 10
2670.8279895623969
 20
2147.9102166352209
 30
0.0
 40
194.8824391137272
 50
176.8950460354223
 51
199.54871276881059
  0
ARC
  5
7DC4
  8
1
 10
2249.530192398483
 20
2147.9102166352209
 30
0.0
 40
194.8824391137272
 50
340.45128723118921
 51
3.1049539645776858
  0
LINE
  5
7DC5
  8
1
 10
2433.1790909804399
 20
2082.7009602021808
 30
0.0
 11
2487.1790909804399
 21
2082.7009602021808
 31
0.0
  0
LINE
  5
7DC6
  8
1
 10
2444.3482419342081
 20
2142.9009602021811
 30
0.0
 11
2438.7790909804389
 21
2142.9009602021811
 31
0.0
  0
LINE
  5
7DC7
  8
1
 10
2487.1790909804399
 20
2063.7009602021808
 30
0.0
 11
2433.1790909804399
 21
2063.7009602021808
 31
0.0
  0
POLYLINE
  5
7DC8
  8
1
 66
     1
 10
0.0
 20
0.0
 30
0.0
 70
     1
  0
VERTEX
  5
828F
  8
1
 10
2427.6790909804399
 20
2057.7009602021808
 30
0.0
  0
VERTEX
  5
8290
  8
1
 10
2492.6790909804399
 20
2057.7009602021808
 30
0.0
  0
VERTEX
  5
8291
  8
1
 10
2492.6790909804399
 20
2063.7009602021808
 30
0.0
  0
VERTEX
  5
8292
  8
1
 10
2427.6790909804399
 20
2063.7009602021808
 30
0.0
  0
SEQEND
  5
8293
  8
1
  0
LINE
  5
7DCE
  8
1
 10
2433.1790909804399
 20
2063.7009602021808
 30
0.0
 11
2433.1790909804399
 21
2082.7009602021808
 31
0.0
  0
LINE
  5
7DCF
  8
1
 10
2415.1790909804399
 20
2057.7009602021808
 30
0.0
 11
2415.1790909804399
 21
2054.500960202181
 31
0.0
  0
LINE
  5
7DD0
  8
1
 10
2375.1790909804408
 20
2092.9009602021811
 30
0.0
 11
2436.4877993087121
 21
2092.9009602021811
 31
0.0
  0
LINE
  5
7DD1
  8
1
 10
2375.1790909804408
 20
2132.9009602021811
 30
0.0
 11
2438.7790909804389
 21
2132.9009602021811
 31
0.0
  0
LINE
  5
7DD2
  8
1
 10
2438.7790909804389
 20
2142.9009602021811
 30
0.0
 11
2438.7790909804389
 21
2101.3911940699081
 31
0.0
  0
LINE
  5
7DD3
  8
1
 10
2495.07909098044
 20
2142.9009602021811
 30
0.0
 11
2495.07909098044
 21
2082.9009602021811
 31
0.0
  0
LINE
  5
7DD4
  8
1
 10
2495.07909098044
 20
2082.9009602021811
 30
0.0
 11
2487.1081984321572
 21
2082.9009602021811
 31
0.0
  0
LINE
  5
7DD5
  8
1
 10
2487.1790909804399
 20
2063.7009602021808
 30
0.0
 11
2487.1790909804399
 21
2082.7009602021808
 31
0.0
  0
LINE
  5
7DD6
  8
1
 10
2495.07909098044
 20
2142.9009602021811
 30
0.0
 11
2476.0099400266731
 21
2142.9009602021811
 31
0.0
  0
POLYLINE
  5
7DD7
  8
1
 66
     1
 10
0.0
 20
0.0
 30
0.0
 70
     1
  0
VERTEX
  5
8294
  8
1
 10
2465.8831744816298
 20
2170.7666167651382
 30
0.0
  0
VERTEX
  5
8295
  8
1
 10
2461.1404533682812
 20
2170.7666167651382
 30
0.0
  0
VERTEX
  5
8296
  8
1
 10
2461.1404533682812
 20
2163.7009602021808
 30
0.0
  0
VERTEX
  5
8297
  8
1
 10
2465.8831744816298
 20
2163.7009602021808
 30
0.0
  0
SEQEND
  5
8298
  8
1
  0
ARC
  5
7DDD
  8
1
 10
2447.122138266669
 20
2158.628548484081
 30
0.0
 40
3.0
 50
108.0376136626346
 51
183.10495396457819
  0
ARC
  5
7DDE
  8
1
 10
2473.2360436942108
 20
2158.628548484081
 30
0.0
 40
3.0
 50
356.89504603542167
 51
71.962386337365331
  0
ARC
  5
7DDF
  8
1
 10
2460.1790909804399
 20
2118.532962653117
 30
0.0
 40
45.167997549063401
 50
71.962386337365885
 51
108.0376136626341
  0
LINE
  5
7DE0
  8
2
 10
2795.1790909804399
 20
2210.9942961216661
 30
0.0
 11
2795.1790909804399
 21
1995.7211753853601
 31
0.0
  0
ARC
  5
7DE1
  8
1
 10
3005.8279895623969
 20
2147.9102166352209
 30
0.0
 40
194.8824391137272
 50
176.8950460354223
 51
199.54871276881059
  0
ARC
  5
7DE2
  8
1
 10
2584.5301923984839
 20
2147.9102166352209
 30
0.0
 40
194.8824391137272
 50
340.45128723118921
 51
3.1049539645776889
  0
LINE
  5
7DE3
  8
1
 10
2768.1790909804399
 20
2063.7009602021808
 30
0.0
 11
2822.1790909804399
 21
2063.7009602021808
 31
0.0
  0
LINE
  5
7DE4
  8
1
 10
2822.1790909804399
 20
2082.7009602021808
 30
0.0
 11
2768.1790909804399
 21
2082.7009602021808
 31
0.0
  0
LINE
  5
7DE5
  8
1
 10
2760.2790909804412
 20
2142.9009602021811
 30
0.0
 11
2779.3482419342081
 21
2142.9009602021811
 31
0.0
  0
POLYLINE
  5
7DE6
  8
1
 66
     1
 10
0.0
 20
0.0
 30
0.0
 70
     1
  0
VERTEX
  5
8299
  8
1
 10
2762.6790909804399
 20
2057.7009602021808
 30
0.0
  0
VERTEX
  5
829A
  8
1
 10
2827.6790909804399
 20
2057.7009602021808
 30
0.0
  0
VERTEX
  5
829B
  8
1
 10
2827.6790909804399
 20
2063.7009602021808
 30
0.0
  0
VERTEX
  5
829C
  8
1
 10
2762.6790909804399
 20
2063.7009602021808
 30
0.0
  0
SEQEND
  5
829D
  8
1
  0
LINE
  5
7DEC
  8
1
 10
2760.2790909804412
 20
2142.9009602021811
 30
0.0
 11
2760.2790909804412
 21
2082.9009602021811
 31
0.0
  0
LINE
  5
7DED
  8
1
 10
2768.1790909804399
 20
2063.7009602021808
 30
0.0
 11
2768.1790909804399
 21
2082.7009602021808
 31
0.0
  0
LINE
  5
7DEE
  8
1
 10
2760.2790909804412
 20
2082.9009602021811
 30
0.0
 11
2768.2499835287231
 21
2082.9009602021811
 31
0.0
  0
LINE
  5
7DEF
  8
1
 10
2822.1790909804399
 20
2063.7009602021808
 30
0.0
 11
2822.1790909804399
 21
2082.7009602021808
 31
0.0
  0
LINE
  5
7DF0
  8
1
 10
2840.1790909804399
 20
2057.7009602021808
 30
0.0
 11
2840.1790909804399
 21
2054.500960202181
 31
0.0
  0
LINE
  5
7DF1
  8
1
 10
2816.5790909804409
 20
2142.9009602021811
 30
0.0
 11
2816.5790909804409
 21
2101.3911940699081
 31
0.0
  0
LINE
  5
7DF2
  8
1
 10
2811.0099400266731
 20
2142.9009602021811
 30
0.0
 11
2816.5790909804409
 21
2142.9009602021811
 31
0.0
  0
ARC
  5
7DF3
  8
1
 10
2808.2360436942108
 20
2158.628548484081
 30
0.0
 40
3.0
 50
356.89504603542167
 51
71.962386337365317
  0
ARC
  5
7DF4
  8
1
 10
2795.1790909804399
 20
2118.532962653117
 30
0.0
 40
45.167997549063401
 50
71.962386337365871
 51
108.0376136626341
  0
ARC
  5
7DF5
  8
1
 10
2782.122138266669
 20
2158.628548484081
 30
0.0
 40
3.0
 50
108.0376136626346
 51
183.10495396457819
  0
POLYLINE
  5
7DF6
  8
1
 66
     1
 10
0.0
 20
0.0
 30
0.0
 70
     1
  0
VERTEX
  5
829E
  8
1
 10
2789.4750074792501
 20
2170.7666167651382
 30
0.0
  0
VERTEX
  5
829F
  8
1
 10
2794.2177285926
 20
2170.7666167651382
 30
0.0
  0
VERTEX
  5
82A0
  8
1
 10
2794.2177285926
 20
2163.7009602021808
 30
0.0
  0
VERTEX
  5
82A1
  8
1
 10
2789.4750074792501
 20
2163.7009602021808
 30
0.0
  0
SEQEND
  5
82A2
  8
1
  0
DIMENSION
  5
7DFC
  8
3
  2
*D16
 10
3387.4399092106228
 20
1912.9009602021811
 30
0.0
 11
3337.4399092106228
 21
2112.900960202182
 31
0.0
 70
     0
 13
3233.7790909804412
 23
2312.9009602021811
 33
0.0
 14
3233.7790909804412
 24
1912.9009602021811
 34
0.0
 50
90.0
1001
ACAD
1000
DSTYLE
1002
{
1070
   287
1070
     3
1070
    40
1040
20.0
1070
   143
1040
0.039
1070
   172
1070
     1
1070
   271
1070
     0
1070
   279
1070
     0
1070
   288
1070
     1
1002
}
  0
LINE
  5
7DFD
  8
1
 10
3233.7790909804412
 20
2312.9009602021811
 30
0.0
 11
3233.7790909804412
 21
1912.9009602021811
 31
0.0
  0
LINE
  5
7DFE
  8
1
 10
2903.1790909804422
 20
2406.1086771641981
 30
0.0
 11
2903.1790909804422
 21
2127.9061428896098
 31
0.0
  0
LINE
  5
7DFF
  8
1
 10
3207.1790909804422
 20
2406.1086771641981
 30
0.0
 11
3207.1790909804431
 21
2127.9061428896098
 31
0.0
  0
LINE
  5
7E00
  8
1
 10
3205.1790909804431
 20
2406.1086771641981
 30
0.0
 11
3205.1790909804431
 21
2127.9061428896098
 31
0.0
  0
LINE
  5
7E01
  8
1
 10
2905.1790909804422
 20
2406.1086771641981
 30
0.0
 11
2905.1790909804422
 21
2127.9061428896098
 31
0.0
  0
LINE
  5
7E02
  8
1
 10
2903.1790909804431
 20
2102.9061428896098
 30
0.0
 11
3207.1790909804422
 21
2102.9061428896098
 31
0.0
  0
LINE
  5
7E03
  8
1
 10
2878.1790909804422
 20
2127.9061428896098
 30
0.0
 11
3232.1790909804422
 21
2127.9061428896098
 31
0.0
  0
LINE
  5
7E04
  8
1
 10
2853.1790909804408
 20
2010.000960202181
 30
0.0
 11
2878.1790909804422
 21
2010.000960202181
 31
0.0
  0
LINE
  5
7E05
  8
1
 10
2853.1790909804408
 20
2014.500960202181
 30
0.0
 11
2878.1790909804422
 21
2014.500960202181
 31
0.0
  0
LINE
  5
7E06
  8
1
 10
2853.1790909804399
 20
2014.500960202181
 30
0.0
 11
2853.1790909804399
 21
2010.000960202181
 31
0.0
  0
LINE
  5
7E07
  8
1
 10
3233.7790909804412
 20
1912.9009602021811
 30
0.0
 11
3232.1790909804422
 21
1912.9009602021811
 31
0.0
  0
DIMENSION
  5
7E08
  8
3
  2
*D17
 10
3208.1790909804408
 20
2661.2857027013761
 30
0.0
 11
3339.6076624090119
 21
2711.2857027013761
 31
0.0
 70
     0
 13
3055.1790909804422
 23
2608.8681274066721
 33
0.0
 14
3208.1790909804408
 24
2337.9009602021811
 34
0.0
1001
ACAD
1000
DSTYLE
1002
{
1070
   287
1070
     3
1070
    40
1040
20.0
1070
   143
1040
0.039
1070
   172
1070
     1
1070
   271
1070
     0
1070
   279
1070
     0
1070
   288
1070
     1
1002
}
  0
DIMENSION
  5
7E09
  8
3
  2
*D18
 10
3205.1790909804431
 20
2499.8198854493239
 30
0.0
 11
3055.1790909804431
 21
2549.819885449323
 31
0.0
 70
     0
 13
2905.1790909804422
 23
2406.1086771641981
 33
0.0
 14
3205.1790909804431
 24
2406.1086771641981
 34
0.0
1001
ACAD
1000
DSTYLE
1002
{
1070
   287
1070
     3
1070
    40
1040
20.0
1070
   143
1040
0.039
1070
   172
1070
     1
1070
   271
1070
     0
1070
   279
1070
     0
1070
   288
1070
     1
1002
}
  0
LINE
  5
7E0A
  8
1
 10
2905.1790909804422
 20
2394.9086771641969
 30
0.0
 11
3205.1790909804431
 21
2394.9086771641969
 31
0.0
  0
LINE
  5
7E0B
  8
1
 10
2903.1790909804422
 20
2406.1086771641981
 30
0.0
 11
2905.1790909804422
 21
2406.1086771641981
 31
0.0
  0
POLYLINE
  5
7E0C
  8
1
 66
     1
 10
0.0
 20
0.0
 30
0.0
 70
     1
  0
VERTEX
  5
82BF
  8
1
 10
3208.1790909804408
 20
2312.9009602021811
 30
0.0
  0
VERTEX
  5
82C0
  8
1
 10
3233.1790909804408
 20
2312.9009602021811
 30
0.0
  0
VERTEX
  5
82C1
  8
1
 10
3233.1790909804408
 20
2313.9009602021811
 30
0.0
 42
0.4142135623730951
  0
VERTEX
  5
82C2
  8
1
 10
3231.1790909804408
 20
2315.9009602021811
 30
0.0
  0
VERTEX
  5
82C3
  8
1
 10
3215.1790909804408
 20
2315.9009602021811
 30
0.0
 42
-0.4142135623730951
  0
VERTEX
  5
82C4
  8
1
 10
3211.1790909804408
 20
2319.9009602021811
 30
0.0
  0
VERTEX
  5
82C5
  8
1
 10
3211.1790909804408
 20
2335.9009602021811
 30
0.0
 42
0.4142135623730951
  0
VERTEX
  5
82C6
  8
1
 10
3209.1790909804408
 20
2337.9009602021811
 30
0.0
  0
VERTEX
  5
82C7
  8
1
 10
3208.1790909804408
 20
2337.9009602021811
 30
0.0
  0
SEQEND
  5
82C8
  8
1
  0
LINE
  5
7E17
  8
1
 10
3208.1790909804408
 20
2312.9009602021811
 30
0.0
 11
3233.1790909804408
 21
2312.9009602021811
 31
0.0
  0
LINE
  5
7E18
  8
1
 10
3233.1790909804408
 20
2312.9009602021811
 30
0.0
 11
3231.5790909804418
 21
2312.9009602021811
 31
0.0
  0
LINE
  5
7E19
  8
1
 10
3205.1790909804431
 20
2406.1086771641981
 30
0.0
 11
3207.1790909804431
 21
2406.1086771641981
 31
0.0
  0
LINE
  5
801F
  8
4
 10
3700.0
 20
1000.0
 30
0.0
 11
3700.0
 21
600.0
 31
0.0
  0
LINE
  5
8020
  8
4
 10
2300.0
 20
1000.0
 30
0.0
 11
2300.0
 21
600.0
 31
0.0
  0
LINE
  5
8021
  8
4
 10
1300.0
 20
1000.0
 30
0.0
 11
1300.0
 21
600.0
 31
0.0
  0
LINE
  5
8024
  8
4
 10
1300.0
 20
600.0
 30
0.0
 11
3700.0
 21
600.0
 31
0.0
  0
LINE
  5
8025
  8
4
 10
1300.0
 20
800.0
 30
0.0
 11
3700.0
 21
800.0
 31
0.0
  0
TEXT
  5
8026
  8
4
 10
1377.0041616938031
 20
863.08605173322564
 30
0.0
 40
100.0
  1
機器名称
  0
TEXT
  5
8027
  8
4
 10
1372.516212049595
 20
643.29031346402189
 30
0.0
 40
100.0
  1
機器型番
  0
TEXT
  5
8028
  8
4
 10
2309.586123402084
 20
844.3746047138942
 30
0.0
 40
90.0
  1
ミツヤ多翼送風機
  0
TEXT
  5
8029
  8
4
 10
2373.3089911709608
 20
634.31916855988675
 30
0.0
 40
100.0
  1
MF#2 1/2-1
  0
TEXT
  5
802B
  8
4
 10
1550.0646967875509
 20
4766.8576826650306
 30
0.0
 40
107.9999999999999
  1
床置防振ベット
  0
TEXT
  5
802C
  8
4
 10
632.33518665889278
 20
5067.7619523985959
 30
0.0
 40
144.0
  1
遠心式片吸込片持多翼ファン
  0
LINE
  5
802D
  8
4
 10
500.0
 20
4938.8175085296089
 30
0.0
 11
3700.0
 21
4938.8175085296089
 31
0.0
  0
LINE
  5
802E
  8
4
 10
500.0
 20
5338.8175085296098
 30
0.0
 11
3700.0
 21
5338.8175085296098
 31
0.0
  0
LINE
  5
802F
  8
4
 10
1300.0
 20
1000.0
 30
0.0
 11
3700.0
 21
1000.0
 31
0.0
  0
LINE
  5
8030
  8
4
 10
500.0
 20
5338.8175085296098
 30
0.0
 11
500.0
 21
4938.8175085296089
 31
0.0
  0
TEXT
  5
8031
  8
4
 10
678.34703230214654
 20
4764.638955092687
 30
0.0
 40
107.9999999999999
  1
左回転右横向
  0
TEXT
  5
8032
  8
4
 10
2937.9391184985789
 20
5412.1221629906177
 30
0.0
 40
112.0
  1
No.
  0
TEXT
  5
8033
  8
4
 10
2622.5921252000262
 20
4766.8576826650306
 30
0.0
 40
107.9999999999999
  1
縮尺：1/20
  0
LINE
  5
8034
  8
4
 10
3700.0
 20
5338.8175085296098
 30
0.0
 11
3700.0
 21
4938.8175085296089
 31
0.0
  0
LINE
  5
8035
  8
4
 10
4200.0
 20
5900.0
 30
0.0
 11
4200.0
 21
5900.0
 31
0.0
  0
LINE
  5
8036
  8
4
 10
2881.2348447197292
 20
5362.5271662508021
 30
0.0
 11
2881.2348447197292
 21
5573.3045230995049
 31
0.0
  0
LINE
  5
8037
  8
4
 10
2881.2348447197292
 20
5573.3045230995049
 30
0.0
 11
3700.0
 21
5573.3045230995049
 31
0.0
  0
LINE
  5
8038
  8
4
 10
3700.0
 20
5573.3045230995049
 30
0.0
 11
3700.0
 21
5362.5271662508021
 31
0.0
  0
LINE
  5
8039
  8
4
 10
3700.0
 20
5362.5271662508021
 30
0.0
 11
2881.2348447197292
 21
5362.5271662508021
 31
0.0
  0
LINE
  5
803A
  8
4
 10
0.0
 20
0.0
 30
0.0
 11
0.0
 21
5900.0
 31
0.0
  0
LINE
  5
803B
  8
4
 10
0.0
 20
5900.0
 30
0.0
 11
4200.0
 21
5900.0
 31
0.0
  0
LINE
  5
803C
  8
4
 10
4200.0
 20
5900.0
 30
0.0
 11
4200.0
 21
0.0
 31
0.0
  0
LINE
  5
803D
  8
4
 10
4200.0
 20
0.0
 30
0.0
 11
0.0
 21
0.0
 31
0.0
  0
DIMENSION
  5
81A1
  8
3
  2
*D21
 10
1808.7386917764411
 20
1471.9009602021811
 30
0.0
 11
1758.7386917764411
 21
1323.3295316307531
 31
0.0
 70
     0
 13
1388.3751557509329
 23
1546.9009602021811
 33
0.0
 14
1388.3751557509329
 24
1471.9009602021811
 34
0.0
 50
90.0
1001
ACAD
1000
DSTYLE
1002
{
1070
   287
1070
     3
1070
    40
1040
20.0
1070
   143
1040
0.039
1070
   172
1070
     1
1070
   271
1070
     0
1070
   279
1070
     0
1070
     6
1000
DOT
1002
}
  0
DIMENSION
  5
81B2
  8
3
  2
*D22
 10
1808.7386917764411
 20
1582.9009602021811
 30
0.0
 11
1930.167263205012
 21
1641.043817345038
 31
0.0
 70
     0
 13
1388.3751557509329
 23
1546.9009602021811
 33
0.0
 14
1388.3751557509329
 24
1582.9009602021811
 34
0.0
 50
90.0
1001
ACAD
1000
DSTYLE
1002
{
1070
   287
1070
     4
1070
     3
1000
(<>)
1070
    40
1040
20.0
1070
   143
1040
0.039
1070
   172
1070
     1
1070
   271
1070
     0
1070
   279
1070
     1
1070
     6
1000
DOT
1002
}
  0
DIMENSION
  5
81BF
  8
3
  2
*D23
 10
2030.5644955680509
 20
1471.9009602021811
 30
0.0
 11
1980.56449556805
 21
1933.404818683189
 31
0.0
 70
     0
 13
1153.3751557509329
 23
2394.9086771641969
 33
0.0
 14
1388.3751557509329
 24
1471.9009602021811
 34
0.0
 50
90.0
1001
ACAD
1000
DSTYLE
1002
{
1070
   287
1070
     3
1070
    40
1040
20.0
1070
   143
1040
0.039
1070
   172
1070
     1
1070
   271
1070
     0
1070
   279
1070
     0
1002
}
  0
ENDSEC
  0
EOF
