  0
SECTION
  2
HEADER
  9
$ACADVER
  1
AC1009
  9
$INSBASE
 10
0.0
 20
0.0
 30
0.0
  9
$EXTMIN
 10
0.0
 20
0.0
 30
0.0
  9
$EXTMAX
 10
4200.0
 20
5900.0
 30
0.0
  9
$LIMMIN
 10
0.0
 20
0.0
  9
$LIMMAX
 10
297.0
 20
210.0
  9
$ORTHOMODE
 70
     0
  9
$REGENMODE
 70
     1
  9
$FILLMODE
 70
     0
  9
$QTEXTMODE
 70
     0
  9
$MIRRTEXT
 70
     1
  9
$DRAGMODE
 70
     2
  9
$LTSCALE
 40
100.0
  9
$OSMODE
 70
    37
  9
$ATTMODE
 70
     1
  9
$TEXTSIZE
 40
180.0
  9
$TRACEWID
 40
0.05
  9
$TEXTSTYLE
  7
STANDARD
  9
$CLAYER
  8
3
  9
$CELTYPE
  6
BYLAYER
  9
$CECOLOR
 62
   256
  9
$DIMSCALE
 40
20.0
  9
$DIMASZ
 40
2.0
  9
$DIMEXO
 40
0.5
  9
$DIMDLI
 40
10.0
  9
$DIMRND
 40
0.0
  9
$DIMDLE
 40
0.0
  9
$DIMEXE
 40
1.0
  9
$DIMTP
 40
1.0
  9
$DIMTM
 40
1.0
  9
$DIMTXT
 40
3.0
  9
$DIMCEN
 40
0.0
  9
$DIMTSZ
 40
0.0
  9
$DIMTOL
 70
     0
  9
$DIMLIM
 70
     0
  9
$DIMTIH
 70
     0
  9
$DIMTOH
 70
     0
  9
$DIMSE1
 70
     0
  9
$DIMSE2
 70
     0
  9
$DIMTAD
 70
     1
  9
$DIMZIN
 70
     8
  9
$DIMBLK
  1

  9
$DIMASO
 70
     1
  9
$DIMSHO
 70
     1
  9
$DIMPOST
  1

  9
$DIMAPOST
  1

  9
$DIMALT
 70
     0
  9
$DIMALTD
 70
     2
  9
$DIMALTF
 40
0.039
  9
$DIMLFAC
 40
1.0
  9
$DIMTOFL
 70
     1
  9
$DIMTVP
 40
0.0
  9
$DIMTIX
 70
     0
  9
$DIMSOXD
 70
     0
  9
$DIMSAH
 70
     1
  9
$DIMBLK1
  1
OPEN
  9
$DIMBLK2
  1
OPEN
  9
$DIMSTYLE
  2
IGA
  9
$DIMCLRD
 70
     0
  9
$DIMCLRE
 70
     0
  9
$DIMCLRT
 70
     0
  9
$DIMTFAC
 40
10.0
  9
$DIMGAP
 40
1.0
  9
$LUNITS
 70
     2
  9
$LUPREC
 70
     3
  9
$SKETCHINC
 40
0.1
  9
$FILLETRAD
 40
50.0
  9
$AUNITS
 70
     0
  9
$AUPREC
 70
     0
  9
$MENU
  1
acad
  9
$ELEVATION
 40
0.0
  9
$PELEVATION
 40
0.0
  9
$THICKNESS
 40
0.0
  9
$LIMCHECK
 70
     0
  9
$BLIPMODE
 70
     0
  9
$CHAMFERA
 40
0.5
  9
$CHAMFERB
 40
0.5
  9
$SKPOLY
 70
     0
  9
$TDCREATE
 40
2451983.4828465269
  9
$TDUPDATE
 40
2454953.7532004048
  9
$TDINDWG
 40
0.0461074653
  9
$TDUSRTIMER
 40
0.0461074653
  9
$USRTIMER
 70
     1
  9
$ANGBASE
 50
0.0
  9
$ANGDIR
 70
     0
  9
$PDMODE
 70
     0
  9
$PDSIZE
 40
0.0
  9
$PLINEWID
 40
0.0
  9
$COORDS
 70
     1
  9
$SPLFRAME
 70
     0
  9
$SPLINETYPE
 70
     6
  9
$SPLINESEGS
 70
     8
  9
$ATTDIA
 70
     0
  9
$ATTREQ
 70
     1
  9
$HANDLING
 70
 10241
  9
$HANDSEED
  5
845A
  9
$SURFTAB1
 70
     6
  9
$SURFTAB2
 70
     6
  9
$SURFTYPE
 70
     6
  9
$SURFU
 70
     6
  9
$SURFV
 70
     6
  9
$UCSNAME
  2

  9
$UCSORG
 10
0.0
 20
0.0
 30
0.0
  9
$UCSXDIR
 10
1.0
 20
0.0
 30
0.0
  9
$UCSYDIR
 10
0.0
 20
1.0
 30
0.0
  9
$PUCSNAME
  2

  9
$PUCSORG
 10
0.0
 20
0.0
 30
0.0
  9
$PUCSXDIR
 10
1.0
 20
0.0
 30
0.0
  9
$PUCSYDIR
 10
0.0
 20
1.0
 30
0.0
  9
$USERI1
 70
     0
  9
$USERI2
 70
     0
  9
$USERI3
 70
     0
  9
$USERI4
 70
     0
  9
$USERI5
 70
     0
  9
$USERR1
 40
0.0
  9
$USERR2
 40
0.0
  9
$USERR3
 40
0.0
  9
$USERR4
 40
0.0
  9
$USERR5
 40
0.0
  9
$WORLDVIEW
 70
     1
  9
$SHADEDGE
 70
     3
  9
$SHADEDIF
 70
    70
  9
$TILEMODE
 70
     1
  9
$MAXACTVP
 70
    16
  9
$PLIMCHECK
 70
     0
  9
$PEXTMIN
 10
1.0000000000000000E+020
 20
1.0000000000000000E+020
 30
1.0000000000000000E+020
  9
$PEXTMAX
 10
-1.0000000000000000E+020
 20
-1.0000000000000000E+020
 30
-1.0000000000000000E+020
  9
$PLIMMIN
 10
0.0
 20
0.0
  9
$PLIMMAX
 10
12.0
 20
9.0
  9
$UNITMODE
 70
     0
  9
$VISRETAIN
 70
     0
  9
$PLINEGEN
 70
     0
  9
$PSLTSCALE
 70
     1
  0
ENDSEC
  0
SECTION
  2
TABLES
  0
TABLE
  2
VPORT
 70
     2
  0
VPORT
  2
*ACTIVE
 70
     0
 10
0.0
 20
0.0
 11
1.0
 21
1.0
 12
7073.2199177027342
 22
2950.0000137370062
 13
0.0
 23
0.0
 14
10.0
 24
10.0
 15
10.0
 25
10.0
 16
0.0
 26
0.0
 36
1.0
 17
0.0
 27
0.0
 37
0.0
 40
5945.22976603387
 41
3.1666666666666661
 42
50.0
 43
0.0
 44
0.0
 50
0.0
 51
0.0
 71
     0
 72
   100
 73
     1
 74
     0
 75
     0
 76
     0
 77
     0
 78
     0
  0
ENDTAB
  0
TABLE
  2
LTYPE
 70
     2
  0
LTYPE
  2
CONTINUOUS
 70
     0
  3
Solid line
 72
    65
 73
     0
 40
0.0
  0
LTYPE
  2
CENTER
 70
     0
  3
____ _ ____ _ ____ _ ____ _ ____ _ ____ _ ____ 
 72
    65
 73
     4
 40
2.0
 49
1.25
 49
-0.25
 49
0.25
 49
-0.25
  0
ENDTAB
  0
TABLE
  2
LAYER
 70
     6
  0
LAYER
  2
0
 70
     0
 62
     7
  6
CONTINUOUS
  0
LAYER
  2
3
 70
     0
 62
     2
  6
CONTINUOUS
  0
LAYER
  2
2
 70
     0
 62
     3
  6
CENTER
  0
LAYER
  2
1
 70
     0
 62
     4
  6
CONTINUOUS
  0
LAYER
  2
4
 70
     0
 62
     7
  6
CONTINUOUS
  0
LAYER
  2
DEFPOINTS
 70
     0
 62
     7
  6
CONTINUOUS
  0
ENDTAB
  0
TABLE
  2
STYLE
 70
     1
  0
STYLE
  2
STANDARD
 70
     0
 40
0.0
 41
1.0
 50
0.0
 71
     0
 42
180.0
  3
simplex.shx
  4
extfont.shx
  0
ENDTAB
  0
TABLE
  2
VIEW
 70
     0
  0
ENDTAB
  0
TABLE
  2
UCS
 70
     0
  0
ENDTAB
  0
TABLE
  2
APPID
 70
     1
  0
APPID
  2
ACAD
 70
     0
  0
ENDTAB
  0
TABLE
  2
DIMSTYLE
 70
     1
  0
DIMSTYLE
  2
IGA
 70
     0
  3

  4

  5

  6
OPEN
  7
OPEN
 40
2.0
 41
2.0
 42
0.5
 43
10.0
 44
1.0
 45
0.0
 46
0.0
 47
1.0
 48
1.0
140
3.0
141
0.0
142
0.0
143
0.03937
144
1.0
145
0.0
146
10.0
147
1.0
 71
     0
 72
     0
 73
     0
 74
     0
 75
     0
 76
     0
 77
     1
 78
     8
170
     0
171
     2
172
     0
173
     1
174
     0
175
     0
176
     0
177
     0
178
     0
  0
ENDTAB
  0
ENDSEC
  0
SECTION
  2
BLOCKS
  0
BLOCK
  8
0
  2
$MODEL_SPACE
 70
     0
 10
0.0
 20
0.0
 30
0.0
  3
$MODEL_SPACE
  1

  0
ENDBLK
  5
1B
  8
0
  0
BLOCK
 67
     1
  8
0
  2
$PAPER_SPACE
 70
     0
 10
0.0
 20
0.0
 30
0.0
  3
$PAPER_SPACE
  1

  0
ENDBLK
  5
18
 67
     1
  8
0
  0
BLOCK
  8
0
  2
_OPEN
 70
     0
 10
0.0
 20
0.0
 30
0.0
  3
_OPEN
  1

  0
LINE
  5
79FD
  8
0
  6
BYBLOCK
 62
     0
 10
-1.0
 20
0.1666666666666666
 30
0.0
 11
0.0
 21
0.0
 31
0.0
  0
LINE
  5
79FE
  8
0
  6
BYBLOCK
 62
     0
 10
0.0
 20
0.0
 30
0.0
 11
-1.0
 21
-0.1666666666666666
 31
0.0
  0
LINE
  5
79FF
  8
0
  6
BYBLOCK
 62
     0
 10
0.0
 20
0.0
 30
0.0
 11
-1.0
 21
0.0
 31
0.0
  0
ENDBLK
  5
7A01
  8
0
  0
BLOCK
  8
0
  2
YA_N
 70
     0
 10
0.0
 20
0.0
 30
0.0
  3
YA_N
  1

  0
ENDBLK
  5
7A04
  8
0
  0
BLOCK
  8
0
  2
*D2
 70
     1
 10
0.0
 20
0.0
 30
0.0
  3
*D2
  1

  0
LINE
  5
8396
  8
3
 62
     0
 10
3513.91315045492
 20
2181.500019760555
 30
0.0
 11
3789.2446163933978
 21
2181.500019760555
 31
0.0
  0
LINE
  5
8397
  8
3
 62
     0
 10
3513.91315045492
 20
1781.500019760555
 30
0.0
 11
3789.2446163933978
 21
1781.500019760555
 31
0.0
  0
LINE
  5
8398
  8
3
 62
     0
 10
3769.2446163933992
 20
2141.500019760555
 30
0.0
 11
3769.2446163933992
 21
1821.5000197605541
 31
0.0
  0
INSERT
  5
8399
  8
3
 62
     0
  2
_OPEN
 10
3769.2446163933992
 20
2181.500019760555
 30
0.0
 41
40.0
 42
40.0
 43
40.0
 50
90.0
  0
INSERT
  5
839A
  8
3
 62
     0
  2
_OPEN
 10
3769.2446163933992
 20
1781.500019760555
 30
0.0
 41
40.0
 42
40.0
 43
40.0
 50
270.0
  0
TEXT
  8
3
  40
60
  5
8447
  62
0
  72
0
  71
0
 10
3599.24
 20
1875.30
 30
0.000000
  1
φ400
  0
POINT
  5
839C
  8
DEFPOINTS
 62
     0
 10
3503.9131504549191
 20
2181.500019760555
 30
0.0
  0
POINT
  5
839D
  8
DEFPOINTS
 62
     0
 10
3503.9131504549191
 20
1781.500019760555
 30
0.0
  0
POINT
  5
839E
  8
DEFPOINTS
 62
     0
 10
3769.2446163933992
 20
1781.500019760555
 30
0.0
  0
ENDBLK
  5
803C
  8
0
  0
BLOCK
  8
0
  2
*D3
 70
     1
 10
0.0
 20
0.0
 30
0.0
  3
*D3
  1

  0
LINE
  5
83A4
  8
3
 62
     0
 10
3200.6131504549189
 20
2417.5221741841742
 30
0.0
 11
3200.6131504549189
 21
2524.7438669846301
 31
0.0
  0
LINE
  5
83A5
  8
3
 62
     0
 10
3500.6131504549189
 20
2417.5221741841742
 30
0.0
 11
3500.6131504549189
 21
2524.7438669846301
 31
0.0
  0
LINE
  5
83A6
  8
3
 62
     0
 10
3240.6131504549189
 20
2504.7438669846301
 30
0.0
 11
3460.6131504549198
 21
2504.7438669846301
 31
0.0
  0
INSERT
  5
83A7
  8
3
 62
     0
  2
_OPEN
 10
3200.6131504549189
 20
2504.7438669846301
 30
0.0
 41
40.0
 42
40.0
 43
40.0
 50
180.0
  0
INSERT
  5
83A8
  8
3
 62
     0
  2
_OPEN
 10
3500.6131504549189
 20
2504.7438669846301
 30
0.0
 41
40.0
 42
40.0
 43
40.0
  0
TEXT
  8
3
  40
60
  5
8448
  62
0
  72
0
  71
0
 10
3243.47
 20
2448.54
 30
0.000000
  1
300
  0
POINT
  5
83AA
  8
DEFPOINTS
 62
     0
 10
3200.6131504549189
 20
2407.5221741841729
 30
0.0
  0
POINT
  5
83AB
  8
DEFPOINTS
 62
     0
 10
3500.6131504549189
 20
2407.5221741841729
 30
0.0
  0
POINT
  5
83AC
  8
DEFPOINTS
 62
     0
 10
3500.6131504549189
 20
2504.7438669846301
 30
0.0
  0
ENDBLK
  5
8031
  8
0
  0
BLOCK
  8
0
  2
*D4
 70
     1
 10
0.0
 20
0.0
 30
0.0
  3
*D4
  1

  0
LINE
  5
83AD
  8
3
 62
     0
 10
2613.1131504549198
 20
2118.1557253638712
 30
0.0
 11
2613.1131504549198
 21
2660.792145198111
 31
0.0
  0
LINE
  5
83AE
  8
3
 62
     0
 10
3350.6131504549189
 20
2605.3083088476419
 30
0.0
 11
3350.6131504549189
 21
2660.792145198111
 31
0.0
  0
LINE
  5
83AF
  8
3
 62
     0
 10
2653.1131504549198
 20
2640.792145198111
 30
0.0
 11
3310.6131504549189
 21
2640.792145198111
 31
0.0
  0
INSERT
  5
83B0
  8
3
 62
     0
  2
_OPEN
 10
2613.1131504549198
 20
2640.792145198111
 30
0.0
 41
40.0
 42
40.0
 43
40.0
 50
180.0
  0
INSERT
  5
83B1
  8
3
 62
     0
  2
_OPEN
 10
3350.6131504549189
 20
2640.792145198111
 30
0.0
 41
40.0
 42
40.0
 43
40.0
  0
TEXT
  8
3
  40
60
  5
8449
  62
0
  72
0
  71
0
 10
2861.86
 20
2634.59
 30
0.000000
  1
MAX
  0
TEXT
  8
3
  40
60
  5
844A
  62
0
  72
0
  71
0
 10
2861.86
 20
2556.59
 30
0.000000
  1
830
  0
POINT
  5
83B3
  8
DEFPOINTS
 62
     0
 10
2613.1131504549198
 20
2108.1557253638712
 30
0.0
  0
POINT
  5
83B4
  8
DEFPOINTS
 62
     0
 10
3350.6131504549189
 20
2595.3083088476419
 30
0.0
  0
POINT
  5
83B5
  8
DEFPOINTS
 62
     0
 10
3350.6131504549189
 20
2640.792145198111
 30
0.0
  0
ENDBLK
  5
82D0
  8
0
  0
BLOCK
  8
0
  2
*D5
 70
     1
 10
0.0
 20
0.0
 30
0.0
  3
*D5
  1

  0
LINE
  5
8258
  8
0
  6
BYBLOCK
 62
     0
 10
3350.6131504549189
 20
2605.3083088476419
 30
0.0
 11
3350.6131504549189
 21
2660.9712433350001
 31
0.0
  0
LINE
  5
8259
  8
0
  6
BYBLOCK
 62
     0
 10
3502.91315045492
 20
2415.8547245844111
 30
0.0
 11
3502.91315045492
 21
2660.9712433350001
 31
0.0
  0
LINE
  5
825A
  8
0
  6
BYBLOCK
 62
     0
 10
3390.6131504549189
 20
2640.9712433349991
 30
0.0
 11
3462.9131504549191
 21
2640.9712433349991
 31
0.0
  0
TEXT
  5
825B
  8
3
 62
     0
 10
3349.9060233551581
 20
2666.2371786788431
 30
0.0
 40
60.0
  1
153
  0
INSERT
  5
825C
  8
0
  6
BYBLOCK
 62
     0
  2
_OPEN
 10
3350.6131504549189
 20
2640.9712433349991
 30
0.0
 41
40.0
 42
40.0
 43
40.0
 50
180.0
  0
INSERT
  5
825D
  8
0
  6
BYBLOCK
 62
     0
  2
_OPEN
 10
3502.91315045492
 20
2640.9712433349991
 30
0.0
 41
40.0
 42
40.0
 43
40.0
  0
POINT
  5
825E
  8
DEFPOINTS
  6
BYBLOCK
 62
     0
 10
3350.6131504549189
 20
2595.3083088476419
 30
0.0
  0
POINT
  5
825F
  8
DEFPOINTS
  6
BYBLOCK
 62
     0
 10
3502.91315045492
 20
2405.8547245844102
 30
0.0
  0
POINT
  5
8260
  8
DEFPOINTS
  6
BYBLOCK
 62
     0
 10
3502.91315045492
 20
2640.9712433349991
 30
0.0
  0
ENDBLK
  5
8261
  8
0
  0
BLOCK
  8
0
  2
*D6
 70
     1
 10
0.0
 20
0.0
 30
0.0
  3
*D6
  1

  0
LINE
  5
83B6
  8
3
 62
     0
 10
1790.6546448433519
 20
2405.5274833098192
 30
0.0
 11
1921.1784513994171
 21
2405.5274833098192
 31
0.0
  0
LINE
  5
83B7
  8
3
 62
     0
 10
1790.6546448433519
 20
1993.5274833098199
 30
0.0
 11
1921.1784513994171
 21
1993.5274833098199
 31
0.0
  0
LINE
  5
83B8
  8
3
 62
     0
 10
1901.1784513994171
 20
2365.5274833098192
 30
0.0
 11
1901.1784513994171
 21
2033.5274833098199
 31
0.0
  0
INSERT
  5
83B9
  8
3
 62
     0
  2
_OPEN
 10
1901.1784513994171
 20
2405.5274833098192
 30
0.0
 41
40.0
 42
40.0
 43
40.0
 50
90.0
  0
INSERT
  5
83BA
  8
3
 62
     0
  2
_OPEN
 10
1901.1784513994171
 20
1993.5274833098199
 30
0.0
 41
40.0
 42
40.0
 43
40.0
 50
270.0
  0
TEXT
  8
3
  40
60
  5
844B
  62
0
  72
0
  71
0
 10
1731.18
 20
2093.33
 30
0.000000
  1
412
  0
POINT
  5
83BC
  8
DEFPOINTS
 62
     0
 10
1780.6546448433519
 20
2405.5274833098192
 30
0.0
  0
POINT
  5
83BD
  8
DEFPOINTS
 62
     0
 10
1780.6546448433519
 20
1993.5274833098199
 30
0.0
  0
POINT
  5
83BE
  8
DEFPOINTS
 62
     0
 10
1901.1784513994171
 20
1993.5274833098199
 30
0.0
  0
ENDBLK
  5
7FD8
  8
0
  0
BLOCK
  8
0
  2
*D7
 70
     1
 10
0.0
 20
0.0
 30
0.0
  3
*D7
  1

  0
LINE
  5
83BF
  8
3
 62
     0
 10
1790.6546448433519
 20
2405.5274833098192
 30
0.0
 11
2035.8554080225331
 21
2405.5274833098192
 31
0.0
  0
LINE
  5
83C0
  8
3
 62
     0
 10
1834.544177879598
 20
1981.527449529882
 30
0.0
 11
2035.8554080225331
 21
1981.527449529882
 31
0.0
  0
LINE
  5
83C1
  8
3
 62
     0
 10
2015.8554080225331
 20
2365.5274833098192
 30
0.0
 11
2015.8554080225331
 21
2021.527449529882
 31
0.0
  0
INSERT
  5
83C2
  8
3
 62
     0
  2
_OPEN
 10
2015.8554080225331
 20
2405.5274833098192
 30
0.0
 41
40.0
 42
40.0
 43
40.0
 50
90.0
  0
INSERT
  5
83C3
  8
3
 62
     0
  2
_OPEN
 10
2015.8554080225331
 20
1981.527449529882
 30
0.0
 41
40.0
 42
40.0
 43
40.0
 50
270.0
  0
TEXT
  8
3
  40
60
  5
844C
  62
0
  72
0
  71
0
 10
1845.86
 20
2087.33
 30
0.000000
  1
424
  0
POINT
  5
83C5
  8
DEFPOINTS
 62
     0
 10
1780.6546448433519
 20
2405.5274833098192
 30
0.0
  0
POINT
  5
83C6
  8
DEFPOINTS
 62
     0
 10
1824.544177879598
 20
1981.527449529882
 30
0.0
  0
POINT
  5
83C7
  8
DEFPOINTS
 62
     0
 10
2015.8554080225331
 20
1981.527449529882
 30
0.0
  0
ENDBLK
  5
805D
  8
0
  0
BLOCK
  8
0
  2
*D8
 70
     1
 10
0.0
 20
0.0
 30
0.0
  3
*D8
  1

  0
LINE
  5
83C8
  8
3
 62
     0
 10
1834.544177879598
 20
1981.527449529882
 30
0.0
 11
2035.8554080225331
 21
1981.527449529882
 31
0.0
  0
LINE
  5
83C9
  8
3
 62
     0
 10
1700.6546326650241
 20
1606.5274139714079
 30
0.0
 11
2035.8554080225331
 21
1606.5274139714079
 31
0.0
  0
LINE
  5
83CA
  8
3
 62
     0
 10
2015.8554080225331
 20
1941.527449529882
 30
0.0
 11
2015.8554080225331
 21
1646.5274139714079
 31
0.0
  0
INSERT
  5
83CB
  8
3
 62
     0
  2
_OPEN
 10
2015.8554080225331
 20
1981.527449529882
 30
0.0
 41
40.0
 42
40.0
 43
40.0
 50
90.0
  0
INSERT
  5
83CC
  8
3
 62
     0
  2
_OPEN
 10
2015.8554080225331
 20
1606.5274139714079
 30
0.0
 41
40.0
 42
40.0
 43
40.0
 50
270.0
  0
TEXT
  8
3
  40
60
  5
844D
  62
0
  72
0
  71
0
 10
1845.86
 20
1687.83
 30
0.000000
  1
375
  0
POINT
  5
83CE
  8
DEFPOINTS
 62
     0
 10
1824.544177879598
 20
1981.527449529882
 30
0.0
  0
POINT
  5
83CF
  8
DEFPOINTS
 62
     0
 10
1690.654632665023
 20
1606.5274139714079
 30
0.0
  0
POINT
  5
83D0
  8
DEFPOINTS
 62
     0
 10
2015.8554080225331
 20
1606.5274139714079
 30
0.0
  0
ENDBLK
  5
8068
  8
0
  0
BLOCK
  8
0
  2
*D9
 70
     1
 10
0.0
 20
0.0
 30
0.0
  3
*D9
  1

  0
LINE
  5
83DA
  8
3
 62
     0
 10
1780.6546448433519
 20
2442.522300622391
 30
0.0
 11
1780.6546448433519
 21
2551.7055517197441
 31
0.0
  0
LINE
  5
83DB
  8
3
 62
     0
 10
1475.654632665038
 20
2454.8719810568432
 30
0.0
 11
1475.654632665038
 21
2551.7055517197441
 31
0.0
  0
LINE
  5
83DC
  8
3
 62
     0
 10
1740.6546448433519
 20
2531.7055517197441
 30
0.0
 11
1515.654632665038
 21
2531.7055517197441
 31
0.0
  0
INSERT
  5
83DD
  8
3
 62
     0
  2
_OPEN
 10
1780.6546448433519
 20
2531.7055517197441
 30
0.0
 41
40.0
 42
40.0
 43
40.0
  0
INSERT
  5
83DE
  8
3
 62
     0
  2
_OPEN
 10
1475.654632665038
 20
2531.7055517197441
 30
0.0
 41
40.0
 42
40.0
 43
40.0
 50
180.0
  0
TEXT
  8
3
  40
60
  5
844E
  62
0
  72
0
  71
0
 10
1508.15
 20
2475.51
 30
0.000000
  1
305
  0
POINT
  5
83E0
  8
DEFPOINTS
 62
     0
 10
1780.6546448433519
 20
2432.522300622391
 30
0.0
  0
POINT
  5
83E1
  8
DEFPOINTS
 62
     0
 10
1475.654632665038
 20
2444.8719810568418
 30
0.0
  0
POINT
  5
83E2
  8
DEFPOINTS
 62
     0
 10
1475.654632665038
 20
2531.7055517197441
 30
0.0
  0
ENDBLK
  5
7F9D
  8
0
  0
BLOCK
  8
0
  2
*D10
 70
     1
 10
0.0
 20
0.0
 30
0.0
  3
*D10
  1

  0
LINE
  5
83E3
  8
3
 62
     0
 10
1780.6546448433519
 20
2442.522300622391
 30
0.0
 11
1780.6546448433519
 21
2667.103088090289
 31
0.0
  0
LINE
  5
83E4
  8
3
 62
     0
 10
760.654632665024
 20
1691.5274139714079
 30
0.0
 11
760.65463266502422
 21
2667.103088090289
 31
0.0
  0
LINE
  5
83E5
  8
3
 62
     0
 10
1740.6546448433519
 20
2647.103088090289
 30
0.0
 11
800.65463266502434
 21
2647.103088090289
 31
0.0
  0
INSERT
  5
83E6
  8
3
 62
     0
  2
_OPEN
 10
1780.6546448433519
 20
2647.103088090289
 30
0.0
 41
40.0
 42
40.0
 43
40.0
  0
INSERT
  5
83E7
  8
3
 62
     0
  2
_OPEN
 10
760.65463266502422
 20
2647.103088090289
 30
0.0
 41
40.0
 42
40.0
 43
40.0
 50
180.0
  0
TEXT
  8
3
  40
60
  5
844F
  62
0
  72
0
  71
0
 10
1184.57
 20
2590.90
 30
0.000000
  1
1020
  0
POINT
  5
83E9
  8
DEFPOINTS
 62
     0
 10
1780.6546448433519
 20
2432.522300622391
 30
0.0
  0
POINT
  5
83EA
  8
DEFPOINTS
 62
     0
 10
760.654632665024
 20
1681.5274139714079
 30
0.0
  0
POINT
  5
83EB
  8
DEFPOINTS
 62
     0
 10
760.65463266502422
 20
2647.103088090289
 30
0.0
  0
ENDBLK
  5
8217
  8
0
  0
BLOCK
  8
0
  2
*D11
 70
     1
 10
0.0
 20
0.0
 30
0.0
  3
*D11
  1

  0
LINE
  5
83EC
  8
3
 62
     0
 10
1260.6546326650371
 20
4043.3071175121941
 30
0.0
 11
1260.6546326650371
 21
4153.5048967585972
 31
0.0
  0
LINE
  5
83ED
  8
3
 62
     0
 10
1690.654632665038
 20
4043.3071175121931
 30
0.0
 11
1690.654632665038
 21
4153.5048967585972
 31
0.0
  0
LINE
  5
83EE
  8
3
 62
     0
 10
1300.6546326650371
 20
4133.5048967585972
 30
0.0
 11
1650.6546326650371
 21
4133.5048967585972
 31
0.0
  0
INSERT
  5
83EF
  8
3
 62
     0
  2
_OPEN
 10
1260.6546326650371
 20
4133.5048967585972
 30
0.0
 41
40.0
 42
40.0
 43
40.0
 50
180.0
  0
INSERT
  5
83F0
  8
3
 62
     0
  2
_OPEN
 10
1690.654632665038
 20
4133.5048967585972
 30
0.0
 41
40.0
 42
40.0
 43
40.0
  0
TEXT
  8
3
  40
60
  5
8450
  62
0
  72
0
  71
0
 10
1356.92
 20
4077.30
 30
0.000000
  1
430
  0
POINT
  5
83F2
  8
DEFPOINTS
 62
     0
 10
1260.6546326650371
 20
4033.3071175121931
 30
0.0
  0
POINT
  5
83F3
  8
DEFPOINTS
 62
     0
 10
1690.654632665038
 20
4033.3071175121931
 30
0.0
  0
POINT
  5
83F4
  8
DEFPOINTS
 62
     0
 10
1690.654632665038
 20
4133.5048967585972
 30
0.0
  0
ENDBLK
  5
822E
  8
0
  0
BLOCK
  8
0
  2
*D12
 70
     1
 10
0.0
 20
0.0
 30
0.0
  3
*D12
  1

  0
LINE
  5
83F5
  8
3
 62
     0
 10
760.65463266503775
 20
3603.3071175121918
 30
0.0
 11
760.65463266503775
 21
4153.5048967585972
 31
0.0
  0
LINE
  5
83F6
  8
3
 62
     0
 10
1220.6546326650371
 20
4133.5048967585972
 30
0.0
 11
800.65463266503775
 21
4133.5048967585972
 31
0.0
  0
INSERT
  5
83F7
  8
3
 62
     0
  2
_OPEN
 10
1260.6546326650371
 20
4133.5048967585972
 30
0.0
 41
40.0
 42
40.0
 43
40.0
  0
INSERT
  5
83F8
  8
3
 62
     0
  2
_OPEN
 10
760.65463266503775
 20
4133.5048967585972
 30
0.0
 41
40.0
 42
40.0
 43
40.0
 50
180.0
  0
TEXT
  8
3
  40
60
  5
8451
  62
0
  72
0
  71
0
 10
890.655
 20
4077.30
 30
0.000000
  1
500
  0
POINT
  5
83FA
  8
DEFPOINTS
 62
     0
 10
1260.6546326650371
 20
4033.3071175121931
 30
0.0
  0
POINT
  5
83FB
  8
DEFPOINTS
 62
     0
 10
760.65463266503775
 20
3593.3071175121909
 30
0.0
  0
POINT
  5
83FC
  8
DEFPOINTS
 62
     0
 10
760.65463266503775
 20
4133.5048967585972
 30
0.0
  0
ENDBLK
  5
823A
  8
0
  0
BLOCK
  8
0
  2
*D13
 70
     1
 10
0.0
 20
0.0
 30
0.0
  3
*D13
  1

  0
LINE
  5
83FD
  8
3
 62
     0
 10
750.65463266503775
 20
3593.3071175121909
 30
0.0
 11
611.95362325535154
 21
3593.3071175121909
 31
0.0
  0
LINE
  5
83FE
  8
3
 62
     0
 10
750.65463266503775
 20
3173.3071175121909
 30
0.0
 11
611.95362325535143
 21
3173.3071175121909
 31
0.0
  0
LINE
  5
83FF
  8
3
 62
     0
 10
631.95362325535154
 20
3553.3071175121918
 30
0.0
 11
631.95362325535143
 21
3213.3071175121918
 31
0.0
  0
INSERT
  5
8400
  8
3
 62
     0
  2
_OPEN
 10
631.95362325535154
 20
3593.3071175121909
 30
0.0
 41
40.0
 42
40.0
 43
40.0
 50
90.0
  0
INSERT
  5
8401
  8
3
 62
     0
  2
_OPEN
 10
631.95362325535143
 20
3173.3071175121909
 30
0.0
 41
40.0
 42
40.0
 43
40.0
 50
270.0
  0
TEXT
  8
3
  40
60
  5
8452
  62
0
  72
0
  71
0
 10
461.954
 20
3275.30
 30
0.000000
  1
420
  0
POINT
  5
8403
  8
DEFPOINTS
 62
     0
 10
760.65463266503775
 20
3593.3071175121909
 30
0.0
  0
POINT
  5
8404
  8
DEFPOINTS
 62
     0
 10
760.65463266503775
 20
3173.3071175121909
 30
0.0
  0
POINT
  5
8405
  8
DEFPOINTS
 62
     0
 10
631.95362325535143
 20
3173.3071175121909
 30
0.0
  0
ENDBLK
  5
8247
  8
0
  0
BLOCK
  8
0
  2
*D14
 70
     1
 10
0.0
 20
0.0
 30
0.0
  3
*D14
  1

  0
LINE
  5
8406
  8
3
 62
     0
 10
1700.6546326650371
 20
4033.3071175121931
 30
0.0
 11
1958.657345512908
 21
4033.3071175121931
 31
0.0
  0
LINE
  5
8407
  8
3
 62
     0
 10
1700.6546326650371
 20
3173.3071175121931
 30
0.0
 11
1958.6573455129071
 21
3173.3071175121931
 31
0.0
  0
LINE
  5
8408
  8
3
 62
     0
 10
1938.657345512908
 20
3993.3071175121931
 30
0.0
 11
1938.6573455129071
 21
3213.3071175121918
 31
0.0
  0
INSERT
  5
8409
  8
3
 62
     0
  2
_OPEN
 10
1938.657345512908
 20
4033.3071175121931
 30
0.0
 41
40.0
 42
40.0
 43
40.0
 50
90.0
  0
INSERT
  5
840A
  8
3
 62
     0
  2
_OPEN
 10
1938.6573455129071
 20
3173.3071175121931
 30
0.0
 41
40.0
 42
40.0
 43
40.0
 50
270.0
  0
TEXT
  8
3
  40
60
  5
8453
  62
0
  72
0
  71
0
 10
1768.66
 20
3519.82
 30
0.000000
  1
860
  0
POINT
  5
840C
  8
DEFPOINTS
 62
     0
 10
1690.654632665038
 20
4033.3071175121931
 30
0.0
  0
POINT
  5
840D
  8
DEFPOINTS
 62
     0
 10
1690.6546326650371
 20
3173.3071175121931
 30
0.0
  0
POINT
  5
840E
  8
DEFPOINTS
 62
     0
 10
1938.6573455129071
 20
3173.3071175121931
 30
0.0
  0
ENDBLK
  5
8254
  8
0
  0
BLOCK
  8
0
  2
_DOT
 70
     0
 10
0.0
 20
0.0
 30
0.0
  3
_DOT
  1

  0
LINE
  5
82A2
  8
0
  6
BYBLOCK
 62
     0
 10
0.0
 20
0.0
 30
0.0
 11
-1.0
 21
-0.0000000000000284
 31
0.0
  0
POLYLINE
  5
82A3
  8
0
  6
BYBLOCK
 62
     0
 66
     1
 10
0.0
 20
0.0
 30
0.0
 70
     1
 40
0.1666666666666666
 41
0.1666666666666666
  0
VERTEX
  5
840F
  8
0
  6
BYBLOCK
 62
     0
 10
-0.0833333333333286
 20
-0.0000000000000284
 30
0.0
 42
1.0
  0
VERTEX
  5
8410
  8
0
  6
BYBLOCK
 62
     0
 10
0.0833333333333286
 20
-0.0000000000000284
 30
0.0
 42
1.0
  0
SEQEND
  5
8411
  8
0
  6
BYBLOCK
 62
     0
  0
ENDBLK
  5
8288
  8
0
  0
BLOCK
  8
0
  2
*D16
 70
     1
 10
0.0
 20
0.0
 30
0.0
  3
*D16
  1

  0
LINE
  5
8412
  8
3
 62
     0
 10
1133.8870055152661
 20
1991.5272661047641
 30
0.0
 11
1133.8870055152661
 21
2551.7055517197441
 31
0.0
  0
LINE
  5
8413
  8
3
 62
     0
 10
1435.654632665038
 20
2531.7055517197441
 30
0.0
 11
1173.8870055152661
 21
2531.7055517197441
 31
0.0
  0
INSERT
  5
8414
  8
3
 62
     0
  2
_OPEN
 10
1475.654632665038
 20
2531.7055517197441
 30
0.0
 41
40.0
 42
40.0
 43
40.0
  0
INSERT
  5
8415
  8
3
 62
     0
  2
_OPEN
 10
1133.8870055152661
 20
2531.7055517197441
 30
0.0
 41
40.0
 42
40.0
 43
40.0
 50
180.0
  0
TEXT
  8
3
  40
60
  5
8454
  62
0
  72
0
  71
0
 10
1184.77
 20
2475.51
 30
0.000000
  1
342
  0
POINT
  5
8417
  8
DEFPOINTS
 62
     0
 10
1475.654632665038
 20
2444.8719810568418
 30
0.0
  0
POINT
  5
8418
  8
DEFPOINTS
 62
     0
 10
1133.8870055152661
 20
1981.5272661047629
 30
0.0
  0
POINT
  5
8419
  8
DEFPOINTS
 62
     0
 10
1133.8870055152661
 20
2531.7055517197441
 30
0.0
  0
ENDBLK
  5
82C1
  8
0
  0
BLOCK
  8
0
  2
*D17
 70
     1
 10
0.0
 20
0.0
 30
0.0
  3
*D17
  1

  0
LINE
  5
841A
  8
3
 62
     0
 10
760.654632665024
 20
1596.5274139714079
 30
0.0
 11
760.654632665024
 21
1441.1693303437551
 31
0.0
  0
LINE
  5
841B
  8
3
 62
     0
 10
1475.654632665038
 20
1596.5274139714079
 30
0.0
 11
1475.654632665038
 21
1441.1693303437551
 31
0.0
  0
LINE
  5
841C
  8
3
 62
     0
 10
800.65463266502411
 20
1461.1693303437551
 30
0.0
 11
1435.654632665038
 21
1461.1693303437551
 31
0.0
  0
INSERT
  5
841D
  8
3
 62
     0
  2
_OPEN
 10
760.654632665024
 20
1461.1693303437551
 30
0.0
 41
40.0
 42
40.0
 43
40.0
 50
180.0
  0
INSERT
  5
841E
  8
3
 62
     0
  2
_OPEN
 10
1475.654632665038
 20
1461.1693303437551
 30
0.0
 41
40.0
 42
40.0
 43
40.0
  0
TEXT
  8
3
  40
60
  5
8455
  62
0
  72
0
  71
0
 10
998.155
 20
1404.97
 30
0.000000
  1
715
  0
POINT
  5
8420
  8
DEFPOINTS
 62
     0
 10
760.654632665024
 20
1606.5274139714079
 30
0.0
  0
POINT
  5
8421
  8
DEFPOINTS
 62
     0
 10
1475.654632665038
 20
1606.5274139714079
 30
0.0
  0
POINT
  5
8422
  8
DEFPOINTS
 62
     0
 10
1475.654632665038
 20
1461.1693303437551
 30
0.0
  0
ENDBLK
  5
8336
  8
0
  0
BLOCK
  8
0
  2
*D18
 70
     1
 10
0.0
 20
0.0
 30
0.0
  3
*D18
  1

  0
LINE
  5
8423
  8
3
 62
     0
 10
1475.654632665038
 20
1596.5274139714079
 30
0.0
 11
1475.654632665038
 21
1441.1693303437551
 31
0.0
  0
LINE
  5
8424
  8
3
 62
     0
 10
1690.654632665023
 20
1596.5274139714079
 30
0.0
 11
1690.654632665023
 21
1441.1693303437551
 31
0.0
  0
LINE
  5
8425
  8
3
 62
     0
 10
1515.654632665038
 20
1461.1693303437551
 30
0.0
 11
1650.6546326650241
 21
1461.1693303437551
 31
0.0
  0
INSERT
  5
8426
  8
3
 62
     0
  2
_OPEN
 10
1475.654632665038
 20
1461.1693303437551
 30
0.0
 41
40.0
 42
40.0
 43
40.0
 50
180.0
  0
INSERT
  5
8427
  8
3
 62
     0
  2
_OPEN
 10
1690.654632665023
 20
1461.1693303437551
 30
0.0
 41
40.0
 42
40.0
 43
40.0
  0
TEXT
  8
3
  40
60
  5
8456
  62
0
  72
0
  71
0
 10
1463.15
 20
1404.97
 30
0.000000
  1
215
  0
POINT
  5
8429
  8
DEFPOINTS
 62
     0
 10
1475.654632665038
 20
1606.5274139714079
 30
0.0
  0
POINT
  5
842A
  8
DEFPOINTS
 62
     0
 10
1690.654632665023
 20
1606.5274139714079
 30
0.0
  0
POINT
  5
842B
  8
DEFPOINTS
 62
     0
 10
1690.654632665023
 20
1461.1693303437551
 30
0.0
  0
ENDBLK
  5
8345
  8
0
  0
BLOCK
  8
0
  2
*D19
 70
     1
 10
0.0
 20
0.0
 30
0.0
  3
*D19
  1

  0
LINE
  5
842C
  8
3
 62
     0
 10
2685.6131504549189
 20
1596.500019760555
 30
0.0
 11
2685.6131504549189
 21
1441.1693303437551
 31
0.0
  0
LINE
  5
842D
  8
3
 62
     0
 10
3350.613150454918
 20
1596.500019760555
 30
0.0
 11
3350.613150454918
 21
1441.1693303437551
 31
0.0
  0
LINE
  5
842E
  8
3
 62
     0
 10
2725.6131504549189
 20
1461.1693303437551
 30
0.0
 11
3310.6131504549189
 21
1461.1693303437551
 31
0.0
  0
INSERT
  5
842F
  8
3
 62
     0
  2
_OPEN
 10
2685.6131504549189
 20
1461.1693303437551
 30
0.0
 41
40.0
 42
40.0
 43
40.0
 50
180.0
  0
INSERT
  5
8430
  8
3
 62
     0
  2
_OPEN
 10
3350.613150454918
 20
1461.1693303437551
 30
0.0
 41
40.0
 42
40.0
 43
40.0
  0
TEXT
  8
3
  40
60
  5
8457
  62
0
  72
0
  71
0
 10
2898.11
 20
1404.97
 30
0.000000
  1
665
  0
POINT
  5
8432
  8
DEFPOINTS
 62
     0
 10
2685.6131504549189
 20
1606.500019760555
 30
0.0
  0
POINT
  5
8433
  8
DEFPOINTS
 62
     0
 10
3350.613150454918
 20
1606.500019760555
 30
0.0
  0
POINT
  5
8434
  8
DEFPOINTS
 62
     0
 10
3350.613150454918
 20
1461.1693303437551
 30
0.0
  0
ENDBLK
  5
8352
  8
0
  0
BLOCK
  8
0
  2
*D20
 70
     1
 10
0.0
 20
0.0
 30
0.0
  3
*D20
  1

  0
LINE
  5
8435
  8
3
 62
     0
 10
3350.613150454918
 20
1596.500019760555
 30
0.0
 11
3350.613150454918
 21
1441.1693303437551
 31
0.0
  0
LINE
  5
8436
  8
3
 62
     0
 10
3545.6131504549189
 20
1596.500019760555
 30
0.0
 11
3545.6131504549189
 21
1441.1693303437551
 31
0.0
  0
LINE
  5
8437
  8
3
 62
     0
 10
3390.613150454918
 20
1461.1693303437551
 30
0.0
 11
3505.6131504549189
 21
1461.1693303437551
 31
0.0
  0
INSERT
  5
8438
  8
3
 62
     0
  2
_OPEN
 10
3350.613150454918
 20
1461.1693303437551
 30
0.0
 41
40.0
 42
40.0
 43
40.0
 50
180.0
  0
INSERT
  5
8439
  8
3
 62
     0
  2
_OPEN
 10
3545.6131504549189
 20
1461.1693303437551
 30
0.0
 41
40.0
 42
40.0
 43
40.0
  0
TEXT
  8
3
  40
60
  5
8458
  62
0
  72
0
  71
0
 10
3328.11
 20
1404.97
 30
0.000000
  1
195
  0
POINT
  5
843B
  8
DEFPOINTS
 62
     0
 10
3350.613150454918
 20
1606.500019760555
 30
0.0
  0
POINT
  5
843C
  8
DEFPOINTS
 62
     0
 10
3545.6131504549189
 20
1606.500019760555
 30
0.0
  0
POINT
  5
843D
  8
DEFPOINTS
 62
     0
 10
3545.6131504549189
 20
1461.1693303437551
 30
0.0
  0
ENDBLK
  5
8361
  8
0
  0
BLOCK
  8
0
  2
*D21
 70
     1
 10
0.0
 20
0.0
 30
0.0
  3
*D21
  1

  0
LINE
  5
843E
  8
3
 62
     0
 10
1790.6546448433519
 20
2432.522300622391
 30
0.0
 11
2185.8826437610401
 21
2432.522300622391
 31
0.0
  0
LINE
  5
843F
  8
3
 62
     0
 10
1700.6546326650241
 20
1606.5274139714079
 30
0.0
 11
2185.8826437610401
 21
1606.5274139714079
 31
0.0
  0
LINE
  5
8440
  8
3
 62
     0
 10
2165.8826437610401
 20
2392.522300622391
 30
0.0
 11
2165.8826437610401
 21
1646.5274139714079
 31
0.0
  0
INSERT
  5
8441
  8
3
 62
     0
  2
_OPEN
 10
2165.8826437610401
 20
2432.522300622391
 30
0.0
 41
40.0
 42
40.0
 43
40.0
 50
90.0
  0
INSERT
  5
8442
  8
3
 62
     0
  2
_OPEN
 10
2165.8826437610401
 20
1606.5274139714079
 30
0.0
 41
40.0
 42
40.0
 43
40.0
 50
270.0
  0
TEXT
  8
3
  40
60
  5
8459
  62
0
  72
0
  71
0
 10
1995.88
 20
1913.32
 30
0.000000
  1
826
  0
POINT
  5
8444
  8
DEFPOINTS
 62
     0
 10
1780.6546448433519
 20
2432.522300622391
 30
0.0
  0
POINT
  5
8445
  8
DEFPOINTS
 62
     0
 10
1690.654632665023
 20
1606.5274139714079
 30
0.0
  0
POINT
  5
8446
  8
DEFPOINTS
 62
     0
 10
2165.8826437610401
 20
1606.5274139714079
 30
0.0
  0
ENDBLK
  5
836E
  8
0
  0
ENDSEC
  0
SECTION
  2
ENTITIES
  0
INSERT
  5
7C2E
  8
0
  2
YA_N
 10
6.0
 20
5.0
 30
0.0
  0
INSERT
  5
7C2F
  8
0
  2
YA_N
 10
6.0
 20
5.0
 30
0.0
  0
INSERT
  5
7C30
  8
0
  2
YA_N
 10
6.0
 20
5.0
 30
0.0
  0
INSERT
  5
7C31
  8
0
  2
YA_N
 10
6.0
 20
5.0
 30
0.0
  0
INSERT
  5
7C32
  8
0
  2
YA_N
 10
6.0
 20
5.0
 30
0.0
  0
INSERT
  5
7C33
  8
0
  2
YA_N
 10
6.0
 20
5.0
 30
0.0
  0
INSERT
  5
7C34
  8
0
  2
YA_N
 10
342.69245559421228
 20
1431.8735170089669
 30
0.0
  0
LINE
  5
7C35
  8
2
 10
2605.569843368246
 20
1981.5000197605541
 30
0.0
 11
3567.6357059047468
 21
1981.5000197605541
 31
0.0
  0
LINE
  5
7C36
  8
1
 10
3198.3131504549192
 20
2407.5221741841729
 30
0.0
 11
3198.3131504549201
 21
1968.3000197605541
 31
0.0
  0
LINE
  5
7C37
  8
1
 10
3502.91315045492
 20
2407.5221741841729
 30
0.0
 11
3502.91315045492
 21
1968.3000197605541
 31
0.0
  0
LINE
  5
7C38
  8
1
 10
3502.91315045492
 20
2206.500019760555
 30
0.0
 11
3503.9131504549191
 21
2206.500019760555
 31
0.0
  0
LINE
  5
7C39
  8
1
 10
3502.91315045492
 20
1756.5000197605541
 30
0.0
 11
3503.9131504549191
 21
1756.5000197605541
 31
0.0
  0
DIMENSION
  5
7C3A
  8
3
  2
*D2
 10
3769.2446163933992
 20
1781.500019760555
 30
0.0
 11
3719.2446163933978
 21
1981.500019760555
 31
0.0
 70
     0
  1
φ400
 13
3503.9131504549191
 23
2181.500019760555
 33
0.0
 14
3503.9131504549191
 24
1781.500019760555
 34
0.0
 50
90.0
1001
ACAD
1000
DSTYLE
1002
{
1070
   287
1070
     3
1070
    40
1040
20.0
1070
   143
1040
0.039
1070
   172
1070
     1
1070
   271
1070
     0
1070
   279
1070
     0
1070
   288
1070
     1
1002
}
  0
LINE
  5
7C3B
  8
1
 10
3125.6131504549189
 20
1926.300019760555
 30
0.0
 11
3125.6131504549189
 21
1681.500019760555
 31
0.0
  0
LINE
  5
7C3C
  8
1
 10
2710.6131504549189
 20
1926.300019760555
 30
0.0
 11
3125.6131504549189
 21
1926.300019760555
 31
0.0
  0
LINE
  5
7C3D
  8
1
 10
3545.6131504549189
 20
1681.500019760555
 30
0.0
 11
2725.6131504549189
 21
1681.500019760555
 31
0.0
  0
LINE
  5
7C3E
  8
1
 10
3545.6131504549189
 20
1606.500019760555
 30
0.0
 11
2725.6131504549198
 21
1606.500019760555
 31
0.0
1001
ACAD
1000
ASC_BOUNDS
1002
{
1070
    19
1002
}
  0
LINE
  5
7C3F
  8
1
 10
3545.6131504549189
 20
1681.500019760555
 30
0.0
 11
3545.6131504549189
 21
1606.500019760555
 31
0.0
  0
LINE
  5
7C40
  8
1
 10
1690.654632665023
 20
1681.5274139714079
 30
0.0
 11
760.654632665024
 21
1681.5274139714079
 31
0.0
  0
LINE
  5
7C41
  8
1
 10
1690.654632665023
 20
1606.5274139714079
 30
0.0
 11
760.654632665024
 21
1606.5274139714079
 31
0.0
1001
ACAD
1000
ASC_BOUNDS
1002
{
1070
    19
1002
}
  0
LINE
  5
7C42
  8
1
 10
1690.654632665023
 20
1681.5274139714079
 30
0.0
 11
1690.654632665023
 21
1606.5274139714079
 31
0.0
  0
LINE
  5
7C43
  8
1
 10
760.654632665024
 20
1681.5274139714079
 30
0.0
 11
760.654632665024
 21
1606.5274139714079
 31
0.0
  0
LINE
  5
7C44
  8
1
 10
1670.654632665038
 20
1926.3273568716011
 30
0.0
 11
1280.654632665038
 21
1926.3273568716011
 31
0.0
  0
LINE
  5
7C45
  8
1
 10
1297.4546326650379
 20
1926.3273568716011
 30
0.0
 11
1297.4546326650379
 21
1681.527356871602
 31
0.0
  0
LINE
  5
7C46
  8
1
 10
1653.8546326650389
 20
1926.3273568716011
 30
0.0
 11
1653.8546326650389
 21
1681.527356871602
 31
0.0
  0
LINE
  5
7C47
  8
1
 10
3125.6131504549189
 20
1877.800019760555
 30
0.0
 11
3162.3131504549192
 21
1877.800019760555
 31
0.0
  0
LINE
  5
7C48
  8
1
 10
3125.6131504549189
 20
1883.8000197605541
 30
0.0
 11
3162.3131504549192
 21
1883.8000197605541
 31
0.0
  0
CIRCLE
  5
7C49
  8
1
 10
1475.654632665038
 20
1821.8273568716011
 30
0.0
 40
65.0
  0
LINE
  5
7C4A
  8
1
 10
1699.5477959681059
 20
1877.8273568716011
 30
0.0
 11
1653.8546326650389
 21
1877.8273568716011
 31
0.0
  0
LINE
  5
7C4B
  8
1
 10
1701.428899117321
 20
1883.8273568716011
 30
0.0
 11
1653.8546326650389
 21
1883.8273568716011
 31
0.0
  0
LINE
  5
7C4C
  8
1
 10
1297.4546326650379
 20
1883.8273568716011
 30
0.0
 11
1159.6620720862591
 21
1883.8273568716011
 31
0.0
  0
LINE
  5
7C4D
  8
1
 10
1297.4546326650379
 20
1877.8273568716011
 30
0.0
 11
1162.417376541734
 21
1877.8273568716011
 31
0.0
  0
LINE
  5
7C4E
  8
1
 10
3528.9131504549191
 20
2181.5000197605541
 30
0.0
 11
3528.9131504549191
 21
1780.500019760555
 31
0.0
  0
LINE
  5
7C4F
  8
1
 10
3506.91315045492
 20
1774.500019760555
 30
0.0
 11
3506.91315045492
 21
1943.3000197605541
 31
0.0
  0
LINE
  5
7C50
  8
1
 10
3528.9131504549191
 20
2181.5000197605541
 30
0.0
 11
3528.9131504549191
 21
2182.5000197605541
 31
0.0
  0
ARC
  5
7C51
  8
1
 10
3526.9131504549191
 20
2182.5000197605541
 30
0.0
 40
2.0
 50
0.0
 51
90.0
  0
LINE
  5
7C52
  8
1
 10
3526.9131504549191
 20
2184.5000197605532
 30
0.0
 11
3510.91315045492
 21
2184.5000197605532
 31
0.0
  0
ARC
  5
7C53
  8
1
 10
3510.91315045492
 20
2188.5000197605541
 30
0.0
 40
4.0
 50
180.0
 51
270.0
  0
LINE
  5
7C54
  8
1
 10
3506.91315045492
 20
2188.5000197605541
 30
0.0
 11
3506.91315045492
 21
2204.5000197605541
 31
0.0
  0
ARC
  5
7C55
  8
1
 10
3504.9131504549191
 20
2204.5000197605541
 30
0.0
 40
2.0
 50
0.0
 51
90.0
  0
LINE
  5
7C56
  8
1
 10
3504.9131504549191
 20
2206.5000197605541
 30
0.0
 11
3503.9131504549191
 21
2206.5000197605541
 31
0.0
  0
LINE
  5
7C57
  8
1
 10
3528.9131504549191
 20
1781.500019760555
 30
0.0
 11
3528.9131504549191
 21
1780.500019760555
 31
0.0
  0
ARC
  5
7C58
  8
1
 10
3526.9131504549191
 20
1780.500019760555
 30
0.0
 40
2.0
 50
270.0
 51
0.0
  0
LINE
  5
7C59
  8
1
 10
3526.9131504549191
 20
1778.5000197605559
 30
0.0
 11
3510.91315045492
 21
1778.5000197605559
 31
0.0
  0
ARC
  5
7C5A
  8
1
 10
3510.91315045492
 20
1774.500019760555
 30
0.0
 40
4.0
 50
90.0
 51
180.0
  0
LINE
  5
7C5B
  8
1
 10
3506.91315045492
 20
1774.500019760555
 30
0.0
 11
3506.91315045492
 21
1758.500019760555
 31
0.0
  0
ARC
  5
7C5C
  8
1
 10
3504.9131504549191
 20
1758.500019760555
 30
0.0
 40
2.0
 50
270.0
 51
0.0
  0
LINE
  5
7C5D
  8
1
 10
3504.9131504549191
 20
1756.500019760555
 30
0.0
 11
3503.9131504549191
 21
1756.500019760555
 31
0.0
  0
LINE
  5
7C5E
  8
1
 10
2717.4131504549182
 20
1926.300019760555
 30
0.0
 11
2717.4131504549191
 21
1681.500019760555
 31
0.0
  0
LINE
  5
7C5F
  8
1
 10
3173.6131504549189
 20
2432.5221741841729
 30
0.0
 11
3527.6131504549189
 21
2432.5221741841729
 31
0.0
  0
LINE
  5
7C60
  8
1
 10
3173.613150454918
 20
1943.3000197605541
 30
0.0
 11
3527.613150454918
 21
1943.3000197605541
 31
0.0
  0
LINE
  5
7C61
  8
1
 10
3527.6131504549189
 20
2432.5221741841729
 30
0.0
 11
3527.613150454918
 21
1943.3000197605541
 31
0.0
  0
LINE
  5
7C62
  8
1
 10
3173.6131504549189
 20
2432.5221741841729
 30
0.0
 11
3173.613150454918
 21
1943.3000197605541
 31
0.0
  0
LINE
  5
7C63
  8
1
 10
3198.3131504549192
 20
2407.5221741841729
 30
0.0
 11
3502.91315045492
 21
2407.5221741841729
 31
0.0
  0
LINE
  5
7C64
  8
1
 10
3198.3131504549192
 20
1968.3000197605541
 30
0.0
 11
3502.9131504549182
 21
1968.3000197605541
 31
0.0
  0
POLYLINE
  5
7C65
  8
1
 66
     1
 10
0.0
 20
0.0
 30
0.0
 70
     1
  0
VERTEX
  5
839F
  8
1
 10
780.65463266503855
 20
1681.527356871602
 30
0.0
  0
VERTEX
  5
83A0
  8
1
 10
1050.654632665038
 20
1681.527356871602
 30
0.0
  0
VERTEX
  5
83A1
  8
1
 10
1040.654632665038
 20
1721.527356871602
 30
0.0
  0
VERTEX
  5
83A2
  8
1
 10
790.65463266503855
 20
1721.527356871602
 30
0.0
  0
SEQEND
  5
83A3
  8
1
  0
LINE
  5
7C6B
  8
1
 10
815.65463266503866
 20
1721.527356871602
 30
0.0
 11
855.65463266503866
 21
1721.527356871602
 31
0.0
  0
LINE
  5
7C6C
  8
1
 10
815.65463266503866
 20
1733.527356871602
 30
0.0
 11
835.12012416319328
 21
1760.5749743064709
 31
0.0
  0
LINE
  5
7C6D
  8
1
 10
874.9404054208353
 20
1729.0971037078921
 30
0.0
 11
956.36885990924202
 21
1729.0971037078921
 31
0.0
  0
LINE
  5
7C6E
  8
1
 10
815.65463266503866
 20
1721.527356871602
 30
0.0
 11
815.65463266503866
 21
1733.527356871602
 31
0.0
  0
LINE
  5
7C6F
  8
1
 10
1003.654632665038
 20
1721.527356871602
 30
0.0
 11
975.65463266503855
 21
1721.527356871602
 31
0.0
  0
LINE
  5
7C70
  8
1
 10
1015.654632665038
 20
1721.527356871602
 30
0.0
 11
1015.654632665038
 21
1733.527356871602
 31
0.0
  0
LINE
  5
7C71
  8
1
 10
1015.654632665038
 20
1733.527356871602
 30
0.0
 11
996.18914116688393
 21
1760.5749743064709
 31
0.0
  0
LINE
  5
7C72
  8
1
 10
1015.654632665038
 20
1721.527356871602
 30
0.0
 11
975.65463266503855
 21
1721.527356871602
 31
0.0
  0
LINE
  5
7C73
  8
2
 10
792.8421080240696
 20
1821.527356871602
 30
0.0
 11
1043.954632665037
 21
1821.527356871602
 31
0.0
  0
ARC
  5
7C74
  8
1
 10
915.65463266503866
 20
1821.527356871602
 30
0.0
 40
101.0
 50
293.77281679994883
 51
246.2271832000452
  0
LINE
  5
7C75
  8
2
 10
915.65463266503866
 20
1662.8932800823511
 30
0.0
 11
915.65463266503866
 21
1959.8493155199139
 31
0.0
  0
CIRCLE
  5
7C76
  8
1
 10
915.65463266503866
 20
1821.527356871602
 30
0.0
 40
50.0
  0
CIRCLE
  5
7C77
  8
1
 10
1475.654632665038
 20
1981.5273568716009
 30
0.0
 40
101.5
  0
ARC
  5
7C78
  8
1
 10
915.65463266503866
 20
1821.527356871602
 30
0.0
 40
90.0
 50
110.0025635125278
 51
278.06992342332501
  0
ARC
  5
7C79
  8
1
 10
1475.654632665038
 20
1981.5273568716009
 30
0.0
 40
150.0
 50
278.06992342332512
 51
110.0025635125276
  0
LINE
  5
7C7A
  8
1
 10
2678.1131504549212
 20
1961.5000197605541
 30
0.0
 11
3173.6131504549171
 21
1961.5000197605541
 31
0.0
  0
LINE
  5
7C7B
  8
1
 10
2678.1131504549198
 20
2001.500019760555
 30
0.0
 11
3173.6131504549189
 21
2001.500019760555
 31
0.0
  0
DIMENSION
  5
7C7C
  8
3
  2
*D3
 10
3500.6131504549189
 20
2504.7438669846301
 30
0.0
 11
3363.470293312062
 21
2504.7438669846301
 31
0.0
 70
   128
 13
3200.6131504549189
 23
2407.5221741841729
 33
0.0
 14
3500.6131504549189
 24
2407.5221741841729
 34
0.0
1001
ACAD
1000
DSTYLE
1002
{
1070
   287
1070
     3
1070
    40
1040
20.0
1070
   143
1040
0.039
1070
   172
1070
     1
1070
   271
1070
     0
1070
   279
1070
     0
1070
   288
1070
     1
1002
}
  0
LINE
  5
7C80
  8
1
 10
2678.1131504549198
 20
2083.000019760555
 30
0.0
 11
2678.1131504549198
 21
1786.500019760555
 31
0.0
  0
LINE
  5
7C81
  8
1
 10
2643.1131504549198
 20
2083.000019760555
 30
0.0
 11
2678.1131504549189
 21
2083.000019760555
 31
0.0
  0
LINE
  5
7C82
  8
1
 10
2643.1131504549198
 20
1880.000019760555
 30
0.0
 11
2678.1131504549189
 21
1880.0000197605541
 31
0.0
  0
LINE
  5
7C83
  8
1
 10
2643.1131504549198
 20
2083.000019760555
 30
0.0
 11
2643.1131504549198
 21
1786.500019760555
 31
0.0
  0
LINE
  5
7C86
  8
1
 10
2643.1131504549198
 20
1886.500019760555
 30
0.0
 11
2678.1131504549198
 21
1886.500019760555
 31
0.0
  0
LINE
  5
7C87
  8
1
 10
2643.1131504549198
 20
1786.500019760555
 30
0.0
 11
2678.1131504549198
 21
1786.500019760555
 31
0.0
  0
LINE
  5
7C8C
  8
1
 10
2613.1131504549198
 20
2131.5000197605541
 30
0.0
 11
2705.1131504549198
 21
2131.5000197605541
 31
0.0
  0
LINE
  5
7C8D
  8
1
 10
2613.1131504549198
 20
1746.500019760555
 30
0.0
 11
2705.1131504549198
 21
1746.500019760555
 31
0.0
  0
LINE
  5
7C8E
  8
1
 10
2613.1131504549198
 20
2131.5000197605541
 30
0.0
 11
2613.1131504549198
 21
1746.500019760555
 31
0.0
  0
LINE
  5
7C8F
  8
1
 10
2705.1131504549198
 20
2131.5000197605541
 30
0.0
 11
2705.1131504549198
 21
2087.9608577237982
 31
0.0
  0
DIMENSION
  5
7C90
  8
3
  2
*D4
 10
3350.6131504549189
 20
2640.792145198111
 30
0.0
 11
2981.8631504549198
 21
2640.792145198111
 31
0.0
 70
   128
  1
MAX\P830
 13
2613.1131504549198
 23
2108.1557253638712
 33
0.0
 14
3350.6131504549189
 24
2595.3083088476419
 34
0.0
1001
ACAD
1000
DSTYLE
1002
{
1070
   287
1070
     3
1070
    40
1040
20.0
1070
   143
1040
0.039
1070
   172
1070
     1
1070
   271
1070
     0
1070
   279
1070
     0
1070
   288
1070
     1
1002
}
  0
DIMENSION
  5
7C91
  8
3
  2
*D5
 10
3502.91315045492
 20
2640.9712433349991
 30
0.0
 11
3421.3345947837288
 21
2696.2371786788422
 31
0.0
 70
   128
  1
153
 13
3350.6131504549189
 23
2595.3083088476419
 33
0.0
 14
3502.91315045492
 24
2405.8547245844102
 34
0.0
1001
ACAD
1000
DSTYLE
1002
{
1070
   288
1070
     1
1070
   172
1070
     1
1070
    40
1040
20.0
1070
   271
1070
     0
1070
   143
1040
0.039
1002
}
  0
INSERT
  5
7C94
  8
0
  2
YA_N
 10
6.0
 20
5.0
 30
0.0
  0
INSERT
  5
7C95
  8
0
  2
YA_N
 10
96.0
 20
80.0
 30
0.0
 41
16.0
 42
16.0
 43
16.0
  0
INSERT
  5
7C96
  8
0
  2
YA_N
 10
3261.5724272564862
 20
1521.5703809158081
 30
0.0
  0
INSERT
  5
7C97
  8
0
  2
YA_N
 10
3261.5724272564862
 20
1521.5703809158081
 30
0.0
  0
INSERT
  5
7C98
  8
0
  2
YA_N
 10
3598.2648828506981
 20
2948.4438979247761
 30
0.0
  0
INSERT
  5
7C99
  8
0
  2
YA_N
 10
4266.8004074798646
 20
4391.6121309265727
 30
0.0
  0
INSERT
  5
7C9A
  8
0
  2
YA_N
 10
7315.6595907797891
 20
4128.942743271853
 30
0.0
  0
LINE
  5
7C9B
  8
2
 10
1475.654632665038
 20
2444.8719810568418
 30
0.0
 11
1475.654632665038
 21
1606.5274139714079
 31
0.0
  0
LINE
  5
7C9C
  8
1
 10
3502.9131504549182
 20
1943.3000197605541
 30
0.0
 11
3502.9131504549182
 21
1681.500019760555
 31
0.0
  0
LINE
  5
7C9D
  8
1
 10
3198.3131504549192
 20
1943.3000197605541
 30
0.0
 11
3198.3131504549192
 21
1681.500019760555
 31
0.0
  0
INSERT
  5
7C9E
  8
0
  2
YA_N
 10
96.0
 20
80.0
 30
0.0
 41
16.0
 42
16.0
 43
16.0
  0
INSERT
  5
7C9F
  8
0
  2
YA_N
 10
96.0
 20
80.0
 30
0.0
 41
16.0
 42
16.0
 43
16.0
  0
INSERT
  5
7CA4
  8
0
  2
YA_N
 10
96.0
 20
80.0
 30
0.0
 41
16.0
 42
16.0
 43
16.0
  0
INSERT
  5
7CA5
  8
0
  2
YA_N
 10
96.0
 20
80.0
 30
0.0
 41
16.0
 42
16.0
 43
16.0
  0
LINE
  5
7CAA
  8
1
 10
3162.3131504549192
 20
1883.8000197605541
 30
0.0
 11
3198.3131504549192
 21
1883.8000197605541
 31
0.0
  0
LINE
  5
7CAB
  8
1
 10
3162.3131504549192
 20
1877.800019760555
 30
0.0
 11
3198.3131504549192
 21
1877.800019760555
 31
0.0
  0
LINE
  5
7CAC
  8
1
 10
884.86903588358291
 20
1906.0983154259991
 30
0.0
 11
1424.345304695943
 21
2122.4789544622631
 31
0.0
  0
LINE
  5
7CAD
  8
1
 10
928.28896894229365
 20
1732.4185831911541
 30
0.0
 11
1496.711859793797
 21
1833.012734070855
 31
0.0
  0
LINE
  5
7CAE
  8
1
 10
897.72120444081509
 20
1868.200605656388
 30
0.0
 11
1439.249773369861
 21
2076.2740519047179
 31
0.0
  0
LINE
  5
7CAF
  8
1
 10
925.08570239869744
 20
1772.424862803796
 30
0.0
 11
1494.799704224366
 21
1881.8492939139569
 31
0.0
  0
INSERT
  5
7CB2
  8
0
  2
YA_N
 10
63.111395363473399
 20
-2207.5990737385559
 30
0.0
 41
1.1404799999999991
 42
1.1404799999999991
 43
1.1404799999999991
  0
INSERT
  5
7CB3
  8
0
  2
YA_N
 10
63.111395363473399
 20
-2207.5990737385559
 30
0.0
 41
1.1404799999999991
 42
1.1404799999999991
 43
1.1404799999999991
  0
INSERT
  5
7CB4
  8
0
  2
YA_N
 10
63.111395363473399
 20
-2207.5990737385559
 30
0.0
 41
1.1404799999999991
 42
1.1404799999999991
 43
1.1404799999999991
  0
INSERT
  5
7CB5
  8
0
  2
YA_N
 10
63.111395363473399
 20
-2207.5990737385559
 30
0.0
 41
1.1404799999999991
 42
1.1404799999999991
 43
1.1404799999999991
  0
INSERT
  5
7CB6
  8
0
  2
YA_N
 10
63.111395363473399
 20
-2207.5990737385559
 30
0.0
 41
1.1404799999999991
 42
1.1404799999999991
 43
1.1404799999999991
  0
INSERT
  5
7CB7
  8
0
  2
YA_N
 10
2068.599843633097
 20
-1871.396847612672
 30
0.0
 41
1.1404799999999991
 42
1.1404799999999991
 43
1.1404799999999991
  0
LINE
  5
7CB8
  8
1
 10
2725.6131504549189
 20
1606.500019760555
 30
0.0
 11
2685.6131504549189
 21
1606.500019760555
 31
0.0
1001
ACAD
1000
ASC_BOUNDS
1002
{
1070
    19
1002
}
  0
LINE
  5
7CB9
  8
1
 10
2685.6131504549189
 20
1606.500019760555
 30
0.0
 11
2685.6131504549189
 21
1681.500019760555
 31
0.0
  0
LINE
  5
7CBA
  8
1
 10
2685.6131504549189
 20
1681.500019760555
 30
0.0
 11
2725.6131504549189
 21
1681.500019760555
 31
0.0
  0
INSERT
  5
7CD2
  8
0
  2
YA_N
 10
7517.3489782723964
 20
85.078014923515184
 30
0.0
  0
LINE
  5
7CD7
  8
2
 10
1824.544177879598
 20
1981.527449529882
 30
0.0
 11
972.86631179739811
 21
1981.5272233407979
 31
0.0
  0
ARC
  5
7CD8
  8
1
 10
1690.6546448433519
 20
2105.5274833098192
 30
0.0
 40
31.0
 50
90.0
 51
240.9658519484959
  0
LINE
  5
7CD9
  8
1
 10
1780.6546448433519
 20
1966.527483309819
 30
0.0
 11
1780.6546448433519
 21
2432.522300622391
 31
0.0
  0
LINE
  5
7CDA
  8
1
 10
1755.654644843351
 20
1966.527483309819
 30
0.0
 11
1755.654644843351
 21
2432.522300622391
 31
0.0
  0
LINE
  5
7CDB
  8
1
 10
1709.5170951654791
 20
1993.527483309819
 30
0.0
 11
1780.6546448433519
 21
1993.5274833098199
 31
0.0
  0
LINE
  5
7CDC
  8
1
 10
1755.654644843351
 20
1966.527483309819
 30
0.0
 11
1780.6546448433519
 21
1966.527483309819
 31
0.0
  0
LINE
  5
7CDD
  8
1
 10
1775.654644843351
 20
2123.5274833098192
 30
0.0
 11
1690.6546448433519
 21
2136.5274833098201
 31
0.0
  0
LINE
  5
7CDE
  8
1
 10
1780.6546448433519
 20
2432.522300622391
 30
0.0
 11
1755.654644843351
 21
2432.522300622391
 31
0.0
  0
DIMENSION
  5
7CDF
  8
3
  2
*D6
 10
1901.1784513994171
 20
1993.5274833098199
 30
0.0
 11
1851.178451399416
 21
2199.5274833098201
 31
0.0
 70
     0
 13
1780.6546448433519
 23
2405.5274833098192
 33
0.0
 14
1780.6546448433519
 24
1993.5274833098199
 34
0.0
 50
90.0
1001
ACAD
1000
DSTYLE
1002
{
1070
   287
1070
     3
1070
    40
1040
20.0
1070
   143
1040
0.039
1070
   172
1070
     1
1070
   271
1070
     0
1070
   279
1070
     0
1070
   288
1070
     1
1002
}
  0
DIMENSION
  5
7CE0
  8
3
  2
*D7
 10
2015.8554080225331
 20
1981.527449529882
 30
0.0
 11
1965.8554080225319
 21
2193.527466419851
 31
0.0
 70
     0
 13
1780.6546448433519
 23
2405.5274833098192
 33
0.0
 14
1824.544177879598
 24
1981.527449529882
 34
0.0
 50
90.0
1001
ACAD
1000
DSTYLE
1002
{
1070
   287
1070
     3
1070
    40
1040
20.0
1070
   143
1040
0.039
1070
   172
1070
     1
1070
   271
1070
     0
1070
   279
1070
     0
1070
   288
1070
     1
1002
}
  0
DIMENSION
  5
7CE1
  8
3
  2
*D8
 10
2015.8554080225331
 20
1606.5274139714079
 30
0.0
 11
1965.8554080225319
 21
1794.0274317506451
 31
0.0
 70
     0
 13
1824.544177879598
 23
1981.527449529882
 33
0.0
 14
1690.654632665023
 24
1606.5274139714079
 34
0.0
 50
90.0
1001
ACAD
1000
DSTYLE
1002
{
1070
   287
1070
     3
1070
    40
1040
20.0
1070
   143
1040
0.039
1070
   172
1070
     1
1070
   271
1070
     0
1070
   279
1070
     0
1070
   288
1070
     1
1002
}
  0
LINE
  5
7CE6
  8
1
 10
3528.9131504549191
 20
2181.500019760555
 30
0.0
 11
3502.91315045492
 21
2181.500019760555
 31
0.0
  0
LINE
  5
7CE7
  8
1
 10
3528.9131504549191
 20
1781.500019760555
 30
0.0
 11
3502.9131504549182
 21
1781.500019760555
 31
0.0
  0
POLYLINE
  5
7CE8
  8
1
 66
     1
 10
0.0
 20
0.0
 30
0.0
  0
VERTEX
  5
83D1
  8
1
 10
1780.6546448433519
 20
2405.5274833098192
 30
0.0
  0
VERTEX
  5
83D2
  8
1
 10
1475.6546448433519
 20
2383.5274833098192
 30
0.0
 42
0.3908358028773531
  0
VERTEX
  5
83D3
  8
1
 10
1132.446927881336
 20
2011.527483309819
 30
0.0
 42
0.2761963584486631
  0
VERTEX
  5
83D4
  8
1
 10
1297.4546326650379
 20
1735.600264002072
 30
0.0
 42
0.3762546939936967
  0
SEQEND
  5
83D5
  8
1
  0
POLYLINE
  5
7CEE
  8
1
 66
     1
 10
0.0
 20
0.0
 30
0.0
  0
VERTEX
  5
83D6
  8
1
 10
1653.8546326650389
 20
1794.249355185568
 30
0.0
 42
0.1728708857373533
  0
VERTEX
  5
83D7
  8
1
 10
1712.4020961868739
 20
1958.527483309819
 30
0.0
 42
0.1499846310316867
  0
VERTEX
  5
83D8
  8
1
 10
1675.6093899225141
 20
2078.4232344848292
 30
0.0
 42
0.3936265759256327
  0
SEQEND
  5
83D9
  8
1
  0
DIMENSION
  5
7CF3
  8
3
  2
*D9
 10
1475.654632665038
 20
2531.7055517197441
 30
0.0
 11
1628.154638754195
 21
2581.7055517197441
 31
0.0
 70
     0
 13
1780.6546448433519
 23
2432.522300622391
 33
0.0
 14
1475.654632665038
 24
2444.8719810568418
 34
0.0
1001
ACAD
1000
DSTYLE
1002
{
1070
   287
1070
     3
1070
    40
1040
20.0
1070
   143
1040
0.039
1070
   172
1070
     1
1070
   271
1070
     0
1070
   279
1070
     0
1070
   288
1070
     1
1002
}
  0
LINE
  5
7CF6
  8
2
 10
2778.2203270153568
 20
1836.500019760555
 30
0.0
 11
2602.536254155817
 21
1836.500019760555
 31
0.0
  0
LINE
  5
7CF7
  8
1
 10
2731.6131504549198
 20
1936.5000197605559
 30
0.0
 11
3026.6131504549198
 21
1936.500019760555
 31
0.0
  0
LINE
  5
7CF9
  8
1
 10
2731.6131504549198
 20
1936.500019760555
 30
0.0
 11
2731.6131504549198
 21
1926.300019760555
 31
0.0
  0
LINE
  5
7CFA
  8
1
 10
2717.4131504549191
 20
1822.500019760555
 30
0.0
 11
2678.1131504549198
 21
1822.500019760555
 31
0.0
  0
LINE
  5
7CFB
  8
1
 10
2717.4131504549191
 20
1850.500019760555
 30
0.0
 11
2678.1131504549198
 21
1850.500019760555
 31
0.0
  0
LINE
  5
7CFC
  8
1
 10
3026.6131504549198
 20
1926.300019760555
 30
0.0
 11
3026.6131504549198
 21
1936.500019760555
 31
0.0
  0
LINE
  5
7CFD
  8
1
 10
3502.91315045492
 20
2407.5221741841729
 30
0.0
 11
3198.3131504549201
 21
1968.3000197605541
 31
0.0
  0
LINE
  5
7CFE
  8
1
 10
3198.3131504549192
 20
2407.5221741841729
 30
0.0
 11
3502.91315045492
 21
1968.3000197605541
 31
0.0
  0
LINE
  5
7CFF
  8
1
 10
1755.6546326650371
 20
3988.3071175121931
 30
0.0
 11
1132.6546326650371
 21
3988.3071175121918
 31
0.0
  0
LINE
  5
7D00
  8
1
 10
1755.6546326650371
 20
3688.3071175121931
 30
0.0
 11
1132.654632665038
 21
3688.3071175121931
 31
0.0
  0
LINE
  5
7D01
  8
1
 10
1780.6546326650371
 20
4013.3071175121931
 30
0.0
 11
1780.6546326650371
 21
3663.3071175121941
 31
0.0
  0
LINE
  5
7D02
  8
1
 10
1132.6546326650371
 20
3988.3071175121918
 30
0.0
 11
1132.654632665038
 21
3688.3071175121931
 31
0.0
  0
LINE
  5
7D03
  8
1
 10
1780.6546326650371
 20
4013.3071175121931
 30
0.0
 11
1755.6546326650371
 21
4013.3071175121931
 31
0.0
  0
LINE
  5
7D04
  8
1
 10
1780.654632665038
 20
3663.3071175121931
 30
0.0
 11
1755.6546326650371
 21
3663.3071175121931
 31
0.0
  0
LINE
  5
7D05
  8
1
 10
1755.6546326650371
 20
4013.3071175121931
 30
0.0
 11
1755.6546326650371
 21
3663.3071175121941
 31
0.0
  0
LINE
  5
7D06
  8
1
 10
1495.654632665038
 20
3165.8071175121941
 30
0.0
 11
1495.654632665038
 21
3688.3071175121931
 31
0.0
  0
LINE
  5
7D07
  8
1
 10
1455.654632665038
 20
3165.8071175121941
 30
0.0
 11
1455.6546326650371
 21
3688.3071175121931
 31
0.0
  0
LINE
  5
7D08
  8
2
 10
1475.6546326650371
 20
3093.2638104255188
 30
0.0
 11
1475.6546326650371
 21
4065.17001857077
 31
0.0
  0
LINE
  5
7D0A
  8
1
 10
1625.6546326650371
 20
3192.8071175121931
 30
0.0
 11
825.65463266503855
 21
3192.8071175121918
 31
0.0
  0
LINE
  5
7D0B
  8
1
 10
1625.6546326650371
 20
3100.8071175121931
 30
0.0
 11
825.65463266503855
 21
3100.8071175121918
 31
0.0
  0
LINE
  5
7D0C
  8
1
 10
1577.1546326650371
 20
3130.8071175121941
 30
0.0
 11
865.65463266503866
 21
3130.8071175121909
 31
0.0
  0
LINE
  5
7D0D
  8
1
 10
1577.1546326650371
 20
3165.8071175121931
 30
0.0
 11
865.65463266503866
 21
3165.8071175121918
 31
0.0
  0
LINE
  5
7D0E
  8
1
 10
1653.8546326650389
 20
3205.1071175121888
 30
0.0
 11
1495.6546326650371
 21
3205.1071175121888
 31
0.0
  0
LINE
  5
7D0F
  8
1
 10
825.65463266503855
 20
3100.8071175121918
 30
0.0
 11
825.65463266503855
 21
3192.8071175121918
 31
0.0
  0
LINE
  5
7D10
  8
1
 10
865.65463266503866
 20
3130.8071175121909
 30
0.0
 11
865.65463266503866
 21
3165.8071175121918
 31
0.0
  0
LINE
  5
7D1B
  8
1
 10
1625.6546326650371
 20
3100.8071175121931
 30
0.0
 11
1625.6546326650371
 21
3192.8071175121931
 31
0.0
  0
LINE
  5
7D1C
  8
1
 10
1577.1546326650371
 20
3130.8071175121941
 30
0.0
 11
1577.1546326650371
 21
3165.8071175121918
 31
0.0
  0
LINE
  5
7D1D
  8
2
 10
1841.2677348907121
 20
3838.3071175121931
 30
0.0
 11
1087.076877066027
 21
3838.3071175121918
 31
0.0
1001
ACAD
1000
ASC_BOUNDS
1002
{
1070
    19
1002
}
  0
LINE
  5
7D1E
  8
1
 10
1374.1546326650371
 20
3130.8071175121941
 30
0.0
 11
1374.1546326650371
 21
3165.8071175121918
 31
0.0
  0
LINE
  5
7D1F
  8
1
 10
965.65463266503866
 20
3130.8071175121918
 30
0.0
 11
965.65463266503866
 21
3165.8071175121918
 31
0.0
  0
LINE
  5
7D20
  8
1
 10
1297.4546326650379
 20
3661.3071175121909
 30
0.0
 11
1455.654632665038
 21
3661.3071175121909
 31
0.0
  0
LINE
  5
7D21
  8
1
 10
1653.8546326650389
 20
3205.1071175121888
 30
0.0
 11
1653.8546326650389
 21
3661.3071175121909
 31
0.0
  0
LINE
  5
7D22
  8
1
 10
1297.4546326650379
 20
3205.1071175121901
 30
0.0
 11
1297.4546326650379
 21
3661.3071175121909
 31
0.0
  0
LINE
  5
7D23
  8
1
 10
1495.6546326650371
 20
3661.3071175121909
 30
0.0
 11
1653.8546326650389
 21
3661.3071175121909
 31
0.0
  0
LINE
  5
7D24
  8
1
 10
1455.6546326650371
 20
3205.1071175121888
 30
0.0
 11
1297.4546326650379
 21
3205.1071175121901
 31
0.0
  0
LINE
  5
7D25
  8
1
 10
930.25453266503882
 20
3213.3071175121918
 30
0.0
 11
930.25453266503882
 21
3208.3071175121918
 31
0.0
  0
LINE
  5
7D26
  8
1
 10
901.05463266503909
 20
3213.3071175121918
 30
0.0
 11
901.05463266503909
 21
3208.3071175121918
 31
0.0
  0
LINE
  5
7D27
  8
2
 10
915.65463266503866
 20
3577.2209551142059
 30
0.0
 11
915.65463266503866
 21
3093.384674689255
 31
0.0
  0
LINE
  5
7D28
  8
1
 10
929.65463266503855
 20
3208.3071175121918
 30
0.0
 11
929.65463266503866
 21
3165.8071175121918
 31
0.0
  0
LINE
  5
7D29
  8
1
 10
901.65463266503855
 20
3208.3071175121918
 30
0.0
 11
901.65463266503843
 21
3165.8071175121918
 31
0.0
  0
LINE
  5
7D2A
  8
1
 10
901.05463266503909
 20
3208.3071175121918
 30
0.0
 11
930.25453266503882
 21
3208.3071175121918
 31
0.0
  0
ARC
  5
7D2B
  8
1
 10
816.35463266503848
 20
3462.8071175121918
 30
0.0
 40
1.5
 50
90.0
 51
180.0
  0
LINE
  5
7D2C
  8
1
 10
1015.654632665039
 20
3514.3071175121918
 30
0.0
 11
815.65463266503866
 21
3514.3071175121918
 31
0.0
  0
LINE
  5
7D2D
  8
1
 10
815.65463266503866
 20
3219.3071175121918
 30
0.0
 11
1015.654632665038
 21
3219.3071175121918
 31
0.0
  0
LINE
  5
7D2E
  8
1
 10
1015.654632665038
 20
3341.3071175121918
 30
0.0
 11
1015.654632665039
 21
3514.3071175121918
 31
0.0
  0
LINE
  5
7D2F
  8
1
 10
1015.654632665038
 20
3341.3071175121918
 30
0.0
 11
1015.654632665038
 21
3219.3071175121918
 31
0.0
  0
LINE
  5
7D30
  8
1
 10
952.65463266503855
 20
3213.3071175121918
 30
0.0
 11
878.65463266503855
 21
3213.3071175121918
 31
0.0
  0
ARC
  5
7D31
  8
1
 10
952.65463266503855
 20
3216.3071175121918
 30
0.0
 40
2.9998999999999989
 50
269.9987999999999
 51
0.0011999999999279
  0
LINE
  5
7D32
  8
1
 10
955.65463266503866
 20
3219.3071175121918
 30
0.0
 11
955.65463266503866
 21
3216.3071175121918
 31
0.0
  0
LINE
  5
7D33
  8
1
 10
875.65463266503855
 20
3219.3071175121918
 30
0.0
 11
875.65463266503855
 21
3216.3071175121918
 31
0.0
  0
ARC
  5
7D34
  8
1
 10
878.65453266503937
 20
3216.3071175121918
 30
0.0
 40
2.9998999999999989
 50
179.9987999999999
 51
270.00119999999998
  0
LINE
  5
7D35
  8
1
 10
815.65463266503866
 20
3219.3071175121918
 30
0.0
 11
815.65463266503866
 21
3514.3071175121918
 31
0.0
  0
LINE
  5
7F1E
  8
4
 10
3700.0
 20
1000.0
 30
0.0
 11
3700.0
 21
600.0
 31
0.0
  0
LINE
  5
7F1F
  8
4
 10
2300.0
 20
1000.0
 30
0.0
 11
2300.0
 21
600.0
 31
0.0
  0
LINE
  5
7F20
  8
4
 10
1300.0
 20
1000.0
 30
0.0
 11
1300.0
 21
600.0
 31
0.0
  0
LINE
  5
7F23
  8
4
 10
1300.0
 20
600.0
 30
0.0
 11
3700.0
 21
600.0
 31
0.0
  0
LINE
  5
7F24
  8
4
 10
1300.0
 20
800.0
 30
0.0
 11
3700.0
 21
800.0
 31
0.0
  0
TEXT
  5
7F25
  8
4
 10
1377.0041616938031
 20
863.08605173322564
 30
0.0
 40
100.0
  1
機器名称
  0
TEXT
  5
7F26
  8
4
 10
1372.516212049595
 20
643.29031346402189
 30
0.0
 40
100.0
  1
機器型番
  0
TEXT
  5
7F27
  8
4
 10
2355.3574909753288
 20
845.14353791513713
 30
0.0
 40
85.0
  1
ミツヤ多翼送風機
  0
TEXT
  5
7F28
  8
4
 10
2373.3089911709608
 20
634.31916855988675
 30
0.0
 40
100.0
  1
MF#2 1/2-1
  0
TEXT
  5
7F2A
  8
4
 10
1507.3556010775719
 20
4766.8576826650306
 30
0.0
 40
107.9999999999999
  1
床置ベット
  0
TEXT
  5
7F2B
  8
4
 10
582.33518665889278
 20
5067.7619523985959
 30
0.0
 40
144.0
  1
遠心式片吸込片持多翼ファン
  0
LINE
  5
7F2C
  8
4
 10
500.0
 20
4938.8175085296089
 30
0.0
 11
3700.0
 21
4938.8175085296089
 31
0.0
  0
LINE
  5
7F2D
  8
4
 10
500.0
 20
5338.8175085296098
 30
0.0
 11
3700.0
 21
5338.8175085296098
 31
0.0
  0
LINE
  5
7F2E
  8
4
 10
1300.0
 20
1000.0
 30
0.0
 11
3700.0
 21
1000.0
 31
0.0
  0
LINE
  5
7F2F
  8
4
 10
500.0
 20
5338.8175085296098
 30
0.0
 11
500.0
 21
4938.8175085296089
 31
0.0
  0
TEXT
  5
7F30
  8
4
 10
635.63793659216753
 20
4764.638955092687
 30
0.0
 40
107.9999999999999
  1
右回転右横向
  0
TEXT
  5
7F31
  8
4
 10
2937.9391184985789
 20
5412.1221629906177
 30
0.0
 40
112.0
  1
No.
  0
TEXT
  5
7F32
  8
4
 10
2622.5921252000262
 20
4766.8576826650306
 30
0.0
 40
107.9999999999999
  1
縮尺：1/20
  0
LINE
  5
7F33
  8
4
 10
3700.0
 20
5338.8175085296098
 30
0.0
 11
3700.0
 21
4938.8175085296089
 31
0.0
  0
LINE
  5
7F34
  8
4
 10
4200.0
 20
5900.0
 30
0.0
 11
4200.0
 21
5900.0
 31
0.0
  0
LINE
  5
7F35
  8
4
 10
2881.2348447197292
 20
5362.5271662508021
 30
0.0
 11
2881.2348447197292
 21
5573.3045230995049
 31
0.0
  0
LINE
  5
7F36
  8
4
 10
2881.2348447197292
 20
5573.3045230995049
 30
0.0
 11
3700.0
 21
5573.3045230995049
 31
0.0
  0
LINE
  5
7F37
  8
4
 10
3700.0
 20
5573.3045230995049
 30
0.0
 11
3700.0
 21
5362.5271662508021
 31
0.0
  0
LINE
  5
7F38
  8
4
 10
3700.0
 20
5362.5271662508021
 30
0.0
 11
2881.2348447197292
 21
5362.5271662508021
 31
0.0
  0
LINE
  5
7F39
  8
4
 10
0.0
 20
0.0
 30
0.0
 11
0.0
 21
5900.0
 31
0.0
  0
LINE
  5
7F3A
  8
4
 10
0.0
 20
5900.0
 30
0.0
 11
4200.0
 21
5900.0
 31
0.0
  0
LINE
  5
7F3B
  8
4
 10
4200.0
 20
5900.0
 30
0.0
 11
4200.0
 21
0.0
 31
0.0
  0
LINE
  5
7F3C
  8
4
 10
4200.0
 20
0.0
 30
0.0
 11
0.0
 21
0.0
 31
0.0
  0
LINE
  5
8130
  8
2
 10
3350.613150454918
 20
1606.500019760555
 30
0.0
 11
3350.613150454918
 21
2498.6132711391979
 31
0.0
  0
DIMENSION
  5
8218
  8
3
  2
*D10
 10
760.65463266502422
 20
2647.103088090289
 30
0.0
 11
1304.567341879294
 21
2647.103088090289
 31
0.0
 70
   128
 13
1780.6546448433519
 23
2432.522300622391
 33
0.0
 14
760.654632665024
 24
1681.5274139714079
 34
0.0
1001
ACAD
1000
DSTYLE
1002
{
1070
   287
1070
     3
1070
    40
1040
20.0
1070
   143
1040
0.039
1070
   172
1070
     1
1070
   271
1070
     0
1070
   279
1070
     0
1070
   288
1070
     1
1002
}
  0
LINE
  5
8219
  8
1
 10
1690.654632665038
 20
4033.3071175121931
 30
0.0
 11
1260.6546326650371
 21
4033.3071175121931
 31
0.0
1001
ACAD
1000
ASC_BOUNDS
1002
{
1070
    19
1002
}
  0
LINE
  5
821A
  8
1
 10
1690.6546326650371
 20
3173.3071175121931
 30
0.0
 11
1625.6546326650371
 21
3173.3071175121918
 31
0.0
1001
ACAD
1000
ASC_BOUNDS
1002
{
1070
    19
1002
}
  0
LINE
  5
821B
  8
1
 10
1690.6546326650371
 20
3173.3071175121931
 30
0.0
 11
1690.6546326650371
 21
3688.3071175121931
 31
0.0
  0
LINE
  5
821C
  8
1
 10
760.65463266503775
 20
3173.3071175121909
 30
0.0
 11
760.65463266503775
 21
3593.3071175121909
 31
0.0
  0
LINE
  5
821D
  8
1
 10
1260.6546326650371
 20
3593.3071175121909
 30
0.0
 11
760.6546326650373
 21
3593.3071175121909
 31
0.0
1001
ACAD
1000
ASC_BOUNDS
1002
{
1070
    19
1002
}
  0
LINE
  5
821E
  8
1
 10
1260.6546326650371
 20
3593.3071175121909
 30
0.0
 11
1260.6546326650371
 21
3688.3071175121931
 31
0.0
  0
LINE
  5
821F
  8
1
 10
825.65463266503855
 20
3173.3071175121909
 30
0.0
 11
760.65463266503775
 21
3173.3071175121909
 31
0.0
1001
ACAD
1000
ASC_BOUNDS
1002
{
1070
    19
1002
}
  0
LINE
  5
8221
  8
1
 10
1260.654632665038
 20
3988.3071175121931
 30
0.0
 11
1260.6546326650371
 21
4033.3071175121931
 31
0.0
  0
LINE
  5
8222
  8
1
 10
1690.654632665038
 20
3988.3071175121931
 30
0.0
 11
1690.654632665038
 21
4033.3071175121931
 31
0.0
  0
DIMENSION
  5
822F
  8
3
  2
*D11
 10
1690.654632665038
 20
4133.5048967585972
 30
0.0
 11
1476.9245991576599
 21
4133.5048967585972
 31
0.0
 70
   128
 13
1260.6546326650371
 23
4033.3071175121931
 33
0.0
 14
1690.654632665038
 24
4033.3071175121931
 34
0.0
1001
ACAD
1000
DSTYLE
1002
{
1070
   287
1070
     3
1070
    40
1040
20.0
1070
   143
1040
0.039
1070
   172
1070
     1
1070
   271
1070
     0
1070
   279
1070
     0
1070
   288
1070
     1
1002
}
  0
DIMENSION
  5
823B
  8
3
  2
*D12
 10
760.65463266503775
 20
4133.5048967585972
 30
0.0
 11
1010.654632665037
 21
4183.5048967585972
 31
0.0
 70
     0
 13
1260.6546326650371
 23
4033.3071175121931
 33
0.0
 14
760.65463266503775
 24
3593.3071175121909
 34
0.0
1001
ACAD
1000
DSTYLE
1002
{
1070
   287
1070
     4
1070
    40
1040
20.0
1070
    75
1070
     1
1070
   143
1040
0.039
1070
   172
1070
     1
1070
   271
1070
     0
1070
   279
1070
     1
1070
   288
1070
     1
1002
}
  0
DIMENSION
  5
8248
  8
3
  2
*D13
 10
631.95362325535143
 20
3173.3071175121909
 30
0.0
 11
631.95362325535098
 21
3381.5015855771499
 31
0.0
 70
   128
 13
760.65463266503775
 23
3593.3071175121909
 33
0.0
 14
760.65463266503775
 24
3173.3071175121909
 34
0.0
 50
90.0
1001
ACAD
1000
DSTYLE
1002
{
1070
   287
1070
     3
1070
    40
1040
20.0
1070
   143
1040
0.039
1070
   172
1070
     1
1070
   271
1070
     0
1070
   279
1070
     0
1070
   288
1070
     1
1002
}
  0
DIMENSION
  5
8255
  8
3
  2
*D14
 10
1938.6573455129071
 20
3173.3071175121931
 30
0.0
 11
1938.6573455129071
 21
3626.0180062158202
 31
0.0
 70
   128
 13
1690.654632665038
 23
4033.3071175121931
 33
0.0
 14
1690.6546326650371
 24
3173.3071175121931
 34
0.0
 50
90.0
1001
ACAD
1000
DSTYLE
1002
{
1070
   287
1070
     3
1070
    40
1040
20.0
1070
   143
1040
0.039
1070
   172
1070
     1
1070
   271
1070
     0
1070
   279
1070
     0
1070
   288
1070
     1
1002
}
  0
DIMENSION
  5
82B7
  8
3
  2
*D16
 10
1133.8870055152661
 20
2531.7055517197441
 30
0.0
 11
1304.7708190901519
 21
2581.7055517197441
 31
0.0
 70
     0
 13
1475.654632665038
 23
2444.8719810568418
 33
0.0
 14
1133.8870055152661
 24
1981.5272661047629
 34
0.0
1001
ACAD
1000
DSTYLE
1002
{
1070
   287
1070
     4
1070
    40
1040
20.0
1070
    75
1070
     1
1070
   143
1040
0.039
1070
   172
1070
     1
1070
   271
1070
     0
1070
   279
1070
     1
1070
   288
1070
     1
1002
}
  0
LINE
  5
82D5
  8
1
 10
2705.1131504549198
 20
1787.1870759522369
 30
0.0
 11
2705.1131504549198
 21
1746.500019760555
 31
0.0
  0
DIMENSION
  5
8337
  8
3
  2
*D17
 10
1475.654632665038
 20
1461.1693303437551
 30
0.0
 11
1118.1546326650309
 21
1511.1693303437551
 31
0.0
 70
     0
 13
760.654632665024
 23
1606.5274139714079
 33
0.0
 14
1475.654632665038
 24
1606.5274139714079
 34
0.0
1001
ACAD
1000
DSTYLE
1002
{
1070
   287
1070
     3
1070
    40
1040
20.0
1070
   143
1040
0.039
1070
   172
1070
     1
1070
   271
1070
     0
1070
   279
1070
     0
1002
}
  0
DIMENSION
  5
8346
  8
3
  2
*D18
 10
1690.654632665023
 20
1461.1693303437551
 30
0.0
 11
1583.1546326650309
 21
1511.1693303437551
 31
0.0
 70
     0
 13
1475.654632665038
 23
1606.5274139714079
 33
0.0
 14
1690.654632665023
 24
1606.5274139714079
 34
0.0
1001
ACAD
1000
DSTYLE
1002
{
1070
   287
1070
     3
1070
    40
1040
20.0
1070
   143
1040
0.039
1070
   172
1070
     1
1070
   271
1070
     0
1070
   279
1070
     0
1002
}
  0
DIMENSION
  5
8353
  8
3
  2
*D19
 10
3350.613150454918
 20
1461.1693303437551
 30
0.0
 11
3018.1131504549189
 21
1511.1693303437551
 31
0.0
 70
     0
 13
2685.6131504549189
 23
1606.500019760555
 33
0.0
 14
3350.613150454918
 24
1606.500019760555
 34
0.0
1001
ACAD
1000
DSTYLE
1002
{
1070
   287
1070
     3
1070
    40
1040
20.0
1070
   143
1040
0.039
1070
   172
1070
     1
1070
   271
1070
     0
1070
   279
1070
     0
1002
}
  0
DIMENSION
  5
8362
  8
3
  2
*D20
 10
3545.6131504549189
 20
1461.1693303437551
 30
0.0
 11
3448.1131504549189
 21
1511.1693303437551
 31
0.0
 70
     0
 13
3350.613150454918
 23
1606.500019760555
 33
0.0
 14
3545.6131504549189
 24
1606.500019760555
 34
0.0
1001
ACAD
1000
DSTYLE
1002
{
1070
   287
1070
     3
1070
    40
1040
20.0
1070
   143
1040
0.039
1070
   172
1070
     1
1070
   271
1070
     0
1070
   279
1070
     0
1002
}
  0
DIMENSION
  5
836F
  8
3
  2
*D21
 10
2165.8826437610401
 20
1606.5274139714079
 30
0.0
 11
2115.8826437610401
 21
2019.5248572969001
 31
0.0
 70
     0
 13
1780.6546448433519
 23
2432.522300622391
 33
0.0
 14
1690.654632665023
 24
1606.5274139714079
 34
0.0
 50
90.0
1001
ACAD
1000
DSTYLE
1002
{
1070
   287
1070
     3
1070
    40
1040
20.0
1070
   143
1040
0.039
1070
   172
1070
     1
1070
   271
1070
     0
1070
   279
1070
     0
1002
}
  0
ENDSEC
  0
EOF
