  0
SECTION
  2
HEADER
  9
$ACADVER
  1
AC1009
  9
$INSBASE
 10
0.0
 20
0.0
 30
0.0
  9
$EXTMIN
 10
0.0
 20
0.0
 30
0.0
  9
$EXTMAX
 10
4200.0
 20
5900.0
 30
0.0
  9
$LIMMIN
 10
0.0
 20
0.0
  9
$LIMMAX
 10
297.0
 20
210.0
  9
$ORTHOMODE
 70
     0
  9
$REGENMODE
 70
     1
  9
$FILLMODE
 70
     0
  9
$QTEXTMODE
 70
     0
  9
$MIRRTEXT
 70
     1
  9
$DRAGMODE
 70
     2
  9
$LTSCALE
 40
100.0
  9
$OSMODE
 70
    37
  9
$ATTMODE
 70
     1
  9
$TEXTSIZE
 40
180.0
  9
$TRACEWID
 40
0.05
  9
$TEXTSTYLE
  7
STANDARD
  9
$CLAYER
  8
3
  9
$CELTYPE
  6
BYLAYER
  9
$CECOLOR
 62
   256
  9
$DIMSCALE
 40
20.0
  9
$DIMASZ
 40
2.0
  9
$DIMEXO
 40
0.5
  9
$DIMDLI
 40
10.0
  9
$DIMRND
 40
0.0
  9
$DIMDLE
 40
0.0
  9
$DIMEXE
 40
1.0
  9
$DIMTP
 40
1.0
  9
$DIMTM
 40
1.0
  9
$DIMTXT
 40
3.0
  9
$DIMCEN
 40
0.0
  9
$DIMTSZ
 40
0.0
  9
$DIMTOL
 70
     0
  9
$DIMLIM
 70
     0
  9
$DIMTIH
 70
     0
  9
$DIMTOH
 70
     0
  9
$DIMSE1
 70
     0
  9
$DIMSE2
 70
     0
  9
$DIMTAD
 70
     1
  9
$DIMZIN
 70
     8
  9
$DIMBLK
  1

  9
$DIMASO
 70
     1
  9
$DIMSHO
 70
     1
  9
$DIMPOST
  1

  9
$DIMAPOST
  1

  9
$DIMALT
 70
     0
  9
$DIMALTD
 70
     2
  9
$DIMALTF
 40
0.039
  9
$DIMLFAC
 40
1.0
  9
$DIMTOFL
 70
     1
  9
$DIMTVP
 40
0.0
  9
$DIMTIX
 70
     0
  9
$DIMSOXD
 70
     0
  9
$DIMSAH
 70
     1
  9
$DIMBLK1
  1
OPEN
  9
$DIMBLK2
  1
OPEN
  9
$DIMSTYLE
  2
IGA
  9
$DIMCLRD
 70
     0
  9
$DIMCLRE
 70
     0
  9
$DIMCLRT
 70
     0
  9
$DIMTFAC
 40
10.0
  9
$DIMGAP
 40
1.0
  9
$LUNITS
 70
     2
  9
$LUPREC
 70
     3
  9
$SKETCHINC
 40
0.1
  9
$FILLETRAD
 40
50.0
  9
$AUNITS
 70
     0
  9
$AUPREC
 70
     0
  9
$MENU
  1
acad
  9
$ELEVATION
 40
0.0
  9
$PELEVATION
 40
0.0
  9
$THICKNESS
 40
0.0
  9
$LIMCHECK
 70
     0
  9
$BLIPMODE
 70
     0
  9
$CHAMFERA
 40
0.5
  9
$CHAMFERB
 40
0.5
  9
$SKPOLY
 70
     0
  9
$TDCREATE
 40
2451988.5713858791
  9
$TDUPDATE
 40
2454953.7531499541
  9
$TDINDWG
 40
0.0255221065
  9
$TDUSRTIMER
 40
0.0255221065
  9
$USRTIMER
 70
     1
  9
$ANGBASE
 50
0.0
  9
$ANGDIR
 70
     0
  9
$PDMODE
 70
     0
  9
$PDSIZE
 40
0.0
  9
$PLINEWID
 40
0.0
  9
$COORDS
 70
     1
  9
$SPLFRAME
 70
     0
  9
$SPLINETYPE
 70
     6
  9
$SPLINESEGS
 70
     8
  9
$ATTDIA
 70
     0
  9
$ATTREQ
 70
     1
  9
$HANDLING
 70
 10241
  9
$HANDSEED
  5
8486
  9
$SURFTAB1
 70
     6
  9
$SURFTAB2
 70
     6
  9
$SURFTYPE
 70
     6
  9
$SURFU
 70
     6
  9
$SURFV
 70
     6
  9
$UCSNAME
  2

  9
$UCSORG
 10
0.0
 20
0.0
 30
0.0
  9
$UCSXDIR
 10
1.0
 20
0.0
 30
0.0
  9
$UCSYDIR
 10
0.0
 20
1.0
 30
0.0
  9
$PUCSNAME
  2

  9
$PUCSORG
 10
0.0
 20
0.0
 30
0.0
  9
$PUCSXDIR
 10
1.0
 20
0.0
 30
0.0
  9
$PUCSYDIR
 10
0.0
 20
1.0
 30
0.0
  9
$USERI1
 70
     0
  9
$USERI2
 70
     0
  9
$USERI3
 70
     0
  9
$USERI4
 70
     0
  9
$USERI5
 70
     0
  9
$USERR1
 40
0.0
  9
$USERR2
 40
0.0
  9
$USERR3
 40
0.0
  9
$USERR4
 40
0.0
  9
$USERR5
 40
0.0
  9
$WORLDVIEW
 70
     1
  9
$SHADEDGE
 70
     3
  9
$SHADEDIF
 70
    70
  9
$TILEMODE
 70
     1
  9
$MAXACTVP
 70
    16
  9
$PLIMCHECK
 70
     0
  9
$PEXTMIN
 10
1.0000000000000000E+020
 20
1.0000000000000000E+020
 30
1.0000000000000000E+020
  9
$PEXTMAX
 10
-1.0000000000000000E+020
 20
-1.0000000000000000E+020
 30
-1.0000000000000000E+020
  9
$PLIMMIN
 10
0.0
 20
0.0
  9
$PLIMMAX
 10
12.0
 20
9.0
  9
$UNITMODE
 70
     0
  9
$VISRETAIN
 70
     0
  9
$PLINEGEN
 70
     0
  9
$PSLTSCALE
 70
     1
  0
ENDSEC
  0
SECTION
  2
TABLES
  0
TABLE
  2
VPORT
 70
     2
  0
VPORT
  2
*ACTIVE
 70
     0
 10
0.0
 20
0.0
 11
1.0
 21
1.0
 12
7073.2199177027342
 22
2950.0000137370062
 13
0.0
 23
0.0
 14
10.0
 24
10.0
 15
10.0
 25
10.0
 16
0.0
 26
0.0
 36
1.0
 17
0.0
 27
0.0
 37
0.0
 40
5945.22976603387
 41
3.1666666666666661
 42
50.0
 43
0.0
 44
0.0
 50
0.0
 51
0.0
 71
     0
 72
   100
 73
     1
 74
     0
 75
     0
 76
     0
 77
     0
 78
     0
  0
ENDTAB
  0
TABLE
  2
LTYPE
 70
     2
  0
LTYPE
  2
CONTINUOUS
 70
     0
  3
Solid line
 72
    65
 73
     0
 40
0.0
  0
LTYPE
  2
CENTER
 70
     0
  3
____ _ ____ _ ____ _ ____ _ ____ _ ____ _ ____ 
 72
    65
 73
     4
 40
2.0
 49
1.25
 49
-0.25
 49
0.25
 49
-0.25
  0
ENDTAB
  0
TABLE
  2
LAYER
 70
     6
  0
LAYER
  2
0
 70
     0
 62
     7
  6
CONTINUOUS
  0
LAYER
  2
3
 70
     0
 62
     2
  6
CONTINUOUS
  0
LAYER
  2
2
 70
     0
 62
     3
  6
CENTER
  0
LAYER
  2
1
 70
     0
 62
     4
  6
CONTINUOUS
  0
LAYER
  2
4
 70
     0
 62
     7
  6
CONTINUOUS
  0
LAYER
  2
DEFPOINTS
 70
     0
 62
     7
  6
CONTINUOUS
  0
ENDTAB
  0
TABLE
  2
STYLE
 70
     1
  0
STYLE
  2
STANDARD
 70
     0
 40
0.0
 41
1.0
 50
0.0
 71
     0
 42
180.0
  3
simplex.shx
  4
extfont.shx
  0
ENDTAB
  0
TABLE
  2
VIEW
 70
     0
  0
ENDTAB
  0
TABLE
  2
UCS
 70
     0
  0
ENDTAB
  0
TABLE
  2
APPID
 70
     1
  0
APPID
  2
ACAD
 70
     0
  0
ENDTAB
  0
TABLE
  2
DIMSTYLE
 70
     1
  0
DIMSTYLE
  2
IGA
 70
     0
  3

  4

  5

  6
OPEN
  7
OPEN
 40
2.0
 41
2.0
 42
0.5
 43
10.0
 44
1.0
 45
0.0
 46
0.0
 47
1.0
 48
1.0
140
3.0
141
0.0
142
0.0
143
0.03937
144
1.0
145
0.0
146
10.0
147
1.0
 71
     0
 72
     0
 73
     0
 74
     0
 75
     0
 76
     0
 77
     1
 78
     8
170
     0
171
     2
172
     0
173
     1
174
     0
175
     0
176
     0
177
     0
178
     0
  0
ENDTAB
  0
ENDSEC
  0
SECTION
  2
BLOCKS
  0
BLOCK
  8
0
  2
$MODEL_SPACE
 70
     0
 10
0.0
 20
0.0
 30
0.0
  3
$MODEL_SPACE
  1

  0
ENDBLK
  5
1B
  8
0
  0
BLOCK
 67
     1
  8
0
  2
$PAPER_SPACE
 70
     0
 10
0.0
 20
0.0
 30
0.0
  3
$PAPER_SPACE
  1

  0
ENDBLK
  5
18
 67
     1
  8
0
  0
BLOCK
  8
0
  2
_OPEN
 70
     0
 10
0.0
 20
0.0
 30
0.0
  3
_OPEN
  1

  0
LINE
  5
79FD
  8
0
  6
BYBLOCK
 62
     0
 10
-1.0
 20
0.1666666666666666
 30
0.0
 11
0.0
 21
0.0
 31
0.0
  0
LINE
  5
79FE
  8
0
  6
BYBLOCK
 62
     0
 10
0.0
 20
0.0
 30
0.0
 11
-1.0
 21
-0.1666666666666666
 31
0.0
  0
LINE
  5
79FF
  8
0
  6
BYBLOCK
 62
     0
 10
0.0
 20
0.0
 30
0.0
 11
-1.0
 21
0.0
 31
0.0
  0
ENDBLK
  5
7A01
  8
0
  0
BLOCK
  8
0
  2
YA_N
 70
     0
 10
0.0
 20
0.0
 30
0.0
  3
YA_N
  1

  0
ENDBLK
  5
7A04
  8
0
  0
BLOCK
  8
0
  2
_DOT
 70
     0
 10
0.0
 20
0.0
 30
0.0
  3
_DOT
  1

  0
LINE
  5
825E
  8
0
  6
BYBLOCK
 62
     0
 10
0.0
 20
0.0
 30
0.0
 11
-1.0
 21
-0.0000000000000284
 31
0.0
  0
POLYLINE
  5
825F
  8
0
  6
BYBLOCK
 62
     0
 66
     1
 10
0.0
 20
0.0
 30
0.0
 70
     1
 40
0.1666666666666666
 41
0.1666666666666666
  0
VERTEX
  5
841F
  8
0
  6
BYBLOCK
 62
     0
 10
-0.0833333333333286
 20
-0.0000000000000284
 30
0.0
 42
1.0
  0
VERTEX
  5
8420
  8
0
  6
BYBLOCK
 62
     0
 10
0.0833333333333286
 20
-0.0000000000000284
 30
0.0
 42
1.0
  0
SEQEND
  5
8421
  8
0
  6
BYBLOCK
 62
     0
  0
ENDBLK
  5
7A64
  8
0
  0
BLOCK
  8
0
  2
*D3
 70
     1
 10
0.0
 20
0.0
 30
0.0
  3
*D3
  1

  0
LINE
  5
83B5
  8
3
 62
     0
 10
3550.7924823770559
 20
2278.8606332327081
 30
0.0
 11
3718.3829490848648
 21
2278.8606332327081
 31
0.0
  0
LINE
  5
83B6
  8
3
 62
     0
 10
3550.7924823770559
 20
1878.8606332327081
 30
0.0
 11
3718.3829490848648
 21
1878.860633232707
 31
0.0
  0
LINE
  5
83B7
  8
3
 62
     0
 10
3698.3829490848648
 20
2238.8606332327081
 30
0.0
 11
3698.3829490848648
 21
1918.860633232707
 31
0.0
  0
INSERT
  5
83B8
  8
3
 62
     0
  2
_OPEN
 10
3698.3829490848648
 20
2278.8606332327081
 30
0.0
 41
40.0
 42
40.0
 43
40.0
 50
90.0
  0
INSERT
  5
83B9
  8
3
 62
     0
  2
_OPEN
 10
3698.3829490848648
 20
1878.860633232707
 30
0.0
 41
40.0
 42
40.0
 43
40.0
 50
270.0
  0
TEXT
  8
3
  40
60
  5
8472
  62
0
  72
0
  71
0
 10
3528.38
 20
1972.66
 30
0.000000
  1
φ400
  0
POINT
  5
83BB
  8
DEFPOINTS
 62
     0
 10
3540.7924823770559
 20
2278.8606332327081
 30
0.0
  0
POINT
  5
83BC
  8
DEFPOINTS
 62
     0
 10
3540.7924823770559
 20
1878.8606332327081
 30
0.0
  0
POINT
  5
83BD
  8
DEFPOINTS
 62
     0
 10
3698.3829490848648
 20
1878.860633232707
 30
0.0
  0
ENDBLK
  5
8021
  8
0
  0
BLOCK
  8
0
  2
*D4
 70
     1
 10
0.0
 20
0.0
 30
0.0
  3
*D4
  1

  0
LINE
  5
83C3
  8
3
 62
     0
 10
3237.4924823770561
 20
2347.0380358248058
 30
0.0
 11
3237.4924823770561
 21
2469.8498871127699
 31
0.0
  0
LINE
  5
83C4
  8
3
 62
     0
 10
3537.4924823770561
 20
2347.0380358248058
 30
0.0
 11
3537.4924823770561
 21
2469.8498871127699
 31
0.0
  0
LINE
  5
83C5
  8
3
 62
     0
 10
3277.4924823770561
 20
2449.8498871127708
 30
0.0
 11
3497.4924823770561
 21
2449.8498871127708
 31
0.0
  0
INSERT
  5
83C6
  8
3
 62
     0
  2
_OPEN
 10
3237.4924823770561
 20
2449.8498871127708
 30
0.0
 41
40.0
 42
40.0
 43
40.0
 50
180.0
  0
INSERT
  5
83C7
  8
3
 62
     0
  2
_OPEN
 10
3537.4924823770561
 20
2449.8498871127708
 30
0.0
 41
40.0
 42
40.0
 43
40.0
  0
TEXT
  8
3
  40
60
  5
8473
  62
0
  72
0
  71
0
 10
3280.35
 20
2393.65
 30
0.000000
  1
300
  0
POINT
  5
83C9
  8
DEFPOINTS
 62
     0
 10
3237.4924823770561
 20
2337.0380358248058
 30
0.0
  0
POINT
  5
83CA
  8
DEFPOINTS
 62
     0
 10
3537.4924823770561
 20
2337.0380358248058
 30
0.0
  0
POINT
  5
83CB
  8
DEFPOINTS
 62
     0
 10
3537.4924823770561
 20
2449.8498871127708
 30
0.0
  0
ENDBLK
  5
8016
  8
0
  0
BLOCK
  8
0
  2
*D5
 70
     1
 10
0.0
 20
0.0
 30
0.0
  3
*D5
  1

  0
LINE
  5
83CC
  8
3
 62
     0
 10
2649.9924823770571
 20
2215.5163388360238
 30
0.0
 11
2649.9924823770571
 21
2605.8981653262522
 31
0.0
  0
LINE
  5
83CD
  8
3
 62
     0
 10
3387.4924823770561
 20
2547.3834941924142
 30
0.0
 11
3387.4924823770561
 21
2605.8981653262522
 31
0.0
  0
LINE
  5
83CE
  8
3
 62
     0
 10
2689.9924823770571
 20
2585.8981653262522
 30
0.0
 11
3347.4924823770561
 21
2585.8981653262522
 31
0.0
  0
INSERT
  5
83CF
  8
3
 62
     0
  2
_OPEN
 10
2649.9924823770571
 20
2585.8981653262522
 30
0.0
 41
40.0
 42
40.0
 43
40.0
 50
180.0
  0
INSERT
  5
83D0
  8
3
 62
     0
  2
_OPEN
 10
3387.4924823770561
 20
2585.8981653262522
 30
0.0
 41
40.0
 42
40.0
 43
40.0
  0
TEXT
  8
3
  40
60
  5
8474
  62
0
  72
0
  71
0
 10
2898.74
 20
2579.70
 30
0.000000
  1
MAX
  0
TEXT
  8
3
  40
60
  5
8475
  62
0
  72
0
  71
0
 10
2898.74
 20
2501.70
 30
0.000000
  1
830
  0
POINT
  5
83D2
  8
DEFPOINTS
 62
     0
 10
2649.9924823770571
 20
2205.5163388360238
 30
0.0
  0
POINT
  5
83D3
  8
DEFPOINTS
 62
     0
 10
3387.4924823770561
 20
2537.3834941924142
 30
0.0
  0
POINT
  5
83D4
  8
DEFPOINTS
 62
     0
 10
3387.4924823770561
 20
2585.8981653262522
 30
0.0
  0
ENDBLK
  5
82CD
  8
0
  0
BLOCK
  8
0
  2
*D6
 70
     1
 10
0.0
 20
0.0
 30
0.0
  3
*D6
  1

  0
LINE
  5
808E
  8
0
  6
BYBLOCK
 62
     0
 10
3387.4924823770561
 20
2547.3834941924142
 30
0.0
 11
3387.4924823770561
 21
2606.0772634631398
 31
0.0
  0
LINE
  5
808F
  8
0
  6
BYBLOCK
 62
     0
 10
3539.7924823770559
 20
2345.3705862250431
 30
0.0
 11
3539.7924823770559
 21
2606.0772634631398
 31
0.0
  0
LINE
  5
8090
  8
0
  6
BYBLOCK
 62
     0
 10
3427.4924823770561
 20
2586.0772634631398
 30
0.0
 11
3499.7924823770559
 21
2586.0772634631398
 31
0.0
  0
TEXT
  5
8091
  8
3
 62
     0
 10
3391.2969356061262
 20
2611.6731336176708
 30
0.0
 40
60.0
  1
153
  0
INSERT
  5
8092
  8
0
  6
BYBLOCK
 62
     0
  2
_OPEN
 10
3387.4924823770561
 20
2586.0772634631398
 30
0.0
 41
40.0
 42
40.0
 43
40.0
 50
180.0
  0
INSERT
  5
8093
  8
0
  6
BYBLOCK
 62
     0
  2
_OPEN
 10
3539.7924823770559
 20
2586.0772634631398
 30
0.0
 41
40.0
 42
40.0
 43
40.0
  0
POINT
  5
8094
  8
DEFPOINTS
  6
BYBLOCK
 62
     0
 10
3387.4924823770561
 20
2537.3834941924142
 30
0.0
  0
POINT
  5
8095
  8
DEFPOINTS
  6
BYBLOCK
 62
     0
 10
3539.7924823770559
 20
2335.3705862250431
 30
0.0
  0
POINT
  5
8096
  8
DEFPOINTS
  6
BYBLOCK
 62
     0
 10
3539.7924823770559
 20
2586.0772634631398
 30
0.0
  0
ENDBLK
  5
8097
  8
0
  0
BLOCK
  8
0
  2
*D7
 70
     1
 10
0.0
 20
0.0
 30
0.0
  3
*D7
  1

  0
LINE
  5
83DC
  8
3
 62
     0
 10
1885.131217441128
 20
1654.8879703437549
 30
0.0
 11
1989.494116649468
 21
1654.8879703437549
 31
0.0
  0
LINE
  5
83DD
  8
3
 62
     0
 10
1885.1329549693389
 20
2066.8879703437551
 30
0.0
 11
1989.494116649468
 21
2066.8879703437551
 31
0.0
  0
LINE
  5
83DE
  8
3
 62
     0
 10
1969.494116649468
 20
1694.8879703437549
 30
0.0
 11
1969.494116649468
 21
2026.8879703437549
 31
0.0
  0
INSERT
  5
83DF
  8
3
 62
     0
  2
_OPEN
 10
1969.494116649468
 20
1654.8879703437549
 30
0.0
 41
40.0
 42
40.0
 43
40.0
 50
270.0
  0
INSERT
  5
83E0
  8
3
 62
     0
  2
_OPEN
 10
1969.494116649468
 20
2066.8879703437551
 30
0.0
 41
40.0
 42
40.0
 43
40.0
 50
90.0
  0
TEXT
  8
3
  40
60
  5
8476
  62
0
  72
0
  71
0
 10
1799.49
 20
1754.69
 30
0.000000
  1
412
  0
POINT
  5
83E2
  8
DEFPOINTS
 62
     0
 10
1875.131217441128
 20
1654.8879703437549
 30
0.0
  0
POINT
  5
83E3
  8
DEFPOINTS
 62
     0
 10
1875.1329549693389
 20
2066.8879703437551
 30
0.0
  0
POINT
  5
83E4
  8
DEFPOINTS
 62
     0
 10
1969.494116649468
 20
2066.8879703437551
 30
0.0
  0
ENDBLK
  5
7FB2
  8
0
  0
BLOCK
  8
0
  2
*D8
 70
     1
 10
0.0
 20
0.0
 30
0.0
  3
*D8
  1

  0
LINE
  5
83E9
  8
3
 62
     0
 10
1875.13296213998
 20
2103.8878439055361
 30
0.0
 11
1875.13296213998
 21
2543.4242394433518
 31
0.0
  0
LINE
  5
83EA
  8
3
 62
     0
 10
1570.132958156295
 20
2472.9607354976151
 30
0.0
 11
1570.132958156295
 21
2543.4242394433518
 31
0.0
  0
LINE
  5
83EB
  8
3
 62
     0
 10
1835.13296213998
 20
2523.4242394433518
 30
0.0
 11
1610.132958156295
 21
2523.4242394433518
 31
0.0
  0
INSERT
  5
83EC
  8
3
 62
     0
  2
_OPEN
 10
1875.13296213998
 20
2523.4242394433518
 30
0.0
 41
40.0
 42
40.0
 43
40.0
  0
INSERT
  5
83ED
  8
3
 62
     0
  2
_OPEN
 10
1570.132958156295
 20
2523.4242394433518
 30
0.0
 41
40.0
 42
40.0
 43
40.0
 50
180.0
  0
TEXT
  8
3
  40
60
  5
8477
  62
0
  72
0
  71
0
 10
1602.63
 20
2467.22
 30
0.000000
  1
305
  0
POINT
  5
83EF
  8
DEFPOINTS
 62
     0
 10
1875.13296213998
 20
2093.8878439055361
 30
0.0
  0
POINT
  5
83F0
  8
DEFPOINTS
 62
     0
 10
1570.132958156295
 20
2462.9607354976151
 30
0.0
  0
POINT
  5
83F1
  8
DEFPOINTS
 62
     0
 10
1570.132958156295
 20
2523.4242394433518
 30
0.0
  0
ENDBLK
  5
7F91
  8
0
  0
BLOCK
  8
0
  2
*D9
 70
     1
 10
0.0
 20
0.0
 30
0.0
  3
*D9
  1

  0
LINE
  5
83F2
  8
3
 62
     0
 10
1570.132958156295
 20
2472.9607354976151
 30
0.0
 11
1570.132958156295
 21
2543.4242394433518
 31
0.0
  0
LINE
  5
83F3
  8
3
 62
     0
 10
1228.1329805312589
 20
2088.8879703437542
 30
0.0
 11
1228.1329805312589
 21
2543.4242394433518
 31
0.0
  0
LINE
  5
83F4
  8
3
 62
     0
 10
1530.1329581562941
 20
2523.4242394433518
 30
0.0
 11
1268.13298053126
 21
2523.4242394433518
 31
0.0
  0
INSERT
  5
83F5
  8
3
 62
     0
  2
_OPEN
 10
1570.132958156295
 20
2523.4242394433518
 30
0.0
 41
40.0
 42
40.0
 43
40.0
  0
INSERT
  5
83F6
  8
3
 62
     0
  2
_OPEN
 10
1228.1329805312589
 20
2523.4242394433518
 30
0.0
 41
40.0
 42
40.0
 43
40.0
 50
180.0
  0
TEXT
  8
3
  40
60
  5
8478
  62
0
  72
0
  71
0
 10
1279.13
 20
2467.22
 30
0.000000
  1
342
  0
POINT
  5
83F8
  8
DEFPOINTS
 62
     0
 10
1570.132958156295
 20
2462.9607354976151
 30
0.0
  0
POINT
  5
83F9
  8
DEFPOINTS
 62
     0
 10
1228.1329805312589
 20
2078.8879703437551
 30
0.0
  0
POINT
  5
83FA
  8
DEFPOINTS
 62
     0
 10
1228.1329805312589
 20
2523.4242394433518
 30
0.0
  0
ENDBLK
  5
7F86
  8
0
  0
BLOCK
  8
0
  2
*D10
 70
     1
 10
0.0
 20
0.0
 30
0.0
  3
*D10
  1

  0
LINE
  5
83FB
  8
3
 62
     0
 10
1959.9662521582241
 20
2078.8879703437551
 30
0.0
 11
2085.8054448660691
 21
2078.8879703437551
 31
0.0
  0
LINE
  5
83FC
  8
3
 62
     0
 10
1885.131217441128
 20
1654.8879703437549
 30
0.0
 11
2085.8054448660691
 21
1654.8879703437549
 31
0.0
  0
LINE
  5
83FD
  8
3
 62
     0
 10
2065.8054448660691
 20
2038.887970343754
 30
0.0
 11
2065.8054448660691
 21
1694.8879703437549
 31
0.0
  0
INSERT
  5
83FE
  8
3
 62
     0
  2
_OPEN
 10
2065.8054448660691
 20
2078.8879703437551
 30
0.0
 41
40.0
 42
40.0
 43
40.0
 50
90.0
  0
INSERT
  5
83FF
  8
3
 62
     0
  2
_OPEN
 10
2065.8054448660691
 20
1654.8879703437549
 30
0.0
 41
40.0
 42
40.0
 43
40.0
 50
270.0
  0
TEXT
  8
3
  40
60
  5
8479
  62
0
  72
0
  71
0
 10
1895.81
 20
1760.69
 30
0.000000
  1
424
  0
POINT
  5
8401
  8
DEFPOINTS
 62
     0
 10
1949.9662521582241
 20
2078.8879703437551
 30
0.0
  0
POINT
  5
8402
  8
DEFPOINTS
 62
     0
 10
1875.131217441128
 20
1654.8879703437549
 30
0.0
  0
POINT
  5
8403
  8
DEFPOINTS
 62
     0
 10
2065.8054448660691
 20
1654.8879703437549
 30
0.0
  0
ENDBLK
  5
7F7B
  8
0
  0
BLOCK
  8
0
  2
*D11
 70
     1
 10
0.0
 20
0.0
 30
0.0
  3
*D11
  1

  0
LINE
  5
8404
  8
3
 62
     0
 10
1580.132958156295
 20
2360.8879703437551
 30
0.0
 11
2174.4301217200282
 21
2360.8879703437551
 31
0.0
  0
LINE
  5
8405
  8
3
 62
     0
 10
1959.9662521582241
 20
2078.8879703437551
 30
0.0
 11
2174.4301217200282
 21
2078.8879703437551
 31
0.0
  0
LINE
  5
8406
  8
3
 62
     0
 10
2154.4301217200282
 20
2320.8879703437542
 30
0.0
 11
2154.4301217200282
 21
2118.8879703437542
 31
0.0
  0
INSERT
  5
8407
  8
3
 62
     0
  2
_OPEN
 10
2154.4301217200282
 20
2360.8879703437551
 30
0.0
 41
40.0
 42
40.0
 43
40.0
 50
90.0
  0
INSERT
  5
8408
  8
3
 62
     0
  2
_OPEN
 10
2154.4301217200282
 20
2078.8879703437551
 30
0.0
 41
40.0
 42
40.0
 43
40.0
 50
270.0
  0
TEXT
  8
3
  40
60
  5
847A
  62
0
  72
0
  71
0
 10
1984.43
 20
2113.69
 30
0.000000
  1
282
  0
POINT
  5
840A
  8
DEFPOINTS
 62
     0
 10
1570.132958156295
 20
2360.8879703437551
 30
0.0
  0
POINT
  5
840B
  8
DEFPOINTS
 62
     0
 10
1949.9662521582241
 20
2078.8879703437551
 30
0.0
  0
POINT
  5
840C
  8
DEFPOINTS
 62
     0
 10
2154.4301217200282
 20
2078.8879703437551
 30
0.0
  0
ENDBLK
  5
7F70
  8
0
  0
BLOCK
  8
0
  2
*D12
 70
     1
 10
0.0
 20
0.0
 30
0.0
  3
*D12
  1

  0
LINE
  5
840D
  8
3
 62
     0
 10
1959.9662521582241
 20
2078.8879703437551
 30
0.0
 11
2174.4301217200282
 21
2078.8879703437551
 31
0.0
  0
LINE
  5
840E
  8
3
 62
     0
 10
1795.1329714353069
 20
1548.8879703437549
 30
0.0
 11
2174.4301217200282
 21
1548.8879703437549
 31
0.0
  0
LINE
  5
840F
  8
3
 62
     0
 10
2154.4301217200282
 20
2038.887970343754
 30
0.0
 11
2154.4301217200282
 21
1588.8879703437549
 31
0.0
  0
INSERT
  5
8410
  8
3
 62
     0
  2
_OPEN
 10
2154.4301217200282
 20
2078.8879703437551
 30
0.0
 41
40.0
 42
40.0
 43
40.0
 50
90.0
  0
INSERT
  5
8411
  8
3
 62
     0
  2
_OPEN
 10
2154.4301217200282
 20
1548.8879703437549
 30
0.0
 41
40.0
 42
40.0
 43
40.0
 50
270.0
  0
TEXT
  8
3
  40
60
  5
847B
  62
0
  72
0
  71
0
 10
1984.43
 20
1707.69
 30
0.000000
  1
530
  0
POINT
  5
8413
  8
DEFPOINTS
 62
     0
 10
1949.9662521582241
 20
2078.8879703437551
 30
0.0
  0
POINT
  5
8414
  8
DEFPOINTS
 62
     0
 10
1785.1329714353069
 20
1548.8879703437549
 30
0.0
  0
POINT
  5
8415
  8
DEFPOINTS
 62
     0
 10
2154.4301217200282
 20
1548.8879703437549
 30
0.0
  0
ENDBLK
  5
7F65
  8
0
  0
BLOCK
  8
0
  2
*D13
 70
     1
 10
0.0
 20
0.0
 30
0.0
  3
*D13
  1

  0
LINE
  5
8416
  8
3
 62
     0
 10
1875.13296213998
 20
2103.8878439055361
 30
0.0
 11
1875.13296213998
 21
2663.6560167549051
 31
0.0
  0
LINE
  5
8417
  8
3
 62
     0
 10
855.13297143530781
 20
1633.8879703437549
 30
0.0
 11
855.13297143530781
 21
2663.6560167549051
 31
0.0
  0
LINE
  5
8418
  8
3
 62
     0
 10
1835.13296213998
 20
2643.6560167549051
 30
0.0
 11
895.13297143530792
 21
2643.6560167549051
 31
0.0
  0
INSERT
  5
8419
  8
3
 62
     0
  2
_OPEN
 10
1875.13296213998
 20
2643.6560167549051
 30
0.0
 41
40.0
 42
40.0
 43
40.0
  0
INSERT
  5
841A
  8
3
 62
     0
  2
_OPEN
 10
855.13297143530781
 20
2643.6560167549051
 30
0.0
 41
40.0
 42
40.0
 43
40.0
 50
180.0
  0
TEXT
  8
3
  40
60
  5
847C
  62
0
  72
0
  71
0
 10
1332.86
 20
2587.46
 30
0.000000
  1
1020
  0
POINT
  5
841C
  8
DEFPOINTS
 62
     0
 10
1875.13296213998
 20
2093.8878439055361
 30
0.0
  0
POINT
  5
841D
  8
DEFPOINTS
 62
     0
 10
855.13297143530781
 20
1623.8879703437549
 30
0.0
  0
POINT
  5
841E
  8
DEFPOINTS
 62
     0
 10
855.13297143530781
 20
2643.6560167549051
 30
0.0
  0
ENDBLK
  5
81DA
  8
0
  0
BLOCK
  8
0
  2
*D14
 70
     1
 10
0.0
 20
0.0
 30
0.0
  3
*D14
  1

  0
LINE
  5
8422
  8
3
 62
     0
 10
1785.1329581562929
 20
4069.2481158478649
 30
0.0
 11
1785.1329581562929
 21
4185.1336355990315
 31
0.0
  0
LINE
  5
8423
  8
3
 62
     0
 10
1355.1329581562941
 20
4069.2481158478649
 30
0.0
 11
1355.1329581562941
 21
4185.1336355990315
 31
0.0
  0
LINE
  5
8424
  8
3
 62
     0
 10
1745.1329581562941
 20
4165.1336355990315
 30
0.0
 11
1395.1329581562941
 21
4165.1336355990315
 31
0.0
  0
INSERT
  5
8425
  8
3
 62
     0
  2
_OPEN
 10
1785.1329581562929
 20
4165.1336355990315
 30
0.0
 41
40.0
 42
40.0
 43
40.0
  0
INSERT
  5
8426
  8
3
 62
     0
  2
_OPEN
 10
1355.1329581562941
 20
4165.1336355990315
 30
0.0
 41
40.0
 42
40.0
 43
40.0
 50
180.0
  0
TEXT
  8
3
  40
60
  5
847D
  62
0
  72
0
  71
0
 10
1449.83
 20
4108.93
 30
0.000000
  1
430
  0
POINT
  5
8428
  8
DEFPOINTS
 62
     0
 10
1785.1329581562929
 20
4059.2481158478658
 30
0.0
  0
POINT
  5
8429
  8
DEFPOINTS
 62
     0
 10
1355.1329581562941
 20
4059.248115847864
 30
0.0
  0
POINT
  5
842A
  8
DEFPOINTS
 62
     0
 10
1355.1329581562941
 20
4165.1336355990315
 30
0.0
  0
ENDBLK
  5
8297
  8
0
  0
BLOCK
  8
0
  2
*D15
 70
     1
 10
0.0
 20
0.0
 30
0.0
  3
*D15
  1

  0
LINE
  5
842B
  8
3
 62
     0
 10
855.13295815629397
 20
3629.2481158478658
 30
0.0
 11
855.13295815629397
 21
4185.1336355990315
 31
0.0
  0
LINE
  5
842C
  8
3
 62
     0
 10
1315.1329581562941
 20
4165.1336355990315
 30
0.0
 11
895.13295815629408
 21
4165.1336355990315
 31
0.0
  0
INSERT
  5
842D
  8
3
 62
     0
  2
_OPEN
 10
1355.1329581562941
 20
4165.1336355990315
 30
0.0
 41
40.0
 42
40.0
 43
40.0
  0
INSERT
  5
842E
  8
3
 62
     0
  2
_OPEN
 10
855.13295815629397
 20
4165.1336355990315
 30
0.0
 41
40.0
 42
40.0
 43
40.0
 50
180.0
  0
TEXT
  8
3
  40
60
  5
847E
  62
0
  72
0
  71
0
 10
985.133
 20
4108.93
 30
0.000000
  1
500
  0
POINT
  5
8430
  8
DEFPOINTS
 62
     0
 10
1355.1329581562941
 20
4059.248115847864
 30
0.0
  0
POINT
  5
8431
  8
DEFPOINTS
 62
     0
 10
855.13295815629397
 20
3619.2481158478658
 30
0.0
  0
POINT
  5
8432
  8
DEFPOINTS
 62
     0
 10
855.13295815629397
 20
4165.1336355990315
 30
0.0
  0
ENDBLK
  5
82A2
  8
0
  0
BLOCK
  8
0
  2
*D16
 70
     1
 10
0.0
 20
0.0
 30
0.0
  3
*D16
  1

  0
LINE
  5
8433
  8
3
 62
     0
 10
845.13295815629408
 20
3619.2481158478658
 30
0.0
 11
720.92286713224223
 21
3619.2481158478658
 31
0.0
  0
LINE
  5
8434
  8
3
 62
     0
 10
845.13295815629408
 20
3199.2481158478658
 30
0.0
 11
720.92286713224212
 21
3199.2481158478658
 31
0.0
  0
LINE
  5
8435
  8
3
 62
     0
 10
740.92286713224223
 20
3579.2481158478658
 30
0.0
 11
740.92286713224212
 21
3239.2481158478658
 31
0.0
  0
INSERT
  5
8436
  8
3
 62
     0
  2
_OPEN
 10
740.92286713224223
 20
3619.2481158478658
 30
0.0
 41
40.0
 42
40.0
 43
40.0
 50
90.0
  0
INSERT
  5
8437
  8
3
 62
     0
  2
_OPEN
 10
740.92286713224212
 20
3199.2481158478658
 30
0.0
 41
40.0
 42
40.0
 43
40.0
 50
270.0
  0
TEXT
  8
3
  40
60
  5
847F
  62
0
  72
0
  71
0
 10
570.923
 20
3298.23
 30
0.000000
  1
420
  0
POINT
  5
8439
  8
DEFPOINTS
 62
     0
 10
855.13295815629397
 20
3619.2481158478658
 30
0.0
  0
POINT
  5
843A
  8
DEFPOINTS
 62
     0
 10
855.13295815629397
 20
3199.2481158478658
 30
0.0
  0
POINT
  5
843B
  8
DEFPOINTS
 62
     0
 10
740.92286713224212
 20
3199.2481158478658
 30
0.0
  0
ENDBLK
  5
82AF
  8
0
  0
BLOCK
  8
0
  2
*D17
 70
     1
 10
0.0
 20
0.0
 30
0.0
  3
*D17
  1

  0
LINE
  5
843C
  8
3
 62
     0
 10
1795.1329581562941
 20
4059.2481158478658
 30
0.0
 11
2067.076069480031
 21
4059.2481158478658
 31
0.0
  0
LINE
  5
843D
  8
3
 62
     0
 10
1795.1329581562941
 20
3199.2481158478649
 30
0.0
 11
2067.076069480031
 21
3199.2481158478649
 31
0.0
  0
LINE
  5
843E
  8
3
 62
     0
 10
2047.0760694800299
 20
4019.2481158478649
 30
0.0
 11
2047.0760694800299
 21
3239.2481158478658
 31
0.0
  0
INSERT
  5
843F
  8
3
 62
     0
  2
_OPEN
 10
2047.0760694800299
 20
4059.2481158478658
 30
0.0
 41
40.0
 42
40.0
 43
40.0
 50
90.0
  0
INSERT
  5
8440
  8
3
 62
     0
  2
_OPEN
 10
2047.0760694800299
 20
3199.2481158478649
 30
0.0
 41
40.0
 42
40.0
 43
40.0
 50
270.0
  0
TEXT
  8
3
  40
60
  5
8480
  62
0
  72
0
  71
0
 10
1877.08
 20
3521.60
 30
0.000000
  1
860
  0
POINT
  5
8442
  8
DEFPOINTS
 62
     0
 10
1785.1329581562929
 20
4059.2481158478658
 30
0.0
  0
POINT
  5
8443
  8
DEFPOINTS
 62
     0
 10
1785.1329581562941
 20
3199.2481158478649
 30
0.0
  0
POINT
  5
8444
  8
DEFPOINTS
 62
     0
 10
2047.0760694800299
 20
3199.2481158478649
 30
0.0
  0
ENDBLK
  5
82BC
  8
0
  0
BLOCK
  8
0
  2
*D18
 70
     1
 10
0.0
 20
0.0
 30
0.0
  3
*D18
  1

  0
LINE
  5
8445
  8
3
 62
     0
 10
855.13297143530781
 20
1538.8879703437549
 30
0.0
 11
855.13297143530781
 21
1385.364132506865
 31
0.0
  0
LINE
  5
8446
  8
3
 62
     0
 10
1570.132958156295
 20
1538.8879703437549
 30
0.0
 11
1570.132958156295
 21
1385.364132506865
 31
0.0
  0
LINE
  5
8447
  8
3
 62
     0
 10
895.1329714353077
 20
1405.364132506865
 30
0.0
 11
1530.132958156295
 21
1405.364132506865
 31
0.0
  0
INSERT
  5
8448
  8
3
 62
     0
  2
_OPEN
 10
855.13297143530781
 20
1405.364132506865
 30
0.0
 41
40.0
 42
40.0
 43
40.0
 50
180.0
  0
INSERT
  5
8449
  8
3
 62
     0
  2
_OPEN
 10
1570.132958156295
 20
1405.364132506865
 30
0.0
 41
40.0
 42
40.0
 43
40.0
  0
TEXT
  8
3
  40
60
  5
8481
  62
0
  72
0
  71
0
 10
1092.63
 20
1349.16
 30
0.000000
  1
715
  0
POINT
  5
844B
  8
DEFPOINTS
 62
     0
 10
855.13297143530781
 20
1548.8879703437549
 30
0.0
  0
POINT
  5
844C
  8
DEFPOINTS
 62
     0
 10
1570.132958156295
 20
1548.8879703437549
 30
0.0
  0
POINT
  5
844D
  8
DEFPOINTS
 62
     0
 10
1570.132958156295
 20
1405.364132506865
 30
0.0
  0
ENDBLK
  5
8348
  8
0
  0
BLOCK
  8
0
  2
*D19
 70
     1
 10
0.0
 20
0.0
 30
0.0
  3
*D19
  1

  0
LINE
  5
844E
  8
3
 62
     0
 10
1570.132958156295
 20
1538.8879703437549
 30
0.0
 11
1570.132958156295
 21
1385.364132506865
 31
0.0
  0
LINE
  5
844F
  8
3
 62
     0
 10
1785.1329714353069
 20
1538.8879703437549
 30
0.0
 11
1785.1329714353069
 21
1385.364132506865
 31
0.0
  0
LINE
  5
8450
  8
3
 62
     0
 10
1610.132958156295
 20
1405.364132506865
 30
0.0
 11
1745.132971435308
 21
1405.364132506865
 31
0.0
  0
INSERT
  5
8451
  8
3
 62
     0
  2
_OPEN
 10
1570.132958156295
 20
1405.364132506865
 30
0.0
 41
40.0
 42
40.0
 43
40.0
 50
180.0
  0
INSERT
  5
8452
  8
3
 62
     0
  2
_OPEN
 10
1785.1329714353069
 20
1405.364132506865
 30
0.0
 41
40.0
 42
40.0
 43
40.0
  0
TEXT
  8
3
  40
60
  5
8482
  62
0
  72
0
  71
0
 10
1557.63
 20
1349.16
 30
0.000000
  1
215
  0
POINT
  5
8454
  8
DEFPOINTS
 62
     0
 10
1570.132958156295
 20
1548.8879703437549
 30
0.0
  0
POINT
  5
8455
  8
DEFPOINTS
 62
     0
 10
1785.1329714353069
 20
1548.8879703437549
 30
0.0
  0
POINT
  5
8456
  8
DEFPOINTS
 62
     0
 10
1785.1329714353069
 20
1405.364132506865
 30
0.0
  0
ENDBLK
  5
8357
  8
0
  0
BLOCK
  8
0
  2
*D20
 70
     1
 10
0.0
 20
0.0
 30
0.0
  3
*D20
  1

  0
LINE
  5
8457
  8
3
 62
     0
 10
2722.4924823770561
 20
1538.8606332327081
 30
0.0
 11
2722.4924823770561
 21
1385.364132506865
 31
0.0
  0
LINE
  5
8458
  8
3
 62
     0
 10
3387.4924823770548
 20
1538.8606332327081
 30
0.0
 11
3387.4924823770548
 21
1385.364132506865
 31
0.0
  0
LINE
  5
8459
  8
3
 62
     0
 10
2762.4924823770561
 20
1405.364132506865
 30
0.0
 11
3347.4924823770548
 21
1405.364132506865
 31
0.0
  0
INSERT
  5
845A
  8
3
 62
     0
  2
_OPEN
 10
2722.4924823770561
 20
1405.364132506865
 30
0.0
 41
40.0
 42
40.0
 43
40.0
 50
180.0
  0
INSERT
  5
845B
  8
3
 62
     0
  2
_OPEN
 10
3387.4924823770548
 20
1405.364132506865
 30
0.0
 41
40.0
 42
40.0
 43
40.0
  0
TEXT
  8
3
  40
60
  5
8483
  62
0
  72
0
  71
0
 10
2934.99
 20
1349.16
 30
0.000000
  1
665
  0
POINT
  5
845D
  8
DEFPOINTS
 62
     0
 10
2722.4924823770561
 20
1548.8606332327081
 30
0.0
  0
POINT
  5
845E
  8
DEFPOINTS
 62
     0
 10
3387.4924823770548
 20
1548.8606332327081
 30
0.0
  0
POINT
  5
845F
  8
DEFPOINTS
 62
     0
 10
3387.4924823770548
 20
1405.364132506865
 30
0.0
  0
ENDBLK
  5
8371
  8
0
  0
BLOCK
  8
0
  2
*D21
 70
     1
 10
0.0
 20
0.0
 30
0.0
  3
*D21
  1

  0
LINE
  5
8460
  8
3
 62
     0
 10
3387.4924823770548
 20
1538.8606332327081
 30
0.0
 11
3387.4924823770548
 21
1385.364132506865
 31
0.0
  0
LINE
  5
8461
  8
3
 62
     0
 10
3582.4924823770561
 20
1538.8606332327081
 30
0.0
 11
3582.4924823770561
 21
1385.364132506865
 31
0.0
  0
LINE
  5
8462
  8
3
 62
     0
 10
3427.4924823770548
 20
1405.364132506865
 30
0.0
 11
3542.4924823770561
 21
1405.364132506865
 31
0.0
  0
INSERT
  5
8463
  8
3
 62
     0
  2
_OPEN
 10
3387.4924823770548
 20
1405.364132506865
 30
0.0
 41
40.0
 42
40.0
 43
40.0
 50
180.0
  0
INSERT
  5
8464
  8
3
 62
     0
  2
_OPEN
 10
3582.4924823770561
 20
1405.364132506865
 30
0.0
 41
40.0
 42
40.0
 43
40.0
  0
TEXT
  8
3
  40
60
  5
8484
  62
0
  72
0
  71
0
 10
3364.99
 20
1349.16
 30
0.000000
  1
195
  0
POINT
  5
8466
  8
DEFPOINTS
 62
     0
 10
3387.4924823770548
 20
1548.8606332327081
 30
0.0
  0
POINT
  5
8467
  8
DEFPOINTS
 62
     0
 10
3582.4924823770561
 20
1548.8606332327081
 30
0.0
  0
POINT
  5
8468
  8
DEFPOINTS
 62
     0
 10
3582.4924823770561
 20
1405.364132506865
 30
0.0
  0
ENDBLK
  5
8380
  8
0
  0
BLOCK
  8
0
  2
*D22
 70
     1
 10
0.0
 20
0.0
 30
0.0
  3
*D22
  1

  0
LINE
  5
8469
  8
3
 62
     0
 10
1590.132958156295
 20
2360.8879703437551
 30
0.0
 11
2314.3535269820491
 21
2360.8879703437551
 31
0.0
  0
LINE
  5
846A
  8
3
 62
     0
 10
1795.1329714353069
 20
1548.8879703437549
 30
0.0
 11
2314.3535269820491
 21
1548.8879703437549
 31
0.0
  0
LINE
  5
846B
  8
3
 62
     0
 10
2294.3535269820491
 20
2320.8879703437542
 30
0.0
 11
2294.3535269820491
 21
1588.8879703437549
 31
0.0
  0
INSERT
  5
846C
  8
3
 62
     0
  2
_OPEN
 10
2294.3535269820491
 20
2360.8879703437551
 30
0.0
 41
40.0
 42
40.0
 43
40.0
 50
90.0
  0
INSERT
  5
846D
  8
3
 62
     0
  2
_OPEN
 10
2294.3535269820491
 20
1548.8879703437549
 30
0.0
 41
40.0
 42
40.0
 43
40.0
 50
270.0
  0
TEXT
  8
3
  40
60
  5
8485
  62
0
  72
0
  71
0
 10
2124.35
 20
1848.69
 30
0.000000
  1
812
  0
POINT
  5
846F
  8
DEFPOINTS
 62
     0
 10
1580.132958156295
 20
2360.8879703437551
 30
0.0
  0
POINT
  5
8470
  8
DEFPOINTS
 62
     0
 10
1785.1329714353069
 20
1548.8879703437549
 30
0.0
  0
POINT
  5
8471
  8
DEFPOINTS
 62
     0
 10
2294.3535269820491
 20
1548.8879703437549
 30
0.0
  0
ENDBLK
  5
838D
  8
0
  0
ENDSEC
  0
SECTION
  2
ENTITIES
  0
INSERT
  5
7C2D
  8
0
  2
YA_N
 10
6.0
 20
5.0
 30
0.0
  0
INSERT
  5
7C2E
  8
0
  2
YA_N
 10
6.0
 20
5.0
 30
0.0
  0
INSERT
  5
7C2F
  8
0
  2
YA_N
 10
6.0
 20
5.0
 30
0.0
  0
INSERT
  5
7C30
  8
0
  2
YA_N
 10
6.0
 20
5.0
 30
0.0
  0
INSERT
  5
7C31
  8
0
  2
YA_N
 10
6.0
 20
5.0
 30
0.0
  0
INSERT
  5
7C32
  8
0
  2
YA_N
 10
6.0
 20
5.0
 30
0.0
  0
INSERT
  5
7C33
  8
0
  2
YA_N
 10
342.69245559421228
 20
1431.8735170089669
 30
0.0
  0
LINE
  5
7C34
  8
2
 10
2642.4491752903832
 20
2078.8606332327081
 30
0.0
 11
3604.5150378268841
 21
2078.8606332327081
 31
0.0
  0
LINE
  5
7C35
  8
1
 10
3235.192482377056
 20
2340.8606332327081
 30
0.0
 11
3235.1924823770578
 21
2078.8606332327081
 31
0.0
  0
LINE
  5
7C36
  8
1
 10
3539.7924823770559
 20
2340.8606332327081
 30
0.0
 11
3539.7924823770559
 21
2078.8606332327081
 31
0.0
  0
LINE
  5
7C37
  8
1
 10
3539.7924823770559
 20
2303.8606332327081
 30
0.0
 11
3540.7924823770559
 21
2303.8606332327081
 31
0.0
  0
LINE
  5
7C38
  8
1
 10
3539.7924823770559
 20
1853.8606332327081
 30
0.0
 11
3540.7924823770559
 21
1853.8606332327081
 31
0.0
  0
DIMENSION
  5
7C39
  8
3
  2
*D3
 10
3698.3829490848648
 20
1878.860633232707
 30
0.0
 11
3648.3829490848648
 21
2078.860633232709
 31
0.0
 70
     0
  1
φ400
 13
3540.7924823770559
 23
2278.8606332327081
 33
0.0
 14
3540.7924823770559
 24
1878.8606332327081
 34
0.0
 50
90.0
1001
ACAD
1000
DSTYLE
1002
{
1070
   287
1070
     3
1070
    40
1040
20.0
1070
   143
1040
0.039
1070
   172
1070
     1
1070
   271
1070
     0
1070
   279
1070
     0
1070
   288
1070
     1
1002
}
  0
LINE
  5
7C3A
  8
1
 10
3162.4924823770561
 20
2023.6606332327081
 30
0.0
 11
3162.4924823770571
 21
1623.8606332327081
 31
0.0
  0
LINE
  5
7C3B
  8
1
 10
2747.4924823770561
 20
2023.6606332327081
 30
0.0
 11
3162.4924823770561
 21
2023.6606332327081
 31
0.0
  0
LINE
  5
7C3C
  8
1
 10
3582.4924823770561
 20
1623.8606332327081
 30
0.0
 11
2722.4924823770561
 21
1623.8606332327081
 31
0.0
  0
LINE
  5
7C3D
  8
1
 10
3582.4924823770561
 20
1548.8606332327081
 30
0.0
 11
2722.4924823770561
 21
1548.8606332327081
 31
0.0
1001
ACAD
1000
ASC_BOUNDS
1002
{
1070
    19
1002
}
  0
LINE
  5
7C3E
  8
1
 10
3582.4924823770561
 20
1623.8606332327081
 30
0.0
 11
3582.4924823770561
 21
1548.8606332327081
 31
0.0
  0
LINE
  5
7C3F
  8
1
 10
1785.1329714353069
 20
1623.888027443563
 30
0.0
 11
1785.1329714353069
 21
1548.8879703437549
 31
0.0
  0
LINE
  5
7C40
  8
1
 10
855.13297143530781
 20
1623.8879703437549
 30
0.0
 11
855.13297143530781
 21
1548.8879703437549
 31
0.0
  0
LINE
  5
7C41
  8
1
 10
1765.132958156295
 20
2023.6879703437539
 30
0.0
 11
1375.132958156295
 21
2023.6879703437539
 31
0.0
  0
LINE
  5
7C42
  8
1
 10
1391.932958156294
 20
2023.6879703437539
 30
0.0
 11
1391.932958156294
 21
1623.887970343754
 31
0.0
  0
LINE
  5
7C43
  8
1
 10
1748.3329581562959
 20
2023.6879703437539
 30
0.0
 11
1748.3329581562959
 21
1623.887970343754
 31
0.0
  0
LINE
  5
7C44
  8
1
 10
3162.4924823770561
 20
1975.1606332327081
 30
0.0
 11
3199.192482377056
 21
1975.1606332327081
 31
0.0
  0
LINE
  5
7C45
  8
1
 10
3162.4924823770561
 20
1981.1606332327081
 30
0.0
 11
3199.192482377056
 21
1981.1606332327081
 31
0.0
  0
CIRCLE
  5
7C46
  8
1
 10
1570.132958156295
 20
1919.1879703437539
 30
0.0
 40
65.0
  0
LINE
  5
7C47
  8
1
 10
1234.2746252924619
 20
1975.1879703437539
 30
0.0
 11
1391.932958156294
 21
1975.1879703437539
 31
0.0
  0
LINE
  5
7C48
  8
1
 10
1233.1169936800229
 20
1981.1879703437539
 30
0.0
 11
1391.932958156294
 21
1981.1879703437539
 31
0.0
  0
LINE
  5
7C49
  8
1
 10
1748.3329581562959
 20
1981.1879703437539
 30
0.0
 11
1850.132970334608
 21
1981.1879703437539
 31
0.0
  0
LINE
  5
7C4A
  8
1
 10
1748.3329581562959
 20
1975.1879703437539
 30
0.0
 11
1850.132970334608
 21
1975.1879703437539
 31
0.0
  0
LINE
  5
7C4B
  8
1
 10
3565.7924823770559
 20
2278.8606332327072
 30
0.0
 11
3565.7924823770559
 21
1877.8606332327081
 31
0.0
  0
LINE
  5
7C4C
  8
1
 10
3543.7924823770559
 20
1871.8606332327081
 30
0.0
 11
3543.7924823770559
 21
2278.8606332327081
 31
0.0
  0
LINE
  5
7C4D
  8
1
 10
3565.7924823770559
 20
2278.8606332327072
 30
0.0
 11
3565.7924823770559
 21
2279.8606332327072
 31
0.0
  0
ARC
  5
7C4E
  8
1
 10
3563.7924823770559
 20
2279.8606332327072
 30
0.0
 40
2.0
 50
0.0
 51
90.0
  0
LINE
  5
7C4F
  8
1
 10
3563.7924823770559
 20
2281.8606332327072
 30
0.0
 11
3547.7924823770559
 21
2281.8606332327072
 31
0.0
  0
ARC
  5
7C50
  8
1
 10
3547.7924823770559
 20
2285.8606332327072
 30
0.0
 40
4.0
 50
180.0
 51
270.0
  0
LINE
  5
7C51
  8
1
 10
3543.7924823770559
 20
2285.8606332327072
 30
0.0
 11
3543.7924823770559
 21
2301.8606332327072
 31
0.0
  0
ARC
  5
7C52
  8
1
 10
3541.7924823770559
 20
2301.8606332327072
 30
0.0
 40
2.0
 50
0.0
 51
90.0
  0
LINE
  5
7C53
  8
1
 10
3541.7924823770559
 20
2303.8606332327072
 30
0.0
 11
3540.7924823770559
 21
2303.8606332327072
 31
0.0
  0
LINE
  5
7C54
  8
1
 10
3565.7924823770559
 20
1878.8606332327081
 30
0.0
 11
3565.7924823770559
 21
1877.8606332327081
 31
0.0
  0
ARC
  5
7C55
  8
1
 10
3563.7924823770559
 20
1877.8606332327081
 30
0.0
 40
2.0
 50
270.0
 51
0.0
  0
LINE
  5
7C56
  8
1
 10
3563.7924823770559
 20
1875.8606332327081
 30
0.0
 11
3547.7924823770559
 21
1875.8606332327081
 31
0.0
  0
ARC
  5
7C57
  8
1
 10
3547.7924823770559
 20
1871.8606332327081
 30
0.0
 40
4.0
 50
90.0
 51
180.0
  0
LINE
  5
7C58
  8
1
 10
3543.7924823770559
 20
1871.8606332327081
 30
0.0
 11
3543.7924823770559
 21
1855.8606332327081
 31
0.0
  0
ARC
  5
7C59
  8
1
 10
3541.7924823770559
 20
1855.8606332327081
 30
0.0
 40
2.0
 50
270.0
 51
0.0
  0
LINE
  5
7C5A
  8
1
 10
3541.7924823770559
 20
1853.8606332327081
 30
0.0
 11
3540.7924823770559
 21
1853.8606332327081
 31
0.0
  0
LINE
  5
7C5B
  8
1
 10
2754.292482377055
 20
2023.6606332327081
 30
0.0
 11
2754.2924823770559
 21
1623.8606332327081
 31
0.0
  0
POLYLINE
  5
7C5C
  8
1
 66
     1
 10
0.0
 20
0.0
 30
0.0
 70
     1
  0
VERTEX
  5
83BE
  8
1
 10
875.13295815629499
 20
1623.8879703437549
 30
0.0
  0
VERTEX
  5
83BF
  8
1
 10
1145.132958156295
 20
1623.8879703437549
 30
0.0
  0
VERTEX
  5
83C0
  8
1
 10
1135.132958156295
 20
1663.8879703437549
 30
0.0
  0
VERTEX
  5
83C1
  8
1
 10
885.13295815629499
 20
1663.8879703437549
 30
0.0
  0
SEQEND
  5
83C2
  8
1
  0
LINE
  5
7C62
  8
1
 10
910.13295815629499
 20
1663.8879703437549
 30
0.0
 11
950.13295815629499
 21
1663.8879703437549
 31
0.0
  0
LINE
  5
7C63
  8
1
 10
910.13295815629499
 20
1675.8879703437549
 30
0.0
 11
929.59844965444961
 21
1702.935587778624
 31
0.0
  0
LINE
  5
7C64
  8
1
 10
969.41873091209163
 20
1671.4577171800449
 30
0.0
 11
1050.8471854004979
 21
1671.4577171800449
 31
0.0
  0
LINE
  5
7C65
  8
1
 10
910.13295815629499
 20
1663.8879703437549
 30
0.0
 11
910.13295815629499
 21
1675.8879703437549
 31
0.0
  0
LINE
  5
7C66
  8
1
 10
1098.132958156295
 20
1663.8879703437549
 30
0.0
 11
1070.132958156295
 21
1663.8879703437549
 31
0.0
  0
LINE
  5
7C67
  8
1
 10
1110.132958156295
 20
1663.8879703437549
 30
0.0
 11
1110.132958156295
 21
1675.8879703437549
 31
0.0
  0
LINE
  5
7C68
  8
1
 10
1110.132958156295
 20
1675.8879703437549
 30
0.0
 11
1090.66746665814
 21
1702.935587778624
 31
0.0
  0
LINE
  5
7C69
  8
1
 10
1110.132958156295
 20
1663.8879703437549
 30
0.0
 11
1070.132958156295
 21
1663.8879703437549
 31
0.0
  0
LINE
  5
7C6A
  8
2
 10
887.32043351532593
 20
1763.8879703437549
 30
0.0
 11
1138.432958156294
 21
1763.8879703437549
 31
0.0
  0
ARC
  5
7C6B
  8
1
 10
1010.132958156295
 20
1763.8879703437549
 30
0.0
 40
101.0
 50
293.77281679994883
 51
246.2271832000452
  0
LINE
  5
7C6C
  8
2
 10
1010.132958156295
 20
1605.253893554504
 30
0.0
 11
1010.132958156295
 21
1902.209928992067
 31
0.0
  0
CIRCLE
  5
7C6D
  8
1
 10
1010.132958156295
 20
1763.8879703437549
 30
0.0
 40
50.0
  0
CIRCLE
  5
7C6E
  8
1
 10
1570.132958156295
 20
2078.8879703437551
 30
0.0
 40
101.5
  0
ARC
  5
7C6F
  8
1
 10
1010.132958156295
 20
1763.8879703437549
 30
0.0
 40
90.0
 50
110.0025635125278
 51
278.06992342332501
  0
ARC
  5
7C70
  8
1
 10
1570.132958156295
 20
2078.8879703437551
 30
0.0
 40
150.0
 50
278.06992342332512
 51
110.0025635125276
  0
LINE
  5
7C71
  8
1
 10
2714.9924823770571
 20
2058.8606332327081
 30
0.0
 11
3235.1924823770569
 21
2058.8606332327081
 31
0.0
  0
LINE
  5
7C72
  8
1
 10
2714.9924823770571
 20
2098.8606332327081
 30
0.0
 11
3235.1924823770578
 21
2098.8606332327081
 31
0.0
  0
DIMENSION
  5
7C73
  8
3
  2
*D4
 10
3537.4924823770561
 20
2449.8498871127708
 30
0.0
 11
3400.3496252341979
 21
2449.8498871127708
 31
0.0
 70
   128
 13
3237.4924823770561
 23
2337.0380358248058
 33
0.0
 14
3537.4924823770561
 24
2337.0380358248058
 34
0.0
1001
ACAD
1000
DSTYLE
1002
{
1070
   287
1070
     3
1070
    40
1040
20.0
1070
   143
1040
0.039
1070
   172
1070
     1
1070
   271
1070
     0
1070
   279
1070
     0
1070
   288
1070
     1
1002
}
  0
LINE
  5
7C77
  8
1
 10
2714.9924823770571
 20
2180.3606332327081
 30
0.0
 11
2714.9924823770561
 21
1713.887970343754
 31
0.0
  0
LINE
  5
7C78
  8
1
 10
2679.9924823770571
 20
2180.3606332327081
 30
0.0
 11
2714.9924823770561
 21
2180.3606332327081
 31
0.0
  0
LINE
  5
7C79
  8
1
 10
2679.9924823770571
 20
1977.3606332327081
 30
0.0
 11
2714.9924823770561
 21
1977.3606332327081
 31
0.0
  0
LINE
  5
7C7A
  8
1
 10
2679.9924823770571
 20
2180.3606332327081
 30
0.0
 11
2679.9924823770561
 21
1713.887970343754
 31
0.0
  0
LINE
  5
7C7D
  8
1
 10
2679.9924823770571
 20
1813.887970343754
 30
0.0
 11
2714.9924823770571
 21
1813.887970343754
 31
0.0
  0
LINE
  5
7C7E
  8
1
 10
2679.9924823770571
 20
1713.887970343754
 30
0.0
 11
2714.9924823770571
 21
1713.887970343754
 31
0.0
  0
LINE
  5
7C82
  8
1
 10
2649.9924823770571
 20
2228.8606332327081
 30
0.0
 11
2741.9924823770571
 21
2228.8606332327081
 31
0.0
  0
LINE
  5
7C83
  8
1
 10
2649.9924823770571
 20
1673.887970343754
 30
0.0
 11
2741.9924823770571
 21
1673.887970343754
 31
0.0
  0
LINE
  5
7C84
  8
1
 10
2649.9924823770571
 20
2228.8606332327081
 30
0.0
 11
2649.9924823770571
 21
1673.887970343754
 31
0.0
  0
LINE
  5
7C85
  8
1
 10
2741.9924823770571
 20
2228.8606332327081
 30
0.0
 11
2741.9924823770571
 21
2169.561258764877
 31
0.0
  0
DIMENSION
  5
7C86
  8
3
  2
*D5
 10
3387.4924823770561
 20
2585.8981653262522
 30
0.0
 11
3018.7424823770571
 21
2585.8981653262522
 31
0.0
 70
   128
  1
MAX\P830
 13
2649.9924823770571
 23
2205.5163388360238
 33
0.0
 14
3387.4924823770561
 24
2537.3834941924142
 34
0.0
1001
ACAD
1000
DSTYLE
1002
{
1070
   287
1070
     3
1070
    40
1040
20.0
1070
   143
1040
0.039
1070
   172
1070
     1
1070
   271
1070
     0
1070
   279
1070
     0
1070
   288
1070
     1
1002
}
  0
DIMENSION
  5
7C87
  8
3
  2
*D6
 10
3539.7924823770559
 20
2586.0772634631398
 30
0.0
 11
3462.7255070346978
 21
2641.6731336176708
 31
0.0
 70
   128
  1
153
 13
3387.4924823770561
 23
2537.3834941924142
 33
0.0
 14
3539.7924823770559
 24
2335.3705862250431
 34
0.0
1001
ACAD
1000
DSTYLE
1002
{
1070
   288
1070
     1
1070
   172
1070
     1
1070
    40
1040
20.0
1070
   271
1070
     0
1070
   143
1040
0.039
1002
}
  0
LINE
  5
7C88
  8
2
 10
3387.4924823770561
 20
2430.3735981731202
 30
0.0
 11
3387.4924823770548
 21
1548.8606332327081
 31
0.0
1001
ACAD
1000
ASC_BOUNDS
1002
{
1070
    19
1002
}
  0
INSERT
  5
7C8A
  8
0
  2
YA_N
 10
6.0
 20
5.0
 30
0.0
  0
INSERT
  5
7C8B
  8
0
  2
YA_N
 10
96.0
 20
80.0
 30
0.0
 41
16.0
 42
16.0
 43
16.0
  0
INSERT
  5
7C8C
  8
0
  2
YA_N
 10
3261.5724272564862
 20
1521.5703809158081
 30
0.0
  0
INSERT
  5
7C8D
  8
0
  2
YA_N
 10
3261.5724272564862
 20
1521.5703809158081
 30
0.0
  0
INSERT
  5
7C8E
  8
0
  2
YA_N
 10
3598.2648828506981
 20
2948.4438979247761
 30
0.0
  0
INSERT
  5
7C8F
  8
0
  2
YA_N
 10
4266.8004074798646
 20
4391.6121309265727
 30
0.0
  0
INSERT
  5
7C90
  8
0
  2
YA_N
 10
7315.6595907797891
 20
4128.942743271853
 30
0.0
  0
LINE
  5
7C91
  8
1
 10
3539.792482377055
 20
2078.8606332327081
 30
0.0
 11
3539.792482377055
 21
1623.8606332327081
 31
0.0
  0
LINE
  5
7C92
  8
1
 10
3235.192482377056
 20
2078.8606332327081
 30
0.0
 11
3235.192482377056
 21
1623.8606332327081
 31
0.0
  0
INSERT
  5
7C93
  8
0
  2
YA_N
 10
96.0
 20
80.0
 30
0.0
 41
16.0
 42
16.0
 43
16.0
  0
INSERT
  5
7C94
  8
0
  2
YA_N
 10
96.0
 20
80.0
 30
0.0
 41
16.0
 42
16.0
 43
16.0
  0
INSERT
  5
7C97
  8
0
  2
YA_N
 10
96.0
 20
80.0
 30
0.0
 41
16.0
 42
16.0
 43
16.0
  0
INSERT
  5
7C98
  8
0
  2
YA_N
 10
96.0
 20
80.0
 30
0.0
 41
16.0
 42
16.0
 43
16.0
  0
LINE
  5
7C9B
  8
1
 10
3199.192482377056
 20
1981.1606332327081
 30
0.0
 11
3235.192482377056
 21
1981.1606332327081
 31
0.0
  0
LINE
  5
7C9C
  8
1
 10
3199.192482377056
 20
1975.1606332327081
 30
0.0
 11
3235.192482377056
 21
1975.1606332327081
 31
0.0
  0
LINE
  5
7C9D
  8
1
 10
979.34736137483935
 20
1848.458928898152
 30
0.0
 11
1518.8236301872
 21
2219.8395679344162
 31
0.0
  0
LINE
  5
7C9E
  8
1
 10
1022.76729443355
 20
1674.779196663306
 30
0.0
 11
1591.1901852850531
 21
1930.3733475430081
 31
0.0
  0
LINE
  5
7C9F
  8
1
 10
992.19952993207141
 20
1810.56121912854
 30
0.0
 11
1533.728098861118
 21
2173.634665376871
 31
0.0
  0
LINE
  5
7CA0
  8
1
 10
1019.564027889953
 20
1714.7854762759489
 30
0.0
 11
1589.2780297156221
 21
1979.20990738611
 31
0.0
  0
INSERT
  5
7CA1
  8
0
  2
YA_N
 10
63.111395363473399
 20
-2207.5990737385559
 30
0.0
 41
1.1404799999999991
 42
1.1404799999999991
 43
1.1404799999999991
  0
INSERT
  5
7CA2
  8
0
  2
YA_N
 10
63.111395363473399
 20
-2207.5990737385559
 30
0.0
 41
1.1404799999999991
 42
1.1404799999999991
 43
1.1404799999999991
  0
INSERT
  5
7CA3
  8
0
  2
YA_N
 10
63.111395363473399
 20
-2207.5990737385559
 30
0.0
 41
1.1404799999999991
 42
1.1404799999999991
 43
1.1404799999999991
  0
INSERT
  5
7CA4
  8
0
  2
YA_N
 10
63.111395363473399
 20
-2207.5990737385559
 30
0.0
 41
1.1404799999999991
 42
1.1404799999999991
 43
1.1404799999999991
  0
INSERT
  5
7CA5
  8
0
  2
YA_N
 10
63.111395363473399
 20
-2207.5990737385559
 30
0.0
 41
1.1404799999999991
 42
1.1404799999999991
 43
1.1404799999999991
  0
INSERT
  5
7CA6
  8
0
  2
YA_N
 10
2068.599843633097
 20
-1871.396847612672
 30
0.0
 41
1.1404799999999991
 42
1.1404799999999991
 43
1.1404799999999991
  0
LINE
  5
7CA7
  8
1
 10
2722.4924823770561
 20
1548.8606332327081
 30
0.0
 11
2722.4924823770561
 21
1623.8606332327081
 31
0.0
  0
INSERT
  5
7CBB
  8
0
  2
YA_N
 10
7517.3489782723964
 20
85.078014923515184
 30
0.0
  0
LINE
  5
7CBF
  8
1
 10
1850.132970334608
 20
2093.8878439055361
 30
0.0
 11
1850.132970334608
 21
1627.893026592965
 31
0.0
  0
LINE
  5
7CC0
  8
1
 10
1850.132970334608
 20
2093.8878439055361
 30
0.0
 11
1875.132970334608
 21
2093.8878439055361
 31
0.0
  0
LINE
  5
7CC1
  8
1
 10
1875.132970334608
 20
1627.893026592965
 30
0.0
 11
1850.132970334608
 21
1627.893026592965
 31
0.0
  0
LINE
  5
7CC3
  8
1
 10
3565.7924823770559
 20
2278.8606332327081
 30
0.0
 11
3539.7924823770559
 21
2278.8606332327081
 31
0.0
  0
LINE
  5
7CC4
  8
1
 10
3565.7924823770559
 20
1878.8606332327081
 30
0.0
 11
3539.792482377055
 21
1878.8606332327081
 31
0.0
  0
LINE
  5
7CC5
  8
1
 10
1845.1329581562941
 20
4014.2481158478681
 30
0.0
 11
1570.1329581562941
 21
4014.2481158478649
 31
0.0
  0
LINE
  5
7CC6
  8
1
 10
1845.1329581562941
 20
3714.2481158478658
 30
0.0
 11
1570.1329581562941
 21
3714.2481158478649
 31
0.0
  0
LINE
  5
7CC7
  8
1
 10
1590.1329581562929
 20
3191.7481158478658
 30
0.0
 11
1590.132958156295
 21
3714.2481158478681
 31
0.0
  0
LINE
  5
7CC8
  8
1
 10
1550.1329581562941
 20
3191.7481158478658
 30
0.0
 11
1550.1329581562941
 21
3714.2481158478649
 31
0.0
  0
LINE
  5
7CC9
  8
2
 10
1570.1329581562941
 20
3119.2048087611929
 30
0.0
 11
1570.1329581562941
 21
4091.1110169064441
 31
0.0
  0
LINE
  5
7CCB
  8
1
 10
1720.1329581562941
 20
3218.7481158478672
 30
0.0
 11
920.13295815629499
 21
3218.7481158478649
 31
0.0
  0
LINE
  5
7CCC
  8
1
 10
1720.1329581562941
 20
3126.7481158478672
 30
0.0
 11
920.13295815629499
 21
3126.7481158478649
 31
0.0
  0
LINE
  5
7CCD
  8
1
 10
1671.6329581562941
 20
3156.7481158478672
 30
0.0
 11
960.13295815629499
 21
3156.7481158478649
 31
0.0
  0
LINE
  5
7CCE
  8
1
 10
1671.6329581562941
 20
3191.7481158478672
 30
0.0
 11
960.13295815629499
 21
3191.7481158478649
 31
0.0
  0
LINE
  5
7CCF
  8
1
 10
1748.3329581562959
 20
3231.0481158478619
 30
0.0
 11
1590.1329581562941
 21
3231.0481158478628
 31
0.0
  0
LINE
  5
7CD0
  8
1
 10
920.13295815629499
 20
3126.7481158478649
 30
0.0
 11
920.13295815629499
 21
3218.7481158478649
 31
0.0
  0
LINE
  5
7CD1
  8
1
 10
960.13295815629499
 20
3156.7481158478649
 30
0.0
 11
960.13295815629499
 21
3191.7481158478649
 31
0.0
  0
LINE
  5
7CDC
  8
1
 10
1720.1329581562941
 20
3126.7481158478672
 30
0.0
 11
1720.1329581562941
 21
3218.7481158478672
 31
0.0
  0
LINE
  5
7CDD
  8
1
 10
1671.6329581562941
 20
3156.7481158478672
 30
0.0
 11
1671.6329581562941
 21
3191.7481158478658
 31
0.0
  0
LINE
  5
7CDE
  8
2
 10
1935.7460603819691
 20
3864.2481158478658
 30
0.0
 11
1181.5552025572831
 21
3864.2481158478658
 31
0.0
1001
ACAD
1000
ASC_BOUNDS
1002
{
1070
    19
1002
}
  0
LINE
  5
7CDF
  8
1
 10
1468.6329581562941
 20
3156.7481158478672
 30
0.0
 11
1468.6329581562941
 21
3191.7481158478658
 31
0.0
  0
LINE
  5
7CE0
  8
1
 10
1060.132958156295
 20
3156.7481158478658
 30
0.0
 11
1060.132958156295
 21
3191.7481158478649
 31
0.0
  0
LINE
  5
7CE1
  8
1
 10
1391.932958156294
 20
3687.248115847864
 30
0.0
 11
1550.132958156295
 21
3687.248115847864
 31
0.0
  0
LINE
  5
7CE2
  8
1
 10
1748.3329581562959
 20
3231.0481158478619
 30
0.0
 11
1748.3329581562959
 21
3687.248115847864
 31
0.0
  0
LINE
  5
7CE3
  8
1
 10
1391.9329581562949
 20
3231.0481158478642
 30
0.0
 11
1391.932958156294
 21
3687.248115847864
 31
0.0
  0
LINE
  5
7CE4
  8
1
 10
1590.1329581562941
 20
3687.2481158478649
 30
0.0
 11
1748.3329581562959
 21
3687.248115847864
 31
0.0
  0
LINE
  5
7CE5
  8
1
 10
1550.1329581562941
 20
3231.0481158478628
 30
0.0
 11
1391.932958156294
 21
3231.0481158478628
 31
0.0
  0
LINE
  5
7CE6
  8
1
 10
1024.7328581562949
 20
3239.2481158478658
 30
0.0
 11
1024.7328581562949
 21
3234.2481158478658
 31
0.0
  0
LINE
  5
7CE7
  8
1
 10
995.53295815629542
 20
3239.2481158478658
 30
0.0
 11
995.53295815629542
 21
3234.2481158478658
 31
0.0
  0
LINE
  5
7CE8
  8
2
 10
1010.132958156295
 20
3603.1619534498791
 30
0.0
 11
1010.132958156295
 21
3115.3584324055842
 31
0.0
  0
LINE
  5
7CE9
  8
1
 10
1024.132958156295
 20
3234.2481158478658
 30
0.0
 11
1024.132958156295
 21
3191.7481158478649
 31
0.0
  0
LINE
  5
7CEA
  8
1
 10
996.13295815629488
 20
3234.2481158478658
 30
0.0
 11
996.1329581562951
 21
3191.7481158478649
 31
0.0
  0
LINE
  5
7CEB
  8
1
 10
995.53295815629542
 20
3234.2481158478658
 30
0.0
 11
1024.7328581562949
 21
3234.2481158478658
 31
0.0
  0
LINE
  5
7CEC
  8
1
 10
1110.132958156295
 20
3540.2481158478658
 30
0.0
 11
910.13295815629499
 21
3540.2481158478658
 31
0.0
  0
LINE
  5
7CED
  8
1
 10
910.13295815629499
 20
3245.2481158478658
 30
0.0
 11
1110.132958156295
 21
3245.2481158478658
 31
0.0
  0
LINE
  5
7CEE
  8
1
 10
1110.132958156295
 20
3367.2481158478658
 30
0.0
 11
1110.132958156295
 21
3540.2481158478658
 31
0.0
  0
LINE
  5
7CEF
  8
1
 10
1110.132958156295
 20
3367.2481158478658
 30
0.0
 11
1110.132958156295
 21
3245.2481158478658
 31
0.0
  0
LINE
  5
7CF0
  8
1
 10
1047.1329581562941
 20
3239.2481158478658
 30
0.0
 11
973.13295815629488
 21
3239.2481158478658
 31
0.0
  0
ARC
  5
7CF1
  8
1
 10
1047.1329581562941
 20
3242.2481158478658
 30
0.0
 40
2.9998999999999989
 50
269.9987999999999
 51
0.0011999999999358
  0
LINE
  5
7CF2
  8
1
 10
1050.132958156295
 20
3245.2481158478658
 30
0.0
 11
1050.132958156295
 21
3242.2481158478658
 31
0.0
  0
LINE
  5
7CF3
  8
1
 10
970.13295815629499
 20
3245.2481158478658
 30
0.0
 11
970.13295815629499
 21
3242.2481158478658
 31
0.0
  0
ARC
  5
7CF4
  8
1
 10
973.1328581562957
 20
3242.2481158478658
 30
0.0
 40
2.9998999999999989
 50
179.9987999999999
 51
270.00119999999998
  0
LINE
  5
7CF5
  8
1
 10
910.13295815629499
 20
3245.2481158478658
 30
0.0
 11
910.13295815629499
 21
3540.2481158478658
 31
0.0
  0
POLYLINE
  5
7CF7
  8
1
 66
     1
 10
0.0
 20
0.0
 30
0.0
  0
VERTEX
  5
83D5
  8
1
 10
1875.131217441128
 20
1654.8879703437549
 30
0.0
  0
VERTEX
  5
83D6
  8
1
 10
1570.132970334608
 20
1676.8878439055361
 30
0.0
 42
-0.4142136619238977
  0
VERTEX
  5
83D7
  8
1
 10
1228.1329805312589
 20
2078.8879703437551
 30
0.0
 42
-0.4425993610286298
  0
SEQEND
  5
83D8
  8
1
  0
POLYLINE
  5
7CFC
  8
1
 66
     1
 10
0.0
 20
0.0
 30
0.0
  0
VERTEX
  5
83D9
  8
1
 10
1228.0068402051679
 20
2078.8879703437551
 30
0.0
 42
-0.4127781407665704
  0
VERTEX
  5
83DA
  8
1
 10
1570.132958156295
 20
2360.8879703437551
 30
0.0
  0
SEQEND
  5
83DB
  8
1
  0
LINE
  5
7D00
  8
1
 10
1875.13296213998
 20
2093.8878439055361
 30
0.0
 11
1875.1328383808161
 21
1627.893026592965
 31
0.0
  0
LINE
  5
7D01
  8
2
 10
1062.5298175905809
 20
2078.8879703437551
 30
0.0
 11
1949.9662521582241
 21
2078.8879703437551
 31
0.0
  0
LINE
  5
7D02
  8
1
 10
855.13297143530781
 20
1548.8879703437549
 30
0.0
 11
1785.1329714353069
 21
1548.8879703437549
 31
0.0
  0
LINE
  5
7D03
  8
1
 10
855.13297143530781
 20
1623.8879703437549
 30
0.0
 11
1785.1329714353069
 21
1623.8879703437549
 31
0.0
  0
LINE
  5
7D09
  8
2
 10
1570.132958156295
 20
1548.8879703437549
 30
0.0
 11
1570.132958156295
 21
2462.9607354976151
 31
0.0
  0
LINE
  5
7D0A
  8
1
 10
1803.995441643541
 20
2066.8879703437542
 30
0.0
 11
1875.1329549693389
 21
2066.8879703437551
 31
0.0
  0
DIMENSION
  5
7D0B
  8
3
  2
*D7
 10
1969.494116649468
 20
2066.8879703437551
 30
0.0
 11
1919.494116649468
 21
1860.8879703437549
 31
0.0
 70
     0
 13
1875.131217441128
 23
1654.8879703437549
 33
0.0
 14
1875.1329549693389
 24
2066.8879703437551
 34
0.0
 50
270.0
1001
ACAD
1000
DSTYLE
1002
{
1070
   287
1070
     3
1070
    40
1040
20.0
1070
   143
1040
0.039
1070
   172
1070
     1
1070
   271
1070
     0
1070
   279
1070
     0
1070
   288
1070
     1
1002
}
  0
LINE
  5
7D0E
  8
1
 10
1570.1329581562941
 20
4014.2481158478681
 30
0.0
 11
1228.1329581562941
 21
4014.2481158478649
 31
0.0
  0
LINE
  5
7D0F
  8
1
 10
1570.1329581562941
 20
3714.2481158478649
 30
0.0
 11
1228.1329581562941
 21
3714.2481158478649
 31
0.0
  0
POLYLINE
  5
7D11
  8
1
 66
     1
 10
0.0
 20
0.0
 30
0.0
  0
VERTEX
  5
83E5
  8
1
 10
1570.132958156295
 20
2360.8879703437551
 30
0.0
 42
-0.3877288018366425
  0
VERTEX
  5
83E6
  8
1
 10
1806.8804216781309
 20
2101.8878439055361
 30
0.0
 42
-0.0411443795973027
  0
VERTEX
  5
83E7
  8
1
 10
1803.995441643541
 20
2066.8879703437542
 30
0.0
 42
-0.3936265759256327
  0
SEQEND
  5
83E8
  8
1
  0
DIMENSION
  5
7D16
  8
3
  2
*D8
 10
1570.132958156295
 20
2523.4242394433518
 30
0.0
 11
1722.632960148137
 21
2573.4242394433518
 31
0.0
 70
     0
 13
1875.13296213998
 23
2093.8878439055361
 33
0.0
 14
1570.132958156295
 24
2462.9607354976151
 34
0.0
1001
ACAD
1000
DSTYLE
1002
{
1070
   287
1070
     3
1070
    40
1040
20.0
1070
   143
1040
0.039
1070
   172
1070
     1
1070
   271
1070
     0
1070
   279
1070
     0
1070
   288
1070
     1
1002
}
  0
DIMENSION
  5
7D17
  8
3
  2
*D9
 10
1228.1329805312589
 20
2523.4242394433518
 30
0.0
 11
1399.1329693437769
 21
2573.4242394433518
 31
0.0
 70
     0
 13
1570.132958156295
 23
2462.9607354976151
 33
0.0
 14
1228.1329805312589
 24
2078.8879703437551
 34
0.0
1001
ACAD
1000
DSTYLE
1002
{
1070
   287
1070
     3
1070
    40
1040
20.0
1070
   143
1040
0.039
1070
   172
1070
     1
1070
   271
1070
     0
1070
   279
1070
     0
1070
   288
1070
     1
1002
}
  0
DIMENSION
  5
7D18
  8
3
  2
*D10
 10
2065.8054448660691
 20
1654.8879703437549
 30
0.0
 11
2015.8054448660689
 21
1866.8879703437549
 31
0.0
 70
     0
 13
1949.9662521582241
 23
2078.8879703437551
 33
0.0
 14
1875.131217441128
 24
1654.8879703437549
 34
0.0
 50
270.0
1001
ACAD
1000
DSTYLE
1002
{
1070
   287
1070
     3
1070
    40
1040
20.0
1070
   143
1040
0.039
1070
   172
1070
     1
1070
   271
1070
     0
1070
   279
1070
     0
1070
   288
1070
     1
1002
}
  0
DIMENSION
  5
7D19
  8
3
  2
*D11
 10
2154.4301217200282
 20
2078.8879703437551
 30
0.0
 11
2104.4301217200282
 21
2219.8879703437551
 31
0.0
 70
     0
 13
1570.132958156295
 23
2360.8879703437551
 33
0.0
 14
1949.9662521582241
 24
2078.8879703437551
 34
0.0
 50
270.0
1001
ACAD
1000
DSTYLE
1002
{
1070
   287
1070
     3
1070
    40
1040
20.0
1070
   143
1040
0.039
1070
   172
1070
     1
1070
   271
1070
     0
1070
   279
1070
     0
1070
   288
1070
     1
1002
}
  0
DIMENSION
  5
7D1A
  8
3
  2
*D12
 10
2154.4301217200282
 20
1548.8879703437549
 30
0.0
 11
2104.4301217200282
 21
1813.8879703437549
 31
0.0
 70
     0
 13
1949.9662521582241
 23
2078.8879703437551
 33
0.0
 14
1785.1329714353069
 24
1548.8879703437549
 34
0.0
 50
270.0
1001
ACAD
1000
DSTYLE
1002
{
1070
   287
1070
     3
1070
    40
1040
20.0
1070
   143
1040
0.039
1070
   172
1070
     1
1070
   271
1070
     0
1070
   279
1070
     0
1070
   288
1070
     1
1002
}
  0
LINE
  5
7D20
  8
1
 10
3235.192482377056
 20
2340.8606332327081
 30
0.0
 11
3539.792482377055
 21
2340.8606332327081
 31
0.0
  0
LINE
  5
7D21
  8
1
 10
3235.192482377056
 20
1654.8606332327081
 30
0.0
 11
3539.792482377055
 21
1654.8606332327081
 31
0.0
  0
LINE
  5
7D22
  8
1
 10
3235.192482377056
 20
2066.8606332327081
 30
0.0
 11
3539.792482377055
 21
2066.8606332327081
 31
0.0
  0
LINE
  5
7D23
  8
1
 10
3210.192482377056
 20
2058.8606332327081
 30
0.0
 11
3210.192482377056
 21
1981.1606332327081
 31
0.0
  0
LINE
  5
7D24
  8
1
 10
3564.792482377055
 20
1876.128582425139
 30
0.0
 11
3564.792482377055
 21
1623.8606332327081
 31
0.0
  0
LINE
  5
7D25
  8
1
 10
3235.192482377056
 20
1629.8606332327081
 30
0.0
 11
3539.792482377055
 21
1629.8606332327081
 31
0.0
  0
LINE
  5
7D26
  8
1
 10
3539.792482377055
 20
2066.8606332327081
 30
0.0
 11
3235.192482377056
 21
1654.8606332327081
 31
0.0
  0
LINE
  5
7D27
  8
1
 10
3235.192482377056
 20
2066.8606332327081
 30
0.0
 11
3539.792482377055
 21
1654.8606332327081
 31
0.0
  0
LINE
  5
7D28
  8
2
 10
2834.4568870145408
 20
1763.887970343754
 30
0.0
 11
2641.0557369829421
 21
1763.887970343754
 31
0.0
  0
LINE
  5
7D29
  8
1
 10
2754.2924823770559
 20
1749.887970343754
 30
0.0
 11
2714.9924823770571
 21
1749.887970343754
 31
0.0
  0
LINE
  5
7D2A
  8
1
 10
2754.2924823770559
 20
1777.887970343754
 30
0.0
 11
2714.9924823770571
 21
1777.887970343754
 31
0.0
  0
LINE
  5
7D2C
  8
1
 10
1228.1329581562941
 20
3714.2481158478649
 30
0.0
 11
1228.1329581562941
 21
4014.2481158478649
 31
0.0
  0
LINE
  5
7D2D
  8
1
 10
1875.1329581562941
 20
3684.2481158478672
 30
0.0
 11
1875.1329581562929
 21
4044.2481158478658
 31
0.0
  0
LINE
  5
7D2F
  8
1
 10
1875.1329581562941
 20
4044.2481158478672
 30
0.0
 11
1845.1329581562941
 21
4044.2481158478658
 31
0.0
  0
LINE
  5
7D30
  8
1
 10
1875.1329581562941
 20
3684.2481158478672
 30
0.0
 11
1845.1329581562941
 21
3684.2481158478672
 31
0.0
  0
LINE
  5
80B9
  8
4
 10
3700.0
 20
1000.0
 30
0.0
 11
3700.0
 21
600.0
 31
0.0
  0
LINE
  5
80BA
  8
4
 10
2300.0
 20
1000.0
 30
0.0
 11
2300.0
 21
600.0
 31
0.0
  0
LINE
  5
80BB
  8
4
 10
1300.0
 20
1000.0
 30
0.0
 11
1300.0
 21
600.0
 31
0.0
  0
LINE
  5
80BE
  8
4
 10
1300.0
 20
600.0
 30
0.0
 11
3700.0
 21
600.0
 31
0.0
  0
LINE
  5
80BF
  8
4
 10
1300.0
 20
800.0
 30
0.0
 11
3700.0
 21
800.0
 31
0.0
  0
TEXT
  5
80C0
  8
4
 10
1377.0041616938031
 20
863.08605173322564
 30
0.0
 40
100.0
  1
機器名称
  0
TEXT
  5
80C1
  8
4
 10
1372.516212049595
 20
643.29031346402189
 30
0.0
 40
100.0
  1
機器型番
  0
TEXT
  5
80C2
  8
4
 10
2355.3574909753288
 20
845.14353791513713
 30
0.0
 40
85.0
  1
ミツヤ多翼送風機
  0
TEXT
  5
80C3
  8
4
 10
2373.3089911709608
 20
634.31916855988675
 30
0.0
 40
100.0
  1
MF#2 1/2-1
  0
TEXT
  5
80C5
  8
4
 10
1471.474836981891
 20
4766.8576826650306
 30
0.0
 40
107.9999999999999
  1
床置ベット
  0
TEXT
  5
80C6
  8
4
 10
582.33518665889278
 20
5067.7619523985959
 30
0.0
 40
144.0
  1
遠心式片吸込片持多翼ファン
  0
LINE
  5
80C7
  8
4
 10
500.0
 20
4938.8175085296089
 30
0.0
 11
3700.0
 21
4938.8175085296089
 31
0.0
  0
LINE
  5
80C8
  8
4
 10
500.0
 20
5338.8175085296098
 30
0.0
 11
3700.0
 21
5338.8175085296098
 31
0.0
  0
LINE
  5
80C9
  8
4
 10
1300.0
 20
1000.0
 30
0.0
 11
3700.0
 21
1000.0
 31
0.0
  0
LINE
  5
80CA
  8
4
 10
500.0
 20
5338.8175085296098
 30
0.0
 11
500.0
 21
4938.8175085296089
 31
0.0
  0
TEXT
  5
80CB
  8
4
 10
599.75717249648733
 20
4764.638955092687
 30
0.0
 40
107.9999999999999
  1
左回転右横向
  0
TEXT
  5
80CC
  8
4
 10
2937.9391184985789
 20
5412.1221629906177
 30
0.0
 40
112.0
  1
No.
  0
TEXT
  5
80CD
  8
4
 10
2622.5921252000262
 20
4766.8576826650306
 30
0.0
 40
107.9999999999999
  1
縮尺：1/20
  0
LINE
  5
80CE
  8
4
 10
3700.0
 20
5338.8175085296098
 30
0.0
 11
3700.0
 21
4938.8175085296089
 31
0.0
  0
LINE
  5
80CF
  8
4
 10
4200.0
 20
5900.0
 30
0.0
 11
4200.0
 21
5900.0
 31
0.0
  0
LINE
  5
80D0
  8
4
 10
2881.2348447197292
 20
5362.5271662508021
 30
0.0
 11
2881.2348447197292
 21
5573.3045230995049
 31
0.0
  0
LINE
  5
80D1
  8
4
 10
2881.2348447197292
 20
5573.3045230995049
 30
0.0
 11
3700.0
 21
5573.3045230995049
 31
0.0
  0
LINE
  5
80D2
  8
4
 10
3700.0
 20
5573.3045230995049
 30
0.0
 11
3700.0
 21
5362.5271662508021
 31
0.0
  0
LINE
  5
80D3
  8
4
 10
3700.0
 20
5362.5271662508021
 30
0.0
 11
2881.2348447197292
 21
5362.5271662508021
 31
0.0
  0
LINE
  5
80D4
  8
4
 10
0.0
 20
0.0
 30
0.0
 11
0.0
 21
5900.0
 31
0.0
  0
LINE
  5
80D5
  8
4
 10
0.0
 20
5900.0
 30
0.0
 11
4200.0
 21
5900.0
 31
0.0
  0
LINE
  5
80D6
  8
4
 10
4200.0
 20
5900.0
 30
0.0
 11
4200.0
 21
0.0
 31
0.0
  0
LINE
  5
80D7
  8
4
 10
4200.0
 20
0.0
 30
0.0
 11
0.0
 21
0.0
 31
0.0
  0
INSERT
  5
80D9
  8
0
  2
YA_N
 10
96.0
 20
80.0
 30
0.0
 41
16.0
 42
16.0
 43
16.0
  0
INSERT
  5
80DA
  8
0
  2
YA_N
 10
96.0
 20
80.0
 30
0.0
 41
16.0
 42
16.0
 43
16.0
  0
INSERT
  5
80DB
  8
0
  2
YA_N
 10
96.0
 20
80.0
 30
0.0
 41
16.0
 42
16.0
 43
16.0
  0
INSERT
  5
80DC
  8
0
  2
YA_N
 10
96.0
 20
80.0
 30
0.0
 41
16.0
 42
16.0
 43
16.0
  0
LINE
  5
80E4
  8
1
 10
1845.1329581562941
 20
4044.2481158478658
 30
0.0
 11
1845.1329581562941
 21
3684.2481158478672
 31
0.0
  0
DIMENSION
  5
81DB
  8
3
  2
*D13
 10
855.13297143530781
 20
2643.6560167549051
 30
0.0
 11
1452.858762576263
 21
2643.6560167549051
 31
0.0
 70
   128
 13
1875.13296213998
 23
2093.8878439055361
 33
0.0
 14
855.13297143530781
 24
1623.8879703437549
 34
0.0
1001
ACAD
1000
DSTYLE
1002
{
1070
   287
1070
     3
1070
    40
1040
20.0
1070
   143
1040
0.039
1070
   172
1070
     1
1070
   271
1070
     0
1070
   279
1070
     0
1070
   288
1070
     1
1002
}
  0
LINE
  5
8276
  8
1
 10
1785.1329581562941
 20
4059.2481158478658
 30
0.0
 11
1355.1329581562941
 21
4059.248115847864
 31
0.0
1001
ACAD
1000
ASC_BOUNDS
1002
{
1070
    19
1002
}
  0
LINE
  5
8277
  8
1
 10
1785.1329581562941
 20
3199.2481158478649
 30
0.0
 11
1720.1329581562941
 21
3199.2481158478649
 31
0.0
1001
ACAD
1000
ASC_BOUNDS
1002
{
1070
    19
1002
}
  0
LINE
  5
8278
  8
1
 10
1785.1329581562941
 20
3199.2481158478649
 30
0.0
 11
1785.1329581562929
 21
3714.2481158478658
 31
0.0
  0
LINE
  5
827A
  8
1
 10
855.13295815629397
 20
3199.2481158478658
 30
0.0
 11
855.13295815629397
 21
3619.2481158478649
 31
0.0
  0
LINE
  5
827B
  8
1
 10
1355.1329581562941
 20
3619.2481158478658
 30
0.0
 11
1355.1329581562941
 21
3714.2481158478649
 31
0.0
  0
LINE
  5
827C
  8
1
 10
1355.1329581562941
 20
3619.2481158478658
 30
0.0
 11
855.13295815629442
 21
3619.2481158478658
 31
0.0
1001
ACAD
1000
ASC_BOUNDS
1002
{
1070
    19
1002
}
  0
LINE
  5
827D
  8
1
 10
1785.1329581562929
 20
4014.2481158478672
 30
0.0
 11
1785.1329581562929
 21
4059.2481158478658
 31
0.0
  0
LINE
  5
827E
  8
1
 10
1355.1329581562941
 20
4014.2481158478658
 30
0.0
 11
1355.1329581562941
 21
4059.2481158478658
 31
0.0
  0
LINE
  5
827F
  8
1
 10
920.13295815629476
 20
3199.2481158478649
 30
0.0
 11
855.13295815629419
 21
3199.2481158478658
 31
0.0
1001
ACAD
1000
ASC_BOUNDS
1002
{
1070
    19
1002
}
  0
DIMENSION
  5
828C
  8
3
  2
*D14
 10
1355.1329581562941
 20
4165.1336355990315
 30
0.0
 11
1569.8277849179431
 21
4165.1336355990315
 31
0.0
 70
   128
 13
1785.1329581562929
 23
4059.2481158478658
 33
0.0
 14
1355.1329581562941
 24
4059.248115847864
 34
0.0
1001
ACAD
1000
DSTYLE
1002
{
1070
   287
1070
     3
1070
    40
1040
20.0
1070
   143
1040
0.039
1070
   172
1070
     1
1070
   271
1070
     0
1070
   279
1070
     0
1070
   288
1070
     1
1002
}
  0
DIMENSION
  5
82A3
  8
3
  2
*D15
 10
855.13295815629397
 20
4165.1336355990315
 30
0.0
 11
1105.1329581562941
 21
4215.1336355990306
 31
0.0
 70
     0
 13
1355.1329581562941
 23
4059.248115847864
 33
0.0
 14
855.13295815629397
 24
3619.2481158478658
 34
0.0
1001
ACAD
1000
DSTYLE
1002
{
1070
   287
1070
     4
1070
    40
1040
20.0
1070
    75
1070
     1
1070
   143
1040
0.039
1070
   172
1070
     1
1070
   271
1070
     0
1070
   279
1070
     1
1070
   288
1070
     1
1002
}
  0
DIMENSION
  5
82B0
  8
3
  2
*D16
 10
740.92286713224212
 20
3199.2481158478658
 30
0.0
 11
740.92286713224155
 21
3404.4282933147952
 31
0.0
 70
   128
 13
855.13295815629397
 23
3619.2481158478658
 33
0.0
 14
855.13295815629397
 24
3199.2481158478658
 34
0.0
 50
90.0
1001
ACAD
1000
DSTYLE
1002
{
1070
   287
1070
     3
1070
    40
1040
20.0
1070
   143
1040
0.039
1070
   172
1070
     1
1070
   271
1070
     0
1070
   279
1070
     0
1070
   288
1070
     1
1002
}
  0
DIMENSION
  5
82BD
  8
3
  2
*D17
 10
2047.0760694800299
 20
3199.2481158478649
 30
0.0
 11
2047.0760694800299
 21
3627.796954527561
 31
0.0
 70
   128
 13
1785.1329581562929
 23
4059.2481158478658
 33
0.0
 14
1785.1329581562941
 24
3199.2481158478649
 34
0.0
 50
90.0
1001
ACAD
1000
DSTYLE
1002
{
1070
   287
1070
     3
1070
    40
1040
20.0
1070
   143
1040
0.039
1070
   172
1070
     1
1070
   271
1070
     0
1070
   279
1070
     0
1070
   288
1070
     1
1002
}
  0
LINE
  5
82D2
  8
1
 10
2741.9924823770571
 20
1730.07941617039
 30
0.0
 11
2741.9924823770571
 21
1673.887970343754
 31
0.0
  0
DIMENSION
  5
8349
  8
3
  2
*D18
 10
1570.132958156295
 20
1405.364132506865
 30
0.0
 11
1212.6329647958009
 21
1455.364132506865
 31
0.0
 70
     0
 13
855.13297143530781
 23
1548.8879703437549
 33
0.0
 14
1570.132958156295
 24
1548.8879703437549
 34
0.0
1001
ACAD
1000
DSTYLE
1002
{
1070
   287
1070
     3
1070
    40
1040
20.0
1070
   143
1040
0.039
1070
   172
1070
     1
1070
   271
1070
     0
1070
   279
1070
     0
1002
}
  0
DIMENSION
  5
8358
  8
3
  2
*D19
 10
1785.1329714353069
 20
1405.364132506865
 30
0.0
 11
1677.6329647958009
 21
1455.364132506865
 31
0.0
 70
     0
 13
1570.132958156295
 23
1548.8879703437549
 33
0.0
 14
1785.1329714353069
 24
1548.8879703437549
 34
0.0
1001
ACAD
1000
DSTYLE
1002
{
1070
   287
1070
     3
1070
    40
1040
20.0
1070
   143
1040
0.039
1070
   172
1070
     1
1070
   271
1070
     0
1070
   279
1070
     0
1002
}
  0
DIMENSION
  5
8372
  8
3
  2
*D20
 10
3387.4924823770548
 20
1405.364132506865
 30
0.0
 11
3054.9924823770561
 21
1455.364132506865
 31
0.0
 70
     0
 13
2722.4924823770561
 23
1548.8606332327081
 33
0.0
 14
3387.4924823770548
 24
1548.8606332327081
 34
0.0
1001
ACAD
1000
DSTYLE
1002
{
1070
   287
1070
     3
1070
    40
1040
20.0
1070
   143
1040
0.039
1070
   172
1070
     1
1070
   271
1070
     0
1070
   279
1070
     0
1002
}
  0
DIMENSION
  5
8381
  8
3
  2
*D21
 10
3582.4924823770561
 20
1405.364132506865
 30
0.0
 11
3484.9924823770561
 21
1455.364132506865
 31
0.0
 70
     0
 13
3387.4924823770548
 23
1548.8606332327081
 33
0.0
 14
3582.4924823770561
 24
1548.8606332327081
 34
0.0
1001
ACAD
1000
DSTYLE
1002
{
1070
   287
1070
     3
1070
    40
1040
20.0
1070
   143
1040
0.039
1070
   172
1070
     1
1070
   271
1070
     0
1070
   279
1070
     0
1002
}
  0
DIMENSION
  5
838E
  8
3
  2
*D22
 10
2294.3535269820491
 20
1548.8879703437549
 30
0.0
 11
2244.3535269820482
 21
1954.8879703437549
 31
0.0
 70
     0
 13
1580.132958156295
 23
2360.8879703437551
 33
0.0
 14
1785.1329714353069
 24
1548.8879703437549
 34
0.0
 50
90.0
1001
ACAD
1000
DSTYLE
1002
{
1070
   287
1070
     3
1070
    40
1040
20.0
1070
   143
1040
0.039
1070
   172
1070
     1
1070
   271
1070
     0
1070
   279
1070
     0
1002
}
  0
ENDSEC
  0
EOF
