  0
SECTION
  2
HEADER
  9
$ACADVER
  1
AC1009
  9
$INSBASE
 10
0.0
 20
0.0
 30
0.0
  9
$EXTMIN
 10
0.0
 20
0.0
 30
0.0
  9
$EXTMAX
 10
4200.0
 20
5900.0
 30
0.0
  9
$LIMMIN
 10
0.0
 20
0.0
  9
$LIMMAX
 10
297.0
 20
210.0
  9
$ORTHOMODE
 70
     0
  9
$REGENMODE
 70
     1
  9
$FILLMODE
 70
     0
  9
$QTEXTMODE
 70
     0
  9
$MIRRTEXT
 70
     1
  9
$DRAGMODE
 70
     2
  9
$LTSCALE
 40
100.0
  9
$OSMODE
 70
    37
  9
$ATTMODE
 70
     1
  9
$TEXTSIZE
 40
180.0
  9
$TRACEWID
 40
0.05
  9
$TEXTSTYLE
  7
STANDARD
  9
$CLAYER
  8
3
  9
$CELTYPE
  6
BYLAYER
  9
$CECOLOR
 62
   256
  9
$DIMSCALE
 40
20.0
  9
$DIMASZ
 40
2.0
  9
$DIMEXO
 40
0.5
  9
$DIMDLI
 40
10.0
  9
$DIMRND
 40
0.0
  9
$DIMDLE
 40
0.0
  9
$DIMEXE
 40
1.0
  9
$DIMTP
 40
1.0
  9
$DIMTM
 40
1.0
  9
$DIMTXT
 40
3.0
  9
$DIMCEN
 40
0.0
  9
$DIMTSZ
 40
0.0
  9
$DIMTOL
 70
     0
  9
$DIMLIM
 70
     0
  9
$DIMTIH
 70
     0
  9
$DIMTOH
 70
     0
  9
$DIMSE1
 70
     0
  9
$DIMSE2
 70
     0
  9
$DIMTAD
 70
     1
  9
$DIMZIN
 70
     8
  9
$DIMBLK
  1

  9
$DIMASO
 70
     1
  9
$DIMSHO
 70
     1
  9
$DIMPOST
  1

  9
$DIMAPOST
  1

  9
$DIMALT
 70
     0
  9
$DIMALTD
 70
     2
  9
$DIMALTF
 40
0.039
  9
$DIMLFAC
 40
1.0
  9
$DIMTOFL
 70
     1
  9
$DIMTVP
 40
0.0
  9
$DIMTIX
 70
     0
  9
$DIMSOXD
 70
     0
  9
$DIMSAH
 70
     1
  9
$DIMBLK1
  1
OPEN
  9
$DIMBLK2
  1
OPEN
  9
$DIMSTYLE
  2
IGA
  9
$DIMCLRD
 70
     0
  9
$DIMCLRE
 70
     0
  9
$DIMCLRT
 70
     0
  9
$DIMTFAC
 40
10.0
  9
$DIMGAP
 40
1.0
  9
$LUNITS
 70
     2
  9
$LUPREC
 70
     3
  9
$SKETCHINC
 40
0.1
  9
$FILLETRAD
 40
50.0
  9
$AUNITS
 70
     0
  9
$AUPREC
 70
     0
  9
$MENU
  1
acad
  9
$ELEVATION
 40
0.0
  9
$PELEVATION
 40
0.0
  9
$THICKNESS
 40
0.0
  9
$LIMCHECK
 70
     0
  9
$BLIPMODE
 70
     0
  9
$CHAMFERA
 40
0.5
  9
$CHAMFERB
 40
0.5
  9
$SKPOLY
 70
     0
  9
$TDCREATE
 40
2451988.5569730322
  9
$TDUPDATE
 40
2454953.7530423491
  9
$TDINDWG
 40
0.0342725231
  9
$TDUSRTIMER
 40
0.0342725231
  9
$USRTIMER
 70
     1
  9
$ANGBASE
 50
0.0
  9
$ANGDIR
 70
     0
  9
$PDMODE
 70
     0
  9
$PDSIZE
 40
0.0
  9
$PLINEWID
 40
0.0
  9
$COORDS
 70
     1
  9
$SPLFRAME
 70
     0
  9
$SPLINETYPE
 70
     6
  9
$SPLINESEGS
 70
     8
  9
$ATTDIA
 70
     0
  9
$ATTREQ
 70
     1
  9
$HANDLING
 70
 10241
  9
$HANDSEED
  5
8496
  9
$SURFTAB1
 70
     6
  9
$SURFTAB2
 70
     6
  9
$SURFTYPE
 70
     6
  9
$SURFU
 70
     6
  9
$SURFV
 70
     6
  9
$UCSNAME
  2

  9
$UCSORG
 10
0.0
 20
0.0
 30
0.0
  9
$UCSXDIR
 10
1.0
 20
0.0
 30
0.0
  9
$UCSYDIR
 10
0.0
 20
1.0
 30
0.0
  9
$PUCSNAME
  2

  9
$PUCSORG
 10
0.0
 20
0.0
 30
0.0
  9
$PUCSXDIR
 10
1.0
 20
0.0
 30
0.0
  9
$PUCSYDIR
 10
0.0
 20
1.0
 30
0.0
  9
$USERI1
 70
     0
  9
$USERI2
 70
     0
  9
$USERI3
 70
     0
  9
$USERI4
 70
     0
  9
$USERI5
 70
     0
  9
$USERR1
 40
0.0
  9
$USERR2
 40
0.0
  9
$USERR3
 40
0.0
  9
$USERR4
 40
0.0
  9
$USERR5
 40
0.0
  9
$WORLDVIEW
 70
     1
  9
$SHADEDGE
 70
     3
  9
$SHADEDIF
 70
    70
  9
$TILEMODE
 70
     1
  9
$MAXACTVP
 70
    16
  9
$PLIMCHECK
 70
     0
  9
$PEXTMIN
 10
1.0000000000000000E+020
 20
1.0000000000000000E+020
 30
1.0000000000000000E+020
  9
$PEXTMAX
 10
-1.0000000000000000E+020
 20
-1.0000000000000000E+020
 30
-1.0000000000000000E+020
  9
$PLIMMIN
 10
0.0
 20
0.0
  9
$PLIMMAX
 10
12.0
 20
9.0
  9
$UNITMODE
 70
     0
  9
$VISRETAIN
 70
     0
  9
$PLINEGEN
 70
     0
  9
$PSLTSCALE
 70
     1
  0
ENDSEC
  0
SECTION
  2
TABLES
  0
TABLE
  2
VPORT
 70
     2
  0
VPORT
  2
*ACTIVE
 70
     0
 10
0.0
 20
0.0
 11
1.0
 21
1.0
 12
7073.2199177027342
 22
2950.0000137370062
 13
0.0
 23
0.0
 14
10.0
 24
10.0
 15
10.0
 25
10.0
 16
0.0
 26
0.0
 36
1.0
 17
0.0
 27
0.0
 37
0.0
 40
5945.22976603387
 41
3.1666666666666661
 42
50.0
 43
0.0
 44
0.0
 50
0.0
 51
0.0
 71
     0
 72
   100
 73
     1
 74
     0
 75
     0
 76
     0
 77
     0
 78
     0
  0
ENDTAB
  0
TABLE
  2
LTYPE
 70
     2
  0
LTYPE
  2
CONTINUOUS
 70
     0
  3
Solid line
 72
    65
 73
     0
 40
0.0
  0
LTYPE
  2
CENTER
 70
     0
  3
____ _ ____ _ ____ _ ____ _ ____ _ ____ _ ____ 
 72
    65
 73
     4
 40
2.0
 49
1.25
 49
-0.25
 49
0.25
 49
-0.25
  0
ENDTAB
  0
TABLE
  2
LAYER
 70
     6
  0
LAYER
  2
0
 70
     0
 62
     7
  6
CONTINUOUS
  0
LAYER
  2
3
 70
     0
 62
     2
  6
CONTINUOUS
  0
LAYER
  2
2
 70
     0
 62
     3
  6
CENTER
  0
LAYER
  2
1
 70
     0
 62
     4
  6
CONTINUOUS
  0
LAYER
  2
4
 70
     0
 62
     7
  6
CONTINUOUS
  0
LAYER
  2
DEFPOINTS
 70
     0
 62
     7
  6
CONTINUOUS
  0
ENDTAB
  0
TABLE
  2
STYLE
 70
     1
  0
STYLE
  2
STANDARD
 70
     0
 40
0.0
 41
1.0
 50
0.0
 71
     0
 42
180.0
  3
simplex.shx
  4
extfont.shx
  0
ENDTAB
  0
TABLE
  2
VIEW
 70
     0
  0
ENDTAB
  0
TABLE
  2
UCS
 70
     0
  0
ENDTAB
  0
TABLE
  2
APPID
 70
     1
  0
APPID
  2
ACAD
 70
     0
  0
ENDTAB
  0
TABLE
  2
DIMSTYLE
 70
     1
  0
DIMSTYLE
  2
IGA
 70
     0
  3

  4

  5

  6
OPEN
  7
OPEN
 40
2.0
 41
2.0
 42
0.5
 43
10.0
 44
1.0
 45
0.0
 46
0.0
 47
1.0
 48
1.0
140
3.0
141
0.0
142
0.0
143
0.03937
144
1.0
145
0.0
146
10.0
147
1.0
 71
     0
 72
     0
 73
     0
 74
     0
 75
     0
 76
     0
 77
     1
 78
     8
170
     0
171
     2
172
     0
173
     1
174
     0
175
     0
176
     0
177
     0
178
     0
  0
ENDTAB
  0
ENDSEC
  0
SECTION
  2
BLOCKS
  0
BLOCK
  8
0
  2
$MODEL_SPACE
 70
     0
 10
0.0
 20
0.0
 30
0.0
  3
$MODEL_SPACE
  1

  0
ENDBLK
  5
1B
  8
0
  0
BLOCK
 67
     1
  8
0
  2
$PAPER_SPACE
 70
     0
 10
0.0
 20
0.0
 30
0.0
  3
$PAPER_SPACE
  1

  0
ENDBLK
  5
18
 67
     1
  8
0
  0
BLOCK
  8
0
  2
_OPEN
 70
     0
 10
0.0
 20
0.0
 30
0.0
  3
_OPEN
  1

  0
LINE
  5
79FD
  8
0
  6
BYBLOCK
 62
     0
 10
-1.0
 20
0.1666666666666666
 30
0.0
 11
0.0
 21
0.0
 31
0.0
  0
LINE
  5
79FE
  8
0
  6
BYBLOCK
 62
     0
 10
0.0
 20
0.0
 30
0.0
 11
-1.0
 21
-0.1666666666666666
 31
0.0
  0
LINE
  5
79FF
  8
0
  6
BYBLOCK
 62
     0
 10
0.0
 20
0.0
 30
0.0
 11
-1.0
 21
0.0
 31
0.0
  0
ENDBLK
  5
7A01
  8
0
  0
BLOCK
  8
0
  2
YA_N
 70
     0
 10
0.0
 20
0.0
 30
0.0
  3
YA_N
  1

  0
ENDBLK
  5
7A04
  8
0
  0
BLOCK
  8
0
  2
_DOT
 70
     0
 10
0.0
 20
0.0
 30
0.0
  3
_DOT
  1

  0
LINE
  5
82C4
  8
0
  6
BYBLOCK
 62
     0
 10
0.0
 20
0.0
 30
0.0
 11
-1.0
 21
-0.0000000000000284
 31
0.0
  0
POLYLINE
  5
82C5
  8
0
  6
BYBLOCK
 62
     0
 66
     1
 10
0.0
 20
0.0
 30
0.0
 70
     1
 40
0.1666666666666666
 41
0.1666666666666666
  0
VERTEX
  5
844B
  8
0
  6
BYBLOCK
 62
     0
 10
-0.0833333333333286
 20
-0.0000000000000284
 30
0.0
 42
1.0
  0
VERTEX
  5
844C
  8
0
  6
BYBLOCK
 62
     0
 10
0.0833333333333286
 20
-0.0000000000000284
 30
0.0
 42
1.0
  0
SEQEND
  5
844D
  8
0
  6
BYBLOCK
 62
     0
  0
ENDBLK
  5
7AE1
  8
0
  0
BLOCK
  8
0
  2
*D3
 70
     1
 10
0.0
 20
0.0
 30
0.0
  3
*D3
  1

  0
LINE
  5
83D2
  8
3
 62
     0
 10
3659.2954120727782
 20
2183.5231443862131
 30
0.0
 11
3865.1602150745298
 21
2183.5231443862131
 31
0.0
  0
LINE
  5
83D3
  8
3
 62
     0
 10
3659.2954120727782
 20
1783.5231443862131
 30
0.0
 11
3865.1602150745298
 21
1783.5231443862131
 31
0.0
  0
LINE
  5
83D4
  8
3
 62
     0
 10
3845.1602150745289
 20
2143.523144386214
 30
0.0
 11
3845.1602150745289
 21
1823.523144386214
 31
0.0
  0
INSERT
  5
83D5
  8
3
 62
     0
  2
_OPEN
 10
3845.1602150745289
 20
2183.5231443862131
 30
0.0
 41
40.0
 42
40.0
 43
40.0
 50
90.0
  0
INSERT
  5
83D6
  8
3
 62
     0
  2
_OPEN
 10
3845.1602150745289
 20
1783.5231443862131
 30
0.0
 41
40.0
 42
40.0
 43
40.0
 50
270.0
  0
TEXT
  8
3
  40
60
  5
8483
  62
0
  72
0
  71
0
 10
3675.16
 20
1877.32
 30
0.000000
  1
φ400
  0
POINT
  5
83D8
  8
DEFPOINTS
 62
     0
 10
3649.2954120727782
 20
2183.5231443862131
 30
0.0
  0
POINT
  5
83D9
  8
DEFPOINTS
 62
     0
 10
3649.2954120727782
 20
1783.5231443862131
 30
0.0
  0
POINT
  5
83DA
  8
DEFPOINTS
 62
     0
 10
3845.1602150745289
 20
1783.5231443862131
 30
0.0
  0
ENDBLK
  5
82C3
  8
0
  0
BLOCK
  8
0
  2
*D4
 70
     1
 10
0.0
 20
0.0
 30
0.0
  3
*D4
  1

  0
LINE
  5
83E0
  8
3
 62
     0
 10
3345.9954120727771
 20
2419.5452988098332
 30
0.0
 11
3345.9954120727771
 21
2526.7669916102891
 31
0.0
  0
LINE
  5
83E1
  8
3
 62
     0
 10
3645.995412072778
 20
2419.5452988098332
 30
0.0
 11
3645.995412072778
 21
2526.7669916102891
 31
0.0
  0
LINE
  5
83E2
  8
3
 62
     0
 10
3385.9954120727771
 20
2506.7669916102891
 30
0.0
 11
3605.995412072778
 21
2506.7669916102891
 31
0.0
  0
INSERT
  5
83E3
  8
3
 62
     0
  2
_OPEN
 10
3345.9954120727771
 20
2506.7669916102891
 30
0.0
 41
40.0
 42
40.0
 43
40.0
 50
180.0
  0
INSERT
  5
83E4
  8
3
 62
     0
  2
_OPEN
 10
3645.995412072778
 20
2506.7669916102891
 30
0.0
 41
40.0
 42
40.0
 43
40.0
  0
TEXT
  8
3
  40
60
  5
8484
  62
0
  72
0
  71
0
 10
3388.85
 20
2450.57
 30
0.000000
  1
300
  0
POINT
  5
83E6
  8
DEFPOINTS
 62
     0
 10
3345.9954120727771
 20
2409.5452988098318
 30
0.0
  0
POINT
  5
83E7
  8
DEFPOINTS
 62
     0
 10
3645.995412072778
 20
2409.5452988098318
 30
0.0
  0
POINT
  5
83E8
  8
DEFPOINTS
 62
     0
 10
3645.995412072778
 20
2506.7669916102891
 30
0.0
  0
ENDBLK
  5
8043
  8
0
  0
BLOCK
  8
0
  2
*D5
 70
     1
 10
0.0
 20
0.0
 30
0.0
  3
*D5
  1

  0
LINE
  5
83E9
  8
3
 62
     0
 10
2758.4954120727789
 20
2120.1788499895292
 30
0.0
 11
2758.4954120727789
 21
2662.81526982377
 31
0.0
  0
LINE
  5
83EA
  8
3
 62
     0
 10
3495.995412072778
 20
2612.5196403873579
 30
0.0
 11
3495.995412072778
 21
2662.81526982377
 31
0.0
  0
LINE
  5
83EB
  8
3
 62
     0
 10
2798.495412072778
 20
2642.81526982377
 30
0.0
 11
3455.995412072778
 21
2642.81526982377
 31
0.0
  0
INSERT
  5
83EC
  8
3
 62
     0
  2
_OPEN
 10
2758.4954120727789
 20
2642.81526982377
 30
0.0
 41
40.0
 42
40.0
 43
40.0
 50
180.0
  0
INSERT
  5
83ED
  8
3
 62
     0
  2
_OPEN
 10
3495.995412072778
 20
2642.81526982377
 30
0.0
 41
40.0
 42
40.0
 43
40.0
  0
TEXT
  8
3
  40
60
  5
8485
  62
0
  72
0
  71
0
 10
3007.25
 20
2636.62
 30
0.000000
  1
MAX
  0
TEXT
  8
3
  40
60
  5
8486
  62
0
  72
0
  71
0
 10
3007.25
 20
2558.62
 30
0.000000
  1
830
  0
POINT
  5
83EF
  8
DEFPOINTS
 62
     0
 10
2758.4954120727789
 20
2110.1788499895301
 30
0.0
  0
POINT
  5
83F0
  8
DEFPOINTS
 62
     0
 10
3495.995412072778
 20
2602.5196403873588
 30
0.0
  0
POINT
  5
83F1
  8
DEFPOINTS
 62
     0
 10
3495.995412072778
 20
2642.81526982377
 30
0.0
  0
ENDBLK
  5
82F5
  8
0
  0
BLOCK
  8
0
  2
*D6
 70
     1
 10
0.0
 20
0.0
 30
0.0
  3
*D6
  1

  0
LINE
  5
813F
  8
0
  6
BYBLOCK
 62
     0
 10
3495.995412072778
 20
2612.5196403873579
 30
0.0
 11
3495.995412072778
 21
2662.9943679606581
 31
0.0
  0
LINE
  5
8140
  8
0
  6
BYBLOCK
 62
     0
 10
3648.2954120727782
 20
2417.8778492100701
 30
0.0
 11
3648.2954120727782
 21
2662.9943679606581
 31
0.0
  0
LINE
  5
8141
  8
0
  6
BYBLOCK
 62
     0
 10
3535.9954120727771
 20
2642.994367960659
 30
0.0
 11
3608.2954120727782
 21
2642.994367960659
 31
0.0
  0
TEXT
  5
8142
  8
3
 62
     0
 10
3495.682684798544
 20
2671.9528180146108
 30
0.0
 40
60.0
  1
153
  0
INSERT
  5
8143
  8
0
  6
BYBLOCK
 62
     0
  2
_OPEN
 10
3495.995412072778
 20
2642.994367960659
 30
0.0
 41
40.0
 42
40.0
 43
40.0
 50
180.0
  0
INSERT
  5
8144
  8
0
  6
BYBLOCK
 62
     0
  2
_OPEN
 10
3648.2954120727782
 20
2642.994367960659
 30
0.0
 41
40.0
 42
40.0
 43
40.0
  0
POINT
  5
8145
  8
DEFPOINTS
  6
BYBLOCK
 62
     0
 10
3495.995412072778
 20
2602.5196403873588
 30
0.0
  0
POINT
  5
8146
  8
DEFPOINTS
  6
BYBLOCK
 62
     0
 10
3648.2954120727782
 20
2407.8778492100691
 30
0.0
  0
POINT
  5
8147
  8
DEFPOINTS
  6
BYBLOCK
 62
     0
 10
3648.2954120727782
 20
2642.994367960659
 30
0.0
  0
ENDBLK
  5
8148
  8
0
  0
BLOCK
  8
0
  2
*D7
 70
     1
 10
0.0
 20
0.0
 30
0.0
  3
*D7
  1

  0
LINE
  5
83F2
  8
3
 62
     0
 10
909.63303477058707
 20
2407.5506079354782
 30
0.0
 11
779.10922821452186
 21
2407.5506079354782
 31
0.0
  0
LINE
  5
83F3
  8
3
 62
     0
 10
909.63303477058707
 20
1995.5506079354791
 30
0.0
 11
779.10922821452186
 21
1995.5506079354791
 31
0.0
  0
LINE
  5
83F4
  8
3
 62
     0
 10
799.10922821452198
 20
2367.5506079354782
 30
0.0
 11
799.10922821452175
 21
2035.5506079354791
 31
0.0
  0
INSERT
  5
83F5
  8
3
 62
     0
  2
_OPEN
 10
799.10922821452198
 20
2407.5506079354782
 30
0.0
 41
40.0
 42
40.0
 43
40.0
 50
90.0
  0
INSERT
  5
83F6
  8
3
 62
     0
  2
_OPEN
 10
799.10922821452175
 20
1995.5506079354791
 30
0.0
 41
40.0
 42
40.0
 43
40.0
 50
270.0
  0
TEXT
  8
3
  40
60
  5
8487
  62
0
  72
0
  71
0
 10
629.109
 20
2095.35
 30
0.000000
  1
412
  0
POINT
  5
83F8
  8
DEFPOINTS
 62
     0
 10
919.63303477058696
 20
2407.5506079354782
 30
0.0
  0
POINT
  5
83F9
  8
DEFPOINTS
 62
     0
 10
919.63303477058696
 20
1995.5506079354791
 30
0.0
  0
POINT
  5
83FA
  8
DEFPOINTS
 62
     0
 10
799.10922821452175
 20
1995.5506079354791
 30
0.0
  0
ENDBLK
  5
7FEA
  8
0
  0
BLOCK
  8
0
  2
*D8
 70
     1
 10
0.0
 20
0.0
 30
0.0
  3
*D8
  1

  0
LINE
  5
83FB
  8
3
 62
     0
 10
909.63303477058707
 20
2407.5506079354782
 30
0.0
 11
674.30636064481598
 21
2407.5506079354782
 31
0.0
  0
LINE
  5
83FC
  8
3
 62
     0
 10
865.74350173434038
 20
1983.550574155541
 30
0.0
 11
674.30636064481575
 21
1983.550574155541
 31
0.0
  0
LINE
  5
83FD
  8
3
 62
     0
 10
694.30636064481587
 20
2367.5506079354782
 30
0.0
 11
694.30636064481575
 21
2023.550574155541
 31
0.0
  0
INSERT
  5
83FE
  8
3
 62
     0
  2
_OPEN
 10
694.30636064481587
 20
2407.5506079354782
 30
0.0
 41
40.0
 42
40.0
 43
40.0
 50
90.0
  0
INSERT
  5
83FF
  8
3
 62
     0
  2
_OPEN
 10
694.30636064481575
 20
1983.550574155541
 30
0.0
 41
40.0
 42
40.0
 43
40.0
 50
270.0
  0
TEXT
  8
3
  40
60
  5
8488
  62
0
  72
0
  71
0
 10
524.306
 20
2089.35
 30
0.000000
  1
424
  0
POINT
  5
8401
  8
DEFPOINTS
 62
     0
 10
919.63303477058696
 20
2407.5506079354782
 30
0.0
  0
POINT
  5
8402
  8
DEFPOINTS
 62
     0
 10
875.7435017343405
 20
1983.550574155541
 30
0.0
  0
POINT
  5
8403
  8
DEFPOINTS
 62
     0
 10
694.30636064481575
 20
1983.550574155541
 30
0.0
  0
ENDBLK
  5
8081
  8
0
  0
BLOCK
  8
0
  2
*D9
 70
     1
 10
0.0
 20
0.0
 30
0.0
  3
*D9
  1

  0
LINE
  5
8404
  8
3
 62
     0
 10
865.74350173434038
 20
1983.550574155541
 30
0.0
 11
674.30636064481598
 21
1983.550574155541
 31
0.0
  0
LINE
  5
8405
  8
3
 62
     0
 10
999.63304694891485
 20
1608.5505385970671
 30
0.0
 11
674.30636064481575
 21
1608.5505385970671
 31
0.0
  0
LINE
  5
8406
  8
3
 62
     0
 10
694.30636064481587
 20
1943.550574155541
 30
0.0
 11
694.30636064481575
 21
1648.550538597068
 31
0.0
  0
INSERT
  5
8407
  8
3
 62
     0
  2
_OPEN
 10
694.30636064481587
 20
1983.550574155541
 30
0.0
 41
40.0
 42
40.0
 43
40.0
 50
90.0
  0
INSERT
  5
8408
  8
3
 62
     0
  2
_OPEN
 10
694.30636064481575
 20
1608.5505385970671
 30
0.0
 41
40.0
 42
40.0
 43
40.0
 50
270.0
  0
TEXT
  8
3
  40
60
  5
8489
  62
0
  72
0
  71
0
 10
524.306
 20
1689.85
 30
0.000000
  1
375
  0
POINT
  5
840A
  8
DEFPOINTS
 62
     0
 10
875.7435017343405
 20
1983.550574155541
 30
0.0
  0
POINT
  5
840B
  8
DEFPOINTS
 62
     0
 10
1009.6330469489139
 20
1608.5505385970671
 30
0.0
  0
POINT
  5
840C
  8
DEFPOINTS
 62
     0
 10
694.30636064481575
 20
1608.5505385970671
 30
0.0
  0
ENDBLK
  5
808C
  8
0
  0
BLOCK
  8
0
  2
*D10
 70
     1
 10
0.0
 20
0.0
 30
0.0
  3
*D10
  1

  0
LINE
  5
8416
  8
3
 62
     0
 10
919.63303477058696
 20
2444.545425248049
 30
0.0
 11
919.63303477058696
 21
2553.7286763454031
 31
0.0
  0
LINE
  5
8417
  8
3
 62
     0
 10
1224.6330469489001
 20
2456.8951056825022
 30
0.0
 11
1224.6330469489001
 21
2553.7286763454031
 31
0.0
  0
LINE
  5
8418
  8
3
 62
     0
 10
959.63303477058707
 20
2533.7286763454031
 30
0.0
 11
1184.6330469489001
 21
2533.7286763454031
 31
0.0
  0
INSERT
  5
8419
  8
3
 62
     0
  2
_OPEN
 10
919.63303477058696
 20
2533.7286763454031
 30
0.0
 41
40.0
 42
40.0
 43
40.0
 50
180.0
  0
INSERT
  5
841A
  8
3
 62
     0
  2
_OPEN
 10
1224.6330469489001
 20
2533.7286763454031
 30
0.0
 41
40.0
 42
40.0
 43
40.0
  0
TEXT
  8
3
  40
60
  5
848A
  62
0
  72
0
  71
0
 10
952.133
 20
2477.53
 30
0.000000
  1
305
  0
POINT
  5
841C
  8
DEFPOINTS
 62
     0
 10
919.63303477058696
 20
2434.5454252480499
 30
0.0
  0
POINT
  5
841D
  8
DEFPOINTS
 62
     0
 10
1224.6330469489001
 20
2446.8951056825008
 30
0.0
  0
POINT
  5
841E
  8
DEFPOINTS
 62
     0
 10
1224.6330469489001
 20
2533.7286763454031
 30
0.0
  0
ENDBLK
  5
7FAF
  8
0
  0
BLOCK
  8
0
  2
*D11
 70
     1
 10
0.0
 20
0.0
 30
0.0
  3
*D11
  1

  0
LINE
  5
841F
  8
3
 62
     0
 10
919.63303477058696
 20
2444.545425248049
 30
0.0
 11
919.63303477058696
 21
2670.475207600251
 31
0.0
  0
LINE
  5
8420
  8
3
 62
     0
 10
1939.6330469489151
 20
1693.5505385970671
 30
0.0
 11
1939.6330469489151
 21
2670.475207600251
 31
0.0
  0
LINE
  5
8421
  8
3
 62
     0
 10
959.63303477058707
 20
2650.475207600251
 30
0.0
 11
1899.6330469489151
 21
2650.475207600251
 31
0.0
  0
INSERT
  5
8422
  8
3
 62
     0
  2
_OPEN
 10
919.63303477058696
 20
2650.475207600251
 30
0.0
 41
40.0
 42
40.0
 43
40.0
 50
180.0
  0
INSERT
  5
8423
  8
3
 62
     0
  2
_OPEN
 10
1939.6330469489151
 20
2650.475207600251
 30
0.0
 41
40.0
 42
40.0
 43
40.0
  0
TEXT
  8
3
  40
60
  5
848B
  62
0
  72
0
  71
0
 10
1287.91
 20
2594.28
 30
0.000000
  1
1020
  0
POINT
  5
8425
  8
DEFPOINTS
 62
     0
 10
919.63303477058696
 20
2434.5454252480499
 30
0.0
  0
POINT
  5
8426
  8
DEFPOINTS
 62
     0
 10
1939.6330469489151
 20
1683.5505385970671
 30
0.0
  0
POINT
  5
8427
  8
DEFPOINTS
 62
     0
 10
1939.6330469489151
 20
2650.475207600251
 30
0.0
  0
ENDBLK
  5
8232
  8
0
  0
BLOCK
  8
0
  2
*D12
 70
     1
 10
0.0
 20
0.0
 30
0.0
  3
*D12
  1

  0
LINE
  5
8428
  8
3
 62
     0
 10
1009.633046948901
 20
4127.8425233983144
 30
0.0
 11
1009.633046948901
 21
4241.4945402895082
 31
0.0
  0
LINE
  5
8429
  8
3
 62
     0
 10
1439.633046948901
 20
4127.8425233983144
 30
0.0
 11
1439.633046948901
 21
4241.4945402895082
 31
0.0
  0
LINE
  5
842A
  8
3
 62
     0
 10
1049.633046948901
 20
4221.4945402895082
 30
0.0
 11
1399.633046948901
 21
4221.4945402895082
 31
0.0
  0
INSERT
  5
842B
  8
3
 62
     0
  2
_OPEN
 10
1009.633046948901
 20
4221.4945402895082
 30
0.0
 41
40.0
 42
40.0
 43
40.0
 50
180.0
  0
INSERT
  5
842C
  8
3
 62
     0
  2
_OPEN
 10
1439.633046948901
 20
4221.4945402895082
 30
0.0
 41
40.0
 42
40.0
 43
40.0
  0
TEXT
  8
3
  40
60
  5
848C
  62
0
  72
0
  71
0
 10
1105.42
 20
4165.29
 30
0.000000
  1
430
  0
POINT
  5
842E
  8
DEFPOINTS
 62
     0
 10
1009.633046948901
 20
4117.8425233983144
 30
0.0
  0
POINT
  5
842F
  8
DEFPOINTS
 62
     0
 10
1439.633046948901
 20
4117.8425233983144
 30
0.0
  0
POINT
  5
8430
  8
DEFPOINTS
 62
     0
 10
1439.633046948901
 20
4221.4945402895082
 30
0.0
  0
ENDBLK
  5
8291
  8
0
  0
BLOCK
  8
0
  2
*D13
 70
     1
 10
0.0
 20
0.0
 30
0.0
  3
*D13
  1

  0
LINE
  5
8431
  8
3
 62
     0
 10
1939.6330469489001
 20
3687.842523398313
 30
0.0
 11
1939.6330469489001
 21
4241.4945402895082
 31
0.0
  0
LINE
  5
8432
  8
3
 62
     0
 10
1479.633046948901
 20
4221.4945402895082
 30
0.0
 11
1899.6330469489001
 21
4221.4945402895082
 31
0.0
  0
INSERT
  5
8433
  8
3
 62
     0
  2
_OPEN
 10
1439.633046948901
 20
4221.4945402895082
 30
0.0
 41
40.0
 42
40.0
 43
40.0
 50
180.0
  0
INSERT
  5
8434
  8
3
 62
     0
  2
_OPEN
 10
1939.6330469489001
 20
4221.4945402895082
 30
0.0
 41
40.0
 42
40.0
 43
40.0
  0
TEXT
  8
3
  40
60
  5
848D
  62
0
  72
0
  71
0
 10
1569.63
 20
4165.29
 30
0.000000
  1
500
  0
POINT
  5
8436
  8
DEFPOINTS
 62
     0
 10
1439.633046948901
 20
4117.8425233983144
 30
0.0
  0
POINT
  5
8437
  8
DEFPOINTS
 62
     0
 10
1939.6330469489001
 20
3677.842523398313
 30
0.0
  0
POINT
  5
8438
  8
DEFPOINTS
 62
     0
 10
1939.6330469489001
 20
4221.4945402895082
 30
0.0
  0
ENDBLK
  5
829D
  8
0
  0
BLOCK
  8
0
  2
*D14
 70
     1
 10
0.0
 20
0.0
 30
0.0
  3
*D14
  1

  0
LINE
  5
8439
  8
3
 62
     0
 10
999.6330469489011
 20
4117.8425233983144
 30
0.0
 11
770.79199831436256
 21
4117.8425233983144
 31
0.0
  0
LINE
  5
843A
  8
3
 62
     0
 10
999.6330469489011
 20
3257.8425233983148
 30
0.0
 11
770.79199831436244
 21
3257.8425233983148
 31
0.0
  0
LINE
  5
843B
  8
3
 62
     0
 10
790.79199831436256
 20
4077.8425233983139
 30
0.0
 11
790.79199831436244
 21
3297.8425233983139
 31
0.0
  0
INSERT
  5
843C
  8
3
 62
     0
  2
_OPEN
 10
790.79199831436256
 20
4117.8425233983144
 30
0.0
 41
40.0
 42
40.0
 43
40.0
 50
90.0
  0
INSERT
  5
843D
  8
3
 62
     0
  2
_OPEN
 10
790.79199831436244
 20
3257.8425233983148
 30
0.0
 41
40.0
 42
40.0
 43
40.0
 50
270.0
  0
TEXT
  8
3
  40
60
  5
848E
  62
0
  72
0
  71
0
 10
620.792
 20
3637.60
 30
0.000000
  1
860
  0
POINT
  5
843F
  8
DEFPOINTS
 62
     0
 10
1009.633046948901
 20
4117.8425233983144
 30
0.0
  0
POINT
  5
8440
  8
DEFPOINTS
 62
     0
 10
1009.633046948901
 20
3257.8425233983148
 30
0.0
  0
POINT
  5
8441
  8
DEFPOINTS
 62
     0
 10
790.79199831436244
 20
3257.8425233983148
 30
0.0
  0
ENDBLK
  5
82AA
  8
0
  0
BLOCK
  8
0
  2
*D15
 70
     1
 10
0.0
 20
0.0
 30
0.0
  3
*D15
  1

  0
LINE
  5
8442
  8
3
 62
     0
 10
1949.6330469489001
 20
3677.842523398313
 30
0.0
 11
2130.4747676974262
 21
3677.842523398313
 31
0.0
  0
LINE
  5
8443
  8
3
 62
     0
 10
1949.633046948901
 20
3257.842523398313
 30
0.0
 11
2130.4747676974262
 21
3257.842523398313
 31
0.0
  0
LINE
  5
8444
  8
3
 62
     0
 10
2110.4747676974262
 20
3637.8425233983139
 30
0.0
 11
2110.4747676974262
 21
3297.8425233983139
 31
0.0
  0
INSERT
  5
8445
  8
3
 62
     0
  2
_OPEN
 10
2110.4747676974262
 20
3677.842523398313
 30
0.0
 41
40.0
 42
40.0
 43
40.0
 50
90.0
  0
INSERT
  5
8446
  8
3
 62
     0
  2
_OPEN
 10
2110.4747676974262
 20
3257.842523398313
 30
0.0
 41
40.0
 42
40.0
 43
40.0
 50
270.0
  0
TEXT
  8
3
  40
60
  5
848F
  62
0
  72
0
  71
0
 10
1940.47
 20
3349.40
 30
0.000000
  1
420
  0
POINT
  5
8448
  8
DEFPOINTS
 62
     0
 10
1939.6330469489001
 20
3677.842523398313
 30
0.0
  0
POINT
  5
8449
  8
DEFPOINTS
 62
     0
 10
1939.633046948901
 20
3257.842523398313
 30
0.0
  0
POINT
  5
844A
  8
DEFPOINTS
 62
     0
 10
2110.4747676974262
 20
3257.842523398313
 30
0.0
  0
ENDBLK
  5
82B7
  8
0
  0
BLOCK
  8
0
  2
*D16
 70
     1
 10
0.0
 20
0.0
 30
0.0
  3
*D16
  1

  0
LINE
  5
844E
  8
3
 62
     0
 10
1566.400674098672
 20
1993.550390730423
 30
0.0
 11
1566.400674098672
 21
2553.7286763454031
 31
0.0
  0
LINE
  5
844F
  8
3
 62
     0
 10
1264.6330469489001
 20
2533.7286763454031
 30
0.0
 11
1526.4006740986731
 21
2533.7286763454031
 31
0.0
  0
INSERT
  5
8450
  8
3
 62
     0
  2
_OPEN
 10
1224.6330469489001
 20
2533.7286763454031
 30
0.0
 41
40.0
 42
40.0
 43
40.0
 50
180.0
  0
INSERT
  5
8451
  8
3
 62
     0
  2
_OPEN
 10
1566.400674098672
 20
2533.7286763454031
 30
0.0
 41
40.0
 42
40.0
 43
40.0
  0
TEXT
  8
3
  40
60
  5
8490
  62
0
  72
0
  71
0
 10
1275.52
 20
2477.53
 30
0.000000
  1
342
  0
POINT
  5
8453
  8
DEFPOINTS
 62
     0
 10
1224.6330469489001
 20
2446.8951056825008
 30
0.0
  0
POINT
  5
8454
  8
DEFPOINTS
 62
     0
 10
1566.400674098672
 20
1983.550390730423
 30
0.0
  0
POINT
  5
8455
  8
DEFPOINTS
 62
     0
 10
1566.400674098672
 20
2533.7286763454031
 30
0.0
  0
ENDBLK
  5
82E6
  8
0
  0
BLOCK
  8
0
  2
*D17
 70
     1
 10
0.0
 20
0.0
 30
0.0
  3
*D17
  1

  0
LINE
  5
8456
  8
3
 62
     0
 10
1009.6330469489139
 20
1598.5505385970671
 30
0.0
 11
1009.6330469489139
 21
1447.457995230752
 31
0.0
  0
LINE
  5
8457
  8
3
 62
     0
 10
1224.6330469489001
 20
1598.550538597068
 30
0.0
 11
1224.6330469489001
 21
1447.457995230752
 31
0.0
  0
LINE
  5
8458
  8
3
 62
     0
 10
1049.6330469489139
 20
1467.457995230752
 30
0.0
 11
1184.6330469489001
 21
1467.457995230752
 31
0.0
  0
INSERT
  5
8459
  8
3
 62
     0
  2
_OPEN
 10
1009.6330469489139
 20
1467.457995230752
 30
0.0
 41
40.0
 42
40.0
 43
40.0
 50
180.0
  0
INSERT
  5
845A
  8
3
 62
     0
  2
_OPEN
 10
1224.6330469489001
 20
1467.457995230752
 30
0.0
 41
40.0
 42
40.0
 43
40.0
  0
TEXT
  8
3
  40
60
  5
8491
  62
0
  72
0
  71
0
 10
997.133
 20
1411.26
 30
0.000000
  1
215
  0
POINT
  5
845C
  8
DEFPOINTS
 62
     0
 10
1009.6330469489139
 20
1608.5505385970671
 30
0.0
  0
POINT
  5
845D
  8
DEFPOINTS
 62
     0
 10
1224.6330469489001
 20
1608.550538597068
 30
0.0
  0
POINT
  5
845E
  8
DEFPOINTS
 62
     0
 10
1224.6330469489001
 20
1467.457995230752
 30
0.0
  0
ENDBLK
  5
8374
  8
0
  0
BLOCK
  8
0
  2
*D18
 70
     1
 10
0.0
 20
0.0
 30
0.0
  3
*D18
  1

  0
LINE
  5
845F
  8
3
 62
     0
 10
1224.6330469489001
 20
1598.550538597068
 30
0.0
 11
1224.6330469489001
 21
1447.457995230752
 31
0.0
  0
LINE
  5
8460
  8
3
 62
     0
 10
1939.6330469489151
 20
1598.5505385970671
 30
0.0
 11
1939.6330469489151
 21
1447.457995230752
 31
0.0
  0
LINE
  5
8461
  8
3
 62
     0
 10
1264.6330469489001
 20
1467.457995230752
 30
0.0
 11
1899.6330469489151
 21
1467.457995230752
 31
0.0
  0
INSERT
  5
8462
  8
3
 62
     0
  2
_OPEN
 10
1224.6330469489001
 20
1467.457995230752
 30
0.0
 41
40.0
 42
40.0
 43
40.0
 50
180.0
  0
INSERT
  5
8463
  8
3
 62
     0
  2
_OPEN
 10
1939.6330469489151
 20
1467.457995230752
 30
0.0
 41
40.0
 42
40.0
 43
40.0
  0
TEXT
  8
3
  40
60
  5
8492
  62
0
  72
0
  71
0
 10
1462.13
 20
1411.26
 30
0.000000
  1
715
  0
POINT
  5
8465
  8
DEFPOINTS
 62
     0
 10
1224.6330469489001
 20
1608.550538597068
 30
0.0
  0
POINT
  5
8466
  8
DEFPOINTS
 62
     0
 10
1939.6330469489151
 20
1608.5505385970671
 30
0.0
  0
POINT
  5
8467
  8
DEFPOINTS
 62
     0
 10
1939.6330469489151
 20
1467.457995230752
 30
0.0
  0
ENDBLK
  5
8381
  8
0
  0
BLOCK
  8
0
  2
*D19
 70
     1
 10
0.0
 20
0.0
 30
0.0
  3
*D19
  1

  0
LINE
  5
8468
  8
3
 62
     0
 10
2830.995412072778
 20
1598.523144386214
 30
0.0
 11
2830.995412072778
 21
1447.457995230752
 31
0.0
  0
LINE
  5
8469
  8
3
 62
     0
 10
3495.995412072778
 20
1598.523144386214
 30
0.0
 11
3495.995412072778
 21
1447.457995230752
 31
0.0
  0
LINE
  5
846A
  8
3
 62
     0
 10
2870.995412072778
 20
1467.457995230752
 30
0.0
 11
3455.995412072778
 21
1467.457995230752
 31
0.0
  0
INSERT
  5
846B
  8
3
 62
     0
  2
_OPEN
 10
2830.995412072778
 20
1467.457995230752
 30
0.0
 41
40.0
 42
40.0
 43
40.0
 50
180.0
  0
INSERT
  5
846C
  8
3
 62
     0
  2
_OPEN
 10
3495.995412072778
 20
1467.457995230752
 30
0.0
 41
40.0
 42
40.0
 43
40.0
  0
TEXT
  8
3
  40
60
  5
8493
  62
0
  72
0
  71
0
 10
3043.50
 20
1411.26
 30
0.000000
  1
665
  0
POINT
  5
846E
  8
DEFPOINTS
 62
     0
 10
2830.995412072778
 20
1608.523144386214
 30
0.0
  0
POINT
  5
846F
  8
DEFPOINTS
 62
     0
 10
3495.995412072778
 20
1608.523144386214
 30
0.0
  0
POINT
  5
8470
  8
DEFPOINTS
 62
     0
 10
3495.995412072778
 20
1467.457995230752
 30
0.0
  0
ENDBLK
  5
838E
  8
0
  0
BLOCK
  8
0
  2
*D20
 70
     1
 10
0.0
 20
0.0
 30
0.0
  3
*D20
  1

  0
LINE
  5
8471
  8
3
 62
     0
 10
3495.995412072778
 20
1598.523144386214
 30
0.0
 11
3495.995412072778
 21
1447.457995230752
 31
0.0
  0
LINE
  5
8472
  8
3
 62
     0
 10
3690.995412072778
 20
1598.523144386214
 30
0.0
 11
3690.995412072778
 21
1447.457995230752
 31
0.0
  0
LINE
  5
8473
  8
3
 62
     0
 10
3535.9954120727771
 20
1467.457995230752
 30
0.0
 11
3650.995412072778
 21
1467.457995230752
 31
0.0
  0
INSERT
  5
8474
  8
3
 62
     0
  2
_OPEN
 10
3495.995412072778
 20
1467.457995230752
 30
0.0
 41
40.0
 42
40.0
 43
40.0
 50
180.0
  0
INSERT
  5
8475
  8
3
 62
     0
  2
_OPEN
 10
3690.995412072778
 20
1467.457995230752
 30
0.0
 41
40.0
 42
40.0
 43
40.0
  0
TEXT
  8
3
  40
60
  5
8494
  62
0
  72
0
  71
0
 10
3473.50
 20
1411.26
 30
0.000000
  1
195
  0
POINT
  5
8477
  8
DEFPOINTS
 62
     0
 10
3495.995412072778
 20
1608.523144386214
 30
0.0
  0
POINT
  5
8478
  8
DEFPOINTS
 62
     0
 10
3690.995412072778
 20
1608.523144386214
 30
0.0
  0
POINT
  5
8479
  8
DEFPOINTS
 62
     0
 10
3690.995412072778
 20
1467.457995230752
 30
0.0
  0
ENDBLK
  5
839D
  8
0
  0
BLOCK
  8
0
  2
*D21
 70
     1
 10
0.0
 20
0.0
 30
0.0
  3
*D21
  1

  0
LINE
  5
847A
  8
3
 62
     0
 10
909.63303477058707
 20
2434.5454252480499
 30
0.0
 11
535.22470908387572
 21
2434.5454252480499
 31
0.0
  0
LINE
  5
847B
  8
3
 62
     0
 10
999.63304694891485
 20
1608.5505385970671
 30
0.0
 11
535.2247090838755
 21
1608.5505385970671
 31
0.0
  0
LINE
  5
847C
  8
3
 62
     0
 10
555.22470908387572
 20
2394.5454252480499
 30
0.0
 11
555.22470908387538
 21
1648.550538597068
 31
0.0
  0
INSERT
  5
847D
  8
3
 62
     0
  2
_OPEN
 10
555.22470908387572
 20
2434.5454252480499
 30
0.0
 41
40.0
 42
40.0
 43
40.0
 50
90.0
  0
INSERT
  5
847E
  8
3
 62
     0
  2
_OPEN
 10
555.22470908387538
 20
1608.5505385970671
 30
0.0
 41
40.0
 42
40.0
 43
40.0
 50
270.0
  0
TEXT
  8
3
  40
60
  5
8495
  62
0
  72
0
  71
0
 10
385.225
 20
1915.35
 30
0.000000
  1
826
  0
POINT
  5
8480
  8
DEFPOINTS
 62
     0
 10
919.63303477058696
 20
2434.5454252480499
 30
0.0
  0
POINT
  5
8481
  8
DEFPOINTS
 62
     0
 10
1009.6330469489139
 20
1608.5505385970671
 30
0.0
  0
POINT
  5
8482
  8
DEFPOINTS
 62
     0
 10
555.22470908387538
 20
1608.5505385970671
 30
0.0
  0
ENDBLK
  5
83AA
  8
0
  0
ENDSEC
  0
SECTION
  2
ENTITIES
  0
INSERT
  5
7C41
  8
0
  2
YA_N
 10
6.0
 20
5.0
 30
0.0
  0
INSERT
  5
7C42
  8
0
  2
YA_N
 10
6.0
 20
5.0
 30
0.0
  0
INSERT
  5
7C43
  8
0
  2
YA_N
 10
6.0
 20
5.0
 30
0.0
  0
INSERT
  5
7C44
  8
0
  2
YA_N
 10
6.0
 20
5.0
 30
0.0
  0
INSERT
  5
7C45
  8
0
  2
YA_N
 10
6.0
 20
5.0
 30
0.0
  0
INSERT
  5
7C46
  8
0
  2
YA_N
 10
6.0
 20
5.0
 30
0.0
  0
INSERT
  5
7C47
  8
0
  2
YA_N
 10
342.69245559421228
 20
1431.8735170089669
 30
0.0
  0
LINE
  5
7C48
  8
2
 10
2750.9521049861041
 20
1983.523144386214
 30
0.0
 11
3713.0179675226059
 21
1983.523144386214
 31
0.0
  0
LINE
  5
7C49
  8
1
 10
3343.6954120727769
 20
2409.5452988098318
 30
0.0
 11
3343.6954120727792
 21
1970.323144386213
 31
0.0
  0
LINE
  5
7C4A
  8
1
 10
3648.2954120727782
 20
2409.5452988098318
 30
0.0
 11
3648.2954120727782
 21
1970.323144386213
 31
0.0
  0
LINE
  5
7C4B
  8
1
 10
3648.2954120727782
 20
2208.523144386214
 30
0.0
 11
3649.2954120727782
 21
2208.523144386214
 31
0.0
  0
LINE
  5
7C4C
  8
1
 10
3648.2954120727782
 20
1758.5231443862131
 30
0.0
 11
3649.2954120727782
 21
1758.5231443862131
 31
0.0
  0
DIMENSION
  5
7C4D
  8
3
  2
*D3
 10
3845.1602150745289
 20
1783.5231443862131
 30
0.0
 11
3795.160215074528
 21
1983.523144386214
 31
0.0
 70
     0
  1
φ400
 13
3649.2954120727782
 23
2183.5231443862131
 33
0.0
 14
3649.2954120727782
 24
1783.5231443862131
 34
0.0
 50
90.0
1001
ACAD
1000
DSTYLE
1002
{
1070
   287
1070
     3
1070
    40
1040
20.0
1070
   143
1040
0.039
1070
   172
1070
     1
1070
   271
1070
     0
1070
   279
1070
     0
1070
   288
1070
     1
1002
}
  0
LINE
  5
7C4E
  8
1
 10
3270.995412072778
 20
1928.323144386213
 30
0.0
 11
3270.995412072778
 21
1683.523144386214
 31
0.0
  0
LINE
  5
7C4F
  8
1
 10
2855.995412072778
 20
1928.3231443862139
 30
0.0
 11
2876.995412072778
 21
1928.3231443862139
 31
0.0
  0
LINE
  5
7C50
  8
1
 10
3690.995412072778
 20
1683.523144386214
 30
0.0
 11
2870.995412072778
 21
1683.523144386214
 31
0.0
  0
LINE
  5
7C51
  8
1
 10
3690.995412072778
 20
1608.523144386214
 30
0.0
 11
2870.9954120727789
 21
1608.523144386214
 31
0.0
1001
ACAD
1000
ASC_BOUNDS
1002
{
1070
    19
1002
}
  0
LINE
  5
7C52
  8
1
 10
3690.995412072778
 20
1683.523144386214
 30
0.0
 11
3690.995412072778
 21
1608.523144386214
 31
0.0
  0
LINE
  5
7C53
  8
1
 10
1009.6330469489139
 20
1683.5505385970671
 30
0.0
 11
1939.6330469489151
 21
1683.5505385970671
 31
0.0
  0
LINE
  5
7C54
  8
1
 10
1009.6330469489139
 20
1608.5505385970671
 30
0.0
 11
1939.6330469489151
 21
1608.5505385970671
 31
0.0
1001
ACAD
1000
ASC_BOUNDS
1002
{
1070
    19
1002
}
  0
LINE
  5
7C55
  8
1
 10
1009.6330469489139
 20
1683.5505385970671
 30
0.0
 11
1009.6330469489139
 21
1608.5505385970671
 31
0.0
  0
LINE
  5
7C56
  8
1
 10
1939.6330469489151
 20
1683.5505385970671
 30
0.0
 11
1939.6330469489151
 21
1608.5505385970671
 31
0.0
  0
LINE
  5
7C57
  8
1
 10
1029.6330469489001
 20
1928.35048149726
 30
0.0
 11
1419.6330469489001
 21
1928.35048149726
 31
0.0
  0
LINE
  5
7C58
  8
1
 10
1402.8330469488999
 20
1928.35048149726
 30
0.0
 11
1402.8330469488999
 21
1683.550481497261
 31
0.0
  0
LINE
  5
7C59
  8
1
 10
1046.4330469488989
 20
1928.35048149726
 30
0.0
 11
1046.4330469488989
 21
1683.550481497261
 31
0.0
  0
LINE
  5
7C5A
  8
1
 10
3270.995412072778
 20
1879.8231443862139
 30
0.0
 11
3307.6954120727769
 21
1879.8231443862139
 31
0.0
  0
LINE
  5
7C5B
  8
1
 10
3270.995412072778
 20
1885.823144386213
 30
0.0
 11
3307.6954120727769
 21
1885.823144386213
 31
0.0
  0
CIRCLE
  5
7C5C
  8
1
 10
1224.6330469489001
 20
1823.85048149726
 30
0.0
 40
65.0
  0
LINE
  5
7C5D
  8
1
 10
1000.739883645832
 20
1879.85048149726
 30
0.0
 11
1046.4330469488989
 21
1879.85048149726
 31
0.0
  0
LINE
  5
7C5E
  8
1
 10
998.85878049661721
 20
1885.8504814972609
 30
0.0
 11
1046.4330469488989
 21
1885.8504814972609
 31
0.0
  0
LINE
  5
7C5F
  8
1
 10
1402.8330469488999
 20
1885.85048149726
 30
0.0
 11
1540.625607527679
 21
1885.85048149726
 31
0.0
  0
LINE
  5
7C60
  8
1
 10
1402.8330469488999
 20
1879.85048149726
 30
0.0
 11
1537.870303072204
 21
1879.85048149726
 31
0.0
  0
LINE
  5
7C61
  8
1
 10
3674.2954120727782
 20
2183.5231443862131
 30
0.0
 11
3674.2954120727782
 21
1782.523144386214
 31
0.0
  0
LINE
  5
7C62
  8
1
 10
3652.2954120727782
 20
1783.5231443862131
 30
0.0
 11
3652.2954120727768
 21
2183.5231443862131
 31
0.0
  0
LINE
  5
7C63
  8
1
 10
3674.2954120727782
 20
2183.5231443862131
 30
0.0
 11
3674.2954120727782
 21
2184.5231443862131
 31
0.0
  0
ARC
  5
7C64
  8
1
 10
3672.2954120727782
 20
2184.5231443862131
 30
0.0
 40
2.0
 50
0.0
 51
90.0
  0
LINE
  5
7C65
  8
1
 10
3672.2954120727782
 20
2186.5231443862131
 30
0.0
 11
3656.2954120727782
 21
2186.5231443862131
 31
0.0
  0
ARC
  5
7C66
  8
1
 10
3656.2954120727782
 20
2190.5231443862131
 30
0.0
 40
4.0
 50
180.0
 51
270.0
  0
LINE
  5
7C67
  8
1
 10
3652.2954120727782
 20
2190.5231443862131
 30
0.0
 11
3652.2954120727782
 21
2206.5231443862131
 31
0.0
  0
ARC
  5
7C68
  8
1
 10
3650.2954120727782
 20
2206.5231443862131
 30
0.0
 40
2.0
 50
0.0
 51
90.0
  0
LINE
  5
7C69
  8
1
 10
3650.2954120727782
 20
2208.5231443862131
 30
0.0
 11
3649.2954120727782
 21
2208.5231443862131
 31
0.0
  0
LINE
  5
7C6A
  8
1
 10
3674.2954120727782
 20
1783.523144386214
 30
0.0
 11
3674.2954120727782
 21
1782.523144386214
 31
0.0
  0
ARC
  5
7C6B
  8
1
 10
3672.2954120727782
 20
1782.523144386214
 30
0.0
 40
2.0
 50
270.0
 51
0.0
  0
LINE
  5
7C6C
  8
1
 10
3672.2954120727782
 20
1780.523144386214
 30
0.0
 11
3656.2954120727782
 21
1780.523144386214
 31
0.0
  0
ARC
  5
7C6D
  8
1
 10
3656.2954120727782
 20
1776.523144386214
 30
0.0
 40
4.0
 50
90.0
 51
180.0
  0
LINE
  5
7C6E
  8
1
 10
3652.2954120727782
 20
1776.523144386214
 30
0.0
 11
3652.2954120727782
 21
1760.5231443862151
 31
0.0
  0
ARC
  5
7C6F
  8
1
 10
3650.2954120727782
 20
1760.5231443862151
 30
0.0
 40
2.0
 50
270.0
 51
0.0
  0
LINE
  5
7C70
  8
1
 10
3650.2954120727782
 20
1758.523144386214
 30
0.0
 11
3649.2954120727782
 21
1758.523144386214
 31
0.0
  0
LINE
  5
7C71
  8
1
 10
2862.7954120727768
 20
1928.3231443862139
 30
0.0
 11
2862.7954120727768
 21
1852.523144386214
 31
0.0
  0
LINE
  5
7C72
  8
1
 10
3318.995412072778
 20
2434.5452988098318
 30
0.0
 11
3672.995412072778
 21
2434.5452988098318
 31
0.0
  0
LINE
  5
7C73
  8
1
 10
3318.9954120727762
 20
1945.323144386213
 30
0.0
 11
3343.6954120727769
 21
1945.323144386213
 31
0.0
  0
LINE
  5
7C74
  8
1
 10
3672.995412072778
 20
2434.5452988098318
 30
0.0
 11
3672.995412072778
 21
2186.3966437857321
 31
0.0
  0
LINE
  5
7C75
  8
1
 10
3318.995412072778
 20
2434.5452988098318
 30
0.0
 11
3318.9954120727762
 21
2003.523144386214
 31
0.0
  0
LINE
  5
7C76
  8
1
 10
3343.6954120727769
 20
2409.5452988098318
 30
0.0
 11
3648.2954120727782
 21
2409.5452988098318
 31
0.0
  0
LINE
  5
7C77
  8
1
 10
3343.6954120727769
 20
1970.323144386213
 30
0.0
 11
3648.2954120727768
 21
1970.323144386213
 31
0.0
  0
POLYLINE
  5
7C78
  8
1
 66
     1
 10
0.0
 20
0.0
 30
0.0
 70
     1
  0
VERTEX
  5
83DB
  8
1
 10
1919.6330469489001
 20
1683.550481497261
 30
0.0
  0
VERTEX
  5
83DC
  8
1
 10
1649.6330469489001
 20
1683.550481497261
 30
0.0
  0
VERTEX
  5
83DD
  8
1
 10
1659.6330469489001
 20
1723.550481497261
 30
0.0
  0
VERTEX
  5
83DE
  8
1
 10
1909.6330469489001
 20
1723.550481497261
 30
0.0
  0
SEQEND
  5
83DF
  8
1
  0
LINE
  5
7C7E
  8
1
 10
1884.6330469489001
 20
1723.550481497261
 30
0.0
 11
1844.6330469489001
 21
1723.550481497261
 31
0.0
  0
LINE
  5
7C7F
  8
1
 10
1884.6330469489001
 20
1735.550481497261
 30
0.0
 11
1865.1675554507451
 21
1762.5980989321299
 31
0.0
  0
LINE
  5
7C80
  8
1
 10
1825.347274193103
 20
1731.120228333551
 30
0.0
 11
1743.9188197046969
 21
1731.120228333551
 31
0.0
  0
LINE
  5
7C81
  8
1
 10
1884.6330469489001
 20
1723.550481497261
 30
0.0
 11
1884.6330469489001
 21
1735.550481497261
 31
0.0
  0
LINE
  5
7C82
  8
1
 10
1696.6330469489001
 20
1723.550481497261
 30
0.0
 11
1724.6330469489001
 21
1723.550481497261
 31
0.0
  0
LINE
  5
7C83
  8
1
 10
1684.6330469489001
 20
1723.550481497261
 30
0.0
 11
1684.6330469489001
 21
1735.550481497261
 31
0.0
  0
LINE
  5
7C84
  8
1
 10
1684.6330469489001
 20
1735.550481497261
 30
0.0
 11
1704.098538447055
 21
1762.5980989321299
 31
0.0
  0
LINE
  5
7C85
  8
1
 10
1684.6330469489001
 20
1723.550481497261
 30
0.0
 11
1724.6330469489001
 21
1723.550481497261
 31
0.0
  0
LINE
  5
7C86
  8
2
 10
1907.4455715898689
 20
1823.550481497261
 30
0.0
 11
1656.3330469488999
 21
1823.550481497261
 31
0.0
  0
ARC
  5
7C87
  8
1
 10
1784.6330469489001
 20
1823.550481497261
 30
0.0
 40
101.0
 50
293.77281679995468
 51
246.22718320005109
  0
LINE
  5
7C88
  8
2
 10
1784.6330469489001
 20
1664.9164047080101
 30
0.0
 11
1784.6330469489001
 21
1961.872440145572
 31
0.0
  0
CIRCLE
  5
7C89
  8
1
 10
1784.6330469489001
 20
1823.550481497261
 30
0.0
 40
50.0
  0
CIRCLE
  5
7C8A
  8
1
 10
1224.6330469489001
 20
1983.5504814972601
 30
0.0
 40
101.5
  0
ARC
  5
7C8B
  8
1
 10
1784.6330469489001
 20
1823.550481497261
 30
0.0
 40
90.0
 50
261.93007657667482
 51
69.997436487472172
  0
ARC
  5
7C8C
  8
1
 10
1224.6330469489001
 20
1983.5504814972601
 30
0.0
 40
150.0
 50
69.997436487472356
 51
261.93007657667482
  0
LINE
  5
7C8D
  8
1
 10
2823.495412072778
 20
1963.5231443862131
 30
0.0
 11
3343.6954120727769
 21
1963.5231443862131
 31
0.0
  0
LINE
  5
7C8E
  8
1
 10
2823.495412072778
 20
2003.5231443862131
 30
0.0
 11
3343.6954120727792
 21
2003.523144386214
 31
0.0
  0
DIMENSION
  5
7C8F
  8
3
  2
*D4
 10
3645.995412072778
 20
2506.7669916102891
 30
0.0
 11
3508.8525549299202
 21
2506.7669916102891
 31
0.0
 70
   128
 13
3345.9954120727771
 23
2409.5452988098318
 33
0.0
 14
3645.995412072778
 24
2409.5452988098318
 34
0.0
1001
ACAD
1000
DSTYLE
1002
{
1070
   287
1070
     3
1070
    40
1040
20.0
1070
   143
1040
0.039
1070
   172
1070
     1
1070
   271
1070
     0
1070
   279
1070
     0
1070
   288
1070
     1
1002
}
  0
LINE
  5
7C93
  8
1
 10
2823.495412072778
 20
2085.023144386214
 30
0.0
 11
2823.495412072778
 21
1788.523144386214
 31
0.0
  0
LINE
  5
7C94
  8
1
 10
2788.4954120727789
 20
2085.023144386214
 30
0.0
 11
2823.495412072778
 21
2085.023144386214
 31
0.0
  0
LINE
  5
7C95
  8
1
 10
2788.4954120727789
 20
1882.023144386214
 30
0.0
 11
2823.495412072778
 21
1882.0231443862131
 31
0.0
  0
LINE
  5
7C96
  8
1
 10
2788.4954120727789
 20
2085.023144386214
 30
0.0
 11
2788.4954120727789
 21
1788.523144386214
 31
0.0
  0
LINE
  5
7C99
  8
1
 10
2788.4954120727789
 20
1888.523144386214
 30
0.0
 11
2823.495412072778
 21
1888.523144386214
 31
0.0
  0
LINE
  5
7C9A
  8
1
 10
2788.4954120727789
 20
1788.523144386214
 30
0.0
 11
2823.495412072778
 21
1788.523144386214
 31
0.0
  0
LINE
  5
7C9F
  8
1
 10
2758.4954120727789
 20
2133.5231443862131
 30
0.0
 11
2850.4954120727789
 21
2133.5231443862131
 31
0.0
  0
LINE
  5
7CA0
  8
1
 10
2758.4954120727789
 20
1748.523144386214
 30
0.0
 11
2850.4954120727789
 21
1748.523144386214
 31
0.0
  0
LINE
  5
7CA1
  8
1
 10
2758.4954120727789
 20
2133.5231443862131
 30
0.0
 11
2758.4954120727789
 21
1748.523144386214
 31
0.0
  0
LINE
  5
7CA2
  8
1
 10
2850.4954120727789
 20
2133.5231443862131
 30
0.0
 11
2850.4954120727789
 21
2085.7803412347798
 31
0.0
  0
DIMENSION
  5
7CA3
  8
3
  2
*D5
 10
3495.995412072778
 20
2642.81526982377
 30
0.0
 11
3127.245412072778
 21
2642.81526982377
 31
0.0
 70
   128
  1
MAX\P830
 13
2758.4954120727789
 23
2110.1788499895301
 33
0.0
 14
3495.995412072778
 24
2602.5196403873588
 34
0.0
1001
ACAD
1000
DSTYLE
1002
{
1070
   287
1070
     3
1070
    40
1040
20.0
1070
   143
1040
0.039
1070
   172
1070
     1
1070
   271
1070
     0
1070
   279
1070
     0
1070
   288
1070
     1
1002
}
  0
DIMENSION
  5
7CA4
  8
3
  2
*D6
 10
3648.2954120727782
 20
2642.994367960659
 30
0.0
 11
3567.1112562271151
 21
2701.9528180146108
 31
0.0
 70
   128
  1
153
 13
3495.995412072778
 23
2602.5196403873588
 33
0.0
 14
3648.2954120727782
 24
2407.8778492100691
 34
0.0
1001
ACAD
1000
DSTYLE
1002
{
1070
   288
1070
     1
1070
   172
1070
     1
1070
    40
1040
20.0
1070
   271
1070
     0
1070
   143
1040
0.039
1002
}
  0
LINE
  5
7CA5
  8
2
 10
3495.995412072778
 20
2497.4599634736128
 30
0.0
 11
3495.995412072778
 21
1608.523144386214
 31
0.0
1001
ACAD
1000
ASC_BOUNDS
1002
{
1070
    19
1002
}
  0
INSERT
  5
7CA7
  8
0
  2
YA_N
 10
6.0
 20
5.0
 30
0.0
  0
INSERT
  5
7CA8
  8
0
  2
YA_N
 10
96.0
 20
80.0
 30
0.0
 41
16.0
 42
16.0
 43
16.0
  0
INSERT
  5
7CA9
  8
0
  2
YA_N
 10
3261.5724272564862
 20
1521.5703809158081
 30
0.0
  0
INSERT
  5
7CAA
  8
0
  2
YA_N
 10
3261.5724272564862
 20
1521.5703809158081
 30
0.0
  0
INSERT
  5
7CAB
  8
0
  2
YA_N
 10
3598.2648828506981
 20
2948.4438979247761
 30
0.0
  0
INSERT
  5
7CAC
  8
0
  2
YA_N
 10
4266.8004074798646
 20
4391.6121309265727
 30
0.0
  0
INSERT
  5
7CAD
  8
0
  2
YA_N
 10
7315.6595907797891
 20
4128.942743271853
 30
0.0
  0
LINE
  5
7CAE
  8
2
 10
1224.6330469489001
 20
2446.8951056825008
 30
0.0
 11
1224.6330469489001
 21
1608.550538597068
 31
0.0
  0
LINE
  5
7CAF
  8
1
 10
3648.2954120727768
 20
1970.323144386213
 30
0.0
 11
3648.2954120727768
 21
1683.523144386214
 31
0.0
  0
LINE
  5
7CB0
  8
1
 10
3343.6954120727769
 20
1970.323144386213
 30
0.0
 11
3343.6954120727769
 21
1683.523144386214
 31
0.0
  0
INSERT
  5
7CB1
  8
0
  2
YA_N
 10
96.0
 20
80.0
 30
0.0
 41
16.0
 42
16.0
 43
16.0
  0
INSERT
  5
7CB2
  8
0
  2
YA_N
 10
96.0
 20
80.0
 30
0.0
 41
16.0
 42
16.0
 43
16.0
  0
INSERT
  5
7CB7
  8
0
  2
YA_N
 10
96.0
 20
80.0
 30
0.0
 41
16.0
 42
16.0
 43
16.0
  0
INSERT
  5
7CB8
  8
0
  2
YA_N
 10
96.0
 20
80.0
 30
0.0
 41
16.0
 42
16.0
 43
16.0
  0
LINE
  5
7CBD
  8
1
 10
3307.6954120727769
 20
1885.823144386213
 30
0.0
 11
3343.6954120727769
 21
1885.823144386213
 31
0.0
  0
LINE
  5
7CBE
  8
1
 10
3307.6954120727769
 20
1879.8231443862139
 30
0.0
 11
3343.6954120727769
 21
1879.8231443862139
 31
0.0
  0
LINE
  5
7CBF
  8
1
 10
1815.4186437303561
 20
1908.1214400516581
 30
0.0
 11
1275.942374917995
 21
2124.5020790879221
 31
0.0
  0
LINE
  5
7CC0
  8
1
 10
1771.9987106716451
 20
1734.4417078168131
 30
0.0
 11
1203.575819820142
 21
1835.035858696514
 31
0.0
  0
LINE
  5
7CC1
  8
1
 10
1802.5664751731231
 20
1870.223730282047
 30
0.0
 11
1261.037906244077
 21
2078.2971765303769
 31
0.0
  0
LINE
  5
7CC2
  8
1
 10
1775.201977215241
 20
1774.447987429455
 30
0.0
 11
1205.487975389573
 21
1883.872418539615
 31
0.0
  0
INSERT
  5
7CC5
  8
0
  2
YA_N
 10
63.111395363473399
 20
-2207.5990737385559
 30
0.0
 41
1.1404799999999991
 42
1.1404799999999991
 43
1.1404799999999991
  0
INSERT
  5
7CC6
  8
0
  2
YA_N
 10
63.111395363473399
 20
-2207.5990737385559
 30
0.0
 41
1.1404799999999991
 42
1.1404799999999991
 43
1.1404799999999991
  0
INSERT
  5
7CC7
  8
0
  2
YA_N
 10
63.111395363473399
 20
-2207.5990737385559
 30
0.0
 41
1.1404799999999991
 42
1.1404799999999991
 43
1.1404799999999991
  0
INSERT
  5
7CC8
  8
0
  2
YA_N
 10
63.111395363473399
 20
-2207.5990737385559
 30
0.0
 41
1.1404799999999991
 42
1.1404799999999991
 43
1.1404799999999991
  0
INSERT
  5
7CC9
  8
0
  2
YA_N
 10
63.111395363473399
 20
-2207.5990737385559
 30
0.0
 41
1.1404799999999991
 42
1.1404799999999991
 43
1.1404799999999991
  0
INSERT
  5
7CCA
  8
0
  2
YA_N
 10
2068.599843633097
 20
-1871.396847612672
 30
0.0
 41
1.1404799999999991
 42
1.1404799999999991
 43
1.1404799999999991
  0
LINE
  5
7CCB
  8
1
 10
2870.995412072778
 20
1608.523144386214
 30
0.0
 11
2830.995412072778
 21
1608.523144386214
 31
0.0
1001
ACAD
1000
ASC_BOUNDS
1002
{
1070
    19
1002
}
  0
LINE
  5
7CCC
  8
1
 10
2830.995412072778
 20
1608.523144386214
 30
0.0
 11
2830.995412072778
 21
1683.523144386214
 31
0.0
  0
LINE
  5
7CCD
  8
1
 10
2830.995412072778
 20
1683.523144386214
 30
0.0
 11
2870.995412072778
 21
1683.523144386214
 31
0.0
  0
INSERT
  5
7CE5
  8
0
  2
YA_N
 10
7517.3489782723964
 20
85.078014923515184
 30
0.0
  0
LINE
  5
7CEA
  8
2
 10
875.7435017343405
 20
1983.550574155541
 30
0.0
 11
1803.7181069674641
 21
1983.5503277035259
 31
0.0
  0
ARC
  5
7CEB
  8
1
 10
1009.633034770587
 20
2107.5506079354791
 30
0.0
 40
31.0
 50
299.03414805150402
 51
90.0
  0
LINE
  5
7CEC
  8
1
 10
919.63303477058696
 20
1968.550607935478
 30
0.0
 11
919.63303477058696
 21
2434.5454252480499
 31
0.0
  0
LINE
  5
7CED
  8
1
 10
944.63303477058696
 20
1968.550607935478
 30
0.0
 11
944.63303477058696
 21
2434.5454252480499
 31
0.0
  0
LINE
  5
7CEE
  8
1
 10
990.77058444845989
 20
1995.550607935478
 30
0.0
 11
919.63303477058696
 21
1995.5506079354791
 31
0.0
  0
LINE
  5
7CEF
  8
1
 10
944.63303477058696
 20
1968.550607935478
 30
0.0
 11
919.63303477058696
 21
1968.550607935478
 31
0.0
  0
LINE
  5
7CF0
  8
1
 10
924.63303477058707
 20
2125.5506079354782
 30
0.0
 11
1009.633034770587
 21
2138.5506079354791
 31
0.0
  0
LINE
  5
7CF1
  8
1
 10
919.63303477058696
 20
2434.5454252480499
 30
0.0
 11
944.63303477058696
 21
2434.5454252480499
 31
0.0
  0
DIMENSION
  5
7CF2
  8
3
  2
*D7
 10
799.10922821452175
 20
1995.5506079354791
 30
0.0
 11
749.10922821452152
 21
2201.5506079354782
 31
0.0
 70
     0
 13
919.63303477058696
 23
2407.5506079354782
 33
0.0
 14
919.63303477058696
 24
1995.5506079354791
 34
0.0
 50
270.0
1001
ACAD
1000
DSTYLE
1002
{
1070
   287
1070
     3
1070
    40
1040
20.0
1070
   143
1040
0.039
1070
   172
1070
     1
1070
   271
1070
     0
1070
   279
1070
     0
1070
   288
1070
     1
1002
}
  0
DIMENSION
  5
7CF3
  8
3
  2
*D8
 10
694.30636064481575
 20
1983.550574155541
 30
0.0
 11
644.30636064481553
 21
2195.550591045509
 31
0.0
 70
     0
 13
919.63303477058696
 23
2407.5506079354782
 33
0.0
 14
875.7435017343405
 24
1983.550574155541
 34
0.0
 50
270.0
1001
ACAD
1000
DSTYLE
1002
{
1070
   287
1070
     3
1070
    40
1040
20.0
1070
   143
1040
0.039
1070
   172
1070
     1
1070
   271
1070
     0
1070
   279
1070
     0
1070
   288
1070
     1
1002
}
  0
DIMENSION
  5
7CF4
  8
3
  2
*D9
 10
694.30636064481575
 20
1608.5505385970671
 30
0.0
 11
644.30636064481564
 21
1796.050556376304
 31
0.0
 70
     0
 13
875.7435017343405
 23
1983.550574155541
 33
0.0
 14
1009.6330469489139
 24
1608.5505385970671
 34
0.0
 50
270.0
1001
ACAD
1000
DSTYLE
1002
{
1070
   287
1070
     3
1070
    40
1040
20.0
1070
   143
1040
0.039
1070
   172
1070
     1
1070
   271
1070
     0
1070
   279
1070
     0
1070
   288
1070
     1
1002
}
  0
LINE
  5
7CF9
  8
1
 10
3674.2954120727782
 20
2183.5231443862131
 30
0.0
 11
3648.2954120727782
 21
2183.5231443862131
 31
0.0
  0
LINE
  5
7CFA
  8
1
 10
3674.2954120727782
 20
1783.5231443862131
 30
0.0
 11
3648.2954120727768
 21
1783.5231443862131
 31
0.0
  0
LINE
  5
7CFB
  8
1
 10
2876.995412072778
 20
1938.523144386214
 30
0.0
 11
3171.995412072778
 21
1938.523144386214
 31
0.0
  0
LINE
  5
7CFC
  8
1
 10
2998.995412072778
 20
1738.523144386214
 30
0.0
 11
3171.995412072778
 21
1738.5231443862131
 31
0.0
  0
LINE
  5
7CFD
  8
2
 10
3177.326112072778
 20
1838.523144386214
 30
0.0
 11
2751.5503404241099
 21
1838.523144386214
 31
0.0
  0
LINE
  5
7CFE
  8
1
 10
3171.995412072778
 20
1738.5231443862131
 30
0.0
 11
3171.995412072778
 21
1938.523144386214
 31
0.0
  0
LINE
  5
7CFF
  8
1
 10
3082.9954120727789
 20
1683.523144386214
 30
0.0
 11
3082.9954120727789
 21
1738.523144386214
 31
0.0
  0
LINE
  5
7D00
  8
1
 10
2876.995412072778
 20
1938.523144386214
 30
0.0
 11
2876.995412072778
 21
1738.523144386214
 31
0.0
  0
LINE
  5
7D01
  8
1
 10
2998.995412072778
 20
1738.523144386214
 30
0.0
 11
2876.995412072778
 21
1738.523144386214
 31
0.0
  0
LINE
  5
7D02
  8
1
 10
2914.995412072778
 20
1683.523144386214
 30
0.0
 11
2914.995412072778
 21
1738.523144386214
 31
0.0
  0
LINE
  5
7D03
  8
1
 10
2865.9954120727789
 20
1824.523144386214
 30
0.0
 11
2823.495412072778
 21
1824.523144386214
 31
0.0
  0
LINE
  5
7D05
  8
1
 10
2870.9954120727789
 20
1801.523144386214
 30
0.0
 11
2870.9954120727789
 21
1875.523144386214
 31
0.0
  0
LINE
  5
7D06
  8
1
 10
2865.9954120727789
 20
1853.1231443862141
 30
0.0
 11
2865.9954120727789
 21
1823.923244386214
 31
0.0
  0
ARC
  5
7D07
  8
1
 10
2873.995412072778
 20
1801.523144386214
 30
0.0
 40
2.9998999999999989
 50
179.9987999999999
 51
270.00119999999998
  0
LINE
  5
7D08
  8
1
 10
2876.995412072778
 20
1798.523144386214
 30
0.0
 11
2873.995412072778
 21
1798.523144386214
 31
0.0
  0
LINE
  5
7D09
  8
1
 10
2870.9954120727789
 20
1823.923244386214
 30
0.0
 11
2865.9954120727789
 21
1823.923244386214
 31
0.0
  0
LINE
  5
7D0A
  8
1
 10
2870.9954120727789
 20
1853.1231443862141
 30
0.0
 11
2865.9954120727789
 21
1853.1231443862141
 31
0.0
  0
ARC
  5
7D0B
  8
1
 10
2873.995412072778
 20
1875.5232443862139
 30
0.0
 40
2.9998999999999989
 50
89.998799999999989
 51
180.0011999999999
  0
LINE
  5
7D0C
  8
1
 10
2876.995412072778
 20
1878.523144386214
 30
0.0
 11
2873.995412072778
 21
1878.523144386214
 31
0.0
  0
POLYLINE
  5
7D0D
  8
1
 66
     1
 10
0.0
 20
0.0
 30
0.0
  0
VERTEX
  5
840D
  8
1
 10
919.63303477058696
 20
2407.5506079354782
 30
0.0
  0
VERTEX
  5
840E
  8
1
 10
1224.6330347705871
 20
2385.5506079354782
 30
0.0
 42
-0.3908358028773531
  0
VERTEX
  5
840F
  8
1
 10
1567.840751732602
 20
2013.550607935478
 30
0.0
 42
-0.2761963584486631
  0
VERTEX
  5
8410
  8
1
 10
1402.8330469488999
 20
1737.6233886277309
 30
0.0
 42
-0.3762546939936967
  0
SEQEND
  5
8411
  8
1
  0
POLYLINE
  5
7D13
  8
1
 66
     1
 10
0.0
 20
0.0
 30
0.0
  0
VERTEX
  5
8412
  8
1
 10
1046.4330469488989
 20
1796.272479811227
 30
0.0
 42
-0.1728708857373533
  0
VERTEX
  5
8413
  8
1
 10
987.88558342706426
 20
1960.550607935478
 30
0.0
 42
-0.1499846310316867
  0
VERTEX
  5
8414
  8
1
 10
1024.678289691424
 20
2080.4463591104882
 30
0.0
 42
-0.3936265759256327
  0
SEQEND
  5
8415
  8
1
  0
DIMENSION
  5
7D18
  8
3
  2
*D10
 10
1224.6330469489001
 20
2533.7286763454031
 30
0.0
 11
1072.133040859743
 21
2583.7286763454031
 31
0.0
 70
     0
 13
919.63303477058696
 23
2434.5454252480499
 33
0.0
 14
1224.6330469489001
 24
2446.8951056825008
 34
0.0
1001
ACAD
1000
DSTYLE
1002
{
1070
   287
1070
     3
1070
    40
1040
20.0
1070
   143
1040
0.039
1070
   172
1070
     1
1070
   271
1070
     0
1070
   279
1070
     0
1070
   288
1070
     1
1002
}
  0
LINE
  5
7D1C
  8
1
 10
2876.995412072778
 20
1938.523144386214
 30
0.0
 11
2876.995412072778
 21
1928.3231443862139
 31
0.0
  0
LINE
  5
7D1E
  8
1
 10
2862.7954120727768
 20
1852.523144386214
 30
0.0
 11
2823.495412072778
 21
1852.523144386214
 31
0.0
  0
LINE
  5
7D1F
  8
1
 10
3171.995412072778
 20
1928.323144386213
 30
0.0
 11
3171.995412072778
 21
1938.523144386214
 31
0.0
  0
LINE
  5
7D20
  8
1
 10
3648.2954120727782
 20
2409.5452988098318
 30
0.0
 11
3343.6954120727792
 21
1970.323144386213
 31
0.0
  0
LINE
  5
7D21
  8
1
 10
3343.6954120727769
 20
2409.5452988098318
 30
0.0
 11
3648.2954120727782
 21
1970.323144386213
 31
0.0
  0
LINE
  5
7D22
  8
1
 10
944.63304694890121
 20
4072.8425233983139
 30
0.0
 11
1567.633046948901
 21
4072.842523398313
 31
0.0
  0
LINE
  5
7D23
  8
1
 10
944.63304694890121
 20
3772.8425233983148
 30
0.0
 11
1567.6330469489001
 21
3772.842523398313
 31
0.0
  0
LINE
  5
7D24
  8
1
 10
919.63304694890121
 20
4097.8425233983144
 30
0.0
 11
919.63304694890121
 21
3747.8425233983148
 31
0.0
  0
LINE
  5
7D25
  8
1
 10
1567.633046948901
 20
4072.842523398313
 30
0.0
 11
1567.6330469489001
 21
3772.842523398313
 31
0.0
  0
LINE
  5
7D26
  8
1
 10
919.63304694890121
 20
4097.8425233983144
 30
0.0
 11
944.63304694890121
 21
4097.8425233983144
 31
0.0
  0
LINE
  5
7D27
  8
1
 10
919.6330469489003
 20
3747.8425233983148
 30
0.0
 11
944.63304694890121
 21
3747.8425233983148
 31
0.0
  0
LINE
  5
7D28
  8
1
 10
944.63304694890121
 20
4097.8425233983144
 30
0.0
 11
944.63304694890121
 21
3747.8425233983148
 31
0.0
  0
LINE
  5
7D29
  8
1
 10
1204.633046948901
 20
3250.342523398313
 30
0.0
 11
1204.6330469489001
 21
3772.8425233983148
 31
0.0
  0
LINE
  5
7D2A
  8
1
 10
1244.633046948901
 20
3250.342523398313
 30
0.0
 11
1244.633046948901
 21
3772.8425233983139
 31
0.0
  0
LINE
  5
7D2B
  8
2
 10
1224.633046948901
 20
3177.799216311641
 30
0.0
 11
1224.633046948901
 21
4149.7054244568908
 31
0.0
  0
LINE
  5
7D2D
  8
1
 10
1074.633046948901
 20
3277.3425233983139
 30
0.0
 11
1874.6330469489001
 21
3277.342523398313
 31
0.0
  0
LINE
  5
7D2E
  8
1
 10
1074.633046948901
 20
3185.3425233983148
 30
0.0
 11
1874.6330469489001
 21
3185.342523398313
 31
0.0
  0
LINE
  5
7D2F
  8
1
 10
1123.133046948901
 20
3215.3425233983148
 30
0.0
 11
1834.6330469489001
 21
3215.3425233983121
 31
0.0
  0
LINE
  5
7D30
  8
1
 10
1123.133046948901
 20
3250.3425233983148
 30
0.0
 11
1834.6330469489001
 21
3250.3425233983121
 31
0.0
  0
LINE
  5
7D31
  8
1
 10
1046.4330469488989
 20
3289.64252339831
 30
0.0
 11
1204.633046948901
 21
3289.64252339831
 31
0.0
  0
LINE
  5
7D32
  8
1
 10
1874.6330469489001
 20
3185.342523398313
 30
0.0
 11
1874.6330469489001
 21
3277.342523398313
 31
0.0
  0
LINE
  5
7D33
  8
1
 10
1834.6330469489001
 20
3215.3425233983121
 30
0.0
 11
1834.6330469489001
 21
3250.3425233983121
 31
0.0
  0
LINE
  5
7D3E
  8
1
 10
1074.633046948901
 20
3185.3425233983148
 30
0.0
 11
1074.633046948901
 21
3277.3425233983139
 31
0.0
  0
LINE
  5
7D3F
  8
1
 10
1123.133046948901
 20
3215.3425233983148
 30
0.0
 11
1123.133046948901
 21
3250.342523398313
 31
0.0
  0
LINE
  5
7D40
  8
2
 10
859.01994472322622
 20
3922.8425233983139
 30
0.0
 11
1613.210802547912
 21
3922.8425233983139
 31
0.0
1001
ACAD
1000
ASC_BOUNDS
1002
{
1070
    19
1002
}
  0
LINE
  5
7D41
  8
1
 10
1326.133046948901
 20
3215.3425233983148
 30
0.0
 11
1326.133046948901
 21
3250.342523398313
 31
0.0
  0
LINE
  5
7D42
  8
1
 10
1734.6330469489001
 20
3215.342523398313
 30
0.0
 11
1734.6330469489001
 21
3250.342523398313
 31
0.0
  0
LINE
  5
7D43
  8
1
 10
1402.8330469488999
 20
3745.8425233983121
 30
0.0
 11
1244.6330469489001
 21
3745.8425233983121
 31
0.0
  0
LINE
  5
7D44
  8
1
 10
1046.4330469488989
 20
3289.64252339831
 30
0.0
 11
1046.4330469488989
 21
3745.8425233983121
 31
0.0
  0
LINE
  5
7D45
  8
1
 10
1402.8330469488999
 20
3289.6425233983109
 30
0.0
 11
1402.8330469488999
 21
3745.8425233983121
 31
0.0
  0
LINE
  5
7D46
  8
1
 10
1204.633046948901
 20
3745.8425233983121
 30
0.0
 11
1046.4330469488989
 21
3745.8425233983121
 31
0.0
  0
LINE
  5
7D47
  8
1
 10
1244.633046948901
 20
3289.64252339831
 30
0.0
 11
1402.8330469488999
 21
3289.6425233983109
 31
0.0
  0
LINE
  5
7D48
  8
1
 10
1770.0331469488999
 20
3297.8425233983139
 30
0.0
 11
1770.0331469488999
 21
3292.842523398313
 31
0.0
  0
LINE
  5
7D49
  8
1
 10
1799.2330469488991
 20
3297.8425233983139
 30
0.0
 11
1799.2330469488991
 21
3292.842523398313
 31
0.0
  0
LINE
  5
7D4A
  8
2
 10
1784.6330469489001
 20
3661.7563610003272
 30
0.0
 11
1784.6330469489001
 21
3174.685174505863
 31
0.0
  0
LINE
  5
7D4B
  8
1
 10
1770.6330469489001
 20
3292.842523398313
 30
0.0
 11
1770.6330469489001
 21
3250.3425233983121
 31
0.0
  0
LINE
  5
7D4C
  8
1
 10
1798.6330469489001
 20
3292.842523398313
 30
0.0
 11
1798.6330469489001
 21
3250.3425233983121
 31
0.0
  0
LINE
  5
7D4D
  8
1
 10
1799.2330469488991
 20
3292.842523398313
 30
0.0
 11
1770.0331469488999
 21
3292.842523398313
 31
0.0
  0
ARC
  5
7D4E
  8
1
 10
1883.9330469489
 20
3547.342523398313
 30
0.0
 40
1.5
 50
0.0
 51
90.0
  0
LINE
  5
7D4F
  8
1
 10
1684.6330469488989
 20
3598.842523398313
 30
0.0
 11
1884.6330469489001
 21
3598.842523398313
 31
0.0
  0
LINE
  5
7D50
  8
1
 10
1884.6330469489001
 20
3303.842523398313
 30
0.0
 11
1684.6330469489001
 21
3303.842523398313
 31
0.0
  0
LINE
  5
7D51
  8
1
 10
1684.6330469489001
 20
3425.842523398313
 30
0.0
 11
1684.6330469488989
 21
3598.842523398313
 31
0.0
  0
LINE
  5
7D52
  8
1
 10
1684.6330469489001
 20
3425.842523398313
 30
0.0
 11
1684.6330469489001
 21
3303.842523398313
 31
0.0
  0
LINE
  5
7D53
  8
1
 10
1747.6330469489001
 20
3297.8425233983139
 30
0.0
 11
1821.6330469489001
 21
3297.8425233983139
 31
0.0
  0
ARC
  5
7D54
  8
1
 10
1747.6330469489001
 20
3300.842523398313
 30
0.0
 40
2.9998999999999989
 50
179.99879999999999
 51
270.00119999999998
  0
LINE
  5
7D55
  8
1
 10
1744.6330469489001
 20
3303.842523398313
 30
0.0
 11
1744.6330469489001
 21
3300.842523398313
 31
0.0
  0
LINE
  5
7D56
  8
1
 10
1824.6330469489001
 20
3303.842523398313
 30
0.0
 11
1824.6330469489001
 21
3300.842523398313
 31
0.0
  0
ARC
  5
7D57
  8
1
 10
1821.6331469488989
 20
3300.842523398313
 30
0.0
 40
2.9998999999999989
 50
269.99880000000002
 51
0.0012000000000121
  0
LINE
  5
7D58
  8
1
 10
1884.6330469489001
 20
3303.842523398313
 30
0.0
 11
1884.6330469489001
 21
3598.842523398313
 31
0.0
  0
LINE
  5
7D5C
  8
1
 10
3171.995412072778
 20
1928.323144386213
 30
0.0
 11
3270.995412072778
 21
1928.323144386213
 31
0.0
  0
LINE
  5
7D5D
  8
1
 10
2862.7954120727768
 20
1824.523144386214
 30
0.0
 11
2862.7954120727782
 21
1683.523144386214
 31
0.0
  0
LINE
  5
7D5E
  8
1
 10
3318.9954120727762
 20
1963.5231443862131
 30
0.0
 11
3318.9954120727762
 21
1945.323144386213
 31
0.0
  0
LINE
  5
7F44
  8
4
 10
3700.0
 20
1000.0
 30
0.0
 11
3700.0
 21
600.0
 31
0.0
  0
LINE
  5
7F45
  8
4
 10
2300.0
 20
1000.0
 30
0.0
 11
2300.0
 21
600.0
 31
0.0
  0
LINE
  5
7F46
  8
4
 10
1300.0
 20
1000.0
 30
0.0
 11
1300.0
 21
600.0
 31
0.0
  0
LINE
  5
7F49
  8
4
 10
1300.0
 20
600.0
 30
0.0
 11
3700.0
 21
600.0
 31
0.0
  0
LINE
  5
7F4A
  8
4
 10
1300.0
 20
800.0
 30
0.0
 11
3700.0
 21
800.0
 31
0.0
  0
TEXT
  5
7F4B
  8
4
 10
1377.0041616938031
 20
863.08605173322564
 30
0.0
 40
100.0
  1
機器名称
  0
TEXT
  5
7F4C
  8
4
 10
1372.516212049595
 20
643.29031346402189
 30
0.0
 40
100.0
  1
機器型番
  0
TEXT
  5
7F4D
  8
4
 10
2355.3574909753288
 20
845.14353791513713
 30
0.0
 40
85.0
  1
ミツヤ多翼送風機
  0
TEXT
  5
7F4E
  8
4
 10
2373.3089911709608
 20
634.31916855988675
 30
0.0
 40
100.0
  1
MF#2 1/2-1
  0
TEXT
  5
7F50
  8
4
 10
1449.2371647877369
 20
4766.8576826650306
 30
0.0
 40
107.9999999999999
  1
床置ベット
  0
TEXT
  5
7F51
  8
4
 10
582.33518665889278
 20
5067.7619523985959
 30
0.0
 40
144.0
  1
遠心式片吸込片持多翼ファン
  0
LINE
  5
7F52
  8
4
 10
500.0
 20
4938.8175085296089
 30
0.0
 11
3700.0
 21
4938.8175085296089
 31
0.0
  0
LINE
  5
7F53
  8
4
 10
500.0
 20
5338.8175085296098
 30
0.0
 11
3700.0
 21
5338.8175085296098
 31
0.0
  0
LINE
  5
7F54
  8
4
 10
1300.0
 20
1000.0
 30
0.0
 11
3700.0
 21
1000.0
 31
0.0
  0
LINE
  5
7F55
  8
4
 10
500.0
 20
5338.8175085296098
 30
0.0
 11
500.0
 21
4938.8175085296089
 31
0.0
  0
TEXT
  5
7F56
  8
4
 10
577.51950030233274
 20
4764.638955092687
 30
0.0
 40
107.9999999999999
  1
左回転左横向
  0
TEXT
  5
7F57
  8
4
 10
2937.9391184985789
 20
5412.1221629906177
 30
0.0
 40
112.0
  1
No.
  0
TEXT
  5
7F58
  8
4
 10
2622.5921252000262
 20
4766.8576826650306
 30
0.0
 40
107.9999999999999
  1
縮尺：1/20
  0
LINE
  5
7F59
  8
4
 10
3700.0
 20
5338.8175085296098
 30
0.0
 11
3700.0
 21
4938.8175085296089
 31
0.0
  0
LINE
  5
7F5A
  8
4
 10
4200.0
 20
5900.0
 30
0.0
 11
4200.0
 21
5900.0
 31
0.0
  0
LINE
  5
7F5B
  8
4
 10
2881.2348447197292
 20
5362.5271662508021
 30
0.0
 11
2881.2348447197292
 21
5573.3045230995049
 31
0.0
  0
LINE
  5
7F5C
  8
4
 10
2881.2348447197292
 20
5573.3045230995049
 30
0.0
 11
3700.0
 21
5573.3045230995049
 31
0.0
  0
LINE
  5
7F5D
  8
4
 10
3700.0
 20
5573.3045230995049
 30
0.0
 11
3700.0
 21
5362.5271662508021
 31
0.0
  0
LINE
  5
7F5E
  8
4
 10
3700.0
 20
5362.5271662508021
 30
0.0
 11
2881.2348447197292
 21
5362.5271662508021
 31
0.0
  0
LINE
  5
7F5F
  8
4
 10
0.0
 20
0.0
 30
0.0
 11
0.0
 21
5900.0
 31
0.0
  0
LINE
  5
7F60
  8
4
 10
0.0
 20
5900.0
 30
0.0
 11
4200.0
 21
5900.0
 31
0.0
  0
LINE
  5
7F61
  8
4
 10
4200.0
 20
5900.0
 30
0.0
 11
4200.0
 21
0.0
 31
0.0
  0
LINE
  5
7F62
  8
4
 10
4200.0
 20
0.0
 30
0.0
 11
0.0
 21
0.0
 31
0.0
  0
DIMENSION
  5
8233
  8
3
  2
*D11
 10
1939.6330469489151
 20
2650.475207600251
 30
0.0
 11
1407.9058462979219
 21
2650.475207600251
 31
0.0
 70
   128
 13
919.63303477058696
 23
2434.5454252480499
 33
0.0
 14
1939.6330469489151
 24
1683.5505385970671
 34
0.0
1001
ACAD
1000
DSTYLE
1002
{
1070
   287
1070
     3
1070
    40
1040
20.0
1070
   143
1040
0.039
1070
   172
1070
     1
1070
   271
1070
     0
1070
   279
1070
     0
1070
   288
1070
     1
1002
}
  0
LINE
  5
827B
  8
1
 10
1009.633046948901
 20
4117.8425233983144
 30
0.0
 11
1439.633046948901
 21
4117.8425233983144
 31
0.0
1001
ACAD
1000
ASC_BOUNDS
1002
{
1070
    19
1002
}
  0
LINE
  5
827C
  8
1
 10
1009.633046948901
 20
3257.8425233983148
 30
0.0
 11
1074.633046948901
 21
3257.8425233983148
 31
0.0
1001
ACAD
1000
ASC_BOUNDS
1002
{
1070
    19
1002
}
  0
LINE
  5
827D
  8
1
 10
1009.633046948901
 20
3257.8425233983139
 30
0.0
 11
1009.633046948901
 21
3772.8425233983148
 31
0.0
  0
LINE
  5
827E
  8
1
 10
1939.633046948901
 20
3257.842523398313
 30
0.0
 11
1939.6330469489001
 21
3677.842523398313
 31
0.0
  0
LINE
  5
8280
  8
1
 10
1874.6330469489001
 20
3257.842523398313
 30
0.0
 11
1939.633046948901
 21
3257.842523398313
 31
0.0
1001
ACAD
1000
ASC_BOUNDS
1002
{
1070
    19
1002
}
  0
LINE
  5
8282
  8
1
 10
1439.633046948901
 20
3677.8425233983139
 30
0.0
 11
1939.633046948901
 21
3677.842523398313
 31
0.0
1001
ACAD
1000
ASC_BOUNDS
1002
{
1070
    19
1002
}
  0
LINE
  5
8283
  8
1
 10
1439.633046948901
 20
3677.8425233983139
 30
0.0
 11
1439.633046948901
 21
3772.842523398313
 31
0.0
  0
LINE
  5
8284
  8
1
 10
1439.633046948901
 20
4072.842523398313
 30
0.0
 11
1439.633046948901
 21
4117.8425233983144
 31
0.0
  0
LINE
  5
8285
  8
1
 10
1009.633046948901
 20
4072.8425233983139
 30
0.0
 11
1009.633046948901
 21
4117.8425233983144
 31
0.0
  0
DIMENSION
  5
8292
  8
3
  2
*D12
 10
1439.633046948901
 20
4221.4945402895082
 30
0.0
 11
1225.4180600872271
 21
4221.4945402895082
 31
0.0
 70
   128
 13
1009.633046948901
 23
4117.8425233983144
 33
0.0
 14
1439.633046948901
 24
4117.8425233983144
 34
0.0
1001
ACAD
1000
DSTYLE
1002
{
1070
   287
1070
     3
1070
    40
1040
20.0
1070
   143
1040
0.039
1070
   172
1070
     1
1070
   271
1070
     0
1070
   279
1070
     0
1070
   288
1070
     1
1002
}
  0
DIMENSION
  5
829E
  8
3
  2
*D13
 10
1939.6330469489001
 20
4221.4945402895082
 30
0.0
 11
1689.6330469489001
 21
4271.4945402895082
 31
0.0
 70
     0
 13
1439.633046948901
 23
4117.8425233983144
 33
0.0
 14
1939.6330469489001
 24
3677.842523398313
 34
0.0
1001
ACAD
1000
DSTYLE
1002
{
1070
   287
1070
     4
1070
    40
1040
20.0
1070
    75
1070
     1
1070
   143
1040
0.039
1070
   172
1070
     1
1070
   271
1070
     0
1070
   279
1070
     1
1070
   288
1070
     1
1002
}
  0
DIMENSION
  5
82AB
  8
3
  2
*D14
 10
790.79199831436244
 20
3257.8425233983148
 30
0.0
 11
790.79199831436199
 21
3743.800403986872
 31
0.0
 70
   128
 13
1009.633046948901
 23
4117.8425233983144
 33
0.0
 14
1009.633046948901
 24
3257.8425233983148
 34
0.0
 50
90.0
1001
ACAD
1000
DSTYLE
1002
{
1070
   287
1070
     3
1070
    40
1040
20.0
1070
   143
1040
0.039
1070
   172
1070
     1
1070
   271
1070
     0
1070
   279
1070
     0
1070
   288
1070
     1
1002
}
  0
DIMENSION
  5
82B8
  8
3
  2
*D15
 10
2110.4747676974262
 20
3257.842523398313
 30
0.0
 11
2110.4747676974248
 21
3455.6047624727762
 31
0.0
 70
   128
 13
1939.6330469489001
 23
3677.842523398313
 33
0.0
 14
1939.633046948901
 24
3257.842523398313
 34
0.0
 50
90.0
1001
ACAD
1000
DSTYLE
1002
{
1070
   287
1070
     3
1070
    40
1040
20.0
1070
   143
1040
0.039
1070
   172
1070
     1
1070
   271
1070
     0
1070
   279
1070
     0
1070
   288
1070
     1
1002
}
  0
DIMENSION
  5
82DC
  8
3
  2
*D16
 10
1566.400674098672
 20
2533.7286763454031
 30
0.0
 11
1395.5168605237859
 21
2583.7286763454031
 31
0.0
 70
     0
 13
1224.6330469489001
 23
2446.8951056825008
 33
0.0
 14
1566.400674098672
 24
1983.550390730423
 34
0.0
1001
ACAD
1000
DSTYLE
1002
{
1070
   287
1070
     4
1070
    40
1040
20.0
1070
    75
1070
     1
1070
   143
1040
0.039
1070
   172
1070
     1
1070
   271
1070
     0
1070
   279
1070
     1
1070
   288
1070
     1
1002
}
  0
LINE
  5
82FA
  8
1
 10
2850.4954120727789
 20
1796.5747686303851
 30
0.0
 11
2850.4954120727789
 21
1748.523144386214
 31
0.0
  0
DIMENSION
  5
8375
  8
3
  2
*D17
 10
1224.6330469489001
 20
1467.457995230752
 30
0.0
 11
1117.1330469489069
 21
1517.457995230752
 31
0.0
 70
     0
 13
1009.6330469489139
 23
1608.5505385970671
 33
0.0
 14
1224.6330469489001
 24
1608.550538597068
 34
0.0
1001
ACAD
1000
DSTYLE
1002
{
1070
   287
1070
     3
1070
    40
1040
20.0
1070
   143
1040
0.039
1070
   172
1070
     1
1070
   271
1070
     0
1070
   279
1070
     0
1002
}
  0
DIMENSION
  5
8382
  8
3
  2
*D18
 10
1939.6330469489151
 20
1467.457995230752
 30
0.0
 11
1582.133046948908
 21
1517.457995230752
 31
0.0
 70
     0
 13
1224.6330469489001
 23
1608.550538597068
 33
0.0
 14
1939.6330469489151
 24
1608.5505385970671
 34
0.0
1001
ACAD
1000
DSTYLE
1002
{
1070
   287
1070
     3
1070
    40
1040
20.0
1070
   143
1040
0.039
1070
   172
1070
     1
1070
   271
1070
     0
1070
   279
1070
     0
1002
}
  0
DIMENSION
  5
838F
  8
3
  2
*D19
 10
3495.995412072778
 20
1467.457995230752
 30
0.0
 11
3163.495412072778
 21
1517.457995230752
 31
0.0
 70
     0
 13
2830.995412072778
 23
1608.523144386214
 33
0.0
 14
3495.995412072778
 24
1608.523144386214
 34
0.0
1001
ACAD
1000
DSTYLE
1002
{
1070
   287
1070
     3
1070
    40
1040
20.0
1070
   143
1040
0.039
1070
   172
1070
     1
1070
   271
1070
     0
1070
   279
1070
     0
1002
}
  0
DIMENSION
  5
839E
  8
3
  2
*D20
 10
3690.995412072778
 20
1467.457995230752
 30
0.0
 11
3593.495412072778
 21
1517.457995230752
 31
0.0
 70
     0
 13
3495.995412072778
 23
1608.523144386214
 33
0.0
 14
3690.995412072778
 24
1608.523144386214
 34
0.0
1001
ACAD
1000
DSTYLE
1002
{
1070
   287
1070
     3
1070
    40
1040
20.0
1070
   143
1040
0.039
1070
   172
1070
     1
1070
   271
1070
     0
1070
   279
1070
     0
1002
}
  0
DIMENSION
  5
83AB
  8
3
  2
*D21
 10
555.22470908387538
 20
1608.5505385970671
 30
0.0
 11
505.22470908387521
 21
2021.5479819225579
 31
0.0
 70
     0
 13
919.63303477058696
 23
2434.5454252480499
 33
0.0
 14
1009.6330469489139
 24
1608.5505385970671
 34
0.0
 50
90.0
1001
ACAD
1000
DSTYLE
1002
{
1070
   287
1070
     3
1070
    40
1040
20.0
1070
   143
1040
0.039
1070
   172
1070
     1
1070
   271
1070
     0
1070
   279
1070
     0
1002
}
  0
ENDSEC
  0
EOF
