  0
SECTION
  2
HEADER
  9
$ACADVER
  1
AC1015
  9
$ACADMAINTVER
 70
    20
  9
$DWGCODEPAGE
  3
ANSI_932
  9
$INSBASE
 10
0.0
 20
0.0
 30
0.0
  9
$EXTMIN
 10
6845.597715035094
 20
2822.809791742034
 30
0.0
  9
$EXTMAX
 10
9995.597715035096
 20
7247.809791742034
 30
0.0
  9
$LIMMIN
 10
0.0
 20
0.0
  9
$LIMMAX
 10
297.0
 20
210.0
  9
$ORTHOMODE
 70
     1
  9
$REGENMODE
 70
     1
  9
$FILLMODE
 70
     1
  9
$QTEXTMODE
 70
     0
  9
$MIRRTEXT
 70
     0
  9
$LTSCALE
 40
75.0
  9
$ATTMODE
 70
     1
  9
$TEXTSIZE
 40
3.5
  9
$TRACEWID
 40
0.05
  9
$TEXTSTYLE
  7
STANDARD
  9
$CLAYER
  8
1
  9
$CELTYPE
  6
BYLAYER
  9
$CECOLOR
 62
   256
  9
$CELTSCALE
 40
1.0
  9
$DISPSILH
 70
     0
  9
$DIMSCALE
 40
15.0
  9
$DIMASZ
 40
2.5
  9
$DIMEXO
 40
1.0
  9
$DIMDLI
 40
7.0
  9
$DIMRND
 40
0.0
  9
$DIMDLE
 40
0.0
  9
$DIMEXE
 40
1.0
  9
$DIMTP
 40
0.0
  9
$DIMTM
 40
0.0
  9
$DIMTXT
 40
3.0
  9
$DIMCEN
 40
0.0
  9
$DIMTSZ
 40
0.0
  9
$DIMTOL
 70
     0
  9
$DIMLIM
 70
     0
  9
$DIMTIH
 70
     0
  9
$DIMTOH
 70
     0
  9
$DIMSE1
 70
     0
  9
$DIMSE2
 70
     0
  9
$DIMTAD
 70
     1
  9
$DIMZIN
 70
     8
  9
$DIMBLK
  1

  9
$DIMASO
 70
     1
  9
$DIMSHO
 70
     1
  9
$DIMPOST
  1

  9
$DIMAPOST
  1

  9
$DIMALT
 70
     0
  9
$DIMALTD
 70
     2
  9
$DIMALTF
 40
0.03937
  9
$DIMLFAC
 40
1.0
  9
$DIMTOFL
 70
     1
  9
$DIMTVP
 40
0.0
  9
$DIMTIX
 70
     0
  9
$DIMSOXD
 70
     0
  9
$DIMSAH
 70
     1
  9
$DIMBLK1
  1
OPEN
  9
$DIMBLK2
  1
OPEN
  9
$DIMSTYLE
  2
GOD
  9
$DIMCLRD
 70
   256
  9
$DIMCLRE
 70
   256
  9
$DIMCLRT
 70
   256
  9
$DIMTFAC
 40
1.0
  9
$DIMGAP
 40
1.0
  9
$DIMJUST
 70
     0
  9
$DIMSD1
 70
     0
  9
$DIMSD2
 70
     0
  9
$DIMTOLJ
 70
     1
  9
$DIMTZIN
 70
     8
  9
$DIMALTZ
 70
     0
  9
$DIMALTTZ
 70
     0
  9
$DIMUPT
 70
     0
  9
$DIMDEC
 70
     2
  9
$DIMTDEC
 70
     2
  9
$DIMALTU
 70
     2
  9
$DIMALTTD
 70
     2
  9
$DIMTXSTY
  7
STANDARD
  9
$DIMAUNIT
 70
     0
  9
$DIMADEC
 70
     0
  9
$DIMALTRND
 40
0.0
  9
$DIMAZIN
 70
     0
  9
$DIMDSEP
 70
    46
  9
$DIMATFIT
 70
     0
  9
$DIMFRAC
 70
     0
  9
$DIMLDRBLK
  1
OPEN
  9
$DIMLUNIT
 70
     2
  9
$DIMLWD
 70
    -2
  9
$DIMLWE
 70
    -2
  9
$DIMTMOVE
 70
     0
  9
$LUNITS
 70
     2
  9
$LUPREC
 70
     3
  9
$SKETCHINC
 40
0.1
  9
$FILLETRAD
 40
0.0
  9
$AUNITS
 70
     0
  9
$AUPREC
 70
     2
  9
$MENU
  1
acad
  9
$ELEVATION
 40
0.0
  9
$PELEVATION
 40
0.0
  9
$THICKNESS
 40
0.0
  9
$LIMCHECK
 70
     0
  9
$CHAMFERA
 40
0.0
  9
$CHAMFERB
 40
0.0
  9
$CHAMFERC
 40
20.0
  9
$CHAMFERD
 40
0.0
  9
$SKPOLY
 70
     0
  9
$TDCREATE
 40
2454939.604632489
  9
$TDUCREATE
 40
2454939.229632489
  9
$TDUPDATE
 40
2459353.583061505
  9
$TDUUPDATE
 40
2459353.208061505
  9
$TDINDWG
 40
0.1943957060
  9
$TDUSRTIMER
 40
0.1943957060
  9
$USRTIMER
 70
     1
  9
$ANGBASE
 50
0.0
  9
$ANGDIR
 70
     0
  9
$PDMODE
 70
     0
  9
$PDSIZE
 40
1.0
  9
$PLINEWID
 40
0.0
  9
$SPLFRAME
 70
     0
  9
$SPLINETYPE
 70
     6
  9
$SPLINESEGS
 70
     8
  9
$HANDSEED
  5
65F8
  9
$SURFTAB1
 70
     6
  9
$SURFTAB2
 70
     6
  9
$SURFTYPE
 70
     6
  9
$SURFU
 70
     6
  9
$SURFV
 70
     6
  9
$UCSBASE
  2

  9
$UCSNAME
  2

  9
$UCSORG
 10
0.0
 20
0.0
 30
0.0
  9
$UCSXDIR
 10
1.0
 20
0.0
 30
0.0
  9
$UCSYDIR
 10
0.0
 20
1.0
 30
0.0
  9
$UCSORTHOREF
  2

  9
$UCSORTHOVIEW
 70
     0
  9
$UCSORGTOP
 10
0.0
 20
0.0
 30
0.0
  9
$UCSORGBOTTOM
 10
0.0
 20
0.0
 30
0.0
  9
$UCSORGLEFT
 10
0.0
 20
0.0
 30
0.0
  9
$UCSORGRIGHT
 10
0.0
 20
0.0
 30
0.0
  9
$UCSORGFRONT
 10
0.0
 20
0.0
 30
0.0
  9
$UCSORGBACK
 10
0.0
 20
0.0
 30
0.0
  9
$PUCSBASE
  2

  9
$PUCSNAME
  2

  9
$PUCSORG
 10
0.0
 20
0.0
 30
0.0
  9
$PUCSXDIR
 10
1.0
 20
0.0
 30
0.0
  9
$PUCSYDIR
 10
0.0
 20
1.0
 30
0.0
  9
$PUCSORTHOREF
  2

  9
$PUCSORTHOVIEW
 70
     0
  9
$PUCSORGTOP
 10
0.0
 20
0.0
 30
0.0
  9
$PUCSORGBOTTOM
 10
0.0
 20
0.0
 30
0.0
  9
$PUCSORGLEFT
 10
0.0
 20
0.0
 30
0.0
  9
$PUCSORGRIGHT
 10
0.0
 20
0.0
 30
0.0
  9
$PUCSORGFRONT
 10
0.0
 20
0.0
 30
0.0
  9
$PUCSORGBACK
 10
0.0
 20
0.0
 30
0.0
  9
$USERI1
 70
     0
  9
$USERI2
 70
     0
  9
$USERI3
 70
     0
  9
$USERI4
 70
     0
  9
$USERI5
 70
     0
  9
$USERR1
 40
0.0
  9
$USERR2
 40
0.0
  9
$USERR3
 40
0.0
  9
$USERR4
 40
0.0
  9
$USERR5
 40
0.0
  9
$WORLDVIEW
 70
     1
  9
$SHADEDGE
 70
     3
  9
$SHADEDIF
 70
    70
  9
$TILEMODE
 70
     1
  9
$MAXACTVP
 70
    16
  9
$PINSBASE
 10
0.0
 20
0.0
 30
0.0
  9
$PLIMCHECK
 70
     0
  9
$PEXTMIN
 10
1.000000000000000E+20
 20
1.000000000000000E+20
 30
1.000000000000000E+20
  9
$PEXTMAX
 10
-1.000000000000000E+20
 20
-1.000000000000000E+20
 30
-1.000000000000000E+20
  9
$PLIMMIN
 10
0.0
 20
0.0
  9
$PLIMMAX
 10
12.0
 20
9.0
  9
$UNITMODE
 70
     0
  9
$VISRETAIN
 70
     0
  9
$PLINEGEN
 70
     0
  9
$PSLTSCALE
 70
     0
  9
$TREEDEPTH
 70
  3020
  9
$CMLSTYLE
  2
STANDARD
  9
$CMLJUST
 70
     0
  9
$CMLSCALE
 40
20.0
  9
$PROXYGRAPHICS
 70
     1
  9
$MEASUREMENT
 70
     1
  9
$CELWEIGHT
370
    -1
  9
$ENDCAPS
280
     0
  9
$JOINSTYLE
280
     0
  9
$LWDISPLAY
290
     0
  9
$INSUNITS
 70
     0
  9
$HYPERLINKBASE
  1

  9
$STYLESHEET
  1

  9
$XEDIT
290
     1
  9
$CEPSNTYPE
380
     0
  9
$PSTYLEMODE
290
     1
  9
$FINGERPRINTGUID
  2
{A0F129D1-2BC8-11D4-BF85-004026350B0A}
  9
$VERSIONGUID
  2
{CD20FE2D-951A-489F-B98D-7CEDDF12175C}
  9
$EXTNAMES
290
     1
  9
$PSVPSCALE
 40
0.0
  9
$OLESTARTUP
290
     0
  0
ENDSEC
  0
SECTION
  2
CLASSES
  0
CLASS
  1
ACDBDICTIONARYWDFLT
  2
AcDbDictionaryWithDefault
  3
ObjectDBX Classes
 90
        0
280
     0
281
     0
  0
CLASS
  1
ACDBPLACEHOLDER
  2
AcDbPlaceHolder
  3
ObjectDBX Classes
 90
        0
280
     0
281
     0
  0
CLASS
  1
LAYOUT
  2
AcDbLayout
  3
ObjectDBX Classes
 90
        0
280
     0
281
     0
  0
CLASS
  1
DICTIONARYVAR
  2
AcDbDictionaryVar
  3
ObjectDBX Classes
 90
        0
280
     0
281
     0
  0
CLASS
  1
MATERIAL
  2
AcDbMaterial
  3
ObjectDBX Classes
 90
     1153
280
     0
281
     0
  0
CLASS
  1
VISUALSTYLE
  2
AcDbVisualStyle
  3
ObjectDBX Classes
 90
     4095
280
     0
281
     0
  0
CLASS
  1
TABLESTYLE
  2
AcDbTableStyle
  3
ObjectDBX Classes
 90
     4095
280
     0
281
     0
  0
CLASS
  1
SCALE
  2
AcDbScale
  3
ObjectDBX Classes
 90
     1153
280
     0
281
     0
  0
CLASS
  1
MLEADERSTYLE
  2
AcDbMLeaderStyle
  3
ACDB_MLEADERSTYLE_CLASS
 90
     4095
280
     0
281
     0
  0
CLASS
  1
ACDBSECTIONVIEWSTYLE
  2
AcDbSectionViewStyle
  3
ObjectDBX Classes
 90
     1025
280
     0
281
     0
  0
CLASS
  1
ACDBDETAILVIEWSTYLE
  2
AcDbDetailViewStyle
  3
ObjectDBX Classes
 90
     1025
280
     0
281
     0
  0
CLASS
  1
CELLSTYLEMAP
  2
AcDbCellStyleMap
  3
ObjectDBX Classes
 90
     1152
280
     0
281
     0
  0
ENDSEC
  0
SECTION
  2
TABLES
  0
TABLE
  2
VPORT
  5
8
330
0
100
AcDbSymbolTable
 70
     1
  0
VPORT
  5
6347
330
8
100
AcDbSymbolTableRecord
100
AcDbViewportTableRecord
  2
*Active
 70
     0
 10
0.0
 20
0.0
 11
1.0
 21
1.0
 12
8420.462532099705
 22
5035.499253618946
 13
0.0
 23
0.0
 14
5.0
 24
5.0
 15
0.0
 25
0.0
 16
0.0
 26
0.0
 36
1.0
 17
0.0
 27
0.0
 37
0.0
 40
4453.456757939956
 41
2.146341463414634
 42
50.0
 43
0.0
 44
0.0
 50
0.0
 51
0.0
 71
     0
 72
   100
 73
     1
 74
     0
 75
     0
 76
     0
 77
     0
 78
     0
281
     0
 65
     1
110
0.0
120
0.0
130
0.0
111
1.0
121
0.0
131
0.0
112
0.0
122
1.0
132
0.0
 79
     0
146
0.0
1001
ACAD_NAV_VCDISPLAY
1070
     3
  0
ENDTAB
  0
TABLE
  2
LTYPE
  5
5
330
0
100
AcDbSymbolTable
 70
     2
  0
LTYPE
  5
13
330
5
100
AcDbSymbolTableRecord
100
AcDbLinetypeTableRecord
  2
BYBLOCK
 70
     0
  3

 72
    65
 73
     0
 40
0.0
  0
LTYPE
  5
14
330
5
100
AcDbSymbolTableRecord
100
AcDbLinetypeTableRecord
  2
BYLAYER
 70
     0
  3

 72
    65
 73
     0
 40
0.0
  0
LTYPE
  5
15
330
5
100
AcDbSymbolTableRecord
100
AcDbLinetypeTableRecord
  2
CONTINUOUS
 70
     0
  3
Solid line
 72
    65
 73
     0
 40
0.0
  0
LTYPE
  5
1F
330
5
100
AcDbSymbolTableRecord
100
AcDbLinetypeTableRecord
  2
CENTER
 70
     0
  3
____ _ ____ _ ____ _ ____ _ ____ _ ____ _ ____ 
 72
    65
 73
     4
 40
2.0
 49
1.25
 74
     0
 49
-0.25
 74
     0
 49
0.25
 74
     0
 49
-0.25
 74
     0
  0
ENDTAB
  0
TABLE
  2
LAYER
  5
2
102
{ACAD_XDICTIONARY
360
6592
102
}
330
0
100
AcDbSymbolTable
 70
     8
  0
LAYER
  5
F
102
{ACAD_XDICTIONARY
360
6581
102
}
330
2
100
AcDbSymbolTableRecord
100
AcDbLayerTableRecord
  2
0
 70
     0
 62
     7
  6
CONTINUOUS
370
    -3
390
1E91
  0
LAYER
  5
2F
102
{ACAD_XDICTIONARY
360
6583
102
}
330
2
100
AcDbSymbolTableRecord
100
AcDbLayerTableRecord
  2
CT
 70
     0
 62
     3
  6
CENTER
370
    -3
390
1E91
  0
LAYER
  5
30
102
{ACAD_XDICTIONARY
360
6585
102
}
330
2
100
AcDbSymbolTableRecord
100
AcDbLayerTableRecord
  2
FUTO
 70
     0
 62
     4
  6
CONTINUOUS
370
    -3
390
1E91
  0
LAYER
  5
36
102
{ACAD_XDICTIONARY
360
6587
102
}
330
2
100
AcDbSymbolTableRecord
100
AcDbLayerTableRecord
  2
SP
 70
     0
 62
     2
  6
CONTINUOUS
370
    -3
390
1E91
  0
LAYER
  5
1E9B
330
2
100
AcDbSymbolTableRecord
100
AcDbLayerTableRecord
  2
Defpoints
 70
     0
 62
     7
  6
CONTINUOUS
290
     0
370
    -3
390
1E91
  0
LAYER
  5
1EEF
102
{ACAD_XDICTIONARY
360
6589
102
}
330
2
100
AcDbSymbolTableRecord
100
AcDbLayerTableRecord
  2
2
 70
     0
 62
     3
  6
CENTER
370
    -3
390
1E91
  0
LAYER
  5
1EF0
102
{ACAD_XDICTIONARY
360
658B
102
}
330
2
100
AcDbSymbolTableRecord
100
AcDbLayerTableRecord
  2
1
 70
     0
 62
     4
  6
CONTINUOUS
370
    -3
390
1E91
  0
LAYER
  5
2188
102
{ACAD_XDICTIONARY
360
658D
102
}
330
2
100
AcDbSymbolTableRecord
100
AcDbLayerTableRecord
  2
4
 70
     0
 62
     7
  6
CONTINUOUS
370
    -3
390
1E91
  0
ENDTAB
  0
TABLE
  2
STYLE
  5
3
330
0
100
AcDbSymbolTable
 70
     1
  0
STYLE
  5
10
330
3
100
AcDbSymbolTableRecord
100
AcDbTextStyleTableRecord
  2
STANDARD
 70
     0
 40
0.0
 41
1.0
 50
15.0
 71
     0
 42
3.5
  3
C:\Program Files\AutoCAD LT\simplex.shx
  4
C:\Program Files\AutoCAD LT\extfont.shx
  0
ENDTAB
  0
TABLE
  2
VIEW
  5
6
330
0
100
AcDbSymbolTable
 70
     0
  0
ENDTAB
  0
TABLE
  2
UCS
  5
7
330
0
100
AcDbSymbolTable
 70
     0
  0
ENDTAB
  0
TABLE
  2
APPID
  5
9
330
0
100
AcDbSymbolTable
 70
     5
  0
APPID
  5
11
330
9
100
AcDbSymbolTableRecord
100
AcDbRegAppTableRecord
  2
ACAD
 70
     0
  0
APPID
  5
656C
330
9
100
AcDbSymbolTableRecord
100
AcDbRegAppTableRecord
  2
AcadAnnoMonitorAlertIconDisabled
 70
     0
  0
APPID
  5
656D
330
9
100
AcDbSymbolTableRecord
100
AcDbRegAppTableRecord
  2
ACAD_EXEMPT_FROM_CAD_STANDARDS
 70
     0
  0
APPID
  5
6598
330
9
100
AcDbSymbolTableRecord
100
AcDbRegAppTableRecord
  2
ACAD_NAV_VCDISPLAY
 70
     0
  0
APPID
  5
65F3
330
9
100
AcDbSymbolTableRecord
100
AcDbRegAppTableRecord
  2
ACAD_MLEADERVER
 70
     0
  0
ENDTAB
  0
TABLE
  2
DIMSTYLE
  5
A
330
0
100
AcDbSymbolTable
 70
     2
100
AcDbDimStyleTable
 71
     1
340
1E99
  0
DIMSTYLE
105
1D
330
A
100
AcDbSymbolTableRecord
100
AcDbDimStyleTableRecord
  2
STANDARD
 70
     0
340
10
  0
DIMSTYLE
105
1E99
102
{ACAD_REACTORS
330
3F7D
330
3F7E
330
3F82
330
3F81
330
3F7C
330
4A30
330
4A2E
330
4A2F
330
4B1C
330
4B23
330
4B22
330
5BD7
330
5BDA
330
5BDB
330
5F70
330
5F6F
330
5FE6
330
6534
330
6541
102
}
330
A
100
AcDbSymbolTableRecord
100
AcDbDimStyleTableRecord
  2
GOD
 70
     0
 40
15.0
 41
2.5
 42
1.0
 43
7.0
 44
1.0
 73
     0
 74
     0
 77
     1
 78
     8
140
3.0
141
0.0
143
0.03937
147
1.0
172
     1
173
     1
176
   256
177
   256
178
   256
271
     2
272
     2
284
     8
289
     0
340
10
341
1E7F
343
1E7F
344
1E7F
  0
ENDTAB
  0
TABLE
  2
BLOCK_RECORD
  5
1
330
0
100
AcDbSymbolTable
 70
    22
  0
BLOCK_RECORD
  5
19
102
{ACAD_XDICTIONARY
360
6375
102
}
330
1
100
AcDbSymbolTableRecord
100
AcDbBlockTableRecord
  2
*MODEL_SPACE
340
1E94
  0
BLOCK_RECORD
  5
16
102
{ACAD_XDICTIONARY
360
6373
102
}
330
1
100
AcDbSymbolTableRecord
100
AcDbBlockTableRecord
  2
*PAPER_SPACE
340
1E95
  0
BLOCK_RECORD
  5
1E7F
330
1
100
AcDbSymbolTableRecord
100
AcDbBlockTableRecord
  2
_OPEN
340
0
102
{BLKREFS
331
6518
331
6519
331
6521
331
6522
331
652A
331
652B
331
6567
331
6568
331
657B
331
657C
331
4BD5
331
4BD6
331
4BDE
331
4BDF
331
4BE7
331
4BE8
331
6262
331
6263
331
626B
331
626C
331
627B
331
627C
331
6284
331
6285
331
62B3
331
62B4
331
6304
331
6305
331
630D
331
630E
331
6316
331
6317
331
631F
331
6320
331
63E8
102
}
  0
BLOCK_RECORD
  5
1EB4
330
1
100
AcDbSymbolTableRecord
100
AcDbBlockTableRecord
  2
_Dot
340
0
102
{BLKREFS
331
63E7
102
}
  0
BLOCK_RECORD
  5
4016
330
1
100
AcDbSymbolTableRecord
100
AcDbBlockTableRecord
  2
*D2
340
0
  0
BLOCK_RECORD
  5
4022
330
1
100
AcDbSymbolTableRecord
100
AcDbBlockTableRecord
  2
*D3
340
0
  0
BLOCK_RECORD
  5
402E
330
1
100
AcDbSymbolTableRecord
100
AcDbBlockTableRecord
  2
*D4
340
0
  0
BLOCK_RECORD
  5
403A
330
1
100
AcDbSymbolTableRecord
100
AcDbBlockTableRecord
  2
*D5
340
0
  0
BLOCK_RECORD
  5
4046
330
1
100
AcDbSymbolTableRecord
100
AcDbBlockTableRecord
  2
*D6
340
0
  0
BLOCK_RECORD
  5
4A81
330
1
100
AcDbSymbolTableRecord
100
AcDbBlockTableRecord
  2
*D7
340
0
  0
BLOCK_RECORD
  5
4AB1
330
1
100
AcDbSymbolTableRecord
100
AcDbBlockTableRecord
  2
*D8
340
0
  0
BLOCK_RECORD
  5
4ABD
330
1
100
AcDbSymbolTableRecord
100
AcDbBlockTableRecord
  2
*D9
340
0
  0
BLOCK_RECORD
  5
4B8C
330
1
100
AcDbSymbolTableRecord
100
AcDbBlockTableRecord
  2
*D10
340
0
  0
BLOCK_RECORD
  5
4B9A
330
1
100
AcDbSymbolTableRecord
100
AcDbBlockTableRecord
  2
*D11
340
0
  0
BLOCK_RECORD
  5
4BA6
330
1
100
AcDbSymbolTableRecord
100
AcDbBlockTableRecord
  2
*D12
340
0
  0
BLOCK_RECORD
  5
5AD4
330
1
100
AcDbSymbolTableRecord
100
AcDbBlockTableRecord
  2
_None
340
0
  0
BLOCK_RECORD
  5
5BEE
330
1
100
AcDbSymbolTableRecord
100
AcDbBlockTableRecord
  2
*D14
340
0
  0
BLOCK_RECORD
  5
5BFA
330
1
100
AcDbSymbolTableRecord
100
AcDbBlockTableRecord
  2
*D15
340
0
  0
BLOCK_RECORD
  5
5C06
330
1
100
AcDbSymbolTableRecord
100
AcDbBlockTableRecord
  2
*D16
340
0
  0
BLOCK_RECORD
  5
5F71
330
1
100
AcDbSymbolTableRecord
100
AcDbBlockTableRecord
  2
*D17
340
0
  0
BLOCK_RECORD
  5
5F7F
330
1
100
AcDbSymbolTableRecord
100
AcDbBlockTableRecord
  2
*D18
340
0
  0
BLOCK_RECORD
  5
5FEA
330
1
100
AcDbSymbolTableRecord
100
AcDbBlockTableRecord
  2
*D19
340
0
  0
BLOCK_RECORD
  5
6535
330
1
100
AcDbSymbolTableRecord
100
AcDbBlockTableRecord
  2
*D20
340
0
  0
BLOCK_RECORD
  5
6542
330
1
100
AcDbSymbolTableRecord
100
AcDbBlockTableRecord
  2
*D21
340
0
  0
ENDTAB
  0
ENDSEC
  0
SECTION
  2
BLOCKS
  0
BLOCK
  5
1A
330
19
100
AcDbEntity
  8
0
100
AcDbBlockBegin
  2
*MODEL_SPACE
 70
     0
 10
0.0
 20
0.0
 30
0.0
  3
*MODEL_SPACE
  1

  0
ENDBLK
  5
1B
330
19
100
AcDbEntity
  8
0
100
AcDbBlockEnd
  0
BLOCK
  5
17
330
16
100
AcDbEntity
 67
     1
  8
0
100
AcDbBlockBegin
  2
*PAPER_SPACE
 70
     0
 10
0.0
 20
0.0
 30
0.0
  3
*PAPER_SPACE
  1

  0
ENDBLK
  5
18
330
16
100
AcDbEntity
 67
     1
  8
0
100
AcDbBlockEnd
  0
BLOCK
  5
1E80
330
1E7F
100
AcDbEntity
  8
0
100
AcDbBlockBegin
  2
_OPEN
 70
     0
 10
0.0
 20
0.0
 30
0.0
  3
_OPEN
  1

  0
LINE
  5
1E81
330
1E7F
100
AcDbEntity
  8
0
  6
ByBlock
 62
     0
380
     1
100
AcDbLine
 10
-1.0
 20
0.1666666666666666
 30
0.0
 11
0.0
 21
0.0
 31
0.0
  0
LINE
  5
1E82
330
1E7F
100
AcDbEntity
  8
0
  6
ByBlock
 62
     0
380
     1
100
AcDbLine
 10
0.0
 20
0.0
 30
0.0
 11
-1.0
 21
-0.1666666666666666
 31
0.0
  0
LINE
  5
1E83
330
1E7F
100
AcDbEntity
  8
0
  6
ByBlock
 62
     0
380
     1
100
AcDbLine
 10
0.0
 20
0.0
 30
0.0
 11
-1.0
 21
0.0
 31
0.0
  0
ENDBLK
  5
1E84
330
1E7F
100
AcDbEntity
  8
0
100
AcDbBlockEnd
  0
BLOCK
  5
1EB7
330
1EB4
100
AcDbEntity
  8
0
100
AcDbBlockBegin
  2
_Dot
 70
     0
 10
0.0
 20
0.0
 30
0.0
  3
_Dot
  1

  0
LINE
  5
1EC3
330
1EB4
100
AcDbEntity
  8
0
  6
ByBlock
 62
     0
380
     1
100
AcDbLine
 10
0.0
 20
0.0
 30
0.0
 11
-1.0
 21
-0.0000000000000284
 31
0.0
  0
LWPOLYLINE
  5
1EC4
330
1EB4
100
AcDbEntity
  8
0
  6
ByBlock
 62
     0
100
AcDbPolyline
 90
        2
 70
     1
 43
0.1666666666666666
 10
-0.0833333333333286
 20
-0.0000000000000284
 42
1.0
 10
0.0833333333333286
 20
-0.0000000000000284
 42
1.0
  0
ENDBLK
  5
1EB8
330
1EB4
100
AcDbEntity
  8
0
100
AcDbBlockEnd
  0
BLOCK
  5
4020
330
4016
100
AcDbEntity
  8
0
100
AcDbBlockBegin
  2
*D2
 70
     1
 10
0.0
 20
0.0
 30
0.0
  3
*D2
  1

  0
LINE
  5
625F
330
4016
100
AcDbEntity
  8
SP
370
    -2
100
AcDbLine
 10
7864.78171648562
 20
4870.633820463165
 30
0.0
 11
7864.78171648562
 21
4933.89053619199
 31
0.0
  0
LINE
  5
6260
330
4016
100
AcDbEntity
  8
SP
370
    -2
100
AcDbLine
 10
8129.012998119454
 20
4570.964871696695
 30
0.0
 11
8129.012998119454
 21
4933.89053619199
 31
0.0
  0
LINE
  5
6261
330
4016
100
AcDbEntity
  8
SP
370
    -2
100
AcDbLine
 10
7902.281716485621
 20
4918.89053619199
 30
0.0
 11
8091.512998119455
 21
4918.89053619199
 31
0.0
  0
INSERT
  5
6262
330
4016
100
AcDbEntity
  8
SP
370
    -2
100
AcDbBlockReference
  2
_OPEN
 10
7864.78171648562
 20
4918.89053619199
 30
0.0
 41
37.5
 42
37.5
 43
37.5
 50
180.0
  0
INSERT
  5
6263
330
4016
100
AcDbEntity
  8
SP
370
    -2
100
AcDbBlockReference
  2
_OPEN
 10
8129.012998119454
 20
4918.89053619199
 30
0.0
 41
37.5
 42
37.5
 43
37.5
  0
MTEXT
  5
6264
330
4016
100
AcDbEntity
  8
SP
100
AcDbMText
 10
7996.897357302538
 20
4956.39053619199
 30
0.0
 40
45.0
 41
0.0
 71
     5
 72
     5
  1
\A1;264
 73
     1
 44
1.0
1001
ACAD
1000
MTEXTBEGIN
1070
    73
1070
     1
1070
    44
1040
1.0
1070
    74
1070
     0
1000
MTEXTEND
  0
POINT
  5
6265
330
4016
100
AcDbEntity
  8
Defpoints
 62
     0
380
     1
100
AcDbPoint
 10
7864.78171648562
 20
4855.633820463165
 30
0.0
  0
POINT
  5
6266
330
4016
100
AcDbEntity
  8
Defpoints
 62
     0
380
     1
100
AcDbPoint
 10
8129.012998119454
 20
4555.964871696694
 30
0.0
  0
POINT
  5
6267
330
4016
100
AcDbEntity
  8
Defpoints
 62
     0
380
     1
100
AcDbPoint
 10
8129.012998119454
 20
4918.89053619199
 30
0.0
  0
ENDBLK
  5
4021
330
4016
100
AcDbEntity
  8
0
100
AcDbBlockEnd
  0
BLOCK
  5
402C
330
4022
100
AcDbEntity
  8
0
100
AcDbBlockBegin
  2
*D3
 70
     1
 10
0.0
 20
0.0
 30
0.0
  3
*D3
  1

  0
LINE
  5
6268
330
4022
100
AcDbEntity
  8
SP
370
    -2
100
AcDbLine
 10
7864.78171648562
 20
4870.633820463165
 30
0.0
 11
7864.78171648562
 21
4933.89053619199
 31
0.0
  0
LINE
  5
6269
330
4022
100
AcDbEntity
  8
SP
370
    -2
100
AcDbLine
 10
7614.781716485625
 20
4619.135294509085
 30
0.0
 11
7614.781716485625
 21
4933.89053619199
 31
0.0
  0
LINE
  5
626A
330
4022
100
AcDbEntity
  8
SP
370
    -2
100
AcDbLine
 10
7827.281716485621
 20
4918.89053619199
 30
0.0
 11
7652.281716485624
 21
4918.89053619199
 31
0.0
  0
INSERT
  5
626B
330
4022
100
AcDbEntity
  8
SP
370
    -2
100
AcDbBlockReference
  2
_OPEN
 10
7864.78171648562
 20
4918.89053619199
 30
0.0
 41
37.5
 42
37.5
 43
37.5
  0
INSERT
  5
626C
330
4022
100
AcDbEntity
  8
SP
370
    -2
100
AcDbBlockReference
  2
_OPEN
 10
7614.781716485625
 20
4918.89053619199
 30
0.0
 41
37.5
 42
37.5
 43
37.5
 50
180.0
  0
MTEXT
  5
626D
330
4022
100
AcDbEntity
  8
SP
100
AcDbMText
 10
7739.781716485622
 20
4956.39053619199
 30
0.0
 40
45.0
 41
0.0
 71
     5
 72
     5
  1
\A1;250
 73
     1
 44
1.0
1001
ACAD
1000
MTEXTBEGIN
1070
    73
1070
     1
1070
    44
1040
1.0
1070
    74
1070
     0
1000
MTEXTEND
  0
POINT
  5
626E
330
4022
100
AcDbEntity
  8
Defpoints
 62
     0
380
     1
100
AcDbPoint
 10
7864.78171648562
 20
4855.633820463165
 30
0.0
  0
POINT
  5
626F
330
4022
100
AcDbEntity
  8
Defpoints
 62
     0
380
     1
100
AcDbPoint
 10
7614.781716485625
 20
4604.135294509085
 30
0.0
  0
POINT
  5
6270
330
4022
100
AcDbEntity
  8
Defpoints
 62
     0
380
     1
100
AcDbPoint
 10
7614.781716485625
 20
4918.89053619199
 30
0.0
  0
ENDBLK
  5
402D
330
4022
100
AcDbEntity
  8
0
100
AcDbBlockEnd
  0
BLOCK
  5
4038
330
402E
100
AcDbEntity
  8
0
100
AcDbBlockBegin
  2
*D4
 70
     1
 10
0.0
 20
0.0
 30
0.0
  3
*D4
  1

  0
LINE
  5
6278
330
402E
100
AcDbEntity
  8
SP
370
    -2
100
AcDbLine
 10
7544.838206638047
 20
4582.635294509082
 30
0.0
 11
7494.781716485613
 21
4582.635294509082
 31
0.0
  0
LINE
  5
6279
330
402E
100
AcDbEntity
  8
SP
370
    -2
100
AcDbLine
 10
7599.781716485613
 20
4267.635294509084
 30
0.0
 11
7494.781716485613
 21
4267.635294509084
 31
0.0
  0
LINE
  5
627A
330
402E
100
AcDbEntity
  8
SP
370
    -2
100
AcDbLine
 10
7509.781716485614
 20
4545.135294509083
 30
0.0
 11
7509.781716485614
 21
4305.135294509084
 31
0.0
  0
INSERT
  5
627B
330
402E
100
AcDbEntity
  8
SP
370
    -2
100
AcDbBlockReference
  2
_OPEN
 10
7509.781716485614
 20
4582.635294509082
 30
0.0
 41
37.5
 42
37.5
 43
37.5
 50
90.0
  0
INSERT
  5
627C
330
402E
100
AcDbEntity
  8
SP
370
    -2
100
AcDbBlockReference
  2
_OPEN
 10
7509.781716485614
 20
4267.635294509084
 30
0.0
 41
37.5
 42
37.5
 43
37.5
 50
270.0
  0
MTEXT
  5
627D
330
402E
100
AcDbEntity
  8
SP
100
AcDbMText
 10
7472.281716485612
 20
4425.135294509085
 30
0.0
 40
45.0
 41
0.0
 71
     5
 72
     5
  1
\A1;315
 11
0.0000000000000001
 21
1.0
 31
0.0
 73
     1
 44
1.0
1001
ACAD
1000
MTEXTBEGIN
1070
    73
1070
     1
1070
    44
1040
1.0
1070
    74
1070
     0
1000
MTEXTEND
  0
POINT
  5
627E
330
402E
100
AcDbEntity
  8
Defpoints
 62
     0
380
     1
100
AcDbPoint
 10
7559.838206638048
 20
4582.635294509082
 30
0.0
  0
POINT
  5
627F
330
402E
100
AcDbEntity
  8
Defpoints
 62
     0
380
     1
100
AcDbPoint
 10
7614.781716485613
 20
4267.635294509084
 30
0.0
  0
POINT
  5
6280
330
402E
100
AcDbEntity
  8
Defpoints
 62
     0
380
     1
100
AcDbPoint
 10
7509.781716485614
 20
4267.635294509084
 30
0.0
  0
ENDBLK
  5
4039
330
402E
100
AcDbEntity
  8
0
100
AcDbBlockEnd
  0
BLOCK
  5
4044
330
403A
100
AcDbEntity
  8
0
100
AcDbBlockBegin
  2
*D5
 70
     1
 10
0.0
 20
0.0
 30
0.0
  3
*D5
  1

  0
LINE
  5
6281
330
403A
100
AcDbEntity
  8
SP
370
    -2
100
AcDbLine
 10
7599.781716485624
 20
4227.635294509082
 30
0.0
 11
7389.781716485625
 21
4227.635294509082
 31
0.0
  0
LINE
  5
6282
330
403A
100
AcDbEntity
  8
SP
370
    -2
100
AcDbLine
 10
7544.838206638047
 20
4582.635294509082
 30
0.0
 11
7389.781716485625
 21
4582.635294509082
 31
0.0
  0
LINE
  5
6283
330
403A
100
AcDbEntity
  8
SP
370
    -2
100
AcDbLine
 10
7404.781716485624
 20
4265.135294509081
 30
0.0
 11
7404.781716485624
 21
4545.135294509083
 31
0.0
  0
INSERT
  5
6284
330
403A
100
AcDbEntity
  8
SP
370
    -2
100
AcDbBlockReference
  2
_OPEN
 10
7404.781716485624
 20
4227.635294509082
 30
0.0
 41
37.5
 42
37.5
 43
37.5
 50
270.0
  0
INSERT
  5
6285
330
403A
100
AcDbEntity
  8
SP
370
    -2
100
AcDbBlockReference
  2
_OPEN
 10
7404.781716485624
 20
4582.635294509082
 30
0.0
 41
37.5
 42
37.5
 43
37.5
 50
90.0
  0
MTEXT
  5
6286
330
403A
100
AcDbEntity
  8
SP
100
AcDbMText
 10
7367.281716485624
 20
4405.135294509084
 30
0.0
 40
45.0
 41
0.0
 71
     5
 72
     5
  1
\A1;355
 11
0.0000000000000001
 21
1.0
 31
0.0
 73
     1
 44
1.0
1001
ACAD
1000
MTEXTBEGIN
1070
    73
1070
     1
1070
    44
1040
1.0
1070
    74
1070
     0
1000
MTEXTEND
  0
POINT
  5
6287
330
403A
100
AcDbEntity
  8
Defpoints
 62
     0
380
     1
100
AcDbPoint
 10
7614.781716485625
 20
4227.635294509082
 30
0.0
  0
POINT
  5
6288
330
403A
100
AcDbEntity
  8
Defpoints
 62
     0
380
     1
100
AcDbPoint
 10
7559.838206638048
 20
4582.635294509082
 30
0.0
  0
POINT
  5
6289
330
403A
100
AcDbEntity
  8
Defpoints
 62
     0
380
     1
100
AcDbPoint
 10
7404.781716485624
 20
4582.635294509082
 30
0.0
  0
ENDBLK
  5
4045
330
403A
100
AcDbEntity
  8
0
100
AcDbBlockEnd
  0
BLOCK
  5
4050
330
4046
100
AcDbEntity
  8
0
100
AcDbBlockBegin
  2
*D6
 70
     1
 10
0.0
 20
0.0
 30
0.0
  3
*D6
  1

  0
LINE
  5
62B0
330
4046
100
AcDbEntity
  8
SP
370
    -2
100
AcDbLine
 10
7544.838206638047
 20
4582.635294509082
 30
0.0
 11
7389.781716485625
 21
4582.635294509082
 31
0.0
  0
LINE
  5
62B1
330
4046
100
AcDbEntity
  8
SP
370
    -2
100
AcDbLine
 10
7872.635420350427
 20
4804.922514625554
 30
0.0
 11
7389.781716485625
 21
4804.922514625554
 31
0.0
  0
LINE
  5
62B2
330
4046
100
AcDbEntity
  8
SP
370
    -2
100
AcDbLine
 10
7404.781716485624
 20
4620.135294509082
 30
0.0
 11
7404.781716485624
 21
4767.422514625553
 31
0.0
  0
INSERT
  5
62B3
330
4046
100
AcDbEntity
  8
SP
370
    -2
100
AcDbBlockReference
  2
_OPEN
 10
7404.781716485624
 20
4582.635294509082
 30
0.0
 41
37.5
 42
37.5
 43
37.5
 50
270.0
  0
INSERT
  5
62B4
330
4046
100
AcDbEntity
  8
SP
370
    -2
100
AcDbBlockReference
  2
_OPEN
 10
7404.781716485624
 20
4804.922514625554
 30
0.0
 41
37.5
 42
37.5
 43
37.5
 50
90.0
  0
MTEXT
  5
62B5
330
4046
100
AcDbEntity
  8
SP
100
AcDbMText
 10
7367.281716485624
 20
4693.778904567319
 30
0.0
 40
45.0
 41
0.0
 71
     5
 72
     5
  1
\A1;222
 11
0.0000000000000001
 21
1.0
 31
0.0
 73
     1
 44
1.0
1001
ACAD
1000
MTEXTBEGIN
1070
    73
1070
     1
1070
    44
1040
1.0
1070
    74
1070
     0
1000
MTEXTEND
  0
POINT
  5
62B6
330
4046
100
AcDbEntity
  8
Defpoints
 62
     0
380
     1
100
AcDbPoint
 10
7559.838206638048
 20
4582.635294509082
 30
0.0
  0
POINT
  5
62B7
330
4046
100
AcDbEntity
  8
Defpoints
 62
     0
380
     1
100
AcDbPoint
 10
7887.635420350427
 20
4804.922514625554
 30
0.0
  0
POINT
  5
62B8
330
4046
100
AcDbEntity
  8
Defpoints
 62
     0
380
     1
100
AcDbPoint
 10
7404.781716485624
 20
4804.922514625554
 30
0.0
  0
ENDBLK
  5
4051
330
4046
100
AcDbEntity
  8
0
100
AcDbBlockEnd
  0
BLOCK
  5
4A8B
330
4A81
100
AcDbEntity
  8
0
100
AcDbBlockBegin
  2
*D7
 70
     1
 10
0.0
 20
0.0
 30
0.0
  3
*D7
  1

  0
LINE
  5
6527
330
4A81
100
AcDbEntity
  8
SP
370
    -2
100
AcDbLine
 10
9202.629144029117
 20
4994.89786701067
 30
0.0
 11
9202.629144029117
 21
5029.922514625553
 31
0.0
  0
LINE
  5
6528
330
4A81
100
AcDbEntity
  8
SP
370
    -2
100
AcDbLine
 10
9323.629144029117
 20
4779.135294509078
 30
0.0
 11
9323.629144029117
 21
5029.922514625553
 31
0.0
  0
LINE
  5
6529
330
4A81
100
AcDbEntity
  8
SP
370
    -2
100
AcDbLine
 10
9240.129144029117
 20
5014.922514625554
 30
0.0
 11
9286.129144029116
 21
5014.922514625554
 31
0.0
  0
INSERT
  5
652A
330
4A81
100
AcDbEntity
  8
SP
370
    -2
100
AcDbBlockReference
  2
_OPEN
 10
9202.629144029117
 20
5014.922514625554
 30
0.0
 41
37.5
 42
37.5
 43
37.5
 50
180.0
  0
INSERT
  5
652B
330
4A81
100
AcDbEntity
  8
SP
370
    -2
100
AcDbBlockReference
  2
_OPEN
 10
9323.629144029117
 20
5014.922514625554
 30
0.0
 41
37.5
 42
37.5
 43
37.5
  0
MTEXT
  5
652C
330
4A81
100
AcDbEntity
  8
SP
100
AcDbMText
 10
9263.129144029118
 20
5052.422514625554
 30
0.0
 40
45.0
 41
0.0
 71
     5
 72
     1
  1
\A1;121
 73
     1
 44
1.0
1001
ACAD
1000
MTEXTBEGIN
1070
    73
1070
     1
1070
    44
1040
1.0
1070
    74
1070
     0
1000
MTEXTEND
  0
POINT
  5
652D
330
4A81
100
AcDbEntity
  8
Defpoints
 62
     0
100
AcDbPoint
 10
9202.629144029117
 20
4979.89786701067
 30
0.0
  0
POINT
  5
652E
330
4A81
100
AcDbEntity
  8
Defpoints
 62
     0
100
AcDbPoint
 10
9323.629144029117
 20
4764.135294509078
 30
0.0
  0
POINT
  5
652F
330
4A81
100
AcDbEntity
  8
Defpoints
 62
     0
100
AcDbPoint
 10
9323.629144029117
 20
5014.922514625554
 30
0.0
  0
ENDBLK
  5
4A8C
330
4A81
100
AcDbEntity
  8
0
100
AcDbBlockEnd
  0
BLOCK
  5
4ABB
330
4AB1
100
AcDbEntity
  8
0
100
AcDbBlockBegin
  2
*D8
 70
     1
 10
0.0
 20
0.0
 30
0.0
  3
*D8
  1

  0
LINE
  5
6515
330
4AB1
100
AcDbEntity
  8
SP
370
    -2
100
AcDbLine
 10
9338.629144029118
 20
4740.135294509079
 30
0.0
 11
9454.843732540888
 21
4740.135294509079
 31
0.0
  0
LINE
  5
6516
330
4AB1
100
AcDbEntity
  8
SP
370
    -2
100
AcDbLine
 10
9338.629144029118
 20
4425.135294509079
 30
0.0
 11
9454.843732540888
 21
4425.135294509079
 31
0.0
  0
LINE
  5
6517
330
4AB1
100
AcDbEntity
  8
SP
370
    -2
100
AcDbLine
 10
9439.843732540889
 20
4702.635294509079
 30
0.0
 11
9439.843732540889
 21
4462.635294509079
 31
0.0
  0
INSERT
  5
6518
330
4AB1
100
AcDbEntity
  8
SP
370
    -2
100
AcDbBlockReference
  2
_OPEN
 10
9439.843732540889
 20
4740.135294509079
 30
0.0
 41
37.5
 42
37.5
 43
37.5
 50
90.0
  0
INSERT
  5
6519
330
4AB1
100
AcDbEntity
  8
SP
370
    -2
100
AcDbBlockReference
  2
_OPEN
 10
9439.843732540889
 20
4425.135294509079
 30
0.0
 41
37.5
 42
37.5
 43
37.5
 50
270.0
  0
MTEXT
  5
651A
330
4AB1
100
AcDbEntity
  8
SP
100
AcDbMText
 10
9402.343732540886
 20
4582.63529450908
 30
0.0
 40
45.0
 41
0.0
 71
     5
 72
     1
  1
\A1;\U+03C6315
 11
0.0000000000000001
 21
1.0
 31
0.0
 73
     1
 44
1.0
1001
ACAD
1000
MTEXTBEGIN
1070
    73
1070
     1
1070
    44
1040
1.0
1070
    74
1070
     0
1000
MTEXTEND
  0
POINT
  5
651B
330
4AB1
100
AcDbEntity
  8
Defpoints
 62
     0
100
AcDbPoint
 10
9323.629144029117
 20
4740.135294509079
 30
0.0
  0
POINT
  5
651C
330
4AB1
100
AcDbEntity
  8
Defpoints
 62
     0
100
AcDbPoint
 10
9323.629144029117
 20
4425.135294509079
 30
0.0
  0
POINT
  5
651D
330
4AB1
100
AcDbEntity
  8
Defpoints
 62
     0
100
AcDbPoint
 10
9439.843732540889
 20
4425.135294509079
 30
0.0
  0
ENDBLK
  5
4ABC
330
4AB1
100
AcDbEntity
  8
0
100
AcDbBlockEnd
  0
BLOCK
  5
4AC7
330
4ABD
100
AcDbEntity
  8
0
100
AcDbBlockBegin
  2
*D9
 70
     1
 10
0.0
 20
0.0
 30
0.0
  3
*D9
  1

  0
LINE
  5
651E
330
4ABD
100
AcDbEntity
  8
SP
370
    -2
100
AcDbLine
 10
9090.629144029117
 20
4804.922514625555
 30
0.0
 11
9090.629144029117
 21
4924.922514625554
 31
0.0
  0
LINE
  5
651F
330
4ABD
100
AcDbEntity
  8
SP
370
    -2
100
AcDbLine
 10
9314.62914402911
 20
4804.922514625554
 30
0.0
 11
9314.62914402911
 21
4924.922514625554
 31
0.0
  0
LINE
  5
6520
330
4ABD
100
AcDbEntity
  8
SP
370
    -2
100
AcDbLine
 10
9128.129144029117
 20
4909.922514625554
 30
0.0
 11
9277.129144029109
 21
4909.922514625554
 31
0.0
  0
INSERT
  5
6521
330
4ABD
100
AcDbEntity
  8
SP
370
    -2
100
AcDbBlockReference
  2
_OPEN
 10
9090.629144029117
 20
4909.922514625554
 30
0.0
 41
37.5
 42
37.5
 43
37.5
 50
180.0
  0
INSERT
  5
6522
330
4ABD
100
AcDbEntity
  8
SP
370
    -2
100
AcDbBlockReference
  2
_OPEN
 10
9314.62914402911
 20
4909.922514625554
 30
0.0
 41
37.5
 42
37.5
 43
37.5
  0
MTEXT
  5
6523
330
4ABD
100
AcDbEntity
  8
SP
100
AcDbMText
 10
9202.629144029113
 20
4947.422514625554
 30
0.0
 40
45.0
 41
0.0
 71
     5
 72
     1
  1
\A1;224
 73
     1
 44
1.0
1001
ACAD
1000
MTEXTBEGIN
1070
    73
1070
     1
1070
    44
1040
1.0
1070
    74
1070
     0
1000
MTEXTEND
  0
POINT
  5
6524
330
4ABD
100
AcDbEntity
  8
Defpoints
 62
     0
100
AcDbPoint
 10
9090.629144029117
 20
4789.922514625555
 30
0.0
  0
POINT
  5
6525
330
4ABD
100
AcDbEntity
  8
Defpoints
 62
     0
100
AcDbPoint
 10
9314.62914402911
 20
4789.922514625554
 30
0.0
  0
POINT
  5
6526
330
4ABD
100
AcDbEntity
  8
Defpoints
 62
     0
100
AcDbPoint
 10
9314.62914402911
 20
4909.922514625554
 30
0.0
  0
ENDBLK
  5
4AC8
330
4ABD
100
AcDbEntity
  8
0
100
AcDbBlockEnd
  0
BLOCK
  5
4B98
330
4B8C
100
AcDbEntity
  8
0
100
AcDbBlockBegin
  2
*D10
 70
     1
 10
0.0
 20
0.0
 30
0.0
  3
*D10
  1

  0
LINE
  5
4BD0
330
4B8C
100
AcDbEntity
  8
SP
370
    -2
100
AcDbLine
 10
7599.78171648561
 20
5732.362935220167
 30
0.0
 11
7425.909014049437
 21
5732.362935220167
 31
0.0
  0
LINE
  5
4BD1
330
4B8C
100
AcDbEntity
  8
SP
370
    -2
100
AcDbLine
 10
7552.16016821913
 20
5854.362935220169
 30
0.0
 11
7425.909014049437
 21
5854.362935220169
 31
0.0
  0
LINE
  5
4BD2
330
4B8C
100
AcDbEntity
  8
SP
370
    -2
100
AcDbLine
 10
7440.909014049438
 20
5694.862935220167
 30
0.0
 11
7440.909014049438
 21
5657.362935220167
 31
0.0
  0
LINE
  5
4BD3
330
4B8C
100
AcDbEntity
  8
SP
370
    -2
100
AcDbLine
 10
7440.909014049438
 20
5891.862935220169
 30
0.0
 11
7440.909014049438
 21
6064.362935220168
 31
0.0
  0
LINE
  5
4BD4
330
4B8C
100
AcDbEntity
  8
SP
370
    -2
100
AcDbLine
 10
7440.909014049438
 20
5732.362935220167
 30
0.0
 11
7440.909014049438
 21
5854.362935220169
 31
0.0
  0
INSERT
  5
4BD5
330
4B8C
100
AcDbEntity
  8
SP
370
    -2
100
AcDbBlockReference
  2
_OPEN
 10
7440.909014049438
 20
5732.362935220167
 30
0.0
 41
37.5
 42
37.5
 43
37.5
 50
90.0
  0
INSERT
  5
4BD6
330
4B8C
100
AcDbEntity
  8
SP
370
    -2
100
AcDbBlockReference
  2
_OPEN
 10
7440.909014049438
 20
5854.362935220169
 30
0.0
 41
37.5
 42
37.5
 43
37.5
 50
270.0
  0
MTEXT
  5
4BD7
330
4B8C
100
AcDbEntity
  8
SP
100
AcDbMText
 10
7403.409014049437
 20
5996.862935220171
 30
0.0
 40
45.0
 41
0.0
 71
     5
 72
     5
  1
\A1;122
 11
0.0000000000000001
 21
1.0
 31
0.0
 73
     1
 44
1.0
1001
ACAD
1000
MTEXTBEGIN
1070
    73
1070
     1
1070
    44
1040
1.0
1070
    74
1070
     0
1000
MTEXTEND
  0
POINT
  5
4BD8
330
4B8C
100
AcDbEntity
  8
Defpoints
 62
     0
380
     1
100
AcDbPoint
 10
7614.781716485611
 20
5732.362935220167
 30
0.0
  0
POINT
  5
4BD9
330
4B8C
100
AcDbEntity
  8
Defpoints
 62
     0
380
     1
100
AcDbPoint
 10
7567.160168219131
 20
5854.362935220169
 30
0.0
  0
POINT
  5
4BDA
330
4B8C
100
AcDbEntity
  8
Defpoints
 62
     0
380
     1
100
AcDbPoint
 10
7440.909014049438
 20
5854.362935220169
 30
0.0
  0
ENDBLK
  5
4B99
330
4B8C
100
AcDbEntity
  8
0
100
AcDbBlockEnd
  0
BLOCK
  5
4BA4
330
4B9A
100
AcDbEntity
  8
0
100
AcDbBlockBegin
  2
*D11
 70
     1
 10
0.0
 20
0.0
 30
0.0
  3
*D11
  1

  0
LINE
  5
4BE4
330
4B9A
100
AcDbEntity
  8
SP
370
    -2
100
AcDbLine
 10
7599.781716485615
 20
5732.362935220167
 30
0.0
 11
7425.909014049437
 21
5732.362935220167
 31
0.0
  0
LINE
  5
4BE5
330
4B9A
100
AcDbEntity
  8
SP
370
    -2
100
AcDbLine
 10
7599.781716485615
 20
5422.362935220169
 30
0.0
 11
7425.909014049437
 21
5422.362935220169
 31
0.0
  0
LINE
  5
4BE6
330
4B9A
100
AcDbEntity
  8
SP
370
    -2
100
AcDbLine
 10
7440.909014049438
 20
5694.862935220167
 30
0.0
 11
7440.909014049438
 21
5459.862935220169
 31
0.0
  0
INSERT
  5
4BE7
330
4B9A
100
AcDbEntity
  8
SP
370
    -2
100
AcDbBlockReference
  2
_OPEN
 10
7440.909014049438
 20
5732.362935220167
 30
0.0
 41
37.5
 42
37.5
 43
37.5
 50
90.0
  0
INSERT
  5
4BE8
330
4B9A
100
AcDbEntity
  8
SP
370
    -2
100
AcDbBlockReference
  2
_OPEN
 10
7440.909014049438
 20
5422.362935220169
 30
0.0
 41
37.5
 42
37.5
 43
37.5
 50
270.0
  0
MTEXT
  5
4BE9
330
4B9A
100
AcDbEntity
  8
SP
100
AcDbMText
 10
7403.409014049437
 20
5577.362935220169
 30
0.0
 40
45.0
 41
0.0
 71
     5
 72
     5
  1
\A1;310
 11
0.0000000000000001
 21
1.0
 31
0.0
 73
     1
 44
1.0
1001
ACAD
1000
MTEXTBEGIN
1070
    73
1070
     1
1070
    44
1040
1.0
1070
    74
1070
     0
1000
MTEXTEND
  0
POINT
  5
4BEA
330
4B9A
100
AcDbEntity
  8
Defpoints
 62
     0
380
     1
100
AcDbPoint
 10
7614.781716485615
 20
5732.362935220167
 30
0.0
  0
POINT
  5
4BEB
330
4B9A
100
AcDbEntity
  8
Defpoints
 62
     0
380
     1
100
AcDbPoint
 10
7614.781716485615
 20
5422.362935220169
 30
0.0
  0
POINT
  5
4BEC
330
4B9A
100
AcDbEntity
  8
Defpoints
 62
     0
380
     1
100
AcDbPoint
 10
7440.909014049438
 20
5422.362935220169
 30
0.0
  0
ENDBLK
  5
4BA5
330
4B9A
100
AcDbEntity
  8
0
100
AcDbBlockEnd
  0
BLOCK
  5
4BB0
330
4BA6
100
AcDbEntity
  8
0
100
AcDbBlockBegin
  2
*D12
 70
     1
 10
0.0
 20
0.0
 30
0.0
  3
*D12
  1

  0
LINE
  5
4BDB
330
4BA6
100
AcDbEntity
  8
SP
370
    -2
100
AcDbLine
 10
8114.781716485614
 20
5407.362935220169
 30
0.0
 11
8114.781716485614
 21
5260.341501466711
 31
0.0
  0
LINE
  5
4BDC
330
4BA6
100
AcDbEntity
  8
SP
370
    -2
100
AcDbLine
 10
7614.781716485615
 20
5407.362935220169
 30
0.0
 11
7614.781716485615
 21
5260.341501466711
 31
0.0
  0
LINE
  5
4BDD
330
4BA6
100
AcDbEntity
  8
SP
370
    -2
100
AcDbLine
 10
8077.281716485614
 20
5275.34150146671
 30
0.0
 11
7652.281716485615
 21
5275.34150146671
 31
0.0
  0
INSERT
  5
4BDE
330
4BA6
100
AcDbEntity
  8
SP
370
    -2
100
AcDbBlockReference
  2
_OPEN
 10
8114.781716485614
 20
5275.34150146671
 30
0.0
 41
37.5
 42
37.5
 43
37.5
  0
INSERT
  5
4BDF
330
4BA6
100
AcDbEntity
  8
SP
370
    -2
100
AcDbBlockReference
  2
_OPEN
 10
7614.781716485615
 20
5275.34150146671
 30
0.0
 41
37.5
 42
37.5
 43
37.5
 50
180.0
  0
MTEXT
  5
4BE0
330
4BA6
100
AcDbEntity
  8
SP
100
AcDbMText
 10
7864.781716485615
 20
5312.84150146671
 30
0.0
 40
45.0
 41
0.0
 71
     5
 72
     5
  1
\A1;500
 73
     1
 44
1.0
1001
ACAD
1000
MTEXTBEGIN
1070
    73
1070
     1
1070
    44
1040
1.0
1070
    74
1070
     0
1000
MTEXTEND
  0
POINT
  5
4BE1
330
4BA6
100
AcDbEntity
  8
Defpoints
 62
     0
380
     1
100
AcDbPoint
 10
8114.781716485614
 20
5422.362935220169
 30
0.0
  0
POINT
  5
4BE2
330
4BA6
100
AcDbEntity
  8
Defpoints
 62
     0
380
     1
100
AcDbPoint
 10
7614.781716485615
 20
5422.362935220169
 30
0.0
  0
POINT
  5
4BE3
330
4BA6
100
AcDbEntity
  8
Defpoints
 62
     0
380
     1
100
AcDbPoint
 10
7614.781716485615
 20
5275.34150146671
 30
0.0
  0
ENDBLK
  5
4BB1
330
4BA6
100
AcDbEntity
  8
0
100
AcDbBlockEnd
  0
BLOCK
  5
5AD5
330
5AD4
100
AcDbEntity
  8
0
100
AcDbBlockBegin
  2
_None
 70
     0
 10
0.0
 20
0.0
 30
0.0
  3
_None
  1

  0
ENDBLK
  5
5AD6
330
5AD4
100
AcDbEntity
  8
0
100
AcDbBlockEnd
  0
BLOCK
  5
5BF8
330
5BEE
100
AcDbEntity
  8
0
100
AcDbBlockBegin
  2
*D14
 70
     1
 10
0.0
 20
0.0
 30
0.0
  3
*D14
  1

  0
LINE
  5
6313
330
5BEE
100
AcDbEntity
  8
SP
370
    -2
100
AcDbLine
 10
7864.781716485627
 20
4042.265404136125
 30
0.0
 11
7864.781716485627
 21
3972.635294509082
 31
0.0
  0
LINE
  5
6314
330
5BEE
100
AcDbEntity
  8
SP
370
    -2
100
AcDbLine
 10
8114.781716485621
 20
4077.635294509081
 30
0.0
 11
8114.781716485621
 21
3972.635294509082
 31
0.0
  0
LINE
  5
6315
330
5BEE
100
AcDbEntity
  8
SP
370
    -2
100
AcDbLine
 10
7902.281716485628
 20
3987.635294509082
 30
0.0
 11
8077.28171648562
 21
3987.635294509082
 31
0.0
  0
INSERT
  5
6316
330
5BEE
100
AcDbEntity
  8
SP
370
    -2
100
AcDbBlockReference
  2
_OPEN
 10
7864.781716485627
 20
3987.635294509082
 30
0.0
 41
37.5
 42
37.5
 43
37.5
 50
180.0
  0
INSERT
  5
6317
330
5BEE
100
AcDbEntity
  8
SP
370
    -2
100
AcDbBlockReference
  2
_OPEN
 10
8114.781716485621
 20
3987.635294509082
 30
0.0
 41
37.5
 42
37.5
 43
37.5
  0
MTEXT
  5
6318
330
5BEE
100
AcDbEntity
  8
SP
100
AcDbMText
 10
7989.781716485625
 20
4025.135294509082
 30
0.0
 40
45.0
 41
0.0
 71
     5
 72
     5
  1
\A1;250
 73
     1
 44
1.0
1001
ACAD
1000
MTEXTBEGIN
1070
    73
1070
     1
1070
    44
1040
1.0
1070
    74
1070
     0
1000
MTEXTEND
  0
POINT
  5
6319
330
5BEE
100
AcDbEntity
  8
Defpoints
 62
     0
380
     1
100
AcDbPoint
 10
7864.781716485627
 20
4057.265404136124
 30
0.0
  0
POINT
  5
631A
330
5BEE
100
AcDbEntity
  8
Defpoints
 62
     0
380
     1
100
AcDbPoint
 10
8114.781716485621
 20
4092.635294509082
 30
0.0
  0
POINT
  5
631B
330
5BEE
100
AcDbEntity
  8
Defpoints
 62
     0
380
     1
100
AcDbPoint
 10
8114.781716485621
 20
3987.635294509082
 30
0.0
  0
ENDBLK
  5
5BF9
330
5BEE
100
AcDbEntity
  8
0
100
AcDbBlockEnd
  0
BLOCK
  5
5C04
330
5BFA
100
AcDbEntity
  8
0
100
AcDbBlockBegin
  2
*D15
 70
     1
 10
0.0
 20
0.0
 30
0.0
  3
*D15
  1

  0
LINE
  5
6301
330
5BFA
100
AcDbEntity
  8
SP
370
    -2
100
AcDbLine
 10
7614.781716485635
 20
4077.635294509081
 30
0.0
 11
7614.781716485635
 21
3867.635294509082
 31
0.0
  0
LINE
  5
6302
330
5BFA
100
AcDbEntity
  8
SP
370
    -2
100
AcDbLine
 10
8114.781716485621
 20
4077.635294509081
 30
0.0
 11
8114.781716485621
 21
3867.635294509082
 31
0.0
  0
LINE
  5
6303
330
5BFA
100
AcDbEntity
  8
SP
370
    -2
100
AcDbLine
 10
7652.281716485635
 20
3882.635294509082
 30
0.0
 11
8077.28171648562
 21
3882.635294509082
 31
0.0
  0
INSERT
  5
6304
330
5BFA
100
AcDbEntity
  8
SP
370
    -2
100
AcDbBlockReference
  2
_OPEN
 10
7614.781716485635
 20
3882.635294509082
 30
0.0
 41
37.5
 42
37.5
 43
37.5
 50
180.0
  0
INSERT
  5
6305
330
5BFA
100
AcDbEntity
  8
SP
370
    -2
100
AcDbBlockReference
  2
_OPEN
 10
8114.781716485621
 20
3882.635294509082
 30
0.0
 41
37.5
 42
37.5
 43
37.5
  0
MTEXT
  5
6306
330
5BFA
100
AcDbEntity
  8
SP
100
AcDbMText
 10
7864.781716485627
 20
3920.135294509083
 30
0.0
 40
45.0
 41
0.0
 71
     5
 72
     5
  1
\A1;500
 73
     1
 44
1.0
1001
ACAD
1000
MTEXTBEGIN
1070
    73
1070
     1
1070
    44
1040
1.0
1070
    74
1070
     0
1000
MTEXTEND
  0
POINT
  5
6307
330
5BFA
100
AcDbEntity
  8
Defpoints
 62
     0
380
     1
100
AcDbPoint
 10
7614.781716485635
 20
4092.635294509082
 30
0.0
  0
POINT
  5
6308
330
5BFA
100
AcDbEntity
  8
Defpoints
 62
     0
380
     1
100
AcDbPoint
 10
8114.781716485621
 20
4092.635294509082
 30
0.0
  0
POINT
  5
6309
330
5BFA
100
AcDbEntity
  8
Defpoints
 62
     0
380
     1
100
AcDbPoint
 10
8114.781716485621
 20
3882.635294509082
 30
0.0
  0
ENDBLK
  5
5C05
330
5BFA
100
AcDbEntity
  8
0
100
AcDbBlockEnd
  0
BLOCK
  5
5C10
330
5C06
100
AcDbEntity
  8
0
100
AcDbBlockBegin
  2
*D16
 70
     1
 10
0.0
 20
0.0
 30
0.0
  3
*D16
  1

  0
LINE
  5
630A
330
5C06
100
AcDbEntity
  8
SP
370
    -2
100
AcDbLine
 10
7864.781716485627
 20
4042.265404136125
 30
0.0
 11
7864.781716485627
 21
3972.635294509082
 31
0.0
  0
LINE
  5
630B
330
5C06
100
AcDbEntity
  8
SP
370
    -2
100
AcDbLine
 10
7614.781716485635
 20
4077.635294509081
 30
0.0
 11
7614.781716485635
 21
3972.635294509082
 31
0.0
  0
LINE
  5
630C
330
5C06
100
AcDbEntity
  8
SP
370
    -2
100
AcDbLine
 10
7827.281716485628
 20
3987.635294509082
 30
0.0
 11
7652.281716485635
 21
3987.635294509082
 31
0.0
  0
INSERT
  5
630D
330
5C06
100
AcDbEntity
  8
SP
370
    -2
100
AcDbBlockReference
  2
_OPEN
 10
7864.781716485627
 20
3987.635294509082
 30
0.0
 41
37.5
 42
37.5
 43
37.5
  0
INSERT
  5
630E
330
5C06
100
AcDbEntity
  8
SP
370
    -2
100
AcDbBlockReference
  2
_OPEN
 10
7614.781716485635
 20
3987.635294509082
 30
0.0
 41
37.5
 42
37.5
 43
37.5
 50
180.0
  0
MTEXT
  5
630F
330
5C06
100
AcDbEntity
  8
SP
100
AcDbMText
 10
7739.781716485632
 20
4025.135294509082
 30
0.0
 40
45.0
 41
0.0
 71
     5
 72
     5
  1
\A1;250
 73
     1
 44
1.0
1001
ACAD
1000
MTEXTBEGIN
1070
    73
1070
     1
1070
    44
1040
1.0
1070
    74
1070
     0
1000
MTEXTEND
  0
POINT
  5
6310
330
5C06
100
AcDbEntity
  8
Defpoints
 62
     0
380
     1
100
AcDbPoint
 10
7864.781716485627
 20
4057.265404136124
 30
0.0
  0
POINT
  5
6311
330
5C06
100
AcDbEntity
  8
Defpoints
 62
     0
380
     1
100
AcDbPoint
 10
7614.781716485635
 20
4092.635294509082
 30
0.0
  0
POINT
  5
6312
330
5C06
100
AcDbEntity
  8
Defpoints
 62
     0
380
     1
100
AcDbPoint
 10
7614.781716485635
 20
3987.635294509082
 30
0.0
  0
ENDBLK
  5
5C11
330
5C06
100
AcDbEntity
  8
0
100
AcDbBlockEnd
  0
BLOCK
  5
5F7D
330
5F71
100
AcDbEntity
  8
0
100
AcDbBlockBegin
  2
*D17
 70
     1
 10
0.0
 20
0.0
 30
0.0
  3
*D17
  1

  0
LINE
  5
63E2
330
5F71
100
AcDbEntity
  8
SP
100
AcDbLine
 10
7599.78171648562
 20
4157.635294509082
 30
0.0
 11
7389.781716485625
 21
4157.635294509082
 31
0.0
  0
LINE
  5
63E3
330
5F71
100
AcDbEntity
  8
SP
100
AcDbLine
 10
7599.78171648562
 20
4092.635294509082
 30
0.0
 11
7389.781716485625
 21
4092.635294509082
 31
0.0
  0
LINE
  5
63E4
330
5F71
100
AcDbEntity
  8
SP
100
AcDbLine
 10
7404.781716485624
 20
4195.135294509082
 30
0.0
 11
7404.781716485624
 21
4232.635294509083
 31
0.0
  0
LINE
  5
63E5
330
5F71
100
AcDbEntity
  8
SP
100
AcDbLine
 10
7404.781716485624
 20
4055.135294509081
 30
0.0
 11
7404.781716485624
 21
3910.871539943882
 31
0.0
  0
LINE
  5
63E6
330
5F71
100
AcDbEntity
  8
SP
100
AcDbLine
 10
7404.781716485624
 20
4157.635294509082
 30
0.0
 11
7404.781716485624
 21
4092.635294509082
 31
0.0
  0
INSERT
  5
63E7
330
5F71
100
AcDbEntity
  8
SP
100
AcDbBlockReference
  2
_Dot
 10
7404.781716485624
 20
4157.635294509082
 30
0.0
 41
37.5
 42
37.5
 43
37.5
 50
270.0
  0
INSERT
  5
63E8
330
5F71
100
AcDbEntity
  8
SP
100
AcDbBlockReference
  2
_OPEN
 10
7404.781716485624
 20
4092.635294509082
 30
0.0
 41
37.5
 42
37.5
 43
37.5
 50
90.0
  0
MTEXT
  5
63E9
330
5F71
100
AcDbEntity
  8
SP
100
AcDbMText
 10
7367.281716485624
 20
3964.253417226483
 30
0.0
 40
45.0
 41
0.0
 71
     5
 72
     5
  1
\A1;65
 11
0.0000000000000001
 21
1.0
 31
0.0
 73
     1
 44
1.0
1001
ACAD
1000
MTEXTBEGIN
1070
    73
1070
     1
1070
    44
1040
1.0
1070
    74
1070
     0
1000
MTEXTEND
  0
POINT
  5
63EA
330
5F71
100
AcDbEntity
  8
Defpoints
 62
     0
380
     1
100
AcDbPoint
 10
7614.781716485619
 20
4157.635294509082
 30
0.0
  0
POINT
  5
63EB
330
5F71
100
AcDbEntity
  8
Defpoints
 62
     0
380
     1
100
AcDbPoint
 10
7614.781716485619
 20
4092.635294509082
 30
0.0
  0
POINT
  5
63EC
330
5F71
100
AcDbEntity
  8
Defpoints
 62
     0
380
     1
100
AcDbPoint
 10
7404.781716485624
 20
4092.635294509082
 30
0.0
  0
ENDBLK
  5
5F7E
330
5F71
100
AcDbEntity
  8
0
100
AcDbBlockEnd
  0
BLOCK
  5
5F89
330
5F7F
100
AcDbEntity
  8
0
100
AcDbBlockBegin
  2
*D18
 70
     1
 10
0.0
 20
0.0
 30
0.0
  3
*D18
  1

  0
LINE
  5
63DB
330
5F7F
100
AcDbEntity
  8
SP
100
AcDbLine
 10
7599.78171648562
 20
4227.635294509082
 30
0.0
 11
7389.781716485625
 21
4227.635294509082
 31
0.0
  0
LINE
  5
63DC
330
5F7F
100
AcDbEntity
  8
SP
100
AcDbLine
 10
7599.78171648562
 20
4157.635294509082
 30
0.0
 11
7389.781716485625
 21
4157.635294509082
 31
0.0
  0
LINE
  5
63DD
330
5F7F
100
AcDbEntity
  8
SP
100
AcDbLine
 10
7404.781716485624
 20
4227.635294509082
 30
0.0
 11
7404.781716485624
 21
4157.635294509082
 31
0.0
  0
MTEXT
  5
63DE
330
5F7F
100
AcDbEntity
  8
SP
100
AcDbMText
 10
7352.701568737081
 20
4185.774364961247
 30
0.0
 40
45.0
 41
0.0
 71
     5
 72
     5
  1
\A1;（70）
 11
0.0000000000000001
 21
1.0
 31
0.0
 73
     1
 44
1.0
1001
ACAD
1000
MTEXTBEGIN
1070
    73
1070
     1
1070
    44
1040
1.0
1070
    74
1070
     0
1000
MTEXTEND
  0
POINT
  5
63DF
330
5F7F
100
AcDbEntity
  8
Defpoints
 62
     0
380
     1
100
AcDbPoint
 10
7614.781716485619
 20
4227.635294509082
 30
0.0
  0
POINT
  5
63E0
330
5F7F
100
AcDbEntity
  8
Defpoints
 62
     0
380
     1
100
AcDbPoint
 10
7614.781716485619
 20
4157.635294509082
 30
0.0
  0
POINT
  5
63E1
330
5F7F
100
AcDbEntity
  8
Defpoints
 62
     0
380
     1
100
AcDbPoint
 10
7404.781716485624
 20
4157.635294509082
 30
0.0
  0
ENDBLK
  5
5F8A
330
5F7F
100
AcDbEntity
  8
0
100
AcDbBlockEnd
  0
BLOCK
  5
5FF4
330
5FEA
100
AcDbEntity
  8
0
100
AcDbBlockBegin
  2
*D19
 70
     1
 10
0.0
 20
0.0
 30
0.0
  3
*D19
  1

  0
LINE
  5
631C
330
5FEA
100
AcDbEntity
  8
SP
370
    -2
100
AcDbLine
 10
8770.629144029117
 20
4077.635294509081
 30
0.0
 11
8770.629144029117
 21
3972.635294509079
 31
0.0
  0
LINE
  5
631D
330
5FEA
100
AcDbEntity
  8
SP
370
    -2
100
AcDbLine
 10
9080.629144029117
 20
4077.635294509081
 30
0.0
 11
9080.629144029117
 21
3972.635294509079
 31
0.0
  0
LINE
  5
631E
330
5FEA
100
AcDbEntity
  8
SP
370
    -2
100
AcDbLine
 10
8808.129144029116
 20
3987.635294509079
 30
0.0
 11
9043.129144029117
 21
3987.635294509079
 31
0.0
  0
INSERT
  5
631F
330
5FEA
100
AcDbEntity
  8
SP
370
    -2
100
AcDbBlockReference
  2
_OPEN
 10
8770.629144029117
 20
3987.635294509079
 30
0.0
 41
37.5
 42
37.5
 43
37.5
 50
180.0
  0
INSERT
  5
6320
330
5FEA
100
AcDbEntity
  8
SP
370
    -2
100
AcDbBlockReference
  2
_OPEN
 10
9080.629144029117
 20
3987.635294509079
 30
0.0
 41
37.5
 42
37.5
 43
37.5
  0
MTEXT
  5
6321
330
5FEA
100
AcDbEntity
  8
SP
100
AcDbMText
 10
8925.629144029118
 20
4025.135294509079
 30
0.0
 40
45.0
 41
0.0
 71
     5
 72
     5
  1
\A1;310
 73
     1
 44
1.0
1001
ACAD
1000
MTEXTBEGIN
1070
    73
1070
     1
1070
    44
1040
1.0
1070
    74
1070
     0
1000
MTEXTEND
  0
POINT
  5
6322
330
5FEA
100
AcDbEntity
  8
Defpoints
 62
     0
380
     1
100
AcDbPoint
 10
8770.629144029117
 20
4092.63529450908
 30
0.0
  0
POINT
  5
6323
330
5FEA
100
AcDbEntity
  8
Defpoints
 62
     0
380
     1
100
AcDbPoint
 10
9080.629144029117
 20
4092.63529450908
 30
0.0
  0
POINT
  5
6324
330
5FEA
100
AcDbEntity
  8
Defpoints
 62
     0
380
     1
100
AcDbPoint
 10
9080.629144029117
 20
3987.635294509079
 30
0.0
  0
ENDBLK
  5
5FF5
330
5FEA
100
AcDbEntity
  8
0
100
AcDbBlockEnd
  0
BLOCK
  5
6536
330
6535
100
AcDbEntity
  8
0
100
AcDbBlockBegin
  2
*D20
 70
     1
 10
0.0
 20
0.0
 30
0.0
  3
*D20
  1

  0
LINE
  5
6578
330
6535
100
AcDbEntity
  8
SP
370
    -2
100
AcDbLine
 10
9202.629144029117
 20
4994.89786701067
 30
0.0
 11
9202.629144029117
 21
5029.922514625553
 31
0.0
  0
LINE
  5
6579
330
6535
100
AcDbEntity
  8
SP
370
    -2
100
AcDbLine
 10
8781.629144029116
 20
4681.216194509079
 30
0.0
 11
8781.629144029116
 21
5029.922514625553
 31
0.0
  0
LINE
  5
657A
330
6535
100
AcDbEntity
  8
SP
370
    -2
100
AcDbLine
 10
9165.129144029117
 20
5014.922514625554
 30
0.0
 11
8819.129144029117
 21
5014.922514625554
 31
0.0
  0
INSERT
  5
657B
330
6535
100
AcDbEntity
  8
SP
370
    -2
100
AcDbBlockReference
  2
_OPEN
 10
9202.629144029117
 20
5014.922514625554
 30
0.0
 41
37.5
 42
37.5
 43
37.5
  0
INSERT
  5
657C
330
6535
100
AcDbEntity
  8
SP
370
    -2
100
AcDbBlockReference
  2
_OPEN
 10
8781.629144029116
 20
5014.922514625554
 30
0.0
 41
37.5
 42
37.5
 43
37.5
 50
180.0
  0
MTEXT
  5
657D
330
6535
100
AcDbEntity
  8
SP
100
AcDbMText
 10
8992.129144029117
 20
5064.208228911269
 30
0.0
 40
45.0
 41
0.0
 71
     5
 72
     1
  1
\A1;(420)
 73
     1
 44
1.0
1001
ACAD
1000
MTEXTBEGIN
1070
    73
1070
     1
1070
    44
1040
1.0
1070
    74
1070
     0
1000
MTEXTEND
  0
POINT
  5
657E
330
6535
100
AcDbEntity
  8
Defpoints
 62
     0
100
AcDbPoint
 10
9202.629144029117
 20
4979.89786701067
 30
0.0
  0
POINT
  5
657F
330
6535
100
AcDbEntity
  8
Defpoints
 62
     0
100
AcDbPoint
 10
8781.629144029116
 20
4666.21619450908
 30
0.0
  0
POINT
  5
6580
330
6535
100
AcDbEntity
  8
Defpoints
 62
     0
100
AcDbPoint
 10
8781.629144029116
 20
5014.922514625554
 30
0.0
  0
ENDBLK
  5
6537
330
6535
100
AcDbEntity
  8
0
100
AcDbBlockEnd
  0
BLOCK
  5
6543
330
6542
100
AcDbEntity
  8
0
100
AcDbBlockBegin
  2
*D21
 70
     1
 10
0.0
 20
0.0
 30
0.0
  3
*D21
  1

  0
LINE
  5
6561
330
6542
100
AcDbEntity
  8
SP
370
    -2
100
AcDbLine
 10
9080.629144029117
 20
4077.635294509081
 30
0.0
 11
9080.629144029117
 21
3972.635294509079
 31
0.0
  0
LINE
  5
6562
330
6542
100
AcDbEntity
  8
SP
370
    -2
100
AcDbLine
 10
9202.629144029117
 20
4213.751686827116
 30
0.0
 11
9202.629144029117
 21
3972.635294509079
 31
0.0
  0
LINE
  5
6563
330
6542
100
AcDbEntity
  8
SP
370
    -2
100
AcDbLine
 10
9043.129144029117
 20
3987.635294509079
 30
0.0
 11
9005.629144029118
 21
3987.635294509079
 31
0.0
  0
LINE
  5
6564
330
6542
100
AcDbEntity
  8
SP
370
    -2
100
AcDbLine
 10
9240.129144029117
 20
3987.635294509079
 30
0.0
 11
9277.629144029118
 21
3987.635294509079
 31
0.0
  0
MTEXT
  5
6565
330
6542
100
AcDbEntity
  8
SP
100
AcDbMText
 10
9315.624584646661
 20
4025.979100644001
 30
0.0
 40
45.0
 41
0.0
 71
     5
 72
     1
  1
\A1;122
 73
     1
 44
1.0
1001
ACAD
1000
MTEXTBEGIN
1070
    73
1070
     1
1070
    44
1040
1.0
1070
    74
1070
     0
1000
MTEXTEND
  0
LINE
  5
6566
330
6542
100
AcDbEntity
  8
SP
370
    -2
100
AcDbLine
 10
9080.629144029117
 20
3987.635294509079
 30
0.0
 11
9202.629144029117
 21
3987.635294509079
 31
0.0
  0
INSERT
  5
6567
330
6542
100
AcDbEntity
  8
SP
370
    -2
100
AcDbBlockReference
  2
_OPEN
 10
9080.629144029117
 20
3987.635294509079
 30
0.0
 41
37.5
 42
37.5
 43
37.5
  0
INSERT
  5
6568
330
6542
100
AcDbEntity
  8
SP
370
    -2
100
AcDbBlockReference
  2
_OPEN
 10
9202.629144029117
 20
3987.635294509079
 30
0.0
 41
37.5
 42
37.5
 43
37.5
 50
180.0
  0
POINT
  5
6569
330
6542
100
AcDbEntity
  8
Defpoints
 62
     0
100
AcDbPoint
 10
9080.629144029117
 20
4092.63529450908
 30
0.0
  0
POINT
  5
656A
330
6542
100
AcDbEntity
  8
Defpoints
 62
     0
100
AcDbPoint
 10
9202.629144029117
 20
4228.751686827115
 30
0.0
  0
POINT
  5
656B
330
6542
100
AcDbEntity
  8
Defpoints
 62
     0
100
AcDbPoint
 10
9202.629144029117
 20
3987.635294509079
 30
0.0
  0
ENDBLK
  5
6544
330
6542
100
AcDbEntity
  8
0
100
AcDbBlockEnd
  0
ENDSEC
  0
SECTION
  2
ENTITIES
  0
TEXT
  5
27B3
330
19
100
AcDbEntity
  8
4
100
AcDbText
 10
8325.579458413313
 20
3298.549168161949
 30
0.0
 40
75.0
  1
MF＃2-7
100
AcDbText
  0
TEXT
  5
27B5
330
19
100
AcDbEntity
  8
4
100
AcDbText
 10
8312.115833266592
 20
3456.667445178387
 30
0.0
 40
75.0
  1
ミツヤ多翼送風機
100
AcDbText
  0
LINE
  5
27B6
330
19
100
AcDbEntity
  8
4
100
AcDbLine
 10
6845.597715035094
 20
7247.809791742034
 30
0.0
 11
9995.597715035096
 21
7247.809791742034
 31
0.0
  0
LINE
  5
27B7
330
19
100
AcDbEntity
  8
4
100
AcDbLine
 10
7220.597715035094
 20
6826.922923139242
 30
0.0
 11
9620.597715035096
 21
6826.922923139242
 31
0.0
  0
LINE
  5
27B8
330
19
100
AcDbEntity
  8
4
100
AcDbLine
 10
7220.597715035094
 20
6526.922923139242
 30
0.0
 11
9620.597715035096
 21
6526.922923139242
 31
0.0
  0
TEXT
  5
27B9
330
19
100
AcDbEntity
  8
4
100
AcDbText
 10
7577.692070952384
 20
6623.63125604098
 30
0.0
 40
108.0
  1
遠心式片吸込直動形多翼ファン
100
AcDbText
  0
LINE
  5
27BA
330
19
100
AcDbEntity
  8
4
100
AcDbLine
 10
9995.597715035096
 20
2822.809791742034
 30
0.0
 11
6845.597715035094
 21
2822.809791742034
 31
0.0
  0
LINE
  5
27BB
330
19
100
AcDbEntity
  8
4
100
AcDbLine
 10
7520.597715035094
 20
3572.809791742034
 30
0.0
 11
9320.597715035097
 21
3572.809791742034
 31
0.0
  0
LINE
  5
27BC
330
19
100
AcDbEntity
  8
4
100
AcDbLine
 10
7520.597715035094
 20
3422.809791742034
 30
0.0
 11
9320.597715035097
 21
3422.809791742034
 31
0.0
  0
LINE
  5
27BD
330
19
100
AcDbEntity
  8
4
100
AcDbLine
 10
7520.597715035094
 20
3272.809791742034
 30
0.0
 11
9320.597715035097
 21
3272.809791742034
 31
0.0
  0
LINE
  5
27BF
330
19
100
AcDbEntity
  8
4
100
AcDbLine
 10
6845.597715035094
 20
2822.809791742034
 30
0.0
 11
6845.597715035094
 21
7247.809791742034
 31
0.0
  0
TEXT
  5
27C1
330
19
100
AcDbEntity
  8
4
100
AcDbText
 10
7574.984874072291
 20
3305.27752684005
 30
0.0
 40
75.0
  1
機器型番
100
AcDbText
  0
TEXT
  5
27C2
330
19
100
AcDbEntity
  8
4
100
AcDbText
 10
7578.350836305446
 20
3470.124330541953
 30
0.0
 40
75.0
  1
機器名称
100
AcDbText
  0
LINE
  5
27C3
330
19
100
AcDbEntity
  8
4
100
AcDbLine
 10
7520.597715035094
 20
3572.809791742034
 30
0.0
 11
7520.597715035093
 21
3272.809791742034
 31
0.0
  0
LINE
  5
27C4
330
19
100
AcDbEntity
  8
4
100
AcDbLine
 10
8270.597715035096
 20
3572.809791742034
 30
0.0
 11
8270.597715035096
 21
3272.809791742034
 31
0.0
  0
TEXT
  5
27C5
330
19
100
AcDbEntity
  8
4
100
AcDbText
 10
7318.481087225048
 20
6396.289008061549
 30
0.0
 40
80.99999999999999
  1
右回転左横向
100
AcDbText
  0
LINE
  5
27C6
330
19
100
AcDbEntity
  8
4
100
AcDbLine
 10
7220.597715035094
 20
6826.922923139242
 30
0.0
 11
7220.597715035094
 21
6526.922923139242
 31
0.0
  0
LINE
  5
28A6
330
19
100
AcDbEntity
  8
4
100
AcDbLine
 10
9995.597715035096
 20
7247.809791742034
 30
0.0
 11
9995.597715035096
 21
2822.809791742034
 31
0.0
  0
LINE
  5
28AE
330
19
100
AcDbEntity
  8
4
100
AcDbLine
 10
9320.597715035097
 20
3572.809791742034
 30
0.0
 11
9320.597715035097
 21
3272.809791742034
 31
0.0
  0
LINE
  5
28C2
330
19
100
AcDbEntity
  8
4
100
AcDbLine
 10
9620.597715035096
 20
6844.705166430135
 30
0.0
 11
9006.523848574891
 21
6844.705166430135
 31
0.0
  0
LINE
  5
28C3
330
19
100
AcDbEntity
  8
4
100
AcDbLine
 10
9006.523848574891
 20
7002.788184066663
 30
0.0
 11
9620.597715035096
 21
7002.788184066663
 31
0.0
  0
TEXT
  5
2912
330
19
100
AcDbEntity
  8
4
100
AcDbText
 10
9049.052053909028
 20
6881.901413984997
 30
0.0
 40
84.00000000000002
  1
No.
100
AcDbText
  0
LINE
  5
2913
330
19
100
AcDbEntity
  8
4
100
AcDbLine
 10
9006.523848574891
 20
6844.705166430135
 30
0.0
 11
9006.523848574891
 21
7002.788184066663
 31
0.0
  0
LINE
  5
2914
330
19
100
AcDbEntity
  8
4
100
AcDbLine
 10
9620.597715035096
 20
6826.922923139242
 30
0.0
 11
9620.597715035096
 21
6526.922923139242
 31
0.0
  0
LINE
  5
2915
330
19
100
AcDbEntity
  8
4
100
AcDbLine
 10
9620.597715035096
 20
7002.788184066663
 30
0.0
 11
9620.597715035096
 21
6844.705166430135
 31
0.0
  0
LINE
  5
2916
330
19
100
AcDbEntity
  8
4
100
AcDbLine
 10
9995.597715035096
 20
7247.809791742034
 30
0.0
 11
9995.597715035096
 21
7247.809791742034
 31
0.0
  0
DIMENSION
  5
3F7C
330
19
100
AcDbEntity
  8
SP
100
AcDbDimension
  2
*D6
 10
7404.781716485624
 20
4804.922514625554
 30
0.0
 11
7367.281716485624
 21
4693.778904567319
 31
0.0
 70
    32
 71
     5
 42
-1.0
  3
GOD
100
AcDbAlignedDimension
 13
7559.838206638048
 23
4582.635294509082
 33
0.0
 14
7887.635420350427
 24
4804.922514625554
 34
0.0
 50
90.0
100
AcDbRotatedDimension
1001
ACAD
1000
DSTYLE
1002
{
1070
   271
1070
     0
1002
}
  0
DIMENSION
  5
3F7D
330
19
100
AcDbEntity
  8
SP
100
AcDbDimension
  2
*D2
 10
8129.012998119454
 20
4918.89053619199
 30
0.0
 11
7996.897357302538
 21
4956.39053619199
 31
0.0
 70
    32
 71
     5
 42
-1.0
  3
GOD
100
AcDbAlignedDimension
 13
7864.78171648562
 23
4855.633820463165
 33
0.0
 14
8129.012998119454
 24
4555.964871696694
 34
0.0
 50
180.0
100
AcDbRotatedDimension
1001
ACAD
1000
DSTYLE
1002
{
1070
   271
1070
     0
1002
}
  0
DIMENSION
  5
3F7E
330
19
100
AcDbEntity
  8
SP
100
AcDbDimension
  2
*D3
 10
7614.781716485625
 20
4918.89053619199
 30
0.0
 11
7739.781716485622
 21
4956.39053619199
 31
0.0
 70
    32
 71
     5
 42
-1.0
  3
GOD
100
AcDbAlignedDimension
 13
7864.78171648562
 23
4855.633820463165
 33
0.0
 14
7614.781716485625
 24
4604.135294509085
 34
0.0
 50
180.0
100
AcDbRotatedDimension
  0
LINE
  5
3F7F
330
19
100
AcDbEntity
  8
2
100
AcDbLine
 10
7864.78171648562
 20
4057.265404136123
 30
0.0
 11
7864.78171648562
 21
4855.633820463165
 31
0.0
  0
LWPOLYLINE
  5
3F80
330
19
100
AcDbEntity
  8
1
100
AcDbPolyline
 90
        3
 70
     0
 43
0.0
 10
7981.460130585408
 20
4796.925549998636
 42
0.1343314877425494
 10
7848.463587491868
 20
4811.878581335278
 42
0.3163064660587118
 10
7671.583796367682
 20
4640.889918814261
 42
0.3163064660587118
  0
DIMENSION
  5
3F81
330
19
100
AcDbEntity
  8
SP
100
AcDbDimension
  2
*D5
 10
7404.781716485624
 20
4582.635294509082
 30
0.0
 11
7367.281716485624
 21
4405.135294509084
 31
0.0
 70
    32
 71
     5
 42
-1.0
  3
GOD
100
AcDbAlignedDimension
 13
7614.781716485625
 23
4227.635294509082
 33
0.0
 14
7559.838206638048
 24
4582.635294509082
 34
0.0
 50
90.0
100
AcDbRotatedDimension
  0
DIMENSION
  5
3F82
330
19
100
AcDbEntity
  8
SP
100
AcDbDimension
  2
*D4
 10
7509.781716485614
 20
4267.635294509084
 30
0.0
 11
7472.281716485612
 21
4425.135294509085
 31
0.0
 70
    32
 71
     5
 42
-1.0
  3
GOD
100
AcDbAlignedDimension
 13
7559.838206638048
 23
4582.635294509082
 33
0.0
 14
7614.781716485613
 24
4267.635294509084
 34
0.0
 50
90.0
100
AcDbRotatedDimension
  0
LWPOLYLINE
  5
3F89
330
19
100
AcDbEntity
  8
1
100
AcDbPolyline
 90
        3
 70
     0
 43
0.0
 10
7614.781716485613
 20
4267.635294509084
 10
7839.281716485614
 20
4267.635294509079
 42
0.2269607506063405
 10
8067.689247009468
 20
4377.635294509081
 42
0.129402372482195
  0
LWPOLYLINE
  5
3F8A
330
19
100
AcDbEntity
  8
1
100
AcDbPolyline
 90
        3
 70
     0
 43
0.0
 10
7634.781716485614
 20
4257.635294509084
 10
7839.293893224301
 20
4257.635294509079
 42
0.2269714708976296
 10
8075.49243622104
 20
4371.38147662491
  0
LINE
  5
3F8B
330
19
100
AcDbEntity
  8
FUTO
100
AcDbLine
 10
7614.781716485625
 20
4604.135294509085
 30
0.0
 11
7614.781716485613
 21
4246.135294509086
 31
0.0
  0
LINE
  5
3F8C
330
19
100
AcDbEntity
  8
FUTO
100
AcDbLine
 10
7615.981716485613
 20
4246.135294509085
 30
0.0
 11
7615.981716485625
 21
4604.135294509084
 31
0.0
  0
LINE
  5
3F8D
330
19
100
AcDbEntity
  8
1
100
AcDbLine
 10
7619.081716485613
 20
4269.335294509086
 30
0.0
 11
7634.781716485616
 21
4285.035294509086
 31
0.0
  0
LWPOLYLINE
  5
3F97
330
19
100
AcDbEntity
  8
CT
100
AcDbPolyline
 90
        2
 70
     0
 43
0.0
 10
7609.718553270617
 20
4256.135294509086
 10
7621.986863554565
 20
4256.135294509085
  0
ARC
  5
3F98
330
19
100
AcDbEntity
  8
1
100
AcDbCircle
 10
7619.78171648561
 20
4268.635294509084
 30
0.0
 40
1.0
100
AcDbArc
 50
126.8698976458049
 51
270.0
  0
LINE
  5
3F99
330
19
100
AcDbEntity
  8
FUTO
100
AcDbLine
 10
7634.781716485614
 20
4257.635294509084
 30
0.0
 11
7634.781716485614
 21
4267.635294509084
 31
0.0
  0
LINE
  5
3F9A
330
19
100
AcDbEntity
  8
FUTO
100
AcDbLine
 10
7614.781716485613
 20
4246.135294509086
 30
0.0
 11
7615.981716485613
 21
4246.135294509085
 31
0.0
  0
LWPOLYLINE
  5
3F9B
330
19
100
AcDbEntity
  8
1
100
AcDbPolyline
 90
        2
 70
     0
 43
0.0
 10
8069.781716485625
 20
4721.885099501153
 42
0.1174780416237573
 10
7977.759974786145
 20
4787.63529450908
 42
0.3153658436290411
  0
LWPOLYLINE
  5
3F9D
330
19
100
AcDbEntity
  8
1
100
AcDbPolyline
 90
        2
 70
     0
 43
0.0
 10
8077.322700092183
 20
4728.452714459844
 42
0.1174780416237576
 10
7981.52957553617
 20
4796.897589591048
 42
0.1174780416237576
  0
LINE
  5
3F9E
330
19
100
AcDbEntity
  8
1
100
AcDbLine
 10
8067.481716485611
 20
4472.635294509082
 30
0.0
 11
8029.78171648561
 21
4440.967294509081
 31
0.0
  0
LINE
  5
3F9F
330
19
100
AcDbEntity
  8
1
100
AcDbLine
 10
8029.781716485613
 20
4285.835294509082
 30
0.0
 11
8067.481716485611
 21
4285.835294509082
 31
0.0
  0
LINE
  5
3FA0
330
19
100
AcDbEntity
  8
2
100
AcDbLine
 10
7559.838206638048
 20
4582.635294509082
 30
0.0
 11
8154.083741989278
 21
4582.635294509082
 31
0.0
  0
LINE
  5
3FA1
330
19
100
AcDbEntity
  8
1
100
AcDbLine
 10
7662.081716485612
 20
4482.635294509083
 30
0.0
 11
8067.481716485611
 21
4482.635294509083
 31
0.0
  0
LWPOLYLINE
  5
3FA2
330
19
100
AcDbEntity
  8
1
100
AcDbPolyline
 90
        3
 70
     0
 43
0.0
 10
8075.574293878529
 20
4371.485007046476
 42
0.2162335382726867
 10
8133.649206295297
 20
4612.436131657054
 42
0.1298839697351506
 10
8077.36417225831
 20
4728.404790019522
 42
0.1298839697351506
  0
LWPOLYLINE
  5
3FA3
330
19
100
AcDbEntity
  8
1
100
AcDbPolyline
 90
        3
 70
     0
 43
0.0
 10
8067.689247009468
 20
4377.635294509081
 42
0.2162148363065116
 10
8123.831927762266
 20
4610.533111317133
 42
0.1298622998199493
 10
8069.781716485625
 20
4721.885099501154
 42
0.3153658436290411
  0
CIRCLE
  5
3FA4
330
19
100
AcDbEntity
  8
CT
100
AcDbCircle
 10
7864.781716485613
 20
4582.635294509082
 30
0.0
 40
169.0
  0
ARC
  5
3FA5
330
19
100
AcDbEntity
  8
1
100
AcDbCircle
 10
7864.781716485613
 20
4582.635294509082
 30
0.0
 40
100.8
100
AcDbArc
 50
0.000000000000007
 51
254.5723000000003
  0
ARC
  5
3FA6
330
19
100
AcDbEntity
  8
1
100
AcDbCircle
 10
7864.781716485613
 20
4582.635294509082
 30
0.0
 40
100.8
100
AcDbArc
 50
285.7971000000011
 51
0.000000000000007
  0
LINE
  5
3FA7
330
19
100
AcDbEntity
  8
1
100
AcDbLine
 10
7634.781716485616
 20
4285.035294509087
 30
0.0
 11
7634.781716485623
 21
4566.235294509086
 31
0.0
  0
LINE
  5
3FA8
330
19
100
AcDbEntity
  8
CT
100
AcDbLine
 10
7910.722096991325
 20
4411.183460342775
 30
0.0
 11
7906.612661206269
 21
4426.520083483043
 31
0.0
  0
LINE
  5
3FA9
330
19
100
AcDbEntity
  8
1
100
AcDbLine
 10
7699.78171648561
 20
4440.967294509081
 30
0.0
 11
7699.78171648561
 21
4285.835294509082
 31
0.0
  0
LINE
  5
3FAA
330
19
100
AcDbEntity
  8
CT
100
AcDbLine
 10
7818.841335979931
 20
4411.183460342773
 30
0.0
 11
7822.950771764986
 21
4426.52008348304
 31
0.0
  0
LINE
  5
3FAB
330
19
100
AcDbEntity
  8
1
100
AcDbLine
 10
8029.78171648561
 20
4440.967294509081
 30
0.0
 11
8029.781716485613
 21
4285.835294509082
 31
0.0
  0
LINE
  5
3FAC
330
19
100
AcDbEntity
  8
1
100
AcDbLine
 10
7662.081716485612
 20
4285.835294509082
 30
0.0
 11
7699.78171648561
 21
4285.835294509082
 31
0.0
  0
LINE
  5
3FAD
330
19
100
AcDbEntity
  8
1
100
AcDbLine
 10
7697.7960021999
 20
4442.635294509082
 30
0.0
 11
7864.78171648562
 21
4442.635294509082
 31
0.0
  0
LINE
  5
3FAE
330
19
100
AcDbEntity
  8
1
100
AcDbLine
 10
7892.399416485613
 20
4485.635294509082
 30
0.0
 11
7837.512316485612
 21
4485.635294509082
 31
0.0
  0
LINE
  5
3FAF
330
19
100
AcDbEntity
  8
1
100
AcDbLine
 10
7962.781716485614
 20
4494.635294509082
 30
0.0
 11
7926.781716485614
 21
4494.635294509082
 31
0.0
  0
LINE
  5
3FB0
330
19
100
AcDbEntity
  8
1
100
AcDbLine
 10
7964.781716485614
 20
4482.635294509083
 30
0.0
 11
7924.781716485613
 21
4482.635294509083
 31
0.0
  0
CIRCLE
  5
3FB1
330
19
100
AcDbEntity
  8
1
100
AcDbCircle
 10
7908.522135107952
 20
4419.393829866234
 30
0.0
 40
4.0
  0
ARC
  5
3FB2
330
19
100
AcDbEntity
  8
1
100
AcDbCircle
 10
7933.338116485611
 20
4497.635294509082
 30
0.0
 40
3.0
100
AcDbArc
 50
225.0
 51
270.0
  0
LINE
  5
3FB3
330
19
100
AcDbEntity
  8
1
100
AcDbLine
 10
7925.363816485613
 20
4501.366994509082
 30
0.0
 11
7931.216716485614
 21
4495.513994509081
 31
0.0
  0
LINE
  5
3FB4
330
19
100
AcDbEntity
  8
1
100
AcDbLine
 10
7924.781716485613
 20
4482.635294509083
 30
0.0
 11
7924.781716485613
 21
4492.635294509081
 31
0.0
  0
ARC
  5
3FB5
330
19
100
AcDbEntity
  8
1
100
AcDbCircle
 10
7926.781716485614
 20
4492.635294509081
 30
0.0
 40
2.0
100
AcDbArc
 50
90.0
 51
180.0
  0
LINE
  5
3FB6
330
19
100
AcDbEntity
  8
1
100
AcDbLine
 10
7918.528316485612
 20
4496.888794509081
 30
0.0
 11
7924.781716485613
 21
4490.635294509082
 31
0.0
  0
LINE
  5
3FB7
330
19
100
AcDbEntity
  8
1
100
AcDbLine
 10
7963.690916485612
 20
4494.674794509082
 30
0.0
 11
7947.572216485612
 21
4524.809094509081
 31
0.0
  0
LINE
  5
3FB8
330
19
100
AcDbEntity
  8
1
100
AcDbLine
 10
7938.781716485613
 20
4482.635294509083
 30
0.0
 11
7938.781716485613
 21
4494.635294509082
 31
0.0
  0
LINE
  5
3FB9
330
19
100
AcDbEntity
  8
1
100
AcDbLine
 10
7964.781716485614
 20
4482.635294509083
 30
0.0
 11
7964.781716485614
 21
4492.635294509081
 31
0.0
  0
LINE
  5
3FBA
330
19
100
AcDbEntity
  8
1
100
AcDbLine
 10
7950.781716485614
 20
4494.635294509082
 30
0.0
 11
7950.781716485614
 21
4482.635294509083
 31
0.0
  0
ARC
  5
3FBB
330
19
100
AcDbEntity
  8
1
100
AcDbCircle
 10
7962.781716485614
 20
4492.635294509081
 30
0.0
 40
2.0
100
AcDbArc
 50
0.000000000000007
 51
90.0
  0
LINE
  5
3FBC
330
19
100
AcDbEntity
  8
CT
100
AcDbLine
 10
7944.781716485613
 20
4496.015794509081
 30
0.0
 11
7944.781716485613
 21
4478.668694509081
 31
0.0
  0
CIRCLE
  5
3FBD
330
19
100
AcDbEntity
  8
1
100
AcDbCircle
 10
7984.282762506151
 20
4463.134248488562
 30
0.0
 40
4.0
  0
LINE
  5
3FBE
330
19
100
AcDbEntity
  8
CT
100
AcDbLine
 10
7990.293170146236
 20
4457.123840848477
 30
0.0
 11
7979.065982791024
 21
4468.351028203688
 31
0.0
  0
CIRCLE
  5
3FBF
330
19
100
AcDbEntity
  8
1
100
AcDbCircle
 10
8028.023181128473
 20
4538.894875886764
 30
0.0
 40
4.0
  0
LINE
  5
3FC0
330
19
100
AcDbEntity
  8
CT
100
AcDbLine
 10
8036.23355065193
 20
4536.694914003392
 30
0.0
 11
8020.896927511662
 21
4540.804349788448
 31
0.0
  0
LINE
  5
3FC1
330
19
100
AcDbEntity
  8
1
100
AcDbLine
 10
8031.767430771324
 20
4442.635294509082
 30
0.0
 11
7864.78171648562
 21
4442.635294509082
 31
0.0
  0
LINE
  5
3FC2
330
19
100
AcDbEntity
  8
1
100
AcDbLine
 10
7811.331316485612
 20
4497.184994509082
 30
0.0
 11
7804.781716485614
 21
4490.635294509082
 31
0.0
  0
CIRCLE
  5
3FC3
330
19
100
AcDbEntity
  8
1
100
AcDbCircle
 10
7701.540251842773
 20
4538.894875886749
 30
0.0
 40
4.0
  0
LINE
  5
3FC4
330
19
100
AcDbEntity
  8
CT
100
AcDbLine
 10
7693.329882319318
 20
4536.694914003377
 30
0.0
 11
7708.666505459584
 21
4540.804349788433
 31
0.0
  0
CIRCLE
  5
3FC5
330
19
100
AcDbEntity
  8
1
100
AcDbCircle
 10
7745.280670465101
 20
4463.13424848855
 30
0.0
 40
4.0
  0
LINE
  5
3FC6
330
19
100
AcDbEntity
  8
CT
100
AcDbLine
 10
7739.270262825015
 20
4457.123840848465
 30
0.0
 11
7750.497450180228
 21
4468.351028203676
 31
0.0
  0
LINE
  5
3FC7
330
19
100
AcDbEntity
  8
1
100
AcDbLine
 10
7766.781716485613
 20
4494.635294509082
 30
0.0
 11
7802.781716485613
 21
4494.635294509082
 31
0.0
  0
LINE
  5
3FC8
330
19
100
AcDbEntity
  8
1
100
AcDbLine
 10
7764.781716485614
 20
4482.635294509083
 30
0.0
 11
7804.781716485614
 21
4482.635294509083
 31
0.0
  0
LINE
  5
3FC9
330
19
100
AcDbEntity
  8
1
100
AcDbLine
 10
7765.673916485612
 20
4494.303394509081
 30
0.0
 11
7782.074716485611
 21
4524.965394509082
 31
0.0
  0
LINE
  5
3FCA
330
19
100
AcDbEntity
  8
1
100
AcDbLine
 10
7764.781716485614
 20
4482.635294509083
 30
0.0
 11
7764.781716485614
 21
4492.635294509081
 31
0.0
  0
ARC
  5
3FCB
330
19
100
AcDbEntity
  8
1
100
AcDbCircle
 10
7766.781716485613
 20
4492.635294509081
 30
0.0
 40
2.0
100
AcDbArc
 50
90.0
 51
180.0
  0
LINE
  5
3FCC
330
19
100
AcDbEntity
  8
1
100
AcDbLine
 10
7778.781716485614
 20
4494.635294509082
 30
0.0
 11
7778.781716485614
 21
4482.635294509083
 31
0.0
  0
LINE
  5
3FCD
330
19
100
AcDbEntity
  8
1
100
AcDbLine
 10
7790.781716485614
 20
4482.635294509083
 30
0.0
 11
7790.781716485614
 21
4494.635294509082
 31
0.0
  0
LINE
  5
3FCE
330
19
100
AcDbEntity
  8
1
100
AcDbLine
 10
7804.781716485614
 20
4482.635294509083
 30
0.0
 11
7804.781716485614
 21
4492.635294509081
 31
0.0
  0
ARC
  5
3FCF
330
19
100
AcDbEntity
  8
1
100
AcDbCircle
 10
7802.781716485613
 20
4492.635294509081
 30
0.0
 40
2.0
100
AcDbArc
 50
0.000000000000007
 51
90.0
  0
ARC
  5
3FD0
330
19
100
AcDbEntity
  8
1
100
AcDbCircle
 10
7796.225316485612
 20
4497.635294509082
 30
0.0
 40
3.0
100
AcDbArc
 50
270.0
 51
315.0
  0
LINE
  5
3FD1
330
19
100
AcDbEntity
  8
1
100
AcDbLine
 10
7804.579216485611
 20
4501.746494509081
 30
0.0
 11
7798.346716485612
 21
4495.513994509081
 31
0.0
  0
LINE
  5
3FD2
330
19
100
AcDbEntity
  8
CT
100
AcDbLine
 10
7784.781716485614
 20
4496.015794509081
 30
0.0
 11
7784.781716485614
 21
4478.668694509081
 31
0.0
  0
CIRCLE
  5
3FD3
330
19
100
AcDbEntity
  8
1
100
AcDbCircle
 10
7821.041297863303
 20
4419.393829866231
 30
0.0
 40
4.0
  0
LINE
  5
3FD4
330
19
100
AcDbEntity
  8
1
100
AcDbLine
 10
7662.081716485612
 20
4472.635294509082
 30
0.0
 11
7699.78171648561
 21
4440.967294509082
 31
0.0
  0
POINT
  5
3FD5
330
19
100
AcDbEntity
  8
1
100
AcDbPoint
 10
7614.781716485606
 20
4425.135294509079
 30
0.0
  0
POINT
  5
3FD6
330
19
100
AcDbEntity
  8
1
100
AcDbPoint
 10
7614.781716485606
 20
4425.135294509079
 30
0.0
  0
LWPOLYLINE
  5
3FD7
330
19
100
AcDbEntity
  8
1
100
AcDbPolyline
 90
        2
 70
     0
 43
0.0
 10
7639.27080948218
 20
4595.299558123077
 42
0.0934525219043797
 10
7659.781716485624
 20
4615.189709801487
 42
0.1987366729981355
  0
LWPOLYLINE
  5
3FD8
330
19
100
AcDbEntity
  8
1
100
AcDbPolyline
 90
        3
 70
     0
 43
0.0
 10
7635.781716485624
 20
4583.635294509085
 42
0.101266720201501
 10
7641.281126972386
 20
4584.760649492694
 42
0.0681921917069782
 10
7659.781716485624
 20
4599.490386162657
 42
0.2200089805681688
  0
LWPOLYLINE
  5
3FDA
330
19
100
AcDbEntity
  8
1
100
AcDbPolyline
 90
        3
 70
     0
 43
0.0
 10
7977.75997478615
 20
4787.635294509081
 42
0.1343280102757561
 10
7850.011691205331
 20
4801.999138718286
 42
0.3163019945347412
 10
7681.404529943204
 20
4639.004927557354
 42
0.3153658436290411
  0
CIRCLE
  5
3FDB
330
19
100
AcDbEntity
  8
1
100
AcDbCircle
 10
8028.023181128467
 20
4626.375713131415
 30
0.0
 40
4.0
  0
LINE
  5
3FDC
330
19
100
AcDbEntity
  8
CT
100
AcDbLine
 10
8036.233550651923
 20
4628.575675014786
 30
0.0
 11
8020.896927511659
 21
4624.466239229731
 31
0.0
  0
CIRCLE
  5
3FDD
330
19
100
AcDbEntity
  8
1
100
AcDbCircle
 10
7701.540251842769
 20
4626.375713131399
 30
0.0
 40
4.0
  0
LINE
  5
3FDE
330
19
100
AcDbEntity
  8
CT
100
AcDbLine
 10
7693.329882319311
 20
4628.575675014771
 30
0.0
 11
7708.666505459579
 21
4624.466239229716
 31
0.0
  0
LWPOLYLINE
  5
3FDF
330
19
100
AcDbEntity
  8
1
100
AcDbPolyline
 90
        2
 70
     0
 43
0.0
 10
7659.781716485624
 20
4615.189709801487
 42
0.0941668855597806
 10
7671.693120793971
 20
4641.395461599989
 42
0.1987366729981355
  0
LWPOLYLINE
  5
3FE0
330
19
100
AcDbEntity
  8
1
100
AcDbPolyline
 90
        2
 70
     0
 43
0.0
 10
7659.781716485624
 20
4599.490386162657
 42
0.1315967463597435
 10
7681.409256242521
 20
4639.029724517096
 42
0.2200089805681688
  0
CIRCLE
  5
3FE2
330
19
100
AcDbEntity
  8
1
100
AcDbCircle
 10
7908.522135107938
 20
4745.876759151935
 30
0.0
 40
4.0
  0
LINE
  5
3FE3
330
19
100
AcDbEntity
  8
CT
100
AcDbLine
 10
7910.72209699131
 20
4754.087128675392
 30
0.0
 11
7906.612661206255
 21
4738.750505535125
 31
0.0
  0
CIRCLE
  5
3FE4
330
19
100
AcDbEntity
  8
1
100
AcDbCircle
 10
7984.28276250614
 20
4702.136340529612
 30
0.0
 40
4.0
  0
LINE
  5
3FE5
330
19
100
AcDbEntity
  8
CT
100
AcDbLine
 10
7990.293170146227
 20
4708.146748169698
 30
0.0
 11
7979.065982791013
 21
4696.919560814486
 31
0.0
  0
CIRCLE
  5
3FE6
330
19
100
AcDbEntity
  8
1
100
AcDbCircle
 10
7745.280670465087
 20
4702.136340529601
 30
0.0
 40
4.0
  0
LINE
  5
3FE7
330
19
100
AcDbEntity
  8
CT
100
AcDbLine
 10
7739.270262825005
 20
4708.146748169688
 30
0.0
 11
7750.497450180214
 21
4696.919560814474
 31
0.0
  0
CIRCLE
  5
3FE8
330
19
100
AcDbEntity
  8
1
100
AcDbCircle
 10
7821.041297863288
 20
4745.876759151929
 30
0.0
 40
4.0
  0
LINE
  5
3FE9
330
19
100
AcDbEntity
  8
CT
100
AcDbLine
 10
7818.841335979915
 20
4754.087128675387
 30
0.0
 11
7822.950771764968
 21
4738.75050553512
 31
0.0
  0
LWPOLYLINE
  5
3FEA
330
19
100
AcDbEntity
  8
CT
100
AcDbPolyline
 90
        2
 70
     0
 43
0.0
 10
7609.718553270628
 20
4594.135294509086
 10
7621.986863554572
 20
4594.135294509085
  0
ARC
  5
3FEB
330
19
100
AcDbEntity
  8
1
100
AcDbCircle
 10
7644.781716485621
 20
4586.955104635915
 30
0.0
 40
10.0
100
AcDbArc
 50
123.4418717894809
 51
180.0
  0
LINE
  5
3FEC
330
19
100
AcDbEntity
  8
1
100
AcDbLine
 10
7619.081716485624
 20
4581.935294509087
 30
0.0
 11
7634.781716485623
 21
4566.235294509088
 31
0.0
  0
LINE
  5
3FED
330
19
100
AcDbEntity
  8
1
100
AcDbLine
 10
7614.781716485625
 20
4583.635294509085
 30
0.0
 11
7635.781716485624
 21
4583.635294509085
 31
0.0
  0
LINE
  5
3FEE
330
19
100
AcDbEntity
  8
1
100
AcDbLine
 10
7634.781716485623
 20
4583.635294509091
 30
0.0
 11
7634.781716485623
 21
4586.955104635921
 31
0.0
  0
POINT
  5
3FEF
330
19
100
AcDbEntity
  8
1
100
AcDbPoint
 10
7614.781716485625
 20
4582.635294509084
 30
0.0
  0
ARC
  5
3FF0
330
19
100
AcDbEntity
  8
1
100
AcDbCircle
 10
7619.78171648562
 20
4582.635294509084
 30
0.0
 40
1.0
100
AcDbArc
 50
90.0
 51
233.130102354195
  0
LWPOLYLINE
  5
3FF1
330
19
100
AcDbEntity
  8
FUTO
100
AcDbPolyline
 90
        2
 70
     0
 43
0.0
 10
7614.781716485625
 20
4604.135294509085
 10
7615.981716485625
 20
4604.135294509085
  0
DIMENSION
  5
4A2E
330
19
100
AcDbEntity
  8
SP
100
AcDbDimension
  2
*D8
 10
9439.843732540889
 20
4425.135294509079
 30
0.0
 11
9402.343732540886
 21
4582.63529450908
 31
0.0
 70
    32
 71
     5
 42
315.0
  3
GOD
100
AcDbAlignedDimension
 13
9323.629144029117
 23
4740.135294509079
 33
0.0
 14
9323.629144029117
 24
4425.135294509079
 34
0.0
 50
90.0
100
AcDbRotatedDimension
1001
ACAD
1000
DSTYLE
1002
{
1070
     3
1000
\U+03C6<>
1002
}
  0
DIMENSION
  5
4A2F
330
19
100
AcDbEntity
  8
SP
100
AcDbDimension
  2
*D9
 10
9314.62914402911
 20
4909.922514625554
 30
0.0
 11
9202.629144029113
 21
4947.422514625554
 31
0.0
 70
    32
 71
     5
 42
223.9999999999927
  3
GOD
100
AcDbAlignedDimension
 13
9090.629144029117
 23
4789.922514625555
 33
0.0
 14
9314.62914402911
 24
4789.922514625554
 34
0.0
100
AcDbRotatedDimension
  0
DIMENSION
  5
4A30
330
19
100
AcDbEntity
  8
SP
100
AcDbDimension
  2
*D7
 10
9323.629144029117
 20
5014.922514625554
 30
0.0
 11
9263.129144029118
 21
5052.422514625554
 31
0.0
 70
    32
 71
     5
 42
121.0
  3
GOD
100
AcDbAlignedDimension
 13
9202.629144029117
 23
4979.89786701067
 33
0.0
 14
9323.629144029117
 24
4764.135294509078
 34
0.0
100
AcDbRotatedDimension
  0
LINE
  5
4A32
330
19
100
AcDbEntity
  8
2
100
AcDbLine
 10
9202.629144029117
 20
4893.688195434024
 30
0.0
 11
9202.629144029117
 21
4228.751686827115
 31
0.0
1001
ACAD
1000
ASC_BOUNDS
1002
{
1070
    19
1005
0
1005
0
1002
}
  0
LWPOLYLINE
  5
4A33
330
19
100
AcDbEntity
  8
1
100
AcDbPolyline
 90
        2
 70
     0
 43
0.0
 10
9077.429144029116
 20
4774.510955866619
 10
9077.429144029116
 20
4227.63529450908
  0
LWPOLYLINE
  5
4A34
330
19
100
AcDbEntity
  8
1
100
AcDbPolyline
 90
        3
 70
     0
 43
0.0
 10
9080.629144029117
 20
4777.95340534661
 10
9080.629144029117
 20
4582.63529450908
 10
9080.629144029117
 20
4227.63529450908
  0
LINE
  5
4A35
330
19
100
AcDbEntity
  8
FUTO
100
AcDbLine
 10
8900.429144029116
 20
4582.63529450908
 30
0.0
 11
8770.629144029117
 21
4230.83529450908
 31
0.0
  0
LINE
  5
4A3A
330
19
100
AcDbEntity
  8
1
100
AcDbLine
 10
8770.629144029117
 20
4227.63529450908
 30
0.0
 11
9120.629144029116
 21
4227.63529450908
 31
0.0
  0
LINE
  5
4A3B
330
19
100
AcDbEntity
  8
FUTO
100
AcDbLine
 10
8770.629144029117
 20
4230.83529450908
 30
0.0
 11
9077.429144029116
 21
4230.83529450908
 31
0.0
  0
LINE
  5
4A3D
330
19
100
AcDbEntity
  8
FUTO
100
AcDbLine
 10
8770.629144029117
 20
4227.63529450908
 30
0.0
 11
8770.629144029117
 21
4230.83529450908
 31
0.0
  0
LWPOLYLINE
  5
4A41
330
19
100
AcDbEntity
  8
FUTO
100
AcDbPolyline
 90
        2
 70
     0
 43
0.0
 10
9120.629144029116
 20
4230.83529450908
 10
9120.629144029116
 20
4227.635294509079
  0
LINE
  5
4A42
330
19
100
AcDbEntity
  8
FUTO
100
AcDbLine
 10
9080.629144029117
 20
4230.83529450908
 30
0.0
 11
9120.629144029116
 21
4230.83529450908
 31
0.0
  0
LINE
  5
4A46
330
19
100
AcDbEntity
  8
1
100
AcDbLine
 10
9335.629144029118
 20
4271.135294509085
 30
0.0
 11
9335.629144029118
 21
4579.135294509085
 31
0.0
  0
LINE
  5
4A4A
330
19
100
AcDbEntity
  8
1
100
AcDbLine
 10
8781.629144029116
 20
4499.08239450908
 30
0.0
 11
8781.629144029116
 21
4666.21619450908
 31
0.0
  0
LINE
  5
4A4B
330
19
100
AcDbEntity
  8
1
100
AcDbLine
 10
8871.629144029117
 20
4683.43529450908
 30
0.0
 11
8871.629144029117
 21
4532.63529450908
 31
0.0
  0
LINE
  5
4A4C
330
19
100
AcDbEntity
  8
1
100
AcDbLine
 10
8831.629144029117
 20
4486.635294509079
 30
0.0
 11
8831.629144029117
 21
4681.93529450908
 31
0.0
  0
LINE
  5
4A4D
330
19
100
AcDbEntity
  8
FUTO
100
AcDbLine
 10
8830.106027005141
 20
4391.773623687131
 30
0.0
 11
8782.508203209692
 21
4479.146787701621
 31
0.0
  0
LINE
  5
4A4E
330
19
100
AcDbEntity
  8
FUTO
100
AcDbLine
 10
8774.429144029117
 20
4479.146787701621
 30
0.0
 11
8862.298730816677
 21
4479.146787701617
 31
0.0
  0
LINE
  5
4A4F
330
19
100
AcDbEntity
  8
FUTO
100
AcDbLine
 10
8774.429144029117
 20
4481.546787701619
 30
0.0
 11
8863.183012506819
 21
4481.546787701619
 31
0.0
  0
LINE
  5
4A50
330
19
100
AcDbEntity
  8
1
100
AcDbLine
 10
8831.629144029117
 20
4486.635294509079
 30
0.0
 11
8783.042444029117
 21
4497.32439450908
 31
0.0
  0
ARC
  5
4A51
330
19
100
AcDbEntity
  8
1
100
AcDbCircle
 10
8783.428944029116
 20
4499.08219450908
 30
0.0
 40
1.7998
100
AcDbArc
 50
179.9961000000213
 51
257.5983000000071
  0
LINE
  5
4A52
330
19
100
AcDbEntity
  8
FUTO
100
AcDbLine
 10
8769.629144029117
 20
4453.946787701622
 30
0.0
 11
8772.029144029119
 21
4453.946787701622
 31
0.0
  0
ARC
  5
4A53
330
19
100
AcDbEntity
  8
FUTO
100
AcDbCircle
 10
8774.429144029117
 20
4476.74678770162
 30
0.0
 40
2.4
100
AcDbArc
 50
89.99999999999998
 51
180.0
  0
ARC
  5
4A54
330
19
100
AcDbEntity
  8
FUTO
100
AcDbCircle
 10
8774.429144029117
 20
4476.74678770162
 30
0.0
 40
4.8
100
AcDbArc
 50
89.99999999999998
 51
180.0
  0
LINE
  5
4A55
330
19
100
AcDbEntity
  8
FUTO
100
AcDbLine
 10
8772.029144029119
 20
4453.946787701622
 30
0.0
 11
8772.029144029119
 21
4476.74678770162
 31
0.0
  0
LINE
  5
4A56
330
19
100
AcDbEntity
  8
FUTO
100
AcDbLine
 10
8769.629144029117
 20
4453.946787701622
 30
0.0
 11
8769.629144029117
 21
4476.74678770162
 31
0.0
  0
LINE
  5
4A57
330
19
100
AcDbEntity
  8
1
100
AcDbLine
 10
8857.629144029116
 20
4523.635294509079
 30
0.0
 11
8871.629144029117
 21
4532.63529450908
 31
0.0
  0
LINE
  5
4A58
330
19
100
AcDbEntity
  8
1
100
AcDbLine
 10
8857.529644029117
 20
4497.63529450908
 30
0.0
 11
8869.110834169962
 21
4497.63529450908
 31
0.0
  0
LINE
  5
4A59
330
19
100
AcDbEntity
  8
1
100
AcDbLine
 10
8857.629144029116
 20
4485.635294509079
 30
0.0
 11
8832.629144029118
 21
4485.635294509079
 31
0.0
  0
ARC
  5
4A5A
330
19
100
AcDbEntity
  8
1
100
AcDbCircle
 10
8832.629244029114
 20
4486.635294509079
 30
0.0
 40
1.000099999999999
100
AcDbArc
 50
180.0
 51
269.9965000000103
  0
LINE
  5
4A5B
330
19
100
AcDbEntity
  8
1
100
AcDbLine
 10
8857.629144029116
 20
4485.635294509079
 30
0.0
 11
8857.629144029116
 21
4523.635294509079
 31
0.0
  0
LINE
  5
4A63
330
19
100
AcDbEntity
  8
1
100
AcDbLine
 10
8954.629144029118
 20
4682.635294509079
 30
0.0
 11
8992.024225800651
 21
4682.635294509079
 31
0.0
  0
LINE
  5
4A64
330
19
100
AcDbEntity
  8
2
100
AcDbLine
 10
9353.641128164833
 20
4582.63529450908
 30
0.0
 11
8740.241023462536
 21
4582.63529450908
 31
0.0
  0
LINE
  5
4A65
330
19
100
AcDbEntity
  8
1
100
AcDbLine
 10
9080.629144029117
 20
4777.95340534661
 30
0.0
 11
8899.067160821163
 21
4582.63529450908
 31
0.0
  0
LINE
  5
4A66
330
19
100
AcDbEntity
  8
1
100
AcDbLine
 10
8831.629144029117
 20
4679.635294509079
 30
0.0
 11
8783.009044029117
 21
4667.966494509079
 31
0.0
  0
ARC
  5
4A67
330
19
100
AcDbEntity
  8
1
100
AcDbCircle
 10
8783.429044029116
 20
4666.216294509079
 30
0.0
 40
1.7999
100
AcDbArc
 50
103.4933999999954
 51
180.0018999999831
  0
LINE
  5
4A68
330
19
100
AcDbEntity
  8
1
100
AcDbLine
 10
8871.629144029117
 20
4683.43529450908
 30
0.0
 11
8833.129144029117
 21
4683.43529450908
 31
0.0
  0
ARC
  5
4A69
330
19
100
AcDbEntity
  8
1
100
AcDbCircle
 10
8833.129144029117
 20
4681.93529450908
 30
0.0
 40
1.5
100
AcDbArc
 50
89.99999999999998
 51
180.0
  0
LINE
  5
4A6A
330
19
100
AcDbEntity
  8
1
100
AcDbLine
 10
8871.460844029115
 20
4669.07599450908
 30
0.0
 11
8879.289444029117
 21
4682.635294509079
 31
0.0
  0
LINE
  5
4A6B
330
19
100
AcDbEntity
  8
1
100
AcDbLine
 10
8954.629144029118
 20
4682.635294509079
 30
0.0
 11
8879.289444029117
 21
4682.635294509079
 31
0.0
  0
LINE
  5
4A6C
330
19
100
AcDbEntity
  8
1
100
AcDbLine
 10
9314.62914402911
 20
4789.922514625554
 30
0.0
 11
9314.629144029122
 21
4272.635294509079
 31
0.0
  0
LINE
  5
4A6D
330
19
100
AcDbEntity
  8
1
100
AcDbLine
 10
9090.629144029117
 20
4789.922514625555
 30
0.0
 11
9090.629144029115
 21
4272.635294509079
 31
0.0
  0
ARC
  5
4A73
330
19
100
AcDbEntity
  8
FUTO
100
AcDbCircle
 10
9310.629144029118
 20
4579.135294509085
 30
0.0
 40
25.0
100
AcDbArc
 50
0.0
 51
58.66774850240535
  0
LINE
  5
4A74
330
19
100
AcDbEntity
  8
FUTO
100
AcDbLine
 10
9105.629144029117
 20
4804.922514625555
 30
0.0
 11
9299.629144029109
 21
4804.922514625554
 31
0.0
  0
ARC
  5
4A75
330
19
100
AcDbEntity
  8
1
100
AcDbCircle
 10
9082.629144029118
 20
4764.135294509078
 30
0.0
 40
1.0
100
AcDbArc
 50
89.99999999999998
 51
180.0
  0
ARC
  5
4A76
330
19
100
AcDbEntity
  8
1
100
AcDbCircle
 10
9088.629144029118
 20
4766.135294509078
 30
0.0
 40
1.0
100
AcDbArc
 50
270.0
 51
0.0
  0
LINE
  5
4A77
330
19
100
AcDbEntity
  8
1
100
AcDbLine
 10
9088.629144029118
 20
4765.135294509079
 30
0.0
 11
9082.629144029118
 21
4765.135294509079
 31
0.0
  0
ARC
  5
4A78
330
19
100
AcDbEntity
  8
FUTO
100
AcDbCircle
 10
9105.629144029117
 20
4789.922514625555
 30
0.0
 40
15.0
100
AcDbArc
 50
90.0
 51
180.0000000000002
  0
ARC
  5
4A80
330
19
100
AcDbEntity
  8
FUTO
100
AcDbCircle
 10
9299.629144029109
 20
4789.922514625554
 30
0.0
 40
15.0
100
AcDbArc
 50
0.0000000000010178
 51
89.99999999999971
  0
LINE
  5
4B01
330
19
100
AcDbEntity
  8
FUTO
100
AcDbLine
 10
9094.629144029118
 20
4246.135294509085
 30
0.0
 11
9310.629144029118
 21
4246.135294509085
 31
0.0
  0
ARC
  5
4B02
330
19
100
AcDbEntity
  8
FUTO
100
AcDbCircle
 10
9310.629144029118
 20
4271.135294509085
 30
0.0
 40
25.0
100
AcDbArc
 50
270.0
 51
0.0
  0
ARC
  5
4B05
330
19
100
AcDbEntity
  8
FUTO
100
AcDbCircle
 10
9094.629144029118
 20
4271.135294509085
 30
0.0
 40
25.0
100
AcDbArc
 50
238.6677485024053
 51
270.0
  0
LINE
  5
4B07
330
19
100
AcDbEntity
  8
FUTO
100
AcDbLine
 10
9105.629144029114
 20
4257.635294509079
 30
0.0
 11
9299.629144029124
 21
4257.635294509079
 31
0.0
  0
ARC
  5
4B08
330
19
100
AcDbEntity
  8
FUTO
100
AcDbCircle
 10
9299.629144029124
 20
4272.635294509079
 30
0.0
 40
15.0
100
AcDbArc
 50
269.9999999999997
 51
0.0000000000011196
  0
ARC
  5
4B09
330
19
100
AcDbEntity
  8
FUTO
100
AcDbCircle
 10
9105.629144029114
 20
4272.635294509079
 30
0.0
 40
15.0
100
AcDbArc
 50
180.0
 51
269.9999999999998
  0
DIMENSION
  5
4B1C
330
19
100
AcDbEntity
  8
SP
100
AcDbDimension
  2
*D10
 10
7440.909014049438
 20
5854.362935220169
 30
0.0
 11
7403.409014049437
 21
5996.862935220171
 31
0.0
 70
    32
 71
     5
 42
-1.0
  3
GOD
100
AcDbAlignedDimension
 13
7614.781716485611
 23
5732.362935220167
 33
0.0
 14
7567.160168219131
 24
5854.362935220169
 34
0.0
 50
90.0
100
AcDbRotatedDimension
  0
LINE
  5
4B1D
330
19
100
AcDbEntity
  8
1
100
AcDbLine
 10
7614.781716485612
 20
5987.362935220167
 30
0.0
 11
7614.781716485611
 21
5721.362935220168
 31
0.0
  0
LINE
  5
4B1E
330
19
100
AcDbEntity
  8
1
100
AcDbLine
 10
7634.781716485611
 20
5948.56293522017
 30
0.0
 11
7634.781716485611
 21
5760.162935220169
 31
0.0
  0
LINE
  5
4B1F
330
19
100
AcDbEntity
  8
1
100
AcDbLine
 10
7615.98171648561
 20
5987.362935220168
 30
0.0
 11
7615.98171648561
 21
5721.362935220168
 31
0.0
  0
LINE
  5
4B20
330
19
100
AcDbEntity
  8
2
100
AcDbLine
 10
7864.781716485613
 20
5368.182908544904
 30
0.0
 11
7864.781716485613
 21
5995.364287666135
 31
0.0
  0
LINE
  5
4B21
330
19
100
AcDbEntity
  8
1
100
AcDbLine
 10
8128.781716485613
 20
5952.362935220168
 30
0.0
 11
8128.781716485613
 21
5756.362935220169
 31
0.0
  0
DIMENSION
  5
4B22
330
19
100
AcDbEntity
  8
SP
100
AcDbDimension
  2
*D12
 10
7614.781716485615
 20
5275.34150146671
 30
0.0
 11
7864.781716485615
 21
5312.84150146671
 31
0.0
 70
    32
 71
     5
 42
-1.0
  3
GOD
100
AcDbAlignedDimension
 13
8114.781716485614
 23
5422.362935220169
 33
0.0
 14
7614.781716485615
 24
5422.362935220169
 34
0.0
 50
180.0
100
AcDbRotatedDimension
  0
DIMENSION
  5
4B23
330
19
100
AcDbEntity
  8
SP
100
AcDbDimension
  2
*D11
 10
7440.909014049438
 20
5422.362935220169
 30
0.0
 11
7403.409014049437
 21
5577.362935220169
 31
0.0
 70
    32
 71
     5
 42
-1.0
  3
GOD
100
AcDbAlignedDimension
 13
7614.781716485615
 23
5732.362935220167
 33
0.0
 14
7614.781716485615
 24
5422.362935220169
 34
0.0
 50
90.0
100
AcDbRotatedDimension
  0
LINE
  5
4B24
330
19
100
AcDbEntity
  8
1
100
AcDbLine
 10
7964.781716485615
 20
5532.02323522017
 30
0.0
 11
7964.781716485615
 21
5682.702635220169
 31
0.0
  0
LINE
  5
4B25
330
19
100
AcDbEntity
  8
1
100
AcDbLine
 10
7764.781716485614
 20
5682.702635220169
 30
0.0
 11
7764.781716485614
 21
5532.02323522017
 31
0.0
  0
LINE
  5
4B2C
330
19
100
AcDbEntity
  8
1
100
AcDbLine
 10
7781.228816485617
 20
5434.362935220168
 30
0.0
 11
7948.362616485616
 21
5434.362935220168
 31
0.0
  0
LINE
  5
4B2D
330
19
100
AcDbEntity
  8
1
100
AcDbLine
 10
7781.228816485612
 20
5434.362935220168
 30
0.0
 11
7948.362616485612
 21
5434.362935220168
 31
0.0
  0
LINE
  5
4B2E
330
19
100
AcDbEntity
  8
1
100
AcDbLine
 10
7768.781716485616
 20
5484.362935220168
 30
0.0
 11
7964.081716485615
 21
5484.362935220168
 31
0.0
  0
LINE
  5
4B2F
330
19
100
AcDbEntity
  8
1
100
AcDbLine
 10
7965.581716485615
 20
5524.362935220168
 30
0.0
 11
7763.981716485615
 21
5524.362935220168
 31
0.0
  0
LINE
  5
4B30
330
19
100
AcDbEntity
  8
1
100
AcDbLine
 10
7961.781716485615
 20
5484.362935220168
 30
0.0
 11
7950.112916485615
 21
5435.742835220168
 31
0.0
  0
ARC
  5
4B35
330
19
100
AcDbEntity
  8
1
100
AcDbCircle
 10
7948.362716485616
 20
5436.162835220169
 30
0.0
 40
1.7999
100
AcDbArc
 50
269.9981000000006
 51
346.5066000000023
  0
LINE
  5
4B37
330
19
100
AcDbEntity
  8
1
100
AcDbLine
 10
7965.581716485615
 20
5524.362935220168
 30
0.0
 11
7965.581716485615
 21
5485.862935220168
 31
0.0
  0
ARC
  5
4B38
330
19
100
AcDbEntity
  8
1
100
AcDbCircle
 10
7964.081716485615
 20
5485.862935220168
 30
0.0
 40
1.5
100
AcDbArc
 50
270.0
 51
0.000000000000007
  0
LINE
  5
4B39
330
19
100
AcDbEntity
  8
1
100
AcDbLine
 10
7951.222416485617
 20
5524.194635220169
 30
0.0
 11
7964.781716485615
 21
5532.02323522017
 31
0.0
  0
LINE
  5
4B3A
330
19
100
AcDbEntity
  8
1
100
AcDbLine
 10
7767.781716485615
 20
5484.362935220168
 30
0.0
 11
7779.450516485616
 21
5435.742835220168
 31
0.0
  0
ARC
  5
4B3C
330
19
100
AcDbEntity
  8
1
100
AcDbCircle
 10
7781.200716485615
 20
5436.162835220169
 30
0.0
 40
1.7999
100
AcDbArc
 50
193.4933999999977
 51
270.0018999999994
  0
LINE
  5
4B41
330
19
100
AcDbEntity
  8
1
100
AcDbLine
 10
7763.981716485615
 20
5524.362935220168
 30
0.0
 11
7763.981716485615
 21
5485.862935220168
 31
0.0
  0
ARC
  5
4B42
330
19
100
AcDbEntity
  8
1
100
AcDbCircle
 10
7765.481716485616
 20
5485.862935220168
 30
0.0
 40
1.5
100
AcDbArc
 50
180.0
 51
270.0
  0
LINE
  5
4B43
330
19
100
AcDbEntity
  8
1
100
AcDbLine
 10
7778.341016485616
 20
5524.194635220169
 30
0.0
 11
7764.781716485614
 21
5532.02323522017
 31
0.0
  0
LINE
  5
4B45
330
19
100
AcDbEntity
  8
1
100
AcDbLine
 10
7779.781716485615
 20
5691.362935220169
 30
0.0
 11
7949.781716485616
 21
5691.362935220169
 31
0.0
  0
LINE
  5
4B46
330
19
100
AcDbEntity
  8
1
100
AcDbLine
 10
7946.781716485616
 20
5712.090614653588
 30
0.0
 11
7782.781716485615
 21
5712.090614653588
 31
0.0
  0
LINE
  5
4B47
330
19
100
AcDbEntity
  8
1
100
AcDbLine
 10
7827.781716485616
 20
5718.090614653588
 30
0.0
 11
7901.781716485615
 21
5718.090614653588
 31
0.0
  0
LWPOLYLINE
  5
4B48
330
19
100
AcDbEntity
  8
1
100
AcDbPolyline
 90
        2
 70
     0
 43
0.0
 10
7885.112019265438
 20
5733.362935220169
 10
8046.281716485612
 20
5733.362935220169
  0
LINE
  5
4B49
330
19
100
AcDbEntity
  8
1
100
AcDbLine
 10
7864.781716485613
 20
5741.362935220172
 30
0.0
 11
8113.781716485613
 21
5741.362935220169
 31
0.0
  0
LINE
  5
4B4A
330
19
100
AcDbEntity
  8
2
100
AcDbLine
 10
8190.144845331522
 20
5854.362935220169
 30
0.0
 11
7567.160168219131
 21
5854.362935220169
 31
0.0
1001
ACAD
1000
ASC_BOUNDS
1002
{
1070
    19
1005
0
1005
0
1002
}
  0
ARC
  5
4B4B
330
19
100
AcDbEntity
  8
1
100
AcDbCircle
 10
8113.781716485613
 20
5756.362935220169
 30
0.0
 40
15.0
100
AcDbArc
 50
270.0
 51
0.000000000000007
  0
LINE
  5
4B50
330
19
100
AcDbEntity
  8
1
100
AcDbLine
 10
7949.781716485616
 20
5691.362935220169
 30
0.0
 11
7949.781716485616
 21
5709.090614653588
 31
0.0
  0
LINE
  5
4B51
330
19
100
AcDbEntity
  8
1
100
AcDbLine
 10
7949.781716485616
 20
5694.362935220169
 30
0.0
 11
7949.781716485616
 21
5691.362935220169
 31
0.0
  0
LINE
  5
4B52
330
19
100
AcDbEntity
  8
1
100
AcDbLine
 10
7964.781716485615
 20
5682.702635220169
 30
0.0
 11
7949.781716485616
 21
5691.362935220169
 31
0.0
  0
ARC
  5
4B53
330
19
100
AcDbEntity
  8
1
100
AcDbCircle
 10
7901.781816485616
 20
5715.090614653588
 30
0.0
 40
2.999899999999999
100
AcDbArc
 50
359.9988000000029
 51
90.00120000000034
  0
LINE
  5
4B54
330
19
100
AcDbEntity
  8
1
100
AcDbLine
 10
7904.781716485615
 20
5712.090614653588
 30
0.0
 11
7904.781716485615
 21
5715.090614653588
 31
0.0
  0
ARC
  5
4B55
330
19
100
AcDbEntity
  8
1
100
AcDbCircle
 10
7946.781816485617
 20
5709.090614653588
 30
0.0
 40
2.999899999999999
100
AcDbArc
 50
359.9988000000029
 51
90.00120000000034
  0
ARC
  5
4B56
330
19
100
AcDbEntity
  8
1
100
AcDbCircle
 10
8044.436296673605
 20
5774.936788372067
 30
0.0
 40
48.65638419258441
100
AcDbArc
 50
223.6316512768358
 51
236.4999663347355
  0
ARC
  5
4B57
330
19
100
AcDbEntity
  8
1
100
AcDbCircle
 10
8045.281716485613
 20
5735.362935220169
 30
0.0
 40
1.0
100
AcDbArc
 50
270.0
 51
0.000000000000007
  0
ARC
  5
4B58
330
19
100
AcDbEntity
  8
1
100
AcDbCircle
 10
8046.281716485614
 20
5734.362935220168
 30
0.0
 40
1.0
100
AcDbArc
 50
270.0
 51
0.000000000000007
  0
LINE
  5
4B59
330
19
100
AcDbEntity
  8
1
100
AcDbLine
 10
8046.281716485614
 20
5741.362935220166
 30
0.0
 11
8046.281716485614
 21
5735.362935220167
 31
0.0
  0
LINE
  5
4B5A
330
19
100
AcDbEntity
  8
1
100
AcDbLine
 10
8047.281716485613
 20
5740.362935220169
 30
0.0
 11
8047.281716485613
 21
5734.362935220167
 31
0.0
  0
ARC
  5
4B5B
330
19
100
AcDbEntity
  8
1
100
AcDbCircle
 10
8048.281716485613
 20
5740.362935220169
 30
0.0
 40
1.0
100
AcDbArc
 50
90.0
 51
180.0
  0
LINE
  5
4B5C
330
19
100
AcDbEntity
  8
1
100
AcDbLine
 10
8045.281716485613
 20
5734.362935220167
 30
0.0
 11
8017.581014826181
 21
5734.362935220168
 31
0.0
  0
LINE
  5
4B5D
330
19
100
AcDbEntity
  8
1
100
AcDbLine
 10
7615.98171648561
 20
5741.362935220169
 30
0.0
 11
7634.781716485611
 21
5760.162935220169
 31
0.0
  0
LINE
  5
4B5F
330
19
100
AcDbEntity
  8
1
100
AcDbLine
 10
7684.281716485613
 20
5734.362935220168
 30
0.0
 11
7711.982418145048
 21
5734.362935220168
 31
0.0
  0
LINE
  5
4B60
330
19
100
AcDbEntity
  8
1
100
AcDbLine
 10
7614.781716485612
 20
5741.362935220169
 30
0.0
 11
7864.781716485613
 21
5741.362935220169
 31
0.0
  0
LWPOLYLINE
  5
4B61
330
19
100
AcDbEntity
  8
1
100
AcDbPolyline
 90
        3
 70
     0
 43
0.0
 10
7683.281716485613
 20
5733.362935220169
 10
7864.781716485613
 20
5733.362935220169
 10
7885.112019265438
 20
5733.362935220169
  0
LINE
  5
4B62
330
19
100
AcDbEntity
  8
1
100
AcDbLine
 10
7850.181816485616
 20
5718.090614653588
 30
0.0
 11
7850.181816485616
 21
5741.362935220169
 31
0.0
  0
LINE
  5
4B63
330
19
100
AcDbEntity
  8
1
100
AcDbLine
 10
7879.381716485615
 20
5718.090614653588
 30
0.0
 11
7879.381716485615
 21
5741.362935220172
 31
0.0
  0
LINE
  5
4B64
330
19
100
AcDbEntity
  8
1
100
AcDbLine
 10
7779.781716485615
 20
5691.362935220169
 30
0.0
 11
7779.781716485615
 21
5709.090614653588
 31
0.0
  0
LINE
  5
4B65
330
19
100
AcDbEntity
  8
1
100
AcDbLine
 10
7779.781716485615
 20
5694.362935220169
 30
0.0
 11
7779.781716485615
 21
5691.362935220169
 31
0.0
  0
LINE
  5
4B66
330
19
100
AcDbEntity
  8
1
100
AcDbLine
 10
7764.781716485614
 20
5682.702635220169
 30
0.0
 11
7779.781716485615
 21
5691.362935220169
 31
0.0
  0
ARC
  5
4B67
330
19
100
AcDbEntity
  8
1
100
AcDbCircle
 10
7685.127136297625
 20
5774.936788372067
 30
0.0
 40
48.65638419258441
100
AcDbArc
 50
303.5000336652645
 51
316.3683487231641
  0
ARC
  5
4B68
330
19
100
AcDbEntity
  8
1
100
AcDbCircle
 10
7782.781616485616
 20
5709.090614653588
 30
0.0
 40
2.999899999999999
100
AcDbArc
 50
89.99879999999967
 51
180.0011999999971
  0
LINE
  5
4B69
330
19
100
AcDbEntity
  8
1
100
AcDbLine
 10
7824.781716485616
 20
5712.090614653588
 30
0.0
 11
7824.781716485616
 21
5715.090614653588
 31
0.0
  0
ARC
  5
4B6A
330
19
100
AcDbEntity
  8
1
100
AcDbCircle
 10
7827.781716485616
 20
5715.090614653588
 30
0.0
 40
2.999899999999999
100
AcDbArc
 50
89.99879999999967
 51
180.0011999999971
  0
LINE
  5
4B6C
330
19
100
AcDbEntity
  8
1
100
AcDbLine
 10
7614.781716485612
 20
5721.362935220168
 30
0.0
 11
7615.98171648561
 21
5721.362935220168
 31
0.0
1001
ACAD
1000
ASC_BOUNDS
1002
{
1070
    19
1002
}
  0
ARC
  5
4B70
330
19
100
AcDbEntity
  8
1
100
AcDbCircle
 10
7681.281716485615
 20
5740.362935220169
 30
0.0
 40
1.0
100
AcDbArc
 50
0.000000000000007
 51
90.0
  0
LINE
  5
4B71
330
19
100
AcDbEntity
  8
1
100
AcDbLine
 10
7682.281716485615
 20
5740.362935220169
 30
0.0
 11
7682.281716485613
 21
5734.362935220168
 31
0.0
  0
LINE
  5
4B72
330
19
100
AcDbEntity
  8
1
100
AcDbLine
 10
7683.281716485613
 20
5741.362935220169
 30
0.0
 11
7683.281716485613
 21
5735.362935220169
 31
0.0
  0
ARC
  5
4B73
330
19
100
AcDbEntity
  8
1
100
AcDbCircle
 10
7683.281716485611
 20
5734.362935220168
 30
0.0
 40
1.0
100
AcDbArc
 50
180.0
 51
270.0
  0
ARC
  5
4B74
330
19
100
AcDbEntity
  8
1
100
AcDbCircle
 10
7684.281716485613
 20
5735.362935220169
 30
0.0
 40
1.0
100
AcDbArc
 50
180.0
 51
270.0
  0
ARC
  5
4B75
330
19
100
AcDbEntity
  8
1
100
AcDbCircle
 10
7683.281716485613
 20
5734.362935220168
 30
0.0
 40
1.0
100
AcDbArc
 50
180.0
 51
270.0
  0
LWPOLYLINE
  5
4B76
330
19
100
AcDbEntity
  8
1
100
AcDbPolyline
 90
        2
 70
     0
 43
0.0
 10
7885.112019265438
 20
5975.362935220169
 10
8046.281716485612
 20
5975.362935220169
  0
LINE
  5
4B77
330
19
100
AcDbEntity
  8
1
100
AcDbLine
 10
7864.781716485613
 20
5967.362935220167
 30
0.0
 11
8113.781716485613
 21
5967.362935220169
 31
0.0
  0
ARC
  5
4B78
330
19
100
AcDbEntity
  8
1
100
AcDbCircle
 10
8113.781716485613
 20
5952.362935220168
 30
0.0
 40
15.0
100
AcDbArc
 50
0.000000000000007
 51
90.0
  0
LINE
  5
4B79
330
19
100
AcDbEntity
  8
1
100
AcDbLine
 10
8045.281716485613
 20
5974.36293522017
 30
0.0
 11
8017.581014826181
 21
5974.362935220169
 31
0.0
  0
ARC
  5
4B7A
330
19
100
AcDbEntity
  8
1
100
AcDbCircle
 10
8048.281716485613
 20
5968.362935220169
 30
0.0
 40
1.0
100
AcDbArc
 50
180.0
 51
270.0
  0
LINE
  5
4B7B
330
19
100
AcDbEntity
  8
1
100
AcDbLine
 10
8047.281716485613
 20
5968.362935220169
 30
0.0
 11
8047.281716485613
 21
5974.36293522017
 31
0.0
  0
LINE
  5
4B7C
330
19
100
AcDbEntity
  8
1
100
AcDbLine
 10
8046.281716485614
 20
5967.362935220171
 30
0.0
 11
8046.281716485614
 21
5973.362935220171
 31
0.0
  0
ARC
  5
4B7D
330
19
100
AcDbEntity
  8
1
100
AcDbCircle
 10
8046.281716485614
 20
5974.362935220169
 30
0.0
 40
1.0
100
AcDbArc
 50
0.000000000000007
 51
89.99999999999998
  0
ARC
  5
4B7E
330
19
100
AcDbEntity
  8
1
100
AcDbCircle
 10
8045.281716485613
 20
5973.362935220169
 30
0.0
 40
1.0
100
AcDbArc
 50
0.000000000000007
 51
89.99999999999998
  0
ARC
  5
4B7F
330
19
100
AcDbEntity
  8
1
100
AcDbCircle
 10
8044.436296673605
 20
5933.789082068271
 30
0.0
 40
48.65638419258441
100
AcDbArc
 50
123.5000336652645
 51
136.3683487231641
  0
LWPOLYLINE
  5
4B80
330
19
100
AcDbEntity
  8
1
100
AcDbPolyline
 90
        3
 70
     0
 43
0.0
 10
7683.281716485613
 20
5975.362935220169
 10
7864.781716485613
 20
5975.362935220169
 10
7885.112019265438
 20
5975.362935220169
  0
LINE
  5
4B81
330
19
100
AcDbEntity
  8
1
100
AcDbLine
 10
7684.281716485613
 20
5974.362935220169
 30
0.0
 11
7711.982418145048
 21
5974.362935220169
 31
0.0
  0
LINE
  5
4B82
330
19
100
AcDbEntity
  8
1
100
AcDbLine
 10
7614.781716485611
 20
5967.362935220169
 30
0.0
 11
7864.781716485613
 21
5967.362935220169
 31
0.0
  0
ARC
  5
4B83
330
19
100
AcDbEntity
  8
1
100
AcDbCircle
 10
7685.127136297625
 20
5933.789082068271
 30
0.0
 40
48.65638419258441
100
AcDbArc
 50
43.63165127683589
 51
56.49996633473549
  0
ARC
  5
4B84
330
19
100
AcDbEntity
  8
1
100
AcDbCircle
 10
7683.281716485613
 20
5974.362935220169
 30
0.0
 40
1.0
100
AcDbArc
 50
89.99999999999998
 51
180.0
  0
ARC
  5
4B85
330
19
100
AcDbEntity
  8
1
100
AcDbCircle
 10
7684.281716485613
 20
5973.362935220169
 30
0.0
 40
1.0
100
AcDbArc
 50
89.99999999999998
 51
180.0
  0
ARC
  5
4B86
330
19
100
AcDbEntity
  8
1
100
AcDbCircle
 10
7683.281716485611
 20
5974.362935220169
 30
0.0
 40
1.0
100
AcDbArc
 50
89.99999999999998
 51
180.0
  0
LINE
  5
4B87
330
19
100
AcDbEntity
  8
1
100
AcDbLine
 10
7683.281716485613
 20
5967.362935220169
 30
0.0
 11
7683.281716485613
 21
5973.362935220169
 31
0.0
  0
LINE
  5
4B88
330
19
100
AcDbEntity
  8
1
100
AcDbLine
 10
7682.281716485615
 20
5968.362935220169
 30
0.0
 11
7682.281716485613
 21
5974.362935220169
 31
0.0
  0
ARC
  5
4B89
330
19
100
AcDbEntity
  8
1
100
AcDbCircle
 10
7681.281716485615
 20
5968.362935220169
 30
0.0
 40
1.0
100
AcDbArc
 50
270.0
 51
0.000000000000007
  0
LINE
  5
4B8A
330
19
100
AcDbEntity
  8
1
100
AcDbLine
 10
7614.781716485612
 20
5987.362935220168
 30
0.0
 11
7615.98171648561
 21
5987.362935220168
 31
0.0
1001
ACAD
1000
ASC_BOUNDS
1002
{
1070
    19
1002
}
  0
LINE
  5
4B8B
330
19
100
AcDbEntity
  8
1
100
AcDbLine
 10
7615.98171648561
 20
5967.362935220169
 30
0.0
 11
7634.781716485611
 21
5948.56293522017
 31
0.0
  0
LINE
  5
5671
330
19
100
AcDbEntity
  8
FUTO
100
AcDbLine
 10
7614.781716485635
 20
4227.635294509082
 30
0.0
 11
8114.781716485621
 21
4227.635294509082
 31
0.0
  0
LINE
  5
5672
330
19
100
AcDbEntity
  8
1
100
AcDbLine
 10
7614.781716485636
 20
4229.935294509082
 30
0.0
 11
7652.481716485638
 21
4229.935294509082
 31
0.0
  0
LINE
  5
5673
330
19
100
AcDbEntity
  8
1
100
AcDbLine
 10
7614.781716485636
 20
4229.935294509082
 30
0.0
 11
7614.781716485635
 21
4227.635294509082
 31
0.0
  0
LINE
  5
5674
330
19
100
AcDbEntity
  8
2
100
AcDbLine
 10
7632.781716485628
 20
4145.288408389977
 30
0.0
 11
7632.781716485628
 21
4241.139306172914
 31
0.0
  0
LINE
  5
5675
330
19
100
AcDbEntity
  8
1
100
AcDbLine
 10
8114.781716485619
 20
4229.935294509082
 30
0.0
 11
8077.081716485617
 21
4229.935294509082
 31
0.0
  0
LINE
  5
5676
330
19
100
AcDbEntity
  8
1
100
AcDbLine
 10
8114.781716485619
 20
4229.935294509082
 30
0.0
 11
8114.781716485621
 21
4227.635294509082
 31
0.0
  0
LINE
  5
5677
330
19
100
AcDbEntity
  8
2
100
AcDbLine
 10
8096.781716485628
 20
4145.288408389977
 30
0.0
 11
8096.781716485628
 21
4241.139306172914
 31
0.0
  0
LINE
  5
5678
330
19
100
AcDbEntity
  8
1
100
AcDbLine
 10
8077.081716485617
 20
4665.735294509082
 30
0.0
 11
8077.081716485617
 21
4229.935294509079
 31
0.0
  0
LINE
  5
5679
330
19
100
AcDbEntity
  8
1
100
AcDbLine
 10
8074.781716485617
 20
4667.55761666771
 30
0.0
 11
8074.78171648562
 21
4227.635294509082
 31
0.0
  0
LINE
  5
567A
330
19
100
AcDbEntity
  8
1
100
AcDbLine
 10
8034.781716485619
 20
4482.635294509083
 30
0.0
 11
8034.781716485621
 21
4282.635294509082
 31
0.0
  0
LINE
  5
567B
330
19
100
AcDbEntity
  8
1
100
AcDbLine
 10
8074.781716485619
 20
4282.635294509082
 30
0.0
 11
8034.781716485621
 21
4282.635294509082
 31
0.0
  0
LINE
  5
567C
330
19
100
AcDbEntity
  8
1
100
AcDbLine
 10
7654.781716485638
 20
4667.55761666771
 30
0.0
 11
7654.781716485635
 21
4227.635294509082
 31
0.0
  0
LINE
  5
567D
330
19
100
AcDbEntity
  8
1
100
AcDbLine
 10
7652.481716485638
 20
4665.735294509082
 30
0.0
 11
7652.481716485638
 21
4229.935294509079
 31
0.0
  0
LINE
  5
567E
330
19
100
AcDbEntity
  8
1
100
AcDbLine
 10
7694.781716485637
 20
4482.635294509083
 30
0.0
 11
7694.781716485635
 21
4282.635294509082
 31
0.0
  0
LINE
  5
567F
330
19
100
AcDbEntity
  8
1
100
AcDbLine
 10
7654.781716485636
 20
4282.635294509082
 30
0.0
 11
7694.781716485635
 21
4282.635294509082
 31
0.0
  0
LINE
  5
5680
330
19
100
AcDbEntity
  8
1
100
AcDbLine
 10
7654.781716485636
 20
4482.635294509083
 30
0.0
 11
8074.781716485619
 21
4482.63529450908
 31
0.0
  0
LINE
  5
5681
330
19
100
AcDbEntity
  8
1
100
AcDbLine
 10
7694.781716485637
 20
4442.635294509082
 30
0.0
 11
7864.781716485629
 21
4442.635294509082
 31
0.0
  0
LINE
  5
5682
330
19
100
AcDbEntity
  8
FUTO
100
AcDbLine
 10
7654.781716485636
 20
4482.635294509083
 30
0.0
 11
7694.781716485637
 21
4442.635294509082
 31
0.0
  0
LINE
  5
5683
330
19
100
AcDbEntity
  8
FUTO
100
AcDbLine
 10
8074.781716485619
 20
4482.635294509083
 30
0.0
 11
8034.781716485619
 21
4442.635294509082
 31
0.0
  0
LINE
  5
5684
330
19
100
AcDbEntity
  8
1
100
AcDbLine
 10
8034.781716485619
 20
4442.635294509082
 30
0.0
 11
7864.781716485629
 21
4442.635294509082
 31
0.0
  0
LINE
  5
5685
330
19
100
AcDbEntity
  8
1
100
AcDbLine
 10
7954.781716485619
 20
4787.635294509082
 30
0.0
 11
8077.081716485617
 21
4665.735294509082
 31
0.0
  0
LINE
  5
5686
330
19
100
AcDbEntity
  8
1
100
AcDbLine
 10
7774.78171648562
 20
4787.635294509082
 30
0.0
 11
7652.481716485638
 21
4665.735294509082
 31
0.0
  0
LINE
  5
5687
330
19
100
AcDbEntity
  8
1
100
AcDbLine
 10
7774.78171648562
 20
4787.635294509084
 30
0.0
 11
7954.781716485619
 21
4787.635294509082
 31
0.0
  0
LINE
  5
5900
330
19
100
AcDbEntity
  8
1
100
AcDbLine
 10
7614.781716485612
 20
5422.362935220169
 30
0.0
 11
7614.781716485613
 21
5732.36293522018
 31
0.0
  0
LINE
  5
5901
330
19
100
AcDbEntity
  8
1
100
AcDbLine
 10
7654.781716485612
 20
5422.362935220169
 30
0.0
 11
7654.781716485614
 21
5732.36293522018
 31
0.0
  0
LINE
  5
5902
330
19
100
AcDbEntity
  8
1
100
AcDbLine
 10
7654.781716485614
 20
5732.36293522018
 30
0.0
 11
7614.781716485613
 21
5732.36293522018
 31
0.0
  0
LINE
  5
5903
330
19
100
AcDbEntity
  8
CT
100
AcDbLine
 10
7617.089428288972
 20
5702.362935220168
 30
0.0
 11
7647.781716485614
 21
5702.362935220168
 31
0.0
  0
CIRCLE
  5
5904
330
19
100
AcDbEntity
  8
1
100
AcDbCircle
 10
7632.781716485613
 20
5702.362935220168
 30
0.0
 40
6.0
  0
LINE
  5
5905
330
19
100
AcDbEntity
  8
CT
100
AcDbLine
 10
7632.781716485613
 20
5718.497643102718
 30
0.0
 11
7632.781716485613
 21
5682.830563598277
 31
0.0
  0
LWPOLYLINE
  5
5906
330
19
100
AcDbEntity
  8
1
100
AcDbPolyline
 90
        2
 70
     0
 43
0.0
 10
7654.781716485614
 20
5722.866971870885
 10
7850.181716485611
 20
5722.866971870885
  0
LWPOLYLINE
  5
5907
330
19
100
AcDbEntity
  8
1
100
AcDbPolyline
 90
        2
 70
     0
 43
0.0
 10
7654.781716485612
 20
5470.762935220171
 10
7771.045709772339
 20
5470.762935220171
  0
LINE
  5
5908
330
19
100
AcDbEntity
  8
CT
100
AcDbLine
 10
7632.781716485613
 20
5468.497643102718
 30
0.0
 11
7632.781716485613
 21
5432.830563598277
 31
0.0
  0
LINE
  5
5909
330
19
100
AcDbEntity
  8
1
100
AcDbLine
 10
7614.781716485612
 20
5422.362935220169
 30
0.0
 11
7654.781716485612
 21
5422.362935220169
 31
0.0
  0
CIRCLE
  5
590A
330
19
100
AcDbEntity
  8
1
100
AcDbCircle
 10
7632.781716485613
 20
5452.362935220168
 30
0.0
 40
6.0
  0
LINE
  5
590B
330
19
100
AcDbEntity
  8
CT
100
AcDbLine
 10
7617.089428288972
 20
5452.362935220168
 30
0.0
 11
7647.781716485614
 21
5452.362935220168
 31
0.0
  0
LWPOLYLINE
  5
590C
330
19
100
AcDbEntity
  8
1
100
AcDbPolyline
 90
        2
 70
     0
 43
0.0
 10
7958.517723198884
 20
5470.762935220171
 10
8074.781716485613
 20
5470.762935220168
  0
LINE
  5
590D
330
19
100
AcDbEntity
  8
CT
100
AcDbLine
 10
8096.781716485612
 20
5468.497643102718
 30
0.0
 11
8096.781716485613
 21
5432.830563598277
 31
0.0
  0
LINE
  5
590E
330
19
100
AcDbEntity
  8
1
100
AcDbLine
 10
8074.781716485613
 20
5422.362935220172
 30
0.0
 11
8114.781716485612
 21
5422.362935220169
 31
0.0
  0
LINE
  5
590F
330
19
100
AcDbEntity
  8
CT
100
AcDbLine
 10
8112.474004682253
 20
5452.362935220168
 30
0.0
 11
8081.781716485611
 21
5452.362935220168
 31
0.0
  0
CIRCLE
  5
5910
330
19
100
AcDbEntity
  8
1
100
AcDbCircle
 10
8096.781716485613
 20
5452.362935220168
 30
0.0
 40
6.0
  0
LINE
  5
5911
330
19
100
AcDbEntity
  8
1
100
AcDbLine
 10
8114.781716485612
 20
5422.362935220169
 30
0.0
 11
8114.781716485612
 21
5732.362935220169
 31
0.0
  0
LINE
  5
5912
330
19
100
AcDbEntity
  8
1
100
AcDbLine
 10
8074.781716485613
 20
5422.362935220169
 30
0.0
 11
8074.781716485613
 21
5732.362935220169
 31
0.0
  0
CIRCLE
  5
5913
330
19
100
AcDbEntity
  8
1
100
AcDbCircle
 10
8096.781716485613
 20
5702.362935220168
 30
0.0
 40
6.0
  0
LINE
  5
5914
330
19
100
AcDbEntity
  8
CT
100
AcDbLine
 10
8096.781716485612
 20
5718.497643102718
 30
0.0
 11
8096.781716485613
 21
5682.830563598277
 31
0.0
  0
LINE
  5
5915
330
19
100
AcDbEntity
  8
FUTO
100
AcDbLine
 10
8074.781716485613
 20
5732.362935220169
 30
0.0
 11
8114.781716485616
 21
5732.362935220169
 31
0.0
  0
LWPOLYLINE
  5
5916
330
19
100
AcDbEntity
  8
1
100
AcDbPolyline
 90
        2
 70
     0
 43
0.0
 10
7879.381616485613
 20
5722.866971870885
 10
8074.781716485613
 20
5722.866971870885
  0
LINE
  5
5917
330
19
100
AcDbEntity
  8
CT
100
AcDbLine
 10
8112.474004682253
 20
5702.362935220168
 30
0.0
 11
8081.781716485611
 21
5702.362935220168
 31
0.0
  0
DIMENSION
  5
5BD7
330
19
100
AcDbEntity
  8
SP
100
AcDbDimension
  2
*D14
 10
8114.781716485621
 20
3987.635294509082
 30
0.0
 11
7989.781716485625
 21
4025.135294509082
 31
0.0
 70
    32
 71
     5
 42
-1.0
  3
GOD
100
AcDbAlignedDimension
 13
7864.781716485627
 23
4057.265404136124
 33
0.0
 14
8114.781716485621
 24
4092.635294509082
 34
0.0
100
AcDbRotatedDimension
  0
LINE
  5
5BD8
330
19
100
AcDbEntity
  8
FUTO
100
AcDbLine
 10
7654.781716485635
 20
4157.635294509082
 30
0.0
 11
8074.78171648562
 21
4157.635294509082
 31
0.0
  0
LINE
  5
5BD9
330
19
100
AcDbEntity
  8
FUTO
100
AcDbLine
 10
7654.781716485635
 20
4117.635294509081
 30
0.0
 11
8074.78171648562
 21
4117.635294509081
 31
0.0
  0
DIMENSION
  5
5BDA
330
19
100
AcDbEntity
  8
SP
100
AcDbDimension
  2
*D15
 10
8114.781716485621
 20
3882.635294509082
 30
0.0
 11
7864.781716485627
 21
3920.135294509083
 31
0.0
 70
    32
 71
     5
 42
-1.0
  3
GOD
100
AcDbAlignedDimension
 13
7614.781716485635
 23
4092.635294509082
 33
0.0
 14
8114.781716485621
 24
4092.635294509082
 34
0.0
100
AcDbRotatedDimension
  0
DIMENSION
  5
5BDB
330
19
100
AcDbEntity
  8
SP
100
AcDbDimension
  2
*D16
 10
7614.781716485635
 20
3987.635294509082
 30
0.0
 11
7739.781716485632
 21
4025.135294509082
 31
0.0
 70
    32
 71
     5
 42
-1.0
  3
GOD
100
AcDbAlignedDimension
 13
7864.781716485627
 23
4057.265404136124
 33
0.0
 14
7614.781716485635
 24
4092.635294509082
 34
0.0
100
AcDbRotatedDimension
  0
LINE
  5
5BDC
330
19
100
AcDbEntity
  8
FUTO
100
AcDbLine
 10
7654.781716485635
 20
4157.635294509082
 30
0.0
 11
7654.781716485635
 21
4092.635294509082
 31
0.0
  0
LINE
  5
5BDD
330
19
100
AcDbEntity
  8
FUTO
100
AcDbLine
 10
7651.581716485636
 20
4154.435294509082
 30
0.0
 11
7651.581716485636
 21
4095.835294509083
 31
0.0
  0
LINE
  5
5BDE
330
19
100
AcDbEntity
  8
FUTO
100
AcDbLine
 10
7614.781716485635
 20
4157.635294509082
 30
0.0
 11
7614.781716485635
 21
4154.435294509082
 31
0.0
  0
LINE
  5
5BDF
330
19
100
AcDbEntity
  8
FUTO
100
AcDbLine
 10
7614.781716485635
 20
4095.835294509083
 30
0.0
 11
7614.781716485635
 21
4092.635294509082
 31
0.0
  0
LINE
  5
5BE0
330
19
100
AcDbEntity
  8
FUTO
100
AcDbLine
 10
7614.781716485635
 20
4157.635294509082
 30
0.0
 11
7654.781716485635
 21
4157.635294509082
 31
0.0
  0
LINE
  5
5BE1
330
19
100
AcDbEntity
  8
FUTO
100
AcDbLine
 10
7614.781716485635
 20
4092.635294509082
 30
0.0
 11
7654.781716485635
 21
4092.635294509082
 31
0.0
  0
LINE
  5
5BE2
330
19
100
AcDbEntity
  8
FUTO
100
AcDbLine
 10
7614.781716485635
 20
4154.435294509082
 30
0.0
 11
7651.581716485636
 21
4154.435294509082
 31
0.0
  0
LINE
  5
5BE3
330
19
100
AcDbEntity
  8
FUTO
100
AcDbLine
 10
7614.781716485635
 20
4095.835294509082
 30
0.0
 11
7651.581716485636
 21
4095.835294509083
 31
0.0
  0
LINE
  5
5BE4
330
19
100
AcDbEntity
  8
FUTO
100
AcDbLine
 10
8114.781716485621
 20
4095.835294509082
 30
0.0
 11
8077.981716485622
 21
4095.835294509083
 31
0.0
  0
LINE
  5
5BE5
330
19
100
AcDbEntity
  8
FUTO
100
AcDbLine
 10
8114.781716485621
 20
4154.435294509082
 30
0.0
 11
8077.981716485622
 21
4154.435294509082
 31
0.0
  0
LINE
  5
5BE6
330
19
100
AcDbEntity
  8
FUTO
100
AcDbLine
 10
8114.781716485621
 20
4092.635294509082
 30
0.0
 11
8074.78171648562
 21
4092.635294509082
 31
0.0
  0
LINE
  5
5BE7
330
19
100
AcDbEntity
  8
FUTO
100
AcDbLine
 10
8114.781716485621
 20
4157.635294509082
 30
0.0
 11
8074.78171648562
 21
4157.635294509082
 31
0.0
  0
LINE
  5
5BE8
330
19
100
AcDbEntity
  8
FUTO
100
AcDbLine
 10
8114.781716485621
 20
4095.835294509083
 30
0.0
 11
8114.781716485621
 21
4092.635294509082
 31
0.0
  0
LINE
  5
5BE9
330
19
100
AcDbEntity
  8
FUTO
100
AcDbLine
 10
8114.781716485621
 20
4157.635294509082
 30
0.0
 11
8114.781716485621
 21
4154.435294509082
 31
0.0
  0
LINE
  5
5BEA
330
19
100
AcDbEntity
  8
FUTO
100
AcDbLine
 10
8077.981716485622
 20
4154.435294509082
 30
0.0
 11
8077.981716485622
 21
4095.835294509083
 31
0.0
  0
LINE
  5
5BEB
330
19
100
AcDbEntity
  8
FUTO
100
AcDbLine
 10
8074.78171648562
 20
4157.635294509082
 30
0.0
 11
8074.78171648562
 21
4092.635294509082
 31
0.0
  0
DIMENSION
  5
5F6F
330
19
100
AcDbEntity
  8
SP
100
AcDbDimension
  2
*D18
 10
7404.781716485624
 20
4157.635294509082
 30
0.0
 11
7352.701568737081
 21
4185.774364961247
 31
0.0
 70
   160
 71
     5
 42
-1.0
  3
GOD
100
AcDbAlignedDimension
 13
7614.781716485619
 23
4227.635294509082
 33
0.0
 14
7614.781716485619
 24
4157.635294509082
 34
0.0
 50
90.0
100
AcDbRotatedDimension
1001
ACAD
1000
DSTYLE
1002
{
1070
     3
1000
（<>）
1070
   279
1070
     2
1070
   289
1070
     3
1070
   343
1005
5AD4
1070
   344
1005
5AD4
1002
}
  0
DIMENSION
  5
5F70
330
19
100
AcDbEntity
  8
SP
100
AcDbDimension
  2
*D17
 10
7404.781716485624
 20
4092.635294509082
 30
0.0
 11
7367.281716485624
 21
3964.253417226483
 31
0.0
 70
    32
 71
     5
 42
-1.0
  3
GOD
100
AcDbAlignedDimension
 13
7614.781716485619
 23
4157.635294509082
 33
0.0
 14
7614.781716485619
 24
4092.635294509082
 34
0.0
 50
90.0
100
AcDbRotatedDimension
1001
ACAD
1000
DSTYLE
1002
{
1070
     6
1000
DOT
1002
}
  0
LINE
  5
5FE2
330
19
100
AcDbEntity
  8
FUTO
100
AcDbLine
 10
8770.629144029117
 20
4157.63529450908
 30
0.0
 11
9080.629144029117
 21
4157.63529450908
 31
0.0
  0
LINE
  5
5FE3
330
19
100
AcDbEntity
  8
FUTO
100
AcDbLine
 10
8770.629144029117
 20
4092.63529450908
 30
0.0
 11
9080.629144029117
 21
4092.63529450908
 31
0.0
  0
LINE
  5
5FE4
330
19
100
AcDbEntity
  8
FUTO
100
AcDbLine
 10
8770.629144029117
 20
4154.43529450908
 30
0.0
 11
9080.629144029117
 21
4154.43529450908
 31
0.0
  0
LINE
  5
5FE5
330
19
100
AcDbEntity
  8
FUTO
100
AcDbLine
 10
8770.629144029117
 20
4095.83529450908
 30
0.0
 11
9080.629144029117
 21
4095.835294509079
 31
0.0
  0
DIMENSION
  5
5FE6
330
19
100
AcDbEntity
  8
SP
100
AcDbDimension
  2
*D19
 10
9080.629144029117
 20
3987.635294509079
 30
0.0
 11
8925.629144029118
 21
4025.135294509079
 31
0.0
 70
    32
 71
     5
 42
-1.0
  3
GOD
100
AcDbAlignedDimension
 13
8770.629144029117
 23
4092.63529450908
 33
0.0
 14
9080.629144029117
 24
4092.63529450908
 34
0.0
100
AcDbRotatedDimension
  0
LINE
  5
5FE7
330
19
100
AcDbEntity
  8
FUTO
100
AcDbLine
 10
8770.629144029117
 20
4157.63529450908
 30
0.0
 11
8770.629144029117
 21
4092.63529450908
 31
0.0
  0
LINE
  5
5FE8
330
19
100
AcDbEntity
  8
FUTO
100
AcDbLine
 10
9080.629144029117
 20
4157.63529450908
 30
0.0
 11
9080.629144029117
 21
4092.63529450908
 31
0.0
  0
TEXT
  5
6147
330
19
100
AcDbEntity
  8
4
100
AcDbText
 10
9024.120142384687
 20
6397.953053740807
 30
0.0
 40
80.99999999999999
  1
縮尺：1/15
100
AcDbText
  0
TEXT
  5
6148
330
19
100
AcDbEntity
  8
4
100
AcDbText
 10
8033.951145133622
 20
6397.953053740807
 30
0.0
 40
80.99999999999999
  1
床置防振ベッド型
100
AcDbText
  0
LWPOLYLINE
  5
61AD
330
19
100
AcDbEntity
  8
1
100
AcDbPolyline
 90
        3
 70
     0
 43
0.0
 10
9323.629144029117
 20
4764.135294509081
 10
9323.629144029119
 20
4582.63529450908
 10
9323.629144029119
 20
4401.135294509082
  0
LINE
  5
61AE
330
19
100
AcDbEntity
  8
1
100
AcDbLine
 10
9316.629144029118
 20
4400.135294509083
 30
0.0
 11
9322.62914402912
 21
4400.135294509083
 31
0.0
  0
ARC
  5
61AF
330
19
100
AcDbEntity
  8
1
100
AcDbCircle
 10
9316.629144029118
 20
4399.135294509082
 30
0.0
 40
1.0
100
AcDbArc
 50
90.0
 51
180.0
  0
ARC
  5
61B0
330
19
100
AcDbEntity
  8
1
100
AcDbCircle
 10
9322.629144029118
 20
4401.135294509082
 30
0.0
 40
1.0
100
AcDbArc
 50
270.0
 51
0.0
  0
LINE
  5
61B1
330
19
100
AcDbEntity
  8
FUTO
100
AcDbLine
 10
9323.629144029119
 20
4425.135294509079
 30
0.0
 11
9315.629144029115
 21
4425.135294509079
 31
0.0
  0
LINE
  5
61B2
330
19
100
AcDbEntity
  8
FUTO
100
AcDbLine
 10
9323.629144029117
 20
4740.135294509079
 30
0.0
 11
9315.629144029115
 21
4740.135294509079
 31
0.0
  0
LINE
  5
61B3
330
19
100
AcDbEntity
  8
1
100
AcDbLine
 10
9316.629144029118
 20
4765.135294509081
 30
0.0
 11
9322.629144029118
 21
4765.135294509081
 31
0.0
  0
ARC
  5
61B4
330
19
100
AcDbEntity
  8
1
100
AcDbCircle
 10
9316.629144029118
 20
4766.13529450908
 30
0.0
 40
1.0
100
AcDbArc
 50
180.0
 51
270.0
  0
ARC
  5
61B5
330
19
100
AcDbEntity
  8
1
100
AcDbCircle
 10
9322.629144029118
 20
4764.13529450908
 30
0.0
 40
1.0
100
AcDbArc
 50
0.0
 51
90.0
  0
LINE
  5
61B6
330
19
100
AcDbEntity
  8
FUTO
100
AcDbLine
 10
9105.629144029117
 20
4805.922514625555
 30
0.0
 11
9299.629144029109
 21
4805.922514625554
 31
0.0
  0
LINE
  5
61B7
330
19
100
AcDbEntity
  8
1
100
AcDbLine
 10
9089.629144029116
 20
4789.922514625555
 30
0.0
 11
9089.629144029116
 21
4272.635294509079
 31
0.0
  0
ARC
  5
61B8
330
19
100
AcDbEntity
  8
FUTO
100
AcDbCircle
 10
9105.629144029117
 20
4789.922514625555
 30
0.0
 40
16.0
100
AcDbArc
 50
90.0
 51
180.0000000000002
  0
ARC
  5
61B9
330
19
100
AcDbEntity
  8
FUTO
100
AcDbCircle
 10
9299.629144029109
 20
4789.922514625554
 30
0.0
 40
16.0
100
AcDbArc
 50
0.0000000000010178
 51
89.99999999999971
  0
LINE
  5
61BA
330
19
100
AcDbEntity
  8
1
100
AcDbLine
 10
9315.629144029109
 20
4789.922514625554
 30
0.0
 11
9315.629144029122
 21
4272.635294509079
 31
0.0
  0
LINE
  5
61BB
330
19
100
AcDbEntity
  8
FUTO
100
AcDbLine
 10
9105.629144029114
 20
4256.635294509079
 30
0.0
 11
9299.629144029124
 21
4256.635294509079
 31
0.0
  0
ARC
  5
61BC
330
19
100
AcDbEntity
  8
FUTO
100
AcDbCircle
 10
9299.629144029124
 20
4272.635294509079
 30
0.0
 40
16.0
100
AcDbArc
 50
269.9999999999997
 51
0.0000000000011196
  0
ARC
  5
61BD
330
19
100
AcDbEntity
  8
FUTO
100
AcDbCircle
 10
9105.629144029114
 20
4272.635294509079
 30
0.0
 40
16.0
100
AcDbArc
 50
180.0
 51
269.9999999999998
  0
ARC
  5
6530
330
19
100
AcDbEntity
  8
1
100
AcDbCircle
 10
9082.629144029118
 20
4401.135294509081
 30
0.0
 40
1.0
100
AcDbArc
 50
180.0
 51
270.0
  0
ARC
  5
6531
330
19
100
AcDbEntity
  8
1
100
AcDbCircle
 10
9088.629144029118
 20
4399.13529450908
 30
0.0
 40
1.0
100
AcDbArc
 50
0.0
 51
90.00000000000003
  0
LINE
  5
6532
330
19
100
AcDbEntity
  8
1
100
AcDbLine
 10
9088.629144029118
 20
4400.135294509079
 30
0.0
 11
9082.629144029118
 21
4400.135294509079
 31
0.0
  0
LINE
  5
6533
330
19
100
AcDbEntity
  8
1
100
AcDbLine
 10
9081.629144029117
 20
4401.135294509081
 30
0.0
 11
9081.629144029117
 21
4764.135294509078
 31
0.0
  0
DIMENSION
  5
6534
330
19
100
AcDbEntity
  8
SP
100
AcDbDimension
  2
*D20
 10
8781.629144029116
 20
5014.922514625554
 30
0.0
 11
8992.129144029117
 21
5064.208228911269
 31
0.0
 70
    32
  1
(420)
 71
     5
 42
421.0
  3
GOD
100
AcDbAlignedDimension
 13
9202.629144029117
 23
4979.89786701067
 33
0.0
 14
8781.629144029116
 24
4666.21619450908
 34
0.0
100
AcDbRotatedDimension
1001
ACAD
1000
DSTYLE
1002
{
1070
   279
1070
     1
1002
}
  0
DIMENSION
  5
6541
330
19
100
AcDbEntity
  8
SP
100
AcDbDimension
  2
*D21
 10
9202.629144029117
 20
3987.635294509079
 30
0.0
 11
9315.624584646661
 21
3988.479100644001
 31
0.0
 70
   160
 71
     5
 42
122.0
  3
GOD
100
AcDbAlignedDimension
 13
9080.629144029117
 23
4092.63529450908
 33
0.0
 14
9202.629144029117
 24
4228.751686827115
 34
0.0
100
AcDbRotatedDimension
1001
ACAD
1000
DSTYLE
1002
{
1070
   279
1070
     1
1002
}
  0
ENDSEC
  0
SECTION
  2
OBJECTS
  0
DICTIONARY
  5
C
330
0
100
AcDbDictionary
281
     1
  3
ACAD_CIP_PREVIOUS_PRODUCT_INFO
350
6444
  3
ACAD_COLOR
350
6426
  3
ACAD_DETAILVIEWSTYLE
350
643F
  3
ACAD_GROUP
350
D
  3
ACAD_LAYOUT
350
1E92
  3
ACAD_MATERIAL
350
63F4
  3
ACAD_MLEADERSTYLE
350
643B
  3
ACAD_MLINESTYLE
350
E
  3
ACAD_PLOTSETTINGS
350
1E93
  3
ACAD_PLOTSTYLENAME
350
1E90
  3
ACAD_SCALELIST
350
6429
  3
ACAD_SECTIONVIEWSTYLE
350
643D
  3
ACAD_TABLESTYLE
350
6427
  3
ACAD_VISUALSTYLE
350
640D
  3
AcadDim
350
1EC5
  3
ACDB_RECOMPOSE_DATA
350
65B1
  3
AcDbVariableDictionary
350
63F1
  3
AcDsDecomposeData
350
65B8
  3
DWGPROPS
350
65B2
  0
DICTIONARY
  5
6592
330
2
100
AcDbDictionary
280
     1
281
     1
  3
ACAD_LAYERSTATES
360
6593
  0
DICTIONARY
  5
6581
330
F
100
AcDbDictionary
280
     1
281
     1
  3
ADSK_XREC_LAYER_RECONCILED
360
6582
  0
DICTIONARY
  5
6583
330
2F
100
AcDbDictionary
280
     1
281
     1
  3
ADSK_XREC_LAYER_RECONCILED
360
6584
  0
DICTIONARY
  5
6585
330
30
100
AcDbDictionary
280
     1
281
     1
  3
ADSK_XREC_LAYER_RECONCILED
360
6586
  0
DICTIONARY
  5
6587
330
36
100
AcDbDictionary
280
     1
281
     1
  3
ADSK_XREC_LAYER_RECONCILED
360
6588
  0
DICTIONARY
  5
6589
330
1EEF
100
AcDbDictionary
280
     1
281
     1
  3
ADSK_XREC_LAYER_RECONCILED
360
658A
  0
DICTIONARY
  5
658B
330
1EF0
100
AcDbDictionary
280
     1
281
     1
  3
ADSK_XREC_LAYER_RECONCILED
360
658C
  0
DICTIONARY
  5
658D
330
2188
100
AcDbDictionary
280
     1
281
     1
  3
ADSK_XREC_LAYER_RECONCILED
360
658E
  0
DICTIONARY
  5
6375
330
19
100
AcDbDictionary
280
     1
281
     1
  3
ACAD_LAYOUTSELFREF
360
6376
  0
DICTIONARY
  5
6373
330
16
100
AcDbDictionary
280
     1
281
     1
  3
ACAD_LAYOUTSELFREF
360
6374
  0
XRECORD
  5
6444
102
{ACAD_REACTORS
330
C
102
}
330
C
100
AcDbXrecord
280
     1
300
ACDLT
300
2015
300
INVLTS_F_S
  0
DICTIONARY
  5
6426
102
{ACAD_REACTORS
330
C
102
}
330
C
100
AcDbDictionary
281
     1
  0
DICTIONARY
  5
643F
102
{ACAD_REACTORS
330
C
102
}
330
C
100
AcDbDictionary
281
     1
  3
Metric50
350
6440
  0
DICTIONARY
  5
D
102
{ACAD_REACTORS
330
C
102
}
330
C
100
AcDbDictionary
281
     1
  0
DICTIONARY
  5
1E92
102
{ACAD_REACTORS
330
C
102
}
330
C
100
AcDbDictionary
281
     1
  3
Model
350
1E94
  3
ﾚｲｱｳﾄ1
350
1E95
  0
DICTIONARY
  5
63F4
102
{ACAD_REACTORS
330
C
102
}
330
C
100
AcDbDictionary
281
     1
  3
ByBlock
350
63FD
  3
ByLayer
350
63F5
  3
Global
350
6405
  0
DICTIONARY
  5
643B
102
{ACAD_REACTORS
330
C
102
}
330
C
100
AcDbDictionary
281
     1
  3
Standard
350
643C
  0
DICTIONARY
  5
E
102
{ACAD_REACTORS
330
C
102
}
330
C
100
AcDbDictionary
281
     1
  3
STANDARD
350
1C
  0
DICTIONARY
  5
1E93
102
{ACAD_REACTORS
330
C
102
}
330
C
100
AcDbDictionary
281
     1
  0
ACDBDICTIONARYWDFLT
  5
1E90
102
{ACAD_REACTORS
330
C
102
}
330
C
100
AcDbDictionary
281
     1
  3
Normal
350
1E91
100
AcDbDictionaryWithDefault
340
1E91
  0
DICTIONARY
  5
6429
102
{ACAD_REACTORS
330
C
102
}
330
C
100
AcDbDictionary
281
     1
  3
A0
350
642A
  3
A1
350
642B
  3
A2
350
642C
  3
A3
350
642D
  3
A4
350
642E
  3
A5
350
642F
  3
A6
350
6430
  3
A7
350
6431
  3
A8
350
6432
  3
A9
350
6433
  3
B0
350
6434
  3
B1
350
6435
  3
B2
350
6436
  3
B3
350
6437
  3
B4
350
6438
  3
B5
350
6439
  3
B6
350
643A
  0
DICTIONARY
  5
643D
102
{ACAD_REACTORS
330
C
102
}
330
C
100
AcDbDictionary
281
     1
  3
Metric50
350
643E
  0
DICTIONARY
  5
6427
102
{ACAD_REACTORS
330
C
102
}
330
C
100
AcDbDictionary
281
     1
  3
Standard
350
6428
  0
DICTIONARY
  5
640D
102
{ACAD_REACTORS
330
C
102
}
330
C
100
AcDbDictionary
281
     1
  3
2dWireframe
350
6413
  3
Basic
350
6412
  3
Brighten
350
6419
  3
ColorChange
350
641D
  3
Conceptual
350
6416
  3
Dim
350
6418
  3
EdgeColorOff
350
6425
  3
Facepattern
350
641C
  3
Flat
350
640E
  3
FlatWithEdges
350
640F
  3
Gouraud
350
6410
  3
GouraudWithEdges
350
6411
  3
Hidden
350
6415
  3
JitterOff
350
6423
  3
Linepattern
350
641B
  3
OverhangOff
350
6424
  3
Realistic
350
6417
  3
Shaded
350
6422
  3
Shaded with edges
350
6421
  3
Shades of Gray
350
641E
  3
Sketchy
350
641F
  3
Thicken
350
641A
  3
Wireframe
350
6414
  3
X-Ray
350
6420
  0
XRECORD
  5
1EC5
102
{ACAD_REACTORS
330
C
102
}
330
C
100
AcDbXrecord
280
     1
 90
   990106
  3

 60
     0
 61
     0
 62
     4
 63
     4
 64
     1
 65
     0
 66
     1
 67
     3
 68
     1
 69
     0
 70
     0
 71
     0
 72
     0
 40
0.0
170
     1
340
0
  0
XRECORD
  5
65B1
102
{ACAD_REACTORS
330
C
102
}
330
C
100
AcDbXrecord
280
     1
 90
        1
330
5F6F
330
6428
  0
DICTIONARY
  5
63F1
102
{ACAD_REACTORS
330
C
102
}
330
C
100
AcDbDictionary
281
     1
  3
CANNOSCALE
350
65A3
  3
CMLEADERSTYLE
350
659F
  3
CTABLESTYLE
350
659E
  3
CVIEWDETAILSTYLE
350
65A0
  3
CVIEWSECTIONSTYLE
350
65A1
  3
DIMASSOC
350
63F2
  3
INDEXCTL
350
65AD
  3
LAYEREVAL
350
65A5
  3
LAYERNOTIFY
350
65A6
  3
LIGHTINGUNITS
350
65A4
  3
MSLTSCALE
350
65A2
  3
SORTENTS
350
65AC
  3
XCLIPFRAME
350
65AE
  0
DICTIONARY
  5
65B8
102
{ACAD_REACTORS
330
C
102
}
330
C
100
AcDbDictionary
281
     1
  3
AcDsRecords
350
65BA
  3
AcDsSchemas
350
65B9
1001
ACAD
1070
     2
  0
XRECORD
  5
65B2
102
{ACAD_REACTORS
330
C
102
}
330
C
100
AcDbXrecord
280
     1
  1
DWGPROPS COOKIE
  2

  3

  4

  6

  7

  8
toshiyuki.morita
  9

300
=
301
=
302
=
303
=
304
=
305
=
306
=
307
=
308
=
309
=
 40
0.1943947569444444
 41
2454939.604632489
 42
2459353.583061505
  1

 90
        0
  0
DICTIONARY
  5
6593
102
{ACAD_REACTORS
330
6592
102
}
330
6592
100
AcDbDictionary
281
     1
  0
XRECORD
  5
6582
102
{ACAD_REACTORS
330
6581
102
}
330
6581
100
AcDbXrecord
280
     1
290
     1
  0
XRECORD
  5
6584
102
{ACAD_REACTORS
330
6583
102
}
330
6583
100
AcDbXrecord
280
     1
290
     1
  0
XRECORD
  5
6586
102
{ACAD_REACTORS
330
6585
102
}
330
6585
100
AcDbXrecord
280
     1
290
     1
  0
XRECORD
  5
6588
102
{ACAD_REACTORS
330
6587
102
}
330
6587
100
AcDbXrecord
280
     1
290
     1
  0
XRECORD
  5
658A
102
{ACAD_REACTORS
330
6589
102
}
330
6589
100
AcDbXrecord
280
     1
290
     1
  0
XRECORD
  5
658C
102
{ACAD_REACTORS
330
658B
102
}
330
658B
100
AcDbXrecord
280
     1
290
     1
  0
XRECORD
  5
658E
102
{ACAD_REACTORS
330
658D
102
}
330
658D
100
AcDbXrecord
280
     1
290
     1
  0
XRECORD
  5
6376
102
{ACAD_REACTORS
330
6375
102
}
330
6375
100
AcDbXrecord
280
     1
340
19
  0
XRECORD
  5
6374
102
{ACAD_REACTORS
330
6373
102
}
330
6373
100
AcDbXrecord
280
     1
340
16
  0
ACDBDETAILVIEWSTYLE
  5
6440
102
{ACAD_XDICTIONARY
360
659B
102
}
102
{ACAD_REACTORS
330
643F
102
}
330
643F
100
AcDbModelDocViewStyle
 70
     0
  3
Metric50
290
     0
100
AcDbDetailViewStyle
 70
     0
 71
     0
 90
        3
 71
     1
340
10
 40
5.0
340
0
 40
5.0
300

 40
0.0
280
     1
 71
     2
340
15
 90
       25
 71
     3
340
10
 40
5.0
 90
        0
 40
15.0
 90
        1
300
%<\AcVar ViewDetailId>% (%<\AcVar ViewScale \f "%sn">%)
 71
     4
340
15
 90
       25
340
15
 90
       25
280
     0
  0
LAYOUT
  5
1E94
102
{ACAD_XDICTIONARY
360
65BB
102
}
102
{ACAD_REACTORS
330
1E92
102
}
330
1E92
100
AcDbPlotSettings
  1

  2
EPSON LP-9300
  4

  6

 40
0.0
 41
0.0
 42
0.0
 43
0.0
 44
0.0
 45
0.0
 46
0.0
 47
0.0
 48
0.0
 49
0.0
140
0.0
141
0.0
142
1.0
143
1.0
 70
  1712
 72
     0
 73
     0
 74
     0
  7
GOD2000TABLE.ctb
 75
     0
147
1.0
148
0.0
149
0.0
100
AcDbLayout
  1
Model
 70
     1
 71
     0
 10
0.0
 20
0.0
 11
12.0
 21
9.0
 12
0.0
 22
0.0
 32
0.0
 14
0.0
 24
0.0
 34
0.0
 15
0.0
 25
0.0
 35
0.0
146
0.0
 13
0.0
 23
0.0
 33
0.0
 16
1.0
 26
0.0
 36
0.0
 17
0.0
 27
1.0
 37
0.0
 76
     0
330
19
331
6347
  0
LAYOUT
  5
1E95
102
{ACAD_XDICTIONARY
360
65BD
102
}
102
{ACAD_REACTORS
330
1E92
102
}
330
1E92
100
AcDbPlotSettings
  1

  2
EPSON LP-9300
  4

  6

 40
0.0
 41
0.0
 42
0.0
 43
0.0
 44
0.0
 45
0.0
 46
0.0
 47
0.0
 48
0.0
 49
0.0
140
0.0
141
0.0
142
1.0
143
1.0
 70
   688
 72
     0
 73
     0
 74
     5
  7
GOD2000TABLE.ctb
 75
    16
147
1.0
148
0.0
149
0.0
100
AcDbLayout
  1
ﾚｲｱｳﾄ1
 70
     0
 71
     1
 10
0.0
 20
0.0
 11
12.0
 21
9.0
 12
0.0
 22
0.0
 32
0.0
 14
1.000000000000000E+20
 24
1.000000000000000E+20
 34
1.000000000000000E+20
 15
-1.000000000000000E+20
 25
-1.000000000000000E+20
 35
-1.000000000000000E+20
146
0.0
 13
0.0
 23
0.0
 33
0.0
 16
1.0
 26
0.0
 36
0.0
 17
0.0
 27
1.0
 37
0.0
 76
     0
330
16
  0
MATERIAL
  5
63FD
102
{ACAD_XDICTIONARY
360
63FE
102
}
102
{ACAD_REACTORS
330
63F4
102
}
330
63F4
100
AcDbMaterial
  1
ByBlock
 72
     0
 43
0.0208333333333333
 43
0.0
 43
0.0
 43
0.0
 43
0.0
 43
0.0208333333333333
 43
0.0
 43
0.0
 43
0.0
 43
0.0
 43
1.0
 43
0.0
 43
0.0
 43
0.0
 43
0.0
 43
1.0
 77
     0
 47
0.0208333333333333
 47
0.0
 47
0.0
 47
0.0
 47
0.0
 47
0.0208333333333333
 47
0.0
 47
0.0
 47
0.0
 47
0.0
 47
1.0
 47
0.0
 47
0.0
 47
0.0
 47
0.0
 47
1.0
171
     0
 49
0.0208333333333333
 49
0.0
 49
0.0
 49
0.0
 49
0.0
 49
0.0208333333333333
 49
0.0
 49
0.0
 49
0.0
 49
0.0
 49
1.0
 49
0.0
 49
0.0
 49
0.0
 49
0.0
 49
1.0
175
     0
142
0.0208333333333333
142
0.0
142
0.0
142
0.0
142
0.0
142
0.0208333333333333
142
0.0
142
0.0
142
0.0
142
0.0
142
1.0
142
0.0
142
0.0
142
0.0
142
0.0
142
1.0
179
     0
144
0.0208333333333333
144
0.0
144
0.0
144
0.0
144
0.0
144
0.0208333333333333
144
0.0
144
0.0
144
0.0
144
0.0
144
1.0
144
0.0
144
0.0
144
0.0
144
0.0
144
1.0
147
0.0208333333333333
147
0.0
147
0.0
147
0.0
147
0.0
147
0.0208333333333333
147
0.0
147
0.0
147
0.0
147
0.0
147
1.0
147
0.0
147
0.0
147
0.0
147
0.0
147
1.0
  0
MATERIAL
  5
63F5
102
{ACAD_XDICTIONARY
360
63F6
102
}
102
{ACAD_REACTORS
330
63F4
102
}
330
63F4
100
AcDbMaterial
  1
ByLayer
 72
     0
 43
0.0208333333333333
 43
0.0
 43
0.0
 43
0.0
 43
0.0
 43
0.0208333333333333
 43
0.0
 43
0.0
 43
0.0
 43
0.0
 43
1.0
 43
0.0
 43
0.0
 43
0.0
 43
0.0
 43
1.0
 77
     0
 47
0.0208333333333333
 47
0.0
 47
0.0
 47
0.0
 47
0.0
 47
0.0208333333333333
 47
0.0
 47
0.0
 47
0.0
 47
0.0
 47
1.0
 47
0.0
 47
0.0
 47
0.0
 47
0.0
 47
1.0
171
     0
 49
0.0208333333333333
 49
0.0
 49
0.0
 49
0.0
 49
0.0
 49
0.0208333333333333
 49
0.0
 49
0.0
 49
0.0
 49
0.0
 49
1.0
 49
0.0
 49
0.0
 49
0.0
 49
0.0
 49
1.0
175
     0
142
0.0208333333333333
142
0.0
142
0.0
142
0.0
142
0.0
142
0.0208333333333333
142
0.0
142
0.0
142
0.0
142
0.0
142
1.0
142
0.0
142
0.0
142
0.0
142
0.0
142
1.0
179
     0
144
0.0208333333333333
144
0.0
144
0.0
144
0.0
144
0.0
144
0.0208333333333333
144
0.0
144
0.0
144
0.0
144
0.0
144
1.0
144
0.0
144
0.0
144
0.0
144
0.0
144
1.0
147
0.0208333333333333
147
0.0
147
0.0
147
0.0
147
0.0
147
0.0208333333333333
147
0.0
147
0.0
147
0.0
147
0.0
147
1.0
147
0.0
147
0.0
147
0.0
147
0.0
147
1.0
  0
MATERIAL
  5
6405
102
{ACAD_XDICTIONARY
360
6406
102
}
102
{ACAD_REACTORS
330
63F4
102
}
330
63F4
100
AcDbMaterial
  1
Global
 72
     0
 43
0.0208333333333333
 43
0.0
 43
0.0
 43
0.0
 43
0.0
 43
0.0208333333333333
 43
0.0
 43
0.0
 43
0.0
 43
0.0
 43
1.0
 43
0.0
 43
0.0
 43
0.0
 43
0.0
 43
1.0
 77
     0
 47
0.0208333333333333
 47
0.0
 47
0.0
 47
0.0
 47
0.0
 47
0.0208333333333333
 47
0.0
 47
0.0
 47
0.0
 47
0.0
 47
1.0
 47
0.0
 47
0.0
 47
0.0
 47
0.0
 47
1.0
171
     0
 49
0.0208333333333333
 49
0.0
 49
0.0
 49
0.0
 49
0.0
 49
0.0208333333333333
 49
0.0
 49
0.0
 49
0.0
 49
0.0
 49
1.0
 49
0.0
 49
0.0
 49
0.0
 49
0.0
 49
1.0
175
     0
142
0.0208333333333333
142
0.0
142
0.0
142
0.0
142
0.0
142
0.0208333333333333
142
0.0
142
0.0
142
0.0
142
0.0
142
1.0
142
0.0
142
0.0
142
0.0
142
0.0
142
1.0
179
     0
144
0.0208333333333333
144
0.0
144
0.0
144
0.0
144
0.0
144
0.0208333333333333
144
0.0
144
0.0
144
0.0
144
0.0
144
1.0
144
0.0
144
0.0
144
0.0
144
0.0
144
1.0
147
0.0208333333333333
147
0.0
147
0.0
147
0.0
147
0.0
147
0.0208333333333333
147
0.0
147
0.0
147
0.0
147
0.0
147
1.0
147
0.0
147
0.0
147
0.0
147
0.0
147
1.0
  0
MLEADERSTYLE
  5
643C
102
{ACAD_XDICTIONARY
360
65F4
102
}
102
{ACAD_REACTORS
330
643B
102
}
330
643B
100
AcDbMLeaderStyle
170
     2
171
     1
172
     0
 90
        2
 40
0.0
 41
0.0
173
     1
 91
-1056964608
340
13
 92
       -2
290
     1
 42
2.0
291
     1
 43
0.36
  3
Standard
 44
4.0
300

342
10
174
     1
178
     6
175
     1
176
     0
 93
-1056964608
 45
4.0
292
     0
297
     0
 46
4.0
 94
-1056964608
 47
1.0
 49
1.0
140
1.0
293
     1
141
0.0
294
     1
177
     0
142
1.0
295
     0
296
     0
143
0.125
1001
ACAD_MLEADERVER
1070
     2
  0
MLINESTYLE
  5
1C
102
{ACAD_REACTORS
330
E
102
}
330
E
100
AcDbMlineStyle
  2
STANDARD
 70
     0
  3

 62
     0
 51
90.0
 52
90.0
 71
     2
 49
0.5
 62
   256
  6
BYLAYER
 49
-0.5
 62
   256
  6
BYLAYER
  0
ACDBPLACEHOLDER
  5
1E91
102
{ACAD_REACTORS
330
1E90
102
}
330
1E90
  0
SCALE
  5
642A
102
{ACAD_REACTORS
330
6429
102
}
330
6429
100
AcDbScale
 70
     0
300
1:1
140
1.0
141
1.0
290
     1
  0
SCALE
  5
642B
102
{ACAD_REACTORS
330
6429
102
}
330
6429
100
AcDbScale
 70
     0
300
1:2
140
1.0
141
2.0
290
     0
  0
SCALE
  5
642C
102
{ACAD_REACTORS
330
6429
102
}
330
6429
100
AcDbScale
 70
     0
300
1:4
140
1.0
141
4.0
290
     0
  0
SCALE
  5
642D
102
{ACAD_REACTORS
330
6429
102
}
330
6429
100
AcDbScale
 70
     0
300
1:5
140
1.0
141
5.0
290
     0
  0
SCALE
  5
642E
102
{ACAD_REACTORS
330
6429
102
}
330
6429
100
AcDbScale
 70
     0
300
1:8
140
1.0
141
8.0
290
     0
  0
SCALE
  5
642F
102
{ACAD_REACTORS
330
6429
102
}
330
6429
100
AcDbScale
 70
     0
300
1:10
140
1.0
141
10.0
290
     0
  0
SCALE
  5
6430
102
{ACAD_REACTORS
330
6429
102
}
330
6429
100
AcDbScale
 70
     0
300
1:16
140
1.0
141
16.0
290
     0
  0
SCALE
  5
6431
102
{ACAD_REACTORS
330
6429
102
}
330
6429
100
AcDbScale
 70
     0
300
1:20
140
1.0
141
20.0
290
     0
  0
SCALE
  5
6432
102
{ACAD_REACTORS
330
6429
102
}
330
6429
100
AcDbScale
 70
     0
300
1:30
140
1.0
141
30.0
290
     0
  0
SCALE
  5
6433
102
{ACAD_REACTORS
330
6429
102
}
330
6429
100
AcDbScale
 70
     0
300
1:40
140
1.0
141
40.0
290
     0
  0
SCALE
  5
6434
102
{ACAD_REACTORS
330
6429
102
}
330
6429
100
AcDbScale
 70
     0
300
1:50
140
1.0
141
50.0
290
     0
  0
SCALE
  5
6435
102
{ACAD_REACTORS
330
6429
102
}
330
6429
100
AcDbScale
 70
     0
300
1:100
140
1.0
141
100.0
290
     0
  0
SCALE
  5
6436
102
{ACAD_REACTORS
330
6429
102
}
330
6429
100
AcDbScale
 70
     0
300
2:1
140
2.0
141
1.0
290
     0
  0
SCALE
  5
6437
102
{ACAD_REACTORS
330
6429
102
}
330
6429
100
AcDbScale
 70
     0
300
4:1
140
4.0
141
1.0
290
     0
  0
SCALE
  5
6438
102
{ACAD_REACTORS
330
6429
102
}
330
6429
100
AcDbScale
 70
     0
300
8:1
140
8.0
141
1.0
290
     0
  0
SCALE
  5
6439
102
{ACAD_REACTORS
330
6429
102
}
330
6429
100
AcDbScale
 70
     0
300
10:1
140
10.0
141
1.0
290
     0
  0
SCALE
  5
643A
102
{ACAD_REACTORS
330
6429
102
}
330
6429
100
AcDbScale
 70
     0
300
100:1
140
100.0
141
1.0
290
     0
  0
ACDBSECTIONVIEWSTYLE
  5
643E
102
{ACAD_XDICTIONARY
360
6599
102
}
102
{ACAD_REACTORS
330
643D
102
}
330
643D
100
AcDbModelDocViewStyle
 70
     0
  3
Metric50
290
     0
100
AcDbSectionViewStyle
 70
     0
 71
     0
 90
      102
 71
     1
340
10
 40
5.0
340
0
340
0
 40
5.0
300
I, O, Q, S, X, Z
 40
10.0
 90
        0
 40
2.5
 90
        0
 71
     2
340
15
 90
       25
340
15
 90
       50
 40
5.0
 40
2.5
 40
5.0
 71
     3
340
10
 40
5.0
 90
        0
 40
15.0
 90
        1
300
%<\AcVar ViewSectionStartId>%-%<\AcVar ViewSectionEndId>% (%<\AcVar ViewScale \f "%sn">%)
 71
     4
300
ANSI31
 40
1.0
 90
        0
290
     0
290
     0
 90
        6
 40
0.0
 40
1.570796326794896
 40
0.2617993877991494
 40
1.308996938995747
 40
-0.2617993877991494
 40
1.832595714594046
  0
TABLESTYLE
  5
6428
102
{ACAD_XDICTIONARY
360
65AF
102
}
102
{ACAD_REACTORS
330
6427
102
}
330
6427
100
AcDbTableStyle
  3
Standard
 70
     0
 71
     0
 40
1.5
 41
1.5
280
     0
281
     0
  7
STANDARD
140
4.5
170
     2
 62
     0
 63
     7
283
     0
274
    -2
284
     1
 64
     0
275
    -2
285
     1
 65
     0
276
    -2
286
     1
 66
     0
277
    -2
287
     1
 67
     0
278
    -2
288
     1
 68
     0
279
    -2
289
     1
 69
     0
  7
STANDARD
140
6.0
170
     5
 62
     0
 63
     7
283
     0
274
    -2
284
     1
 64
     0
275
    -2
285
     1
 65
     0
276
    -2
286
     1
 66
     0
277
    -2
287
     1
 67
     0
278
    -2
288
     1
 68
     0
279
    -2
289
     1
 69
     0
  7
STANDARD
140
4.5
170
     5
 62
     0
 63
     7
283
     0
274
    -2
284
     1
 64
     0
275
    -2
285
     1
 65
     0
276
    -2
286
     1
 66
     0
277
    -2
287
     1
 67
     0
278
    -2
288
     1
 68
     0
279
    -2
289
     1
 69
     0
  0
VISUALSTYLE
  5
6413
102
{ACAD_XDICTIONARY
360
65CC
102
}
102
{ACAD_REACTORS
330
640D
102
}
330
640D
100
AcDbVisualStyle
  2
2dWireframe
 70
     4
 71
     0
 72
     2
 73
     0
 90
        0
 40
-0.6
 41
-30.0
 62
     5
 63
     7
 74
     1
 91
        4
 64
     7
 65
   257
 75
     1
175
     1
 42
1.0
 92
        0
 66
   257
 43
1.0
 76
     1
 77
     6
 78
     2
 67
     7
 79
     5
170
     0
171
     0
290
     0
174
     0
 93
        1
 44
0.0
173
     0
291
     0
 45
0.0
1001
ACAD
1000
AcDbSavedByObjectVersion
1070
     0
  0
VISUALSTYLE
  5
6412
102
{ACAD_XDICTIONARY
360
65CA
102
}
102
{ACAD_REACTORS
330
640D
102
}
330
640D
100
AcDbVisualStyle
  2
Basic
 70
     7
 71
     1
 72
     0
 73
     1
 90
        0
 40
-0.6
 41
-30.0
 62
     5
 63
     7
 74
     0
 91
        4
 64
     7
 65
   257
 75
     1
175
     1
 42
1.0
 92
        8
 66
     7
 43
1.0
 76
     1
 77
     6
 78
     2
 67
     7
 79
     5
170
     0
171
     0
290
     0
174
     0
 93
        1
 44
0.0
173
     0
291
     1
 45
0.0
1001
ACAD
1000
AcDbSavedByObjectVersion
1070
     0
  0
VISUALSTYLE
  5
6419
102
{ACAD_XDICTIONARY
360
65D8
102
}
102
{ACAD_REACTORS
330
640D
102
}
330
640D
100
AcDbVisualStyle
  2
Brighten
 70
    12
 71
     2
 72
     2
 73
     0
 90
        0
 40
-0.6
 41
-30.0
 62
     5
 63
     7
 74
     1
 91
        4
 64
     7
 65
   257
 75
     1
175
     1
 42
1.0
 92
        8
 66
     7
 43
1.0
 76
     1
 77
     6
 78
     2
 67
     7
 79
     5
170
     0
171
     0
290
     0
174
     0
 93
        1
 44
50.0
173
     0
291
     1
 45
0.0
1001
ACAD
1000
AcDbSavedByObjectVersion
1070
     0
  0
VISUALSTYLE
  5
641D
102
{ACAD_XDICTIONARY
360
65E0
102
}
102
{ACAD_REACTORS
330
640D
102
}
330
640D
100
AcDbVisualStyle
  2
ColorChange
 70
    16
 71
     2
 72
     2
 73
     3
 90
        0
 40
-0.6
 41
-30.0
 62
     5
 63
     8
 74
     1
 91
        4
 64
     7
 65
   257
 75
     1
175
     1
 42
1.0
 92
        8
 66
     8
 43
1.0
 76
     1
 77
     6
 78
     2
 67
     7
 79
     5
170
     0
171
     0
290
     0
174
     0
 93
        1
 44
0.0
173
     0
291
     1
 45
0.0
1001
ACAD
1000
AcDbSavedByObjectVersion
1070
     0
  0
VISUALSTYLE
  5
6416
102
{ACAD_XDICTIONARY
360
65D2
102
}
102
{ACAD_REACTORS
330
640D
102
}
330
640D
100
AcDbVisualStyle
  2
Conceptual
 70
     9
 71
     3
 72
     2
 73
     0
 90
        0
 40
-0.6
 41
-30.0
 62
     5
 63
     7
 74
     2
 91
        2
 64
     7
 65
   257
 75
     1
175
     1
 42
179.0
 92
        8
 66
     7
 43
1.0
 76
     1
 77
     6
 78
     2
 67
     7
 79
     3
170
     0
171
     0
290
     0
174
     0
 93
        1
 44
0.0
173
     0
291
     0
 45
0.0
1001
ACAD
1000
AcDbSavedByObjectVersion
1070
     0
  0
VISUALSTYLE
  5
6418
102
{ACAD_XDICTIONARY
360
65D6
102
}
102
{ACAD_REACTORS
330
640D
102
}
330
640D
100
AcDbVisualStyle
  2
Dim
 70
    11
 71
     2
 72
     2
 73
     0
 90
        0
 40
-0.6
 41
-30.0
 62
     5
 63
     7
 74
     1
 91
        4
 64
     7
 65
   257
 75
     1
175
     1
 42
1.0
 92
        8
 66
     7
 43
1.0
 76
     1
 77
     6
 78
     2
 67
     7
 79
     5
170
     0
171
     0
290
     0
174
     0
 93
        1
 44
-50.0
173
     0
291
     1
 45
0.0
1001
ACAD
1000
AcDbSavedByObjectVersion
1070
     0
  0
VISUALSTYLE
  5
6425
102
{ACAD_XDICTIONARY
360
65F0
102
}
102
{ACAD_REACTORS
330
640D
102
}
330
640D
100
AcDbVisualStyle
  2
EdgeColorOff
 70
    22
 71
     2
 72
     2
 73
     0
 90
        0
 40
-0.6
 41
-30.0
 62
     5
 63
     7
 74
     1
 91
        4
 64
     7
 65
   257
 75
     1
175
     1
 42
1.0
 92
        8
 66
     7
 43
1.0
 76
     1
 77
     6
 78
     2
 67
     7
 79
     5
170
     0
171
     0
290
     0
174
     0
 93
        1
 44
0.0
173
     0
291
     1
 45
0.0
1001
ACAD
1000
AcDbSavedByObjectVersion
1070
     0
  0
VISUALSTYLE
  5
641C
102
{ACAD_XDICTIONARY
360
65DE
102
}
102
{ACAD_REACTORS
330
640D
102
}
330
640D
100
AcDbVisualStyle
  2
Facepattern
 70
    15
 71
     2
 72
     2
 73
     0
 90
        0
 40
-0.6
 41
-30.0
 62
     5
 63
     7
 74
     1
 91
        4
 64
     7
 65
   257
 75
     1
175
     1
 42
1.0
 92
        8
 66
     7
 43
1.0
 76
     1
 77
     6
 78
     2
 67
     7
 79
     5
170
     0
171
     0
290
     0
174
     0
 93
        1
 44
0.0
173
     0
291
     1
 45
0.0
1001
ACAD
1000
AcDbSavedByObjectVersion
1070
     0
  0
VISUALSTYLE
  5
640E
102
{ACAD_XDICTIONARY
360
65C2
102
}
102
{ACAD_REACTORS
330
640D
102
}
330
640D
100
AcDbVisualStyle
  2
Flat
 70
     0
 71
     2
 72
     1
 73
     1
 90
        2
 40
-0.6
 41
30.0
 62
     5
 63
     7
 74
     0
 91
        0
 64
     7
 65
   257
 75
     1
175
     1
 42
1.0
 92
        8
 66
     7
 43
1.0
 76
     1
 77
     6
 78
     2
 67
     7
 79
     5
170
     0
171
     0
290
     0
174
     0
 93
       13
 44
0.0
173
     0
291
     1
 45
0.0
1001
ACAD
1000
AcDbSavedByObjectVersion
1070
     0
  0
VISUALSTYLE
  5
640F
102
{ACAD_XDICTIONARY
360
65C4
102
}
102
{ACAD_REACTORS
330
640D
102
}
330
640D
100
AcDbVisualStyle
  2
FlatWithEdges
 70
     1
 71
     2
 72
     1
 73
     1
 90
        2
 40
-0.6
 41
30.0
 62
     5
 63
     7
 74
     1
 91
        0
 64
     7
 65
   257
 75
     1
175
     1
 42
1.0
 92
        0
 66
   257
 43
1.0
 76
     1
 77
     6
 78
     2
 67
     7
 79
     5
170
     0
171
     0
290
     0
174
     0
 93
       13
 44
0.0
173
     0
291
     1
 45
0.0
1001
ACAD
1000
AcDbSavedByObjectVersion
1070
     0
  0
VISUALSTYLE
  5
6410
102
{ACAD_XDICTIONARY
360
65C6
102
}
102
{ACAD_REACTORS
330
640D
102
}
330
640D
100
AcDbVisualStyle
  2
Gouraud
 70
     2
 71
     2
 72
     2
 73
     1
 90
        2
 40
-0.6
 41
30.0
 62
     5
 63
     7
 74
     0
 91
        0
 64
     7
 65
   257
 75
     1
175
     1
 42
1.0
 92
        0
 66
     7
 43
1.0
 76
     1
 77
     6
 78
     2
 67
     7
 79
     5
170
     0
171
     0
290
     0
174
     0
 93
       13
 44
0.0
173
     0
291
     1
 45
0.0
1001
ACAD
1000
AcDbSavedByObjectVersion
1070
     0
  0
VISUALSTYLE
  5
6411
102
{ACAD_XDICTIONARY
360
65C8
102
}
102
{ACAD_REACTORS
330
640D
102
}
330
640D
100
AcDbVisualStyle
  2
GouraudWithEdges
 70
     3
 71
     2
 72
     2
 73
     1
 90
        2
 40
-0.6
 41
30.0
 62
     5
 63
     7
 74
     1
 91
        0
 64
     7
 65
   257
 75
     1
175
     1
 42
1.0
 92
        0
 66
   257
 43
1.0
 76
     1
 77
     6
 78
     2
 67
     7
 79
     5
170
     0
171
     0
290
     0
174
     0
 93
       13
 44
0.0
173
     0
291
     1
 45
0.0
1001
ACAD
1000
AcDbSavedByObjectVersion
1070
     0
  0
VISUALSTYLE
  5
6415
102
{ACAD_XDICTIONARY
360
65D0
102
}
102
{ACAD_REACTORS
330
640D
102
}
330
640D
100
AcDbVisualStyle
  2
Hidden
 70
     6
 71
     1
 72
     2
 73
     2
 90
        0
 40
-0.6
 41
-30.0
 62
     5
 63
     7
 74
     2
 91
        2
 64
     7
 65
   257
 75
     2
175
     1
 42
40.0
 92
        0
 66
   257
 43
1.0
 76
     1
 77
     6
 78
     2
 67
     7
 79
     3
170
     0
171
     0
290
     0
174
     0
 93
        1
 44
0.0
173
     0
291
     0
 45
0.0
1001
ACAD
1000
AcDbSavedByObjectVersion
1070
     0
  0
VISUALSTYLE
  5
6423
102
{ACAD_XDICTIONARY
360
65EC
102
}
102
{ACAD_REACTORS
330
640D
102
}
330
640D
100
AcDbVisualStyle
  2
JitterOff
 70
    20
 71
     2
 72
     2
 73
     0
 90
        0
 40
-0.6
 41
-30.0
 62
     5
 63
     7
 74
     1
 91
        4
 64
     7
 65
   257
 75
     1
175
     1
 42
1.0
 92
       10
 66
     7
 43
1.0
 76
     1
 77
     6
 78
     2
 67
     7
 79
     5
170
     0
171
     0
290
     0
174
     0
 93
        1
 44
0.0
173
     0
291
     1
 45
0.0
1001
ACAD
1000
AcDbSavedByObjectVersion
1070
     0
  0
VISUALSTYLE
  5
641B
102
{ACAD_XDICTIONARY
360
65DC
102
}
102
{ACAD_REACTORS
330
640D
102
}
330
640D
100
AcDbVisualStyle
  2
Linepattern
 70
    14
 71
     2
 72
     2
 73
     0
 90
        0
 40
-0.6
 41
-30.0
 62
     5
 63
     7
 74
     1
 91
        4
 64
     7
 65
   257
 75
     7
175
     7
 42
1.0
 92
        8
 66
     7
 43
1.0
 76
     1
 77
     6
 78
     2
 67
     7
 79
     5
170
     0
171
     0
290
     0
174
     0
 93
        1
 44
0.0
173
     0
291
     1
 45
0.0
1001
ACAD
1000
AcDbSavedByObjectVersion
1070
     0
  0
VISUALSTYLE
  5
6424
102
{ACAD_XDICTIONARY
360
65EE
102
}
102
{ACAD_REACTORS
330
640D
102
}
330
640D
100
AcDbVisualStyle
  2
OverhangOff
 70
    21
 71
     2
 72
     2
 73
     0
 90
        0
 40
-0.6
 41
-30.0
 62
     5
 63
     7
 74
     1
 91
        4
 64
     7
 65
   257
 75
     1
175
     1
 42
1.0
 92
        9
 66
     7
 43
1.0
 76
     1
 77
     6
 78
     2
 67
     7
 79
     5
170
     0
171
     0
290
     0
174
     0
 93
        1
 44
0.0
173
     0
291
     1
 45
0.0
1001
ACAD
1000
AcDbSavedByObjectVersion
1070
     0
  0
VISUALSTYLE
  5
6417
102
{ACAD_XDICTIONARY
360
65D4
102
}
102
{ACAD_REACTORS
330
640D
102
}
330
640D
100
AcDbVisualStyle
  2
Realistic
 70
     8
 71
     2
 72
     3
 73
     0
 90
        2
 40
-0.6
 41
30.0
 62
     5
 63
     7
 74
     0
 91
        0
 64
     7
 65
   257
 75
     1
175
     1
 42
1.0
 92
        8
 66
   257
 43
1.0
 76
     1
 77
     6
 78
     2
 67
     7
 79
     3
170
     0
171
     0
290
     0
174
     0
 93
       13
 44
0.0
173
     0
291
     0
 45
0.0
1001
ACAD
1000
AcDbSavedByObjectVersion
1070
     0
  0
VISUALSTYLE
  5
6422
102
{ACAD_XDICTIONARY
360
65EA
102
}
102
{ACAD_REACTORS
330
640D
102
}
330
640D
100
AcDbVisualStyle
  2
Shaded
 70
    27
 71
     2
 72
     2
 73
     1
 90
        2
 40
-0.6
 41
30.0
 62
     5
 63
     7
 74
     0
 91
        4
 64
     7
 65
   257
 75
     1
175
     1
 42
1.0
 92
        8
 66
   257
 43
1.0
 76
     1
 77
     6
 78
     2
 67
     8
 79
     3
170
     0
171
     0
290
     0
174
     0
 93
        5
 44
0.0
173
     0
291
     0
 45
0.0
1001
ACAD
1000
AcDbSavedByObjectVersion
1070
     0
  0
VISUALSTYLE
  5
6421
102
{ACAD_XDICTIONARY
360
65E8
102
}
102
{ACAD_REACTORS
330
640D
102
}
330
640D
100
AcDbVisualStyle
  2
Shaded with edges
 70
    26
 71
     2
 72
     2
 73
     1
 90
        2
 40
-0.6
 41
30.0
 62
     5
 63
     7
 74
     1
 91
       10
 64
     7
 65
   257
 75
     2
175
     1
 42
1.0
 92
        8
 66
   257
 43
1.0
 76
     1
 77
     6
 78
     2
 67
     7
 79
     3
170
     0
171
     0
290
     0
174
     0
 93
        5
 44
0.0
173
     0
291
     0
 45
0.0
1001
ACAD
1000
AcDbSavedByObjectVersion
1070
     0
  0
VISUALSTYLE
  5
641E
102
{ACAD_XDICTIONARY
360
65E2
102
}
102
{ACAD_REACTORS
330
640D
102
}
330
640D
100
AcDbVisualStyle
  2
Shades of Gray
 70
    23
 71
     2
 72
     2
 73
     3
 90
        0
 40
-0.6
 41
-30.0
 62
     5
 63
     7
 74
     2
 91
        2
 64
     7
 65
     7
 75
     1
175
     1
 42
40.0
 92
        8
 66
     7
 43
1.0
 76
     1
 77
     6
 78
     2
 67
     7
 79
     3
170
     0
171
     0
290
     0
174
     0
 93
        1
 44
0.0
173
     0
291
     0
 45
0.0
1001
ACAD
1000
AcDbSavedByObjectVersion
1070
     0
  0
VISUALSTYLE
  5
641F
102
{ACAD_XDICTIONARY
360
65E4
102
}
102
{ACAD_REACTORS
330
640D
102
}
330
640D
100
AcDbVisualStyle
  2
Sketchy
 70
    24
 71
     1
 72
     2
 73
     2
 90
        0
 40
-0.6
 41
-30.0
 62
     5
 63
     7
 74
     2
 91
        2
 64
     7
 65
     7
 75
     1
175
     1
 42
40.0
 92
       11
 66
     7
 43
1.0
 76
     1
 77
     6
 78
     2
 67
     7
 79
     6
170
     0
171
     0
290
     0
174
     0
 93
        1
 44
0.0
173
     0
291
     0
 45
0.0
1001
ACAD
1000
AcDbSavedByObjectVersion
1070
     0
  0
VISUALSTYLE
  5
641A
102
{ACAD_XDICTIONARY
360
65DA
102
}
102
{ACAD_REACTORS
330
640D
102
}
330
640D
100
AcDbVisualStyle
  2
Thicken
 70
    13
 71
     2
 72
     2
 73
     0
 90
        0
 40
-0.6
 41
-30.0
 62
     5
 63
     7
 74
     1
 91
        4
 64
     7
 65
   257
 75
     1
175
     1
 42
1.0
 92
       12
 66
     7
 43
1.0
 76
     1
 77
     6
 78
     2
 67
     7
 79
     5
170
     0
171
     0
290
     0
174
     0
 93
        1
 44
0.0
173
     0
291
     1
 45
0.0
1001
ACAD
1000
AcDbSavedByObjectVersion
1070
     0
  0
VISUALSTYLE
  5
6414
102
{ACAD_XDICTIONARY
360
65CE
102
}
102
{ACAD_REACTORS
330
640D
102
}
330
640D
100
AcDbVisualStyle
  2
Wireframe
 70
     5
 71
     0
 72
     2
 73
     0
 90
        0
 40
-0.6
 41
-30.0
 62
     5
 63
     7
 74
     1
 91
        4
 64
     7
 65
   257
 75
     1
175
     1
 42
1.0
 92
        0
 66
   257
 43
1.0
 76
     1
 77
     6
 78
     2
 67
     7
 79
     3
170
     0
171
     0
290
     0
174
     0
 93
        1
 44
0.0
173
     0
291
     0
 45
0.0
1001
ACAD
1000
AcDbSavedByObjectVersion
1070
     0
  0
VISUALSTYLE
  5
6420
102
{ACAD_XDICTIONARY
360
65E6
102
}
102
{ACAD_REACTORS
330
640D
102
}
330
640D
100
AcDbVisualStyle
  2
X-Ray
 70
    25
 71
     2
 72
     2
 73
     1
 90
        1
 40
0.5
 41
-30.0
 62
     5
 63
     7
 74
     1
 91
        0
 64
     7
 65
   257
 75
     1
175
     1
 42
1.0
 92
        8
 66
     7
 43
1.0
 76
     1
 77
     6
 78
     2
 67
     7
 79
     3
170
     0
171
     0
290
     0
174
     0
 93
       13
 44
0.0
173
     0
291
     0
 45
0.0
1001
ACAD
1000
AcDbSavedByObjectVersion
1070
     0
  0
DICTIONARYVAR
  5
65A3
102
{ACAD_REACTORS
330
63F1
102
}
330
63F1
100
DictionaryVariables
280
     0
  1
1:1
  0
DICTIONARYVAR
  5
659F
102
{ACAD_REACTORS
330
63F1
102
}
330
63F1
100
DictionaryVariables
280
     0
  1
STANDARD
  0
DICTIONARYVAR
  5
659E
102
{ACAD_REACTORS
330
63F1
102
}
330
63F1
100
DictionaryVariables
280
     0
  1
STANDARD
  0
DICTIONARYVAR
  5
65A0
102
{ACAD_REACTORS
330
63F1
102
}
330
63F1
100
DictionaryVariables
280
     0
  1
Metric50
  0
DICTIONARYVAR
  5
65A1
102
{ACAD_REACTORS
330
63F1
102
}
330
63F1
100
DictionaryVariables
280
     0
  1
Metric50
  0
DICTIONARYVAR
  5
63F2
102
{ACAD_REACTORS
330
63F1
102
}
330
63F1
100
DictionaryVariables
280
     0
  1
1
  0
DICTIONARYVAR
  5
65AD
102
{ACAD_REACTORS
330
63F1
102
}
330
63F1
100
DictionaryVariables
280
     0
  1
0
  0
DICTIONARYVAR
  5
65A5
102
{ACAD_REACTORS
330
63F1
102
}
330
63F1
100
DictionaryVariables
280
     0
  1
1
  0
DICTIONARYVAR
  5
65A6
102
{ACAD_REACTORS
330
63F1
102
}
330
63F1
100
DictionaryVariables
280
     0
  1
15
  0
DICTIONARYVAR
  5
65A4
102
{ACAD_REACTORS
330
63F1
102
}
330
63F1
100
DictionaryVariables
280
     0
  1
0
  0
DICTIONARYVAR
  5
65A2
102
{ACAD_REACTORS
330
63F1
102
}
330
63F1
100
DictionaryVariables
280
     0
  1
0
  0
DICTIONARYVAR
  5
65AC
102
{ACAD_REACTORS
330
63F1
102
}
330
63F1
100
DictionaryVariables
280
     0
  1
127
  0
DICTIONARYVAR
  5
65AE
102
{ACAD_REACTORS
330
63F1
102
}
330
63F1
100
DictionaryVariables
280
     0
  1
2
  0
DICTIONARY
  5
65BA
102
{ACAD_REACTORS
330
65B8
102
}
330
65B8
100
AcDbDictionary
281
     1
  0
DICTIONARY
  5
65B9
102
{ACAD_REACTORS
330
65B8
102
}
330
65B8
100
AcDbDictionary
281
     1
  3
140687754079152
350
65B3
  3
140687754079168
350
65B4
  3
140687754079184
350
65B5
  3
140687754079200
350
65B6
  3
140687754079216
350
65B7
  0
DICTIONARY
  5
659B
330
6440
100
AcDbDictionary
280
     1
281
     1
  3
ACAD_XREC_ROUNDTRIP
360
65F7
  0
DICTIONARY
  5
65BB
330
1E94
100
AcDbDictionary
280
     1
281
     1
  3
ACAD_XREC_ROUNDTRIP
360
65BC
  0
DICTIONARY
  5
65BD
330
1E95
100
AcDbDictionary
280
     1
281
     1
  3
ACAD_XREC_ROUNDTRIP
360
65BE
  0
DICTIONARY
  5
63FE
330
63FD
100
AcDbDictionary
280
     1
281
     1
  3
ACAD_XREC_ROUNDTRIP
360
65C0
  3
BUMPTILE
360
6400
  3
DIFFUSETILE
360
63FF
  3
OPACITYTILE
360
6403
  3
REFLECTIONTILE
360
6402
  3
REFRACTIONTILE
360
6404
  3
SPECULARTILE
360
6401
  0
DICTIONARY
  5
63F6
330
63F5
100
AcDbDictionary
280
     1
281
     1
  3
ACAD_XREC_ROUNDTRIP
360
65BF
  3
BUMPTILE
360
63F8
  3
DIFFUSETILE
360
63F7
  3
OPACITYTILE
360
63FB
  3
REFLECTIONTILE
360
63FA
  3
REFRACTIONTILE
360
63FC
  3
SPECULARTILE
360
63F9
  0
DICTIONARY
  5
6406
330
6405
100
AcDbDictionary
280
     1
281
     1
  3
ACAD_XREC_ROUNDTRIP
360
65C1
  3
BUMPTILE
360
6408
  3
DIFFUSETILE
360
6407
  3
OPACITYTILE
360
640B
  3
REFLECTIONTILE
360
640A
  3
REFRACTIONTILE
360
640C
  3
SPECULARTILE
360
6409
  0
DICTIONARY
  5
65F4
330
643C
100
AcDbDictionary
280
     1
281
     1
  3
ACAD_XREC_ROUNDTRIP
360
65F5
  0
DICTIONARY
  5
6599
330
643E
100
AcDbDictionary
280
     1
281
     1
  3
ACAD_XREC_ROUNDTRIP
360
65F6
  0
DICTIONARY
  5
65AF
330
6428
100
AcDbDictionary
280
     1
281
     1
  3
ACAD_ROUNDTRIP_2008_TABLESTYLE_CELLSTYLEMAP
360
65B0
  3
ACAD_XREC_ROUNDTRIP
360
65F2
  0
DICTIONARY
  5
65CC
330
6413
100
AcDbDictionary
280
     1
281
     1
  3
ACAD_XREC_ROUNDTRIP
360
65CD
  0
DICTIONARY
  5
65CA
330
6412
100
AcDbDictionary
280
     1
281
     1
  3
ACAD_XREC_ROUNDTRIP
360
65CB
  0
DICTIONARY
  5
65D8
330
6419
100
AcDbDictionary
280
     1
281
     1
  3
ACAD_XREC_ROUNDTRIP
360
65D9
  0
DICTIONARY
  5
65E0
330
641D
100
AcDbDictionary
280
     1
281
     1
  3
ACAD_XREC_ROUNDTRIP
360
65E1
  0
DICTIONARY
  5
65D2
330
6416
100
AcDbDictionary
280
     1
281
     1
  3
ACAD_XREC_ROUNDTRIP
360
65D3
  0
DICTIONARY
  5
65D6
330
6418
100
AcDbDictionary
280
     1
281
     1
  3
ACAD_XREC_ROUNDTRIP
360
65D7
  0
DICTIONARY
  5
65F0
330
6425
100
AcDbDictionary
280
     1
281
     1
  3
ACAD_XREC_ROUNDTRIP
360
65F1
  0
DICTIONARY
  5
65DE
330
641C
100
AcDbDictionary
280
     1
281
     1
  3
ACAD_XREC_ROUNDTRIP
360
65DF
  0
DICTIONARY
  5
65C2
330
640E
100
AcDbDictionary
280
     1
281
     1
  3
ACAD_XREC_ROUNDTRIP
360
65C3
  0
DICTIONARY
  5
65C4
330
640F
100
AcDbDictionary
280
     1
281
     1
  3
ACAD_XREC_ROUNDTRIP
360
65C5
  0
DICTIONARY
  5
65C6
330
6410
100
AcDbDictionary
280
     1
281
     1
  3
ACAD_XREC_ROUNDTRIP
360
65C7
  0
DICTIONARY
  5
65C8
330
6411
100
AcDbDictionary
280
     1
281
     1
  3
ACAD_XREC_ROUNDTRIP
360
65C9
  0
DICTIONARY
  5
65D0
330
6415
100
AcDbDictionary
280
     1
281
     1
  3
ACAD_XREC_ROUNDTRIP
360
65D1
  0
DICTIONARY
  5
65EC
330
6423
100
AcDbDictionary
280
     1
281
     1
  3
ACAD_XREC_ROUNDTRIP
360
65ED
  0
DICTIONARY
  5
65DC
330
641B
100
AcDbDictionary
280
     1
281
     1
  3
ACAD_XREC_ROUNDTRIP
360
65DD
  0
DICTIONARY
  5
65EE
330
6424
100
AcDbDictionary
280
     1
281
     1
  3
ACAD_XREC_ROUNDTRIP
360
65EF
  0
DICTIONARY
  5
65D4
330
6417
100
AcDbDictionary
280
     1
281
     1
  3
ACAD_XREC_ROUNDTRIP
360
65D5
  0
DICTIONARY
  5
65EA
330
6422
100
AcDbDictionary
280
     1
281
     1
  3
ACAD_XREC_ROUNDTRIP
360
65EB
  0
DICTIONARY
  5
65E8
330
6421
100
AcDbDictionary
280
     1
281
     1
  3
ACAD_XREC_ROUNDTRIP
360
65E9
  0
DICTIONARY
  5
65E2
330
641E
100
AcDbDictionary
280
     1
281
     1
  3
ACAD_XREC_ROUNDTRIP
360
65E3
  0
DICTIONARY
  5
65E4
330
641F
100
AcDbDictionary
280
     1
281
     1
  3
ACAD_XREC_ROUNDTRIP
360
65E5
  0
DICTIONARY
  5
65DA
330
641A
100
AcDbDictionary
280
     1
281
     1
  3
ACAD_XREC_ROUNDTRIP
360
65DB
  0
DICTIONARY
  5
65CE
330
6414
100
AcDbDictionary
280
     1
281
     1
  3
ACAD_XREC_ROUNDTRIP
360
65CF
  0
DICTIONARY
  5
65E6
330
6420
100
AcDbDictionary
280
     1
281
     1
  3
ACAD_XREC_ROUNDTRIP
360
65E7
  0
XRECORD
  5
65B3
102
{ACAD_REACTORS
330
65B9
102
}
330
65B9
100
AcDbXrecord
280
     1
  1
AcDb_Thumbnail_Schema
102
{ATTRRECORD
341
65B4
  2
AcDbDs::TreatedAsObjectData
280
     1
291
     1
102
ATTRRECORD}
102
{ATTRRECORD
341
65B5
  2
AcDbDs::Legacy
280
     1
291
     1
102
ATTRRECORD}
  2
AcDbDs::ID
280
    10
 91
        8
102
{ATTRRECORD
341
65B6
  2
AcDs:Indexable
280
     1
291
     1
102
ATTRRECORD}
102
{ATTRRECORD
341
65B7
  2
AcDbDs::HandleAttribute
280
     7
282
     1
102
ATTRRECORD}
  2
Thumbnail_Data
280
    15
 91
        0
  0
XRECORD
  5
65B4
102
{ACAD_REACTORS
330
65B9
102
}
330
65B9
100
AcDbXrecord
280
     1
  1
AcDbDs::TreatedAsObjectDataSchema
  2
AcDbDs::TreatedAsObjectData
280
     1
 91
        0
  0
XRECORD
  5
65B5
102
{ACAD_REACTORS
330
65B9
102
}
330
65B9
100
AcDbXrecord
280
     1
  1
AcDbDs::LegacySchema
  2
AcDbDs::Legacy
280
     1
 91
        0
  0
XRECORD
  5
65B6
102
{ACAD_REACTORS
330
65B9
102
}
330
65B9
100
AcDbXrecord
280
     1
  1
AcDbDs::IndexedPropertySchema
  2
AcDs:Indexable
280
     1
 91
        0
  0
XRECORD
  5
65B7
102
{ACAD_REACTORS
330
65B9
102
}
330
65B9
100
AcDbXrecord
280
     1
  1
AcDbDs::HandleAttributeSchema
  2
AcDbDs::HandleAttribute
280
     7
 91
        1
284
     1
  0
XRECORD
  5
65F7
102
{ACAD_REACTORS
330
659B
102
}
330
659B
100
AcDbXrecord
280
     1
102
DISPLAYNAME
  1
Metric50
102
FLAGS
 90
        0
  0
XRECORD
  5
65BC
102
{ACAD_REACTORS
330
65BB
102
}
330
65BB
100
AcDbXrecord
280
     1
102
SHADEPLOT
 70
     0
102
SHADEPLOTRESLEVEL
 70
     2
102
SHADEPLOTCUSTOMDPI
 70
   300
  0
XRECORD
  5
65BE
102
{ACAD_REACTORS
330
65BD
102
}
330
65BD
100
AcDbXrecord
280
     1
102
SHADEPLOT
 70
     0
102
SHADEPLOTRESLEVEL
 70
     2
102
SHADEPLOTCUSTOMDPI
 70
   300
  0
XRECORD
  5
65C0
102
{ACAD_REACTORS
330
63FE
102
}
330
63FE
100
AcDbXrecord
280
     1
102
MATERIAL
148
0.0
149
0.0
149
0.0
 93
        0
 94
      127
282
     0
 72
     0
 77
     0
171
     0
175
     0
179
     0
273
     0
  0
XRECORD
  5
6400
102
{ACAD_REACTORS
330
63FE
102
}
330
63FE
100
AcDbXrecord
280
     1
270
     1
271
     1
  0
XRECORD
  5
63FF
102
{ACAD_REACTORS
330
63FE
102
}
330
63FE
100
AcDbXrecord
280
     1
270
     1
271
     1
  0
XRECORD
  5
6403
102
{ACAD_REACTORS
330
63FE
102
}
330
63FE
100
AcDbXrecord
280
     1
270
     1
271
     1
  0
XRECORD
  5
6402
102
{ACAD_REACTORS
330
63FE
102
}
330
63FE
100
AcDbXrecord
280
     1
270
     1
271
     1
  0
XRECORD
  5
6404
102
{ACAD_REACTORS
330
63FE
102
}
330
63FE
100
AcDbXrecord
280
     1
270
     1
271
     1
  0
XRECORD
  5
6401
102
{ACAD_REACTORS
330
63FE
102
}
330
63FE
100
AcDbXrecord
280
     1
270
     1
271
     1
  0
XRECORD
  5
65BF
102
{ACAD_REACTORS
330
63F6
102
}
330
63F6
100
AcDbXrecord
280
     1
102
MATERIAL
148
0.0
149
0.0
149
0.0
 93
        0
 94
      127
282
     0
 72
     0
 77
     0
171
     0
175
     0
179
     0
273
     0
  0
XRECORD
  5
63F8
102
{ACAD_REACTORS
330
63F6
102
}
330
63F6
100
AcDbXrecord
280
     1
270
     1
271
     1
  0
XRECORD
  5
63F7
102
{ACAD_REACTORS
330
63F6
102
}
330
63F6
100
AcDbXrecord
280
     1
270
     1
271
     1
  0
XRECORD
  5
63FB
102
{ACAD_REACTORS
330
63F6
102
}
330
63F6
100
AcDbXrecord
280
     1
270
     1
271
     1
  0
XRECORD
  5
63FA
102
{ACAD_REACTORS
330
63F6
102
}
330
63F6
100
AcDbXrecord
280
     1
270
     1
271
     1
  0
XRECORD
  5
63FC
102
{ACAD_REACTORS
330
63F6
102
}
330
63F6
100
AcDbXrecord
280
     1
270
     1
271
     1
  0
XRECORD
  5
63F9
102
{ACAD_REACTORS
330
63F6
102
}
330
63F6
100
AcDbXrecord
280
     1
270
     1
271
     1
  0
XRECORD
  5
65C1
102
{ACAD_REACTORS
330
6406
102
}
330
6406
100
AcDbXrecord
280
     1
102
MATERIAL
148
0.0
149
0.0
149
0.0
 93
        0
 94
      127
282
     0
 72
     0
 77
     0
171
     0
175
     0
179
     0
273
     0
  0
XRECORD
  5
6408
102
{ACAD_REACTORS
330
6406
102
}
330
6406
100
AcDbXrecord
280
     1
270
     1
271
     1
  0
XRECORD
  5
6407
102
{ACAD_REACTORS
330
6406
102
}
330
6406
100
AcDbXrecord
280
     1
270
     1
271
     1
  0
XRECORD
  5
640B
102
{ACAD_REACTORS
330
6406
102
}
330
6406
100
AcDbXrecord
280
     1
270
     1
271
     1
  0
XRECORD
  5
640A
102
{ACAD_REACTORS
330
6406
102
}
330
6406
100
AcDbXrecord
280
     1
270
     1
271
     1
  0
XRECORD
  5
640C
102
{ACAD_REACTORS
330
6406
102
}
330
6406
100
AcDbXrecord
280
     1
270
     1
271
     1
  0
XRECORD
  5
6409
102
{ACAD_REACTORS
330
6406
102
}
330
6406
100
AcDbXrecord
280
     1
270
     1
271
     1
  0
XRECORD
  5
65F5
102
{ACAD_REACTORS
330
65F4
102
}
330
65F4
100
AcDbXrecord
280
     1
102
ACAD_ROUNDTRIP_2012_MLEADER_STYLE
298
     1
  0
XRECORD
  5
65F6
102
{ACAD_REACTORS
330
6599
102
}
330
6599
100
AcDbXrecord
280
     1
102
DISPLAYNAME
  1
Metric50
102
FLAGS
 90
        0
  0
CELLSTYLEMAP
  5
65B0
102
{ACAD_REACTORS
330
65AF
102
}
330
65AF
100
AcDbCellStyleMap
 90
        3
300
CELLSTYLE
  1
TABLEFORMAT_BEGIN
 90
        5
170
     1
 91
        0
 92
    32768
 62
   257
 93
        1
300
CONTENTFORMAT
  1
CONTENTFORMAT_BEGIN
 90
        0
 91
        0
 92
      512
 93
        0
300

 40
0.0
140
1.0
 94
        5
 62
     0
340
10
144
6.0
309
CONTENTFORMAT_END
171
     1
301
MARGIN
  1
CELLMARGIN_BEGIN
 40
1.5
 40
1.5
 40
1.5
 40
1.5
 40
4.5
 40
4.5
309
CELLMARGIN_END
 94
        6
 95
        1
302
GRIDFORMAT
  1
GRIDFORMAT_BEGIN
 90
        0
 91
        1
 62
     0
 92
       -2
340
0
 93
        0
 40
1.125
309
GRIDFORMAT_END
 95
        2
302
GRIDFORMAT
  1
GRIDFORMAT_BEGIN
 90
        0
 91
        1
 62
     0
 92
       -2
340
0
 93
        0
 40
1.125
309
GRIDFORMAT_END
 95
        4
302
GRIDFORMAT
  1
GRIDFORMAT_BEGIN
 90
        0
 91
        1
 62
     0
 92
       -2
340
0
 93
        0
 40
1.125
309
GRIDFORMAT_END
 95
        8
302
GRIDFORMAT
  1
GRIDFORMAT_BEGIN
 90
        0
 91
        1
 62
     0
 92
       -2
340
0
 93
        0
 40
1.125
309
GRIDFORMAT_END
 95
       16
302
GRIDFORMAT
  1
GRIDFORMAT_BEGIN
 90
        0
 91
        1
 62
     0
 92
       -2
340
0
 93
        0
 40
1.125
309
GRIDFORMAT_END
 95
       32
302
GRIDFORMAT
  1
GRIDFORMAT_BEGIN
 90
        0
 91
        1
 62
     0
 92
       -2
340
0
 93
        0
 40
1.125
309
GRIDFORMAT_END
309
TABLEFORMAT_END
  1
CELLSTYLE_BEGIN
 90
        1
 91
        1
300
_TITLE
309
CELLSTYLE_END
300
CELLSTYLE
  1
TABLEFORMAT_BEGIN
 90
        5
170
     1
 91
        0
 92
        0
 62
   257
 93
        1
300
CONTENTFORMAT
  1
CONTENTFORMAT_BEGIN
 90
        0
 91
        0
 92
      512
 93
        0
300

 40
0.0
140
1.0
 94
        5
 62
     0
340
10
144
4.5
309
CONTENTFORMAT_END
171
     1
301
MARGIN
  1
CELLMARGIN_BEGIN
 40
1.5
 40
1.5
 40
1.5
 40
1.5
 40
4.5
 40
4.5
309
CELLMARGIN_END
 94
        6
 95
        1
302
GRIDFORMAT
  1
GRIDFORMAT_BEGIN
 90
        0
 91
        1
 62
     0
 92
       -2
340
0
 93
        0
 40
1.125
309
GRIDFORMAT_END
 95
        2
302
GRIDFORMAT
  1
GRIDFORMAT_BEGIN
 90
        0
 91
        1
 62
     0
 92
       -2
340
0
 93
        0
 40
1.125
309
GRIDFORMAT_END
 95
        4
302
GRIDFORMAT
  1
GRIDFORMAT_BEGIN
 90
        0
 91
        1
 62
     0
 92
       -2
340
0
 93
        0
 40
1.125
309
GRIDFORMAT_END
 95
        8
302
GRIDFORMAT
  1
GRIDFORMAT_BEGIN
 90
        0
 91
        1
 62
     0
 92
       -2
340
0
 93
        0
 40
1.125
309
GRIDFORMAT_END
 95
       16
302
GRIDFORMAT
  1
GRIDFORMAT_BEGIN
 90
        0
 91
        1
 62
     0
 92
       -2
340
0
 93
        0
 40
1.125
309
GRIDFORMAT_END
 95
       32
302
GRIDFORMAT
  1
GRIDFORMAT_BEGIN
 90
        0
 91
        1
 62
     0
 92
       -2
340
0
 93
        0
 40
1.125
309
GRIDFORMAT_END
309
TABLEFORMAT_END
  1
CELLSTYLE_BEGIN
 90
        2
 91
        1
300
_HEADER
309
CELLSTYLE_END
300
CELLSTYLE
  1
TABLEFORMAT_BEGIN
 90
        5
170
     1
 91
        0
 92
        0
 62
   257
 93
        1
300
CONTENTFORMAT
  1
CONTENTFORMAT_BEGIN
 90
        0
 91
        0
 92
      512
 93
        0
300

 40
0.0
140
1.0
 94
        2
 62
     0
340
10
144
4.5
309
CONTENTFORMAT_END
171
     1
301
MARGIN
  1
CELLMARGIN_BEGIN
 40
1.5
 40
1.5
 40
1.5
 40
1.5
 40
4.5
 40
4.5
309
CELLMARGIN_END
 94
        6
 95
        1
302
GRIDFORMAT
  1
GRIDFORMAT_BEGIN
 90
        0
 91
        1
 62
     0
 92
       -2
340
0
 93
        0
 40
1.125
309
GRIDFORMAT_END
 95
        2
302
GRIDFORMAT
  1
GRIDFORMAT_BEGIN
 90
        0
 91
        1
 62
     0
 92
       -2
340
0
 93
        0
 40
1.125
309
GRIDFORMAT_END
 95
        4
302
GRIDFORMAT
  1
GRIDFORMAT_BEGIN
 90
        0
 91
        1
 62
     0
 92
       -2
340
0
 93
        0
 40
1.125
309
GRIDFORMAT_END
 95
        8
302
GRIDFORMAT
  1
GRIDFORMAT_BEGIN
 90
        0
 91
        1
 62
     0
 92
       -2
340
0
 93
        0
 40
1.125
309
GRIDFORMAT_END
 95
       16
302
GRIDFORMAT
  1
GRIDFORMAT_BEGIN
 90
        0
 91
        1
 62
     0
 92
       -2
340
0
 93
        0
 40
1.125
309
GRIDFORMAT_END
 95
       32
302
GRIDFORMAT
  1
GRIDFORMAT_BEGIN
 90
        0
 91
        1
 62
     0
 92
       -2
340
0
 93
        0
 40
1.125
309
GRIDFORMAT_END
309
TABLEFORMAT_END
  1
CELLSTYLE_BEGIN
 90
        3
 91
        2
300
_DATA
309
CELLSTYLE_END
  0
XRECORD
  5
65F2
102
{ACAD_REACTORS
330
65AF
102
}
330
65AF
100
AcDbXrecord
280
     1
102
ACAD_ROUNDTRIP_PRE2007_TABLESTYLE
 90
      512
 91
        0
  1

 92
      512
 93
        0
  2

 94
      512
 95
        0
  3

  0
XRECORD
  5
65CD
102
{ACAD_REACTORS
330
65CC
102
}
330
65CC
100
AcDbXrecord
280
     1
102
RTVSPost2010Prop28
280
     1
102
RTVSPost2010PropOp28
 70
     1
102
RTVSPost2010Prop29
280
     1
102
RTVSPost2010PropOp29
 70
     1
102
RTVSPost2010Prop30
280
     0
102
RTVSPost2010PropOp30
 70
     1
102
RTVSPost2010Prop31
280
     0
102
RTVSPost2010PropOp31
 70
     1
102
RTVSPost2010Prop32
280
     0
102
RTVSPost2010PropOp32
 70
     1
102
RTVSPost2010Prop33
280
     0
102
RTVSPost2010PropOp33
 70
     1
102
RTVSPost2010Prop34
280
     0
102
RTVSPost2010PropOp34
 70
     1
102
RTVSPost2010Prop35
280
     0
102
RTVSPost2010PropOp35
 70
     1
102
RTVSPost2010Prop36
280
     0
102
RTVSPost2010PropOp36
 70
     1
102
RTVSPost2010Prop37
 90
       50
102
RTVSPost2010PropOp37
 70
     1
102
RTVSPost2010Prop38
140
0.0
102
RTVSPost2010PropOp38
 70
     1
102
RTVSPost2010Prop39
140
1.0
102
RTVSPost2010PropOp39
 70
     1
102
RTVSPost2010Prop40
 90
        0
102
RTVSPost2010PropOp40
 70
     1
102
RTVSPost2010Prop41ColorIndex
 90
       18
102
RTVSPost2010Prop41ColorRGB
 90
        0
102
RTVSPost2010PropOp41
 70
     1
102
RTVSPost2010Prop42
 90
       50
102
RTVSPost2010PropOp42
 70
     1
102
RTVSPost2010Prop43
 90
        3
102
RTVSPost2010PropOp43
 70
     1
102
RTVSPost2010Prop44ColorIndex
 90
        5
102
RTVSPost2010Prop44ColorRGB
 90
      255
102
RTVSPost2010PropOp44
 70
     1
102
RTVSPost2010Prop45
280
     0
102
RTVSPost2010PropOp45
 70
     1
102
RTVSPost2010Prop46
 90
       50
102
RTVSPost2010PropOp46
 70
     1
102
RTVSPost2010Prop47
 90
       50
102
RTVSPost2010PropOp47
 70
     1
102
RTVSPost2010Prop48
 90
       50
102
RTVSPost2010PropOp48
 70
     1
102
RTVSPost2010Prop49
280
     0
102
RTVSPost2010PropOp49
 70
     1
102
RTVSPost2010Prop50
 90
       50
102
RTVSPost2010PropOp50
 70
     1
102
RTVSPost2010Prop51ColorIndex
 90
      256
102
RTVSPost2010Prop51ColorRGB
 90
-16777216
102
RTVSPost2010PropOp51
 70
     0
102
RTVSPost2010Prop52
140
1.0
102
RTVSPost2010PropOp52
 70
     0
102
RTVSPost2010Prop53
 90
        2
102
RTVSPost2010PropOp53
 70
     1
102
RTVSPost2010Prop54
  1
strokes_ogs.tif
102
RTVSPost2010PropOp54
 70
     1
102
RTVSPost2010Prop55
280
     0
102
RTVSPost2010PropOp55
 70
     1
102
RTVSPost2010Prop56
140
1.0
102
RTVSPost2010PropOp56
 70
     1
102
RTVSPost2010Prop57
140
1.0
102
RTVSPost2010PropOp57
 70
     1
102
RTVSPropertyOp0
 70
     1
102
RTVSPropertyOp1
 70
     1
102
RTVSPropertyOp2
 70
     1
102
RTVSPropertyOp3
 70
     1
102
RTVSPropertyOp4
 70
     1
102
RTVSPropertyOp5
 70
     1
102
RTVSPropertyOp6
 70
     1
102
RTVSPropertyOp7
 70
     1
102
RTVSPropertyOp8
 70
     1
102
RTVSPropertyOp9
 70
     1
102
RTVSPropertyOp10
 70
     1
102
RTVSPropertyOp11
 70
     1
102
RTVSPropertyOp12
 70
     1
102
RTVSPropertyOp13
 70
     1
102
RTVSPropertyOp14
 70
     1
102
RTVSPropertyOp15
 70
     1
102
RTVSPropertyOp16
 70
     1
102
RTVSPropertyOp17
 70
     1
102
RTVSPropertyOp18
 70
     1
102
RTVSPropertyOp19
 70
     1
102
RTVSPropertyOp20
 70
     1
102
RTVSPropertyOp21
 70
     1
102
RTVSPropertyOp22
 70
     1
102
RTVSPropertyOp23
 70
     1
102
RTVSPropertyOp24
 70
     1
102
RTVSPropertyOp25
 70
     1
102
RTVSPropertyOp26
 70
     1
102
RTVSPropertyOp27
 70
     1
102
RTVSPropertyOp28
 70
     1
102
RTVSPropertyOp29
 70
     1
102
RTVSPropertyOp30
 70
     1
102
RTVSPropertyOp31
 70
     1
102
RTVSPropertyOp32
 70
     1
102
RTVSPropertyOp33
 70
     1
102
RTVSPropertyOp34
 70
     1
102
RTVSPropertyOp35
 70
     1
102
RTVSPropertyOp36
 70
     1
102
RTVSPropertyOp37
 70
     1
102
RTVSPropertyOp38
 70
     1
102
RTVSPropertyOp39
 70
     1
102
RTVSPropertyOp40
 70
     1
102
RTVSPropertyOp41
 70
     1
102
RTVSPropertyOp42
 70
     1
102
RTVSPropertyOp43
 70
     1
102
RTVSPropertyOp44
 70
     1
102
RTVSPropertyOp45
 70
     1
102
RTVSPropertyOp46
 70
     1
102
RTVSPropertyOp47
 70
     1
102
RTVSPropertyOp48
 70
     1
102
RTVSPropertyOp49
 70
     1
102
RTVSPropertyOp50
 70
     1
102
RTVSPropertyOp51
 70
     0
102
RTVSPropertyOp52
 70
     0
102
RTVSPropertyOp53
 70
     1
102
RTVSPropertyOp54
 70
     1
102
RTVSPropertyOp55
 70
     1
102
RTVSPropertyOp56
 70
     1
102
RTVSPropertyOp57
 70
     1
102
RTVSPropertyOp58
 70
     1
102
RTVSPropertyOp59
 70
     1
102
RTVSPropertyOp60
 70
     1
102
RTVSPropertyOp61
 70
     1
102
RTVSPropertyOp62
 70
     1
  0
XRECORD
  5
65CB
102
{ACAD_REACTORS
330
65CA
102
}
330
65CA
100
AcDbXrecord
280
     1
102
RTVSPost2010Prop28
280
     0
102
RTVSPost2010PropOp28
 70
     1
102
RTVSPost2010Prop29
280
     1
102
RTVSPost2010PropOp29
 70
     1
102
RTVSPost2010Prop30
280
     1
102
RTVSPost2010PropOp30
 70
     1
102
RTVSPost2010Prop31
280
     0
102
RTVSPost2010PropOp31
 70
     1
102
RTVSPost2010Prop32
280
     0
102
RTVSPost2010PropOp32
 70
     1
102
RTVSPost2010Prop33
280
     0
102
RTVSPost2010PropOp33
 70
     1
102
RTVSPost2010Prop34
280
     0
102
RTVSPost2010PropOp34
 70
     1
102
RTVSPost2010Prop35
280
     0
102
RTVSPost2010PropOp35
 70
     1
102
RTVSPost2010Prop36
280
     0
102
RTVSPost2010PropOp36
 70
     1
102
RTVSPost2010Prop37
 90
       50
102
RTVSPost2010PropOp37
 70
     1
102
RTVSPost2010Prop38
140
0.0
102
RTVSPost2010PropOp38
 70
     1
102
RTVSPost2010Prop39
140
1.0
102
RTVSPost2010PropOp39
 70
     1
102
RTVSPost2010Prop40
 90
        0
102
RTVSPost2010PropOp40
 70
     1
102
RTVSPost2010Prop41ColorIndex
 90
       18
102
RTVSPost2010Prop41ColorRGB
 90
        0
102
RTVSPost2010PropOp41
 70
     1
102
RTVSPost2010Prop42
 90
       50
102
RTVSPost2010PropOp42
 70
     1
102
RTVSPost2010Prop43
 90
        3
102
RTVSPost2010PropOp43
 70
     1
102
RTVSPost2010Prop44ColorIndex
 90
        5
102
RTVSPost2010Prop44ColorRGB
 90
      255
102
RTVSPost2010PropOp44
 70
     1
102
RTVSPost2010Prop45
280
     0
102
RTVSPost2010PropOp45
 70
     1
102
RTVSPost2010Prop46
 90
       50
102
RTVSPost2010PropOp46
 70
     1
102
RTVSPost2010Prop47
 90
       50
102
RTVSPost2010PropOp47
 70
     1
102
RTVSPost2010Prop48
 90
       50
102
RTVSPost2010PropOp48
 70
     1
102
RTVSPost2010Prop49
280
     0
102
RTVSPost2010PropOp49
 70
     1
102
RTVSPost2010Prop50
 90
       50
102
RTVSPost2010PropOp50
 70
     1
102
RTVSPost2010Prop51ColorIndex
 90
      256
102
RTVSPost2010Prop51ColorRGB
 90
-16777216
102
RTVSPost2010PropOp51
 70
     0
102
RTVSPost2010Prop52
140
1.0
102
RTVSPost2010PropOp52
 70
     0
102
RTVSPost2010Prop53
 90
        2
102
RTVSPost2010PropOp53
 70
     1
102
RTVSPost2010Prop54
  1
strokes_ogs.tif
102
RTVSPost2010PropOp54
 70
     1
102
RTVSPost2010Prop55
280
     0
102
RTVSPost2010PropOp55
 70
     1
102
RTVSPost2010Prop56
140
1.0
102
RTVSPost2010PropOp56
 70
     1
102
RTVSPost2010Prop57
140
1.0
102
RTVSPost2010PropOp57
 70
     1
102
RTVSPropertyOp0
 70
     1
102
RTVSPropertyOp1
 70
     1
102
RTVSPropertyOp2
 70
     1
102
RTVSPropertyOp3
 70
     1
102
RTVSPropertyOp4
 70
     1
102
RTVSPropertyOp5
 70
     1
102
RTVSPropertyOp6
 70
     1
102
RTVSPropertyOp7
 70
     1
102
RTVSPropertyOp8
 70
     1
102
RTVSPropertyOp9
 70
     1
102
RTVSPropertyOp10
 70
     1
102
RTVSPropertyOp11
 70
     1
102
RTVSPropertyOp12
 70
     1
102
RTVSPropertyOp13
 70
     1
102
RTVSPropertyOp14
 70
     1
102
RTVSPropertyOp15
 70
     1
102
RTVSPropertyOp16
 70
     1
102
RTVSPropertyOp17
 70
     1
102
RTVSPropertyOp18
 70
     1
102
RTVSPropertyOp19
 70
     1
102
RTVSPropertyOp20
 70
     1
102
RTVSPropertyOp21
 70
     1
102
RTVSPropertyOp22
 70
     1
102
RTVSPropertyOp23
 70
     1
102
RTVSPropertyOp24
 70
     1
102
RTVSPropertyOp25
 70
     1
102
RTVSPropertyOp26
 70
     1
102
RTVSPropertyOp27
 70
     1
102
RTVSPropertyOp28
 70
     1
102
RTVSPropertyOp29
 70
     1
102
RTVSPropertyOp30
 70
     1
102
RTVSPropertyOp31
 70
     1
102
RTVSPropertyOp32
 70
     1
102
RTVSPropertyOp33
 70
     1
102
RTVSPropertyOp34
 70
     1
102
RTVSPropertyOp35
 70
     1
102
RTVSPropertyOp36
 70
     1
102
RTVSPropertyOp37
 70
     1
102
RTVSPropertyOp38
 70
     1
102
RTVSPropertyOp39
 70
     1
102
RTVSPropertyOp40
 70
     1
102
RTVSPropertyOp41
 70
     1
102
RTVSPropertyOp42
 70
     1
102
RTVSPropertyOp43
 70
     1
102
RTVSPropertyOp44
 70
     1
102
RTVSPropertyOp45
 70
     1
102
RTVSPropertyOp46
 70
     1
102
RTVSPropertyOp47
 70
     1
102
RTVSPropertyOp48
 70
     1
102
RTVSPropertyOp49
 70
     1
102
RTVSPropertyOp50
 70
     1
102
RTVSPropertyOp51
 70
     0
102
RTVSPropertyOp52
 70
     0
102
RTVSPropertyOp53
 70
     1
102
RTVSPropertyOp54
 70
     1
102
RTVSPropertyOp55
 70
     1
102
RTVSPropertyOp56
 70
     1
102
RTVSPropertyOp57
 70
     1
102
RTVSPropertyOp58
 70
     1
102
RTVSPropertyOp59
 70
     1
102
RTVSPropertyOp60
 70
     1
102
RTVSPropertyOp61
 70
     1
102
RTVSPropertyOp62
 70
     1
  0
XRECORD
  5
65D9
102
{ACAD_REACTORS
330
65D8
102
}
330
65D8
100
AcDbXrecord
280
     1
102
RTVSPost2010Prop28
280
     0
102
RTVSPost2010PropOp28
 70
     1
102
RTVSPost2010Prop29
280
     1
102
RTVSPost2010PropOp29
 70
     1
102
RTVSPost2010Prop30
280
     1
102
RTVSPost2010PropOp30
 70
     1
102
RTVSPost2010Prop31
280
     0
102
RTVSPost2010PropOp31
 70
     1
102
RTVSPost2010Prop32
280
     0
102
RTVSPost2010PropOp32
 70
     1
102
RTVSPost2010Prop33
280
     0
102
RTVSPost2010PropOp33
 70
     1
102
RTVSPost2010Prop34
280
     0
102
RTVSPost2010PropOp34
 70
     1
102
RTVSPost2010Prop35
280
     0
102
RTVSPost2010PropOp35
 70
     1
102
RTVSPost2010Prop36
280
     0
102
RTVSPost2010PropOp36
 70
     1
102
RTVSPost2010Prop37
 90
       50
102
RTVSPost2010PropOp37
 70
     1
102
RTVSPost2010Prop38
140
0.0
102
RTVSPost2010PropOp38
 70
     1
102
RTVSPost2010Prop39
140
1.0
102
RTVSPost2010PropOp39
 70
     1
102
RTVSPost2010Prop40
 90
        0
102
RTVSPost2010PropOp40
 70
     1
102
RTVSPost2010Prop41ColorIndex
 90
       18
102
RTVSPost2010Prop41ColorRGB
 90
        0
102
RTVSPost2010PropOp41
 70
     1
102
RTVSPost2010Prop42
 90
       50
102
RTVSPost2010PropOp42
 70
     1
102
RTVSPost2010Prop43
 90
        3
102
RTVSPost2010PropOp43
 70
     1
102
RTVSPost2010Prop44ColorIndex
 90
        5
102
RTVSPost2010Prop44ColorRGB
 90
      255
102
RTVSPost2010PropOp44
 70
     1
102
RTVSPost2010Prop45
280
     0
102
RTVSPost2010PropOp45
 70
     1
102
RTVSPost2010Prop46
 90
       50
102
RTVSPost2010PropOp46
 70
     1
102
RTVSPost2010Prop47
 90
       50
102
RTVSPost2010PropOp47
 70
     1
102
RTVSPost2010Prop48
 90
       50
102
RTVSPost2010PropOp48
 70
     1
102
RTVSPost2010Prop49
280
     0
102
RTVSPost2010PropOp49
 70
     1
102
RTVSPost2010Prop50
 90
       50
102
RTVSPost2010PropOp50
 70
     1
102
RTVSPost2010Prop51ColorIndex
 90
      256
102
RTVSPost2010Prop51ColorRGB
 90
-16777216
102
RTVSPost2010PropOp51
 70
     0
102
RTVSPost2010Prop52
140
1.0
102
RTVSPost2010PropOp52
 70
     0
102
RTVSPost2010Prop53
 90
        2
102
RTVSPost2010PropOp53
 70
     1
102
RTVSPost2010Prop54
  1
strokes_ogs.tif
102
RTVSPost2010PropOp54
 70
     1
102
RTVSPost2010Prop55
280
     0
102
RTVSPost2010PropOp55
 70
     1
102
RTVSPost2010Prop56
140
1.0
102
RTVSPost2010PropOp56
 70
     1
102
RTVSPost2010Prop57
140
1.0
102
RTVSPost2010PropOp57
 70
     1
102
RTVSPropertyOp0
 70
     1
102
RTVSPropertyOp1
 70
     1
102
RTVSPropertyOp2
 70
     1
102
RTVSPropertyOp3
 70
     1
102
RTVSPropertyOp4
 70
     1
102
RTVSPropertyOp5
 70
     1
102
RTVSPropertyOp6
 70
     1
102
RTVSPropertyOp7
 70
     1
102
RTVSPropertyOp8
 70
     1
102
RTVSPropertyOp9
 70
     1
102
RTVSPropertyOp10
 70
     1
102
RTVSPropertyOp11
 70
     1
102
RTVSPropertyOp12
 70
     1
102
RTVSPropertyOp13
 70
     1
102
RTVSPropertyOp14
 70
     1
102
RTVSPropertyOp15
 70
     1
102
RTVSPropertyOp16
 70
     1
102
RTVSPropertyOp17
 70
     1
102
RTVSPropertyOp18
 70
     1
102
RTVSPropertyOp19
 70
     1
102
RTVSPropertyOp20
 70
     1
102
RTVSPropertyOp21
 70
     1
102
RTVSPropertyOp22
 70
     1
102
RTVSPropertyOp23
 70
     1
102
RTVSPropertyOp24
 70
     1
102
RTVSPropertyOp25
 70
     1
102
RTVSPropertyOp26
 70
     1
102
RTVSPropertyOp27
 70
     1
102
RTVSPropertyOp28
 70
     1
102
RTVSPropertyOp29
 70
     1
102
RTVSPropertyOp30
 70
     1
102
RTVSPropertyOp31
 70
     1
102
RTVSPropertyOp32
 70
     1
102
RTVSPropertyOp33
 70
     1
102
RTVSPropertyOp34
 70
     1
102
RTVSPropertyOp35
 70
     1
102
RTVSPropertyOp36
 70
     1
102
RTVSPropertyOp37
 70
     1
102
RTVSPropertyOp38
 70
     1
102
RTVSPropertyOp39
 70
     1
102
RTVSPropertyOp40
 70
     1
102
RTVSPropertyOp41
 70
     1
102
RTVSPropertyOp42
 70
     1
102
RTVSPropertyOp43
 70
     1
102
RTVSPropertyOp44
 70
     1
102
RTVSPropertyOp45
 70
     1
102
RTVSPropertyOp46
 70
     1
102
RTVSPropertyOp47
 70
     1
102
RTVSPropertyOp48
 70
     1
102
RTVSPropertyOp49
 70
     1
102
RTVSPropertyOp50
 70
     1
102
RTVSPropertyOp51
 70
     0
102
RTVSPropertyOp52
 70
     0
102
RTVSPropertyOp53
 70
     1
102
RTVSPropertyOp54
 70
     1
102
RTVSPropertyOp55
 70
     1
102
RTVSPropertyOp56
 70
     1
102
RTVSPropertyOp57
 70
     1
102
RTVSPropertyOp58
 70
     1
102
RTVSPropertyOp59
 70
     1
102
RTVSPropertyOp60
 70
     1
102
RTVSPropertyOp61
 70
     1
102
RTVSPropertyOp62
 70
     1
  0
XRECORD
  5
65E1
102
{ACAD_REACTORS
330
65E0
102
}
330
65E0
100
AcDbXrecord
280
     1
102
RTVSPost2010Prop28
280
     0
102
RTVSPost2010PropOp28
 70
     1
102
RTVSPost2010Prop29
280
     1
102
RTVSPost2010PropOp29
 70
     1
102
RTVSPost2010Prop30
280
     1
102
RTVSPost2010PropOp30
 70
     1
102
RTVSPost2010Prop31
280
     0
102
RTVSPost2010PropOp31
 70
     1
102
RTVSPost2010Prop32
280
     0
102
RTVSPost2010PropOp32
 70
     1
102
RTVSPost2010Prop33
280
     0
102
RTVSPost2010PropOp33
 70
     1
102
RTVSPost2010Prop34
280
     0
102
RTVSPost2010PropOp34
 70
     1
102
RTVSPost2010Prop35
280
     0
102
RTVSPost2010PropOp35
 70
     1
102
RTVSPost2010Prop36
280
     0
102
RTVSPost2010PropOp36
 70
     1
102
RTVSPost2010Prop37
 90
       50
102
RTVSPost2010PropOp37
 70
     1
102
RTVSPost2010Prop38
140
0.0
102
RTVSPost2010PropOp38
 70
     1
102
RTVSPost2010Prop39
140
1.0
102
RTVSPost2010PropOp39
 70
     1
102
RTVSPost2010Prop40
 90
        0
102
RTVSPost2010PropOp40
 70
     1
102
RTVSPost2010Prop41ColorIndex
 90
       18
102
RTVSPost2010Prop41ColorRGB
 90
        0
102
RTVSPost2010PropOp41
 70
     1
102
RTVSPost2010Prop42
 90
       50
102
RTVSPost2010PropOp42
 70
     1
102
RTVSPost2010Prop43
 90
        3
102
RTVSPost2010PropOp43
 70
     1
102
RTVSPost2010Prop44ColorIndex
 90
        5
102
RTVSPost2010Prop44ColorRGB
 90
      255
102
RTVSPost2010PropOp44
 70
     1
102
RTVSPost2010Prop45
280
     0
102
RTVSPost2010PropOp45
 70
     1
102
RTVSPost2010Prop46
 90
       50
102
RTVSPost2010PropOp46
 70
     1
102
RTVSPost2010Prop47
 90
       50
102
RTVSPost2010PropOp47
 70
     1
102
RTVSPost2010Prop48
 90
       50
102
RTVSPost2010PropOp48
 70
     1
102
RTVSPost2010Prop49
280
     0
102
RTVSPost2010PropOp49
 70
     1
102
RTVSPost2010Prop50
 90
       50
102
RTVSPost2010PropOp50
 70
     1
102
RTVSPost2010Prop51ColorIndex
 90
      256
102
RTVSPost2010Prop51ColorRGB
 90
-16777216
102
RTVSPost2010PropOp51
 70
     0
102
RTVSPost2010Prop52
140
1.0
102
RTVSPost2010PropOp52
 70
     0
102
RTVSPost2010Prop53
 90
        2
102
RTVSPost2010PropOp53
 70
     1
102
RTVSPost2010Prop54
  1
strokes_ogs.tif
102
RTVSPost2010PropOp54
 70
     1
102
RTVSPost2010Prop55
280
     0
102
RTVSPost2010PropOp55
 70
     1
102
RTVSPost2010Prop56
140
1.0
102
RTVSPost2010PropOp56
 70
     1
102
RTVSPost2010Prop57
140
1.0
102
RTVSPost2010PropOp57
 70
     1
102
RTVSPropertyOp0
 70
     1
102
RTVSPropertyOp1
 70
     1
102
RTVSPropertyOp2
 70
     1
102
RTVSPropertyOp3
 70
     1
102
RTVSPropertyOp4
 70
     1
102
RTVSPropertyOp5
 70
     1
102
RTVSPropertyOp6
 70
     1
102
RTVSPropertyOp7
 70
     1
102
RTVSPropertyOp8
 70
     1
102
RTVSPropertyOp9
 70
     1
102
RTVSPropertyOp10
 70
     1
102
RTVSPropertyOp11
 70
     1
102
RTVSPropertyOp12
 70
     1
102
RTVSPropertyOp13
 70
     1
102
RTVSPropertyOp14
 70
     1
102
RTVSPropertyOp15
 70
     1
102
RTVSPropertyOp16
 70
     1
102
RTVSPropertyOp17
 70
     1
102
RTVSPropertyOp18
 70
     1
102
RTVSPropertyOp19
 70
     1
102
RTVSPropertyOp20
 70
     1
102
RTVSPropertyOp21
 70
     1
102
RTVSPropertyOp22
 70
     1
102
RTVSPropertyOp23
 70
     1
102
RTVSPropertyOp24
 70
     1
102
RTVSPropertyOp25
 70
     1
102
RTVSPropertyOp26
 70
     1
102
RTVSPropertyOp27
 70
     1
102
RTVSPropertyOp28
 70
     1
102
RTVSPropertyOp29
 70
     1
102
RTVSPropertyOp30
 70
     1
102
RTVSPropertyOp31
 70
     1
102
RTVSPropertyOp32
 70
     1
102
RTVSPropertyOp33
 70
     1
102
RTVSPropertyOp34
 70
     1
102
RTVSPropertyOp35
 70
     1
102
RTVSPropertyOp36
 70
     1
102
RTVSPropertyOp37
 70
     1
102
RTVSPropertyOp38
 70
     1
102
RTVSPropertyOp39
 70
     1
102
RTVSPropertyOp40
 70
     1
102
RTVSPropertyOp41
 70
     1
102
RTVSPropertyOp42
 70
     1
102
RTVSPropertyOp43
 70
     1
102
RTVSPropertyOp44
 70
     1
102
RTVSPropertyOp45
 70
     1
102
RTVSPropertyOp46
 70
     1
102
RTVSPropertyOp47
 70
     1
102
RTVSPropertyOp48
 70
     1
102
RTVSPropertyOp49
 70
     1
102
RTVSPropertyOp50
 70
     1
102
RTVSPropertyOp51
 70
     0
102
RTVSPropertyOp52
 70
     0
102
RTVSPropertyOp53
 70
     1
102
RTVSPropertyOp54
 70
     1
102
RTVSPropertyOp55
 70
     1
102
RTVSPropertyOp56
 70
     1
102
RTVSPropertyOp57
 70
     1
102
RTVSPropertyOp58
 70
     1
102
RTVSPropertyOp59
 70
     1
102
RTVSPropertyOp60
 70
     1
102
RTVSPropertyOp61
 70
     1
102
RTVSPropertyOp62
 70
     1
  0
XRECORD
  5
65D3
102
{ACAD_REACTORS
330
65D2
102
}
330
65D2
100
AcDbXrecord
280
     1
102
RTVSPost2010Prop28
280
     0
102
RTVSPost2010PropOp28
 70
     1
102
RTVSPost2010Prop29
280
     1
102
RTVSPost2010PropOp29
 70
     1
102
RTVSPost2010Prop30
280
     1
102
RTVSPost2010PropOp30
 70
     1
102
RTVSPost2010Prop31
280
     0
102
RTVSPost2010PropOp31
 70
     1
102
RTVSPost2010Prop32
280
     0
102
RTVSPost2010PropOp32
 70
     1
102
RTVSPost2010Prop33
280
     0
102
RTVSPost2010PropOp33
 70
     1
102
RTVSPost2010Prop34
280
     0
102
RTVSPost2010PropOp34
 70
     1
102
RTVSPost2010Prop35
280
     0
102
RTVSPost2010PropOp35
 70
     1
102
RTVSPost2010Prop36
280
     0
102
RTVSPost2010PropOp36
 70
     1
102
RTVSPost2010Prop37
 90
       50
102
RTVSPost2010PropOp37
 70
     1
102
RTVSPost2010Prop38
140
0.0
102
RTVSPost2010PropOp38
 70
     1
102
RTVSPost2010Prop39
140
1.0
102
RTVSPost2010PropOp39
 70
     1
102
RTVSPost2010Prop40
 90
        0
102
RTVSPost2010PropOp40
 70
     1
102
RTVSPost2010Prop41ColorIndex
 90
       18
102
RTVSPost2010Prop41ColorRGB
 90
        0
102
RTVSPost2010PropOp41
 70
     1
102
RTVSPost2010Prop42
 90
       50
102
RTVSPost2010PropOp42
 70
     1
102
RTVSPost2010Prop43
 90
        3
102
RTVSPost2010PropOp43
 70
     1
102
RTVSPost2010Prop44ColorIndex
 90
        5
102
RTVSPost2010Prop44ColorRGB
 90
      255
102
RTVSPost2010PropOp44
 70
     1
102
RTVSPost2010Prop45
280
     0
102
RTVSPost2010PropOp45
 70
     1
102
RTVSPost2010Prop46
 90
       50
102
RTVSPost2010PropOp46
 70
     1
102
RTVSPost2010Prop47
 90
       50
102
RTVSPost2010PropOp47
 70
     1
102
RTVSPost2010Prop48
 90
       50
102
RTVSPost2010PropOp48
 70
     1
102
RTVSPost2010Prop49
280
     0
102
RTVSPost2010PropOp49
 70
     1
102
RTVSPost2010Prop50
 90
       50
102
RTVSPost2010PropOp50
 70
     1
102
RTVSPost2010Prop51ColorIndex
 90
      256
102
RTVSPost2010Prop51ColorRGB
 90
-16777216
102
RTVSPost2010PropOp51
 70
     0
102
RTVSPost2010Prop52
140
1.0
102
RTVSPost2010PropOp52
 70
     0
102
RTVSPost2010Prop53
 90
        2
102
RTVSPost2010PropOp53
 70
     1
102
RTVSPost2010Prop54
  1
strokes_ogs.tif
102
RTVSPost2010PropOp54
 70
     1
102
RTVSPost2010Prop55
280
     0
102
RTVSPost2010PropOp55
 70
     1
102
RTVSPost2010Prop56
140
1.0
102
RTVSPost2010PropOp56
 70
     1
102
RTVSPost2010Prop57
140
1.0
102
RTVSPost2010PropOp57
 70
     1
102
RTVSPropertyOp0
 70
     1
102
RTVSPropertyOp1
 70
     1
102
RTVSPropertyOp2
 70
     1
102
RTVSPropertyOp3
 70
     1
102
RTVSPropertyOp4
 70
     1
102
RTVSPropertyOp5
 70
     1
102
RTVSPropertyOp6
 70
     1
102
RTVSPropertyOp7
 70
     1
102
RTVSPropertyOp8
 70
     1
102
RTVSPropertyOp9
 70
     1
102
RTVSPropertyOp10
 70
     1
102
RTVSPropertyOp11
 70
     1
102
RTVSPropertyOp12
 70
     1
102
RTVSPropertyOp13
 70
     1
102
RTVSPropertyOp14
 70
     1
102
RTVSPropertyOp15
 70
     1
102
RTVSPropertyOp16
 70
     1
102
RTVSPropertyOp17
 70
     1
102
RTVSPropertyOp18
 70
     1
102
RTVSPropertyOp19
 70
     1
102
RTVSPropertyOp20
 70
     1
102
RTVSPropertyOp21
 70
     1
102
RTVSPropertyOp22
 70
     1
102
RTVSPropertyOp23
 70
     1
102
RTVSPropertyOp24
 70
     1
102
RTVSPropertyOp25
 70
     1
102
RTVSPropertyOp26
 70
     1
102
RTVSPropertyOp27
 70
     1
102
RTVSPropertyOp28
 70
     1
102
RTVSPropertyOp29
 70
     1
102
RTVSPropertyOp30
 70
     1
102
RTVSPropertyOp31
 70
     1
102
RTVSPropertyOp32
 70
     1
102
RTVSPropertyOp33
 70
     1
102
RTVSPropertyOp34
 70
     1
102
RTVSPropertyOp35
 70
     1
102
RTVSPropertyOp36
 70
     1
102
RTVSPropertyOp37
 70
     1
102
RTVSPropertyOp38
 70
     1
102
RTVSPropertyOp39
 70
     1
102
RTVSPropertyOp40
 70
     1
102
RTVSPropertyOp41
 70
     1
102
RTVSPropertyOp42
 70
     1
102
RTVSPropertyOp43
 70
     1
102
RTVSPropertyOp44
 70
     1
102
RTVSPropertyOp45
 70
     1
102
RTVSPropertyOp46
 70
     1
102
RTVSPropertyOp47
 70
     1
102
RTVSPropertyOp48
 70
     1
102
RTVSPropertyOp49
 70
     1
102
RTVSPropertyOp50
 70
     1
102
RTVSPropertyOp51
 70
     0
102
RTVSPropertyOp52
 70
     0
102
RTVSPropertyOp53
 70
     1
102
RTVSPropertyOp54
 70
     1
102
RTVSPropertyOp55
 70
     1
102
RTVSPropertyOp56
 70
     1
102
RTVSPropertyOp57
 70
     1
102
RTVSPropertyOp58
 70
     1
102
RTVSPropertyOp59
 70
     1
102
RTVSPropertyOp60
 70
     1
102
RTVSPropertyOp61
 70
     1
102
RTVSPropertyOp62
 70
     1
  0
XRECORD
  5
65D7
102
{ACAD_REACTORS
330
65D6
102
}
330
65D6
100
AcDbXrecord
280
     1
102
RTVSPost2010Prop28
280
     0
102
RTVSPost2010PropOp28
 70
     1
102
RTVSPost2010Prop29
280
     1
102
RTVSPost2010PropOp29
 70
     1
102
RTVSPost2010Prop30
280
     1
102
RTVSPost2010PropOp30
 70
     1
102
RTVSPost2010Prop31
280
     0
102
RTVSPost2010PropOp31
 70
     1
102
RTVSPost2010Prop32
280
     0
102
RTVSPost2010PropOp32
 70
     1
102
RTVSPost2010Prop33
280
     0
102
RTVSPost2010PropOp33
 70
     1
102
RTVSPost2010Prop34
280
     0
102
RTVSPost2010PropOp34
 70
     1
102
RTVSPost2010Prop35
280
     0
102
RTVSPost2010PropOp35
 70
     1
102
RTVSPost2010Prop36
280
     0
102
RTVSPost2010PropOp36
 70
     1
102
RTVSPost2010Prop37
 90
       50
102
RTVSPost2010PropOp37
 70
     1
102
RTVSPost2010Prop38
140
0.0
102
RTVSPost2010PropOp38
 70
     1
102
RTVSPost2010Prop39
140
1.0
102
RTVSPost2010PropOp39
 70
     1
102
RTVSPost2010Prop40
 90
        0
102
RTVSPost2010PropOp40
 70
     1
102
RTVSPost2010Prop41ColorIndex
 90
       18
102
RTVSPost2010Prop41ColorRGB
 90
        0
102
RTVSPost2010PropOp41
 70
     1
102
RTVSPost2010Prop42
 90
       50
102
RTVSPost2010PropOp42
 70
     1
102
RTVSPost2010Prop43
 90
        3
102
RTVSPost2010PropOp43
 70
     1
102
RTVSPost2010Prop44ColorIndex
 90
        5
102
RTVSPost2010Prop44ColorRGB
 90
      255
102
RTVSPost2010PropOp44
 70
     1
102
RTVSPost2010Prop45
280
     0
102
RTVSPost2010PropOp45
 70
     1
102
RTVSPost2010Prop46
 90
       50
102
RTVSPost2010PropOp46
 70
     1
102
RTVSPost2010Prop47
 90
       50
102
RTVSPost2010PropOp47
 70
     1
102
RTVSPost2010Prop48
 90
       50
102
RTVSPost2010PropOp48
 70
     1
102
RTVSPost2010Prop49
280
     0
102
RTVSPost2010PropOp49
 70
     1
102
RTVSPost2010Prop50
 90
       50
102
RTVSPost2010PropOp50
 70
     1
102
RTVSPost2010Prop51ColorIndex
 90
      256
102
RTVSPost2010Prop51ColorRGB
 90
-16777216
102
RTVSPost2010PropOp51
 70
     0
102
RTVSPost2010Prop52
140
1.0
102
RTVSPost2010PropOp52
 70
     0
102
RTVSPost2010Prop53
 90
        2
102
RTVSPost2010PropOp53
 70
     1
102
RTVSPost2010Prop54
  1
strokes_ogs.tif
102
RTVSPost2010PropOp54
 70
     1
102
RTVSPost2010Prop55
280
     0
102
RTVSPost2010PropOp55
 70
     1
102
RTVSPost2010Prop56
140
1.0
102
RTVSPost2010PropOp56
 70
     1
102
RTVSPost2010Prop57
140
1.0
102
RTVSPost2010PropOp57
 70
     1
102
RTVSPropertyOp0
 70
     1
102
RTVSPropertyOp1
 70
     1
102
RTVSPropertyOp2
 70
     1
102
RTVSPropertyOp3
 70
     1
102
RTVSPropertyOp4
 70
     1
102
RTVSPropertyOp5
 70
     1
102
RTVSPropertyOp6
 70
     1
102
RTVSPropertyOp7
 70
     1
102
RTVSPropertyOp8
 70
     1
102
RTVSPropertyOp9
 70
     1
102
RTVSPropertyOp10
 70
     1
102
RTVSPropertyOp11
 70
     1
102
RTVSPropertyOp12
 70
     1
102
RTVSPropertyOp13
 70
     1
102
RTVSPropertyOp14
 70
     1
102
RTVSPropertyOp15
 70
     1
102
RTVSPropertyOp16
 70
     1
102
RTVSPropertyOp17
 70
     1
102
RTVSPropertyOp18
 70
     1
102
RTVSPropertyOp19
 70
     1
102
RTVSPropertyOp20
 70
     1
102
RTVSPropertyOp21
 70
     1
102
RTVSPropertyOp22
 70
     1
102
RTVSPropertyOp23
 70
     1
102
RTVSPropertyOp24
 70
     1
102
RTVSPropertyOp25
 70
     1
102
RTVSPropertyOp26
 70
     1
102
RTVSPropertyOp27
 70
     1
102
RTVSPropertyOp28
 70
     1
102
RTVSPropertyOp29
 70
     1
102
RTVSPropertyOp30
 70
     1
102
RTVSPropertyOp31
 70
     1
102
RTVSPropertyOp32
 70
     1
102
RTVSPropertyOp33
 70
     1
102
RTVSPropertyOp34
 70
     1
102
RTVSPropertyOp35
 70
     1
102
RTVSPropertyOp36
 70
     1
102
RTVSPropertyOp37
 70
     1
102
RTVSPropertyOp38
 70
     1
102
RTVSPropertyOp39
 70
     1
102
RTVSPropertyOp40
 70
     1
102
RTVSPropertyOp41
 70
     1
102
RTVSPropertyOp42
 70
     1
102
RTVSPropertyOp43
 70
     1
102
RTVSPropertyOp44
 70
     1
102
RTVSPropertyOp45
 70
     1
102
RTVSPropertyOp46
 70
     1
102
RTVSPropertyOp47
 70
     1
102
RTVSPropertyOp48
 70
     1
102
RTVSPropertyOp49
 70
     1
102
RTVSPropertyOp50
 70
     1
102
RTVSPropertyOp51
 70
     0
102
RTVSPropertyOp52
 70
     0
102
RTVSPropertyOp53
 70
     1
102
RTVSPropertyOp54
 70
     1
102
RTVSPropertyOp55
 70
     1
102
RTVSPropertyOp56
 70
     1
102
RTVSPropertyOp57
 70
     1
102
RTVSPropertyOp58
 70
     1
102
RTVSPropertyOp59
 70
     1
102
RTVSPropertyOp60
 70
     1
102
RTVSPropertyOp61
 70
     1
102
RTVSPropertyOp62
 70
     1
  0
XRECORD
  5
65F1
102
{ACAD_REACTORS
330
65F0
102
}
330
65F0
100
AcDbXrecord
280
     1
102
RTVSPost2010Prop28
280
     0
102
RTVSPost2010PropOp28
 70
     0
102
RTVSPost2010Prop29
280
     1
102
RTVSPost2010PropOp29
 70
     0
102
RTVSPost2010Prop30
280
     1
102
RTVSPost2010PropOp30
 70
     0
102
RTVSPost2010Prop31
280
     0
102
RTVSPost2010PropOp31
 70
     0
102
RTVSPost2010Prop32
280
     0
102
RTVSPost2010PropOp32
 70
     0
102
RTVSPost2010Prop33
280
     0
102
RTVSPost2010PropOp33
 70
     0
102
RTVSPost2010Prop34
280
     0
102
RTVSPost2010PropOp34
 70
     0
102
RTVSPost2010Prop35
280
     0
102
RTVSPost2010PropOp35
 70
     0
102
RTVSPost2010Prop36
280
     0
102
RTVSPost2010PropOp36
 70
     0
102
RTVSPost2010Prop37
 90
       50
102
RTVSPost2010PropOp37
 70
     0
102
RTVSPost2010Prop38
140
0.0
102
RTVSPost2010PropOp38
 70
     0
102
RTVSPost2010Prop39
140
1.0
102
RTVSPost2010PropOp39
 70
     0
102
RTVSPost2010Prop40
 90
        0
102
RTVSPost2010PropOp40
 70
     0
102
RTVSPost2010Prop41ColorIndex
 90
       18
102
RTVSPost2010Prop41ColorRGB
 90
        0
102
RTVSPost2010PropOp41
 70
     0
102
RTVSPost2010Prop42
 90
       50
102
RTVSPost2010PropOp42
 70
     0
102
RTVSPost2010Prop43
 90
        3
102
RTVSPost2010PropOp43
 70
     0
102
RTVSPost2010Prop44ColorIndex
 90
        5
102
RTVSPost2010Prop44ColorRGB
 90
      255
102
RTVSPost2010PropOp44
 70
     0
102
RTVSPost2010Prop45
280
     0
102
RTVSPost2010PropOp45
 70
     0
102
RTVSPost2010Prop46
 90
       50
102
RTVSPost2010PropOp46
 70
     0
102
RTVSPost2010Prop47
 90
       50
102
RTVSPost2010PropOp47
 70
     0
102
RTVSPost2010Prop48
 90
       50
102
RTVSPost2010PropOp48
 70
     0
102
RTVSPost2010Prop49
280
     0
102
RTVSPost2010PropOp49
 70
     0
102
RTVSPost2010Prop50
 90
       50
102
RTVSPost2010PropOp50
 70
     0
102
RTVSPost2010Prop51ColorIndex
 90
      256
102
RTVSPost2010Prop51ColorRGB
 90
-16777216
102
RTVSPost2010PropOp51
 70
     0
102
RTVSPost2010Prop52
140
1.0
102
RTVSPost2010PropOp52
 70
     0
102
RTVSPost2010Prop53
 90
        2
102
RTVSPost2010PropOp53
 70
     0
102
RTVSPost2010Prop54
  1
strokes_ogs.tif
102
RTVSPost2010PropOp54
 70
     0
102
RTVSPost2010Prop55
280
     0
102
RTVSPost2010PropOp55
 70
     0
102
RTVSPost2010Prop56
140
1.0
102
RTVSPost2010PropOp56
 70
     0
102
RTVSPost2010Prop57
140
1.0
102
RTVSPost2010PropOp57
 70
     0
102
RTVSPropertyOp0
 70
     0
102
RTVSPropertyOp1
 70
     0
102
RTVSPropertyOp2
 70
     0
102
RTVSPropertyOp3
 70
     0
102
RTVSPropertyOp4
 70
     0
102
RTVSPropertyOp5
 70
     0
102
RTVSPropertyOp6
 70
     0
102
RTVSPropertyOp7
 70
     0
102
RTVSPropertyOp8
 70
     0
102
RTVSPropertyOp9
 70
     0
102
RTVSPropertyOp10
 70
     0
102
RTVSPropertyOp11
 70
     0
102
RTVSPropertyOp12
 70
     0
102
RTVSPropertyOp13
 70
     0
102
RTVSPropertyOp14
 70
     2
102
RTVSPropertyOp15
 70
     0
102
RTVSPropertyOp16
 70
     0
102
RTVSPropertyOp17
 70
     0
102
RTVSPropertyOp18
 70
     0
102
RTVSPropertyOp19
 70
     0
102
RTVSPropertyOp20
 70
     0
102
RTVSPropertyOp21
 70
     0
102
RTVSPropertyOp22
 70
     0
102
RTVSPropertyOp23
 70
     0
102
RTVSPropertyOp24
 70
     0
102
RTVSPropertyOp25
 70
     0
102
RTVSPropertyOp26
 70
     0
102
RTVSPropertyOp27
 70
     0
102
RTVSPropertyOp28
 70
     0
102
RTVSPropertyOp29
 70
     0
102
RTVSPropertyOp30
 70
     0
102
RTVSPropertyOp31
 70
     0
102
RTVSPropertyOp32
 70
     0
102
RTVSPropertyOp33
 70
     0
102
RTVSPropertyOp34
 70
     0
102
RTVSPropertyOp35
 70
     0
102
RTVSPropertyOp36
 70
     0
102
RTVSPropertyOp37
 70
     0
102
RTVSPropertyOp38
 70
     0
102
RTVSPropertyOp39
 70
     0
102
RTVSPropertyOp40
 70
     0
102
RTVSPropertyOp41
 70
     0
102
RTVSPropertyOp42
 70
     0
102
RTVSPropertyOp43
 70
     0
102
RTVSPropertyOp44
 70
     0
102
RTVSPropertyOp45
 70
     0
102
RTVSPropertyOp46
 70
     0
102
RTVSPropertyOp47
 70
     0
102
RTVSPropertyOp48
 70
     0
102
RTVSPropertyOp49
 70
     0
102
RTVSPropertyOp50
 70
     0
102
RTVSPropertyOp51
 70
     0
102
RTVSPropertyOp52
 70
     0
102
RTVSPropertyOp53
 70
     0
102
RTVSPropertyOp54
 70
     0
102
RTVSPropertyOp55
 70
     0
102
RTVSPropertyOp56
 70
     0
102
RTVSPropertyOp57
 70
     0
102
RTVSPropertyOp58
 70
     1
102
RTVSPropertyOp59
 70
     1
102
RTVSPropertyOp60
 70
     1
102
RTVSPropertyOp61
 70
     1
102
RTVSPropertyOp62
 70
     1
  0
XRECORD
  5
65DF
102
{ACAD_REACTORS
330
65DE
102
}
330
65DE
100
AcDbXrecord
280
     1
102
RTVSPost2010Prop28
280
     0
102
RTVSPost2010PropOp28
 70
     1
102
RTVSPost2010Prop29
280
     1
102
RTVSPost2010PropOp29
 70
     1
102
RTVSPost2010Prop30
280
     1
102
RTVSPost2010PropOp30
 70
     1
102
RTVSPost2010Prop31
280
     0
102
RTVSPost2010PropOp31
 70
     1
102
RTVSPost2010Prop32
280
     0
102
RTVSPost2010PropOp32
 70
     1
102
RTVSPost2010Prop33
280
     0
102
RTVSPost2010PropOp33
 70
     1
102
RTVSPost2010Prop34
280
     0
102
RTVSPost2010PropOp34
 70
     1
102
RTVSPost2010Prop35
280
     0
102
RTVSPost2010PropOp35
 70
     1
102
RTVSPost2010Prop36
280
     0
102
RTVSPost2010PropOp36
 70
     1
102
RTVSPost2010Prop37
 90
       50
102
RTVSPost2010PropOp37
 70
     1
102
RTVSPost2010Prop38
140
0.0
102
RTVSPost2010PropOp38
 70
     1
102
RTVSPost2010Prop39
140
1.0
102
RTVSPost2010PropOp39
 70
     1
102
RTVSPost2010Prop40
 90
        0
102
RTVSPost2010PropOp40
 70
     1
102
RTVSPost2010Prop41ColorIndex
 90
       18
102
RTVSPost2010Prop41ColorRGB
 90
        0
102
RTVSPost2010PropOp41
 70
     1
102
RTVSPost2010Prop42
 90
       50
102
RTVSPost2010PropOp42
 70
     1
102
RTVSPost2010Prop43
 90
        3
102
RTVSPost2010PropOp43
 70
     1
102
RTVSPost2010Prop44ColorIndex
 90
        5
102
RTVSPost2010Prop44ColorRGB
 90
      255
102
RTVSPost2010PropOp44
 70
     1
102
RTVSPost2010Prop45
280
     0
102
RTVSPost2010PropOp45
 70
     1
102
RTVSPost2010Prop46
 90
       50
102
RTVSPost2010PropOp46
 70
     1
102
RTVSPost2010Prop47
 90
       50
102
RTVSPost2010PropOp47
 70
     1
102
RTVSPost2010Prop48
 90
       50
102
RTVSPost2010PropOp48
 70
     1
102
RTVSPost2010Prop49
280
     0
102
RTVSPost2010PropOp49
 70
     1
102
RTVSPost2010Prop50
 90
       50
102
RTVSPost2010PropOp50
 70
     1
102
RTVSPost2010Prop51ColorIndex
 90
      256
102
RTVSPost2010Prop51ColorRGB
 90
-16777216
102
RTVSPost2010PropOp51
 70
     0
102
RTVSPost2010Prop52
140
1.0
102
RTVSPost2010PropOp52
 70
     0
102
RTVSPost2010Prop53
 90
        2
102
RTVSPost2010PropOp53
 70
     1
102
RTVSPost2010Prop54
  1
strokes_ogs.tif
102
RTVSPost2010PropOp54
 70
     1
102
RTVSPost2010Prop55
280
     0
102
RTVSPost2010PropOp55
 70
     1
102
RTVSPost2010Prop56
140
1.0
102
RTVSPost2010PropOp56
 70
     1
102
RTVSPost2010Prop57
140
1.0
102
RTVSPost2010PropOp57
 70
     1
102
RTVSPropertyOp0
 70
     1
102
RTVSPropertyOp1
 70
     1
102
RTVSPropertyOp2
 70
     1
102
RTVSPropertyOp3
 70
     1
102
RTVSPropertyOp4
 70
     1
102
RTVSPropertyOp5
 70
     1
102
RTVSPropertyOp6
 70
     1
102
RTVSPropertyOp7
 70
     1
102
RTVSPropertyOp8
 70
     1
102
RTVSPropertyOp9
 70
     1
102
RTVSPropertyOp10
 70
     1
102
RTVSPropertyOp11
 70
     1
102
RTVSPropertyOp12
 70
     1
102
RTVSPropertyOp13
 70
     1
102
RTVSPropertyOp14
 70
     1
102
RTVSPropertyOp15
 70
     1
102
RTVSPropertyOp16
 70
     1
102
RTVSPropertyOp17
 70
     1
102
RTVSPropertyOp18
 70
     1
102
RTVSPropertyOp19
 70
     1
102
RTVSPropertyOp20
 70
     1
102
RTVSPropertyOp21
 70
     1
102
RTVSPropertyOp22
 70
     1
102
RTVSPropertyOp23
 70
     1
102
RTVSPropertyOp24
 70
     1
102
RTVSPropertyOp25
 70
     1
102
RTVSPropertyOp26
 70
     1
102
RTVSPropertyOp27
 70
     1
102
RTVSPropertyOp28
 70
     1
102
RTVSPropertyOp29
 70
     1
102
RTVSPropertyOp30
 70
     1
102
RTVSPropertyOp31
 70
     1
102
RTVSPropertyOp32
 70
     1
102
RTVSPropertyOp33
 70
     1
102
RTVSPropertyOp34
 70
     1
102
RTVSPropertyOp35
 70
     1
102
RTVSPropertyOp36
 70
     1
102
RTVSPropertyOp37
 70
     1
102
RTVSPropertyOp38
 70
     1
102
RTVSPropertyOp39
 70
     1
102
RTVSPropertyOp40
 70
     1
102
RTVSPropertyOp41
 70
     1
102
RTVSPropertyOp42
 70
     1
102
RTVSPropertyOp43
 70
     1
102
RTVSPropertyOp44
 70
     1
102
RTVSPropertyOp45
 70
     1
102
RTVSPropertyOp46
 70
     1
102
RTVSPropertyOp47
 70
     1
102
RTVSPropertyOp48
 70
     1
102
RTVSPropertyOp49
 70
     1
102
RTVSPropertyOp50
 70
     1
102
RTVSPropertyOp51
 70
     0
102
RTVSPropertyOp52
 70
     0
102
RTVSPropertyOp53
 70
     1
102
RTVSPropertyOp54
 70
     1
102
RTVSPropertyOp55
 70
     1
102
RTVSPropertyOp56
 70
     1
102
RTVSPropertyOp57
 70
     1
102
RTVSPropertyOp58
 70
     1
102
RTVSPropertyOp59
 70
     1
102
RTVSPropertyOp60
 70
     1
102
RTVSPropertyOp61
 70
     1
102
RTVSPropertyOp62
 70
     1
  0
XRECORD
  5
65C3
102
{ACAD_REACTORS
330
65C2
102
}
330
65C2
100
AcDbXrecord
280
     1
102
RTVSPost2010Prop28
280
     0
102
RTVSPost2010PropOp28
 70
     1
102
RTVSPost2010Prop29
280
     1
102
RTVSPost2010PropOp29
 70
     1
102
RTVSPost2010Prop30
280
     1
102
RTVSPost2010PropOp30
 70
     1
102
RTVSPost2010Prop31
280
     0
102
RTVSPost2010PropOp31
 70
     1
102
RTVSPost2010Prop32
280
     0
102
RTVSPost2010PropOp32
 70
     1
102
RTVSPost2010Prop33
280
     0
102
RTVSPost2010PropOp33
 70
     1
102
RTVSPost2010Prop34
280
     0
102
RTVSPost2010PropOp34
 70
     1
102
RTVSPost2010Prop35
280
     0
102
RTVSPost2010PropOp35
 70
     1
102
RTVSPost2010Prop36
280
     0
102
RTVSPost2010PropOp36
 70
     1
102
RTVSPost2010Prop37
 90
       50
102
RTVSPost2010PropOp37
 70
     1
102
RTVSPost2010Prop38
140
0.0
102
RTVSPost2010PropOp38
 70
     1
102
RTVSPost2010Prop39
140
1.0
102
RTVSPost2010PropOp39
 70
     1
102
RTVSPost2010Prop40
 90
        0
102
RTVSPost2010PropOp40
 70
     1
102
RTVSPost2010Prop41ColorIndex
 90
       18
102
RTVSPost2010Prop41ColorRGB
 90
        0
102
RTVSPost2010PropOp41
 70
     1
102
RTVSPost2010Prop42
 90
       50
102
RTVSPost2010PropOp42
 70
     1
102
RTVSPost2010Prop43
 90
        3
102
RTVSPost2010PropOp43
 70
     1
102
RTVSPost2010Prop44ColorIndex
 90
        5
102
RTVSPost2010Prop44ColorRGB
 90
      255
102
RTVSPost2010PropOp44
 70
     1
102
RTVSPost2010Prop45
280
     0
102
RTVSPost2010PropOp45
 70
     1
102
RTVSPost2010Prop46
 90
       50
102
RTVSPost2010PropOp46
 70
     1
102
RTVSPost2010Prop47
 90
       50
102
RTVSPost2010PropOp47
 70
     1
102
RTVSPost2010Prop48
 90
       50
102
RTVSPost2010PropOp48
 70
     1
102
RTVSPost2010Prop49
280
     0
102
RTVSPost2010PropOp49
 70
     1
102
RTVSPost2010Prop50
 90
       50
102
RTVSPost2010PropOp50
 70
     1
102
RTVSPost2010Prop51ColorIndex
 90
      256
102
RTVSPost2010Prop51ColorRGB
 90
-16777216
102
RTVSPost2010PropOp51
 70
     0
102
RTVSPost2010Prop52
140
1.0
102
RTVSPost2010PropOp52
 70
     0
102
RTVSPost2010Prop53
 90
        2
102
RTVSPost2010PropOp53
 70
     1
102
RTVSPost2010Prop54
  1
strokes_ogs.tif
102
RTVSPost2010PropOp54
 70
     1
102
RTVSPost2010Prop55
280
     0
102
RTVSPost2010PropOp55
 70
     1
102
RTVSPost2010Prop56
140
1.0
102
RTVSPost2010PropOp56
 70
     1
102
RTVSPost2010Prop57
140
1.0
102
RTVSPost2010PropOp57
 70
     1
102
RTVSPropertyOp0
 70
     1
102
RTVSPropertyOp1
 70
     1
102
RTVSPropertyOp2
 70
     1
102
RTVSPropertyOp3
 70
     1
102
RTVSPropertyOp4
 70
     1
102
RTVSPropertyOp5
 70
     1
102
RTVSPropertyOp6
 70
     1
102
RTVSPropertyOp7
 70
     1
102
RTVSPropertyOp8
 70
     1
102
RTVSPropertyOp9
 70
     1
102
RTVSPropertyOp10
 70
     1
102
RTVSPropertyOp11
 70
     1
102
RTVSPropertyOp12
 70
     1
102
RTVSPropertyOp13
 70
     1
102
RTVSPropertyOp14
 70
     1
102
RTVSPropertyOp15
 70
     1
102
RTVSPropertyOp16
 70
     1
102
RTVSPropertyOp17
 70
     1
102
RTVSPropertyOp18
 70
     1
102
RTVSPropertyOp19
 70
     1
102
RTVSPropertyOp20
 70
     1
102
RTVSPropertyOp21
 70
     1
102
RTVSPropertyOp22
 70
     1
102
RTVSPropertyOp23
 70
     1
102
RTVSPropertyOp24
 70
     1
102
RTVSPropertyOp25
 70
     1
102
RTVSPropertyOp26
 70
     1
102
RTVSPropertyOp27
 70
     1
102
RTVSPropertyOp28
 70
     1
102
RTVSPropertyOp29
 70
     1
102
RTVSPropertyOp30
 70
     1
102
RTVSPropertyOp31
 70
     1
102
RTVSPropertyOp32
 70
     1
102
RTVSPropertyOp33
 70
     1
102
RTVSPropertyOp34
 70
     1
102
RTVSPropertyOp35
 70
     1
102
RTVSPropertyOp36
 70
     1
102
RTVSPropertyOp37
 70
     1
102
RTVSPropertyOp38
 70
     1
102
RTVSPropertyOp39
 70
     1
102
RTVSPropertyOp40
 70
     1
102
RTVSPropertyOp41
 70
     1
102
RTVSPropertyOp42
 70
     1
102
RTVSPropertyOp43
 70
     1
102
RTVSPropertyOp44
 70
     1
102
RTVSPropertyOp45
 70
     1
102
RTVSPropertyOp46
 70
     1
102
RTVSPropertyOp47
 70
     1
102
RTVSPropertyOp48
 70
     1
102
RTVSPropertyOp49
 70
     1
102
RTVSPropertyOp50
 70
     1
102
RTVSPropertyOp51
 70
     0
102
RTVSPropertyOp52
 70
     0
102
RTVSPropertyOp53
 70
     1
102
RTVSPropertyOp54
 70
     1
102
RTVSPropertyOp55
 70
     1
102
RTVSPropertyOp56
 70
     1
102
RTVSPropertyOp57
 70
     1
102
RTVSPropertyOp58
 70
     1
102
RTVSPropertyOp59
 70
     1
102
RTVSPropertyOp60
 70
     1
102
RTVSPropertyOp61
 70
     1
102
RTVSPropertyOp62
 70
     1
  0
XRECORD
  5
65C5
102
{ACAD_REACTORS
330
65C4
102
}
330
65C4
100
AcDbXrecord
280
     1
102
RTVSPost2010Prop28
280
     0
102
RTVSPost2010PropOp28
 70
     1
102
RTVSPost2010Prop29
280
     1
102
RTVSPost2010PropOp29
 70
     1
102
RTVSPost2010Prop30
280
     1
102
RTVSPost2010PropOp30
 70
     1
102
RTVSPost2010Prop31
280
     0
102
RTVSPost2010PropOp31
 70
     1
102
RTVSPost2010Prop32
280
     0
102
RTVSPost2010PropOp32
 70
     1
102
RTVSPost2010Prop33
280
     0
102
RTVSPost2010PropOp33
 70
     1
102
RTVSPost2010Prop34
280
     0
102
RTVSPost2010PropOp34
 70
     1
102
RTVSPost2010Prop35
280
     0
102
RTVSPost2010PropOp35
 70
     1
102
RTVSPost2010Prop36
280
     0
102
RTVSPost2010PropOp36
 70
     1
102
RTVSPost2010Prop37
 90
       50
102
RTVSPost2010PropOp37
 70
     1
102
RTVSPost2010Prop38
140
0.0
102
RTVSPost2010PropOp38
 70
     1
102
RTVSPost2010Prop39
140
1.0
102
RTVSPost2010PropOp39
 70
     1
102
RTVSPost2010Prop40
 90
        0
102
RTVSPost2010PropOp40
 70
     1
102
RTVSPost2010Prop41ColorIndex
 90
       18
102
RTVSPost2010Prop41ColorRGB
 90
        0
102
RTVSPost2010PropOp41
 70
     1
102
RTVSPost2010Prop42
 90
       50
102
RTVSPost2010PropOp42
 70
     1
102
RTVSPost2010Prop43
 90
        3
102
RTVSPost2010PropOp43
 70
     1
102
RTVSPost2010Prop44ColorIndex
 90
        5
102
RTVSPost2010Prop44ColorRGB
 90
      255
102
RTVSPost2010PropOp44
 70
     1
102
RTVSPost2010Prop45
280
     0
102
RTVSPost2010PropOp45
 70
     1
102
RTVSPost2010Prop46
 90
       50
102
RTVSPost2010PropOp46
 70
     1
102
RTVSPost2010Prop47
 90
       50
102
RTVSPost2010PropOp47
 70
     1
102
RTVSPost2010Prop48
 90
       50
102
RTVSPost2010PropOp48
 70
     1
102
RTVSPost2010Prop49
280
     0
102
RTVSPost2010PropOp49
 70
     1
102
RTVSPost2010Prop50
 90
       50
102
RTVSPost2010PropOp50
 70
     1
102
RTVSPost2010Prop51ColorIndex
 90
      256
102
RTVSPost2010Prop51ColorRGB
 90
-16777216
102
RTVSPost2010PropOp51
 70
     0
102
RTVSPost2010Prop52
140
1.0
102
RTVSPost2010PropOp52
 70
     0
102
RTVSPost2010Prop53
 90
        2
102
RTVSPost2010PropOp53
 70
     1
102
RTVSPost2010Prop54
  1
strokes_ogs.tif
102
RTVSPost2010PropOp54
 70
     1
102
RTVSPost2010Prop55
280
     0
102
RTVSPost2010PropOp55
 70
     1
102
RTVSPost2010Prop56
140
1.0
102
RTVSPost2010PropOp56
 70
     1
102
RTVSPost2010Prop57
140
1.0
102
RTVSPost2010PropOp57
 70
     1
102
RTVSPropertyOp0
 70
     1
102
RTVSPropertyOp1
 70
     1
102
RTVSPropertyOp2
 70
     1
102
RTVSPropertyOp3
 70
     1
102
RTVSPropertyOp4
 70
     1
102
RTVSPropertyOp5
 70
     1
102
RTVSPropertyOp6
 70
     1
102
RTVSPropertyOp7
 70
     1
102
RTVSPropertyOp8
 70
     1
102
RTVSPropertyOp9
 70
     1
102
RTVSPropertyOp10
 70
     1
102
RTVSPropertyOp11
 70
     1
102
RTVSPropertyOp12
 70
     1
102
RTVSPropertyOp13
 70
     1
102
RTVSPropertyOp14
 70
     1
102
RTVSPropertyOp15
 70
     1
102
RTVSPropertyOp16
 70
     1
102
RTVSPropertyOp17
 70
     1
102
RTVSPropertyOp18
 70
     1
102
RTVSPropertyOp19
 70
     1
102
RTVSPropertyOp20
 70
     1
102
RTVSPropertyOp21
 70
     1
102
RTVSPropertyOp22
 70
     1
102
RTVSPropertyOp23
 70
     1
102
RTVSPropertyOp24
 70
     1
102
RTVSPropertyOp25
 70
     1
102
RTVSPropertyOp26
 70
     1
102
RTVSPropertyOp27
 70
     1
102
RTVSPropertyOp28
 70
     1
102
RTVSPropertyOp29
 70
     1
102
RTVSPropertyOp30
 70
     1
102
RTVSPropertyOp31
 70
     1
102
RTVSPropertyOp32
 70
     1
102
RTVSPropertyOp33
 70
     1
102
RTVSPropertyOp34
 70
     1
102
RTVSPropertyOp35
 70
     1
102
RTVSPropertyOp36
 70
     1
102
RTVSPropertyOp37
 70
     1
102
RTVSPropertyOp38
 70
     1
102
RTVSPropertyOp39
 70
     1
102
RTVSPropertyOp40
 70
     1
102
RTVSPropertyOp41
 70
     1
102
RTVSPropertyOp42
 70
     1
102
RTVSPropertyOp43
 70
     1
102
RTVSPropertyOp44
 70
     1
102
RTVSPropertyOp45
 70
     1
102
RTVSPropertyOp46
 70
     1
102
RTVSPropertyOp47
 70
     1
102
RTVSPropertyOp48
 70
     1
102
RTVSPropertyOp49
 70
     1
102
RTVSPropertyOp50
 70
     1
102
RTVSPropertyOp51
 70
     0
102
RTVSPropertyOp52
 70
     0
102
RTVSPropertyOp53
 70
     1
102
RTVSPropertyOp54
 70
     1
102
RTVSPropertyOp55
 70
     1
102
RTVSPropertyOp56
 70
     1
102
RTVSPropertyOp57
 70
     1
102
RTVSPropertyOp58
 70
     1
102
RTVSPropertyOp59
 70
     1
102
RTVSPropertyOp60
 70
     1
102
RTVSPropertyOp61
 70
     1
102
RTVSPropertyOp62
 70
     1
  0
XRECORD
  5
65C7
102
{ACAD_REACTORS
330
65C6
102
}
330
65C6
100
AcDbXrecord
280
     1
102
RTVSPost2010Prop28
280
     0
102
RTVSPost2010PropOp28
 70
     1
102
RTVSPost2010Prop29
280
     1
102
RTVSPost2010PropOp29
 70
     1
102
RTVSPost2010Prop30
280
     1
102
RTVSPost2010PropOp30
 70
     1
102
RTVSPost2010Prop31
280
     0
102
RTVSPost2010PropOp31
 70
     1
102
RTVSPost2010Prop32
280
     0
102
RTVSPost2010PropOp32
 70
     1
102
RTVSPost2010Prop33
280
     0
102
RTVSPost2010PropOp33
 70
     1
102
RTVSPost2010Prop34
280
     0
102
RTVSPost2010PropOp34
 70
     1
102
RTVSPost2010Prop35
280
     0
102
RTVSPost2010PropOp35
 70
     1
102
RTVSPost2010Prop36
280
     0
102
RTVSPost2010PropOp36
 70
     1
102
RTVSPost2010Prop37
 90
       50
102
RTVSPost2010PropOp37
 70
     1
102
RTVSPost2010Prop38
140
0.0
102
RTVSPost2010PropOp38
 70
     1
102
RTVSPost2010Prop39
140
1.0
102
RTVSPost2010PropOp39
 70
     1
102
RTVSPost2010Prop40
 90
        0
102
RTVSPost2010PropOp40
 70
     1
102
RTVSPost2010Prop41ColorIndex
 90
       18
102
RTVSPost2010Prop41ColorRGB
 90
        0
102
RTVSPost2010PropOp41
 70
     1
102
RTVSPost2010Prop42
 90
       50
102
RTVSPost2010PropOp42
 70
     1
102
RTVSPost2010Prop43
 90
        3
102
RTVSPost2010PropOp43
 70
     1
102
RTVSPost2010Prop44ColorIndex
 90
        5
102
RTVSPost2010Prop44ColorRGB
 90
      255
102
RTVSPost2010PropOp44
 70
     1
102
RTVSPost2010Prop45
280
     0
102
RTVSPost2010PropOp45
 70
     1
102
RTVSPost2010Prop46
 90
       50
102
RTVSPost2010PropOp46
 70
     1
102
RTVSPost2010Prop47
 90
       50
102
RTVSPost2010PropOp47
 70
     1
102
RTVSPost2010Prop48
 90
       50
102
RTVSPost2010PropOp48
 70
     1
102
RTVSPost2010Prop49
280
     0
102
RTVSPost2010PropOp49
 70
     1
102
RTVSPost2010Prop50
 90
       50
102
RTVSPost2010PropOp50
 70
     1
102
RTVSPost2010Prop51ColorIndex
 90
      256
102
RTVSPost2010Prop51ColorRGB
 90
-16777216
102
RTVSPost2010PropOp51
 70
     0
102
RTVSPost2010Prop52
140
1.0
102
RTVSPost2010PropOp52
 70
     0
102
RTVSPost2010Prop53
 90
        2
102
RTVSPost2010PropOp53
 70
     1
102
RTVSPost2010Prop54
  1
strokes_ogs.tif
102
RTVSPost2010PropOp54
 70
     1
102
RTVSPost2010Prop55
280
     0
102
RTVSPost2010PropOp55
 70
     1
102
RTVSPost2010Prop56
140
1.0
102
RTVSPost2010PropOp56
 70
     1
102
RTVSPost2010Prop57
140
1.0
102
RTVSPost2010PropOp57
 70
     1
102
RTVSPropertyOp0
 70
     1
102
RTVSPropertyOp1
 70
     1
102
RTVSPropertyOp2
 70
     1
102
RTVSPropertyOp3
 70
     1
102
RTVSPropertyOp4
 70
     1
102
RTVSPropertyOp5
 70
     1
102
RTVSPropertyOp6
 70
     1
102
RTVSPropertyOp7
 70
     1
102
RTVSPropertyOp8
 70
     1
102
RTVSPropertyOp9
 70
     1
102
RTVSPropertyOp10
 70
     1
102
RTVSPropertyOp11
 70
     1
102
RTVSPropertyOp12
 70
     1
102
RTVSPropertyOp13
 70
     1
102
RTVSPropertyOp14
 70
     1
102
RTVSPropertyOp15
 70
     1
102
RTVSPropertyOp16
 70
     1
102
RTVSPropertyOp17
 70
     1
102
RTVSPropertyOp18
 70
     1
102
RTVSPropertyOp19
 70
     1
102
RTVSPropertyOp20
 70
     1
102
RTVSPropertyOp21
 70
     1
102
RTVSPropertyOp22
 70
     1
102
RTVSPropertyOp23
 70
     1
102
RTVSPropertyOp24
 70
     1
102
RTVSPropertyOp25
 70
     1
102
RTVSPropertyOp26
 70
     1
102
RTVSPropertyOp27
 70
     1
102
RTVSPropertyOp28
 70
     1
102
RTVSPropertyOp29
 70
     1
102
RTVSPropertyOp30
 70
     1
102
RTVSPropertyOp31
 70
     1
102
RTVSPropertyOp32
 70
     1
102
RTVSPropertyOp33
 70
     1
102
RTVSPropertyOp34
 70
     1
102
RTVSPropertyOp35
 70
     1
102
RTVSPropertyOp36
 70
     1
102
RTVSPropertyOp37
 70
     1
102
RTVSPropertyOp38
 70
     1
102
RTVSPropertyOp39
 70
     1
102
RTVSPropertyOp40
 70
     1
102
RTVSPropertyOp41
 70
     1
102
RTVSPropertyOp42
 70
     1
102
RTVSPropertyOp43
 70
     1
102
RTVSPropertyOp44
 70
     1
102
RTVSPropertyOp45
 70
     1
102
RTVSPropertyOp46
 70
     1
102
RTVSPropertyOp47
 70
     1
102
RTVSPropertyOp48
 70
     1
102
RTVSPropertyOp49
 70
     1
102
RTVSPropertyOp50
 70
     1
102
RTVSPropertyOp51
 70
     0
102
RTVSPropertyOp52
 70
     0
102
RTVSPropertyOp53
 70
     1
102
RTVSPropertyOp54
 70
     1
102
RTVSPropertyOp55
 70
     1
102
RTVSPropertyOp56
 70
     1
102
RTVSPropertyOp57
 70
     1
102
RTVSPropertyOp58
 70
     1
102
RTVSPropertyOp59
 70
     1
102
RTVSPropertyOp60
 70
     1
102
RTVSPropertyOp61
 70
     1
102
RTVSPropertyOp62
 70
     1
  0
XRECORD
  5
65C9
102
{ACAD_REACTORS
330
65C8
102
}
330
65C8
100
AcDbXrecord
280
     1
102
RTVSPost2010Prop28
280
     0
102
RTVSPost2010PropOp28
 70
     1
102
RTVSPost2010Prop29
280
     1
102
RTVSPost2010PropOp29
 70
     1
102
RTVSPost2010Prop30
280
     1
102
RTVSPost2010PropOp30
 70
     1
102
RTVSPost2010Prop31
280
     0
102
RTVSPost2010PropOp31
 70
     1
102
RTVSPost2010Prop32
280
     0
102
RTVSPost2010PropOp32
 70
     1
102
RTVSPost2010Prop33
280
     0
102
RTVSPost2010PropOp33
 70
     1
102
RTVSPost2010Prop34
280
     0
102
RTVSPost2010PropOp34
 70
     1
102
RTVSPost2010Prop35
280
     0
102
RTVSPost2010PropOp35
 70
     1
102
RTVSPost2010Prop36
280
     0
102
RTVSPost2010PropOp36
 70
     1
102
RTVSPost2010Prop37
 90
       50
102
RTVSPost2010PropOp37
 70
     1
102
RTVSPost2010Prop38
140
0.0
102
RTVSPost2010PropOp38
 70
     1
102
RTVSPost2010Prop39
140
1.0
102
RTVSPost2010PropOp39
 70
     1
102
RTVSPost2010Prop40
 90
        0
102
RTVSPost2010PropOp40
 70
     1
102
RTVSPost2010Prop41ColorIndex
 90
       18
102
RTVSPost2010Prop41ColorRGB
 90
        0
102
RTVSPost2010PropOp41
 70
     1
102
RTVSPost2010Prop42
 90
       50
102
RTVSPost2010PropOp42
 70
     1
102
RTVSPost2010Prop43
 90
        3
102
RTVSPost2010PropOp43
 70
     1
102
RTVSPost2010Prop44ColorIndex
 90
        5
102
RTVSPost2010Prop44ColorRGB
 90
      255
102
RTVSPost2010PropOp44
 70
     1
102
RTVSPost2010Prop45
280
     0
102
RTVSPost2010PropOp45
 70
     1
102
RTVSPost2010Prop46
 90
       50
102
RTVSPost2010PropOp46
 70
     1
102
RTVSPost2010Prop47
 90
       50
102
RTVSPost2010PropOp47
 70
     1
102
RTVSPost2010Prop48
 90
       50
102
RTVSPost2010PropOp48
 70
     1
102
RTVSPost2010Prop49
280
     0
102
RTVSPost2010PropOp49
 70
     1
102
RTVSPost2010Prop50
 90
       50
102
RTVSPost2010PropOp50
 70
     1
102
RTVSPost2010Prop51ColorIndex
 90
      256
102
RTVSPost2010Prop51ColorRGB
 90
-16777216
102
RTVSPost2010PropOp51
 70
     0
102
RTVSPost2010Prop52
140
1.0
102
RTVSPost2010PropOp52
 70
     0
102
RTVSPost2010Prop53
 90
        2
102
RTVSPost2010PropOp53
 70
     1
102
RTVSPost2010Prop54
  1
strokes_ogs.tif
102
RTVSPost2010PropOp54
 70
     1
102
RTVSPost2010Prop55
280
     0
102
RTVSPost2010PropOp55
 70
     1
102
RTVSPost2010Prop56
140
1.0
102
RTVSPost2010PropOp56
 70
     1
102
RTVSPost2010Prop57
140
1.0
102
RTVSPost2010PropOp57
 70
     1
102
RTVSPropertyOp0
 70
     1
102
RTVSPropertyOp1
 70
     1
102
RTVSPropertyOp2
 70
     1
102
RTVSPropertyOp3
 70
     1
102
RTVSPropertyOp4
 70
     1
102
RTVSPropertyOp5
 70
     1
102
RTVSPropertyOp6
 70
     1
102
RTVSPropertyOp7
 70
     1
102
RTVSPropertyOp8
 70
     1
102
RTVSPropertyOp9
 70
     1
102
RTVSPropertyOp10
 70
     1
102
RTVSPropertyOp11
 70
     1
102
RTVSPropertyOp12
 70
     1
102
RTVSPropertyOp13
 70
     1
102
RTVSPropertyOp14
 70
     1
102
RTVSPropertyOp15
 70
     1
102
RTVSPropertyOp16
 70
     1
102
RTVSPropertyOp17
 70
     1
102
RTVSPropertyOp18
 70
     1
102
RTVSPropertyOp19
 70
     1
102
RTVSPropertyOp20
 70
     1
102
RTVSPropertyOp21
 70
     1
102
RTVSPropertyOp22
 70
     1
102
RTVSPropertyOp23
 70
     1
102
RTVSPropertyOp24
 70
     1
102
RTVSPropertyOp25
 70
     1
102
RTVSPropertyOp26
 70
     1
102
RTVSPropertyOp27
 70
     1
102
RTVSPropertyOp28
 70
     1
102
RTVSPropertyOp29
 70
     1
102
RTVSPropertyOp30
 70
     1
102
RTVSPropertyOp31
 70
     1
102
RTVSPropertyOp32
 70
     1
102
RTVSPropertyOp33
 70
     1
102
RTVSPropertyOp34
 70
     1
102
RTVSPropertyOp35
 70
     1
102
RTVSPropertyOp36
 70
     1
102
RTVSPropertyOp37
 70
     1
102
RTVSPropertyOp38
 70
     1
102
RTVSPropertyOp39
 70
     1
102
RTVSPropertyOp40
 70
     1
102
RTVSPropertyOp41
 70
     1
102
RTVSPropertyOp42
 70
     1
102
RTVSPropertyOp43
 70
     1
102
RTVSPropertyOp44
 70
     1
102
RTVSPropertyOp45
 70
     1
102
RTVSPropertyOp46
 70
     1
102
RTVSPropertyOp47
 70
     1
102
RTVSPropertyOp48
 70
     1
102
RTVSPropertyOp49
 70
     1
102
RTVSPropertyOp50
 70
     1
102
RTVSPropertyOp51
 70
     0
102
RTVSPropertyOp52
 70
     0
102
RTVSPropertyOp53
 70
     1
102
RTVSPropertyOp54
 70
     1
102
RTVSPropertyOp55
 70
     1
102
RTVSPropertyOp56
 70
     1
102
RTVSPropertyOp57
 70
     1
102
RTVSPropertyOp58
 70
     1
102
RTVSPropertyOp59
 70
     1
102
RTVSPropertyOp60
 70
     1
102
RTVSPropertyOp61
 70
     1
102
RTVSPropertyOp62
 70
     1
  0
XRECORD
  5
65D1
102
{ACAD_REACTORS
330
65D0
102
}
330
65D0
100
AcDbXrecord
280
     1
102
RTVSPost2010Prop28
280
     0
102
RTVSPost2010PropOp28
 70
     1
102
RTVSPost2010Prop29
280
     1
102
RTVSPost2010PropOp29
 70
     1
102
RTVSPost2010Prop30
280
     1
102
RTVSPost2010PropOp30
 70
     1
102
RTVSPost2010Prop31
280
     0
102
RTVSPost2010PropOp31
 70
     1
102
RTVSPost2010Prop32
280
     0
102
RTVSPost2010PropOp32
 70
     1
102
RTVSPost2010Prop33
280
     0
102
RTVSPost2010PropOp33
 70
     1
102
RTVSPost2010Prop34
280
     0
102
RTVSPost2010PropOp34
 70
     1
102
RTVSPost2010Prop35
280
     0
102
RTVSPost2010PropOp35
 70
     1
102
RTVSPost2010Prop36
280
     0
102
RTVSPost2010PropOp36
 70
     1
102
RTVSPost2010Prop37
 90
       50
102
RTVSPost2010PropOp37
 70
     1
102
RTVSPost2010Prop38
140
0.0
102
RTVSPost2010PropOp38
 70
     1
102
RTVSPost2010Prop39
140
1.0
102
RTVSPost2010PropOp39
 70
     1
102
RTVSPost2010Prop40
 90
        0
102
RTVSPost2010PropOp40
 70
     1
102
RTVSPost2010Prop41ColorIndex
 90
       18
102
RTVSPost2010Prop41ColorRGB
 90
        0
102
RTVSPost2010PropOp41
 70
     1
102
RTVSPost2010Prop42
 90
       50
102
RTVSPost2010PropOp42
 70
     1
102
RTVSPost2010Prop43
 90
        3
102
RTVSPost2010PropOp43
 70
     1
102
RTVSPost2010Prop44ColorIndex
 90
        5
102
RTVSPost2010Prop44ColorRGB
 90
      255
102
RTVSPost2010PropOp44
 70
     1
102
RTVSPost2010Prop45
280
     0
102
RTVSPost2010PropOp45
 70
     1
102
RTVSPost2010Prop46
 90
       50
102
RTVSPost2010PropOp46
 70
     1
102
RTVSPost2010Prop47
 90
       50
102
RTVSPost2010PropOp47
 70
     1
102
RTVSPost2010Prop48
 90
       50
102
RTVSPost2010PropOp48
 70
     1
102
RTVSPost2010Prop49
280
     0
102
RTVSPost2010PropOp49
 70
     1
102
RTVSPost2010Prop50
 90
       50
102
RTVSPost2010PropOp50
 70
     1
102
RTVSPost2010Prop51ColorIndex
 90
      256
102
RTVSPost2010Prop51ColorRGB
 90
-16777216
102
RTVSPost2010PropOp51
 70
     0
102
RTVSPost2010Prop52
140
1.0
102
RTVSPost2010PropOp52
 70
     0
102
RTVSPost2010Prop53
 90
        2
102
RTVSPost2010PropOp53
 70
     1
102
RTVSPost2010Prop54
  1
strokes_ogs.tif
102
RTVSPost2010PropOp54
 70
     1
102
RTVSPost2010Prop55
280
     0
102
RTVSPost2010PropOp55
 70
     1
102
RTVSPost2010Prop56
140
1.0
102
RTVSPost2010PropOp56
 70
     1
102
RTVSPost2010Prop57
140
1.0
102
RTVSPost2010PropOp57
 70
     1
102
RTVSPropertyOp0
 70
     1
102
RTVSPropertyOp1
 70
     1
102
RTVSPropertyOp2
 70
     1
102
RTVSPropertyOp3
 70
     1
102
RTVSPropertyOp4
 70
     1
102
RTVSPropertyOp5
 70
     1
102
RTVSPropertyOp6
 70
     1
102
RTVSPropertyOp7
 70
     1
102
RTVSPropertyOp8
 70
     1
102
RTVSPropertyOp9
 70
     1
102
RTVSPropertyOp10
 70
     1
102
RTVSPropertyOp11
 70
     1
102
RTVSPropertyOp12
 70
     1
102
RTVSPropertyOp13
 70
     1
102
RTVSPropertyOp14
 70
     1
102
RTVSPropertyOp15
 70
     1
102
RTVSPropertyOp16
 70
     1
102
RTVSPropertyOp17
 70
     1
102
RTVSPropertyOp18
 70
     1
102
RTVSPropertyOp19
 70
     1
102
RTVSPropertyOp20
 70
     1
102
RTVSPropertyOp21
 70
     1
102
RTVSPropertyOp22
 70
     1
102
RTVSPropertyOp23
 70
     1
102
RTVSPropertyOp24
 70
     1
102
RTVSPropertyOp25
 70
     1
102
RTVSPropertyOp26
 70
     1
102
RTVSPropertyOp27
 70
     1
102
RTVSPropertyOp28
 70
     1
102
RTVSPropertyOp29
 70
     1
102
RTVSPropertyOp30
 70
     1
102
RTVSPropertyOp31
 70
     1
102
RTVSPropertyOp32
 70
     1
102
RTVSPropertyOp33
 70
     1
102
RTVSPropertyOp34
 70
     1
102
RTVSPropertyOp35
 70
     1
102
RTVSPropertyOp36
 70
     1
102
RTVSPropertyOp37
 70
     1
102
RTVSPropertyOp38
 70
     1
102
RTVSPropertyOp39
 70
     1
102
RTVSPropertyOp40
 70
     1
102
RTVSPropertyOp41
 70
     1
102
RTVSPropertyOp42
 70
     1
102
RTVSPropertyOp43
 70
     1
102
RTVSPropertyOp44
 70
     1
102
RTVSPropertyOp45
 70
     1
102
RTVSPropertyOp46
 70
     1
102
RTVSPropertyOp47
 70
     1
102
RTVSPropertyOp48
 70
     1
102
RTVSPropertyOp49
 70
     1
102
RTVSPropertyOp50
 70
     1
102
RTVSPropertyOp51
 70
     0
102
RTVSPropertyOp52
 70
     0
102
RTVSPropertyOp53
 70
     1
102
RTVSPropertyOp54
 70
     1
102
RTVSPropertyOp55
 70
     1
102
RTVSPropertyOp56
 70
     1
102
RTVSPropertyOp57
 70
     1
102
RTVSPropertyOp58
 70
     1
102
RTVSPropertyOp59
 70
     1
102
RTVSPropertyOp60
 70
     1
102
RTVSPropertyOp61
 70
     1
102
RTVSPropertyOp62
 70
     1
  0
XRECORD
  5
65ED
102
{ACAD_REACTORS
330
65EC
102
}
330
65EC
100
AcDbXrecord
280
     1
102
RTVSPost2010Prop28
280
     0
102
RTVSPost2010PropOp28
 70
     0
102
RTVSPost2010Prop29
280
     1
102
RTVSPost2010PropOp29
 70
     0
102
RTVSPost2010Prop30
280
     1
102
RTVSPost2010PropOp30
 70
     0
102
RTVSPost2010Prop31
280
     0
102
RTVSPost2010PropOp31
 70
     0
102
RTVSPost2010Prop32
280
     0
102
RTVSPost2010PropOp32
 70
     0
102
RTVSPost2010Prop33
280
     0
102
RTVSPost2010PropOp33
 70
     0
102
RTVSPost2010Prop34
280
     0
102
RTVSPost2010PropOp34
 70
     0
102
RTVSPost2010Prop35
280
     0
102
RTVSPost2010PropOp35
 70
     0
102
RTVSPost2010Prop36
280
     0
102
RTVSPost2010PropOp36
 70
     0
102
RTVSPost2010Prop37
 90
       50
102
RTVSPost2010PropOp37
 70
     0
102
RTVSPost2010Prop38
140
0.0
102
RTVSPost2010PropOp38
 70
     0
102
RTVSPost2010Prop39
140
1.0
102
RTVSPost2010PropOp39
 70
     0
102
RTVSPost2010Prop40
 90
        0
102
RTVSPost2010PropOp40
 70
     0
102
RTVSPost2010Prop41ColorIndex
 90
       18
102
RTVSPost2010Prop41ColorRGB
 90
        0
102
RTVSPost2010PropOp41
 70
     0
102
RTVSPost2010Prop42
 90
       50
102
RTVSPost2010PropOp42
 70
     0
102
RTVSPost2010Prop43
 90
        3
102
RTVSPost2010PropOp43
 70
     0
102
RTVSPost2010Prop44ColorIndex
 90
        5
102
RTVSPost2010Prop44ColorRGB
 90
      255
102
RTVSPost2010PropOp44
 70
     0
102
RTVSPost2010Prop45
280
     0
102
RTVSPost2010PropOp45
 70
     0
102
RTVSPost2010Prop46
 90
       50
102
RTVSPost2010PropOp46
 70
     0
102
RTVSPost2010Prop47
 90
       50
102
RTVSPost2010PropOp47
 70
     0
102
RTVSPost2010Prop48
 90
       50
102
RTVSPost2010PropOp48
 70
     0
102
RTVSPost2010Prop49
280
     0
102
RTVSPost2010PropOp49
 70
     0
102
RTVSPost2010Prop50
 90
       50
102
RTVSPost2010PropOp50
 70
     0
102
RTVSPost2010Prop51ColorIndex
 90
      256
102
RTVSPost2010Prop51ColorRGB
 90
-16777216
102
RTVSPost2010PropOp51
 70
     0
102
RTVSPost2010Prop52
140
1.0
102
RTVSPost2010PropOp52
 70
     0
102
RTVSPost2010Prop53
 90
        2
102
RTVSPost2010PropOp53
 70
     0
102
RTVSPost2010Prop54
  1
strokes_ogs.tif
102
RTVSPost2010PropOp54
 70
     0
102
RTVSPost2010Prop55
280
     0
102
RTVSPost2010PropOp55
 70
     0
102
RTVSPost2010Prop56
140
1.0
102
RTVSPost2010PropOp56
 70
     0
102
RTVSPost2010Prop57
140
1.0
102
RTVSPost2010PropOp57
 70
     0
102
RTVSPropertyOp0
 70
     0
102
RTVSPropertyOp1
 70
     0
102
RTVSPropertyOp2
 70
     0
102
RTVSPropertyOp3
 70
     0
102
RTVSPropertyOp4
 70
     0
102
RTVSPropertyOp5
 70
     0
102
RTVSPropertyOp6
 70
     0
102
RTVSPropertyOp7
 70
     0
102
RTVSPropertyOp8
 70
     0
102
RTVSPropertyOp9
 70
     0
102
RTVSPropertyOp10
 70
     0
102
RTVSPropertyOp11
 70
     0
102
RTVSPropertyOp12
 70
     0
102
RTVSPropertyOp13
 70
     0
102
RTVSPropertyOp14
 70
     2
102
RTVSPropertyOp15
 70
     0
102
RTVSPropertyOp16
 70
     0
102
RTVSPropertyOp17
 70
     0
102
RTVSPropertyOp18
 70
     0
102
RTVSPropertyOp19
 70
     0
102
RTVSPropertyOp20
 70
     0
102
RTVSPropertyOp21
 70
     0
102
RTVSPropertyOp22
 70
     0
102
RTVSPropertyOp23
 70
     0
102
RTVSPropertyOp24
 70
     0
102
RTVSPropertyOp25
 70
     0
102
RTVSPropertyOp26
 70
     0
102
RTVSPropertyOp27
 70
     0
102
RTVSPropertyOp28
 70
     0
102
RTVSPropertyOp29
 70
     0
102
RTVSPropertyOp30
 70
     0
102
RTVSPropertyOp31
 70
     0
102
RTVSPropertyOp32
 70
     0
102
RTVSPropertyOp33
 70
     0
102
RTVSPropertyOp34
 70
     0
102
RTVSPropertyOp35
 70
     0
102
RTVSPropertyOp36
 70
     0
102
RTVSPropertyOp37
 70
     0
102
RTVSPropertyOp38
 70
     0
102
RTVSPropertyOp39
 70
     0
102
RTVSPropertyOp40
 70
     0
102
RTVSPropertyOp41
 70
     0
102
RTVSPropertyOp42
 70
     0
102
RTVSPropertyOp43
 70
     0
102
RTVSPropertyOp44
 70
     0
102
RTVSPropertyOp45
 70
     0
102
RTVSPropertyOp46
 70
     0
102
RTVSPropertyOp47
 70
     0
102
RTVSPropertyOp48
 70
     0
102
RTVSPropertyOp49
 70
     0
102
RTVSPropertyOp50
 70
     0
102
RTVSPropertyOp51
 70
     0
102
RTVSPropertyOp52
 70
     0
102
RTVSPropertyOp53
 70
     0
102
RTVSPropertyOp54
 70
     0
102
RTVSPropertyOp55
 70
     0
102
RTVSPropertyOp56
 70
     0
102
RTVSPropertyOp57
 70
     0
102
RTVSPropertyOp58
 70
     1
102
RTVSPropertyOp59
 70
     1
102
RTVSPropertyOp60
 70
     1
102
RTVSPropertyOp61
 70
     1
102
RTVSPropertyOp62
 70
     1
  0
XRECORD
  5
65DD
102
{ACAD_REACTORS
330
65DC
102
}
330
65DC
100
AcDbXrecord
280
     1
102
RTVSPost2010Prop28
280
     0
102
RTVSPost2010PropOp28
 70
     1
102
RTVSPost2010Prop29
280
     1
102
RTVSPost2010PropOp29
 70
     1
102
RTVSPost2010Prop30
280
     1
102
RTVSPost2010PropOp30
 70
     1
102
RTVSPost2010Prop31
280
     0
102
RTVSPost2010PropOp31
 70
     1
102
RTVSPost2010Prop32
280
     0
102
RTVSPost2010PropOp32
 70
     1
102
RTVSPost2010Prop33
280
     0
102
RTVSPost2010PropOp33
 70
     1
102
RTVSPost2010Prop34
280
     0
102
RTVSPost2010PropOp34
 70
     1
102
RTVSPost2010Prop35
280
     0
102
RTVSPost2010PropOp35
 70
     1
102
RTVSPost2010Prop36
280
     0
102
RTVSPost2010PropOp36
 70
     1
102
RTVSPost2010Prop37
 90
       50
102
RTVSPost2010PropOp37
 70
     1
102
RTVSPost2010Prop38
140
0.0
102
RTVSPost2010PropOp38
 70
     1
102
RTVSPost2010Prop39
140
1.0
102
RTVSPost2010PropOp39
 70
     1
102
RTVSPost2010Prop40
 90
        0
102
RTVSPost2010PropOp40
 70
     1
102
RTVSPost2010Prop41ColorIndex
 90
       18
102
RTVSPost2010Prop41ColorRGB
 90
        0
102
RTVSPost2010PropOp41
 70
     1
102
RTVSPost2010Prop42
 90
       50
102
RTVSPost2010PropOp42
 70
     1
102
RTVSPost2010Prop43
 90
        3
102
RTVSPost2010PropOp43
 70
     1
102
RTVSPost2010Prop44ColorIndex
 90
        5
102
RTVSPost2010Prop44ColorRGB
 90
      255
102
RTVSPost2010PropOp44
 70
     1
102
RTVSPost2010Prop45
280
     0
102
RTVSPost2010PropOp45
 70
     1
102
RTVSPost2010Prop46
 90
       50
102
RTVSPost2010PropOp46
 70
     1
102
RTVSPost2010Prop47
 90
       50
102
RTVSPost2010PropOp47
 70
     1
102
RTVSPost2010Prop48
 90
       50
102
RTVSPost2010PropOp48
 70
     1
102
RTVSPost2010Prop49
280
     0
102
RTVSPost2010PropOp49
 70
     1
102
RTVSPost2010Prop50
 90
       50
102
RTVSPost2010PropOp50
 70
     1
102
RTVSPost2010Prop51ColorIndex
 90
      256
102
RTVSPost2010Prop51ColorRGB
 90
-16777216
102
RTVSPost2010PropOp51
 70
     0
102
RTVSPost2010Prop52
140
1.0
102
RTVSPost2010PropOp52
 70
     0
102
RTVSPost2010Prop53
 90
        2
102
RTVSPost2010PropOp53
 70
     1
102
RTVSPost2010Prop54
  1
strokes_ogs.tif
102
RTVSPost2010PropOp54
 70
     1
102
RTVSPost2010Prop55
280
     0
102
RTVSPost2010PropOp55
 70
     1
102
RTVSPost2010Prop56
140
1.0
102
RTVSPost2010PropOp56
 70
     1
102
RTVSPost2010Prop57
140
1.0
102
RTVSPost2010PropOp57
 70
     1
102
RTVSPropertyOp0
 70
     1
102
RTVSPropertyOp1
 70
     1
102
RTVSPropertyOp2
 70
     1
102
RTVSPropertyOp3
 70
     1
102
RTVSPropertyOp4
 70
     1
102
RTVSPropertyOp5
 70
     1
102
RTVSPropertyOp6
 70
     1
102
RTVSPropertyOp7
 70
     1
102
RTVSPropertyOp8
 70
     1
102
RTVSPropertyOp9
 70
     1
102
RTVSPropertyOp10
 70
     1
102
RTVSPropertyOp11
 70
     1
102
RTVSPropertyOp12
 70
     1
102
RTVSPropertyOp13
 70
     1
102
RTVSPropertyOp14
 70
     1
102
RTVSPropertyOp15
 70
     1
102
RTVSPropertyOp16
 70
     1
102
RTVSPropertyOp17
 70
     1
102
RTVSPropertyOp18
 70
     1
102
RTVSPropertyOp19
 70
     1
102
RTVSPropertyOp20
 70
     1
102
RTVSPropertyOp21
 70
     1
102
RTVSPropertyOp22
 70
     1
102
RTVSPropertyOp23
 70
     1
102
RTVSPropertyOp24
 70
     1
102
RTVSPropertyOp25
 70
     1
102
RTVSPropertyOp26
 70
     1
102
RTVSPropertyOp27
 70
     1
102
RTVSPropertyOp28
 70
     1
102
RTVSPropertyOp29
 70
     1
102
RTVSPropertyOp30
 70
     1
102
RTVSPropertyOp31
 70
     1
102
RTVSPropertyOp32
 70
     1
102
RTVSPropertyOp33
 70
     1
102
RTVSPropertyOp34
 70
     1
102
RTVSPropertyOp35
 70
     1
102
RTVSPropertyOp36
 70
     1
102
RTVSPropertyOp37
 70
     1
102
RTVSPropertyOp38
 70
     1
102
RTVSPropertyOp39
 70
     1
102
RTVSPropertyOp40
 70
     1
102
RTVSPropertyOp41
 70
     1
102
RTVSPropertyOp42
 70
     1
102
RTVSPropertyOp43
 70
     1
102
RTVSPropertyOp44
 70
     1
102
RTVSPropertyOp45
 70
     1
102
RTVSPropertyOp46
 70
     1
102
RTVSPropertyOp47
 70
     1
102
RTVSPropertyOp48
 70
     1
102
RTVSPropertyOp49
 70
     1
102
RTVSPropertyOp50
 70
     1
102
RTVSPropertyOp51
 70
     0
102
RTVSPropertyOp52
 70
     0
102
RTVSPropertyOp53
 70
     1
102
RTVSPropertyOp54
 70
     1
102
RTVSPropertyOp55
 70
     1
102
RTVSPropertyOp56
 70
     1
102
RTVSPropertyOp57
 70
     1
102
RTVSPropertyOp58
 70
     1
102
RTVSPropertyOp59
 70
     1
102
RTVSPropertyOp60
 70
     1
102
RTVSPropertyOp61
 70
     1
102
RTVSPropertyOp62
 70
     1
  0
XRECORD
  5
65EF
102
{ACAD_REACTORS
330
65EE
102
}
330
65EE
100
AcDbXrecord
280
     1
102
RTVSPost2010Prop28
280
     0
102
RTVSPost2010PropOp28
 70
     0
102
RTVSPost2010Prop29
280
     1
102
RTVSPost2010PropOp29
 70
     0
102
RTVSPost2010Prop30
280
     1
102
RTVSPost2010PropOp30
 70
     0
102
RTVSPost2010Prop31
280
     0
102
RTVSPost2010PropOp31
 70
     0
102
RTVSPost2010Prop32
280
     0
102
RTVSPost2010PropOp32
 70
     0
102
RTVSPost2010Prop33
280
     0
102
RTVSPost2010PropOp33
 70
     0
102
RTVSPost2010Prop34
280
     0
102
RTVSPost2010PropOp34
 70
     0
102
RTVSPost2010Prop35
280
     0
102
RTVSPost2010PropOp35
 70
     0
102
RTVSPost2010Prop36
280
     0
102
RTVSPost2010PropOp36
 70
     0
102
RTVSPost2010Prop37
 90
       50
102
RTVSPost2010PropOp37
 70
     0
102
RTVSPost2010Prop38
140
0.0
102
RTVSPost2010PropOp38
 70
     0
102
RTVSPost2010Prop39
140
1.0
102
RTVSPost2010PropOp39
 70
     0
102
RTVSPost2010Prop40
 90
        0
102
RTVSPost2010PropOp40
 70
     0
102
RTVSPost2010Prop41ColorIndex
 90
       18
102
RTVSPost2010Prop41ColorRGB
 90
        0
102
RTVSPost2010PropOp41
 70
     0
102
RTVSPost2010Prop42
 90
       50
102
RTVSPost2010PropOp42
 70
     0
102
RTVSPost2010Prop43
 90
        3
102
RTVSPost2010PropOp43
 70
     0
102
RTVSPost2010Prop44ColorIndex
 90
        5
102
RTVSPost2010Prop44ColorRGB
 90
      255
102
RTVSPost2010PropOp44
 70
     0
102
RTVSPost2010Prop45
280
     0
102
RTVSPost2010PropOp45
 70
     0
102
RTVSPost2010Prop46
 90
       50
102
RTVSPost2010PropOp46
 70
     0
102
RTVSPost2010Prop47
 90
       50
102
RTVSPost2010PropOp47
 70
     0
102
RTVSPost2010Prop48
 90
       50
102
RTVSPost2010PropOp48
 70
     0
102
RTVSPost2010Prop49
280
     0
102
RTVSPost2010PropOp49
 70
     0
102
RTVSPost2010Prop50
 90
       50
102
RTVSPost2010PropOp50
 70
     0
102
RTVSPost2010Prop51ColorIndex
 90
      256
102
RTVSPost2010Prop51ColorRGB
 90
-16777216
102
RTVSPost2010PropOp51
 70
     0
102
RTVSPost2010Prop52
140
1.0
102
RTVSPost2010PropOp52
 70
     0
102
RTVSPost2010Prop53
 90
        2
102
RTVSPost2010PropOp53
 70
     0
102
RTVSPost2010Prop54
  1
strokes_ogs.tif
102
RTVSPost2010PropOp54
 70
     0
102
RTVSPost2010Prop55
280
     0
102
RTVSPost2010PropOp55
 70
     0
102
RTVSPost2010Prop56
140
1.0
102
RTVSPost2010PropOp56
 70
     0
102
RTVSPost2010Prop57
140
1.0
102
RTVSPost2010PropOp57
 70
     0
102
RTVSPropertyOp0
 70
     0
102
RTVSPropertyOp1
 70
     0
102
RTVSPropertyOp2
 70
     0
102
RTVSPropertyOp3
 70
     0
102
RTVSPropertyOp4
 70
     0
102
RTVSPropertyOp5
 70
     0
102
RTVSPropertyOp6
 70
     0
102
RTVSPropertyOp7
 70
     0
102
RTVSPropertyOp8
 70
     0
102
RTVSPropertyOp9
 70
     0
102
RTVSPropertyOp10
 70
     0
102
RTVSPropertyOp11
 70
     0
102
RTVSPropertyOp12
 70
     0
102
RTVSPropertyOp13
 70
     0
102
RTVSPropertyOp14
 70
     2
102
RTVSPropertyOp15
 70
     0
102
RTVSPropertyOp16
 70
     0
102
RTVSPropertyOp17
 70
     0
102
RTVSPropertyOp18
 70
     0
102
RTVSPropertyOp19
 70
     0
102
RTVSPropertyOp20
 70
     0
102
RTVSPropertyOp21
 70
     0
102
RTVSPropertyOp22
 70
     0
102
RTVSPropertyOp23
 70
     0
102
RTVSPropertyOp24
 70
     0
102
RTVSPropertyOp25
 70
     0
102
RTVSPropertyOp26
 70
     0
102
RTVSPropertyOp27
 70
     0
102
RTVSPropertyOp28
 70
     0
102
RTVSPropertyOp29
 70
     0
102
RTVSPropertyOp30
 70
     0
102
RTVSPropertyOp31
 70
     0
102
RTVSPropertyOp32
 70
     0
102
RTVSPropertyOp33
 70
     0
102
RTVSPropertyOp34
 70
     0
102
RTVSPropertyOp35
 70
     0
102
RTVSPropertyOp36
 70
     0
102
RTVSPropertyOp37
 70
     0
102
RTVSPropertyOp38
 70
     0
102
RTVSPropertyOp39
 70
     0
102
RTVSPropertyOp40
 70
     0
102
RTVSPropertyOp41
 70
     0
102
RTVSPropertyOp42
 70
     0
102
RTVSPropertyOp43
 70
     0
102
RTVSPropertyOp44
 70
     0
102
RTVSPropertyOp45
 70
     0
102
RTVSPropertyOp46
 70
     0
102
RTVSPropertyOp47
 70
     0
102
RTVSPropertyOp48
 70
     0
102
RTVSPropertyOp49
 70
     0
102
RTVSPropertyOp50
 70
     0
102
RTVSPropertyOp51
 70
     0
102
RTVSPropertyOp52
 70
     0
102
RTVSPropertyOp53
 70
     0
102
RTVSPropertyOp54
 70
     0
102
RTVSPropertyOp55
 70
     0
102
RTVSPropertyOp56
 70
     0
102
RTVSPropertyOp57
 70
     0
102
RTVSPropertyOp58
 70
     1
102
RTVSPropertyOp59
 70
     1
102
RTVSPropertyOp60
 70
     1
102
RTVSPropertyOp61
 70
     1
102
RTVSPropertyOp62
 70
     1
  0
XRECORD
  5
65D5
102
{ACAD_REACTORS
330
65D4
102
}
330
65D4
100
AcDbXrecord
280
     1
102
RTVSPost2010Prop28
280
     0
102
RTVSPost2010PropOp28
 70
     1
102
RTVSPost2010Prop29
280
     1
102
RTVSPost2010PropOp29
 70
     1
102
RTVSPost2010Prop30
280
     1
102
RTVSPost2010PropOp30
 70
     1
102
RTVSPost2010Prop31
280
     0
102
RTVSPost2010PropOp31
 70
     1
102
RTVSPost2010Prop32
280
     0
102
RTVSPost2010PropOp32
 70
     1
102
RTVSPost2010Prop33
280
     0
102
RTVSPost2010PropOp33
 70
     1
102
RTVSPost2010Prop34
280
     0
102
RTVSPost2010PropOp34
 70
     1
102
RTVSPost2010Prop35
280
     0
102
RTVSPost2010PropOp35
 70
     1
102
RTVSPost2010Prop36
280
     0
102
RTVSPost2010PropOp36
 70
     1
102
RTVSPost2010Prop37
 90
       50
102
RTVSPost2010PropOp37
 70
     1
102
RTVSPost2010Prop38
140
0.0
102
RTVSPost2010PropOp38
 70
     1
102
RTVSPost2010Prop39
140
1.0
102
RTVSPost2010PropOp39
 70
     1
102
RTVSPost2010Prop40
 90
        0
102
RTVSPost2010PropOp40
 70
     1
102
RTVSPost2010Prop41ColorIndex
 90
       18
102
RTVSPost2010Prop41ColorRGB
 90
        0
102
RTVSPost2010PropOp41
 70
     1
102
RTVSPost2010Prop42
 90
       50
102
RTVSPost2010PropOp42
 70
     1
102
RTVSPost2010Prop43
 90
        3
102
RTVSPost2010PropOp43
 70
     1
102
RTVSPost2010Prop44ColorIndex
 90
        5
102
RTVSPost2010Prop44ColorRGB
 90
      255
102
RTVSPost2010PropOp44
 70
     1
102
RTVSPost2010Prop45
280
     0
102
RTVSPost2010PropOp45
 70
     1
102
RTVSPost2010Prop46
 90
       50
102
RTVSPost2010PropOp46
 70
     1
102
RTVSPost2010Prop47
 90
       50
102
RTVSPost2010PropOp47
 70
     1
102
RTVSPost2010Prop48
 90
       50
102
RTVSPost2010PropOp48
 70
     1
102
RTVSPost2010Prop49
280
     0
102
RTVSPost2010PropOp49
 70
     1
102
RTVSPost2010Prop50
 90
       50
102
RTVSPost2010PropOp50
 70
     1
102
RTVSPost2010Prop51ColorIndex
 90
      256
102
RTVSPost2010Prop51ColorRGB
 90
-16777216
102
RTVSPost2010PropOp51
 70
     0
102
RTVSPost2010Prop52
140
1.0
102
RTVSPost2010PropOp52
 70
     0
102
RTVSPost2010Prop53
 90
        2
102
RTVSPost2010PropOp53
 70
     1
102
RTVSPost2010Prop54
  1
strokes_ogs.tif
102
RTVSPost2010PropOp54
 70
     1
102
RTVSPost2010Prop55
280
     0
102
RTVSPost2010PropOp55
 70
     1
102
RTVSPost2010Prop56
140
1.0
102
RTVSPost2010PropOp56
 70
     1
102
RTVSPost2010Prop57
140
1.0
102
RTVSPost2010PropOp57
 70
     1
102
RTVSPropertyOp0
 70
     1
102
RTVSPropertyOp1
 70
     1
102
RTVSPropertyOp2
 70
     1
102
RTVSPropertyOp3
 70
     1
102
RTVSPropertyOp4
 70
     1
102
RTVSPropertyOp5
 70
     1
102
RTVSPropertyOp6
 70
     1
102
RTVSPropertyOp7
 70
     1
102
RTVSPropertyOp8
 70
     1
102
RTVSPropertyOp9
 70
     1
102
RTVSPropertyOp10
 70
     1
102
RTVSPropertyOp11
 70
     1
102
RTVSPropertyOp12
 70
     1
102
RTVSPropertyOp13
 70
     1
102
RTVSPropertyOp14
 70
     1
102
RTVSPropertyOp15
 70
     1
102
RTVSPropertyOp16
 70
     1
102
RTVSPropertyOp17
 70
     1
102
RTVSPropertyOp18
 70
     1
102
RTVSPropertyOp19
 70
     1
102
RTVSPropertyOp20
 70
     1
102
RTVSPropertyOp21
 70
     1
102
RTVSPropertyOp22
 70
     1
102
RTVSPropertyOp23
 70
     1
102
RTVSPropertyOp24
 70
     1
102
RTVSPropertyOp25
 70
     1
102
RTVSPropertyOp26
 70
     1
102
RTVSPropertyOp27
 70
     1
102
RTVSPropertyOp28
 70
     1
102
RTVSPropertyOp29
 70
     1
102
RTVSPropertyOp30
 70
     1
102
RTVSPropertyOp31
 70
     1
102
RTVSPropertyOp32
 70
     1
102
RTVSPropertyOp33
 70
     1
102
RTVSPropertyOp34
 70
     1
102
RTVSPropertyOp35
 70
     1
102
RTVSPropertyOp36
 70
     1
102
RTVSPropertyOp37
 70
     1
102
RTVSPropertyOp38
 70
     1
102
RTVSPropertyOp39
 70
     1
102
RTVSPropertyOp40
 70
     1
102
RTVSPropertyOp41
 70
     1
102
RTVSPropertyOp42
 70
     1
102
RTVSPropertyOp43
 70
     1
102
RTVSPropertyOp44
 70
     1
102
RTVSPropertyOp45
 70
     1
102
RTVSPropertyOp46
 70
     1
102
RTVSPropertyOp47
 70
     1
102
RTVSPropertyOp48
 70
     1
102
RTVSPropertyOp49
 70
     1
102
RTVSPropertyOp50
 70
     1
102
RTVSPropertyOp51
 70
     0
102
RTVSPropertyOp52
 70
     0
102
RTVSPropertyOp53
 70
     1
102
RTVSPropertyOp54
 70
     1
102
RTVSPropertyOp55
 70
     1
102
RTVSPropertyOp56
 70
     1
102
RTVSPropertyOp57
 70
     1
102
RTVSPropertyOp58
 70
     1
102
RTVSPropertyOp59
 70
     1
102
RTVSPropertyOp60
 70
     1
102
RTVSPropertyOp61
 70
     1
102
RTVSPropertyOp62
 70
     1
  0
XRECORD
  5
65EB
102
{ACAD_REACTORS
330
65EA
102
}
330
65EA
100
AcDbXrecord
280
     1
102
RTVSPost2010Prop28
280
     0
102
RTVSPost2010PropOp28
 70
     1
102
RTVSPost2010Prop29
280
     1
102
RTVSPost2010PropOp29
 70
     1
102
RTVSPost2010Prop30
280
     1
102
RTVSPost2010PropOp30
 70
     1
102
RTVSPost2010Prop31
280
     0
102
RTVSPost2010PropOp31
 70
     1
102
RTVSPost2010Prop32
280
     0
102
RTVSPost2010PropOp32
 70
     1
102
RTVSPost2010Prop33
280
     0
102
RTVSPost2010PropOp33
 70
     1
102
RTVSPost2010Prop34
280
     0
102
RTVSPost2010PropOp34
 70
     1
102
RTVSPost2010Prop35
280
     0
102
RTVSPost2010PropOp35
 70
     1
102
RTVSPost2010Prop36
280
     0
102
RTVSPost2010PropOp36
 70
     1
102
RTVSPost2010Prop37
 90
       50
102
RTVSPost2010PropOp37
 70
     1
102
RTVSPost2010Prop38
140
0.0
102
RTVSPost2010PropOp38
 70
     1
102
RTVSPost2010Prop39
140
1.0
102
RTVSPost2010PropOp39
 70
     1
102
RTVSPost2010Prop40
 90
        0
102
RTVSPost2010PropOp40
 70
     1
102
RTVSPost2010Prop41ColorIndex
 90
       18
102
RTVSPost2010Prop41ColorRGB
 90
        0
102
RTVSPost2010PropOp41
 70
     1
102
RTVSPost2010Prop42
 90
       50
102
RTVSPost2010PropOp42
 70
     1
102
RTVSPost2010Prop43
 90
        3
102
RTVSPost2010PropOp43
 70
     1
102
RTVSPost2010Prop44ColorIndex
 90
        5
102
RTVSPost2010Prop44ColorRGB
 90
      255
102
RTVSPost2010PropOp44
 70
     1
102
RTVSPost2010Prop45
280
     0
102
RTVSPost2010PropOp45
 70
     1
102
RTVSPost2010Prop46
 90
       50
102
RTVSPost2010PropOp46
 70
     1
102
RTVSPost2010Prop47
 90
       50
102
RTVSPost2010PropOp47
 70
     1
102
RTVSPost2010Prop48
 90
       50
102
RTVSPost2010PropOp48
 70
     1
102
RTVSPost2010Prop49
280
     0
102
RTVSPost2010PropOp49
 70
     1
102
RTVSPost2010Prop50
 90
       50
102
RTVSPost2010PropOp50
 70
     1
102
RTVSPost2010Prop51ColorIndex
 90
      256
102
RTVSPost2010Prop51ColorRGB
 90
-16777216
102
RTVSPost2010PropOp51
 70
     0
102
RTVSPost2010Prop52
140
1.0
102
RTVSPost2010PropOp52
 70
     0
102
RTVSPost2010Prop53
 90
        2
102
RTVSPost2010PropOp53
 70
     1
102
RTVSPost2010Prop54
  1
strokes_ogs.tif
102
RTVSPost2010PropOp54
 70
     1
102
RTVSPost2010Prop55
280
     0
102
RTVSPost2010PropOp55
 70
     1
102
RTVSPost2010Prop56
140
1.0
102
RTVSPost2010PropOp56
 70
     1
102
RTVSPost2010Prop57
140
1.0
102
RTVSPost2010PropOp57
 70
     1
102
RTVSPropertyOp0
 70
     1
102
RTVSPropertyOp1
 70
     1
102
RTVSPropertyOp2
 70
     1
102
RTVSPropertyOp3
 70
     1
102
RTVSPropertyOp4
 70
     1
102
RTVSPropertyOp5
 70
     1
102
RTVSPropertyOp6
 70
     1
102
RTVSPropertyOp7
 70
     1
102
RTVSPropertyOp8
 70
     1
102
RTVSPropertyOp9
 70
     1
102
RTVSPropertyOp10
 70
     1
102
RTVSPropertyOp11
 70
     1
102
RTVSPropertyOp12
 70
     1
102
RTVSPropertyOp13
 70
     1
102
RTVSPropertyOp14
 70
     1
102
RTVSPropertyOp15
 70
     1
102
RTVSPropertyOp16
 70
     1
102
RTVSPropertyOp17
 70
     1
102
RTVSPropertyOp18
 70
     1
102
RTVSPropertyOp19
 70
     1
102
RTVSPropertyOp20
 70
     1
102
RTVSPropertyOp21
 70
     1
102
RTVSPropertyOp22
 70
     1
102
RTVSPropertyOp23
 70
     1
102
RTVSPropertyOp24
 70
     1
102
RTVSPropertyOp25
 70
     1
102
RTVSPropertyOp26
 70
     1
102
RTVSPropertyOp27
 70
     1
102
RTVSPropertyOp28
 70
     1
102
RTVSPropertyOp29
 70
     1
102
RTVSPropertyOp30
 70
     1
102
RTVSPropertyOp31
 70
     1
102
RTVSPropertyOp32
 70
     1
102
RTVSPropertyOp33
 70
     1
102
RTVSPropertyOp34
 70
     1
102
RTVSPropertyOp35
 70
     1
102
RTVSPropertyOp36
 70
     1
102
RTVSPropertyOp37
 70
     1
102
RTVSPropertyOp38
 70
     1
102
RTVSPropertyOp39
 70
     1
102
RTVSPropertyOp40
 70
     1
102
RTVSPropertyOp41
 70
     1
102
RTVSPropertyOp42
 70
     1
102
RTVSPropertyOp43
 70
     1
102
RTVSPropertyOp44
 70
     1
102
RTVSPropertyOp45
 70
     1
102
RTVSPropertyOp46
 70
     1
102
RTVSPropertyOp47
 70
     1
102
RTVSPropertyOp48
 70
     1
102
RTVSPropertyOp49
 70
     1
102
RTVSPropertyOp50
 70
     1
102
RTVSPropertyOp51
 70
     0
102
RTVSPropertyOp52
 70
     0
102
RTVSPropertyOp53
 70
     1
102
RTVSPropertyOp54
 70
     1
102
RTVSPropertyOp55
 70
     1
102
RTVSPropertyOp56
 70
     1
102
RTVSPropertyOp57
 70
     1
102
RTVSPropertyOp58
 70
     1
102
RTVSPropertyOp59
 70
     1
102
RTVSPropertyOp60
 70
     1
102
RTVSPropertyOp61
 70
     1
102
RTVSPropertyOp62
 70
     1
  0
XRECORD
  5
65E9
102
{ACAD_REACTORS
330
65E8
102
}
330
65E8
100
AcDbXrecord
280
     1
102
RTVSPost2010Prop28
280
     0
102
RTVSPost2010PropOp28
 70
     1
102
RTVSPost2010Prop29
280
     1
102
RTVSPost2010PropOp29
 70
     1
102
RTVSPost2010Prop30
280
     1
102
RTVSPost2010PropOp30
 70
     1
102
RTVSPost2010Prop31
280
     0
102
RTVSPost2010PropOp31
 70
     1
102
RTVSPost2010Prop32
280
     0
102
RTVSPost2010PropOp32
 70
     1
102
RTVSPost2010Prop33
280
     0
102
RTVSPost2010PropOp33
 70
     1
102
RTVSPost2010Prop34
280
     0
102
RTVSPost2010PropOp34
 70
     1
102
RTVSPost2010Prop35
280
     0
102
RTVSPost2010PropOp35
 70
     1
102
RTVSPost2010Prop36
280
     0
102
RTVSPost2010PropOp36
 70
     1
102
RTVSPost2010Prop37
 90
       50
102
RTVSPost2010PropOp37
 70
     1
102
RTVSPost2010Prop38
140
0.0
102
RTVSPost2010PropOp38
 70
     1
102
RTVSPost2010Prop39
140
1.0
102
RTVSPost2010PropOp39
 70
     1
102
RTVSPost2010Prop40
 90
        0
102
RTVSPost2010PropOp40
 70
     1
102
RTVSPost2010Prop41ColorIndex
 90
       18
102
RTVSPost2010Prop41ColorRGB
 90
        0
102
RTVSPost2010PropOp41
 70
     1
102
RTVSPost2010Prop42
 90
       50
102
RTVSPost2010PropOp42
 70
     1
102
RTVSPost2010Prop43
 90
        3
102
RTVSPost2010PropOp43
 70
     1
102
RTVSPost2010Prop44ColorIndex
 90
        5
102
RTVSPost2010Prop44ColorRGB
 90
      255
102
RTVSPost2010PropOp44
 70
     1
102
RTVSPost2010Prop45
280
     0
102
RTVSPost2010PropOp45
 70
     1
102
RTVSPost2010Prop46
 90
       50
102
RTVSPost2010PropOp46
 70
     1
102
RTVSPost2010Prop47
 90
       50
102
RTVSPost2010PropOp47
 70
     1
102
RTVSPost2010Prop48
 90
       50
102
RTVSPost2010PropOp48
 70
     1
102
RTVSPost2010Prop49
280
     0
102
RTVSPost2010PropOp49
 70
     1
102
RTVSPost2010Prop50
 90
       50
102
RTVSPost2010PropOp50
 70
     1
102
RTVSPost2010Prop51ColorIndex
 90
      256
102
RTVSPost2010Prop51ColorRGB
 90
-16777216
102
RTVSPost2010PropOp51
 70
     0
102
RTVSPost2010Prop52
140
1.0
102
RTVSPost2010PropOp52
 70
     0
102
RTVSPost2010Prop53
 90
        2
102
RTVSPost2010PropOp53
 70
     1
102
RTVSPost2010Prop54
  1
strokes_ogs.tif
102
RTVSPost2010PropOp54
 70
     1
102
RTVSPost2010Prop55
280
     0
102
RTVSPost2010PropOp55
 70
     1
102
RTVSPost2010Prop56
140
1.0
102
RTVSPost2010PropOp56
 70
     1
102
RTVSPost2010Prop57
140
1.0
102
RTVSPost2010PropOp57
 70
     1
102
RTVSPropertyOp0
 70
     1
102
RTVSPropertyOp1
 70
     1
102
RTVSPropertyOp2
 70
     1
102
RTVSPropertyOp3
 70
     1
102
RTVSPropertyOp4
 70
     1
102
RTVSPropertyOp5
 70
     1
102
RTVSPropertyOp6
 70
     1
102
RTVSPropertyOp7
 70
     1
102
RTVSPropertyOp8
 70
     1
102
RTVSPropertyOp9
 70
     1
102
RTVSPropertyOp10
 70
     1
102
RTVSPropertyOp11
 70
     1
102
RTVSPropertyOp12
 70
     1
102
RTVSPropertyOp13
 70
     1
102
RTVSPropertyOp14
 70
     1
102
RTVSPropertyOp15
 70
     1
102
RTVSPropertyOp16
 70
     1
102
RTVSPropertyOp17
 70
     1
102
RTVSPropertyOp18
 70
     1
102
RTVSPropertyOp19
 70
     1
102
RTVSPropertyOp20
 70
     1
102
RTVSPropertyOp21
 70
     1
102
RTVSPropertyOp22
 70
     1
102
RTVSPropertyOp23
 70
     1
102
RTVSPropertyOp24
 70
     1
102
RTVSPropertyOp25
 70
     1
102
RTVSPropertyOp26
 70
     1
102
RTVSPropertyOp27
 70
     1
102
RTVSPropertyOp28
 70
     1
102
RTVSPropertyOp29
 70
     1
102
RTVSPropertyOp30
 70
     1
102
RTVSPropertyOp31
 70
     1
102
RTVSPropertyOp32
 70
     1
102
RTVSPropertyOp33
 70
     1
102
RTVSPropertyOp34
 70
     1
102
RTVSPropertyOp35
 70
     1
102
RTVSPropertyOp36
 70
     1
102
RTVSPropertyOp37
 70
     1
102
RTVSPropertyOp38
 70
     1
102
RTVSPropertyOp39
 70
     1
102
RTVSPropertyOp40
 70
     1
102
RTVSPropertyOp41
 70
     1
102
RTVSPropertyOp42
 70
     1
102
RTVSPropertyOp43
 70
     1
102
RTVSPropertyOp44
 70
     1
102
RTVSPropertyOp45
 70
     1
102
RTVSPropertyOp46
 70
     1
102
RTVSPropertyOp47
 70
     1
102
RTVSPropertyOp48
 70
     1
102
RTVSPropertyOp49
 70
     1
102
RTVSPropertyOp50
 70
     1
102
RTVSPropertyOp51
 70
     0
102
RTVSPropertyOp52
 70
     0
102
RTVSPropertyOp53
 70
     1
102
RTVSPropertyOp54
 70
     1
102
RTVSPropertyOp55
 70
     1
102
RTVSPropertyOp56
 70
     1
102
RTVSPropertyOp57
 70
     1
102
RTVSPropertyOp58
 70
     1
102
RTVSPropertyOp59
 70
     1
102
RTVSPropertyOp60
 70
     1
102
RTVSPropertyOp61
 70
     1
102
RTVSPropertyOp62
 70
     1
  0
XRECORD
  5
65E3
102
{ACAD_REACTORS
330
65E2
102
}
330
65E2
100
AcDbXrecord
280
     1
102
RTVSPost2010Prop28
280
     0
102
RTVSPost2010PropOp28
 70
     1
102
RTVSPost2010Prop29
280
     1
102
RTVSPost2010PropOp29
 70
     1
102
RTVSPost2010Prop30
280
     1
102
RTVSPost2010PropOp30
 70
     1
102
RTVSPost2010Prop31
280
     0
102
RTVSPost2010PropOp31
 70
     1
102
RTVSPost2010Prop32
280
     0
102
RTVSPost2010PropOp32
 70
     1
102
RTVSPost2010Prop33
280
     0
102
RTVSPost2010PropOp33
 70
     1
102
RTVSPost2010Prop34
280
     0
102
RTVSPost2010PropOp34
 70
     1
102
RTVSPost2010Prop35
280
     0
102
RTVSPost2010PropOp35
 70
     1
102
RTVSPost2010Prop36
280
     0
102
RTVSPost2010PropOp36
 70
     1
102
RTVSPost2010Prop37
 90
       50
102
RTVSPost2010PropOp37
 70
     1
102
RTVSPost2010Prop38
140
0.0
102
RTVSPost2010PropOp38
 70
     1
102
RTVSPost2010Prop39
140
1.0
102
RTVSPost2010PropOp39
 70
     1
102
RTVSPost2010Prop40
 90
        0
102
RTVSPost2010PropOp40
 70
     1
102
RTVSPost2010Prop41ColorIndex
 90
       18
102
RTVSPost2010Prop41ColorRGB
 90
        0
102
RTVSPost2010PropOp41
 70
     1
102
RTVSPost2010Prop42
 90
       50
102
RTVSPost2010PropOp42
 70
     1
102
RTVSPost2010Prop43
 90
        3
102
RTVSPost2010PropOp43
 70
     1
102
RTVSPost2010Prop44ColorIndex
 90
        5
102
RTVSPost2010Prop44ColorRGB
 90
      255
102
RTVSPost2010PropOp44
 70
     1
102
RTVSPost2010Prop45
280
     0
102
RTVSPost2010PropOp45
 70
     1
102
RTVSPost2010Prop46
 90
       50
102
RTVSPost2010PropOp46
 70
     1
102
RTVSPost2010Prop47
 90
       50
102
RTVSPost2010PropOp47
 70
     1
102
RTVSPost2010Prop48
 90
       50
102
RTVSPost2010PropOp48
 70
     1
102
RTVSPost2010Prop49
280
     0
102
RTVSPost2010PropOp49
 70
     1
102
RTVSPost2010Prop50
 90
       50
102
RTVSPost2010PropOp50
 70
     1
102
RTVSPost2010Prop51ColorIndex
 90
      256
102
RTVSPost2010Prop51ColorRGB
 90
-16777216
102
RTVSPost2010PropOp51
 70
     0
102
RTVSPost2010Prop52
140
1.0
102
RTVSPost2010PropOp52
 70
     0
102
RTVSPost2010Prop53
 90
        2
102
RTVSPost2010PropOp53
 70
     1
102
RTVSPost2010Prop54
  1
strokes_ogs.tif
102
RTVSPost2010PropOp54
 70
     1
102
RTVSPost2010Prop55
280
     0
102
RTVSPost2010PropOp55
 70
     1
102
RTVSPost2010Prop56
140
1.0
102
RTVSPost2010PropOp56
 70
     1
102
RTVSPost2010Prop57
140
1.0
102
RTVSPost2010PropOp57
 70
     1
102
RTVSPropertyOp0
 70
     1
102
RTVSPropertyOp1
 70
     1
102
RTVSPropertyOp2
 70
     1
102
RTVSPropertyOp3
 70
     1
102
RTVSPropertyOp4
 70
     1
102
RTVSPropertyOp5
 70
     1
102
RTVSPropertyOp6
 70
     1
102
RTVSPropertyOp7
 70
     1
102
RTVSPropertyOp8
 70
     1
102
RTVSPropertyOp9
 70
     1
102
RTVSPropertyOp10
 70
     1
102
RTVSPropertyOp11
 70
     1
102
RTVSPropertyOp12
 70
     1
102
RTVSPropertyOp13
 70
     1
102
RTVSPropertyOp14
 70
     1
102
RTVSPropertyOp15
 70
     1
102
RTVSPropertyOp16
 70
     1
102
RTVSPropertyOp17
 70
     1
102
RTVSPropertyOp18
 70
     1
102
RTVSPropertyOp19
 70
     1
102
RTVSPropertyOp20
 70
     1
102
RTVSPropertyOp21
 70
     1
102
RTVSPropertyOp22
 70
     1
102
RTVSPropertyOp23
 70
     1
102
RTVSPropertyOp24
 70
     1
102
RTVSPropertyOp25
 70
     1
102
RTVSPropertyOp26
 70
     1
102
RTVSPropertyOp27
 70
     1
102
RTVSPropertyOp28
 70
     1
102
RTVSPropertyOp29
 70
     1
102
RTVSPropertyOp30
 70
     1
102
RTVSPropertyOp31
 70
     1
102
RTVSPropertyOp32
 70
     1
102
RTVSPropertyOp33
 70
     1
102
RTVSPropertyOp34
 70
     1
102
RTVSPropertyOp35
 70
     1
102
RTVSPropertyOp36
 70
     1
102
RTVSPropertyOp37
 70
     1
102
RTVSPropertyOp38
 70
     1
102
RTVSPropertyOp39
 70
     1
102
RTVSPropertyOp40
 70
     1
102
RTVSPropertyOp41
 70
     1
102
RTVSPropertyOp42
 70
     1
102
RTVSPropertyOp43
 70
     1
102
RTVSPropertyOp44
 70
     1
102
RTVSPropertyOp45
 70
     1
102
RTVSPropertyOp46
 70
     1
102
RTVSPropertyOp47
 70
     1
102
RTVSPropertyOp48
 70
     1
102
RTVSPropertyOp49
 70
     1
102
RTVSPropertyOp50
 70
     1
102
RTVSPropertyOp51
 70
     0
102
RTVSPropertyOp52
 70
     0
102
RTVSPropertyOp53
 70
     1
102
RTVSPropertyOp54
 70
     1
102
RTVSPropertyOp55
 70
     1
102
RTVSPropertyOp56
 70
     1
102
RTVSPropertyOp57
 70
     1
102
RTVSPropertyOp58
 70
     1
102
RTVSPropertyOp59
 70
     1
102
RTVSPropertyOp60
 70
     1
102
RTVSPropertyOp61
 70
     1
102
RTVSPropertyOp62
 70
     1
  0
XRECORD
  5
65E5
102
{ACAD_REACTORS
330
65E4
102
}
330
65E4
100
AcDbXrecord
280
     1
102
RTVSPost2010Prop28
280
     0
102
RTVSPost2010PropOp28
 70
     1
102
RTVSPost2010Prop29
280
     1
102
RTVSPost2010PropOp29
 70
     1
102
RTVSPost2010Prop30
280
     1
102
RTVSPost2010PropOp30
 70
     1
102
RTVSPost2010Prop31
280
     0
102
RTVSPost2010PropOp31
 70
     1
102
RTVSPost2010Prop32
280
     0
102
RTVSPost2010PropOp32
 70
     1
102
RTVSPost2010Prop33
280
     0
102
RTVSPost2010PropOp33
 70
     1
102
RTVSPost2010Prop34
280
     0
102
RTVSPost2010PropOp34
 70
     1
102
RTVSPost2010Prop35
280
     0
102
RTVSPost2010PropOp35
 70
     1
102
RTVSPost2010Prop36
280
     0
102
RTVSPost2010PropOp36
 70
     1
102
RTVSPost2010Prop37
 90
       50
102
RTVSPost2010PropOp37
 70
     1
102
RTVSPost2010Prop38
140
0.0
102
RTVSPost2010PropOp38
 70
     1
102
RTVSPost2010Prop39
140
1.0
102
RTVSPost2010PropOp39
 70
     1
102
RTVSPost2010Prop40
 90
        0
102
RTVSPost2010PropOp40
 70
     1
102
RTVSPost2010Prop41ColorIndex
 90
       18
102
RTVSPost2010Prop41ColorRGB
 90
        0
102
RTVSPost2010PropOp41
 70
     1
102
RTVSPost2010Prop42
 90
       50
102
RTVSPost2010PropOp42
 70
     1
102
RTVSPost2010Prop43
 90
        3
102
RTVSPost2010PropOp43
 70
     1
102
RTVSPost2010Prop44ColorIndex
 90
        5
102
RTVSPost2010Prop44ColorRGB
 90
      255
102
RTVSPost2010PropOp44
 70
     1
102
RTVSPost2010Prop45
280
     0
102
RTVSPost2010PropOp45
 70
     1
102
RTVSPost2010Prop46
 90
       50
102
RTVSPost2010PropOp46
 70
     1
102
RTVSPost2010Prop47
 90
       50
102
RTVSPost2010PropOp47
 70
     1
102
RTVSPost2010Prop48
 90
       50
102
RTVSPost2010PropOp48
 70
     1
102
RTVSPost2010Prop49
280
     0
102
RTVSPost2010PropOp49
 70
     1
102
RTVSPost2010Prop50
 90
       50
102
RTVSPost2010PropOp50
 70
     1
102
RTVSPost2010Prop51ColorIndex
 90
      256
102
RTVSPost2010Prop51ColorRGB
 90
-16777216
102
RTVSPost2010PropOp51
 70
     0
102
RTVSPost2010Prop52
140
1.0
102
RTVSPost2010PropOp52
 70
     0
102
RTVSPost2010Prop53
 90
        2
102
RTVSPost2010PropOp53
 70
     1
102
RTVSPost2010Prop54
  1
strokes_ogs.tif
102
RTVSPost2010PropOp54
 70
     1
102
RTVSPost2010Prop55
280
     0
102
RTVSPost2010PropOp55
 70
     1
102
RTVSPost2010Prop56
140
1.0
102
RTVSPost2010PropOp56
 70
     1
102
RTVSPost2010Prop57
140
1.0
102
RTVSPost2010PropOp57
 70
     1
102
RTVSPropertyOp0
 70
     1
102
RTVSPropertyOp1
 70
     1
102
RTVSPropertyOp2
 70
     1
102
RTVSPropertyOp3
 70
     1
102
RTVSPropertyOp4
 70
     1
102
RTVSPropertyOp5
 70
     1
102
RTVSPropertyOp6
 70
     1
102
RTVSPropertyOp7
 70
     1
102
RTVSPropertyOp8
 70
     1
102
RTVSPropertyOp9
 70
     1
102
RTVSPropertyOp10
 70
     1
102
RTVSPropertyOp11
 70
     1
102
RTVSPropertyOp12
 70
     1
102
RTVSPropertyOp13
 70
     1
102
RTVSPropertyOp14
 70
     1
102
RTVSPropertyOp15
 70
     1
102
RTVSPropertyOp16
 70
     1
102
RTVSPropertyOp17
 70
     1
102
RTVSPropertyOp18
 70
     1
102
RTVSPropertyOp19
 70
     1
102
RTVSPropertyOp20
 70
     1
102
RTVSPropertyOp21
 70
     1
102
RTVSPropertyOp22
 70
     1
102
RTVSPropertyOp23
 70
     1
102
RTVSPropertyOp24
 70
     1
102
RTVSPropertyOp25
 70
     1
102
RTVSPropertyOp26
 70
     1
102
RTVSPropertyOp27
 70
     1
102
RTVSPropertyOp28
 70
     1
102
RTVSPropertyOp29
 70
     1
102
RTVSPropertyOp30
 70
     1
102
RTVSPropertyOp31
 70
     1
102
RTVSPropertyOp32
 70
     1
102
RTVSPropertyOp33
 70
     1
102
RTVSPropertyOp34
 70
     1
102
RTVSPropertyOp35
 70
     1
102
RTVSPropertyOp36
 70
     1
102
RTVSPropertyOp37
 70
     1
102
RTVSPropertyOp38
 70
     1
102
RTVSPropertyOp39
 70
     1
102
RTVSPropertyOp40
 70
     1
102
RTVSPropertyOp41
 70
     1
102
RTVSPropertyOp42
 70
     1
102
RTVSPropertyOp43
 70
     1
102
RTVSPropertyOp44
 70
     1
102
RTVSPropertyOp45
 70
     1
102
RTVSPropertyOp46
 70
     1
102
RTVSPropertyOp47
 70
     1
102
RTVSPropertyOp48
 70
     1
102
RTVSPropertyOp49
 70
     1
102
RTVSPropertyOp50
 70
     1
102
RTVSPropertyOp51
 70
     0
102
RTVSPropertyOp52
 70
     0
102
RTVSPropertyOp53
 70
     1
102
RTVSPropertyOp54
 70
     1
102
RTVSPropertyOp55
 70
     1
102
RTVSPropertyOp56
 70
     1
102
RTVSPropertyOp57
 70
     1
102
RTVSPropertyOp58
 70
     1
102
RTVSPropertyOp59
 70
     1
102
RTVSPropertyOp60
 70
     1
102
RTVSPropertyOp61
 70
     1
102
RTVSPropertyOp62
 70
     1
  0
XRECORD
  5
65DB
102
{ACAD_REACTORS
330
65DA
102
}
330
65DA
100
AcDbXrecord
280
     1
102
RTVSPost2010Prop28
280
     0
102
RTVSPost2010PropOp28
 70
     1
102
RTVSPost2010Prop29
280
     1
102
RTVSPost2010PropOp29
 70
     1
102
RTVSPost2010Prop30
280
     1
102
RTVSPost2010PropOp30
 70
     1
102
RTVSPost2010Prop31
280
     0
102
RTVSPost2010PropOp31
 70
     1
102
RTVSPost2010Prop32
280
     0
102
RTVSPost2010PropOp32
 70
     1
102
RTVSPost2010Prop33
280
     0
102
RTVSPost2010PropOp33
 70
     1
102
RTVSPost2010Prop34
280
     0
102
RTVSPost2010PropOp34
 70
     1
102
RTVSPost2010Prop35
280
     0
102
RTVSPost2010PropOp35
 70
     1
102
RTVSPost2010Prop36
280
     0
102
RTVSPost2010PropOp36
 70
     1
102
RTVSPost2010Prop37
 90
       50
102
RTVSPost2010PropOp37
 70
     1
102
RTVSPost2010Prop38
140
0.0
102
RTVSPost2010PropOp38
 70
     1
102
RTVSPost2010Prop39
140
1.0
102
RTVSPost2010PropOp39
 70
     1
102
RTVSPost2010Prop40
 90
        0
102
RTVSPost2010PropOp40
 70
     1
102
RTVSPost2010Prop41ColorIndex
 90
       18
102
RTVSPost2010Prop41ColorRGB
 90
        0
102
RTVSPost2010PropOp41
 70
     1
102
RTVSPost2010Prop42
 90
       50
102
RTVSPost2010PropOp42
 70
     1
102
RTVSPost2010Prop43
 90
        3
102
RTVSPost2010PropOp43
 70
     1
102
RTVSPost2010Prop44ColorIndex
 90
        5
102
RTVSPost2010Prop44ColorRGB
 90
      255
102
RTVSPost2010PropOp44
 70
     1
102
RTVSPost2010Prop45
280
     0
102
RTVSPost2010PropOp45
 70
     1
102
RTVSPost2010Prop46
 90
       50
102
RTVSPost2010PropOp46
 70
     1
102
RTVSPost2010Prop47
 90
       50
102
RTVSPost2010PropOp47
 70
     1
102
RTVSPost2010Prop48
 90
       50
102
RTVSPost2010PropOp48
 70
     1
102
RTVSPost2010Prop49
280
     0
102
RTVSPost2010PropOp49
 70
     1
102
RTVSPost2010Prop50
 90
       50
102
RTVSPost2010PropOp50
 70
     1
102
RTVSPost2010Prop51ColorIndex
 90
      256
102
RTVSPost2010Prop51ColorRGB
 90
-16777216
102
RTVSPost2010PropOp51
 70
     0
102
RTVSPost2010Prop52
140
1.0
102
RTVSPost2010PropOp52
 70
     0
102
RTVSPost2010Prop53
 90
        2
102
RTVSPost2010PropOp53
 70
     1
102
RTVSPost2010Prop54
  1
strokes_ogs.tif
102
RTVSPost2010PropOp54
 70
     1
102
RTVSPost2010Prop55
280
     0
102
RTVSPost2010PropOp55
 70
     1
102
RTVSPost2010Prop56
140
1.0
102
RTVSPost2010PropOp56
 70
     1
102
RTVSPost2010Prop57
140
1.0
102
RTVSPost2010PropOp57
 70
     1
102
RTVSPropertyOp0
 70
     1
102
RTVSPropertyOp1
 70
     1
102
RTVSPropertyOp2
 70
     1
102
RTVSPropertyOp3
 70
     1
102
RTVSPropertyOp4
 70
     1
102
RTVSPropertyOp5
 70
     1
102
RTVSPropertyOp6
 70
     1
102
RTVSPropertyOp7
 70
     1
102
RTVSPropertyOp8
 70
     1
102
RTVSPropertyOp9
 70
     1
102
RTVSPropertyOp10
 70
     1
102
RTVSPropertyOp11
 70
     1
102
RTVSPropertyOp12
 70
     1
102
RTVSPropertyOp13
 70
     1
102
RTVSPropertyOp14
 70
     1
102
RTVSPropertyOp15
 70
     1
102
RTVSPropertyOp16
 70
     1
102
RTVSPropertyOp17
 70
     1
102
RTVSPropertyOp18
 70
     1
102
RTVSPropertyOp19
 70
     1
102
RTVSPropertyOp20
 70
     1
102
RTVSPropertyOp21
 70
     1
102
RTVSPropertyOp22
 70
     1
102
RTVSPropertyOp23
 70
     1
102
RTVSPropertyOp24
 70
     1
102
RTVSPropertyOp25
 70
     1
102
RTVSPropertyOp26
 70
     1
102
RTVSPropertyOp27
 70
     1
102
RTVSPropertyOp28
 70
     1
102
RTVSPropertyOp29
 70
     1
102
RTVSPropertyOp30
 70
     1
102
RTVSPropertyOp31
 70
     1
102
RTVSPropertyOp32
 70
     1
102
RTVSPropertyOp33
 70
     1
102
RTVSPropertyOp34
 70
     1
102
RTVSPropertyOp35
 70
     1
102
RTVSPropertyOp36
 70
     1
102
RTVSPropertyOp37
 70
     1
102
RTVSPropertyOp38
 70
     1
102
RTVSPropertyOp39
 70
     1
102
RTVSPropertyOp40
 70
     1
102
RTVSPropertyOp41
 70
     1
102
RTVSPropertyOp42
 70
     1
102
RTVSPropertyOp43
 70
     1
102
RTVSPropertyOp44
 70
     1
102
RTVSPropertyOp45
 70
     1
102
RTVSPropertyOp46
 70
     1
102
RTVSPropertyOp47
 70
     1
102
RTVSPropertyOp48
 70
     1
102
RTVSPropertyOp49
 70
     1
102
RTVSPropertyOp50
 70
     1
102
RTVSPropertyOp51
 70
     0
102
RTVSPropertyOp52
 70
     0
102
RTVSPropertyOp53
 70
     1
102
RTVSPropertyOp54
 70
     1
102
RTVSPropertyOp55
 70
     1
102
RTVSPropertyOp56
 70
     1
102
RTVSPropertyOp57
 70
     1
102
RTVSPropertyOp58
 70
     1
102
RTVSPropertyOp59
 70
     1
102
RTVSPropertyOp60
 70
     1
102
RTVSPropertyOp61
 70
     1
102
RTVSPropertyOp62
 70
     1
  0
XRECORD
  5
65CF
102
{ACAD_REACTORS
330
65CE
102
}
330
65CE
100
AcDbXrecord
280
     1
102
RTVSPost2010Prop28
280
     0
102
RTVSPost2010PropOp28
 70
     1
102
RTVSPost2010Prop29
280
     1
102
RTVSPost2010PropOp29
 70
     1
102
RTVSPost2010Prop30
280
     1
102
RTVSPost2010PropOp30
 70
     1
102
RTVSPost2010Prop31
280
     0
102
RTVSPost2010PropOp31
 70
     1
102
RTVSPost2010Prop32
280
     0
102
RTVSPost2010PropOp32
 70
     1
102
RTVSPost2010Prop33
280
     0
102
RTVSPost2010PropOp33
 70
     1
102
RTVSPost2010Prop34
280
     0
102
RTVSPost2010PropOp34
 70
     1
102
RTVSPost2010Prop35
280
     0
102
RTVSPost2010PropOp35
 70
     1
102
RTVSPost2010Prop36
280
     0
102
RTVSPost2010PropOp36
 70
     1
102
RTVSPost2010Prop37
 90
       50
102
RTVSPost2010PropOp37
 70
     1
102
RTVSPost2010Prop38
140
0.0
102
RTVSPost2010PropOp38
 70
     1
102
RTVSPost2010Prop39
140
1.0
102
RTVSPost2010PropOp39
 70
     1
102
RTVSPost2010Prop40
 90
        0
102
RTVSPost2010PropOp40
 70
     1
102
RTVSPost2010Prop41ColorIndex
 90
       18
102
RTVSPost2010Prop41ColorRGB
 90
        0
102
RTVSPost2010PropOp41
 70
     1
102
RTVSPost2010Prop42
 90
       50
102
RTVSPost2010PropOp42
 70
     1
102
RTVSPost2010Prop43
 90
        3
102
RTVSPost2010PropOp43
 70
     1
102
RTVSPost2010Prop44ColorIndex
 90
        5
102
RTVSPost2010Prop44ColorRGB
 90
      255
102
RTVSPost2010PropOp44
 70
     1
102
RTVSPost2010Prop45
280
     0
102
RTVSPost2010PropOp45
 70
     1
102
RTVSPost2010Prop46
 90
       50
102
RTVSPost2010PropOp46
 70
     1
102
RTVSPost2010Prop47
 90
       50
102
RTVSPost2010PropOp47
 70
     1
102
RTVSPost2010Prop48
 90
       50
102
RTVSPost2010PropOp48
 70
     1
102
RTVSPost2010Prop49
280
     0
102
RTVSPost2010PropOp49
 70
     1
102
RTVSPost2010Prop50
 90
       50
102
RTVSPost2010PropOp50
 70
     1
102
RTVSPost2010Prop51ColorIndex
 90
      256
102
RTVSPost2010Prop51ColorRGB
 90
-16777216
102
RTVSPost2010PropOp51
 70
     0
102
RTVSPost2010Prop52
140
1.0
102
RTVSPost2010PropOp52
 70
     0
102
RTVSPost2010Prop53
 90
        2
102
RTVSPost2010PropOp53
 70
     1
102
RTVSPost2010Prop54
  1
strokes_ogs.tif
102
RTVSPost2010PropOp54
 70
     1
102
RTVSPost2010Prop55
280
     0
102
RTVSPost2010PropOp55
 70
     1
102
RTVSPost2010Prop56
140
1.0
102
RTVSPost2010PropOp56
 70
     1
102
RTVSPost2010Prop57
140
1.0
102
RTVSPost2010PropOp57
 70
     1
102
RTVSPropertyOp0
 70
     1
102
RTVSPropertyOp1
 70
     1
102
RTVSPropertyOp2
 70
     1
102
RTVSPropertyOp3
 70
     1
102
RTVSPropertyOp4
 70
     1
102
RTVSPropertyOp5
 70
     1
102
RTVSPropertyOp6
 70
     1
102
RTVSPropertyOp7
 70
     1
102
RTVSPropertyOp8
 70
     1
102
RTVSPropertyOp9
 70
     1
102
RTVSPropertyOp10
 70
     1
102
RTVSPropertyOp11
 70
     1
102
RTVSPropertyOp12
 70
     1
102
RTVSPropertyOp13
 70
     1
102
RTVSPropertyOp14
 70
     1
102
RTVSPropertyOp15
 70
     1
102
RTVSPropertyOp16
 70
     1
102
RTVSPropertyOp17
 70
     1
102
RTVSPropertyOp18
 70
     1
102
RTVSPropertyOp19
 70
     1
102
RTVSPropertyOp20
 70
     1
102
RTVSPropertyOp21
 70
     1
102
RTVSPropertyOp22
 70
     1
102
RTVSPropertyOp23
 70
     1
102
RTVSPropertyOp24
 70
     1
102
RTVSPropertyOp25
 70
     1
102
RTVSPropertyOp26
 70
     1
102
RTVSPropertyOp27
 70
     1
102
RTVSPropertyOp28
 70
     1
102
RTVSPropertyOp29
 70
     1
102
RTVSPropertyOp30
 70
     1
102
RTVSPropertyOp31
 70
     1
102
RTVSPropertyOp32
 70
     1
102
RTVSPropertyOp33
 70
     1
102
RTVSPropertyOp34
 70
     1
102
RTVSPropertyOp35
 70
     1
102
RTVSPropertyOp36
 70
     1
102
RTVSPropertyOp37
 70
     1
102
RTVSPropertyOp38
 70
     1
102
RTVSPropertyOp39
 70
     1
102
RTVSPropertyOp40
 70
     1
102
RTVSPropertyOp41
 70
     1
102
RTVSPropertyOp42
 70
     1
102
RTVSPropertyOp43
 70
     1
102
RTVSPropertyOp44
 70
     1
102
RTVSPropertyOp45
 70
     1
102
RTVSPropertyOp46
 70
     1
102
RTVSPropertyOp47
 70
     1
102
RTVSPropertyOp48
 70
     1
102
RTVSPropertyOp49
 70
     1
102
RTVSPropertyOp50
 70
     1
102
RTVSPropertyOp51
 70
     0
102
RTVSPropertyOp52
 70
     0
102
RTVSPropertyOp53
 70
     1
102
RTVSPropertyOp54
 70
     1
102
RTVSPropertyOp55
 70
     1
102
RTVSPropertyOp56
 70
     1
102
RTVSPropertyOp57
 70
     1
102
RTVSPropertyOp58
 70
     1
102
RTVSPropertyOp59
 70
     1
102
RTVSPropertyOp60
 70
     1
102
RTVSPropertyOp61
 70
     1
102
RTVSPropertyOp62
 70
     1
  0
XRECORD
  5
65E7
102
{ACAD_REACTORS
330
65E6
102
}
330
65E6
100
AcDbXrecord
280
     1
102
RTVSPost2010Prop28
280
     0
102
RTVSPost2010PropOp28
 70
     1
102
RTVSPost2010Prop29
280
     1
102
RTVSPost2010PropOp29
 70
     1
102
RTVSPost2010Prop30
280
     1
102
RTVSPost2010PropOp30
 70
     1
102
RTVSPost2010Prop31
280
     0
102
RTVSPost2010PropOp31
 70
     1
102
RTVSPost2010Prop32
280
     0
102
RTVSPost2010PropOp32
 70
     1
102
RTVSPost2010Prop33
280
     0
102
RTVSPost2010PropOp33
 70
     1
102
RTVSPost2010Prop34
280
     0
102
RTVSPost2010PropOp34
 70
     1
102
RTVSPost2010Prop35
280
     0
102
RTVSPost2010PropOp35
 70
     1
102
RTVSPost2010Prop36
280
     0
102
RTVSPost2010PropOp36
 70
     1
102
RTVSPost2010Prop37
 90
       50
102
RTVSPost2010PropOp37
 70
     1
102
RTVSPost2010Prop38
140
0.0
102
RTVSPost2010PropOp38
 70
     1
102
RTVSPost2010Prop39
140
1.0
102
RTVSPost2010PropOp39
 70
     1
102
RTVSPost2010Prop40
 90
        0
102
RTVSPost2010PropOp40
 70
     1
102
RTVSPost2010Prop41ColorIndex
 90
       18
102
RTVSPost2010Prop41ColorRGB
 90
        0
102
RTVSPost2010PropOp41
 70
     1
102
RTVSPost2010Prop42
 90
       50
102
RTVSPost2010PropOp42
 70
     1
102
RTVSPost2010Prop43
 90
        3
102
RTVSPost2010PropOp43
 70
     1
102
RTVSPost2010Prop44ColorIndex
 90
        5
102
RTVSPost2010Prop44ColorRGB
 90
      255
102
RTVSPost2010PropOp44
 70
     1
102
RTVSPost2010Prop45
280
     0
102
RTVSPost2010PropOp45
 70
     1
102
RTVSPost2010Prop46
 90
       50
102
RTVSPost2010PropOp46
 70
     1
102
RTVSPost2010Prop47
 90
       50
102
RTVSPost2010PropOp47
 70
     1
102
RTVSPost2010Prop48
 90
       50
102
RTVSPost2010PropOp48
 70
     1
102
RTVSPost2010Prop49
280
     0
102
RTVSPost2010PropOp49
 70
     1
102
RTVSPost2010Prop50
 90
       50
102
RTVSPost2010PropOp50
 70
     1
102
RTVSPost2010Prop51ColorIndex
 90
      256
102
RTVSPost2010Prop51ColorRGB
 90
-16777216
102
RTVSPost2010PropOp51
 70
     0
102
RTVSPost2010Prop52
140
1.0
102
RTVSPost2010PropOp52
 70
     0
102
RTVSPost2010Prop53
 90
        2
102
RTVSPost2010PropOp53
 70
     1
102
RTVSPost2010Prop54
  1
strokes_ogs.tif
102
RTVSPost2010PropOp54
 70
     1
102
RTVSPost2010Prop55
280
     0
102
RTVSPost2010PropOp55
 70
     1
102
RTVSPost2010Prop56
140
1.0
102
RTVSPost2010PropOp56
 70
     1
102
RTVSPost2010Prop57
140
1.0
102
RTVSPost2010PropOp57
 70
     1
102
RTVSPropertyOp0
 70
     1
102
RTVSPropertyOp1
 70
     1
102
RTVSPropertyOp2
 70
     1
102
RTVSPropertyOp3
 70
     1
102
RTVSPropertyOp4
 70
     1
102
RTVSPropertyOp5
 70
     1
102
RTVSPropertyOp6
 70
     1
102
RTVSPropertyOp7
 70
     1
102
RTVSPropertyOp8
 70
     1
102
RTVSPropertyOp9
 70
     1
102
RTVSPropertyOp10
 70
     1
102
RTVSPropertyOp11
 70
     1
102
RTVSPropertyOp12
 70
     1
102
RTVSPropertyOp13
 70
     1
102
RTVSPropertyOp14
 70
     1
102
RTVSPropertyOp15
 70
     1
102
RTVSPropertyOp16
 70
     1
102
RTVSPropertyOp17
 70
     1
102
RTVSPropertyOp18
 70
     1
102
RTVSPropertyOp19
 70
     1
102
RTVSPropertyOp20
 70
     1
102
RTVSPropertyOp21
 70
     1
102
RTVSPropertyOp22
 70
     1
102
RTVSPropertyOp23
 70
     1
102
RTVSPropertyOp24
 70
     1
102
RTVSPropertyOp25
 70
     1
102
RTVSPropertyOp26
 70
     1
102
RTVSPropertyOp27
 70
     1
102
RTVSPropertyOp28
 70
     1
102
RTVSPropertyOp29
 70
     1
102
RTVSPropertyOp30
 70
     1
102
RTVSPropertyOp31
 70
     1
102
RTVSPropertyOp32
 70
     1
102
RTVSPropertyOp33
 70
     1
102
RTVSPropertyOp34
 70
     1
102
RTVSPropertyOp35
 70
     1
102
RTVSPropertyOp36
 70
     1
102
RTVSPropertyOp37
 70
     1
102
RTVSPropertyOp38
 70
     1
102
RTVSPropertyOp39
 70
     1
102
RTVSPropertyOp40
 70
     1
102
RTVSPropertyOp41
 70
     1
102
RTVSPropertyOp42
 70
     1
102
RTVSPropertyOp43
 70
     1
102
RTVSPropertyOp44
 70
     1
102
RTVSPropertyOp45
 70
     1
102
RTVSPropertyOp46
 70
     1
102
RTVSPropertyOp47
 70
     1
102
RTVSPropertyOp48
 70
     1
102
RTVSPropertyOp49
 70
     1
102
RTVSPropertyOp50
 70
     1
102
RTVSPropertyOp51
 70
     0
102
RTVSPropertyOp52
 70
     0
102
RTVSPropertyOp53
 70
     1
102
RTVSPropertyOp54
 70
     1
102
RTVSPropertyOp55
 70
     1
102
RTVSPropertyOp56
 70
     1
102
RTVSPropertyOp57
 70
     1
102
RTVSPropertyOp58
 70
     1
102
RTVSPropertyOp59
 70
     1
102
RTVSPropertyOp60
 70
     1
102
RTVSPropertyOp61
 70
     1
102
RTVSPropertyOp62
 70
     1
  0
ENDSEC
  0
EOF
