  0
SECTION
  2
HEADER
  9
$ACADVER
  1
AC1015
  9
$ACADMAINTVER
 70
    20
  9
$DWGCODEPAGE
  3
ANSI_932
  9
$INSBASE
 10
0.0
 20
0.0
 30
0.0
  9
$EXTMIN
 10
17345.59771503509
 20
2822.809791742034
 30
0.0
  9
$EXTMAX
 10
20495.59771503509
 20
7247.809791742034
 30
0.0
  9
$LIMMIN
 10
0.0
 20
0.0
  9
$LIMMAX
 10
297.0
 20
210.0
  9
$ORTHOMODE
 70
     1
  9
$REGENMODE
 70
     1
  9
$FILLMODE
 70
     1
  9
$QTEXTMODE
 70
     0
  9
$MIRRTEXT
 70
     0
  9
$LTSCALE
 40
75.0
  9
$ATTMODE
 70
     1
  9
$TEXTSIZE
 40
3.5
  9
$TRACEWID
 40
0.05
  9
$TEXTSTYLE
  7
STANDARD
  9
$CLAYER
  8
1
  9
$CELTYPE
  6
BYLAYER
  9
$CECOLOR
 62
   256
  9
$CELTSCALE
 40
1.0
  9
$DISPSILH
 70
     0
  9
$DIMSCALE
 40
15.0
  9
$DIMASZ
 40
2.5
  9
$DIMEXO
 40
1.0
  9
$DIMDLI
 40
7.0
  9
$DIMRND
 40
0.0
  9
$DIMDLE
 40
0.0
  9
$DIMEXE
 40
1.0
  9
$DIMTP
 40
0.0
  9
$DIMTM
 40
0.0
  9
$DIMTXT
 40
3.0
  9
$DIMCEN
 40
0.0
  9
$DIMTSZ
 40
0.0
  9
$DIMTOL
 70
     0
  9
$DIMLIM
 70
     0
  9
$DIMTIH
 70
     0
  9
$DIMTOH
 70
     0
  9
$DIMSE1
 70
     0
  9
$DIMSE2
 70
     0
  9
$DIMTAD
 70
     1
  9
$DIMZIN
 70
     8
  9
$DIMBLK
  1

  9
$DIMASO
 70
     1
  9
$DIMSHO
 70
     1
  9
$DIMPOST
  1

  9
$DIMAPOST
  1

  9
$DIMALT
 70
     0
  9
$DIMALTD
 70
     2
  9
$DIMALTF
 40
0.03937
  9
$DIMLFAC
 40
1.0
  9
$DIMTOFL
 70
     1
  9
$DIMTVP
 40
0.0
  9
$DIMTIX
 70
     0
  9
$DIMSOXD
 70
     0
  9
$DIMSAH
 70
     1
  9
$DIMBLK1
  1
OPEN
  9
$DIMBLK2
  1
OPEN
  9
$DIMSTYLE
  2
GOD
  9
$DIMCLRD
 70
   256
  9
$DIMCLRE
 70
   256
  9
$DIMCLRT
 70
   256
  9
$DIMTFAC
 40
1.0
  9
$DIMGAP
 40
1.0
  9
$DIMJUST
 70
     0
  9
$DIMSD1
 70
     0
  9
$DIMSD2
 70
     0
  9
$DIMTOLJ
 70
     1
  9
$DIMTZIN
 70
     8
  9
$DIMALTZ
 70
     0
  9
$DIMALTTZ
 70
     0
  9
$DIMUPT
 70
     0
  9
$DIMDEC
 70
     2
  9
$DIMTDEC
 70
     2
  9
$DIMALTU
 70
     2
  9
$DIMALTTD
 70
     2
  9
$DIMTXSTY
  7
STANDARD
  9
$DIMAUNIT
 70
     0
  9
$DIMADEC
 70
     0
  9
$DIMALTRND
 40
0.0
  9
$DIMAZIN
 70
     0
  9
$DIMDSEP
 70
    46
  9
$DIMATFIT
 70
     0
  9
$DIMFRAC
 70
     0
  9
$DIMLDRBLK
  1
OPEN
  9
$DIMLUNIT
 70
     2
  9
$DIMLWD
 70
    -2
  9
$DIMLWE
 70
    -2
  9
$DIMTMOVE
 70
     0
  9
$LUNITS
 70
     2
  9
$LUPREC
 70
     3
  9
$SKETCHINC
 40
0.1
  9
$FILLETRAD
 40
0.0
  9
$AUNITS
 70
     0
  9
$AUPREC
 70
     2
  9
$MENU
  1
acad
  9
$ELEVATION
 40
0.0
  9
$PELEVATION
 40
0.0
  9
$THICKNESS
 40
0.0
  9
$LIMCHECK
 70
     0
  9
$CHAMFERA
 40
0.0
  9
$CHAMFERB
 40
0.0
  9
$CHAMFERC
 40
20.0
  9
$CHAMFERD
 40
0.0
  9
$SKPOLY
 70
     0
  9
$TDCREATE
 40
2454939.604632489
  9
$TDUCREATE
 40
2454939.229632489
  9
$TDUPDATE
 40
2459353.582663634
  9
$TDUUPDATE
 40
2459353.207663634
  9
$TDINDWG
 40
0.2242896875
  9
$TDUSRTIMER
 40
0.2242896875
  9
$USRTIMER
 70
     1
  9
$ANGBASE
 50
0.0
  9
$ANGDIR
 70
     0
  9
$PDMODE
 70
     0
  9
$PDSIZE
 40
1.0
  9
$PLINEWID
 40
0.0
  9
$SPLFRAME
 70
     0
  9
$SPLINETYPE
 70
     6
  9
$SPLINESEGS
 70
     8
  9
$HANDSEED
  5
67A8
  9
$SURFTAB1
 70
     6
  9
$SURFTAB2
 70
     6
  9
$SURFTYPE
 70
     6
  9
$SURFU
 70
     6
  9
$SURFV
 70
     6
  9
$UCSBASE
  2

  9
$UCSNAME
  2

  9
$UCSORG
 10
0.0
 20
0.0
 30
0.0
  9
$UCSXDIR
 10
1.0
 20
0.0
 30
0.0
  9
$UCSYDIR
 10
0.0
 20
1.0
 30
0.0
  9
$UCSORTHOREF
  2

  9
$UCSORTHOVIEW
 70
     0
  9
$UCSORGTOP
 10
0.0
 20
0.0
 30
0.0
  9
$UCSORGBOTTOM
 10
0.0
 20
0.0
 30
0.0
  9
$UCSORGLEFT
 10
0.0
 20
0.0
 30
0.0
  9
$UCSORGRIGHT
 10
0.0
 20
0.0
 30
0.0
  9
$UCSORGFRONT
 10
0.0
 20
0.0
 30
0.0
  9
$UCSORGBACK
 10
0.0
 20
0.0
 30
0.0
  9
$PUCSBASE
  2

  9
$PUCSNAME
  2

  9
$PUCSORG
 10
0.0
 20
0.0
 30
0.0
  9
$PUCSXDIR
 10
1.0
 20
0.0
 30
0.0
  9
$PUCSYDIR
 10
0.0
 20
1.0
 30
0.0
  9
$PUCSORTHOREF
  2

  9
$PUCSORTHOVIEW
 70
     0
  9
$PUCSORGTOP
 10
0.0
 20
0.0
 30
0.0
  9
$PUCSORGBOTTOM
 10
0.0
 20
0.0
 30
0.0
  9
$PUCSORGLEFT
 10
0.0
 20
0.0
 30
0.0
  9
$PUCSORGRIGHT
 10
0.0
 20
0.0
 30
0.0
  9
$PUCSORGFRONT
 10
0.0
 20
0.0
 30
0.0
  9
$PUCSORGBACK
 10
0.0
 20
0.0
 30
0.0
  9
$USERI1
 70
     0
  9
$USERI2
 70
     0
  9
$USERI3
 70
     0
  9
$USERI4
 70
     0
  9
$USERI5
 70
     0
  9
$USERR1
 40
0.0
  9
$USERR2
 40
0.0
  9
$USERR3
 40
0.0
  9
$USERR4
 40
0.0
  9
$USERR5
 40
0.0
  9
$WORLDVIEW
 70
     1
  9
$SHADEDGE
 70
     3
  9
$SHADEDIF
 70
    70
  9
$TILEMODE
 70
     1
  9
$MAXACTVP
 70
    16
  9
$PINSBASE
 10
0.0
 20
0.0
 30
0.0
  9
$PLIMCHECK
 70
     0
  9
$PEXTMIN
 10
1.000000000000000E+20
 20
1.000000000000000E+20
 30
1.000000000000000E+20
  9
$PEXTMAX
 10
-1.000000000000000E+20
 20
-1.000000000000000E+20
 30
-1.000000000000000E+20
  9
$PLIMMIN
 10
0.0
 20
0.0
  9
$PLIMMAX
 10
12.0
 20
9.0
  9
$UNITMODE
 70
     0
  9
$VISRETAIN
 70
     0
  9
$PLINEGEN
 70
     0
  9
$PSLTSCALE
 70
     0
  9
$TREEDEPTH
 70
  3020
  9
$CMLSTYLE
  2
STANDARD
  9
$CMLJUST
 70
     0
  9
$CMLSCALE
 40
20.0
  9
$PROXYGRAPHICS
 70
     1
  9
$MEASUREMENT
 70
     1
  9
$CELWEIGHT
370
    -1
  9
$ENDCAPS
280
     0
  9
$JOINSTYLE
280
     0
  9
$LWDISPLAY
290
     0
  9
$INSUNITS
 70
     0
  9
$HYPERLINKBASE
  1

  9
$STYLESHEET
  1

  9
$XEDIT
290
     1
  9
$CEPSNTYPE
380
     0
  9
$PSTYLEMODE
290
     1
  9
$FINGERPRINTGUID
  2
{A0F129D1-2BC8-11D4-BF85-004026350B0A}
  9
$VERSIONGUID
  2
{F0EEE42E-10E5-4AFE-BD6F-CC755BD93430}
  9
$EXTNAMES
290
     1
  9
$PSVPSCALE
 40
0.0
  9
$OLESTARTUP
290
     0
  0
ENDSEC
  0
SECTION
  2
CLASSES
  0
CLASS
  1
ACDBDICTIONARYWDFLT
  2
AcDbDictionaryWithDefault
  3
ObjectDBX Classes
 90
        0
280
     0
281
     0
  0
CLASS
  1
ACDBPLACEHOLDER
  2
AcDbPlaceHolder
  3
ObjectDBX Classes
 90
        0
280
     0
281
     0
  0
CLASS
  1
LAYOUT
  2
AcDbLayout
  3
ObjectDBX Classes
 90
        0
280
     0
281
     0
  0
CLASS
  1
DICTIONARYVAR
  2
AcDbDictionaryVar
  3
ObjectDBX Classes
 90
        0
280
     0
281
     0
  0
CLASS
  1
MATERIAL
  2
AcDbMaterial
  3
ObjectDBX Classes
 90
     1153
280
     0
281
     0
  0
CLASS
  1
VISUALSTYLE
  2
AcDbVisualStyle
  3
ObjectDBX Classes
 90
     4095
280
     0
281
     0
  0
CLASS
  1
TABLESTYLE
  2
AcDbTableStyle
  3
ObjectDBX Classes
 90
     4095
280
     0
281
     0
  0
CLASS
  1
SCALE
  2
AcDbScale
  3
ObjectDBX Classes
 90
     1153
280
     0
281
     0
  0
CLASS
  1
MLEADERSTYLE
  2
AcDbMLeaderStyle
  3
ACDB_MLEADERSTYLE_CLASS
 90
     4095
280
     0
281
     0
  0
CLASS
  1
ACDBSECTIONVIEWSTYLE
  2
AcDbSectionViewStyle
  3
ObjectDBX Classes
 90
     1025
280
     0
281
     0
  0
CLASS
  1
ACDBDETAILVIEWSTYLE
  2
AcDbDetailViewStyle
  3
ObjectDBX Classes
 90
     1025
280
     0
281
     0
  0
CLASS
  1
CELLSTYLEMAP
  2
AcDbCellStyleMap
  3
ObjectDBX Classes
 90
     1152
280
     0
281
     0
  0
ENDSEC
  0
SECTION
  2
TABLES
  0
TABLE
  2
VPORT
  5
8
330
0
100
AcDbSymbolTable
 70
     1
  0
VPORT
  5
64D8
330
8
100
AcDbSymbolTableRecord
100
AcDbViewportTableRecord
  2
*Active
 70
     0
 10
0.0
 20
0.0
 11
1.0
 21
1.0
 12
18919.97344699295
 22
5035.499212584476
 13
0.0
 23
0.0
 14
5.0
 24
5.0
 15
0.0
 25
0.0
 16
0.0
 26
0.0
 36
1.0
 17
0.0
 27
0.0
 37
0.0
 40
4451.843405251123
 41
2.146341463414634
 42
50.0
 43
0.0
 44
0.0
 50
0.0
 51
0.0
 71
     0
 72
   100
 73
     1
 74
     0
 75
     0
 76
     0
 77
     0
 78
     0
281
     0
 65
     1
110
0.0
120
0.0
130
0.0
111
1.0
121
0.0
131
0.0
112
0.0
122
1.0
132
0.0
 79
     0
146
0.0
1001
ACAD_NAV_VCDISPLAY
1070
     3
  0
ENDTAB
  0
TABLE
  2
LTYPE
  5
5
330
0
100
AcDbSymbolTable
 70
     2
  0
LTYPE
  5
13
330
5
100
AcDbSymbolTableRecord
100
AcDbLinetypeTableRecord
  2
BYBLOCK
 70
     0
  3

 72
    65
 73
     0
 40
0.0
  0
LTYPE
  5
14
330
5
100
AcDbSymbolTableRecord
100
AcDbLinetypeTableRecord
  2
BYLAYER
 70
     0
  3

 72
    65
 73
     0
 40
0.0
  0
LTYPE
  5
15
330
5
100
AcDbSymbolTableRecord
100
AcDbLinetypeTableRecord
  2
CONTINUOUS
 70
     0
  3
Solid line
 72
    65
 73
     0
 40
0.0
  0
LTYPE
  5
1F
330
5
100
AcDbSymbolTableRecord
100
AcDbLinetypeTableRecord
  2
CENTER
 70
     0
  3
____ _ ____ _ ____ _ ____ _ ____ _ ____ _ ____ 
 72
    65
 73
     4
 40
2.0
 49
1.25
 74
     0
 49
-0.25
 74
     0
 49
0.25
 74
     0
 49
-0.25
 74
     0
  0
ENDTAB
  0
TABLE
  2
LAYER
  5
2
102
{ACAD_XDICTIONARY
360
6742
102
}
330
0
100
AcDbSymbolTable
 70
     9
  0
LAYER
  5
F
102
{ACAD_XDICTIONARY
360
672F
102
}
330
2
100
AcDbSymbolTableRecord
100
AcDbLayerTableRecord
  2
0
 70
     0
 62
     7
  6
CONTINUOUS
370
    -3
390
1E91
  0
LAYER
  5
2F
102
{ACAD_XDICTIONARY
360
6731
102
}
330
2
100
AcDbSymbolTableRecord
100
AcDbLayerTableRecord
  2
CT
 70
     0
 62
     3
  6
CENTER
370
    -3
390
1E91
  0
LAYER
  5
30
102
{ACAD_XDICTIONARY
360
6733
102
}
330
2
100
AcDbSymbolTableRecord
100
AcDbLayerTableRecord
  2
FUTO
 70
     0
 62
     4
  6
CONTINUOUS
370
    -3
390
1E91
  0
LAYER
  5
32
102
{ACAD_XDICTIONARY
360
6735
102
}
330
2
100
AcDbSymbolTableRecord
100
AcDbLayerTableRecord
  2
HOSO
 70
     0
 62
     7
  6
CONTINUOUS
370
    -3
390
1E91
  0
LAYER
  5
36
102
{ACAD_XDICTIONARY
360
6737
102
}
330
2
100
AcDbSymbolTableRecord
100
AcDbLayerTableRecord
  2
SP
 70
     0
 62
     2
  6
CONTINUOUS
370
    -3
390
1E91
  0
LAYER
  5
1E9B
330
2
100
AcDbSymbolTableRecord
100
AcDbLayerTableRecord
  2
Defpoints
 70
     0
 62
     7
  6
CONTINUOUS
290
     0
370
    -3
390
1E91
  0
LAYER
  5
1EEF
102
{ACAD_XDICTIONARY
360
6739
102
}
330
2
100
AcDbSymbolTableRecord
100
AcDbLayerTableRecord
  2
2
 70
     0
 62
     3
  6
CENTER
370
    -3
390
1E91
  0
LAYER
  5
1EF0
102
{ACAD_XDICTIONARY
360
673B
102
}
330
2
100
AcDbSymbolTableRecord
100
AcDbLayerTableRecord
  2
1
 70
     0
 62
     4
  6
CONTINUOUS
370
    -3
390
1E91
  0
LAYER
  5
2188
102
{ACAD_XDICTIONARY
360
673D
102
}
330
2
100
AcDbSymbolTableRecord
100
AcDbLayerTableRecord
  2
4
 70
     0
 62
     7
  6
CONTINUOUS
370
    -3
390
1E91
  0
ENDTAB
  0
TABLE
  2
STYLE
  5
3
330
0
100
AcDbSymbolTable
 70
     1
  0
STYLE
  5
10
330
3
100
AcDbSymbolTableRecord
100
AcDbTextStyleTableRecord
  2
STANDARD
 70
     0
 40
0.0
 41
1.0
 50
15.0
 71
     0
 42
3.5
  3
C:\Program Files\AutoCAD LT\simplex.shx
  4
C:\Program Files\AutoCAD LT\extfont.shx
  0
ENDTAB
  0
TABLE
  2
VIEW
  5
6
330
0
100
AcDbSymbolTable
 70
     0
  0
ENDTAB
  0
TABLE
  2
UCS
  5
7
330
0
100
AcDbSymbolTable
 70
     0
  0
ENDTAB
  0
TABLE
  2
APPID
  5
9
330
0
100
AcDbSymbolTable
 70
     5
  0
APPID
  5
11
330
9
100
AcDbSymbolTableRecord
100
AcDbRegAppTableRecord
  2
ACAD
 70
     0
  0
APPID
  5
671A
330
9
100
AcDbSymbolTableRecord
100
AcDbRegAppTableRecord
  2
AcadAnnoMonitorAlertIconDisabled
 70
     0
  0
APPID
  5
671B
330
9
100
AcDbSymbolTableRecord
100
AcDbRegAppTableRecord
  2
ACAD_EXEMPT_FROM_CAD_STANDARDS
 70
     0
  0
APPID
  5
6748
330
9
100
AcDbSymbolTableRecord
100
AcDbRegAppTableRecord
  2
ACAD_NAV_VCDISPLAY
 70
     0
  0
APPID
  5
67A3
330
9
100
AcDbSymbolTableRecord
100
AcDbRegAppTableRecord
  2
ACAD_MLEADERVER
 70
     0
  0
ENDTAB
  0
TABLE
  2
DIMSTYLE
  5
A
330
0
100
AcDbSymbolTable
 70
     2
100
AcDbDimStyleTable
 71
     1
340
1E99
  0
DIMSTYLE
105
1D
330
A
100
AcDbSymbolTableRecord
100
AcDbDimStyleTableRecord
  2
STANDARD
 70
     0
340
10
  0
DIMSTYLE
105
1E99
102
{ACAD_REACTORS
330
3F26
330
3F0E
330
3F3E
330
3F4B
330
3F58
330
469F
330
46D1
330
46E3
330
4D6D
330
4D74
330
4D73
330
5E6E
330
5E71
330
5E72
330
5E83
330
5E84
330
60E8
330
66E2
330
66EF
102
}
330
A
100
AcDbSymbolTableRecord
100
AcDbDimStyleTableRecord
  2
GOD
 70
     0
 40
15.0
 41
2.5
 42
1.0
 43
7.0
 44
1.0
 73
     0
 74
     0
 77
     1
 78
     8
140
3.0
141
0.0
143
0.03937
147
1.0
172
     1
173
     1
176
   256
177
   256
178
   256
271
     2
272
     2
284
     8
289
     0
340
10
341
1E7F
343
1E7F
344
1E7F
  0
ENDTAB
  0
TABLE
  2
BLOCK_RECORD
  5
1
330
0
100
AcDbSymbolTable
 70
    22
  0
BLOCK_RECORD
  5
19
102
{ACAD_XDICTIONARY
360
6506
102
}
330
1
100
AcDbSymbolTableRecord
100
AcDbBlockTableRecord
  2
*MODEL_SPACE
340
1E94
  0
BLOCK_RECORD
  5
16
102
{ACAD_XDICTIONARY
360
6504
102
}
330
1
100
AcDbSymbolTableRecord
100
AcDbBlockTableRecord
  2
*PAPER_SPACE
340
1E95
  0
BLOCK_RECORD
  5
1E7F
330
1
100
AcDbSymbolTableRecord
100
AcDbBlockTableRecord
  2
_OPEN
340
0
102
{BLKREFS
331
66C9
331
66CA
331
66D2
331
66D3
331
66DB
331
66DC
331
6715
331
6716
331
6729
331
672A
331
6361
331
6362
331
636A
331
636B
331
6373
331
6374
331
6385
331
6386
331
638E
331
638F
331
63BB
331
63BC
331
63C4
331
63C5
331
63DF
331
63E0
331
63E8
331
63E9
331
63FA
331
63FB
331
6403
331
6404
331
640C
331
640D
331
6572
102
}
  0
BLOCK_RECORD
  5
1EB4
330
1
100
AcDbSymbolTableRecord
100
AcDbBlockTableRecord
  2
_Dot
340
0
102
{BLKREFS
331
6571
102
}
  0
BLOCK_RECORD
  5
3F0F
330
1
100
AcDbSymbolTableRecord
100
AcDbBlockTableRecord
  2
*D2
340
0
  0
BLOCK_RECORD
  5
3F27
330
1
100
AcDbSymbolTableRecord
100
AcDbBlockTableRecord
  2
*D3
340
0
  0
BLOCK_RECORD
  5
3F3F
330
1
100
AcDbSymbolTableRecord
100
AcDbBlockTableRecord
  2
*D4
340
0
  0
BLOCK_RECORD
  5
3F4C
330
1
100
AcDbSymbolTableRecord
100
AcDbBlockTableRecord
  2
*D5
340
0
  0
BLOCK_RECORD
  5
3F59
330
1
100
AcDbSymbolTableRecord
100
AcDbBlockTableRecord
  2
*D6
340
0
  0
BLOCK_RECORD
  5
46F6
330
1
100
AcDbSymbolTableRecord
100
AcDbBlockTableRecord
  2
*D7
340
0
  0
BLOCK_RECORD
  5
471A
330
1
100
AcDbSymbolTableRecord
100
AcDbBlockTableRecord
  2
*D8
340
0
  0
BLOCK_RECORD
  5
4726
330
1
100
AcDbSymbolTableRecord
100
AcDbBlockTableRecord
  2
*D9
340
0
  0
BLOCK_RECORD
  5
4DDD
330
1
100
AcDbSymbolTableRecord
100
AcDbBlockTableRecord
  2
*D10
340
0
  0
BLOCK_RECORD
  5
4DEB
330
1
100
AcDbSymbolTableRecord
100
AcDbBlockTableRecord
  2
*D11
340
0
  0
BLOCK_RECORD
  5
4DF7
330
1
100
AcDbSymbolTableRecord
100
AcDbBlockTableRecord
  2
*D12
340
0
  0
BLOCK_RECORD
  5
5AD4
330
1
100
AcDbSymbolTableRecord
100
AcDbBlockTableRecord
  2
_None
340
0
  0
BLOCK_RECORD
  5
5E85
330
1
100
AcDbSymbolTableRecord
100
AcDbBlockTableRecord
  2
*D14
340
0
  0
BLOCK_RECORD
  5
5E91
330
1
100
AcDbSymbolTableRecord
100
AcDbBlockTableRecord
  2
*D15
340
0
  0
BLOCK_RECORD
  5
5E9D
330
1
100
AcDbSymbolTableRecord
100
AcDbBlockTableRecord
  2
*D16
340
0
  0
BLOCK_RECORD
  5
5EA9
330
1
100
AcDbSymbolTableRecord
100
AcDbBlockTableRecord
  2
*D17
340
0
  0
BLOCK_RECORD
  5
5EB7
330
1
100
AcDbSymbolTableRecord
100
AcDbBlockTableRecord
  2
*D18
340
0
  0
BLOCK_RECORD
  5
60EC
330
1
100
AcDbSymbolTableRecord
100
AcDbBlockTableRecord
  2
*D19
340
0
  0
BLOCK_RECORD
  5
66E3
330
1
100
AcDbSymbolTableRecord
100
AcDbBlockTableRecord
  2
*D20
340
0
  0
BLOCK_RECORD
  5
66F0
330
1
100
AcDbSymbolTableRecord
100
AcDbBlockTableRecord
  2
*D21
340
0
  0
ENDTAB
  0
ENDSEC
  0
SECTION
  2
BLOCKS
  0
BLOCK
  5
1A
330
19
100
AcDbEntity
  8
0
100
AcDbBlockBegin
  2
*MODEL_SPACE
 70
     0
 10
0.0
 20
0.0
 30
0.0
  3
*MODEL_SPACE
  1

  0
ENDBLK
  5
1B
330
19
100
AcDbEntity
  8
0
100
AcDbBlockEnd
  0
BLOCK
  5
17
330
16
100
AcDbEntity
 67
     1
  8
0
100
AcDbBlockBegin
  2
*PAPER_SPACE
 70
     0
 10
0.0
 20
0.0
 30
0.0
  3
*PAPER_SPACE
  1

  0
ENDBLK
  5
18
330
16
100
AcDbEntity
 67
     1
  8
0
100
AcDbBlockEnd
  0
BLOCK
  5
1E80
330
1E7F
100
AcDbEntity
  8
0
100
AcDbBlockBegin
  2
_OPEN
 70
     0
 10
0.0
 20
0.0
 30
0.0
  3
_OPEN
  1

  0
LINE
  5
1E81
330
1E7F
100
AcDbEntity
  8
0
  6
ByBlock
 62
     0
380
     1
100
AcDbLine
 10
-1.0
 20
0.1666666666666666
 30
0.0
 11
0.0
 21
0.0
 31
0.0
  0
LINE
  5
1E82
330
1E7F
100
AcDbEntity
  8
0
  6
ByBlock
 62
     0
380
     1
100
AcDbLine
 10
0.0
 20
0.0
 30
0.0
 11
-1.0
 21
-0.1666666666666666
 31
0.0
  0
LINE
  5
1E83
330
1E7F
100
AcDbEntity
  8
0
  6
ByBlock
 62
     0
380
     1
100
AcDbLine
 10
0.0
 20
0.0
 30
0.0
 11
-1.0
 21
0.0
 31
0.0
  0
ENDBLK
  5
1E84
330
1E7F
100
AcDbEntity
  8
0
100
AcDbBlockEnd
  0
BLOCK
  5
1EB7
330
1EB4
100
AcDbEntity
  8
0
100
AcDbBlockBegin
  2
_Dot
 70
     0
 10
0.0
 20
0.0
 30
0.0
  3
_Dot
  1

  0
LINE
  5
1EC3
330
1EB4
100
AcDbEntity
  8
0
  6
ByBlock
 62
     0
380
     1
100
AcDbLine
 10
0.0
 20
0.0
 30
0.0
 11
-1.0
 21
-0.0000000000000284
 31
0.0
  0
LWPOLYLINE
  5
1EC4
330
1EB4
100
AcDbEntity
  8
0
  6
ByBlock
 62
     0
100
AcDbPolyline
 90
        2
 70
     1
 43
0.1666666666666666
 10
-0.0833333333333286
 20
-0.0000000000000284
 42
1.0
 10
0.0833333333333286
 20
-0.0000000000000284
 42
1.0
  0
ENDBLK
  5
1EB8
330
1EB4
100
AcDbEntity
  8
0
100
AcDbBlockEnd
  0
BLOCK
  5
3F19
330
3F0F
100
AcDbEntity
  8
0
100
AcDbBlockBegin
  2
*D2
 70
     1
 10
0.0
 20
0.0
 30
0.0
  3
*D2
  1

  0
LINE
  5
638B
330
3F0F
100
AcDbEntity
  8
SP
370
    -2
100
AcDbLine
 10
18322.76627709694
 20
4870.633820463165
 30
0.0
 11
18322.76627709694
 21
4957.923030691429
 31
0.0
  0
LINE
  5
638C
330
3F0F
100
AcDbEntity
  8
SP
370
    -2
100
AcDbLine
 10
18058.53499546311
 20
4570.964871696695
 30
0.0
 11
18058.53499546311
 21
4957.923030691429
 31
0.0
  0
LINE
  5
638D
330
3F0F
100
AcDbEntity
  8
SP
370
    -2
100
AcDbLine
 10
18285.26627709694
 20
4942.923030691429
 30
0.0
 11
18096.03499546311
 21
4942.923030691429
 31
0.0
  0
INSERT
  5
638E
330
3F0F
100
AcDbEntity
  8
SP
370
    -2
100
AcDbBlockReference
  2
_OPEN
 10
18322.76627709694
 20
4942.923030691429
 30
0.0
 41
37.5
 42
37.5
 43
37.5
  0
INSERT
  5
638F
330
3F0F
100
AcDbEntity
  8
SP
370
    -2
100
AcDbBlockReference
  2
_OPEN
 10
18058.53499546311
 20
4942.923030691429
 30
0.0
 41
37.5
 42
37.5
 43
37.5
 50
180.0
  0
MTEXT
  5
6390
330
3F0F
100
AcDbEntity
  8
SP
100
AcDbMText
 10
18190.65063628003
 20
4980.423030691429
 30
0.0
 40
45.0
 41
0.0
 71
     5
 72
     5
  1
\A1;264
 73
     1
 44
1.0
1001
ACAD
1000
MTEXTBEGIN
1070
    73
1070
     1
1070
    44
1040
1.0
1070
    74
1070
     0
1000
MTEXTEND
  0
POINT
  5
6391
330
3F0F
100
AcDbEntity
  8
Defpoints
 62
     0
380
     1
100
AcDbPoint
 10
18322.76627709694
 20
4855.633820463165
 30
0.0
  0
POINT
  5
6392
330
3F0F
100
AcDbEntity
  8
Defpoints
 62
     0
380
     1
100
AcDbPoint
 10
18058.53499546311
 20
4555.964871696694
 30
0.0
  0
POINT
  5
6393
330
3F0F
100
AcDbEntity
  8
Defpoints
 62
     0
380
     1
100
AcDbPoint
 10
18058.53499546311
 20
4942.923030691429
 30
0.0
  0
ENDBLK
  5
3F1A
330
3F0F
100
AcDbEntity
  8
0
100
AcDbBlockEnd
  0
BLOCK
  5
3F31
330
3F27
100
AcDbEntity
  8
0
100
AcDbBlockBegin
  2
*D3
 70
     1
 10
0.0
 20
0.0
 30
0.0
  3
*D3
  1

  0
LINE
  5
6382
330
3F27
100
AcDbEntity
  8
SP
370
    -2
100
AcDbLine
 10
18322.76627709694
 20
4870.633820463165
 30
0.0
 11
18322.76627709694
 21
4957.923030691429
 31
0.0
  0
LINE
  5
6383
330
3F27
100
AcDbEntity
  8
SP
370
    -2
100
AcDbLine
 10
18572.76627709694
 20
4619.135294509085
 30
0.0
 11
18572.76627709694
 21
4957.923030691429
 31
0.0
  0
LINE
  5
6384
330
3F27
100
AcDbEntity
  8
SP
370
    -2
100
AcDbLine
 10
18360.26627709694
 20
4942.923030691429
 30
0.0
 11
18535.26627709694
 21
4942.923030691429
 31
0.0
  0
INSERT
  5
6385
330
3F27
100
AcDbEntity
  8
SP
370
    -2
100
AcDbBlockReference
  2
_OPEN
 10
18322.76627709694
 20
4942.923030691429
 30
0.0
 41
37.5
 42
37.5
 43
37.5
 50
180.0
  0
INSERT
  5
6386
330
3F27
100
AcDbEntity
  8
SP
370
    -2
100
AcDbBlockReference
  2
_OPEN
 10
18572.76627709694
 20
4942.923030691429
 30
0.0
 41
37.5
 42
37.5
 43
37.5
  0
MTEXT
  5
6387
330
3F27
100
AcDbEntity
  8
SP
100
AcDbMText
 10
18447.76627709694
 20
4980.423030691429
 30
0.0
 40
45.0
 41
0.0
 71
     5
 72
     5
  1
\A1;250
 73
     1
 44
1.0
1001
ACAD
1000
MTEXTBEGIN
1070
    73
1070
     1
1070
    44
1040
1.0
1070
    74
1070
     0
1000
MTEXTEND
  0
POINT
  5
6388
330
3F27
100
AcDbEntity
  8
Defpoints
 62
     0
380
     1
100
AcDbPoint
 10
18322.76627709694
 20
4855.633820463165
 30
0.0
  0
POINT
  5
6389
330
3F27
100
AcDbEntity
  8
Defpoints
 62
     0
380
     1
100
AcDbPoint
 10
18572.76627709694
 20
4604.135294509085
 30
0.0
  0
POINT
  5
638A
330
3F27
100
AcDbEntity
  8
Defpoints
 62
     0
380
     1
100
AcDbPoint
 10
18572.76627709694
 20
4942.923030691429
 30
0.0
  0
ENDBLK
  5
3F32
330
3F27
100
AcDbEntity
  8
0
100
AcDbBlockEnd
  0
BLOCK
  5
3F49
330
3F3F
100
AcDbEntity
  8
0
100
AcDbBlockBegin
  2
*D4
 70
     1
 10
0.0
 20
0.0
 30
0.0
  3
*D4
  1

  0
LINE
  5
63B8
330
3F3F
100
AcDbEntity
  8
SP
370
    -2
100
AcDbLine
 10
18642.70978694452
 20
4582.635294509082
 30
0.0
 11
18720.81895078337
 21
4582.635294509082
 31
0.0
  0
LINE
  5
63B9
330
3F3F
100
AcDbEntity
  8
SP
370
    -2
100
AcDbLine
 10
18587.76627709695
 20
4267.635294509084
 30
0.0
 11
18720.81895078337
 21
4267.635294509084
 31
0.0
  0
LINE
  5
63BA
330
3F3F
100
AcDbEntity
  8
SP
370
    -2
100
AcDbLine
 10
18705.81895078337
 20
4545.135294509083
 30
0.0
 11
18705.81895078337
 21
4305.135294509084
 31
0.0
  0
INSERT
  5
63BB
330
3F3F
100
AcDbEntity
  8
SP
370
    -2
100
AcDbBlockReference
  2
_OPEN
 10
18705.81895078337
 20
4582.635294509082
 30
0.0
 41
37.5
 42
37.5
 43
37.5
 50
90.0
  0
INSERT
  5
63BC
330
3F3F
100
AcDbEntity
  8
SP
370
    -2
100
AcDbBlockReference
  2
_OPEN
 10
18705.81895078337
 20
4267.635294509084
 30
0.0
 41
37.5
 42
37.5
 43
37.5
 50
270.0
  0
MTEXT
  5
63BD
330
3F3F
100
AcDbEntity
  8
SP
100
AcDbMText
 10
18668.31895078337
 20
4425.135294509086
 30
0.0
 40
45.0
 41
0.0
 71
     5
 72
     5
  1
\A1;315
 11
0.0000000000000001
 21
1.0
 31
0.0
 73
     1
 44
1.0
1001
ACAD
1000
MTEXTBEGIN
1070
    73
1070
     1
1070
    44
1040
1.0
1070
    74
1070
     0
1000
MTEXTEND
  0
POINT
  5
63BE
330
3F3F
100
AcDbEntity
  8
Defpoints
 62
     0
380
     1
100
AcDbPoint
 10
18627.70978694451
 20
4582.635294509082
 30
0.0
  0
POINT
  5
63BF
330
3F3F
100
AcDbEntity
  8
Defpoints
 62
     0
380
     1
100
AcDbPoint
 10
18572.76627709695
 20
4267.635294509084
 30
0.0
  0
POINT
  5
63C0
330
3F3F
100
AcDbEntity
  8
Defpoints
 62
     0
380
     1
100
AcDbPoint
 10
18705.81895078337
 20
4267.635294509084
 30
0.0
  0
ENDBLK
  5
3F4A
330
3F3F
100
AcDbEntity
  8
0
100
AcDbBlockEnd
  0
BLOCK
  5
3F56
330
3F4C
100
AcDbEntity
  8
0
100
AcDbBlockBegin
  2
*D5
 70
     1
 10
0.0
 20
0.0
 30
0.0
  3
*D5
  1

  0
LINE
  5
63DC
330
3F4C
100
AcDbEntity
  8
SP
370
    -2
100
AcDbLine
 10
18587.76627709694
 20
4227.635294509082
 30
0.0
 11
18845.85656516783
 21
4227.635294509082
 31
0.0
  0
LINE
  5
63DD
330
3F4C
100
AcDbEntity
  8
SP
370
    -2
100
AcDbLine
 10
18642.70978694452
 20
4582.635294509082
 30
0.0
 11
18845.85656516783
 21
4582.635294509082
 31
0.0
  0
LINE
  5
63DE
330
3F4C
100
AcDbEntity
  8
SP
370
    -2
100
AcDbLine
 10
18830.85656516783
 20
4265.135294509081
 30
0.0
 11
18830.85656516783
 21
4545.135294509083
 31
0.0
  0
INSERT
  5
63DF
330
3F4C
100
AcDbEntity
  8
SP
370
    -2
100
AcDbBlockReference
  2
_OPEN
 10
18830.85656516783
 20
4227.635294509082
 30
0.0
 41
37.5
 42
37.5
 43
37.5
 50
270.0
  0
INSERT
  5
63E0
330
3F4C
100
AcDbEntity
  8
SP
370
    -2
100
AcDbBlockReference
  2
_OPEN
 10
18830.85656516783
 20
4582.635294509082
 30
0.0
 41
37.5
 42
37.5
 43
37.5
 50
90.0
  0
MTEXT
  5
63E1
330
3F4C
100
AcDbEntity
  8
SP
100
AcDbMText
 10
18793.35656516783
 20
4405.135294509086
 30
0.0
 40
45.0
 41
0.0
 71
     5
 72
     5
  1
\A1;355
 11
0.0000000000000001
 21
1.0
 31
0.0
 73
     1
 44
1.0
1001
ACAD
1000
MTEXTBEGIN
1070
    73
1070
     1
1070
    44
1040
1.0
1070
    74
1070
     0
1000
MTEXTEND
  0
POINT
  5
63E2
330
3F4C
100
AcDbEntity
  8
Defpoints
 62
     0
380
     1
100
AcDbPoint
 10
18572.76627709694
 20
4227.635294509082
 30
0.0
  0
POINT
  5
63E3
330
3F4C
100
AcDbEntity
  8
Defpoints
 62
     0
380
     1
100
AcDbPoint
 10
18627.70978694451
 20
4582.635294509082
 30
0.0
  0
POINT
  5
63E4
330
3F4C
100
AcDbEntity
  8
Defpoints
 62
     0
380
     1
100
AcDbPoint
 10
18830.85656516783
 20
4582.635294509082
 30
0.0
  0
ENDBLK
  5
3F57
330
3F4C
100
AcDbEntity
  8
0
100
AcDbBlockEnd
  0
BLOCK
  5
3F65
330
3F59
100
AcDbEntity
  8
0
100
AcDbBlockBegin
  2
*D6
 70
     1
 10
0.0
 20
0.0
 30
0.0
  3
*D6
  1

  0
LINE
  5
63C1
330
3F59
100
AcDbEntity
  8
SP
370
    -2
100
AcDbLine
 10
18642.70978694452
 20
4582.635294509082
 30
0.0
 11
18845.85656516783
 21
4582.635294509082
 31
0.0
  0
LINE
  5
63C2
330
3F59
100
AcDbEntity
  8
SP
370
    -2
100
AcDbLine
 10
18314.91257323214
 20
4804.922514625554
 30
0.0
 11
18845.85656516783
 21
4804.922514625553
 31
0.0
  0
LINE
  5
63C3
330
3F59
100
AcDbEntity
  8
SP
370
    -2
100
AcDbLine
 10
18830.85656516783
 20
4620.135294509082
 30
0.0
 11
18830.85656516783
 21
4767.422514625553
 31
0.0
  0
INSERT
  5
63C4
330
3F59
100
AcDbEntity
  8
SP
370
    -2
100
AcDbBlockReference
  2
_OPEN
 10
18830.85656516783
 20
4582.635294509082
 30
0.0
 41
37.5
 42
37.5
 43
37.5
 50
270.0
  0
INSERT
  5
63C5
330
3F59
100
AcDbEntity
  8
SP
370
    -2
100
AcDbBlockReference
  2
_OPEN
 10
18830.85656516783
 20
4804.922514625553
 30
0.0
 41
37.5
 42
37.5
 43
37.5
 50
90.0
  0
MTEXT
  5
63C6
330
3F59
100
AcDbEntity
  8
SP
100
AcDbMText
 10
18793.35656516783
 20
4693.77890456732
 30
0.0
 40
45.0
 41
0.0
 71
     5
 72
     5
  1
\A1;222
 11
0.0000000000000001
 21
1.0
 31
0.0
 73
     1
 44
1.0
1001
ACAD
1000
MTEXTBEGIN
1070
    73
1070
     1
1070
    44
1040
1.0
1070
    74
1070
     0
1000
MTEXTEND
  0
POINT
  5
63C7
330
3F59
100
AcDbEntity
  8
Defpoints
 62
     0
380
     1
100
AcDbPoint
 10
18627.70978694451
 20
4582.635294509082
 30
0.0
  0
POINT
  5
63C8
330
3F59
100
AcDbEntity
  8
Defpoints
 62
     0
380
     1
100
AcDbPoint
 10
18299.91257323213
 20
4804.922514625554
 30
0.0
  0
POINT
  5
63C9
330
3F59
100
AcDbEntity
  8
Defpoints
 62
     0
380
     1
100
AcDbPoint
 10
18830.85656516783
 20
4804.922514625553
 30
0.0
  0
ENDBLK
  5
3F66
330
3F59
100
AcDbEntity
  8
0
100
AcDbBlockEnd
  0
BLOCK
  5
4700
330
46F6
100
AcDbEntity
  8
0
100
AcDbBlockBegin
  2
*D7
 70
     1
 10
0.0
 20
0.0
 30
0.0
  3
*D7
  1

  0
LINE
  5
66C6
330
46F6
100
AcDbEntity
  8
SP
370
    -2
100
AcDbLine
 10
19660.61370464045
 20
4994.89786701067
 30
0.0
 11
19660.61370464045
 21
5029.922514625553
 31
0.0
  0
LINE
  5
66C7
330
46F6
100
AcDbEntity
  8
SP
370
    -2
100
AcDbLine
 10
19781.61370464045
 20
4779.135294509078
 30
0.0
 11
19781.61370464045
 21
5029.922514625553
 31
0.0
  0
LINE
  5
66C8
330
46F6
100
AcDbEntity
  8
SP
370
    -2
100
AcDbLine
 10
19698.11370464045
 20
5014.922514625554
 30
0.0
 11
19744.11370464045
 21
5014.922514625554
 31
0.0
  0
INSERT
  5
66C9
330
46F6
100
AcDbEntity
  8
SP
370
    -2
100
AcDbBlockReference
  2
_OPEN
 10
19660.61370464045
 20
5014.922514625554
 30
0.0
 41
37.5
 42
37.5
 43
37.5
 50
180.0
  0
INSERT
  5
66CA
330
46F6
100
AcDbEntity
  8
SP
370
    -2
100
AcDbBlockReference
  2
_OPEN
 10
19781.61370464045
 20
5014.922514625554
 30
0.0
 41
37.5
 42
37.5
 43
37.5
  0
MTEXT
  5
66CB
330
46F6
100
AcDbEntity
  8
SP
100
AcDbMText
 10
19721.11370464045
 20
5052.422514625554
 30
0.0
 40
45.0
 41
0.0
 71
     5
 72
     1
  1
\A1;121
 73
     1
 44
1.0
1001
ACAD
1000
MTEXTBEGIN
1070
    73
1070
     1
1070
    44
1040
1.0
1070
    74
1070
     0
1000
MTEXTEND
  0
POINT
  5
66CC
330
46F6
100
AcDbEntity
  8
Defpoints
 62
     0
100
AcDbPoint
 10
19660.61370464045
 20
4979.89786701067
 30
0.0
  0
POINT
  5
66CD
330
46F6
100
AcDbEntity
  8
Defpoints
 62
     0
100
AcDbPoint
 10
19781.61370464045
 20
4764.135294509078
 30
0.0
  0
POINT
  5
66CE
330
46F6
100
AcDbEntity
  8
Defpoints
 62
     0
100
AcDbPoint
 10
19781.61370464045
 20
5014.922514625554
 30
0.0
  0
ENDBLK
  5
4701
330
46F6
100
AcDbEntity
  8
0
100
AcDbBlockEnd
  0
BLOCK
  5
4724
330
471A
100
AcDbEntity
  8
0
100
AcDbBlockBegin
  2
*D8
 70
     1
 10
0.0
 20
0.0
 30
0.0
  3
*D8
  1

  0
LINE
  5
66CF
330
471A
100
AcDbEntity
  8
SP
370
    -2
100
AcDbLine
 10
19796.61370464045
 20
4740.135294509079
 30
0.0
 11
19944.88849648962
 21
4740.135294509079
 31
0.0
  0
LINE
  5
66D0
330
471A
100
AcDbEntity
  8
SP
370
    -2
100
AcDbLine
 10
19796.61370464045
 20
4425.135294509079
 30
0.0
 11
19944.88849648962
 21
4425.135294509079
 31
0.0
  0
LINE
  5
66D1
330
471A
100
AcDbEntity
  8
SP
370
    -2
100
AcDbLine
 10
19929.88849648962
 20
4702.635294509079
 30
0.0
 11
19929.88849648962
 21
4462.635294509079
 31
0.0
  0
INSERT
  5
66D2
330
471A
100
AcDbEntity
  8
SP
370
    -2
100
AcDbBlockReference
  2
_OPEN
 10
19929.88849648962
 20
4740.135294509079
 30
0.0
 41
37.5
 42
37.5
 43
37.5
 50
90.0
  0
INSERT
  5
66D3
330
471A
100
AcDbEntity
  8
SP
370
    -2
100
AcDbBlockReference
  2
_OPEN
 10
19929.88849648962
 20
4425.135294509079
 30
0.0
 41
37.5
 42
37.5
 43
37.5
 50
270.0
  0
MTEXT
  5
66D4
330
471A
100
AcDbEntity
  8
SP
100
AcDbMText
 10
19892.38849648962
 20
4582.635294509083
 30
0.0
 40
45.0
 41
0.0
 71
     5
 72
     1
  1
\A1;\U+03C6315
 11
0.0000000000000001
 21
1.0
 31
0.0
 73
     1
 44
1.0
1001
ACAD
1000
MTEXTBEGIN
1070
    73
1070
     1
1070
    44
1040
1.0
1070
    74
1070
     0
1000
MTEXTEND
  0
POINT
  5
66D5
330
471A
100
AcDbEntity
  8
Defpoints
 62
     0
100
AcDbPoint
 10
19781.61370464045
 20
4740.135294509079
 30
0.0
  0
POINT
  5
66D6
330
471A
100
AcDbEntity
  8
Defpoints
 62
     0
100
AcDbPoint
 10
19781.61370464045
 20
4425.135294509079
 30
0.0
  0
POINT
  5
66D7
330
471A
100
AcDbEntity
  8
Defpoints
 62
     0
100
AcDbPoint
 10
19929.88849648962
 20
4425.135294509079
 30
0.0
  0
ENDBLK
  5
4725
330
471A
100
AcDbEntity
  8
0
100
AcDbBlockEnd
  0
BLOCK
  5
4730
330
4726
100
AcDbEntity
  8
0
100
AcDbBlockBegin
  2
*D9
 70
     1
 10
0.0
 20
0.0
 30
0.0
  3
*D9
  1

  0
LINE
  5
66D8
330
4726
100
AcDbEntity
  8
SP
370
    -2
100
AcDbLine
 10
19548.61370464045
 20
4804.922514625555
 30
0.0
 11
19548.61370464045
 21
4924.922514625554
 31
0.0
  0
LINE
  5
66D9
330
4726
100
AcDbEntity
  8
SP
370
    -2
100
AcDbLine
 10
19772.61370464045
 20
4804.922514625554
 30
0.0
 11
19772.61370464045
 21
4924.922514625554
 31
0.0
  0
LINE
  5
66DA
330
4726
100
AcDbEntity
  8
SP
370
    -2
100
AcDbLine
 10
19586.11370464045
 20
4909.922514625554
 30
0.0
 11
19735.11370464045
 21
4909.922514625554
 31
0.0
  0
INSERT
  5
66DB
330
4726
100
AcDbEntity
  8
SP
370
    -2
100
AcDbBlockReference
  2
_OPEN
 10
19548.61370464045
 20
4909.922514625554
 30
0.0
 41
37.5
 42
37.5
 43
37.5
 50
180.0
  0
INSERT
  5
66DC
330
4726
100
AcDbEntity
  8
SP
370
    -2
100
AcDbBlockReference
  2
_OPEN
 10
19772.61370464045
 20
4909.922514625554
 30
0.0
 41
37.5
 42
37.5
 43
37.5
  0
MTEXT
  5
66DD
330
4726
100
AcDbEntity
  8
SP
100
AcDbMText
 10
19660.61370464045
 20
4947.422514625554
 30
0.0
 40
45.0
 41
0.0
 71
     5
 72
     1
  1
\A1;224
 73
     1
 44
1.0
1001
ACAD
1000
MTEXTBEGIN
1070
    73
1070
     1
1070
    44
1040
1.0
1070
    74
1070
     0
1000
MTEXTEND
  0
POINT
  5
66DE
330
4726
100
AcDbEntity
  8
Defpoints
 62
     0
100
AcDbPoint
 10
19548.61370464045
 20
4789.922514625555
 30
0.0
  0
POINT
  5
66DF
330
4726
100
AcDbEntity
  8
Defpoints
 62
     0
100
AcDbPoint
 10
19772.61370464045
 20
4789.922514625554
 30
0.0
  0
POINT
  5
66E0
330
4726
100
AcDbEntity
  8
Defpoints
 62
     0
100
AcDbPoint
 10
19772.61370464045
 20
4909.922514625554
 30
0.0
  0
ENDBLK
  5
4731
330
4726
100
AcDbEntity
  8
0
100
AcDbBlockEnd
  0
BLOCK
  5
4DE9
330
4DDD
100
AcDbEntity
  8
0
100
AcDbBlockBegin
  2
*D10
 70
     1
 10
0.0
 20
0.0
 30
0.0
  3
*D10
  1

  0
LINE
  5
635C
330
4DDD
100
AcDbEntity
  8
SP
370
    -2
100
AcDbLine
 10
18587.76627709695
 20
5812.362935220167
 30
0.0
 11
18793.69918287051
 21
5812.362935220167
 31
0.0
  0
LINE
  5
635D
330
4DDD
100
AcDbEntity
  8
SP
370
    -2
100
AcDbLine
 10
18635.38782536343
 20
5934.362935220168
 30
0.0
 11
18793.69918287051
 21
5934.362935220168
 31
0.0
  0
LINE
  5
635E
330
4DDD
100
AcDbEntity
  8
SP
370
    -2
100
AcDbLine
 10
18778.69918287051
 20
5774.862935220166
 30
0.0
 11
18778.69918287051
 21
5737.362935220167
 31
0.0
  0
LINE
  5
635F
330
4DDD
100
AcDbEntity
  8
SP
370
    -2
100
AcDbLine
 10
18778.69918287051
 20
5971.862935220169
 30
0.0
 11
18778.69918287051
 21
6144.362935220168
 31
0.0
  0
LINE
  5
6360
330
4DDD
100
AcDbEntity
  8
SP
370
    -2
100
AcDbLine
 10
18778.69918287051
 20
5812.362935220167
 30
0.0
 11
18778.69918287051
 21
5934.362935220168
 31
0.0
  0
INSERT
  5
6361
330
4DDD
100
AcDbEntity
  8
SP
370
    -2
100
AcDbBlockReference
  2
_OPEN
 10
18778.69918287051
 20
5812.362935220167
 30
0.0
 41
37.5
 42
37.5
 43
37.5
 50
90.0
  0
INSERT
  5
6362
330
4DDD
100
AcDbEntity
  8
SP
370
    -2
100
AcDbBlockReference
  2
_OPEN
 10
18778.69918287051
 20
5934.362935220168
 30
0.0
 41
37.5
 42
37.5
 43
37.5
 50
270.0
  0
MTEXT
  5
6363
330
4DDD
100
AcDbEntity
  8
SP
100
AcDbMText
 10
18741.19918287051
 20
6076.862935220173
 30
0.0
 40
45.0
 41
0.0
 71
     5
 72
     5
  1
\A1;122
 11
0.0000000000000001
 21
1.0
 31
0.0
 73
     1
 44
1.0
1001
ACAD
1000
MTEXTBEGIN
1070
    73
1070
     1
1070
    44
1040
1.0
1070
    74
1070
     0
1000
MTEXTEND
  0
POINT
  5
6364
330
4DDD
100
AcDbEntity
  8
Defpoints
 62
     0
380
     1
100
AcDbPoint
 10
18572.76627709694
 20
5812.362935220167
 30
0.0
  0
POINT
  5
6365
330
4DDD
100
AcDbEntity
  8
Defpoints
 62
     0
380
     1
100
AcDbPoint
 10
18620.38782536343
 20
5934.362935220168
 30
0.0
  0
POINT
  5
6366
330
4DDD
100
AcDbEntity
  8
Defpoints
 62
     0
380
     1
100
AcDbPoint
 10
18778.69918287051
 20
5934.362935220168
 30
0.0
  0
ENDBLK
  5
4DEA
330
4DDD
100
AcDbEntity
  8
0
100
AcDbBlockEnd
  0
BLOCK
  5
4DF5
330
4DEB
100
AcDbEntity
  8
0
100
AcDbBlockBegin
  2
*D11
 70
     1
 10
0.0
 20
0.0
 30
0.0
  3
*D11
  1

  0
LINE
  5
6367
330
4DEB
100
AcDbEntity
  8
SP
370
    -2
100
AcDbLine
 10
18587.76627709694
 20
5812.362935220167
 30
0.0
 11
18793.69918287051
 21
5812.362935220167
 31
0.0
  0
LINE
  5
6368
330
4DEB
100
AcDbEntity
  8
SP
370
    -2
100
AcDbLine
 10
18587.76627709694
 20
5502.362935220169
 30
0.0
 11
18793.69918287051
 21
5502.362935220169
 31
0.0
  0
LINE
  5
6369
330
4DEB
100
AcDbEntity
  8
SP
370
    -2
100
AcDbLine
 10
18778.69918287051
 20
5774.862935220166
 30
0.0
 11
18778.69918287051
 21
5539.862935220169
 31
0.0
  0
INSERT
  5
636A
330
4DEB
100
AcDbEntity
  8
SP
370
    -2
100
AcDbBlockReference
  2
_OPEN
 10
18778.69918287051
 20
5812.362935220167
 30
0.0
 41
37.5
 42
37.5
 43
37.5
 50
90.0
  0
INSERT
  5
636B
330
4DEB
100
AcDbEntity
  8
SP
370
    -2
100
AcDbBlockReference
  2
_OPEN
 10
18778.69918287051
 20
5502.362935220169
 30
0.0
 41
37.5
 42
37.5
 43
37.5
 50
270.0
  0
MTEXT
  5
636C
330
4DEB
100
AcDbEntity
  8
SP
100
AcDbMText
 10
18741.19918287051
 20
5657.362935220171
 30
0.0
 40
45.0
 41
0.0
 71
     5
 72
     5
  1
\A1;310
 11
0.0000000000000001
 21
1.0
 31
0.0
 73
     1
 44
1.0
1001
ACAD
1000
MTEXTBEGIN
1070
    73
1070
     1
1070
    44
1040
1.0
1070
    74
1070
     0
1000
MTEXTEND
  0
POINT
  5
636D
330
4DEB
100
AcDbEntity
  8
Defpoints
 62
     0
380
     1
100
AcDbPoint
 10
18572.76627709694
 20
5812.362935220167
 30
0.0
  0
POINT
  5
636E
330
4DEB
100
AcDbEntity
  8
Defpoints
 62
     0
380
     1
100
AcDbPoint
 10
18572.76627709694
 20
5502.362935220169
 30
0.0
  0
POINT
  5
636F
330
4DEB
100
AcDbEntity
  8
Defpoints
 62
     0
380
     1
100
AcDbPoint
 10
18778.69918287051
 20
5502.362935220169
 30
0.0
  0
ENDBLK
  5
4DF6
330
4DEB
100
AcDbEntity
  8
0
100
AcDbBlockEnd
  0
BLOCK
  5
4E01
330
4DF7
100
AcDbEntity
  8
0
100
AcDbBlockBegin
  2
*D12
 70
     1
 10
0.0
 20
0.0
 30
0.0
  3
*D12
  1

  0
LINE
  5
6370
330
4DF7
100
AcDbEntity
  8
SP
370
    -2
100
AcDbLine
 10
18072.76627709694
 20
5487.362935220168
 30
0.0
 11
18072.76627709694
 21
5288.271096717927
 31
0.0
  0
LINE
  5
6371
330
4DF7
100
AcDbEntity
  8
SP
370
    -2
100
AcDbLine
 10
18572.76627709694
 20
5487.362935220168
 30
0.0
 11
18572.76627709694
 21
5288.271096717927
 31
0.0
  0
LINE
  5
6372
330
4DF7
100
AcDbEntity
  8
SP
370
    -2
100
AcDbLine
 10
18110.26627709694
 20
5303.271096717928
 30
0.0
 11
18535.26627709694
 21
5303.271096717928
 31
0.0
  0
INSERT
  5
6373
330
4DF7
100
AcDbEntity
  8
SP
370
    -2
100
AcDbBlockReference
  2
_OPEN
 10
18072.76627709694
 20
5303.271096717928
 30
0.0
 41
37.5
 42
37.5
 43
37.5
 50
180.0
  0
INSERT
  5
6374
330
4DF7
100
AcDbEntity
  8
SP
370
    -2
100
AcDbBlockReference
  2
_OPEN
 10
18572.76627709694
 20
5303.271096717928
 30
0.0
 41
37.5
 42
37.5
 43
37.5
  0
MTEXT
  5
6375
330
4DF7
100
AcDbEntity
  8
SP
100
AcDbMText
 10
18322.76627709694
 20
5340.771096717928
 30
0.0
 40
45.0
 41
0.0
 71
     5
 72
     5
  1
\A1;500
 73
     1
 44
1.0
1001
ACAD
1000
MTEXTBEGIN
1070
    73
1070
     1
1070
    44
1040
1.0
1070
    74
1070
     0
1000
MTEXTEND
  0
POINT
  5
6376
330
4DF7
100
AcDbEntity
  8
Defpoints
 62
     0
380
     1
100
AcDbPoint
 10
18072.76627709694
 20
5502.362935220169
 30
0.0
  0
POINT
  5
6377
330
4DF7
100
AcDbEntity
  8
Defpoints
 62
     0
380
     1
100
AcDbPoint
 10
18572.76627709694
 20
5502.362935220169
 30
0.0
  0
POINT
  5
6378
330
4DF7
100
AcDbEntity
  8
Defpoints
 62
     0
380
     1
100
AcDbPoint
 10
18572.76627709694
 20
5303.271096717928
 30
0.0
  0
ENDBLK
  5
4E02
330
4DF7
100
AcDbEntity
  8
0
100
AcDbBlockEnd
  0
BLOCK
  5
5AD5
330
5AD4
100
AcDbEntity
  8
0
100
AcDbBlockBegin
  2
_None
 70
     0
 10
0.0
 20
0.0
 30
0.0
  3
_None
  1

  0
ENDBLK
  5
5AD6
330
5AD4
100
AcDbEntity
  8
0
100
AcDbBlockEnd
  0
BLOCK
  5
5E8F
330
5E85
100
AcDbEntity
  8
0
100
AcDbBlockBegin
  2
*D14
 70
     1
 10
0.0
 20
0.0
 30
0.0
  3
*D14
  1

  0
LINE
  5
63F7
330
5E85
100
AcDbEntity
  8
SP
370
    -2
100
AcDbLine
 10
18322.76627709696
 20
4042.265404136125
 30
0.0
 11
18322.76627709696
 21
3952.60821575955
 31
0.0
  0
LINE
  5
63F8
330
5E85
100
AcDbEntity
  8
SP
370
    -2
100
AcDbLine
 10
18572.76627709695
 20
4077.635294509081
 30
0.0
 11
18572.76627709695
 21
3952.60821575955
 31
0.0
  0
LINE
  5
63F9
330
5E85
100
AcDbEntity
  8
SP
370
    -2
100
AcDbLine
 10
18360.26627709696
 20
3967.60821575955
 30
0.0
 11
18535.26627709695
 21
3967.60821575955
 31
0.0
  0
INSERT
  5
63FA
330
5E85
100
AcDbEntity
  8
SP
370
    -2
100
AcDbBlockReference
  2
_OPEN
 10
18322.76627709696
 20
3967.60821575955
 30
0.0
 41
37.5
 42
37.5
 43
37.5
 50
180.0
  0
INSERT
  5
63FB
330
5E85
100
AcDbEntity
  8
SP
370
    -2
100
AcDbBlockReference
  2
_OPEN
 10
18572.76627709695
 20
3967.60821575955
 30
0.0
 41
37.5
 42
37.5
 43
37.5
  0
MTEXT
  5
63FC
330
5E85
100
AcDbEntity
  8
SP
100
AcDbMText
 10
18447.76627709695
 20
4005.10821575955
 30
0.0
 40
45.0
 41
0.0
 71
     5
 72
     5
  1
\A1;250
 73
     1
 44
1.0
1001
ACAD
1000
MTEXTBEGIN
1070
    73
1070
     1
1070
    44
1040
1.0
1070
    74
1070
     0
1000
MTEXTEND
  0
POINT
  5
63FD
330
5E85
100
AcDbEntity
  8
Defpoints
 62
     0
380
     1
100
AcDbPoint
 10
18322.76627709696
 20
4057.265404136124
 30
0.0
  0
POINT
  5
63FE
330
5E85
100
AcDbEntity
  8
Defpoints
 62
     0
380
     1
100
AcDbPoint
 10
18572.76627709695
 20
4092.635294509082
 30
0.0
  0
POINT
  5
63FF
330
5E85
100
AcDbEntity
  8
Defpoints
 62
     0
380
     1
100
AcDbPoint
 10
18572.76627709695
 20
3967.60821575955
 30
0.0
  0
ENDBLK
  5
5E90
330
5E85
100
AcDbEntity
  8
0
100
AcDbBlockEnd
  0
BLOCK
  5
5E9B
330
5E91
100
AcDbEntity
  8
0
100
AcDbBlockBegin
  2
*D15
 70
     1
 10
0.0
 20
0.0
 30
0.0
  3
*D15
  1

  0
LINE
  5
6400
330
5E91
100
AcDbEntity
  8
SP
370
    -2
100
AcDbLine
 10
18072.76627709696
 20
4077.635294509081
 30
0.0
 11
18072.76627709696
 21
3823.575721260112
 31
0.0
  0
LINE
  5
6401
330
5E91
100
AcDbEntity
  8
SP
370
    -2
100
AcDbLine
 10
18572.76627709695
 20
4077.635294509081
 30
0.0
 11
18572.76627709695
 21
3823.575721260112
 31
0.0
  0
LINE
  5
6402
330
5E91
100
AcDbEntity
  8
SP
370
    -2
100
AcDbLine
 10
18110.26627709696
 20
3838.575721260112
 30
0.0
 11
18535.26627709695
 21
3838.575721260112
 31
0.0
  0
INSERT
  5
6403
330
5E91
100
AcDbEntity
  8
SP
370
    -2
100
AcDbBlockReference
  2
_OPEN
 10
18072.76627709696
 20
3838.575721260112
 30
0.0
 41
37.5
 42
37.5
 43
37.5
 50
180.0
  0
INSERT
  5
6404
330
5E91
100
AcDbEntity
  8
SP
370
    -2
100
AcDbBlockReference
  2
_OPEN
 10
18572.76627709695
 20
3838.575721260112
 30
0.0
 41
37.5
 42
37.5
 43
37.5
  0
MTEXT
  5
6405
330
5E91
100
AcDbEntity
  8
SP
100
AcDbMText
 10
18322.76627709696
 20
3876.075721260111
 30
0.0
 40
45.0
 41
0.0
 71
     5
 72
     5
  1
\A1;500
 73
     1
 44
1.0
1001
ACAD
1000
MTEXTBEGIN
1070
    73
1070
     1
1070
    44
1040
1.0
1070
    74
1070
     0
1000
MTEXTEND
  0
POINT
  5
6406
330
5E91
100
AcDbEntity
  8
Defpoints
 62
     0
380
     1
100
AcDbPoint
 10
18072.76627709696
 20
4092.635294509082
 30
0.0
  0
POINT
  5
6407
330
5E91
100
AcDbEntity
  8
Defpoints
 62
     0
380
     1
100
AcDbPoint
 10
18572.76627709695
 20
4092.635294509082
 30
0.0
  0
POINT
  5
6408
330
5E91
100
AcDbEntity
  8
Defpoints
 62
     0
380
     1
100
AcDbPoint
 10
18572.76627709695
 20
3838.575721260112
 30
0.0
  0
ENDBLK
  5
5E9C
330
5E91
100
AcDbEntity
  8
0
100
AcDbBlockEnd
  0
BLOCK
  5
5EA7
330
5E9D
100
AcDbEntity
  8
0
100
AcDbBlockBegin
  2
*D16
 70
     1
 10
0.0
 20
0.0
 30
0.0
  3
*D16
  1

  0
LINE
  5
63E5
330
5E9D
100
AcDbEntity
  8
SP
370
    -2
100
AcDbLine
 10
18322.76627709696
 20
4042.265404136125
 30
0.0
 11
18322.76627709696
 21
3952.60821575955
 31
0.0
  0
LINE
  5
63E6
330
5E9D
100
AcDbEntity
  8
SP
370
    -2
100
AcDbLine
 10
18072.76627709696
 20
4077.635294509081
 30
0.0
 11
18072.76627709696
 21
3952.60821575955
 31
0.0
  0
LINE
  5
63E7
330
5E9D
100
AcDbEntity
  8
SP
370
    -2
100
AcDbLine
 10
18285.26627709696
 20
3967.60821575955
 30
0.0
 11
18110.26627709696
 21
3967.60821575955
 31
0.0
  0
INSERT
  5
63E8
330
5E9D
100
AcDbEntity
  8
SP
370
    -2
100
AcDbBlockReference
  2
_OPEN
 10
18322.76627709696
 20
3967.60821575955
 30
0.0
 41
37.5
 42
37.5
 43
37.5
  0
INSERT
  5
63E9
330
5E9D
100
AcDbEntity
  8
SP
370
    -2
100
AcDbBlockReference
  2
_OPEN
 10
18072.76627709696
 20
3967.60821575955
 30
0.0
 41
37.5
 42
37.5
 43
37.5
 50
180.0
  0
MTEXT
  5
63EA
330
5E9D
100
AcDbEntity
  8
SP
100
AcDbMText
 10
18197.76627709696
 20
4005.10821575955
 30
0.0
 40
45.0
 41
0.0
 71
     5
 72
     5
  1
\A1;250
 73
     1
 44
1.0
1001
ACAD
1000
MTEXTBEGIN
1070
    73
1070
     1
1070
    44
1040
1.0
1070
    74
1070
     0
1000
MTEXTEND
  0
POINT
  5
63EB
330
5E9D
100
AcDbEntity
  8
Defpoints
 62
     0
380
     1
100
AcDbPoint
 10
18322.76627709696
 20
4057.265404136124
 30
0.0
  0
POINT
  5
63EC
330
5E9D
100
AcDbEntity
  8
Defpoints
 62
     0
380
     1
100
AcDbPoint
 10
18072.76627709696
 20
4092.635294509082
 30
0.0
  0
POINT
  5
63ED
330
5E9D
100
AcDbEntity
  8
Defpoints
 62
     0
380
     1
100
AcDbPoint
 10
18072.76627709696
 20
3967.60821575955
 30
0.0
  0
ENDBLK
  5
5EA8
330
5E9D
100
AcDbEntity
  8
0
100
AcDbBlockEnd
  0
BLOCK
  5
5EB5
330
5EA9
100
AcDbEntity
  8
0
100
AcDbBlockBegin
  2
*D17
 70
     1
 10
0.0
 20
0.0
 30
0.0
  3
*D17
  1

  0
LINE
  5
656C
330
5EA9
100
AcDbEntity
  8
SP
100
AcDbLine
 10
18587.76627709695
 20
4157.635294509082
 30
0.0
 11
18845.85656516783
 21
4157.635294509082
 31
0.0
  0
LINE
  5
656D
330
5EA9
100
AcDbEntity
  8
SP
100
AcDbLine
 10
18587.76627709695
 20
4092.635294509082
 30
0.0
 11
18845.85656516783
 21
4092.635294509082
 31
0.0
  0
LINE
  5
656E
330
5EA9
100
AcDbEntity
  8
SP
100
AcDbLine
 10
18830.85656516783
 20
4195.135294509082
 30
0.0
 11
18830.85656516783
 21
4232.635294509083
 31
0.0
  0
LINE
  5
656F
330
5EA9
100
AcDbEntity
  8
SP
100
AcDbLine
 10
18830.85656516783
 20
4055.135294509081
 30
0.0
 11
18830.85656516783
 21
3910.871539943882
 31
0.0
  0
LINE
  5
6570
330
5EA9
100
AcDbEntity
  8
SP
100
AcDbLine
 10
18830.85656516783
 20
4157.635294509082
 30
0.0
 11
18830.85656516783
 21
4092.635294509082
 31
0.0
  0
INSERT
  5
6571
330
5EA9
100
AcDbEntity
  8
SP
100
AcDbBlockReference
  2
_Dot
 10
18830.85656516783
 20
4157.635294509082
 30
0.0
 41
37.5
 42
37.5
 43
37.5
 50
270.0
  0
INSERT
  5
6572
330
5EA9
100
AcDbEntity
  8
SP
100
AcDbBlockReference
  2
_OPEN
 10
18830.85656516783
 20
4092.635294509082
 30
0.0
 41
37.5
 42
37.5
 43
37.5
 50
90.0
  0
MTEXT
  5
6573
330
5EA9
100
AcDbEntity
  8
SP
100
AcDbMText
 10
18793.35656516783
 20
3964.253417226485
 30
0.0
 40
45.0
 41
0.0
 71
     5
 72
     5
  1
\A1;65
 11
0.0000000000000001
 21
1.0
 31
0.0
 73
     1
 44
1.0
1001
ACAD
1000
MTEXTBEGIN
1070
    73
1070
     1
1070
    44
1040
1.0
1070
    74
1070
     0
1000
MTEXTEND
  0
POINT
  5
6574
330
5EA9
100
AcDbEntity
  8
Defpoints
 62
     0
380
     1
100
AcDbPoint
 10
18572.76627709695
 20
4157.635294509082
 30
0.0
  0
POINT
  5
6575
330
5EA9
100
AcDbEntity
  8
Defpoints
 62
     0
380
     1
100
AcDbPoint
 10
18572.76627709695
 20
4092.635294509082
 30
0.0
  0
POINT
  5
6576
330
5EA9
100
AcDbEntity
  8
Defpoints
 62
     0
380
     1
100
AcDbPoint
 10
18830.85656516783
 20
4092.635294509082
 30
0.0
  0
ENDBLK
  5
5EB6
330
5EA9
100
AcDbEntity
  8
0
100
AcDbBlockEnd
  0
BLOCK
  5
5EC1
330
5EB7
100
AcDbEntity
  8
0
100
AcDbBlockBegin
  2
*D18
 70
     1
 10
0.0
 20
0.0
 30
0.0
  3
*D18
  1

  0
LINE
  5
6577
330
5EB7
100
AcDbEntity
  8
SP
100
AcDbLine
 10
18587.76627709695
 20
4227.635294509082
 30
0.0
 11
18845.85656516783
 21
4227.635294509082
 31
0.0
  0
LINE
  5
6578
330
5EB7
100
AcDbEntity
  8
SP
100
AcDbLine
 10
18587.76627709695
 20
4157.635294509082
 30
0.0
 11
18845.85656516783
 21
4157.635294509082
 31
0.0
  0
LINE
  5
6579
330
5EB7
100
AcDbEntity
  8
SP
100
AcDbLine
 10
18830.85656516783
 20
4227.635294509082
 30
0.0
 11
18830.85656516783
 21
4157.635294509082
 31
0.0
  0
MTEXT
  5
657A
330
5EB7
100
AcDbEntity
  8
SP
100
AcDbMText
 10
18887.6584311706
 20
4172.710558514687
 30
0.0
 40
45.0
 41
0.0
 71
     5
 72
     5
  1
\A1;（70）
 11
0.0000000000000001
 21
1.0
 31
0.0
 73
     1
 44
1.0
1001
ACAD
1000
MTEXTBEGIN
1070
    73
1070
     1
1070
    44
1040
1.0
1070
    74
1070
     0
1000
MTEXTEND
  0
POINT
  5
657B
330
5EB7
100
AcDbEntity
  8
Defpoints
 62
     0
380
     1
100
AcDbPoint
 10
18572.76627709695
 20
4227.635294509082
 30
0.0
  0
POINT
  5
657C
330
5EB7
100
AcDbEntity
  8
Defpoints
 62
     0
380
     1
100
AcDbPoint
 10
18572.76627709695
 20
4157.635294509082
 30
0.0
  0
POINT
  5
657D
330
5EB7
100
AcDbEntity
  8
Defpoints
 62
     0
380
     1
100
AcDbPoint
 10
18830.85656516783
 20
4157.635294509082
 30
0.0
  0
ENDBLK
  5
5EC2
330
5EB7
100
AcDbEntity
  8
0
100
AcDbBlockEnd
  0
BLOCK
  5
60F6
330
60EC
100
AcDbEntity
  8
0
100
AcDbBlockBegin
  2
*D19
 70
     1
 10
0.0
 20
0.0
 30
0.0
  3
*D19
  1

  0
LINE
  5
6409
330
60EC
100
AcDbEntity
  8
SP
370
    -2
100
AcDbLine
 10
19228.61370464045
 20
4077.635294509081
 30
0.0
 11
19228.61370464045
 21
3892.526979510949
 31
0.0
  0
LINE
  5
640A
330
60EC
100
AcDbEntity
  8
SP
370
    -2
100
AcDbLine
 10
19538.61370464045
 20
4077.635294509081
 30
0.0
 11
19538.61370464045
 21
3892.526979510949
 31
0.0
  0
LINE
  5
640B
330
60EC
100
AcDbEntity
  8
SP
370
    -2
100
AcDbLine
 10
19266.11370464045
 20
3907.526979510949
 30
0.0
 11
19501.11370464045
 21
3907.526979510949
 31
0.0
  0
INSERT
  5
640C
330
60EC
100
AcDbEntity
  8
SP
370
    -2
100
AcDbBlockReference
  2
_OPEN
 10
19228.61370464045
 20
3907.526979510949
 30
0.0
 41
37.5
 42
37.5
 43
37.5
 50
180.0
  0
INSERT
  5
640D
330
60EC
100
AcDbEntity
  8
SP
370
    -2
100
AcDbBlockReference
  2
_OPEN
 10
19538.61370464045
 20
3907.526979510949
 30
0.0
 41
37.5
 42
37.5
 43
37.5
  0
MTEXT
  5
640E
330
60EC
100
AcDbEntity
  8
SP
100
AcDbMText
 10
19383.61370464045
 20
3945.026979510949
 30
0.0
 40
45.0
 41
0.0
 71
     5
 72
     5
  1
\A1;310
 73
     1
 44
1.0
1001
ACAD
1000
MTEXTBEGIN
1070
    73
1070
     1
1070
    44
1040
1.0
1070
    74
1070
     0
1000
MTEXTEND
  0
POINT
  5
640F
330
60EC
100
AcDbEntity
  8
Defpoints
 62
     0
380
     1
100
AcDbPoint
 10
19228.61370464045
 20
4092.63529450908
 30
0.0
  0
POINT
  5
6410
330
60EC
100
AcDbEntity
  8
Defpoints
 62
     0
380
     1
100
AcDbPoint
 10
19538.61370464045
 20
4092.63529450908
 30
0.0
  0
POINT
  5
6411
330
60EC
100
AcDbEntity
  8
Defpoints
 62
     0
380
     1
100
AcDbPoint
 10
19538.61370464045
 20
3907.526979510949
 30
0.0
  0
ENDBLK
  5
60F7
330
60EC
100
AcDbEntity
  8
0
100
AcDbBlockEnd
  0
BLOCK
  5
66E4
330
66E3
100
AcDbEntity
  8
0
100
AcDbBlockBegin
  2
*D20
 70
     1
 10
0.0
 20
0.0
 30
0.0
  3
*D20
  1

  0
LINE
  5
6726
330
66E3
100
AcDbEntity
  8
SP
370
    -2
100
AcDbLine
 10
19660.61370464045
 20
4994.89786701067
 30
0.0
 11
19660.61370464045
 21
5029.922514625553
 31
0.0
  0
LINE
  5
6727
330
66E3
100
AcDbEntity
  8
SP
370
    -2
100
AcDbLine
 10
19239.61370464144
 20
4681.216234822136
 30
0.0
 11
19239.61370464144
 21
5029.922514625553
 31
0.0
  0
LINE
  5
6728
330
66E3
100
AcDbEntity
  8
SP
370
    -2
100
AcDbLine
 10
19623.11370464045
 20
5014.922514625554
 30
0.0
 11
19277.11370464144
 21
5014.922514625554
 31
0.0
  0
INSERT
  5
6729
330
66E3
100
AcDbEntity
  8
SP
370
    -2
100
AcDbBlockReference
  2
_OPEN
 10
19660.61370464045
 20
5014.922514625554
 30
0.0
 41
37.5
 42
37.5
 43
37.5
  0
INSERT
  5
672A
330
66E3
100
AcDbEntity
  8
SP
370
    -2
100
AcDbBlockReference
  2
_OPEN
 10
19239.61370464144
 20
5014.922514625554
 30
0.0
 41
37.5
 42
37.5
 43
37.5
 50
180.0
  0
MTEXT
  5
672B
330
66E3
100
AcDbEntity
  8
SP
100
AcDbMText
 10
19450.11370464095
 20
5064.208228911269
 30
0.0
 40
45.0
 41
0.0
 71
     5
 72
     1
  1
\A1;(420)
 73
     1
 44
1.0
1001
ACAD
1000
MTEXTBEGIN
1070
    73
1070
     1
1070
    44
1040
1.0
1070
    74
1070
     0
1000
MTEXTEND
  0
POINT
  5
672C
330
66E3
100
AcDbEntity
  8
Defpoints
 62
     0
100
AcDbPoint
 10
19660.61370464045
 20
4979.89786701067
 30
0.0
  0
POINT
  5
672D
330
66E3
100
AcDbEntity
  8
Defpoints
 62
     0
100
AcDbPoint
 10
19239.61370464144
 20
4666.216234822136
 30
0.0
  0
POINT
  5
672E
330
66E3
100
AcDbEntity
  8
Defpoints
 62
     0
100
AcDbPoint
 10
19239.61370464144
 20
5014.922514625554
 30
0.0
  0
ENDBLK
  5
66E5
330
66E3
100
AcDbEntity
  8
0
100
AcDbBlockEnd
  0
BLOCK
  5
66F1
330
66F0
100
AcDbEntity
  8
0
100
AcDbBlockBegin
  2
*D21
 70
     1
 10
0.0
 20
0.0
 30
0.0
  3
*D21
  1

  0
LINE
  5
670F
330
66F0
100
AcDbEntity
  8
SP
370
    -2
100
AcDbLine
 10
19538.61370464045
 20
4077.635294509081
 30
0.0
 11
19538.61370464045
 21
3892.526979510949
 31
0.0
  0
LINE
  5
6710
330
66F0
100
AcDbEntity
  8
SP
370
    -2
100
AcDbLine
 10
19660.61370464045
 20
4129.209413630673
 30
0.0
 11
19660.61370464045
 21
3892.526979510949
 31
0.0
  0
LINE
  5
6711
330
66F0
100
AcDbEntity
  8
SP
370
    -2
100
AcDbLine
 10
19501.11370464045
 20
3907.526979510949
 30
0.0
 11
19463.61370464045
 21
3907.526979510949
 31
0.0
  0
LINE
  5
6712
330
66F0
100
AcDbEntity
  8
SP
370
    -2
100
AcDbLine
 10
19698.11370464045
 20
3907.526979510949
 30
0.0
 11
19735.61370464045
 21
3907.526979510949
 31
0.0
  0
MTEXT
  5
6713
330
66F0
100
AcDbEntity
  8
SP
100
AcDbMText
 10
19775.3686134756
 20
3949.901166488002
 30
0.0
 40
45.0
 41
0.0
 71
     5
 72
     1
  1
\A1;122
 73
     1
 44
1.0
1001
ACAD
1000
MTEXTBEGIN
1070
    73
1070
     1
1070
    44
1040
1.0
1070
    74
1070
     0
1000
MTEXTEND
  0
LINE
  5
6714
330
66F0
100
AcDbEntity
  8
SP
370
    -2
100
AcDbLine
 10
19538.61370464045
 20
3907.526979510949
 30
0.0
 11
19660.61370464045
 21
3907.526979510949
 31
0.0
  0
INSERT
  5
6715
330
66F0
100
AcDbEntity
  8
SP
370
    -2
100
AcDbBlockReference
  2
_OPEN
 10
19538.61370464045
 20
3907.526979510949
 30
0.0
 41
37.5
 42
37.5
 43
37.5
  0
INSERT
  5
6716
330
66F0
100
AcDbEntity
  8
SP
370
    -2
100
AcDbBlockReference
  2
_OPEN
 10
19660.61370464045
 20
3907.526979510949
 30
0.0
 41
37.5
 42
37.5
 43
37.5
 50
180.0
  0
POINT
  5
6717
330
66F0
100
AcDbEntity
  8
Defpoints
 62
     0
100
AcDbPoint
 10
19538.61370464045
 20
4092.63529450908
 30
0.0
  0
POINT
  5
6718
330
66F0
100
AcDbEntity
  8
Defpoints
 62
     0
100
AcDbPoint
 10
19660.61370464045
 20
4144.209413630673
 30
0.0
  0
POINT
  5
6719
330
66F0
100
AcDbEntity
  8
Defpoints
 62
     0
100
AcDbPoint
 10
19660.61370464045
 20
3907.526979510949
 30
0.0
  0
ENDBLK
  5
66F2
330
66F0
100
AcDbEntity
  8
0
100
AcDbBlockEnd
  0
ENDSEC
  0
SECTION
  2
ENTITIES
  0
LINE
  5
2CF0
330
19
100
AcDbEntity
  8
4
100
AcDbLine
 10
17345.59771503509
 20
2822.809791742034
 30
0.0
 11
17345.59771503509
 21
7247.809791742034
 31
0.0
  0
LINE
  5
2CF1
330
19
100
AcDbEntity
  8
4
100
AcDbLine
 10
20495.59771503509
 20
7247.809791742034
 30
0.0
 11
20495.59771503509
 21
2822.809791742034
 31
0.0
  0
LINE
  5
2CF2
330
19
100
AcDbEntity
  8
4
100
AcDbLine
 10
20495.59771503509
 20
2822.809791742034
 30
0.0
 11
17345.59771503509
 21
2822.809791742034
 31
0.0
  0
TEXT
  5
2D01
330
19
100
AcDbEntity
  8
4
100
AcDbText
 10
18825.57945841331
 20
3182.174210068607
 30
0.0
 40
75.0
  1
MF＃2-7
100
AcDbText
  0
TEXT
  5
2D03
330
19
100
AcDbEntity
  8
4
100
AcDbText
 10
18812.11583326659
 20
3340.292487085045
 30
0.0
 40
75.0
  1
ミツヤ多翼送風機
100
AcDbText
  0
LINE
  5
2D04
330
19
100
AcDbEntity
  8
4
100
AcDbLine
 10
18020.59771503509
 20
3456.434833648692
 30
0.0
 11
19820.59771503509
 21
3456.434833648692
 31
0.0
  0
LINE
  5
2D05
330
19
100
AcDbEntity
  8
4
100
AcDbLine
 10
18020.59771503509
 20
3306.434833648693
 30
0.0
 11
19820.59771503509
 21
3306.434833648693
 31
0.0
  0
LINE
  5
2D06
330
19
100
AcDbEntity
  8
4
100
AcDbLine
 10
18020.59771503509
 20
3156.434833648692
 30
0.0
 11
19820.59771503509
 21
3156.434833648692
 31
0.0
  0
LINE
  5
2D09
330
19
100
AcDbEntity
  8
4
100
AcDbLine
 10
18020.59771503509
 20
3456.434833648692
 30
0.0
 11
18020.59771503509
 21
3156.434833648692
 31
0.0
  0
TEXT
  5
2D0A
330
19
100
AcDbEntity
  8
4
100
AcDbText
 10
18074.98487407229
 20
3188.902568746708
 30
0.0
 40
75.0
  1
機器型番
100
AcDbText
  0
TEXT
  5
2D0B
330
19
100
AcDbEntity
  8
4
100
AcDbText
 10
18078.35083630545
 20
3353.749372448611
 30
0.0
 40
75.0
  1
機器名称
100
AcDbText
  0
LINE
  5
2D0C
330
19
100
AcDbEntity
  8
4
100
AcDbLine
 10
18770.59771503509
 20
3456.434833648692
 30
0.0
 11
18770.59771503509
 21
3156.434833648692
 31
0.0
  0
LINE
  5
2D0D
330
19
100
AcDbEntity
  8
4
100
AcDbLine
 10
19820.59771503509
 20
3456.434833648692
 30
0.0
 11
19820.59771503509
 21
3156.434833648692
 31
0.0
  0
TEXT
  5
2D0E
330
19
100
AcDbEntity
  8
4
100
AcDbText
 10
17818.48108722505
 20
6396.289008061549
 30
0.0
 40
80.99999999999999
  1
左回転右横向
100
AcDbText
  0
LINE
  5
2D0F
330
19
100
AcDbEntity
  8
4
100
AcDbLine
 10
17345.59771503509
 20
7247.809791742034
 30
0.0
 11
20495.59771503509
 21
7247.809791742034
 31
0.0
  0
LINE
  5
2D10
330
19
100
AcDbEntity
  8
4
100
AcDbLine
 10
17720.59771503509
 20
6826.922923139242
 30
0.0
 11
20120.5977150351
 21
6826.922923139242
 31
0.0
  0
LINE
  5
2D11
330
19
100
AcDbEntity
  8
4
100
AcDbLine
 10
17720.59771503509
 20
6526.922923139242
 30
0.0
 11
20120.5977150351
 21
6526.922923139242
 31
0.0
  0
LINE
  5
2E4B
330
19
100
AcDbEntity
  8
4
100
AcDbLine
 10
17720.59771503509
 20
6826.922923139242
 30
0.0
 11
17720.59771503509
 21
6526.922923139242
 31
0.0
  0
LINE
  5
2F6C
330
19
100
AcDbEntity
  8
4
100
AcDbLine
 10
20120.5977150351
 20
6844.705166430135
 30
0.0
 11
19506.52384857489
 21
6844.705166430135
 31
0.0
  0
LINE
  5
2F6D
330
19
100
AcDbEntity
  8
4
100
AcDbLine
 10
19506.52384857489
 20
7002.788184066663
 30
0.0
 11
20120.5977150351
 21
7002.788184066663
 31
0.0
  0
TEXT
  5
2F6F
330
19
100
AcDbEntity
  8
4
100
AcDbText
 10
18077.69207095238
 20
6623.63125604098
 30
0.0
 40
108.0
  1
遠心式片吸込直動形多翼ファン
100
AcDbText
  0
LINE
  5
2F7D
330
19
100
AcDbEntity
  8
4
100
AcDbLine
 10
19506.52384857489
 20
6844.705166430135
 30
0.0
 11
19506.52384857489
 21
7002.788184066663
 31
0.0
  0
TEXT
  5
2F7E
330
19
100
AcDbEntity
  8
4
100
AcDbText
 10
19549.05205390902
 20
6881.901413984997
 30
0.0
 40
84.00000000000002
  1
No.
100
AcDbText
  0
LINE
  5
2F7F
330
19
100
AcDbEntity
  8
4
100
AcDbLine
 10
20120.5977150351
 20
6826.922923139242
 30
0.0
 11
20120.5977150351
 21
6526.922923139242
 31
0.0
  0
LINE
  5
2F80
330
19
100
AcDbEntity
  8
4
100
AcDbLine
 10
20120.5977150351
 20
7002.788184066663
 30
0.0
 11
20120.5977150351
 21
6844.705166430135
 31
0.0
  0
LINE
  5
2F81
330
19
100
AcDbEntity
  8
4
100
AcDbLine
 10
20495.59771503509
 20
7247.809791742034
 30
0.0
 11
20495.59771503509
 21
7247.809791742034
 31
0.0
  0
LINE
  5
39EE
330
19
100
AcDbEntity
  8
2
100
AcDbLine
 10
18322.76627709694
 20
4057.265404136123
 30
0.0
 11
18322.76627709694
 21
4855.633820463165
 31
0.0
  0
LWPOLYLINE
  5
39EF
330
19
100
AcDbEntity
  8
CT
100
AcDbPolyline
 90
        2
 70
     0
 43
0.0
 10
18577.82944031193
 20
4594.135294509086
 10
18565.56113002799
 20
4594.135294509085
  0
LWPOLYLINE
  5
39F0
330
19
100
AcDbEntity
  8
CT
100
AcDbPolyline
 90
        2
 70
     0
 43
0.0
 10
18577.82944031194
 20
4256.135294509086
 10
18565.561130028
 20
4256.135294509085
  0
LWPOLYLINE
  5
3A02
330
19
100
AcDbEntity
  8
1
100
AcDbPolyline
 90
        2
 70
     0
 43
0.0
 10
18117.76627709694
 20
4721.885099501153
 42
-0.1174780416237573
 10
18209.78801879642
 20
4787.63529450908
 42
-0.3153658436290411
  0
LWPOLYLINE
  5
3A03
330
19
100
AcDbEntity
  8
1
100
AcDbPolyline
 90
        3
 70
     0
 43
0.0
 10
18111.97369970403
 20
4371.485007046476
 42
-0.2162335382726867
 10
18053.89878728727
 20
4612.436131657054
 42
-0.1298839697351506
 10
18110.18382132425
 20
4728.404790019522
 42
-0.1298839697351506
  0
LWPOLYLINE
  5
3A04
330
19
100
AcDbEntity
  8
1
100
AcDbPolyline
 90
        3
 70
     0
 43
0.0
 10
18209.78801879641
 20
4787.635294509081
 42
-0.1343280102757561
 10
18337.53630237723
 20
4801.999138718286
 42
-0.3163019945347412
 10
18506.14346363936
 20
4639.004927557354
 42
-0.3153658436290411
  0
LWPOLYLINE
  5
3A05
330
19
100
AcDbEntity
  8
1
100
AcDbPolyline
 90
        3
 70
     0
 43
0.0
 10
18206.08786299715
 20
4796.925549998636
 42
-0.1343314877425494
 10
18339.0844060907
 20
4811.878581335278
 42
-0.3163064660587118
 10
18515.96419721488
 20
4640.889918814261
 42
-0.3163064660587118
  0
LINE
  5
3A07
330
19
100
AcDbEntity
  8
2
100
AcDbLine
 10
18627.70978694451
 20
4582.635294509082
 30
0.0
 11
18033.46425159329
 21
4582.635294509082
 31
0.0
  0
CIRCLE
  5
3A0A
330
19
100
AcDbEntity
  8
CT
100
AcDbCircle
 10
18322.76627709695
 20
4582.635294509082
 30
0.0
 40
169.0
  0
LWPOLYLINE
  5
3A0B
330
19
100
AcDbEntity
  8
1
100
AcDbPolyline
 90
        3
 70
     0
 43
0.0
 10
18552.76627709695
 20
4257.635294509084
 10
18348.25410035826
 20
4257.635294509079
 42
-0.2269714708976296
 10
18112.05555736152
 20
4371.38147662491
  0
LWPOLYLINE
  5
3A0C
330
19
100
AcDbEntity
  8
1
100
AcDbPolyline
 90
        3
 70
     0
 43
0.0
 10
18572.76627709695
 20
4267.635294509084
 10
18348.26627709695
 20
4267.635294509079
 42
-0.2269607506063405
 10
18119.85874657309
 20
4377.635294509081
 42
-0.129402372482195
  0
ARC
  5
3A0D
330
19
100
AcDbEntity
  8
1
100
AcDbCircle
 10
18322.76627709695
 20
4582.635294509082
 30
0.0
 40
100.8
100
AcDbArc
 50
285.4276999999997
 51
180.0
  0
ARC
  5
3A0E
330
19
100
AcDbEntity
  8
1
100
AcDbCircle
 10
18322.76627709695
 20
4582.635294509082
 30
0.0
 40
100.8
100
AcDbArc
 50
180.0
 51
254.2028999999989
  0
LINE
  5
3A0F
330
19
100
AcDbEntity
  8
CT
100
AcDbLine
 10
18276.82589659124
 20
4411.183460342775
 30
0.0
 11
18280.93533237629
 21
4426.520083483043
 31
0.0
  0
LINE
  5
3A11
330
19
100
AcDbEntity
  8
CT
100
AcDbLine
 10
18368.70665760263
 20
4411.183460342773
 30
0.0
 11
18364.59722181757
 21
4426.52008348304
 31
0.0
  0
LWPOLYLINE
  5
3A12
330
19
100
AcDbEntity
  8
1
100
AcDbPolyline
 90
        3
 70
     0
 43
0.0
 10
18119.85874657309
 20
4377.635294509081
 42
-0.2162148363065116
 10
18063.7160658203
 20
4610.533111317133
 42
-0.1298622998199493
 10
18117.76627709694
 20
4721.885099501154
 42
-0.3153658436290411
  0
LINE
  5
3A14
330
19
100
AcDbEntity
  8
1
100
AcDbLine
 10
18376.21667709695
 20
4497.184994509082
 30
0.0
 11
18382.76627709695
 21
4490.635294509082
 31
0.0
  0
CIRCLE
  5
3A17
330
19
100
AcDbEntity
  8
1
100
AcDbCircle
 10
18486.00774173979
 20
4538.894875886749
 30
0.0
 40
4.0
  0
LINE
  5
3A18
330
19
100
AcDbEntity
  8
CT
100
AcDbLine
 10
18494.21811126324
 20
4536.694914003377
 30
0.0
 11
18478.88148812298
 21
4540.804349788433
 31
0.0
  0
CIRCLE
  5
3A19
330
19
100
AcDbEntity
  8
1
100
AcDbCircle
 10
18442.26732311746
 20
4463.13424848855
 30
0.0
 40
4.0
  0
LINE
  5
3A1A
330
19
100
AcDbEntity
  8
CT
100
AcDbLine
 10
18448.27773075755
 20
4457.123840848465
 30
0.0
 11
18437.05054340233
 21
4468.351028203676
 31
0.0
  0
LINE
  5
3A1B
330
19
100
AcDbEntity
  8
1
100
AcDbLine
 10
18420.76627709695
 20
4494.635294509082
 30
0.0
 11
18384.76627709695
 21
4494.635294509082
 31
0.0
  0
LINE
  5
3A1C
330
19
100
AcDbEntity
  8
1
100
AcDbLine
 10
18422.76627709695
 20
4482.635294509083
 30
0.0
 11
18382.76627709695
 21
4482.635294509083
 31
0.0
  0
LINE
  5
3A1D
330
19
100
AcDbEntity
  8
1
100
AcDbLine
 10
18421.87407709695
 20
4494.303394509081
 30
0.0
 11
18405.47327709695
 21
4524.965394509082
 31
0.0
  0
LINE
  5
3A1E
330
19
100
AcDbEntity
  8
1
100
AcDbLine
 10
18422.76627709695
 20
4482.635294509083
 30
0.0
 11
18422.76627709695
 21
4492.635294509081
 31
0.0
  0
ARC
  5
3A1F
330
19
100
AcDbEntity
  8
1
100
AcDbCircle
 10
18420.76627709695
 20
4492.635294509081
 30
0.0
 40
2.0
100
AcDbArc
 50
0.000000000000007
 51
90.0
  0
LINE
  5
3A20
330
19
100
AcDbEntity
  8
1
100
AcDbLine
 10
18408.76627709695
 20
4494.635294509082
 30
0.0
 11
18408.76627709695
 21
4482.635294509083
 31
0.0
  0
LINE
  5
3A21
330
19
100
AcDbEntity
  8
1
100
AcDbLine
 10
18396.76627709695
 20
4482.635294509083
 30
0.0
 11
18396.76627709695
 21
4494.635294509082
 31
0.0
  0
LINE
  5
3A22
330
19
100
AcDbEntity
  8
1
100
AcDbLine
 10
18382.76627709695
 20
4482.635294509083
 30
0.0
 11
18382.76627709695
 21
4492.635294509081
 31
0.0
  0
ARC
  5
3A23
330
19
100
AcDbEntity
  8
1
100
AcDbCircle
 10
18384.76627709695
 20
4492.635294509081
 30
0.0
 40
2.0
100
AcDbArc
 50
90.0
 51
180.0
  0
ARC
  5
3A24
330
19
100
AcDbEntity
  8
1
100
AcDbCircle
 10
18391.32267709695
 20
4497.635294509082
 30
0.0
 40
3.0
100
AcDbArc
 50
225.0
 51
270.0
  0
LINE
  5
3A25
330
19
100
AcDbEntity
  8
1
100
AcDbLine
 10
18382.96877709695
 20
4501.746494509081
 30
0.0
 11
18389.20127709695
 21
4495.513994509081
 31
0.0
  0
LINE
  5
3A26
330
19
100
AcDbEntity
  8
CT
100
AcDbLine
 10
18402.76627709695
 20
4496.015794509081
 30
0.0
 11
18402.76627709695
 21
4478.668694509081
 31
0.0
  0
LINE
  5
3A27
330
19
100
AcDbEntity
  8
1
100
AcDbLine
 10
18224.76627709695
 20
4494.635294509082
 30
0.0
 11
18260.76627709695
 21
4494.635294509082
 31
0.0
  0
LINE
  5
3A28
330
19
100
AcDbEntity
  8
1
100
AcDbLine
 10
18222.76627709695
 20
4482.635294509083
 30
0.0
 11
18262.76627709695
 21
4482.635294509083
 31
0.0
  0
CIRCLE
  5
3A29
330
19
100
AcDbEntity
  8
1
100
AcDbCircle
 10
18279.02585847461
 20
4419.393829866234
 30
0.0
 40
4.0
  0
ARC
  5
3A2A
330
19
100
AcDbEntity
  8
1
100
AcDbCircle
 10
18254.20987709695
 20
4497.635294509082
 30
0.0
 40
3.0
100
AcDbArc
 50
270.0
 51
315.0
  0
LINE
  5
3A2B
330
19
100
AcDbEntity
  8
1
100
AcDbLine
 10
18262.18417709695
 20
4501.366994509082
 30
0.0
 11
18256.33127709695
 21
4495.513994509081
 31
0.0
  0
LINE
  5
3A2C
330
19
100
AcDbEntity
  8
1
100
AcDbLine
 10
18262.76627709695
 20
4482.635294509083
 30
0.0
 11
18262.76627709695
 21
4492.635294509081
 31
0.0
  0
ARC
  5
3A2D
330
19
100
AcDbEntity
  8
1
100
AcDbCircle
 10
18260.76627709695
 20
4492.635294509081
 30
0.0
 40
2.0
100
AcDbArc
 50
0.000000000000007
 51
90.0
  0
LINE
  5
3A2E
330
19
100
AcDbEntity
  8
1
100
AcDbLine
 10
18269.01967709695
 20
4496.888794509081
 30
0.0
 11
18262.76627709695
 21
4490.635294509082
 31
0.0
  0
LINE
  5
3A2F
330
19
100
AcDbEntity
  8
1
100
AcDbLine
 10
18223.85707709695
 20
4494.674794509082
 30
0.0
 11
18239.97577709695
 21
4524.809094509081
 31
0.0
  0
LINE
  5
3A30
330
19
100
AcDbEntity
  8
1
100
AcDbLine
 10
18248.76627709695
 20
4482.635294509083
 30
0.0
 11
18248.76627709695
 21
4494.635294509082
 31
0.0
  0
LINE
  5
3A31
330
19
100
AcDbEntity
  8
1
100
AcDbLine
 10
18222.76627709695
 20
4482.635294509083
 30
0.0
 11
18222.76627709695
 21
4492.635294509081
 31
0.0
  0
LINE
  5
3A32
330
19
100
AcDbEntity
  8
1
100
AcDbLine
 10
18236.76627709695
 20
4494.635294509082
 30
0.0
 11
18236.76627709695
 21
4482.635294509083
 31
0.0
  0
ARC
  5
3A33
330
19
100
AcDbEntity
  8
1
100
AcDbCircle
 10
18224.76627709695
 20
4492.635294509081
 30
0.0
 40
2.0
100
AcDbArc
 50
90.0
 51
180.0
  0
LINE
  5
3A34
330
19
100
AcDbEntity
  8
CT
100
AcDbLine
 10
18242.76627709695
 20
4496.015794509081
 30
0.0
 11
18242.76627709695
 21
4478.668694509081
 31
0.0
  0
CIRCLE
  5
3A35
330
19
100
AcDbEntity
  8
1
100
AcDbCircle
 10
18203.26523107641
 20
4463.134248488562
 30
0.0
 40
4.0
  0
LINE
  5
3A36
330
19
100
AcDbEntity
  8
CT
100
AcDbLine
 10
18197.25482343633
 20
4457.123840848477
 30
0.0
 11
18208.48201079154
 21
4468.351028203688
 31
0.0
  0
CIRCLE
  5
3A37
330
19
100
AcDbEntity
  8
1
100
AcDbCircle
 10
18366.50669571926
 20
4419.393829866231
 30
0.0
 40
4.0
  0
LINE
  5
3A38
330
19
100
AcDbEntity
  8
1
100
AcDbLine
 10
18295.14857709695
 20
4485.635294509082
 30
0.0
 11
18350.03567709695
 21
4485.635294509082
 31
0.0
  0
LINE
  5
3A39
330
19
100
AcDbEntity
  8
FUTO
100
AcDbLine
 10
18571.56627709695
 20
4246.135294509085
 30
0.0
 11
18571.56627709694
 21
4604.135294509084
 31
0.0
  0
LINE
  5
3A3A
330
19
100
AcDbEntity
  8
FUTO
100
AcDbLine
 10
18572.76627709694
 20
4604.135294509085
 30
0.0
 11
18572.76627709695
 21
4246.135294509086
 31
0.0
  0
LINE
  5
3A3B
330
19
100
AcDbEntity
  8
1
100
AcDbLine
 10
18552.76627709694
 20
4285.035294509087
 30
0.0
 11
18552.76627709694
 21
4566.235294509086
 31
0.0
  0
LINE
  5
3A3C
330
19
100
AcDbEntity
  8
FUTO
100
AcDbLine
 10
18572.76627709695
 20
4246.135294509086
 30
0.0
 11
18571.56627709695
 21
4246.135294509085
 31
0.0
  0
LINE
  5
3A3D
330
19
100
AcDbEntity
  8
FUTO
100
AcDbLine
 10
18552.76627709695
 20
4257.635294509084
 30
0.0
 11
18552.76627709695
 21
4267.635294509084
 31
0.0
  0
ARC
  5
3A3E
330
19
100
AcDbEntity
  8
1
100
AcDbCircle
 10
18567.76627709695
 20
4268.635294509084
 30
0.0
 40
1.0
100
AcDbArc
 50
270.0
 51
53.13010235419508
  0
LINE
  5
3A3F
330
19
100
AcDbEntity
  8
1
100
AcDbLine
 10
18568.46627709695
 20
4269.335294509086
 30
0.0
 11
18552.76627709694
 21
4285.035294509086
 31
0.0
  0
CIRCLE
  5
3A41
330
19
100
AcDbEntity
  8
1
100
AcDbCircle
 10
18486.00774173979
 20
4626.375713131399
 30
0.0
 40
4.0
  0
LINE
  5
3A42
330
19
100
AcDbEntity
  8
CT
100
AcDbLine
 10
18494.21811126325
 20
4628.575675014771
 30
0.0
 11
18478.88148812298
 21
4624.466239229716
 31
0.0
  0
POINT
  5
3A44
330
19
100
AcDbEntity
  8
1
100
AcDbPoint
 10
18572.76627709696
 20
4425.135294509079
 30
0.0
  0
POINT
  5
3A45
330
19
100
AcDbEntity
  8
1
100
AcDbPoint
 10
18572.76627709696
 20
4425.135294509079
 30
0.0
  0
CIRCLE
  5
3A46
330
19
100
AcDbEntity
  8
1
100
AcDbCircle
 10
18442.26732311748
 20
4702.136340529601
 30
0.0
 40
4.0
  0
LINE
  5
3A47
330
19
100
AcDbEntity
  8
CT
100
AcDbLine
 10
18448.27773075756
 20
4708.146748169688
 30
0.0
 11
18437.05054340235
 21
4696.919560814474
 31
0.0
  0
LWPOLYLINE
  5
3A48
330
19
100
AcDbEntity
  8
1
100
AcDbPolyline
 90
        2
 70
     0
 43
0.0
 10
18527.76627709694
 20
4615.189709801487
 42
-0.0941668855597806
 10
18515.85487278859
 20
4641.395461599989
 42
-0.1987366729981355
  0
LWPOLYLINE
  5
3A49
330
19
100
AcDbEntity
  8
1
100
AcDbPolyline
 90
        2
 70
     0
 43
0.0
 10
18527.76627709694
 20
4599.490386162657
 42
-0.1315967463597435
 10
18506.13873734004
 20
4639.029724517096
 42
-0.2200089805681688
  0
LWPOLYLINE
  5
3A4A
330
19
100
AcDbEntity
  8
FUTO
100
AcDbPolyline
 90
        2
 70
     0
 43
0.0
 10
18572.76627709694
 20
4604.135294509085
 10
18571.56627709694
 20
4604.135294509085
  0
ARC
  5
3A4B
330
19
100
AcDbEntity
  8
1
100
AcDbCircle
 10
18567.76627709694
 20
4582.635294509084
 30
0.0
 40
1.0
100
AcDbArc
 50
306.8698976458049
 51
90.0
  0
POINT
  5
3A4C
330
19
100
AcDbEntity
  8
1
100
AcDbPoint
 10
18572.76627709694
 20
4582.635294509084
 30
0.0
  0
LINE
  5
3A4D
330
19
100
AcDbEntity
  8
1
100
AcDbLine
 10
18552.76627709694
 20
4583.635294509091
 30
0.0
 11
18552.76627709694
 21
4586.955104635921
 31
0.0
  0
LINE
  5
3A4E
330
19
100
AcDbEntity
  8
1
100
AcDbLine
 10
18572.76627709694
 20
4583.635294509085
 30
0.0
 11
18551.76627709694
 21
4583.635294509085
 31
0.0
  0
LINE
  5
3A4F
330
19
100
AcDbEntity
  8
1
100
AcDbLine
 10
18568.46627709694
 20
4581.935294509087
 30
0.0
 11
18552.76627709694
 21
4566.235294509088
 31
0.0
  0
LWPOLYLINE
  5
3A50
330
19
100
AcDbEntity
  8
1
100
AcDbPolyline
 90
        3
 70
     0
 43
0.0
 10
18551.76627709694
 20
4583.635294509085
 42
-0.101266720201501
 10
18546.26686661018
 20
4584.760649492694
 42
-0.0681921917069782
 10
18527.76627709694
 20
4599.490386162657
 42
-0.2200089805681688
  0
ARC
  5
3A51
330
19
100
AcDbEntity
  8
1
100
AcDbCircle
 10
18542.76627709694
 20
4586.955104635915
 30
0.0
 40
10.0
100
AcDbArc
 50
0.000000000000007
 51
56.5581282105191
  0
LWPOLYLINE
  5
3A52
330
19
100
AcDbEntity
  8
1
100
AcDbPolyline
 90
        2
 70
     0
 43
0.0
 10
18548.27718410038
 20
4595.299558123077
 42
-0.0934525219043797
 10
18527.76627709694
 20
4615.189709801487
 42
-0.1987366729981355
  0
CIRCLE
  5
3A53
330
19
100
AcDbEntity
  8
1
100
AcDbCircle
 10
18279.02585847462
 20
4745.876759151935
 30
0.0
 40
4.0
  0
LINE
  5
3A54
330
19
100
AcDbEntity
  8
CT
100
AcDbLine
 10
18276.82589659125
 20
4754.087128675392
 30
0.0
 11
18280.93533237631
 21
4738.750505535125
 31
0.0
  0
CIRCLE
  5
3A55
330
19
100
AcDbEntity
  8
1
100
AcDbCircle
 10
18203.26523107642
 20
4702.136340529612
 30
0.0
 40
4.0
  0
LINE
  5
3A56
330
19
100
AcDbEntity
  8
CT
100
AcDbLine
 10
18197.25482343634
 20
4708.146748169698
 30
0.0
 11
18208.48201079155
 21
4696.919560814486
 31
0.0
  0
CIRCLE
  5
3A57
330
19
100
AcDbEntity
  8
1
100
AcDbCircle
 10
18366.50669571927
 20
4745.876759151929
 30
0.0
 40
4.0
  0
LINE
  5
3A58
330
19
100
AcDbEntity
  8
CT
100
AcDbLine
 10
18368.70665760265
 20
4754.087128675387
 30
0.0
 11
18364.59722181759
 21
4738.75050553512
 31
0.0
  0
LWPOLYLINE
  5
3A59
330
19
100
AcDbEntity
  8
1
100
AcDbPolyline
 90
        2
 70
     0
 43
0.0
 10
18110.22529349038
 20
4728.452714459844
 42
-0.1174780416237576
 10
18206.01841804639
 20
4796.897589591048
 42
-0.1174780416237576
  0
CIRCLE
  5
3A5C
330
19
100
AcDbEntity
  8
1
100
AcDbCircle
 10
18159.52481245409
 20
4538.894875886764
 30
0.0
 40
4.0
  0
LINE
  5
3A5D
330
19
100
AcDbEntity
  8
CT
100
AcDbLine
 10
18151.31444293063
 20
4536.694914003392
 30
0.0
 11
18166.6510660709
 21
4540.804349788448
 31
0.0
  0
CIRCLE
  5
3A5F
330
19
100
AcDbEntity
  8
1
100
AcDbCircle
 10
18159.52481245409
 20
4626.375713131415
 30
0.0
 40
4.0
  0
LINE
  5
3A60
330
19
100
AcDbEntity
  8
CT
100
AcDbLine
 10
18151.31444293064
 20
4628.575675014786
 30
0.0
 11
18166.6510660709
 21
4624.466239229731
 31
0.0
  0
DIMENSION
  5
3F0E
330
19
100
AcDbEntity
  8
SP
100
AcDbDimension
  2
*D2
 10
18058.53499546311
 20
4942.923030691429
 30
0.0
 11
18190.65063628003
 21
4980.423030691429
 31
0.0
 70
    32
 71
     5
 42
-1.0
  3
GOD
100
AcDbAlignedDimension
 13
18322.76627709694
 23
4855.633820463165
 33
0.0
 14
18058.53499546311
 24
4555.964871696694
 34
0.0
100
AcDbRotatedDimension
1001
ACAD
1000
DSTYLE
1002
{
1070
   271
1070
     0
1002
}
  0
DIMENSION
  5
3F26
330
19
100
AcDbEntity
  8
SP
100
AcDbDimension
  2
*D3
 10
18572.76627709694
 20
4942.923030691429
 30
0.0
 11
18447.76627709694
 21
4980.423030691429
 31
0.0
 70
    32
 71
     5
 42
-1.0
  3
GOD
100
AcDbAlignedDimension
 13
18322.76627709694
 23
4855.633820463165
 33
0.0
 14
18572.76627709694
 24
4604.135294509085
 34
0.0
100
AcDbRotatedDimension
  0
DIMENSION
  5
3F3E
330
19
100
AcDbEntity
  8
SP
100
AcDbDimension
  2
*D4
 10
18705.81895078337
 20
4267.635294509084
 30
0.0
 11
18668.31895078337
 21
4425.135294509086
 31
0.0
 70
    32
 71
     5
 42
-1.0
  3
GOD
100
AcDbAlignedDimension
 13
18627.70978694451
 23
4582.635294509082
 33
0.0
 14
18572.76627709695
 24
4267.635294509084
 34
0.0
 50
90.0
100
AcDbRotatedDimension
  0
DIMENSION
  5
3F4B
330
19
100
AcDbEntity
  8
SP
100
AcDbDimension
  2
*D5
 10
18830.85656516783
 20
4582.635294509082
 30
0.0
 11
18793.35656516783
 21
4405.135294509086
 31
0.0
 70
    32
 71
     5
 42
-1.0
  3
GOD
100
AcDbAlignedDimension
 13
18572.76627709694
 23
4227.635294509082
 33
0.0
 14
18627.70978694451
 24
4582.635294509082
 34
0.0
 50
90.0
100
AcDbRotatedDimension
  0
DIMENSION
  5
3F58
330
19
100
AcDbEntity
  8
SP
100
AcDbDimension
  2
*D6
 10
18830.85656516783
 20
4804.922514625553
 30
0.0
 11
18793.35656516783
 21
4693.77890456732
 31
0.0
 70
    32
 71
     5
 42
-1.0
  3
GOD
100
AcDbAlignedDimension
 13
18627.70978694451
 23
4582.635294509082
 33
0.0
 14
18299.91257323213
 24
4804.922514625554
 34
0.0
 50
90.0
100
AcDbRotatedDimension
1001
ACAD
1000
DSTYLE
1002
{
1070
   271
1070
     0
1002
}
  0
LINE
  5
469C
330
19
100
AcDbEntity
  8
1
100
AcDbLine
 10
19772.61370464045
 20
4789.922514625554
 30
0.0
 11
19772.61370464045
 21
4603.813219867592
 31
0.0
  0
LINE
  5
469D
330
19
100
AcDbEntity
  8
1
100
AcDbLine
 10
19548.61370464045
 20
4789.922514625555
 30
0.0
 11
19548.61370464045
 21
4603.813219867591
 31
0.0
  0
LINE
  5
469E
330
19
100
AcDbEntity
  8
2
100
AcDbLine
 10
19660.61370464045
 20
4893.688195434024
 30
0.0
 11
19660.61370464045
 21
4144.209413630673
 31
0.0
1001
ACAD
1000
ASC_BOUNDS
1002
{
1070
    19
1005
0
1005
0
1002
}
  0
DIMENSION
  5
469F
330
19
100
AcDbEntity
  8
SP
100
AcDbDimension
  2
*D7
 10
19781.61370464045
 20
5014.922514625554
 30
0.0
 11
19721.11370464045
 21
5052.422514625554
 31
0.0
 70
    32
 71
     5
 42
121.0
  3
GOD
100
AcDbAlignedDimension
 13
19660.61370464045
 23
4979.89786701067
 33
0.0
 14
19781.61370464045
 24
4764.135294509078
 34
0.0
100
AcDbRotatedDimension
  0
LINE
  5
46A1
330
19
100
AcDbEntity
  8
1
100
AcDbLine
 10
19793.61370464045
 20
4271.135294509085
 30
0.0
 11
19793.61370464045
 21
4579.135294509085
 31
0.0
  0
LINE
  5
46A2
330
19
100
AcDbEntity
  8
1
100
AcDbLine
 10
19527.61370464045
 20
4271.135294509085
 30
0.0
 11
19527.61370464045
 21
4579.135294509085
 31
0.0
  0
LWPOLYLINE
  5
46A3
330
19
100
AcDbEntity
  8
1
100
AcDbPolyline
 90
        2
 70
     0
 43
0.0
 10
19535.41370464045
 20
4774.510955866619
 10
19535.41370464045
 20
4227.63529450908
  0
LWPOLYLINE
  5
46A5
330
19
100
AcDbEntity
  8
1
100
AcDbPolyline
 90
        3
 70
     0
 43
0.0
 10
19538.61370464045
 20
4777.95340534661
 10
19538.61370464045
 20
4582.63529450908
 10
19538.61370464045
 20
4227.63529450908
  0
LINE
  5
46A6
330
19
100
AcDbEntity
  8
FUTO
100
AcDbLine
 10
19358.41370464045
 20
4582.63529450908
 30
0.0
 11
19228.61370464045
 21
4230.83529450908
 31
0.0
  0
LINE
  5
46A7
330
19
100
AcDbEntity
  8
1
100
AcDbLine
 10
19538.61370464045
 20
4230.83529450908
 30
0.0
 11
19578.61370464045
 21
4230.83529450908
 31
0.0
  0
LINE
  5
46A8
330
19
100
AcDbEntity
  8
1
100
AcDbLine
 10
19228.61370464045
 20
4227.63529450908
 30
0.0
 11
19578.61370464045
 21
4227.63529450908
 31
0.0
  0
LINE
  5
46AA
330
19
100
AcDbEntity
  8
FUTO
100
AcDbLine
 10
19228.61370464045
 20
4230.83529450908
 30
0.0
 11
19535.41370464045
 21
4230.83529450908
 31
0.0
  0
LINE
  5
46AB
330
19
100
AcDbEntity
  8
FUTO
100
AcDbLine
 10
19228.61370464045
 20
4227.63529450908
 30
0.0
 11
19228.61370464045
 21
4230.83529450908
 31
0.0
  0
LWPOLYLINE
  5
46AC
330
19
100
AcDbEntity
  8
1
100
AcDbPolyline
 90
        2
 70
     0
 43
0.0
 10
19578.61370464045
 20
4230.83529450908
 10
19578.61370464045
 20
4227.635294509079
  0
LINE
  5
46AE
330
19
100
AcDbEntity
  8
FUTO
100
AcDbLine
 10
19552.61370464045
 20
4246.135294509086
 30
0.0
 11
19768.61370464045
 21
4246.135294509086
 31
0.0
  0
LINE
  5
46AF
330
19
100
AcDbEntity
  8
2
100
AcDbLine
 10
19811.62568877617
 20
4582.63529450908
 30
0.0
 11
19198.22558407387
 21
4582.63529450908
 31
0.0
  0
LINE
  5
46B0
330
19
100
AcDbEntity
  8
1
100
AcDbLine
 10
19239.61370464045
 20
4499.08239450908
 30
0.0
 11
19239.61370464045
 21
4666.21619450908
 31
0.0
  0
LINE
  5
46B1
330
19
100
AcDbEntity
  8
1
100
AcDbLine
 10
19329.61370464045
 20
4683.43529450908
 30
0.0
 11
19329.61370464045
 21
4532.63529450908
 31
0.0
  0
LINE
  5
46B2
330
19
100
AcDbEntity
  8
1
100
AcDbLine
 10
19289.61370464045
 20
4486.635294509079
 30
0.0
 11
19289.61370464045
 21
4681.93529450908
 31
0.0
  0
LINE
  5
46B3
330
19
100
AcDbEntity
  8
FUTO
100
AcDbLine
 10
19288.09058761648
 20
4391.773623687131
 30
0.0
 11
19240.49276382103
 21
4479.146787701621
 31
0.0
  0
LINE
  5
46B7
330
19
100
AcDbEntity
  8
1
100
AcDbLine
 10
19315.61370464045
 20
4523.635294509079
 30
0.0
 11
19329.61370464045
 21
4532.63529450908
 31
0.0
  0
LINE
  5
46B8
330
19
100
AcDbEntity
  8
1
100
AcDbLine
 10
19315.51420464045
 20
4497.63529450908
 30
0.0
 11
19327.0953947813
 21
4497.63529450908
 31
0.0
  0
LINE
  5
46B9
330
19
100
AcDbEntity
  8
1
100
AcDbLine
 10
19315.61370464045
 20
4485.635294509079
 30
0.0
 11
19290.61370464045
 21
4485.635294509079
 31
0.0
  0
ARC
  5
46BA
330
19
100
AcDbEntity
  8
1
100
AcDbCircle
 10
19290.61380464045
 20
4486.635294509079
 30
0.0
 40
1.000099999999999
100
AcDbArc
 50
180.0
 51
269.9965000000103
  0
LINE
  5
46BB
330
19
100
AcDbEntity
  8
1
100
AcDbLine
 10
19315.61370464045
 20
4485.635294509079
 30
0.0
 11
19315.61370464045
 21
4523.635294509079
 31
0.0
  0
ARC
  5
46BC
330
19
100
AcDbEntity
  8
1
100
AcDbCircle
 10
19241.41350464045
 20
4499.08219450908
 30
0.0
 40
1.7998
100
AcDbArc
 50
179.9961000000213
 51
257.5983000000071
  0
LINE
  5
46BD
330
19
100
AcDbEntity
  8
FUTO
100
AcDbLine
 10
19227.61370464045
 20
4453.946787701622
 30
0.0
 11
19230.01370464045
 21
4453.946787701622
 31
0.0
  0
ARC
  5
46BE
330
19
100
AcDbEntity
  8
FUTO
100
AcDbCircle
 10
19232.41370464045
 20
4476.74678770162
 30
0.0
 40
2.4
100
AcDbArc
 50
89.99999999999998
 51
180.0
  0
ARC
  5
46BF
330
19
100
AcDbEntity
  8
FUTO
100
AcDbCircle
 10
19232.41370464045
 20
4476.74678770162
 30
0.0
 40
4.8
100
AcDbArc
 50
89.99999999999998
 51
180.0
  0
LINE
  5
46C0
330
19
100
AcDbEntity
  8
FUTO
100
AcDbLine
 10
19230.01370464045
 20
4453.946787701622
 30
0.0
 11
19230.01370464045
 21
4476.74678770162
 31
0.0
  0
LINE
  5
46C1
330
19
100
AcDbEntity
  8
FUTO
100
AcDbLine
 10
19227.61370464045
 20
4453.946787701622
 30
0.0
 11
19227.61370464045
 21
4476.74678770162
 31
0.0
  0
LINE
  5
46C2
330
19
100
AcDbEntity
  8
FUTO
100
AcDbLine
 10
19232.41370464045
 20
4479.146787701621
 30
0.0
 11
19320.28329142801
 21
4479.146787701617
 31
0.0
  0
LINE
  5
46C3
330
19
100
AcDbEntity
  8
FUTO
100
AcDbLine
 10
19232.41370464045
 20
4481.546787701619
 30
0.0
 11
19321.16757311816
 21
4481.546787701619
 31
0.0
  0
LINE
  5
46C4
330
19
100
AcDbEntity
  8
1
100
AcDbLine
 10
19289.61370464045
 20
4486.635294509079
 30
0.0
 11
19241.02700464045
 21
4497.32439450908
 31
0.0
  0
LINE
  5
46C5
330
19
100
AcDbEntity
  8
1
100
AcDbLine
 10
19538.61370464045
 20
4777.95340534661
 30
0.0
 11
19357.0517214325
 21
4582.63529450908
 31
0.0
  0
LINE
  5
46C6
330
19
100
AcDbEntity
  8
1
100
AcDbLine
 10
19412.61370464045
 20
4682.635294509079
 30
0.0
 11
19337.27400464045
 21
4682.635294509079
 31
0.0
  0
LINE
  5
46C7
330
19
100
AcDbEntity
  8
1
100
AcDbLine
 10
19329.61370464045
 20
4683.43529450908
 30
0.0
 11
19291.11370464045
 21
4683.43529450908
 31
0.0
  0
ARC
  5
46C8
330
19
100
AcDbEntity
  8
1
100
AcDbCircle
 10
19291.11370464045
 20
4681.93529450908
 30
0.0
 40
1.5
100
AcDbArc
 50
89.99999999999998
 51
180.0
  0
LINE
  5
46C9
330
19
100
AcDbEntity
  8
1
100
AcDbLine
 10
19329.44540464045
 20
4669.07599450908
 30
0.0
 11
19337.27400464045
 21
4682.635294509079
 31
0.0
  0
ARC
  5
46CA
330
19
100
AcDbEntity
  8
1
100
AcDbCircle
 10
19241.41360464045
 20
4666.216294509079
 30
0.0
 40
1.7999
100
AcDbArc
 50
103.4933999999954
 51
180.0018999999831
  0
LINE
  5
46CB
330
19
100
AcDbEntity
  8
1
100
AcDbLine
 10
19289.61370464045
 20
4679.635294509079
 30
0.0
 11
19240.99360464045
 21
4667.966494509079
 31
0.0
  0
LINE
  5
46CD
330
19
100
AcDbEntity
  8
1
100
AcDbLine
 10
19412.61370464045
 20
4682.635294509079
 30
0.0
 11
19450.00878641198
 21
4682.635294509079
 31
0.0
  0
ARC
  5
46CE
330
19
100
AcDbEntity
  8
1
100
AcDbCircle
 10
19540.61370464045
 20
4764.135294509078
 30
0.0
 40
1.0
100
AcDbArc
 50
89.99999999999998
 51
180.0
  0
ARC
  5
46CF
330
19
100
AcDbEntity
  8
1
100
AcDbCircle
 10
19546.61370464045
 20
4766.135294509078
 30
0.0
 40
1.0
100
AcDbArc
 50
270.0
 51
0.0
  0
LINE
  5
46D0
330
19
100
AcDbEntity
  8
1
100
AcDbLine
 10
19546.61370464045
 20
4765.135294509079
 30
0.0
 11
19540.61370464045
 21
4765.135294509079
 31
0.0
  0
DIMENSION
  5
46D1
330
19
100
AcDbEntity
  8
SP
100
AcDbDimension
  2
*D8
 10
19929.88849648962
 20
4425.135294509079
 30
0.0
 11
19892.38849648962
 21
4582.635294509083
 31
0.0
 70
    32
 71
     5
 42
315.0
  3
GOD
100
AcDbAlignedDimension
 13
19781.61370464045
 23
4740.135294509079
 33
0.0
 14
19781.61370464045
 24
4425.135294509079
 34
0.0
 50
90.0
100
AcDbRotatedDimension
1001
ACAD
1000
DSTYLE
1002
{
1070
     3
1000
\U+03C6<>
1002
}
  0
ARC
  5
46DB
330
19
100
AcDbEntity
  8
FUTO
100
AcDbCircle
 10
19768.61370464045
 20
4271.135294509086
 30
0.0
 40
25.0
100
AcDbArc
 50
270.0
 51
359.9999999999979
  0
DIMENSION
  5
46E3
330
19
100
AcDbEntity
  8
SP
100
AcDbDimension
  2
*D9
 10
19772.61370464045
 20
4909.922514625554
 30
0.0
 11
19660.61370464045
 21
4947.422514625554
 31
0.0
 70
    32
 71
     5
 42
223.9999999999927
  3
GOD
100
AcDbAlignedDimension
 13
19548.61370464045
 23
4789.922514625555
 33
0.0
 14
19772.61370464045
 24
4789.922514625554
 34
0.0
100
AcDbRotatedDimension
  0
LINE
  5
46E4
330
19
100
AcDbEntity
  8
FUTO
100
AcDbLine
 10
19563.61370464045
 20
4804.922514625555
 30
0.0
 11
19757.61370464045
 21
4804.922514625554
 31
0.0
  0
LINE
  5
46E5
330
19
100
AcDbEntity
  8
FUTO
100
AcDbLine
 10
19552.61370464045
 20
4604.135294509085
 30
0.0
 11
19768.61370464045
 21
4604.135294509085
 31
0.0
  0
ARC
  5
46E7
330
19
100
AcDbEntity
  8
FUTO
100
AcDbCircle
 10
19552.61370464045
 20
4579.135294509085
 30
0.0
 40
25.0
100
AcDbArc
 50
90.0
 51
180.0
  0
ARC
  5
476B
330
19
100
AcDbEntity
  8
FUTO
100
AcDbCircle
 10
19563.61370464045
 20
4789.922514625555
 30
0.0
 40
15.0
100
AcDbArc
 50
90.0
 51
180.0000000000002
  0
ARC
  5
476C
330
19
100
AcDbEntity
  8
FUTO
100
AcDbCircle
 10
19757.61370464045
 20
4789.922514625554
 30
0.0
 40
15.0
100
AcDbArc
 50
0.0000000000010178
 51
89.99999999999971
  0
ARC
  5
483C
330
19
100
AcDbEntity
  8
FUTO
100
AcDbCircle
 10
19768.61370464045
 20
4579.135294509085
 30
0.0
 40
25.0
100
AcDbArc
 50
0.0
 51
90.0
  0
LINE
  5
483D
330
19
100
AcDbEntity
  8
FUTO
100
AcDbLine
 10
19562.61370464045
 20
4584.135294509084
 30
0.0
 11
19758.61370464045
 21
4584.135294509087
 31
0.0
  0
LINE
  5
483E
330
19
100
AcDbEntity
  8
FUTO
100
AcDbLine
 10
19562.61370464045
 20
4266.135294509086
 30
0.0
 11
19758.61370464045
 21
4266.135294509086
 31
0.0
  0
LINE
  5
483F
330
19
100
AcDbEntity
  8
1
100
AcDbLine
 10
19773.61370464045
 20
4281.135294509086
 30
0.0
 11
19773.61370464045
 21
4569.135294509087
 31
0.0
  0
LINE
  5
4840
330
19
100
AcDbEntity
  8
1
100
AcDbLine
 10
19547.61370464045
 20
4281.135294509086
 30
0.0
 11
19547.61370464045
 21
4569.135294509084
 31
0.0
  0
ARC
  5
4841
330
19
100
AcDbEntity
  8
FUTO
100
AcDbCircle
 10
19562.61370464045
 20
4281.135294509086
 30
0.0
 40
15.0
100
AcDbArc
 50
180.0
 51
270.0
  0
ARC
  5
4842
330
19
100
AcDbEntity
  8
FUTO
100
AcDbCircle
 10
19758.61370464045
 20
4281.135294509086
 30
0.0
 40
15.0
100
AcDbArc
 50
270.0
 51
0.0
  0
ARC
  5
4843
330
19
100
AcDbEntity
  8
FUTO
100
AcDbCircle
 10
19758.61370464045
 20
4569.135294509087
 30
0.0
 40
15.0
100
AcDbArc
 50
0.0
 51
90.0
  0
ARC
  5
4844
330
19
100
AcDbEntity
  8
FUTO
100
AcDbCircle
 10
19562.61370464045
 20
4569.135294509084
 30
0.0
 40
15.0
100
AcDbArc
 50
90.00000000000026
 51
180.0
  0
ARC
  5
4845
330
19
100
AcDbEntity
  8
FUTO
100
AcDbCircle
 10
19552.61370464045
 20
4271.135294509085
 30
0.0
 40
25.0
100
AcDbArc
 50
180.0
 51
270.0
  0
LINE
  5
4A2C
330
19
100
AcDbEntity
  8
HOSO
100
AcDbLine
 10
19552.00710292265
 20
4579.741896226883
 30
0.0
 11
19769.22030635825
 21
4270.528692791287
 31
0.0
  0
LINE
  5
4A2D
330
19
100
AcDbEntity
  8
HOSO
100
AcDbLine
 10
19769.22030635825
 20
4579.741896226884
 30
0.0
 11
19552.00710292265
 21
4270.528692791287
 31
0.0
  0
DIMENSION
  5
4D6D
330
19
100
AcDbEntity
  8
SP
100
AcDbDimension
  2
*D10
 10
18778.69918287051
 20
5934.362935220168
 30
0.0
 11
18741.19918287051
 21
6076.862935220173
 31
0.0
 70
    32
 71
     5
 42
-1.0
  3
GOD
100
AcDbAlignedDimension
 13
18572.76627709694
 23
5812.362935220167
 33
0.0
 14
18620.38782536343
 24
5934.362935220168
 34
0.0
 50
90.0
100
AcDbRotatedDimension
  0
LINE
  5
4D6E
330
19
100
AcDbEntity
  8
1
100
AcDbLine
 10
18572.76627709694
 20
6067.362935220167
 30
0.0
 11
18572.76627709694
 21
5801.362935220168
 31
0.0
  0
LINE
  5
4D6F
330
19
100
AcDbEntity
  8
1
100
AcDbLine
 10
18552.76627709694
 20
6028.562935220169
 30
0.0
 11
18552.76627709694
 21
5840.16293522017
 31
0.0
  0
LINE
  5
4D70
330
19
100
AcDbEntity
  8
1
100
AcDbLine
 10
18571.56627709695
 20
6067.362935220169
 30
0.0
 11
18571.56627709695
 21
5801.362935220168
 31
0.0
  0
LINE
  5
4D71
330
19
100
AcDbEntity
  8
2
100
AcDbLine
 10
18322.76627709695
 20
5448.182908544904
 30
0.0
 11
18322.76627709694
 21
6075.364287666135
 31
0.0
  0
LINE
  5
4D72
330
19
100
AcDbEntity
  8
1
100
AcDbLine
 10
18058.76627709694
 20
6032.362935220169
 30
0.0
 11
18058.76627709695
 21
5836.362935220169
 31
0.0
  0
DIMENSION
  5
4D73
330
19
100
AcDbEntity
  8
SP
100
AcDbDimension
  2
*D12
 10
18572.76627709694
 20
5303.271096717928
 30
0.0
 11
18322.76627709694
 21
5340.771096717928
 31
0.0
 70
    32
 71
     5
 42
-1.0
  3
GOD
100
AcDbAlignedDimension
 13
18072.76627709694
 23
5502.362935220169
 33
0.0
 14
18572.76627709694
 24
5502.362935220169
 34
0.0
100
AcDbRotatedDimension
  0
DIMENSION
  5
4D74
330
19
100
AcDbEntity
  8
SP
100
AcDbDimension
  2
*D11
 10
18778.69918287051
 20
5502.362935220169
 30
0.0
 11
18741.19918287051
 21
5657.362935220171
 31
0.0
 70
    32
 71
     5
 42
-1.0
  3
GOD
100
AcDbAlignedDimension
 13
18572.76627709694
 23
5812.362935220167
 33
0.0
 14
18572.76627709694
 24
5502.362935220169
 34
0.0
 50
90.0
100
AcDbRotatedDimension
  0
LINE
  5
4D75
330
19
100
AcDbEntity
  8
1
100
AcDbLine
 10
18222.76627709694
 20
5612.023235220171
 30
0.0
 11
18222.76627709694
 21
5762.702635220169
 31
0.0
  0
LINE
  5
4D76
330
19
100
AcDbEntity
  8
1
100
AcDbLine
 10
18422.76627709694
 20
5762.702635220169
 30
0.0
 11
18422.76627709694
 21
5612.023235220171
 31
0.0
  0
LINE
  5
4D7D
330
19
100
AcDbEntity
  8
1
100
AcDbLine
 10
18406.31917709694
 20
5514.362935220169
 30
0.0
 11
18239.18537709694
 21
5514.362935220169
 31
0.0
  0
LINE
  5
4D7E
330
19
100
AcDbEntity
  8
1
100
AcDbLine
 10
18406.31917709694
 20
5514.362935220169
 30
0.0
 11
18239.18537709694
 21
5514.362935220169
 31
0.0
  0
LINE
  5
4D7F
330
19
100
AcDbEntity
  8
1
100
AcDbLine
 10
18418.76627709694
 20
5564.362935220168
 30
0.0
 11
18223.46627709694
 21
5564.362935220168
 31
0.0
  0
LINE
  5
4D80
330
19
100
AcDbEntity
  8
1
100
AcDbLine
 10
18221.96627709694
 20
5604.362935220169
 30
0.0
 11
18423.56627709694
 21
5604.362935220169
 31
0.0
  0
LINE
  5
4D81
330
19
100
AcDbEntity
  8
1
100
AcDbLine
 10
18225.76627709694
 20
5564.362935220168
 30
0.0
 11
18237.43507709694
 21
5515.742835220169
 31
0.0
  0
ARC
  5
4D86
330
19
100
AcDbEntity
  8
1
100
AcDbCircle
 10
18239.18527709694
 20
5516.162835220169
 30
0.0
 40
1.7999
100
AcDbArc
 50
193.4933999999977
 51
270.0018999999994
  0
LINE
  5
4D88
330
19
100
AcDbEntity
  8
1
100
AcDbLine
 10
18221.96627709694
 20
5604.362935220169
 30
0.0
 11
18221.96627709694
 21
5565.862935220168
 31
0.0
  0
ARC
  5
4D89
330
19
100
AcDbEntity
  8
1
100
AcDbCircle
 10
18223.46627709694
 20
5565.862935220168
 30
0.0
 40
1.5
100
AcDbArc
 50
180.0
 51
270.0
  0
LINE
  5
4D8A
330
19
100
AcDbEntity
  8
1
100
AcDbLine
 10
18236.32557709694
 20
5604.19463522017
 30
0.0
 11
18222.76627709694
 21
5612.023235220171
 31
0.0
  0
LINE
  5
4D8B
330
19
100
AcDbEntity
  8
1
100
AcDbLine
 10
18419.76627709694
 20
5564.362935220168
 30
0.0
 11
18408.09747709694
 21
5515.742835220169
 31
0.0
  0
ARC
  5
4D8D
330
19
100
AcDbEntity
  8
1
100
AcDbCircle
 10
18406.34727709694
 20
5516.162835220169
 30
0.0
 40
1.7999
100
AcDbArc
 50
269.9981000000006
 51
346.5066000000023
  0
LINE
  5
4D92
330
19
100
AcDbEntity
  8
1
100
AcDbLine
 10
18423.56627709694
 20
5604.362935220169
 30
0.0
 11
18423.56627709694
 21
5565.862935220168
 31
0.0
  0
ARC
  5
4D93
330
19
100
AcDbEntity
  8
1
100
AcDbCircle
 10
18422.06627709694
 20
5565.862935220168
 30
0.0
 40
1.5
100
AcDbArc
 50
270.0
 51
0.0
  0
LINE
  5
4D94
330
19
100
AcDbEntity
  8
1
100
AcDbLine
 10
18409.20697709694
 20
5604.19463522017
 30
0.0
 11
18422.76627709694
 21
5612.023235220171
 31
0.0
  0
LINE
  5
4D96
330
19
100
AcDbEntity
  8
1
100
AcDbLine
 10
18407.76627709694
 20
5771.362935220168
 30
0.0
 11
18237.76627709694
 21
5771.362935220168
 31
0.0
  0
LINE
  5
4D97
330
19
100
AcDbEntity
  8
1
100
AcDbLine
 10
18240.76627709694
 20
5792.090614653588
 30
0.0
 11
18404.76627709694
 21
5792.090614653588
 31
0.0
  0
LINE
  5
4D98
330
19
100
AcDbEntity
  8
1
100
AcDbLine
 10
18359.76627709694
 20
5798.090614653588
 30
0.0
 11
18285.76627709694
 21
5798.090614653588
 31
0.0
  0
LWPOLYLINE
  5
4D99
330
19
100
AcDbEntity
  8
1
100
AcDbPolyline
 90
        2
 70
     0
 43
0.0
 10
18302.43597431712
 20
5813.362935220169
 10
18141.26627709694
 20
5813.362935220169
  0
LINE
  5
4D9A
330
19
100
AcDbEntity
  8
1
100
AcDbLine
 10
18322.76627709695
 20
5821.362935220173
 30
0.0
 11
18073.76627709695
 21
5821.362935220168
 31
0.0
  0
LINE
  5
4D9B
330
19
100
AcDbEntity
  8
2
100
AcDbLine
 10
17997.40314825103
 20
5934.362935220168
 30
0.0
 11
18620.38782536343
 21
5934.362935220168
 31
0.0
1001
ACAD
1000
ASC_BOUNDS
1002
{
1070
    19
1005
0
1005
0
1002
}
  0
ARC
  5
4D9C
330
19
100
AcDbEntity
  8
1
100
AcDbCircle
 10
18073.76627709695
 20
5836.362935220169
 30
0.0
 40
15.0
100
AcDbArc
 50
180.0
 51
270.0
  0
LINE
  5
4DA1
330
19
100
AcDbEntity
  8
1
100
AcDbLine
 10
18237.76627709694
 20
5771.362935220168
 30
0.0
 11
18237.76627709694
 21
5789.090614653588
 31
0.0
  0
LINE
  5
4DA2
330
19
100
AcDbEntity
  8
1
100
AcDbLine
 10
18237.76627709694
 20
5774.362935220168
 30
0.0
 11
18237.76627709694
 21
5771.362935220168
 31
0.0
  0
LINE
  5
4DA3
330
19
100
AcDbEntity
  8
1
100
AcDbLine
 10
18222.76627709694
 20
5762.702635220169
 30
0.0
 11
18237.76627709694
 21
5771.362935220168
 31
0.0
  0
ARC
  5
4DA4
330
19
100
AcDbEntity
  8
1
100
AcDbCircle
 10
18285.76617709694
 20
5795.090614653588
 30
0.0
 40
2.999899999999999
100
AcDbArc
 50
89.99879999999965
 51
180.0011999999971
  0
LINE
  5
4DA5
330
19
100
AcDbEntity
  8
1
100
AcDbLine
 10
18282.76627709694
 20
5792.090614653588
 30
0.0
 11
18282.76627709694
 21
5795.090614653588
 31
0.0
  0
ARC
  5
4DA6
330
19
100
AcDbEntity
  8
1
100
AcDbCircle
 10
18240.76617709694
 20
5789.090614653588
 30
0.0
 40
2.999899999999999
100
AcDbArc
 50
89.99879999999965
 51
180.0011999999971
  0
ARC
  5
4DA7
330
19
100
AcDbEntity
  8
1
100
AcDbCircle
 10
18143.11169690896
 20
5854.936788372067
 30
0.0
 40
48.65638419258441
100
AcDbArc
 50
303.5000336652645
 51
316.3683487231641
  0
ARC
  5
4DA8
330
19
100
AcDbEntity
  8
1
100
AcDbCircle
 10
18142.26627709695
 20
5815.362935220169
 30
0.0
 40
1.0
100
AcDbArc
 50
180.0
 51
270.0
  0
ARC
  5
4DA9
330
19
100
AcDbEntity
  8
1
100
AcDbCircle
 10
18141.26627709694
 20
5814.362935220168
 30
0.0
 40
1.0
100
AcDbArc
 50
180.0
 51
270.0
  0
LINE
  5
4DAA
330
19
100
AcDbEntity
  8
1
100
AcDbLine
 10
18141.26627709694
 20
5821.362935220167
 30
0.0
 11
18141.26627709694
 21
5815.362935220167
 31
0.0
  0
LINE
  5
4DAB
330
19
100
AcDbEntity
  8
1
100
AcDbLine
 10
18140.26627709695
 20
5820.362935220169
 30
0.0
 11
18140.26627709695
 21
5814.362935220167
 31
0.0
  0
ARC
  5
4DAC
330
19
100
AcDbEntity
  8
1
100
AcDbCircle
 10
18139.26627709695
 20
5820.362935220169
 30
0.0
 40
1.0
100
AcDbArc
 50
0.0
 51
90.0
  0
LINE
  5
4DAD
330
19
100
AcDbEntity
  8
1
100
AcDbLine
 10
18142.26627709695
 20
5814.362935220167
 30
0.0
 11
18169.96697875638
 21
5814.362935220168
 31
0.0
  0
LINE
  5
4DAE
330
19
100
AcDbEntity
  8
1
100
AcDbLine
 10
18571.56627709695
 20
5821.362935220168
 30
0.0
 11
18552.76627709694
 21
5840.16293522017
 31
0.0
  0
LINE
  5
4DB0
330
19
100
AcDbEntity
  8
1
100
AcDbLine
 10
18503.26627709694
 20
5814.362935220168
 30
0.0
 11
18475.56557543751
 21
5814.362935220168
 31
0.0
  0
LINE
  5
4DB1
330
19
100
AcDbEntity
  8
1
100
AcDbLine
 10
18572.76627709694
 20
5821.362935220168
 30
0.0
 11
18322.76627709695
 21
5821.362935220168
 31
0.0
  0
LWPOLYLINE
  5
4DB2
330
19
100
AcDbEntity
  8
1
100
AcDbPolyline
 90
        3
 70
     0
 43
0.0
 10
18504.26627709694
 20
5813.362935220169
 10
18322.76627709694
 20
5813.362935220169
 10
18302.43597431712
 20
5813.362935220169
  0
LINE
  5
4DB3
330
19
100
AcDbEntity
  8
1
100
AcDbLine
 10
18337.36617709694
 20
5798.090614653588
 30
0.0
 11
18337.36617709694
 21
5821.362935220168
 31
0.0
  0
LINE
  5
4DB4
330
19
100
AcDbEntity
  8
1
100
AcDbLine
 10
18308.16627709694
 20
5798.090614653588
 30
0.0
 11
18308.16627709694
 21
5821.362935220173
 31
0.0
  0
LINE
  5
4DB5
330
19
100
AcDbEntity
  8
1
100
AcDbLine
 10
18407.76627709694
 20
5771.362935220168
 30
0.0
 11
18407.76627709694
 21
5789.090614653588
 31
0.0
  0
LINE
  5
4DB6
330
19
100
AcDbEntity
  8
1
100
AcDbLine
 10
18407.76627709694
 20
5774.362935220168
 30
0.0
 11
18407.76627709694
 21
5771.362935220168
 31
0.0
  0
LINE
  5
4DB7
330
19
100
AcDbEntity
  8
1
100
AcDbLine
 10
18422.76627709694
 20
5762.702635220169
 30
0.0
 11
18407.76627709694
 21
5771.362935220168
 31
0.0
  0
ARC
  5
4DB8
330
19
100
AcDbEntity
  8
1
100
AcDbCircle
 10
18502.42085728493
 20
5854.936788372067
 30
0.0
 40
48.65638419258441
100
AcDbArc
 50
223.6316512768359
 51
236.4999663347355
  0
ARC
  5
4DB9
330
19
100
AcDbEntity
  8
1
100
AcDbCircle
 10
18404.76637709694
 20
5789.090614653588
 30
0.0
 40
2.999899999999999
100
AcDbArc
 50
359.9988000000029
 51
90.00120000000034
  0
LINE
  5
4DBA
330
19
100
AcDbEntity
  8
1
100
AcDbLine
 10
18362.76627709694
 20
5792.090614653588
 30
0.0
 11
18362.76627709694
 21
5795.090614653588
 31
0.0
  0
ARC
  5
4DBB
330
19
100
AcDbEntity
  8
1
100
AcDbCircle
 10
18359.76627709694
 20
5795.090614653588
 30
0.0
 40
2.999899999999999
100
AcDbArc
 50
359.9988000000029
 51
90.00120000000034
  0
LINE
  5
4DBD
330
19
100
AcDbEntity
  8
1
100
AcDbLine
 10
18572.76627709694
 20
5801.362935220168
 30
0.0
 11
18571.56627709695
 21
5801.362935220168
 31
0.0
1001
ACAD
1000
ASC_BOUNDS
1002
{
1070
    19
1002
}
  0
ARC
  5
4DC1
330
19
100
AcDbEntity
  8
1
100
AcDbCircle
 10
18506.26627709694
 20
5820.362935220169
 30
0.0
 40
1.0
100
AcDbArc
 50
90.0
 51
180.0
  0
LINE
  5
4DC2
330
19
100
AcDbEntity
  8
1
100
AcDbLine
 10
18505.26627709694
 20
5820.362935220169
 30
0.0
 11
18505.26627709694
 21
5814.362935220168
 31
0.0
  0
LINE
  5
4DC3
330
19
100
AcDbEntity
  8
1
100
AcDbLine
 10
18504.26627709694
 20
5821.362935220168
 30
0.0
 11
18504.26627709694
 21
5815.362935220169
 31
0.0
  0
ARC
  5
4DC4
330
19
100
AcDbEntity
  8
1
100
AcDbCircle
 10
18504.26627709694
 20
5814.362935220168
 30
0.0
 40
1.0
100
AcDbArc
 50
270.0
 51
0.0
  0
ARC
  5
4DC5
330
19
100
AcDbEntity
  8
1
100
AcDbCircle
 10
18503.26627709694
 20
5815.362935220169
 30
0.0
 40
1.0
100
AcDbArc
 50
270.0
 51
0.0
  0
ARC
  5
4DC6
330
19
100
AcDbEntity
  8
1
100
AcDbCircle
 10
18504.26627709694
 20
5814.362935220168
 30
0.0
 40
1.0
100
AcDbArc
 50
270.0
 51
0.0
  0
LWPOLYLINE
  5
4DC7
330
19
100
AcDbEntity
  8
1
100
AcDbPolyline
 90
        2
 70
     0
 43
0.0
 10
18302.43597431712
 20
6055.362935220169
 10
18141.26627709694
 20
6055.362935220169
  0
LINE
  5
4DC8
330
19
100
AcDbEntity
  8
1
100
AcDbLine
 10
18322.76627709694
 20
6047.362935220167
 30
0.0
 11
18073.76627709694
 21
6047.362935220169
 31
0.0
  0
ARC
  5
4DC9
330
19
100
AcDbEntity
  8
1
100
AcDbCircle
 10
18073.76627709694
 20
6032.362935220169
 30
0.0
 40
15.0
100
AcDbArc
 50
90.0
 51
180.0
  0
LINE
  5
4DCA
330
19
100
AcDbEntity
  8
1
100
AcDbLine
 10
18142.26627709695
 20
6054.36293522017
 30
0.0
 11
18169.96697875638
 21
6054.362935220169
 31
0.0
  0
ARC
  5
4DCB
330
19
100
AcDbEntity
  8
1
100
AcDbCircle
 10
18139.26627709695
 20
6048.362935220168
 30
0.0
 40
1.0
100
AcDbArc
 50
270.0
 51
0.0
  0
LINE
  5
4DCC
330
19
100
AcDbEntity
  8
1
100
AcDbLine
 10
18140.26627709695
 20
6048.362935220168
 30
0.0
 11
18140.26627709695
 21
6054.36293522017
 31
0.0
  0
LINE
  5
4DCD
330
19
100
AcDbEntity
  8
1
100
AcDbLine
 10
18141.26627709694
 20
6047.362935220171
 30
0.0
 11
18141.26627709694
 21
6053.362935220171
 31
0.0
  0
ARC
  5
4DCE
330
19
100
AcDbEntity
  8
1
100
AcDbCircle
 10
18141.26627709694
 20
6054.362935220169
 30
0.0
 40
1.0
100
AcDbArc
 50
90.00000000000003
 51
180.0
  0
ARC
  5
4DCF
330
19
100
AcDbEntity
  8
1
100
AcDbCircle
 10
18142.26627709695
 20
6053.362935220168
 30
0.0
 40
1.0
100
AcDbArc
 50
90.00000000000003
 51
180.0
  0
ARC
  5
4DD0
330
19
100
AcDbEntity
  8
1
100
AcDbCircle
 10
18143.11169690896
 20
6013.789082068271
 30
0.0
 40
48.65638419258441
100
AcDbArc
 50
43.63165127683587
 51
56.49996633473549
  0
LWPOLYLINE
  5
4DD1
330
19
100
AcDbEntity
  8
1
100
AcDbPolyline
 90
        3
 70
     0
 43
0.0
 10
18504.26627709694
 20
6055.362935220169
 10
18322.76627709694
 20
6055.362935220169
 10
18302.43597431712
 20
6055.362935220169
  0
LINE
  5
4DD2
330
19
100
AcDbEntity
  8
1
100
AcDbLine
 10
18503.26627709694
 20
6054.362935220169
 30
0.0
 11
18475.56557543751
 21
6054.362935220169
 31
0.0
  0
LINE
  5
4DD3
330
19
100
AcDbEntity
  8
1
100
AcDbLine
 10
18572.76627709694
 20
6047.362935220169
 30
0.0
 11
18322.76627709694
 21
6047.362935220169
 31
0.0
  0
ARC
  5
4DD4
330
19
100
AcDbEntity
  8
1
100
AcDbCircle
 10
18502.42085728493
 20
6013.789082068271
 30
0.0
 40
48.65638419258441
100
AcDbArc
 50
123.5000336652645
 51
136.3683487231641
  0
ARC
  5
4DD5
330
19
100
AcDbEntity
  8
1
100
AcDbCircle
 10
18504.26627709694
 20
6054.362935220169
 30
0.0
 40
1.0
100
AcDbArc
 50
0.0
 51
90.00000000000003
  0
ARC
  5
4DD6
330
19
100
AcDbEntity
  8
1
100
AcDbCircle
 10
18503.26627709694
 20
6053.362935220168
 30
0.0
 40
1.0
100
AcDbArc
 50
0.0
 51
90.00000000000003
  0
ARC
  5
4DD7
330
19
100
AcDbEntity
  8
1
100
AcDbCircle
 10
18504.26627709694
 20
6054.362935220169
 30
0.0
 40
1.0
100
AcDbArc
 50
0.0
 51
90.00000000000003
  0
LINE
  5
4DD8
330
19
100
AcDbEntity
  8
1
100
AcDbLine
 10
18504.26627709694
 20
6047.362935220169
 30
0.0
 11
18504.26627709694
 21
6053.362935220168
 31
0.0
  0
LINE
  5
4DD9
330
19
100
AcDbEntity
  8
1
100
AcDbLine
 10
18505.26627709694
 20
6048.362935220168
 30
0.0
 11
18505.26627709694
 21
6054.362935220169
 31
0.0
  0
ARC
  5
4DDA
330
19
100
AcDbEntity
  8
1
100
AcDbCircle
 10
18506.26627709694
 20
6048.362935220168
 30
0.0
 40
1.0
100
AcDbArc
 50
180.0
 51
270.0
  0
LINE
  5
4DDB
330
19
100
AcDbEntity
  8
1
100
AcDbLine
 10
18572.76627709694
 20
6067.362935220169
 30
0.0
 11
18571.56627709695
 21
6067.362935220169
 31
0.0
1001
ACAD
1000
ASC_BOUNDS
1002
{
1070
    19
1002
}
  0
LINE
  5
4DDC
330
19
100
AcDbEntity
  8
1
100
AcDbLine
 10
18571.56627709695
 20
6047.362935220169
 30
0.0
 11
18552.76627709694
 21
6028.562935220169
 31
0.0
  0
LINE
  5
5842
330
19
100
AcDbEntity
  8
FUTO
100
AcDbLine
 10
18072.76627709696
 20
4227.635294509082
 30
0.0
 11
18572.76627709694
 21
4227.635294509082
 31
0.0
  0
LINE
  5
5843
330
19
100
AcDbEntity
  8
1
100
AcDbLine
 10
18072.76627709696
 20
4229.935294509082
 30
0.0
 11
18110.46627709696
 21
4229.935294509082
 31
0.0
  0
LINE
  5
5844
330
19
100
AcDbEntity
  8
1
100
AcDbLine
 10
18072.76627709696
 20
4229.935294509082
 30
0.0
 11
18072.76627709696
 21
4227.635294509082
 31
0.0
  0
LINE
  5
5845
330
19
100
AcDbEntity
  8
2
100
AcDbLine
 10
18090.76627709695
 20
4145.288408389977
 30
0.0
 11
18090.76627709695
 21
4241.139306172914
 31
0.0
  0
LINE
  5
5846
330
19
100
AcDbEntity
  8
1
100
AcDbLine
 10
18572.76627709694
 20
4229.935294509082
 30
0.0
 11
18535.06627709694
 21
4229.935294509082
 31
0.0
  0
LINE
  5
5847
330
19
100
AcDbEntity
  8
1
100
AcDbLine
 10
18572.76627709694
 20
4229.935294509082
 30
0.0
 11
18572.76627709694
 21
4227.635294509082
 31
0.0
  0
LINE
  5
5848
330
19
100
AcDbEntity
  8
2
100
AcDbLine
 10
18554.76627709695
 20
4145.288408389977
 30
0.0
 11
18554.76627709695
 21
4241.139306172914
 31
0.0
  0
LINE
  5
5849
330
19
100
AcDbEntity
  8
1
100
AcDbLine
 10
18535.06627709694
 20
4665.735294509082
 30
0.0
 11
18535.06627709694
 21
4229.935294509079
 31
0.0
  0
LINE
  5
584A
330
19
100
AcDbEntity
  8
1
100
AcDbLine
 10
18532.76627709694
 20
4667.55761666771
 30
0.0
 11
18532.76627709694
 21
4227.635294509082
 31
0.0
  0
LINE
  5
584B
330
19
100
AcDbEntity
  8
1
100
AcDbLine
 10
18492.76627709694
 20
4482.635294509083
 30
0.0
 11
18492.76627709694
 21
4282.635294509082
 31
0.0
  0
LINE
  5
584C
330
19
100
AcDbEntity
  8
1
100
AcDbLine
 10
18532.76627709694
 20
4282.635294509082
 30
0.0
 11
18492.76627709694
 21
4282.635294509082
 31
0.0
  0
LINE
  5
584D
330
19
100
AcDbEntity
  8
1
100
AcDbLine
 10
18112.76627709696
 20
4667.55761666771
 30
0.0
 11
18112.76627709696
 21
4227.635294509082
 31
0.0
  0
LINE
  5
584E
330
19
100
AcDbEntity
  8
1
100
AcDbLine
 10
18110.46627709696
 20
4665.735294509082
 30
0.0
 11
18110.46627709696
 21
4229.935294509079
 31
0.0
  0
LINE
  5
584F
330
19
100
AcDbEntity
  8
1
100
AcDbLine
 10
18152.76627709696
 20
4482.635294509083
 30
0.0
 11
18152.76627709696
 21
4282.635294509082
 31
0.0
  0
LINE
  5
5850
330
19
100
AcDbEntity
  8
1
100
AcDbLine
 10
18112.76627709696
 20
4282.635294509082
 30
0.0
 11
18152.76627709696
 21
4282.635294509082
 31
0.0
  0
LINE
  5
5851
330
19
100
AcDbEntity
  8
1
100
AcDbLine
 10
18112.76627709696
 20
4482.635294509083
 30
0.0
 11
18532.76627709694
 21
4482.63529450908
 31
0.0
  0
LINE
  5
5852
330
19
100
AcDbEntity
  8
1
100
AcDbLine
 10
18152.76627709696
 20
4442.635294509082
 30
0.0
 11
18322.76627709695
 21
4442.635294509082
 31
0.0
  0
LINE
  5
5853
330
19
100
AcDbEntity
  8
FUTO
100
AcDbLine
 10
18112.76627709696
 20
4482.635294509083
 30
0.0
 11
18152.76627709696
 21
4442.635294509082
 31
0.0
  0
LINE
  5
5854
330
19
100
AcDbEntity
  8
FUTO
100
AcDbLine
 10
18532.76627709694
 20
4482.635294509083
 30
0.0
 11
18492.76627709694
 21
4442.635294509082
 31
0.0
  0
LINE
  5
5855
330
19
100
AcDbEntity
  8
1
100
AcDbLine
 10
18492.76627709694
 20
4442.635294509082
 30
0.0
 11
18322.76627709695
 21
4442.635294509082
 31
0.0
  0
LINE
  5
5856
330
19
100
AcDbEntity
  8
1
100
AcDbLine
 10
18412.76627709694
 20
4787.635294509082
 30
0.0
 11
18535.06627709694
 21
4665.735294509082
 31
0.0
  0
LINE
  5
5857
330
19
100
AcDbEntity
  8
1
100
AcDbLine
 10
18232.76627709694
 20
4787.635294509082
 30
0.0
 11
18110.46627709696
 21
4665.735294509082
 31
0.0
  0
LINE
  5
5858
330
19
100
AcDbEntity
  8
1
100
AcDbLine
 10
18232.76627709694
 20
4787.635294509084
 30
0.0
 11
18412.76627709694
 21
4787.635294509082
 31
0.0
  0
LINE
  5
599C
330
19
100
AcDbEntity
  8
1
100
AcDbLine
 10
18072.76627709694
 20
5502.362935220169
 30
0.0
 11
18072.76627709694
 21
5812.362935220179
 31
0.0
  0
LINE
  5
599D
330
19
100
AcDbEntity
  8
1
100
AcDbLine
 10
18112.76627709694
 20
5502.362935220169
 30
0.0
 11
18112.76627709694
 21
5812.362935220179
 31
0.0
  0
LINE
  5
599E
330
19
100
AcDbEntity
  8
1
100
AcDbLine
 10
18112.76627709694
 20
5812.362935220179
 30
0.0
 11
18072.76627709694
 21
5812.362935220179
 31
0.0
  0
LINE
  5
599F
330
19
100
AcDbEntity
  8
CT
100
AcDbLine
 10
18075.0739889003
 20
5782.362935220169
 30
0.0
 11
18105.76627709694
 21
5782.362935220169
 31
0.0
  0
CIRCLE
  5
59A0
330
19
100
AcDbEntity
  8
1
100
AcDbCircle
 10
18090.76627709694
 20
5782.362935220169
 30
0.0
 40
6.0
  0
LINE
  5
59A1
330
19
100
AcDbEntity
  8
CT
100
AcDbLine
 10
18090.76627709694
 20
5798.497643102717
 30
0.0
 11
18090.76627709694
 21
5762.830563598277
 31
0.0
  0
LWPOLYLINE
  5
59A2
330
19
100
AcDbEntity
  8
1
100
AcDbPolyline
 90
        2
 70
     0
 43
0.0
 10
18112.76627709694
 20
5802.866971870885
 10
18308.16627709694
 20
5802.866971870885
  0
LWPOLYLINE
  5
59A3
330
19
100
AcDbEntity
  8
1
100
AcDbPolyline
 90
        2
 70
     0
 43
0.0
 10
18112.76627709694
 20
5550.76293522017
 10
18229.03027038367
 20
5550.76293522017
  0
LINE
  5
59A4
330
19
100
AcDbEntity
  8
CT
100
AcDbLine
 10
18090.76627709694
 20
5548.497643102717
 30
0.0
 11
18090.76627709694
 21
5512.830563598277
 31
0.0
  0
LINE
  5
59A5
330
19
100
AcDbEntity
  8
1
100
AcDbLine
 10
18072.76627709694
 20
5502.362935220169
 30
0.0
 11
18112.76627709694
 21
5502.362935220169
 31
0.0
  0
CIRCLE
  5
59A6
330
19
100
AcDbEntity
  8
1
100
AcDbCircle
 10
18090.76627709694
 20
5532.362935220169
 30
0.0
 40
6.0
  0
LINE
  5
59A7
330
19
100
AcDbEntity
  8
CT
100
AcDbLine
 10
18075.0739889003
 20
5532.362935220169
 30
0.0
 11
18105.76627709694
 21
5532.362935220169
 31
0.0
  0
LWPOLYLINE
  5
59A8
330
19
100
AcDbEntity
  8
1
100
AcDbPolyline
 90
        2
 70
     0
 43
0.0
 10
18416.50228381021
 20
5550.76293522017
 10
18532.76627709694
 20
5550.762935220168
  0
LINE
  5
59A9
330
19
100
AcDbEntity
  8
CT
100
AcDbLine
 10
18554.76627709694
 20
5548.497643102717
 30
0.0
 11
18554.76627709694
 21
5512.830563598277
 31
0.0
  0
LINE
  5
59AA
330
19
100
AcDbEntity
  8
1
100
AcDbLine
 10
18532.76627709694
 20
5502.362935220173
 30
0.0
 11
18572.76627709694
 21
5502.362935220169
 31
0.0
  0
LINE
  5
59AB
330
19
100
AcDbEntity
  8
CT
100
AcDbLine
 10
18570.45856529358
 20
5532.362935220169
 30
0.0
 11
18539.76627709694
 21
5532.362935220169
 31
0.0
  0
CIRCLE
  5
59AC
330
19
100
AcDbEntity
  8
1
100
AcDbCircle
 10
18554.76627709694
 20
5532.362935220169
 30
0.0
 40
6.0
  0
LINE
  5
59AD
330
19
100
AcDbEntity
  8
1
100
AcDbLine
 10
18572.76627709694
 20
5502.362935220169
 30
0.0
 11
18572.76627709694
 21
5812.362935220169
 31
0.0
  0
LINE
  5
59AE
330
19
100
AcDbEntity
  8
1
100
AcDbLine
 10
18532.76627709694
 20
5502.362935220169
 30
0.0
 11
18532.76627709694
 21
5812.362935220169
 31
0.0
  0
CIRCLE
  5
59AF
330
19
100
AcDbEntity
  8
1
100
AcDbCircle
 10
18554.76627709694
 20
5782.362935220169
 30
0.0
 40
6.0
  0
LINE
  5
59B0
330
19
100
AcDbEntity
  8
CT
100
AcDbLine
 10
18554.76627709694
 20
5798.497643102717
 30
0.0
 11
18554.76627709694
 21
5762.830563598277
 31
0.0
  0
LINE
  5
59B1
330
19
100
AcDbEntity
  8
FUTO
100
AcDbLine
 10
18532.76627709694
 20
5812.362935220169
 30
0.0
 11
18572.76627709694
 21
5812.362935220169
 31
0.0
  0
LWPOLYLINE
  5
59B2
330
19
100
AcDbEntity
  8
1
100
AcDbPolyline
 90
        2
 70
     0
 43
0.0
 10
18337.36617709694
 20
5802.866971870885
 10
18532.76627709694
 20
5802.866971870885
  0
LINE
  5
59B3
330
19
100
AcDbEntity
  8
CT
100
AcDbLine
 10
18570.45856529358
 20
5782.362935220169
 30
0.0
 11
18539.76627709694
 21
5782.362935220169
 31
0.0
  0
DIMENSION
  5
5E6E
330
19
100
AcDbEntity
  8
SP
100
AcDbDimension
  2
*D14
 10
18572.76627709695
 20
3967.60821575955
 30
0.0
 11
18447.76627709695
 21
4005.10821575955
 31
0.0
 70
    32
 71
     5
 42
-1.0
  3
GOD
100
AcDbAlignedDimension
 13
18322.76627709696
 23
4057.265404136124
 33
0.0
 14
18572.76627709695
 24
4092.635294509082
 34
0.0
100
AcDbRotatedDimension
  0
LINE
  5
5E6F
330
19
100
AcDbEntity
  8
FUTO
100
AcDbLine
 10
18112.76627709696
 20
4157.635294509082
 30
0.0
 11
18532.76627709695
 21
4157.635294509082
 31
0.0
  0
LINE
  5
5E70
330
19
100
AcDbEntity
  8
FUTO
100
AcDbLine
 10
18112.76627709696
 20
4117.635294509081
 30
0.0
 11
18532.76627709695
 21
4117.635294509081
 31
0.0
  0
DIMENSION
  5
5E71
330
19
100
AcDbEntity
  8
SP
100
AcDbDimension
  2
*D15
 10
18572.76627709695
 20
3838.575721260112
 30
0.0
 11
18322.76627709696
 21
3876.075721260111
 31
0.0
 70
    32
 71
     5
 42
-1.0
  3
GOD
100
AcDbAlignedDimension
 13
18072.76627709696
 23
4092.635294509082
 33
0.0
 14
18572.76627709695
 24
4092.635294509082
 34
0.0
100
AcDbRotatedDimension
  0
DIMENSION
  5
5E72
330
19
100
AcDbEntity
  8
SP
100
AcDbDimension
  2
*D16
 10
18072.76627709696
 20
3967.60821575955
 30
0.0
 11
18197.76627709696
 21
4005.10821575955
 31
0.0
 70
    32
 71
     5
 42
-1.0
  3
GOD
100
AcDbAlignedDimension
 13
18322.76627709696
 23
4057.265404136124
 33
0.0
 14
18072.76627709696
 24
4092.635294509082
 34
0.0
100
AcDbRotatedDimension
  0
LINE
  5
5E73
330
19
100
AcDbEntity
  8
FUTO
100
AcDbLine
 10
18112.76627709696
 20
4157.635294509082
 30
0.0
 11
18112.76627709696
 21
4092.635294509082
 31
0.0
  0
LINE
  5
5E74
330
19
100
AcDbEntity
  8
FUTO
100
AcDbLine
 10
18109.56627709696
 20
4154.435294509082
 30
0.0
 11
18109.56627709696
 21
4095.835294509083
 31
0.0
  0
LINE
  5
5E75
330
19
100
AcDbEntity
  8
FUTO
100
AcDbLine
 10
18072.76627709696
 20
4157.635294509082
 30
0.0
 11
18072.76627709696
 21
4154.435294509082
 31
0.0
  0
LINE
  5
5E76
330
19
100
AcDbEntity
  8
FUTO
100
AcDbLine
 10
18072.76627709696
 20
4095.835294509083
 30
0.0
 11
18072.76627709696
 21
4092.635294509082
 31
0.0
  0
LINE
  5
5E77
330
19
100
AcDbEntity
  8
FUTO
100
AcDbLine
 10
18072.76627709696
 20
4157.635294509082
 30
0.0
 11
18112.76627709696
 21
4157.635294509082
 31
0.0
  0
LINE
  5
5E78
330
19
100
AcDbEntity
  8
FUTO
100
AcDbLine
 10
18072.76627709696
 20
4092.635294509082
 30
0.0
 11
18112.76627709696
 21
4092.635294509082
 31
0.0
  0
LINE
  5
5E79
330
19
100
AcDbEntity
  8
FUTO
100
AcDbLine
 10
18072.76627709696
 20
4154.435294509082
 30
0.0
 11
18109.56627709696
 21
4154.435294509082
 31
0.0
  0
LINE
  5
5E7A
330
19
100
AcDbEntity
  8
FUTO
100
AcDbLine
 10
18072.76627709696
 20
4095.835294509082
 30
0.0
 11
18109.56627709696
 21
4095.835294509083
 31
0.0
  0
LINE
  5
5E7B
330
19
100
AcDbEntity
  8
FUTO
100
AcDbLine
 10
18572.76627709695
 20
4095.835294509082
 30
0.0
 11
18535.96627709695
 21
4095.835294509083
 31
0.0
  0
LINE
  5
5E7C
330
19
100
AcDbEntity
  8
FUTO
100
AcDbLine
 10
18572.76627709695
 20
4154.435294509082
 30
0.0
 11
18535.96627709695
 21
4154.435294509082
 31
0.0
  0
LINE
  5
5E7D
330
19
100
AcDbEntity
  8
FUTO
100
AcDbLine
 10
18572.76627709695
 20
4092.635294509082
 30
0.0
 11
18532.76627709695
 21
4092.635294509082
 31
0.0
  0
LINE
  5
5E7E
330
19
100
AcDbEntity
  8
FUTO
100
AcDbLine
 10
18572.76627709695
 20
4157.635294509082
 30
0.0
 11
18532.76627709695
 21
4157.635294509082
 31
0.0
  0
LINE
  5
5E7F
330
19
100
AcDbEntity
  8
FUTO
100
AcDbLine
 10
18572.76627709695
 20
4095.835294509083
 30
0.0
 11
18572.76627709695
 21
4092.635294509082
 31
0.0
  0
LINE
  5
5E80
330
19
100
AcDbEntity
  8
FUTO
100
AcDbLine
 10
18572.76627709695
 20
4157.635294509082
 30
0.0
 11
18572.76627709695
 21
4154.435294509082
 31
0.0
  0
LINE
  5
5E81
330
19
100
AcDbEntity
  8
FUTO
100
AcDbLine
 10
18535.96627709695
 20
4154.435294509082
 30
0.0
 11
18535.96627709695
 21
4095.835294509083
 31
0.0
  0
LINE
  5
5E82
330
19
100
AcDbEntity
  8
FUTO
100
AcDbLine
 10
18532.76627709695
 20
4157.635294509082
 30
0.0
 11
18532.76627709695
 21
4092.635294509082
 31
0.0
  0
DIMENSION
  5
5E83
330
19
100
AcDbEntity
  8
SP
100
AcDbDimension
  2
*D17
 10
18830.85656516783
 20
4092.635294509082
 30
0.0
 11
18793.35656516783
 21
3964.253417226485
 31
0.0
 70
    32
 71
     5
 42
-1.0
  3
GOD
100
AcDbAlignedDimension
 13
18572.76627709695
 23
4157.635294509082
 33
0.0
 14
18572.76627709695
 24
4092.635294509082
 34
0.0
 50
90.0
100
AcDbRotatedDimension
1001
ACAD
1000
DSTYLE
1002
{
1070
     6
1000
DOT
1002
}
  0
DIMENSION
  5
5E84
330
19
100
AcDbEntity
  8
SP
100
AcDbDimension
  2
*D18
 10
18830.85656516783
 20
4157.635294509082
 30
0.0
 11
18887.6584311706
 21
4172.710558514687
 31
0.0
 70
   160
 71
     5
 42
-1.0
  3
GOD
100
AcDbAlignedDimension
 13
18572.76627709695
 23
4227.635294509082
 33
0.0
 14
18572.76627709695
 24
4157.635294509082
 34
0.0
 50
90.0
100
AcDbRotatedDimension
1001
ACAD
1000
DSTYLE
1002
{
1070
     3
1000
（<>）
1070
   279
1070
     2
1070
   289
1070
     3
1070
   343
1005
5AD4
1070
   344
1005
5AD4
1002
}
  0
LINE
  5
60E4
330
19
100
AcDbEntity
  8
FUTO
100
AcDbLine
 10
19228.61370464045
 20
4157.63529450908
 30
0.0
 11
19538.61370464045
 21
4157.63529450908
 31
0.0
  0
LINE
  5
60E5
330
19
100
AcDbEntity
  8
FUTO
100
AcDbLine
 10
19228.61370464045
 20
4092.63529450908
 30
0.0
 11
19538.61370464045
 21
4092.63529450908
 31
0.0
  0
LINE
  5
60E6
330
19
100
AcDbEntity
  8
FUTO
100
AcDbLine
 10
19228.61370464045
 20
4154.43529450908
 30
0.0
 11
19538.61370464045
 21
4154.43529450908
 31
0.0
  0
LINE
  5
60E7
330
19
100
AcDbEntity
  8
FUTO
100
AcDbLine
 10
19228.61370464045
 20
4095.83529450908
 30
0.0
 11
19538.61370464045
 21
4095.835294509079
 31
0.0
  0
DIMENSION
  5
60E8
330
19
100
AcDbEntity
  8
SP
100
AcDbDimension
  2
*D19
 10
19538.61370464045
 20
3907.526979510949
 30
0.0
 11
19383.61370464045
 21
3945.026979510949
 31
0.0
 70
    32
 71
     5
 42
-1.0
  3
GOD
100
AcDbAlignedDimension
 13
19228.61370464045
 23
4092.63529450908
 33
0.0
 14
19538.61370464045
 24
4092.63529450908
 34
0.0
100
AcDbRotatedDimension
  0
LINE
  5
60E9
330
19
100
AcDbEntity
  8
FUTO
100
AcDbLine
 10
19228.61370464045
 20
4157.63529450908
 30
0.0
 11
19228.61370464045
 21
4092.63529450908
 31
0.0
  0
LINE
  5
60EA
330
19
100
AcDbEntity
  8
FUTO
100
AcDbLine
 10
19538.61370464045
 20
4157.63529450908
 30
0.0
 11
19538.61370464045
 21
4092.63529450908
 31
0.0
  0
TEXT
  5
614D
330
19
100
AcDbEntity
  8
4
100
AcDbText
 10
19524.12014238469
 20
6397.953053740807
 30
0.0
 40
80.99999999999999
  1
縮尺：1/15
100
AcDbText
  0
TEXT
  5
614E
330
19
100
AcDbEntity
  8
4
100
AcDbText
 10
18533.95114513362
 20
6397.953053740807
 30
0.0
 40
80.99999999999999
  1
床置防振ベッド型
100
AcDbText
  0
LWPOLYLINE
  5
6202
330
19
100
AcDbEntity
  8
1
100
AcDbPolyline
 90
        3
 70
     0
 43
0.0
 10
19781.61370464045
 20
4764.135294509081
 10
19781.61370464045
 20
4582.63529450908
 10
19781.61370464045
 20
4401.135294509082
  0
LINE
  5
6203
330
19
100
AcDbEntity
  8
1
100
AcDbLine
 10
19774.61370464045
 20
4400.135294509083
 30
0.0
 11
19780.61370464045
 21
4400.135294509083
 31
0.0
  0
ARC
  5
6204
330
19
100
AcDbEntity
  8
1
100
AcDbCircle
 10
19774.61370464045
 20
4399.135294509082
 30
0.0
 40
1.0
100
AcDbArc
 50
90.0
 51
180.0
  0
ARC
  5
6205
330
19
100
AcDbEntity
  8
1
100
AcDbCircle
 10
19780.61370464045
 20
4401.135294509082
 30
0.0
 40
1.0
100
AcDbArc
 50
270.0
 51
0.0
  0
LINE
  5
6206
330
19
100
AcDbEntity
  8
FUTO
100
AcDbLine
 10
19781.61370464045
 20
4425.135294509079
 30
0.0
 11
19773.61370464045
 21
4425.135294509079
 31
0.0
  0
LINE
  5
6207
330
19
100
AcDbEntity
  8
FUTO
100
AcDbLine
 10
19781.61370464045
 20
4740.135294509079
 30
0.0
 11
19773.61370464045
 21
4740.135294509079
 31
0.0
  0
LINE
  5
6208
330
19
100
AcDbEntity
  8
1
100
AcDbLine
 10
19774.61370464045
 20
4765.135294509081
 30
0.0
 11
19780.61370464045
 21
4765.135294509081
 31
0.0
  0
ARC
  5
6209
330
19
100
AcDbEntity
  8
1
100
AcDbCircle
 10
19774.61370464045
 20
4766.13529450908
 30
0.0
 40
1.0
100
AcDbArc
 50
180.0
 51
270.0
  0
ARC
  5
620A
330
19
100
AcDbEntity
  8
1
100
AcDbCircle
 10
19780.61370464045
 20
4764.13529450908
 30
0.0
 40
1.0
100
AcDbArc
 50
0.0
 51
90.0
  0
LINE
  5
620B
330
19
100
AcDbEntity
  8
FUTO
100
AcDbLine
 10
19563.61370464045
 20
4805.922514625555
 30
0.0
 11
19757.61370464045
 21
4805.922514625554
 31
0.0
  0
LINE
  5
620C
330
19
100
AcDbEntity
  8
1
100
AcDbLine
 10
19547.61370464045
 20
4789.922514625555
 30
0.0
 11
19547.61370464045
 21
4603.813219867591
 31
0.0
  0
ARC
  5
620D
330
19
100
AcDbEntity
  8
FUTO
100
AcDbCircle
 10
19563.61370464045
 20
4789.922514625555
 30
0.0
 40
16.0
100
AcDbArc
 50
90.0
 51
180.0000000000002
  0
ARC
  5
620E
330
19
100
AcDbEntity
  8
FUTO
100
AcDbCircle
 10
19757.61370464045
 20
4789.922514625554
 30
0.0
 40
16.0
100
AcDbArc
 50
0.0000000000010178
 51
89.99999999999971
  0
LINE
  5
620F
330
19
100
AcDbEntity
  8
1
100
AcDbLine
 10
19773.61370464045
 20
4789.922514625554
 30
0.0
 11
19773.61370464045
 21
4603.813219867592
 31
0.0
  0
LINE
  5
66E1
330
19
100
AcDbEntity
  8
1
100
AcDbLine
 10
19539.61370464045
 20
4764.135294509078
 30
0.0
 11
19539.61370464045
 21
4600.489451013149
 31
0.0
  0
DIMENSION
  5
66E2
330
19
100
AcDbEntity
  8
SP
100
AcDbDimension
  2
*D20
 10
19239.61370464144
 20
5014.922514625554
 30
0.0
 11
19450.11370464095
 21
5064.208228911269
 31
0.0
 70
    32
  1
(420)
 71
     5
 42
420.9999999990104
  3
GOD
100
AcDbAlignedDimension
 13
19660.61370464045
 23
4979.89786701067
 33
0.0
 14
19239.61370464144
 24
4666.216234822136
 34
0.0
100
AcDbRotatedDimension
1001
ACAD
1000
DSTYLE
1002
{
1070
   279
1070
     1
1002
}
  0
DIMENSION
  5
66EF
330
19
100
AcDbEntity
  8
SP
100
AcDbDimension
  2
*D21
 10
19660.61370464045
 20
3907.526979510949
 30
0.0
 11
19775.3686134756
 21
3912.401166488002
 31
0.0
 70
   160
 71
     5
 42
122.0
  3
GOD
100
AcDbAlignedDimension
 13
19538.61370464045
 23
4092.63529450908
 33
0.0
 14
19660.61370464045
 24
4144.209413630673
 34
0.0
100
AcDbRotatedDimension
1001
ACAD
1000
DSTYLE
1002
{
1070
   279
1070
     1
1002
}
  0
ENDSEC
  0
SECTION
  2
OBJECTS
  0
DICTIONARY
  5
C
330
0
100
AcDbDictionary
281
     1
  3
ACAD_CIP_PREVIOUS_PRODUCT_INFO
350
65D3
  3
ACAD_COLOR
350
65B5
  3
ACAD_DETAILVIEWSTYLE
350
65CE
  3
ACAD_GROUP
350
D
  3
ACAD_LAYOUT
350
1E92
  3
ACAD_MATERIAL
350
6583
  3
ACAD_MLEADERSTYLE
350
65CA
  3
ACAD_MLINESTYLE
350
E
  3
ACAD_PLOTSETTINGS
350
1E93
  3
ACAD_PLOTSTYLENAME
350
1E90
  3
ACAD_SCALELIST
350
65B8
  3
ACAD_SECTIONVIEWSTYLE
350
65CC
  3
ACAD_TABLESTYLE
350
65B6
  3
ACAD_VISUALSTYLE
350
659C
  3
AcadDim
350
1EC5
  3
ACDB_RECOMPOSE_DATA
350
6761
  3
AcDbVariableDictionary
350
64D6
  3
AcDsDecomposeData
350
6768
  3
DWGPROPS
350
6762
  0
DICTIONARY
  5
6742
330
2
100
AcDbDictionary
280
     1
281
     1
  3
ACAD_LAYERSTATES
360
6743
  0
DICTIONARY
  5
672F
330
F
100
AcDbDictionary
280
     1
281
     1
  3
ADSK_XREC_LAYER_RECONCILED
360
6730
  0
DICTIONARY
  5
6731
330
2F
100
AcDbDictionary
280
     1
281
     1
  3
ADSK_XREC_LAYER_RECONCILED
360
6732
  0
DICTIONARY
  5
6733
330
30
100
AcDbDictionary
280
     1
281
     1
  3
ADSK_XREC_LAYER_RECONCILED
360
6734
  0
DICTIONARY
  5
6735
330
32
100
AcDbDictionary
280
     1
281
     1
  3
ADSK_XREC_LAYER_RECONCILED
360
6736
  0
DICTIONARY
  5
6737
330
36
100
AcDbDictionary
280
     1
281
     1
  3
ADSK_XREC_LAYER_RECONCILED
360
6738
  0
DICTIONARY
  5
6739
330
1EEF
100
AcDbDictionary
280
     1
281
     1
  3
ADSK_XREC_LAYER_RECONCILED
360
673A
  0
DICTIONARY
  5
673B
330
1EF0
100
AcDbDictionary
280
     1
281
     1
  3
ADSK_XREC_LAYER_RECONCILED
360
673C
  0
DICTIONARY
  5
673D
330
2188
100
AcDbDictionary
280
     1
281
     1
  3
ADSK_XREC_LAYER_RECONCILED
360
673E
  0
DICTIONARY
  5
6506
330
19
100
AcDbDictionary
280
     1
281
     1
  3
ACAD_LAYOUTSELFREF
360
6507
  0
DICTIONARY
  5
6504
330
16
100
AcDbDictionary
280
     1
281
     1
  3
ACAD_LAYOUTSELFREF
360
6505
  0
XRECORD
  5
65D3
102
{ACAD_REACTORS
330
C
102
}
330
C
100
AcDbXrecord
280
     1
300
ACDLT
300
2015
300
INVLTS_F_S
  0
DICTIONARY
  5
65B5
102
{ACAD_REACTORS
330
C
102
}
330
C
100
AcDbDictionary
281
     1
  0
DICTIONARY
  5
65CE
102
{ACAD_REACTORS
330
C
102
}
330
C
100
AcDbDictionary
281
     1
  3
Metric50
350
65CF
  0
DICTIONARY
  5
D
102
{ACAD_REACTORS
330
C
102
}
330
C
100
AcDbDictionary
281
     1
  0
DICTIONARY
  5
1E92
102
{ACAD_REACTORS
330
C
102
}
330
C
100
AcDbDictionary
281
     1
  3
Model
350
1E94
  3
ﾚｲｱｳﾄ1
350
1E95
  0
DICTIONARY
  5
6583
102
{ACAD_REACTORS
330
C
102
}
330
C
100
AcDbDictionary
281
     1
  3
ByBlock
350
658C
  3
ByLayer
350
6584
  3
Global
350
6594
  0
DICTIONARY
  5
65CA
102
{ACAD_REACTORS
330
C
102
}
330
C
100
AcDbDictionary
281
     1
  3
Standard
350
65CB
  0
DICTIONARY
  5
E
102
{ACAD_REACTORS
330
C
102
}
330
C
100
AcDbDictionary
281
     1
  3
STANDARD
350
1C
  0
DICTIONARY
  5
1E93
102
{ACAD_REACTORS
330
C
102
}
330
C
100
AcDbDictionary
281
     1
  0
ACDBDICTIONARYWDFLT
  5
1E90
102
{ACAD_REACTORS
330
C
102
}
330
C
100
AcDbDictionary
281
     1
  3
Normal
350
1E91
100
AcDbDictionaryWithDefault
340
1E91
  0
DICTIONARY
  5
65B8
102
{ACAD_REACTORS
330
C
102
}
330
C
100
AcDbDictionary
281
     1
  3
A0
350
65B9
  3
A1
350
65BA
  3
A2
350
65BB
  3
A3
350
65BC
  3
A4
350
65BD
  3
A5
350
65BE
  3
A6
350
65BF
  3
A7
350
65C0
  3
A8
350
65C1
  3
A9
350
65C2
  3
B0
350
65C3
  3
B1
350
65C4
  3
B2
350
65C5
  3
B3
350
65C6
  3
B4
350
65C7
  3
B5
350
65C8
  3
B6
350
65C9
  0
DICTIONARY
  5
65CC
102
{ACAD_REACTORS
330
C
102
}
330
C
100
AcDbDictionary
281
     1
  3
Metric50
350
65CD
  0
DICTIONARY
  5
65B6
102
{ACAD_REACTORS
330
C
102
}
330
C
100
AcDbDictionary
281
     1
  3
Standard
350
65B7
  0
DICTIONARY
  5
659C
102
{ACAD_REACTORS
330
C
102
}
330
C
100
AcDbDictionary
281
     1
  3
2dWireframe
350
65A2
  3
Basic
350
65A1
  3
Brighten
350
65A8
  3
ColorChange
350
65AC
  3
Conceptual
350
65A5
  3
Dim
350
65A7
  3
EdgeColorOff
350
65B4
  3
Facepattern
350
65AB
  3
Flat
350
659D
  3
FlatWithEdges
350
659E
  3
Gouraud
350
659F
  3
GouraudWithEdges
350
65A0
  3
Hidden
350
65A4
  3
JitterOff
350
65B2
  3
Linepattern
350
65AA
  3
OverhangOff
350
65B3
  3
Realistic
350
65A6
  3
Shaded
350
65B1
  3
Shaded with edges
350
65B0
  3
Shades of Gray
350
65AD
  3
Sketchy
350
65AE
  3
Thicken
350
65A9
  3
Wireframe
350
65A3
  3
X-Ray
350
65AF
  0
XRECORD
  5
1EC5
102
{ACAD_REACTORS
330
C
102
}
330
C
100
AcDbXrecord
280
     1
 90
   990106
  3

 60
     0
 61
     0
 62
     4
 63
     4
 64
     1
 65
     0
 66
     1
 67
     3
 68
     1
 69
     0
 70
     0
 71
     0
 72
     0
 40
0.0
170
     1
340
0
  0
XRECORD
  5
6761
102
{ACAD_REACTORS
330
C
102
}
330
C
100
AcDbXrecord
280
     1
 90
        1
330
5E84
330
65B7
  0
DICTIONARY
  5
64D6
102
{ACAD_REACTORS
330
C
102
}
330
C
100
AcDbDictionary
281
     1
  3
CANNOSCALE
350
6753
  3
CMLEADERSTYLE
350
674F
  3
CTABLESTYLE
350
674E
  3
CVIEWDETAILSTYLE
350
6750
  3
CVIEWSECTIONSTYLE
350
6751
  3
DIMASSOC
350
64D7
  3
INDEXCTL
350
675D
  3
LAYEREVAL
350
6755
  3
LAYERNOTIFY
350
6756
  3
LIGHTINGUNITS
350
6754
  3
MSLTSCALE
350
6752
  3
SORTENTS
350
675C
  3
XCLIPFRAME
350
675E
  0
DICTIONARY
  5
6768
102
{ACAD_REACTORS
330
C
102
}
330
C
100
AcDbDictionary
281
     1
  3
AcDsRecords
350
676A
  3
AcDsSchemas
350
6769
1001
ACAD
1070
     2
  0
XRECORD
  5
6762
102
{ACAD_REACTORS
330
C
102
}
330
C
100
AcDbXrecord
280
     1
  1
DWGPROPS COOKIE
  2

  3

  4

  6

  7

  8
toshiyuki.morita
  9

300
=
301
=
302
=
303
=
304
=
305
=
306
=
307
=
308
=
309
=
 40
0.2242887152777778
 41
2454939.604632489
 42
2459353.582663634
  1

 90
        0
  0
DICTIONARY
  5
6743
102
{ACAD_REACTORS
330
6742
102
}
330
6742
100
AcDbDictionary
281
     1
  0
XRECORD
  5
6730
102
{ACAD_REACTORS
330
672F
102
}
330
672F
100
AcDbXrecord
280
     1
290
     1
  0
XRECORD
  5
6732
102
{ACAD_REACTORS
330
6731
102
}
330
6731
100
AcDbXrecord
280
     1
290
     1
  0
XRECORD
  5
6734
102
{ACAD_REACTORS
330
6733
102
}
330
6733
100
AcDbXrecord
280
     1
290
     1
  0
XRECORD
  5
6736
102
{ACAD_REACTORS
330
6735
102
}
330
6735
100
AcDbXrecord
280
     1
290
     1
  0
XRECORD
  5
6738
102
{ACAD_REACTORS
330
6737
102
}
330
6737
100
AcDbXrecord
280
     1
290
     1
  0
XRECORD
  5
673A
102
{ACAD_REACTORS
330
6739
102
}
330
6739
100
AcDbXrecord
280
     1
290
     1
  0
XRECORD
  5
673C
102
{ACAD_REACTORS
330
673B
102
}
330
673B
100
AcDbXrecord
280
     1
290
     1
  0
XRECORD
  5
673E
102
{ACAD_REACTORS
330
673D
102
}
330
673D
100
AcDbXrecord
280
     1
290
     1
  0
XRECORD
  5
6507
102
{ACAD_REACTORS
330
6506
102
}
330
6506
100
AcDbXrecord
280
     1
340
19
  0
XRECORD
  5
6505
102
{ACAD_REACTORS
330
6504
102
}
330
6504
100
AcDbXrecord
280
     1
340
16
  0
ACDBDETAILVIEWSTYLE
  5
65CF
102
{ACAD_XDICTIONARY
360
674B
102
}
102
{ACAD_REACTORS
330
65CE
102
}
330
65CE
100
AcDbModelDocViewStyle
 70
     0
  3
Metric50
290
     0
100
AcDbDetailViewStyle
 70
     0
 71
     0
 90
        3
 71
     1
340
10
 40
5.0
340
0
 40
5.0
300

 40
0.0
280
     1
 71
     2
340
15
 90
       25
 71
     3
340
10
 40
5.0
 90
        0
 40
15.0
 90
        1
300
%<\AcVar ViewDetailId>% (%<\AcVar ViewScale \f "%sn">%)
 71
     4
340
15
 90
       25
340
15
 90
       25
280
     0
  0
LAYOUT
  5
1E94
102
{ACAD_XDICTIONARY
360
676B
102
}
102
{ACAD_REACTORS
330
1E92
102
}
330
1E92
100
AcDbPlotSettings
  1

  2
EPSON LP-9300
  4

  6

 40
0.0
 41
0.0
 42
0.0
 43
0.0
 44
0.0
 45
0.0
 46
0.0
 47
0.0
 48
0.0
 49
0.0
140
0.0
141
0.0
142
1.0
143
1.0
 70
  1712
 72
     0
 73
     0
 74
     0
  7
GOD2000TABLE.ctb
 75
     0
147
1.0
148
0.0
149
0.0
100
AcDbLayout
  1
Model
 70
     1
 71
     0
 10
0.0
 20
0.0
 11
12.0
 21
9.0
 12
0.0
 22
0.0
 32
0.0
 14
0.0
 24
0.0
 34
0.0
 15
0.0
 25
0.0
 35
0.0
146
0.0
 13
0.0
 23
0.0
 33
0.0
 16
1.0
 26
0.0
 36
0.0
 17
0.0
 27
1.0
 37
0.0
 76
     0
330
19
331
64D8
  0
LAYOUT
  5
1E95
102
{ACAD_XDICTIONARY
360
676D
102
}
102
{ACAD_REACTORS
330
1E92
102
}
330
1E92
100
AcDbPlotSettings
  1

  2
EPSON LP-9300
  4

  6

 40
0.0
 41
0.0
 42
0.0
 43
0.0
 44
0.0
 45
0.0
 46
0.0
 47
0.0
 48
0.0
 49
0.0
140
0.0
141
0.0
142
1.0
143
1.0
 70
   688
 72
     0
 73
     0
 74
     5
  7
GOD2000TABLE.ctb
 75
    16
147
1.0
148
0.0
149
0.0
100
AcDbLayout
  1
ﾚｲｱｳﾄ1
 70
     0
 71
     1
 10
0.0
 20
0.0
 11
12.0
 21
9.0
 12
0.0
 22
0.0
 32
0.0
 14
1.000000000000000E+20
 24
1.000000000000000E+20
 34
1.000000000000000E+20
 15
-1.000000000000000E+20
 25
-1.000000000000000E+20
 35
-1.000000000000000E+20
146
0.0
 13
0.0
 23
0.0
 33
0.0
 16
1.0
 26
0.0
 36
0.0
 17
0.0
 27
1.0
 37
0.0
 76
     0
330
16
  0
MATERIAL
  5
658C
102
{ACAD_XDICTIONARY
360
658D
102
}
102
{ACAD_REACTORS
330
6583
102
}
330
6583
100
AcDbMaterial
  1
ByBlock
 72
     0
 43
0.0208333333333333
 43
0.0
 43
0.0
 43
0.0
 43
0.0
 43
0.0208333333333333
 43
0.0
 43
0.0
 43
0.0
 43
0.0
 43
1.0
 43
0.0
 43
0.0
 43
0.0
 43
0.0
 43
1.0
 77
     0
 47
0.0208333333333333
 47
0.0
 47
0.0
 47
0.0
 47
0.0
 47
0.0208333333333333
 47
0.0
 47
0.0
 47
0.0
 47
0.0
 47
1.0
 47
0.0
 47
0.0
 47
0.0
 47
0.0
 47
1.0
171
     0
 49
0.0208333333333333
 49
0.0
 49
0.0
 49
0.0
 49
0.0
 49
0.0208333333333333
 49
0.0
 49
0.0
 49
0.0
 49
0.0
 49
1.0
 49
0.0
 49
0.0
 49
0.0
 49
0.0
 49
1.0
175
     0
142
0.0208333333333333
142
0.0
142
0.0
142
0.0
142
0.0
142
0.0208333333333333
142
0.0
142
0.0
142
0.0
142
0.0
142
1.0
142
0.0
142
0.0
142
0.0
142
0.0
142
1.0
179
     0
144
0.0208333333333333
144
0.0
144
0.0
144
0.0
144
0.0
144
0.0208333333333333
144
0.0
144
0.0
144
0.0
144
0.0
144
1.0
144
0.0
144
0.0
144
0.0
144
0.0
144
1.0
147
0.0208333333333333
147
0.0
147
0.0
147
0.0
147
0.0
147
0.0208333333333333
147
0.0
147
0.0
147
0.0
147
0.0
147
1.0
147
0.0
147
0.0
147
0.0
147
0.0
147
1.0
  0
MATERIAL
  5
6584
102
{ACAD_XDICTIONARY
360
6585
102
}
102
{ACAD_REACTORS
330
6583
102
}
330
6583
100
AcDbMaterial
  1
ByLayer
 72
     0
 43
0.0208333333333333
 43
0.0
 43
0.0
 43
0.0
 43
0.0
 43
0.0208333333333333
 43
0.0
 43
0.0
 43
0.0
 43
0.0
 43
1.0
 43
0.0
 43
0.0
 43
0.0
 43
0.0
 43
1.0
 77
     0
 47
0.0208333333333333
 47
0.0
 47
0.0
 47
0.0
 47
0.0
 47
0.0208333333333333
 47
0.0
 47
0.0
 47
0.0
 47
0.0
 47
1.0
 47
0.0
 47
0.0
 47
0.0
 47
0.0
 47
1.0
171
     0
 49
0.0208333333333333
 49
0.0
 49
0.0
 49
0.0
 49
0.0
 49
0.0208333333333333
 49
0.0
 49
0.0
 49
0.0
 49
0.0
 49
1.0
 49
0.0
 49
0.0
 49
0.0
 49
0.0
 49
1.0
175
     0
142
0.0208333333333333
142
0.0
142
0.0
142
0.0
142
0.0
142
0.0208333333333333
142
0.0
142
0.0
142
0.0
142
0.0
142
1.0
142
0.0
142
0.0
142
0.0
142
0.0
142
1.0
179
     0
144
0.0208333333333333
144
0.0
144
0.0
144
0.0
144
0.0
144
0.0208333333333333
144
0.0
144
0.0
144
0.0
144
0.0
144
1.0
144
0.0
144
0.0
144
0.0
144
0.0
144
1.0
147
0.0208333333333333
147
0.0
147
0.0
147
0.0
147
0.0
147
0.0208333333333333
147
0.0
147
0.0
147
0.0
147
0.0
147
1.0
147
0.0
147
0.0
147
0.0
147
0.0
147
1.0
  0
MATERIAL
  5
6594
102
{ACAD_XDICTIONARY
360
6595
102
}
102
{ACAD_REACTORS
330
6583
102
}
330
6583
100
AcDbMaterial
  1
Global
 72
     0
 43
0.0208333333333333
 43
0.0
 43
0.0
 43
0.0
 43
0.0
 43
0.0208333333333333
 43
0.0
 43
0.0
 43
0.0
 43
0.0
 43
1.0
 43
0.0
 43
0.0
 43
0.0
 43
0.0
 43
1.0
 77
     0
 47
0.0208333333333333
 47
0.0
 47
0.0
 47
0.0
 47
0.0
 47
0.0208333333333333
 47
0.0
 47
0.0
 47
0.0
 47
0.0
 47
1.0
 47
0.0
 47
0.0
 47
0.0
 47
0.0
 47
1.0
171
     0
 49
0.0208333333333333
 49
0.0
 49
0.0
 49
0.0
 49
0.0
 49
0.0208333333333333
 49
0.0
 49
0.0
 49
0.0
 49
0.0
 49
1.0
 49
0.0
 49
0.0
 49
0.0
 49
0.0
 49
1.0
175
     0
142
0.0208333333333333
142
0.0
142
0.0
142
0.0
142
0.0
142
0.0208333333333333
142
0.0
142
0.0
142
0.0
142
0.0
142
1.0
142
0.0
142
0.0
142
0.0
142
0.0
142
1.0
179
     0
144
0.0208333333333333
144
0.0
144
0.0
144
0.0
144
0.0
144
0.0208333333333333
144
0.0
144
0.0
144
0.0
144
0.0
144
1.0
144
0.0
144
0.0
144
0.0
144
0.0
144
1.0
147
0.0208333333333333
147
0.0
147
0.0
147
0.0
147
0.0
147
0.0208333333333333
147
0.0
147
0.0
147
0.0
147
0.0
147
1.0
147
0.0
147
0.0
147
0.0
147
0.0
147
1.0
  0
MLEADERSTYLE
  5
65CB
102
{ACAD_XDICTIONARY
360
67A4
102
}
102
{ACAD_REACTORS
330
65CA
102
}
330
65CA
100
AcDbMLeaderStyle
170
     2
171
     1
172
     0
 90
        2
 40
0.0
 41
0.0
173
     1
 91
-1056964608
340
13
 92
       -2
290
     1
 42
2.0
291
     1
 43
0.36
  3
Standard
 44
4.0
300

342
10
174
     1
178
     6
175
     1
176
     0
 93
-1056964608
 45
4.0
292
     0
297
     0
 46
4.0
 94
-1056964608
 47
1.0
 49
1.0
140
1.0
293
     1
141
0.0
294
     1
177
     0
142
1.0
295
     0
296
     0
143
0.125
1001
ACAD_MLEADERVER
1070
     2
  0
MLINESTYLE
  5
1C
102
{ACAD_REACTORS
330
E
102
}
330
E
100
AcDbMlineStyle
  2
STANDARD
 70
     0
  3

 62
     0
 51
90.0
 52
90.0
 71
     2
 49
0.5
 62
   256
  6
BYLAYER
 49
-0.5
 62
   256
  6
BYLAYER
  0
ACDBPLACEHOLDER
  5
1E91
102
{ACAD_REACTORS
330
1E90
102
}
330
1E90
  0
SCALE
  5
65B9
102
{ACAD_REACTORS
330
65B8
102
}
330
65B8
100
AcDbScale
 70
     0
300
1:1
140
1.0
141
1.0
290
     1
  0
SCALE
  5
65BA
102
{ACAD_REACTORS
330
65B8
102
}
330
65B8
100
AcDbScale
 70
     0
300
1:2
140
1.0
141
2.0
290
     0
  0
SCALE
  5
65BB
102
{ACAD_REACTORS
330
65B8
102
}
330
65B8
100
AcDbScale
 70
     0
300
1:4
140
1.0
141
4.0
290
     0
  0
SCALE
  5
65BC
102
{ACAD_REACTORS
330
65B8
102
}
330
65B8
100
AcDbScale
 70
     0
300
1:5
140
1.0
141
5.0
290
     0
  0
SCALE
  5
65BD
102
{ACAD_REACTORS
330
65B8
102
}
330
65B8
100
AcDbScale
 70
     0
300
1:8
140
1.0
141
8.0
290
     0
  0
SCALE
  5
65BE
102
{ACAD_REACTORS
330
65B8
102
}
330
65B8
100
AcDbScale
 70
     0
300
1:10
140
1.0
141
10.0
290
     0
  0
SCALE
  5
65BF
102
{ACAD_REACTORS
330
65B8
102
}
330
65B8
100
AcDbScale
 70
     0
300
1:16
140
1.0
141
16.0
290
     0
  0
SCALE
  5
65C0
102
{ACAD_REACTORS
330
65B8
102
}
330
65B8
100
AcDbScale
 70
     0
300
1:20
140
1.0
141
20.0
290
     0
  0
SCALE
  5
65C1
102
{ACAD_REACTORS
330
65B8
102
}
330
65B8
100
AcDbScale
 70
     0
300
1:30
140
1.0
141
30.0
290
     0
  0
SCALE
  5
65C2
102
{ACAD_REACTORS
330
65B8
102
}
330
65B8
100
AcDbScale
 70
     0
300
1:40
140
1.0
141
40.0
290
     0
  0
SCALE
  5
65C3
102
{ACAD_REACTORS
330
65B8
102
}
330
65B8
100
AcDbScale
 70
     0
300
1:50
140
1.0
141
50.0
290
     0
  0
SCALE
  5
65C4
102
{ACAD_REACTORS
330
65B8
102
}
330
65B8
100
AcDbScale
 70
     0
300
1:100
140
1.0
141
100.0
290
     0
  0
SCALE
  5
65C5
102
{ACAD_REACTORS
330
65B8
102
}
330
65B8
100
AcDbScale
 70
     0
300
2:1
140
2.0
141
1.0
290
     0
  0
SCALE
  5
65C6
102
{ACAD_REACTORS
330
65B8
102
}
330
65B8
100
AcDbScale
 70
     0
300
4:1
140
4.0
141
1.0
290
     0
  0
SCALE
  5
65C7
102
{ACAD_REACTORS
330
65B8
102
}
330
65B8
100
AcDbScale
 70
     0
300
8:1
140
8.0
141
1.0
290
     0
  0
SCALE
  5
65C8
102
{ACAD_REACTORS
330
65B8
102
}
330
65B8
100
AcDbScale
 70
     0
300
10:1
140
10.0
141
1.0
290
     0
  0
SCALE
  5
65C9
102
{ACAD_REACTORS
330
65B8
102
}
330
65B8
100
AcDbScale
 70
     0
300
100:1
140
100.0
141
1.0
290
     0
  0
ACDBSECTIONVIEWSTYLE
  5
65CD
102
{ACAD_XDICTIONARY
360
6749
102
}
102
{ACAD_REACTORS
330
65CC
102
}
330
65CC
100
AcDbModelDocViewStyle
 70
     0
  3
Metric50
290
     0
100
AcDbSectionViewStyle
 70
     0
 71
     0
 90
      102
 71
     1
340
10
 40
5.0
340
0
340
0
 40
5.0
300
I, O, Q, S, X, Z
 40
10.0
 90
        0
 40
2.5
 90
        0
 71
     2
340
15
 90
       25
340
15
 90
       50
 40
5.0
 40
2.5
 40
5.0
 71
     3
340
10
 40
5.0
 90
        0
 40
15.0
 90
        1
300
%<\AcVar ViewSectionStartId>%-%<\AcVar ViewSectionEndId>% (%<\AcVar ViewScale \f "%sn">%)
 71
     4
300
ANSI31
 40
1.0
 90
        0
290
     0
290
     0
 90
        6
 40
0.0
 40
1.570796326794896
 40
0.2617993877991494
 40
1.308996938995747
 40
-0.2617993877991494
 40
1.832595714594046
  0
TABLESTYLE
  5
65B7
102
{ACAD_XDICTIONARY
360
675F
102
}
102
{ACAD_REACTORS
330
65B6
102
}
330
65B6
100
AcDbTableStyle
  3
Standard
 70
     0
 71
     0
 40
1.5
 41
1.5
280
     0
281
     0
  7
STANDARD
140
4.5
170
     2
 62
     0
 63
     7
283
     0
274
    -2
284
     1
 64
     0
275
    -2
285
     1
 65
     0
276
    -2
286
     1
 66
     0
277
    -2
287
     1
 67
     0
278
    -2
288
     1
 68
     0
279
    -2
289
     1
 69
     0
  7
STANDARD
140
6.0
170
     5
 62
     0
 63
     7
283
     0
274
    -2
284
     1
 64
     0
275
    -2
285
     1
 65
     0
276
    -2
286
     1
 66
     0
277
    -2
287
     1
 67
     0
278
    -2
288
     1
 68
     0
279
    -2
289
     1
 69
     0
  7
STANDARD
140
4.5
170
     5
 62
     0
 63
     7
283
     0
274
    -2
284
     1
 64
     0
275
    -2
285
     1
 65
     0
276
    -2
286
     1
 66
     0
277
    -2
287
     1
 67
     0
278
    -2
288
     1
 68
     0
279
    -2
289
     1
 69
     0
  0
VISUALSTYLE
  5
65A2
102
{ACAD_XDICTIONARY
360
677C
102
}
102
{ACAD_REACTORS
330
659C
102
}
330
659C
100
AcDbVisualStyle
  2
2dWireframe
 70
     4
 71
     0
 72
     2
 73
     0
 90
        0
 40
-0.6
 41
-30.0
 62
     5
 63
     7
 74
     1
 91
        4
 64
     7
 65
   257
 75
     1
175
     1
 42
1.0
 92
        0
 66
   257
 43
1.0
 76
     1
 77
     6
 78
     2
 67
     7
 79
     5
170
     0
171
     0
290
     0
174
     0
 93
        1
 44
0.0
173
     0
291
     0
 45
0.0
1001
ACAD
1000
AcDbSavedByObjectVersion
1070
     0
  0
VISUALSTYLE
  5
65A1
102
{ACAD_XDICTIONARY
360
677A
102
}
102
{ACAD_REACTORS
330
659C
102
}
330
659C
100
AcDbVisualStyle
  2
Basic
 70
     7
 71
     1
 72
     0
 73
     1
 90
        0
 40
-0.6
 41
-30.0
 62
     5
 63
     7
 74
     0
 91
        4
 64
     7
 65
   257
 75
     1
175
     1
 42
1.0
 92
        8
 66
     7
 43
1.0
 76
     1
 77
     6
 78
     2
 67
     7
 79
     5
170
     0
171
     0
290
     0
174
     0
 93
        1
 44
0.0
173
     0
291
     1
 45
0.0
1001
ACAD
1000
AcDbSavedByObjectVersion
1070
     0
  0
VISUALSTYLE
  5
65A8
102
{ACAD_XDICTIONARY
360
6788
102
}
102
{ACAD_REACTORS
330
659C
102
}
330
659C
100
AcDbVisualStyle
  2
Brighten
 70
    12
 71
     2
 72
     2
 73
     0
 90
        0
 40
-0.6
 41
-30.0
 62
     5
 63
     7
 74
     1
 91
        4
 64
     7
 65
   257
 75
     1
175
     1
 42
1.0
 92
        8
 66
     7
 43
1.0
 76
     1
 77
     6
 78
     2
 67
     7
 79
     5
170
     0
171
     0
290
     0
174
     0
 93
        1
 44
50.0
173
     0
291
     1
 45
0.0
1001
ACAD
1000
AcDbSavedByObjectVersion
1070
     0
  0
VISUALSTYLE
  5
65AC
102
{ACAD_XDICTIONARY
360
6790
102
}
102
{ACAD_REACTORS
330
659C
102
}
330
659C
100
AcDbVisualStyle
  2
ColorChange
 70
    16
 71
     2
 72
     2
 73
     3
 90
        0
 40
-0.6
 41
-30.0
 62
     5
 63
     8
 74
     1
 91
        4
 64
     7
 65
   257
 75
     1
175
     1
 42
1.0
 92
        8
 66
     8
 43
1.0
 76
     1
 77
     6
 78
     2
 67
     7
 79
     5
170
     0
171
     0
290
     0
174
     0
 93
        1
 44
0.0
173
     0
291
     1
 45
0.0
1001
ACAD
1000
AcDbSavedByObjectVersion
1070
     0
  0
VISUALSTYLE
  5
65A5
102
{ACAD_XDICTIONARY
360
6782
102
}
102
{ACAD_REACTORS
330
659C
102
}
330
659C
100
AcDbVisualStyle
  2
Conceptual
 70
     9
 71
     3
 72
     2
 73
     0
 90
        0
 40
-0.6
 41
-30.0
 62
     5
 63
     7
 74
     2
 91
        2
 64
     7
 65
   257
 75
     1
175
     1
 42
179.0
 92
        8
 66
     7
 43
1.0
 76
     1
 77
     6
 78
     2
 67
     7
 79
     3
170
     0
171
     0
290
     0
174
     0
 93
        1
 44
0.0
173
     0
291
     0
 45
0.0
1001
ACAD
1000
AcDbSavedByObjectVersion
1070
     0
  0
VISUALSTYLE
  5
65A7
102
{ACAD_XDICTIONARY
360
6786
102
}
102
{ACAD_REACTORS
330
659C
102
}
330
659C
100
AcDbVisualStyle
  2
Dim
 70
    11
 71
     2
 72
     2
 73
     0
 90
        0
 40
-0.6
 41
-30.0
 62
     5
 63
     7
 74
     1
 91
        4
 64
     7
 65
   257
 75
     1
175
     1
 42
1.0
 92
        8
 66
     7
 43
1.0
 76
     1
 77
     6
 78
     2
 67
     7
 79
     5
170
     0
171
     0
290
     0
174
     0
 93
        1
 44
-50.0
173
     0
291
     1
 45
0.0
1001
ACAD
1000
AcDbSavedByObjectVersion
1070
     0
  0
VISUALSTYLE
  5
65B4
102
{ACAD_XDICTIONARY
360
67A0
102
}
102
{ACAD_REACTORS
330
659C
102
}
330
659C
100
AcDbVisualStyle
  2
EdgeColorOff
 70
    22
 71
     2
 72
     2
 73
     0
 90
        0
 40
-0.6
 41
-30.0
 62
     5
 63
     7
 74
     1
 91
        4
 64
     7
 65
   257
 75
     1
175
     1
 42
1.0
 92
        8
 66
     7
 43
1.0
 76
     1
 77
     6
 78
     2
 67
     7
 79
     5
170
     0
171
     0
290
     0
174
     0
 93
        1
 44
0.0
173
     0
291
     1
 45
0.0
1001
ACAD
1000
AcDbSavedByObjectVersion
1070
     0
  0
VISUALSTYLE
  5
65AB
102
{ACAD_XDICTIONARY
360
678E
102
}
102
{ACAD_REACTORS
330
659C
102
}
330
659C
100
AcDbVisualStyle
  2
Facepattern
 70
    15
 71
     2
 72
     2
 73
     0
 90
        0
 40
-0.6
 41
-30.0
 62
     5
 63
     7
 74
     1
 91
        4
 64
     7
 65
   257
 75
     1
175
     1
 42
1.0
 92
        8
 66
     7
 43
1.0
 76
     1
 77
     6
 78
     2
 67
     7
 79
     5
170
     0
171
     0
290
     0
174
     0
 93
        1
 44
0.0
173
     0
291
     1
 45
0.0
1001
ACAD
1000
AcDbSavedByObjectVersion
1070
     0
  0
VISUALSTYLE
  5
659D
102
{ACAD_XDICTIONARY
360
6772
102
}
102
{ACAD_REACTORS
330
659C
102
}
330
659C
100
AcDbVisualStyle
  2
Flat
 70
     0
 71
     2
 72
     1
 73
     1
 90
        2
 40
-0.6
 41
30.0
 62
     5
 63
     7
 74
     0
 91
        0
 64
     7
 65
   257
 75
     1
175
     1
 42
1.0
 92
        8
 66
     7
 43
1.0
 76
     1
 77
     6
 78
     2
 67
     7
 79
     5
170
     0
171
     0
290
     0
174
     0
 93
       13
 44
0.0
173
     0
291
     1
 45
0.0
1001
ACAD
1000
AcDbSavedByObjectVersion
1070
     0
  0
VISUALSTYLE
  5
659E
102
{ACAD_XDICTIONARY
360
6774
102
}
102
{ACAD_REACTORS
330
659C
102
}
330
659C
100
AcDbVisualStyle
  2
FlatWithEdges
 70
     1
 71
     2
 72
     1
 73
     1
 90
        2
 40
-0.6
 41
30.0
 62
     5
 63
     7
 74
     1
 91
        0
 64
     7
 65
   257
 75
     1
175
     1
 42
1.0
 92
        0
 66
   257
 43
1.0
 76
     1
 77
     6
 78
     2
 67
     7
 79
     5
170
     0
171
     0
290
     0
174
     0
 93
       13
 44
0.0
173
     0
291
     1
 45
0.0
1001
ACAD
1000
AcDbSavedByObjectVersion
1070
     0
  0
VISUALSTYLE
  5
659F
102
{ACAD_XDICTIONARY
360
6776
102
}
102
{ACAD_REACTORS
330
659C
102
}
330
659C
100
AcDbVisualStyle
  2
Gouraud
 70
     2
 71
     2
 72
     2
 73
     1
 90
        2
 40
-0.6
 41
30.0
 62
     5
 63
     7
 74
     0
 91
        0
 64
     7
 65
   257
 75
     1
175
     1
 42
1.0
 92
        0
 66
     7
 43
1.0
 76
     1
 77
     6
 78
     2
 67
     7
 79
     5
170
     0
171
     0
290
     0
174
     0
 93
       13
 44
0.0
173
     0
291
     1
 45
0.0
1001
ACAD
1000
AcDbSavedByObjectVersion
1070
     0
  0
VISUALSTYLE
  5
65A0
102
{ACAD_XDICTIONARY
360
6778
102
}
102
{ACAD_REACTORS
330
659C
102
}
330
659C
100
AcDbVisualStyle
  2
GouraudWithEdges
 70
     3
 71
     2
 72
     2
 73
     1
 90
        2
 40
-0.6
 41
30.0
 62
     5
 63
     7
 74
     1
 91
        0
 64
     7
 65
   257
 75
     1
175
     1
 42
1.0
 92
        0
 66
   257
 43
1.0
 76
     1
 77
     6
 78
     2
 67
     7
 79
     5
170
     0
171
     0
290
     0
174
     0
 93
       13
 44
0.0
173
     0
291
     1
 45
0.0
1001
ACAD
1000
AcDbSavedByObjectVersion
1070
     0
  0
VISUALSTYLE
  5
65A4
102
{ACAD_XDICTIONARY
360
6780
102
}
102
{ACAD_REACTORS
330
659C
102
}
330
659C
100
AcDbVisualStyle
  2
Hidden
 70
     6
 71
     1
 72
     2
 73
     2
 90
        0
 40
-0.6
 41
-30.0
 62
     5
 63
     7
 74
     2
 91
        2
 64
     7
 65
   257
 75
     2
175
     1
 42
40.0
 92
        0
 66
   257
 43
1.0
 76
     1
 77
     6
 78
     2
 67
     7
 79
     3
170
     0
171
     0
290
     0
174
     0
 93
        1
 44
0.0
173
     0
291
     0
 45
0.0
1001
ACAD
1000
AcDbSavedByObjectVersion
1070
     0
  0
VISUALSTYLE
  5
65B2
102
{ACAD_XDICTIONARY
360
679C
102
}
102
{ACAD_REACTORS
330
659C
102
}
330
659C
100
AcDbVisualStyle
  2
JitterOff
 70
    20
 71
     2
 72
     2
 73
     0
 90
        0
 40
-0.6
 41
-30.0
 62
     5
 63
     7
 74
     1
 91
        4
 64
     7
 65
   257
 75
     1
175
     1
 42
1.0
 92
       10
 66
     7
 43
1.0
 76
     1
 77
     6
 78
     2
 67
     7
 79
     5
170
     0
171
     0
290
     0
174
     0
 93
        1
 44
0.0
173
     0
291
     1
 45
0.0
1001
ACAD
1000
AcDbSavedByObjectVersion
1070
     0
  0
VISUALSTYLE
  5
65AA
102
{ACAD_XDICTIONARY
360
678C
102
}
102
{ACAD_REACTORS
330
659C
102
}
330
659C
100
AcDbVisualStyle
  2
Linepattern
 70
    14
 71
     2
 72
     2
 73
     0
 90
        0
 40
-0.6
 41
-30.0
 62
     5
 63
     7
 74
     1
 91
        4
 64
     7
 65
   257
 75
     7
175
     7
 42
1.0
 92
        8
 66
     7
 43
1.0
 76
     1
 77
     6
 78
     2
 67
     7
 79
     5
170
     0
171
     0
290
     0
174
     0
 93
        1
 44
0.0
173
     0
291
     1
 45
0.0
1001
ACAD
1000
AcDbSavedByObjectVersion
1070
     0
  0
VISUALSTYLE
  5
65B3
102
{ACAD_XDICTIONARY
360
679E
102
}
102
{ACAD_REACTORS
330
659C
102
}
330
659C
100
AcDbVisualStyle
  2
OverhangOff
 70
    21
 71
     2
 72
     2
 73
     0
 90
        0
 40
-0.6
 41
-30.0
 62
     5
 63
     7
 74
     1
 91
        4
 64
     7
 65
   257
 75
     1
175
     1
 42
1.0
 92
        9
 66
     7
 43
1.0
 76
     1
 77
     6
 78
     2
 67
     7
 79
     5
170
     0
171
     0
290
     0
174
     0
 93
        1
 44
0.0
173
     0
291
     1
 45
0.0
1001
ACAD
1000
AcDbSavedByObjectVersion
1070
     0
  0
VISUALSTYLE
  5
65A6
102
{ACAD_XDICTIONARY
360
6784
102
}
102
{ACAD_REACTORS
330
659C
102
}
330
659C
100
AcDbVisualStyle
  2
Realistic
 70
     8
 71
     2
 72
     3
 73
     0
 90
        2
 40
-0.6
 41
30.0
 62
     5
 63
     7
 74
     0
 91
        0
 64
     7
 65
   257
 75
     1
175
     1
 42
1.0
 92
        8
 66
   257
 43
1.0
 76
     1
 77
     6
 78
     2
 67
     7
 79
     3
170
     0
171
     0
290
     0
174
     0
 93
       13
 44
0.0
173
     0
291
     0
 45
0.0
1001
ACAD
1000
AcDbSavedByObjectVersion
1070
     0
  0
VISUALSTYLE
  5
65B1
102
{ACAD_XDICTIONARY
360
679A
102
}
102
{ACAD_REACTORS
330
659C
102
}
330
659C
100
AcDbVisualStyle
  2
Shaded
 70
    27
 71
     2
 72
     2
 73
     1
 90
        2
 40
-0.6
 41
30.0
 62
     5
 63
     7
 74
     0
 91
        4
 64
     7
 65
   257
 75
     1
175
     1
 42
1.0
 92
        8
 66
   257
 43
1.0
 76
     1
 77
     6
 78
     2
 67
     8
 79
     3
170
     0
171
     0
290
     0
174
     0
 93
        5
 44
0.0
173
     0
291
     0
 45
0.0
1001
ACAD
1000
AcDbSavedByObjectVersion
1070
     0
  0
VISUALSTYLE
  5
65B0
102
{ACAD_XDICTIONARY
360
6798
102
}
102
{ACAD_REACTORS
330
659C
102
}
330
659C
100
AcDbVisualStyle
  2
Shaded with edges
 70
    26
 71
     2
 72
     2
 73
     1
 90
        2
 40
-0.6
 41
30.0
 62
     5
 63
     7
 74
     1
 91
       10
 64
     7
 65
   257
 75
     2
175
     1
 42
1.0
 92
        8
 66
   257
 43
1.0
 76
     1
 77
     6
 78
     2
 67
     7
 79
     3
170
     0
171
     0
290
     0
174
     0
 93
        5
 44
0.0
173
     0
291
     0
 45
0.0
1001
ACAD
1000
AcDbSavedByObjectVersion
1070
     0
  0
VISUALSTYLE
  5
65AD
102
{ACAD_XDICTIONARY
360
6792
102
}
102
{ACAD_REACTORS
330
659C
102
}
330
659C
100
AcDbVisualStyle
  2
Shades of Gray
 70
    23
 71
     2
 72
     2
 73
     3
 90
        0
 40
-0.6
 41
-30.0
 62
     5
 63
     7
 74
     2
 91
        2
 64
     7
 65
     7
 75
     1
175
     1
 42
40.0
 92
        8
 66
     7
 43
1.0
 76
     1
 77
     6
 78
     2
 67
     7
 79
     3
170
     0
171
     0
290
     0
174
     0
 93
        1
 44
0.0
173
     0
291
     0
 45
0.0
1001
ACAD
1000
AcDbSavedByObjectVersion
1070
     0
  0
VISUALSTYLE
  5
65AE
102
{ACAD_XDICTIONARY
360
6794
102
}
102
{ACAD_REACTORS
330
659C
102
}
330
659C
100
AcDbVisualStyle
  2
Sketchy
 70
    24
 71
     1
 72
     2
 73
     2
 90
        0
 40
-0.6
 41
-30.0
 62
     5
 63
     7
 74
     2
 91
        2
 64
     7
 65
     7
 75
     1
175
     1
 42
40.0
 92
       11
 66
     7
 43
1.0
 76
     1
 77
     6
 78
     2
 67
     7
 79
     6
170
     0
171
     0
290
     0
174
     0
 93
        1
 44
0.0
173
     0
291
     0
 45
0.0
1001
ACAD
1000
AcDbSavedByObjectVersion
1070
     0
  0
VISUALSTYLE
  5
65A9
102
{ACAD_XDICTIONARY
360
678A
102
}
102
{ACAD_REACTORS
330
659C
102
}
330
659C
100
AcDbVisualStyle
  2
Thicken
 70
    13
 71
     2
 72
     2
 73
     0
 90
        0
 40
-0.6
 41
-30.0
 62
     5
 63
     7
 74
     1
 91
        4
 64
     7
 65
   257
 75
     1
175
     1
 42
1.0
 92
       12
 66
     7
 43
1.0
 76
     1
 77
     6
 78
     2
 67
     7
 79
     5
170
     0
171
     0
290
     0
174
     0
 93
        1
 44
0.0
173
     0
291
     1
 45
0.0
1001
ACAD
1000
AcDbSavedByObjectVersion
1070
     0
  0
VISUALSTYLE
  5
65A3
102
{ACAD_XDICTIONARY
360
677E
102
}
102
{ACAD_REACTORS
330
659C
102
}
330
659C
100
AcDbVisualStyle
  2
Wireframe
 70
     5
 71
     0
 72
     2
 73
     0
 90
        0
 40
-0.6
 41
-30.0
 62
     5
 63
     7
 74
     1
 91
        4
 64
     7
 65
   257
 75
     1
175
     1
 42
1.0
 92
        0
 66
   257
 43
1.0
 76
     1
 77
     6
 78
     2
 67
     7
 79
     3
170
     0
171
     0
290
     0
174
     0
 93
        1
 44
0.0
173
     0
291
     0
 45
0.0
1001
ACAD
1000
AcDbSavedByObjectVersion
1070
     0
  0
VISUALSTYLE
  5
65AF
102
{ACAD_XDICTIONARY
360
6796
102
}
102
{ACAD_REACTORS
330
659C
102
}
330
659C
100
AcDbVisualStyle
  2
X-Ray
 70
    25
 71
     2
 72
     2
 73
     1
 90
        1
 40
0.5
 41
-30.0
 62
     5
 63
     7
 74
     1
 91
        0
 64
     7
 65
   257
 75
     1
175
     1
 42
1.0
 92
        8
 66
     7
 43
1.0
 76
     1
 77
     6
 78
     2
 67
     7
 79
     3
170
     0
171
     0
290
     0
174
     0
 93
       13
 44
0.0
173
     0
291
     0
 45
0.0
1001
ACAD
1000
AcDbSavedByObjectVersion
1070
     0
  0
DICTIONARYVAR
  5
6753
102
{ACAD_REACTORS
330
64D6
102
}
330
64D6
100
DictionaryVariables
280
     0
  1
1:1
  0
DICTIONARYVAR
  5
674F
102
{ACAD_REACTORS
330
64D6
102
}
330
64D6
100
DictionaryVariables
280
     0
  1
STANDARD
  0
DICTIONARYVAR
  5
674E
102
{ACAD_REACTORS
330
64D6
102
}
330
64D6
100
DictionaryVariables
280
     0
  1
STANDARD
  0
DICTIONARYVAR
  5
6750
102
{ACAD_REACTORS
330
64D6
102
}
330
64D6
100
DictionaryVariables
280
     0
  1
Metric50
  0
DICTIONARYVAR
  5
6751
102
{ACAD_REACTORS
330
64D6
102
}
330
64D6
100
DictionaryVariables
280
     0
  1
Metric50
  0
DICTIONARYVAR
  5
64D7
102
{ACAD_REACTORS
330
64D6
102
}
330
64D6
100
DictionaryVariables
280
     0
  1
1
  0
DICTIONARYVAR
  5
675D
102
{ACAD_REACTORS
330
64D6
102
}
330
64D6
100
DictionaryVariables
280
     0
  1
0
  0
DICTIONARYVAR
  5
6755
102
{ACAD_REACTORS
330
64D6
102
}
330
64D6
100
DictionaryVariables
280
     0
  1
1
  0
DICTIONARYVAR
  5
6756
102
{ACAD_REACTORS
330
64D6
102
}
330
64D6
100
DictionaryVariables
280
     0
  1
15
  0
DICTIONARYVAR
  5
6754
102
{ACAD_REACTORS
330
64D6
102
}
330
64D6
100
DictionaryVariables
280
     0
  1
0
  0
DICTIONARYVAR
  5
6752
102
{ACAD_REACTORS
330
64D6
102
}
330
64D6
100
DictionaryVariables
280
     0
  1
0
  0
DICTIONARYVAR
  5
675C
102
{ACAD_REACTORS
330
64D6
102
}
330
64D6
100
DictionaryVariables
280
     0
  1
127
  0
DICTIONARYVAR
  5
675E
102
{ACAD_REACTORS
330
64D6
102
}
330
64D6
100
DictionaryVariables
280
     0
  1
2
  0
DICTIONARY
  5
676A
102
{ACAD_REACTORS
330
6768
102
}
330
6768
100
AcDbDictionary
281
     1
  0
DICTIONARY
  5
6769
102
{ACAD_REACTORS
330
6768
102
}
330
6768
100
AcDbDictionary
281
     1
  3
140687753965616
350
6763
  3
140687753965632
350
6764
  3
140687753965648
350
6765
  3
140687753965664
350
6766
  3
140687753965680
350
6767
  0
DICTIONARY
  5
674B
330
65CF
100
AcDbDictionary
280
     1
281
     1
  3
ACAD_XREC_ROUNDTRIP
360
67A7
  0
DICTIONARY
  5
676B
330
1E94
100
AcDbDictionary
280
     1
281
     1
  3
ACAD_XREC_ROUNDTRIP
360
676C
  0
DICTIONARY
  5
676D
330
1E95
100
AcDbDictionary
280
     1
281
     1
  3
ACAD_XREC_ROUNDTRIP
360
676E
  0
DICTIONARY
  5
658D
330
658C
100
AcDbDictionary
280
     1
281
     1
  3
ACAD_XREC_ROUNDTRIP
360
6770
  3
BUMPTILE
360
658F
  3
DIFFUSETILE
360
658E
  3
OPACITYTILE
360
6592
  3
REFLECTIONTILE
360
6591
  3
REFRACTIONTILE
360
6593
  3
SPECULARTILE
360
6590
  0
DICTIONARY
  5
6585
330
6584
100
AcDbDictionary
280
     1
281
     1
  3
ACAD_XREC_ROUNDTRIP
360
676F
  3
BUMPTILE
360
6587
  3
DIFFUSETILE
360
6586
  3
OPACITYTILE
360
658A
  3
REFLECTIONTILE
360
6589
  3
REFRACTIONTILE
360
658B
  3
SPECULARTILE
360
6588
  0
DICTIONARY
  5
6595
330
6594
100
AcDbDictionary
280
     1
281
     1
  3
ACAD_XREC_ROUNDTRIP
360
6771
  3
BUMPTILE
360
6597
  3
DIFFUSETILE
360
6596
  3
OPACITYTILE
360
659A
  3
REFLECTIONTILE
360
6599
  3
REFRACTIONTILE
360
659B
  3
SPECULARTILE
360
6598
  0
DICTIONARY
  5
67A4
330
65CB
100
AcDbDictionary
280
     1
281
     1
  3
ACAD_XREC_ROUNDTRIP
360
67A5
  0
DICTIONARY
  5
6749
330
65CD
100
AcDbDictionary
280
     1
281
     1
  3
ACAD_XREC_ROUNDTRIP
360
67A6
  0
DICTIONARY
  5
675F
330
65B7
100
AcDbDictionary
280
     1
281
     1
  3
ACAD_ROUNDTRIP_2008_TABLESTYLE_CELLSTYLEMAP
360
6760
  3
ACAD_XREC_ROUNDTRIP
360
67A2
  0
DICTIONARY
  5
677C
330
65A2
100
AcDbDictionary
280
     1
281
     1
  3
ACAD_XREC_ROUNDTRIP
360
677D
  0
DICTIONARY
  5
677A
330
65A1
100
AcDbDictionary
280
     1
281
     1
  3
ACAD_XREC_ROUNDTRIP
360
677B
  0
DICTIONARY
  5
6788
330
65A8
100
AcDbDictionary
280
     1
281
     1
  3
ACAD_XREC_ROUNDTRIP
360
6789
  0
DICTIONARY
  5
6790
330
65AC
100
AcDbDictionary
280
     1
281
     1
  3
ACAD_XREC_ROUNDTRIP
360
6791
  0
DICTIONARY
  5
6782
330
65A5
100
AcDbDictionary
280
     1
281
     1
  3
ACAD_XREC_ROUNDTRIP
360
6783
  0
DICTIONARY
  5
6786
330
65A7
100
AcDbDictionary
280
     1
281
     1
  3
ACAD_XREC_ROUNDTRIP
360
6787
  0
DICTIONARY
  5
67A0
330
65B4
100
AcDbDictionary
280
     1
281
     1
  3
ACAD_XREC_ROUNDTRIP
360
67A1
  0
DICTIONARY
  5
678E
330
65AB
100
AcDbDictionary
280
     1
281
     1
  3
ACAD_XREC_ROUNDTRIP
360
678F
  0
DICTIONARY
  5
6772
330
659D
100
AcDbDictionary
280
     1
281
     1
  3
ACAD_XREC_ROUNDTRIP
360
6773
  0
DICTIONARY
  5
6774
330
659E
100
AcDbDictionary
280
     1
281
     1
  3
ACAD_XREC_ROUNDTRIP
360
6775
  0
DICTIONARY
  5
6776
330
659F
100
AcDbDictionary
280
     1
281
     1
  3
ACAD_XREC_ROUNDTRIP
360
6777
  0
DICTIONARY
  5
6778
330
65A0
100
AcDbDictionary
280
     1
281
     1
  3
ACAD_XREC_ROUNDTRIP
360
6779
  0
DICTIONARY
  5
6780
330
65A4
100
AcDbDictionary
280
     1
281
     1
  3
ACAD_XREC_ROUNDTRIP
360
6781
  0
DICTIONARY
  5
679C
330
65B2
100
AcDbDictionary
280
     1
281
     1
  3
ACAD_XREC_ROUNDTRIP
360
679D
  0
DICTIONARY
  5
678C
330
65AA
100
AcDbDictionary
280
     1
281
     1
  3
ACAD_XREC_ROUNDTRIP
360
678D
  0
DICTIONARY
  5
679E
330
65B3
100
AcDbDictionary
280
     1
281
     1
  3
ACAD_XREC_ROUNDTRIP
360
679F
  0
DICTIONARY
  5
6784
330
65A6
100
AcDbDictionary
280
     1
281
     1
  3
ACAD_XREC_ROUNDTRIP
360
6785
  0
DICTIONARY
  5
679A
330
65B1
100
AcDbDictionary
280
     1
281
     1
  3
ACAD_XREC_ROUNDTRIP
360
679B
  0
DICTIONARY
  5
6798
330
65B0
100
AcDbDictionary
280
     1
281
     1
  3
ACAD_XREC_ROUNDTRIP
360
6799
  0
DICTIONARY
  5
6792
330
65AD
100
AcDbDictionary
280
     1
281
     1
  3
ACAD_XREC_ROUNDTRIP
360
6793
  0
DICTIONARY
  5
6794
330
65AE
100
AcDbDictionary
280
     1
281
     1
  3
ACAD_XREC_ROUNDTRIP
360
6795
  0
DICTIONARY
  5
678A
330
65A9
100
AcDbDictionary
280
     1
281
     1
  3
ACAD_XREC_ROUNDTRIP
360
678B
  0
DICTIONARY
  5
677E
330
65A3
100
AcDbDictionary
280
     1
281
     1
  3
ACAD_XREC_ROUNDTRIP
360
677F
  0
DICTIONARY
  5
6796
330
65AF
100
AcDbDictionary
280
     1
281
     1
  3
ACAD_XREC_ROUNDTRIP
360
6797
  0
XRECORD
  5
6763
102
{ACAD_REACTORS
330
6769
102
}
330
6769
100
AcDbXrecord
280
     1
  1
AcDb_Thumbnail_Schema
102
{ATTRRECORD
341
6764
  2
AcDbDs::TreatedAsObjectData
280
     1
291
     1
102
ATTRRECORD}
102
{ATTRRECORD
341
6765
  2
AcDbDs::Legacy
280
     1
291
     1
102
ATTRRECORD}
  2
AcDbDs::ID
280
    10
 91
        8
102
{ATTRRECORD
341
6766
  2
AcDs:Indexable
280
     1
291
     1
102
ATTRRECORD}
102
{ATTRRECORD
341
6767
  2
AcDbDs::HandleAttribute
280
     7
282
     1
102
ATTRRECORD}
  2
Thumbnail_Data
280
    15
 91
        0
  0
XRECORD
  5
6764
102
{ACAD_REACTORS
330
6769
102
}
330
6769
100
AcDbXrecord
280
     1
  1
AcDbDs::TreatedAsObjectDataSchema
  2
AcDbDs::TreatedAsObjectData
280
     1
 91
        0
  0
XRECORD
  5
6765
102
{ACAD_REACTORS
330
6769
102
}
330
6769
100
AcDbXrecord
280
     1
  1
AcDbDs::LegacySchema
  2
AcDbDs::Legacy
280
     1
 91
        0
  0
XRECORD
  5
6766
102
{ACAD_REACTORS
330
6769
102
}
330
6769
100
AcDbXrecord
280
     1
  1
AcDbDs::IndexedPropertySchema
  2
AcDs:Indexable
280
     1
 91
        0
  0
XRECORD
  5
6767
102
{ACAD_REACTORS
330
6769
102
}
330
6769
100
AcDbXrecord
280
     1
  1
AcDbDs::HandleAttributeSchema
  2
AcDbDs::HandleAttribute
280
     7
 91
        1
284
     1
  0
XRECORD
  5
67A7
102
{ACAD_REACTORS
330
674B
102
}
330
674B
100
AcDbXrecord
280
     1
102
DISPLAYNAME
  1
Metric50
102
FLAGS
 90
        0
  0
XRECORD
  5
676C
102
{ACAD_REACTORS
330
676B
102
}
330
676B
100
AcDbXrecord
280
     1
102
SHADEPLOT
 70
     0
102
SHADEPLOTRESLEVEL
 70
     2
102
SHADEPLOTCUSTOMDPI
 70
   300
  0
XRECORD
  5
676E
102
{ACAD_REACTORS
330
676D
102
}
330
676D
100
AcDbXrecord
280
     1
102
SHADEPLOT
 70
     0
102
SHADEPLOTRESLEVEL
 70
     2
102
SHADEPLOTCUSTOMDPI
 70
   300
  0
XRECORD
  5
6770
102
{ACAD_REACTORS
330
658D
102
}
330
658D
100
AcDbXrecord
280
     1
102
MATERIAL
148
0.0
149
0.0
149
0.0
 93
        0
 94
      127
282
     0
 72
     0
 77
     0
171
     0
175
     0
179
     0
273
     0
  0
XRECORD
  5
658F
102
{ACAD_REACTORS
330
658D
102
}
330
658D
100
AcDbXrecord
280
     1
270
     1
271
     1
  0
XRECORD
  5
658E
102
{ACAD_REACTORS
330
658D
102
}
330
658D
100
AcDbXrecord
280
     1
270
     1
271
     1
  0
XRECORD
  5
6592
102
{ACAD_REACTORS
330
658D
102
}
330
658D
100
AcDbXrecord
280
     1
270
     1
271
     1
  0
XRECORD
  5
6591
102
{ACAD_REACTORS
330
658D
102
}
330
658D
100
AcDbXrecord
280
     1
270
     1
271
     1
  0
XRECORD
  5
6593
102
{ACAD_REACTORS
330
658D
102
}
330
658D
100
AcDbXrecord
280
     1
270
     1
271
     1
  0
XRECORD
  5
6590
102
{ACAD_REACTORS
330
658D
102
}
330
658D
100
AcDbXrecord
280
     1
270
     1
271
     1
  0
XRECORD
  5
676F
102
{ACAD_REACTORS
330
6585
102
}
330
6585
100
AcDbXrecord
280
     1
102
MATERIAL
148
0.0
149
0.0
149
0.0
 93
        0
 94
      127
282
     0
 72
     0
 77
     0
171
     0
175
     0
179
     0
273
     0
  0
XRECORD
  5
6587
102
{ACAD_REACTORS
330
6585
102
}
330
6585
100
AcDbXrecord
280
     1
270
     1
271
     1
  0
XRECORD
  5
6586
102
{ACAD_REACTORS
330
6585
102
}
330
6585
100
AcDbXrecord
280
     1
270
     1
271
     1
  0
XRECORD
  5
658A
102
{ACAD_REACTORS
330
6585
102
}
330
6585
100
AcDbXrecord
280
     1
270
     1
271
     1
  0
XRECORD
  5
6589
102
{ACAD_REACTORS
330
6585
102
}
330
6585
100
AcDbXrecord
280
     1
270
     1
271
     1
  0
XRECORD
  5
658B
102
{ACAD_REACTORS
330
6585
102
}
330
6585
100
AcDbXrecord
280
     1
270
     1
271
     1
  0
XRECORD
  5
6588
102
{ACAD_REACTORS
330
6585
102
}
330
6585
100
AcDbXrecord
280
     1
270
     1
271
     1
  0
XRECORD
  5
6771
102
{ACAD_REACTORS
330
6595
102
}
330
6595
100
AcDbXrecord
280
     1
102
MATERIAL
148
0.0
149
0.0
149
0.0
 93
        0
 94
      127
282
     0
 72
     0
 77
     0
171
     0
175
     0
179
     0
273
     0
  0
XRECORD
  5
6597
102
{ACAD_REACTORS
330
6595
102
}
330
6595
100
AcDbXrecord
280
     1
270
     1
271
     1
  0
XRECORD
  5
6596
102
{ACAD_REACTORS
330
6595
102
}
330
6595
100
AcDbXrecord
280
     1
270
     1
271
     1
  0
XRECORD
  5
659A
102
{ACAD_REACTORS
330
6595
102
}
330
6595
100
AcDbXrecord
280
     1
270
     1
271
     1
  0
XRECORD
  5
6599
102
{ACAD_REACTORS
330
6595
102
}
330
6595
100
AcDbXrecord
280
     1
270
     1
271
     1
  0
XRECORD
  5
659B
102
{ACAD_REACTORS
330
6595
102
}
330
6595
100
AcDbXrecord
280
     1
270
     1
271
     1
  0
XRECORD
  5
6598
102
{ACAD_REACTORS
330
6595
102
}
330
6595
100
AcDbXrecord
280
     1
270
     1
271
     1
  0
XRECORD
  5
67A5
102
{ACAD_REACTORS
330
67A4
102
}
330
67A4
100
AcDbXrecord
280
     1
102
ACAD_ROUNDTRIP_2012_MLEADER_STYLE
298
     1
  0
XRECORD
  5
67A6
102
{ACAD_REACTORS
330
6749
102
}
330
6749
100
AcDbXrecord
280
     1
102
DISPLAYNAME
  1
Metric50
102
FLAGS
 90
        0
  0
CELLSTYLEMAP
  5
6760
102
{ACAD_REACTORS
330
675F
102
}
330
675F
100
AcDbCellStyleMap
 90
        3
300
CELLSTYLE
  1
TABLEFORMAT_BEGIN
 90
        5
170
     1
 91
        0
 92
    32768
 62
   257
 93
        1
300
CONTENTFORMAT
  1
CONTENTFORMAT_BEGIN
 90
        0
 91
        0
 92
      512
 93
        0
300

 40
0.0
140
1.0
 94
        5
 62
     0
340
10
144
6.0
309
CONTENTFORMAT_END
171
     1
301
MARGIN
  1
CELLMARGIN_BEGIN
 40
1.5
 40
1.5
 40
1.5
 40
1.5
 40
4.5
 40
4.5
309
CELLMARGIN_END
 94
        6
 95
        1
302
GRIDFORMAT
  1
GRIDFORMAT_BEGIN
 90
        0
 91
        1
 62
     0
 92
       -2
340
0
 93
        0
 40
1.125
309
GRIDFORMAT_END
 95
        2
302
GRIDFORMAT
  1
GRIDFORMAT_BEGIN
 90
        0
 91
        1
 62
     0
 92
       -2
340
0
 93
        0
 40
1.125
309
GRIDFORMAT_END
 95
        4
302
GRIDFORMAT
  1
GRIDFORMAT_BEGIN
 90
        0
 91
        1
 62
     0
 92
       -2
340
0
 93
        0
 40
1.125
309
GRIDFORMAT_END
 95
        8
302
GRIDFORMAT
  1
GRIDFORMAT_BEGIN
 90
        0
 91
        1
 62
     0
 92
       -2
340
0
 93
        0
 40
1.125
309
GRIDFORMAT_END
 95
       16
302
GRIDFORMAT
  1
GRIDFORMAT_BEGIN
 90
        0
 91
        1
 62
     0
 92
       -2
340
0
 93
        0
 40
1.125
309
GRIDFORMAT_END
 95
       32
302
GRIDFORMAT
  1
GRIDFORMAT_BEGIN
 90
        0
 91
        1
 62
     0
 92
       -2
340
0
 93
        0
 40
1.125
309
GRIDFORMAT_END
309
TABLEFORMAT_END
  1
CELLSTYLE_BEGIN
 90
        1
 91
        1
300
_TITLE
309
CELLSTYLE_END
300
CELLSTYLE
  1
TABLEFORMAT_BEGIN
 90
        5
170
     1
 91
        0
 92
        0
 62
   257
 93
        1
300
CONTENTFORMAT
  1
CONTENTFORMAT_BEGIN
 90
        0
 91
        0
 92
      512
 93
        0
300

 40
0.0
140
1.0
 94
        5
 62
     0
340
10
144
4.5
309
CONTENTFORMAT_END
171
     1
301
MARGIN
  1
CELLMARGIN_BEGIN
 40
1.5
 40
1.5
 40
1.5
 40
1.5
 40
4.5
 40
4.5
309
CELLMARGIN_END
 94
        6
 95
        1
302
GRIDFORMAT
  1
GRIDFORMAT_BEGIN
 90
        0
 91
        1
 62
     0
 92
       -2
340
0
 93
        0
 40
1.125
309
GRIDFORMAT_END
 95
        2
302
GRIDFORMAT
  1
GRIDFORMAT_BEGIN
 90
        0
 91
        1
 62
     0
 92
       -2
340
0
 93
        0
 40
1.125
309
GRIDFORMAT_END
 95
        4
302
GRIDFORMAT
  1
GRIDFORMAT_BEGIN
 90
        0
 91
        1
 62
     0
 92
       -2
340
0
 93
        0
 40
1.125
309
GRIDFORMAT_END
 95
        8
302
GRIDFORMAT
  1
GRIDFORMAT_BEGIN
 90
        0
 91
        1
 62
     0
 92
       -2
340
0
 93
        0
 40
1.125
309
GRIDFORMAT_END
 95
       16
302
GRIDFORMAT
  1
GRIDFORMAT_BEGIN
 90
        0
 91
        1
 62
     0
 92
       -2
340
0
 93
        0
 40
1.125
309
GRIDFORMAT_END
 95
       32
302
GRIDFORMAT
  1
GRIDFORMAT_BEGIN
 90
        0
 91
        1
 62
     0
 92
       -2
340
0
 93
        0
 40
1.125
309
GRIDFORMAT_END
309
TABLEFORMAT_END
  1
CELLSTYLE_BEGIN
 90
        2
 91
        1
300
_HEADER
309
CELLSTYLE_END
300
CELLSTYLE
  1
TABLEFORMAT_BEGIN
 90
        5
170
     1
 91
        0
 92
        0
 62
   257
 93
        1
300
CONTENTFORMAT
  1
CONTENTFORMAT_BEGIN
 90
        0
 91
        0
 92
      512
 93
        0
300

 40
0.0
140
1.0
 94
        2
 62
     0
340
10
144
4.5
309
CONTENTFORMAT_END
171
     1
301
MARGIN
  1
CELLMARGIN_BEGIN
 40
1.5
 40
1.5
 40
1.5
 40
1.5
 40
4.5
 40
4.5
309
CELLMARGIN_END
 94
        6
 95
        1
302
GRIDFORMAT
  1
GRIDFORMAT_BEGIN
 90
        0
 91
        1
 62
     0
 92
       -2
340
0
 93
        0
 40
1.125
309
GRIDFORMAT_END
 95
        2
302
GRIDFORMAT
  1
GRIDFORMAT_BEGIN
 90
        0
 91
        1
 62
     0
 92
       -2
340
0
 93
        0
 40
1.125
309
GRIDFORMAT_END
 95
        4
302
GRIDFORMAT
  1
GRIDFORMAT_BEGIN
 90
        0
 91
        1
 62
     0
 92
       -2
340
0
 93
        0
 40
1.125
309
GRIDFORMAT_END
 95
        8
302
GRIDFORMAT
  1
GRIDFORMAT_BEGIN
 90
        0
 91
        1
 62
     0
 92
       -2
340
0
 93
        0
 40
1.125
309
GRIDFORMAT_END
 95
       16
302
GRIDFORMAT
  1
GRIDFORMAT_BEGIN
 90
        0
 91
        1
 62
     0
 92
       -2
340
0
 93
        0
 40
1.125
309
GRIDFORMAT_END
 95
       32
302
GRIDFORMAT
  1
GRIDFORMAT_BEGIN
 90
        0
 91
        1
 62
     0
 92
       -2
340
0
 93
        0
 40
1.125
309
GRIDFORMAT_END
309
TABLEFORMAT_END
  1
CELLSTYLE_BEGIN
 90
        3
 91
        2
300
_DATA
309
CELLSTYLE_END
  0
XRECORD
  5
67A2
102
{ACAD_REACTORS
330
675F
102
}
330
675F
100
AcDbXrecord
280
     1
102
ACAD_ROUNDTRIP_PRE2007_TABLESTYLE
 90
      512
 91
        0
  1

 92
      512
 93
        0
  2

 94
      512
 95
        0
  3

  0
XRECORD
  5
677D
102
{ACAD_REACTORS
330
677C
102
}
330
677C
100
AcDbXrecord
280
     1
102
RTVSPost2010Prop28
280
     1
102
RTVSPost2010PropOp28
 70
     1
102
RTVSPost2010Prop29
280
     1
102
RTVSPost2010PropOp29
 70
     1
102
RTVSPost2010Prop30
280
     0
102
RTVSPost2010PropOp30
 70
     1
102
RTVSPost2010Prop31
280
     0
102
RTVSPost2010PropOp31
 70
     1
102
RTVSPost2010Prop32
280
     0
102
RTVSPost2010PropOp32
 70
     1
102
RTVSPost2010Prop33
280
     0
102
RTVSPost2010PropOp33
 70
     1
102
RTVSPost2010Prop34
280
     0
102
RTVSPost2010PropOp34
 70
     1
102
RTVSPost2010Prop35
280
     0
102
RTVSPost2010PropOp35
 70
     1
102
RTVSPost2010Prop36
280
     0
102
RTVSPost2010PropOp36
 70
     1
102
RTVSPost2010Prop37
 90
       50
102
RTVSPost2010PropOp37
 70
     1
102
RTVSPost2010Prop38
140
0.0
102
RTVSPost2010PropOp38
 70
     1
102
RTVSPost2010Prop39
140
1.0
102
RTVSPost2010PropOp39
 70
     1
102
RTVSPost2010Prop40
 90
        0
102
RTVSPost2010PropOp40
 70
     1
102
RTVSPost2010Prop41ColorIndex
 90
       18
102
RTVSPost2010Prop41ColorRGB
 90
        0
102
RTVSPost2010PropOp41
 70
     1
102
RTVSPost2010Prop42
 90
       50
102
RTVSPost2010PropOp42
 70
     1
102
RTVSPost2010Prop43
 90
        3
102
RTVSPost2010PropOp43
 70
     1
102
RTVSPost2010Prop44ColorIndex
 90
        5
102
RTVSPost2010Prop44ColorRGB
 90
      255
102
RTVSPost2010PropOp44
 70
     1
102
RTVSPost2010Prop45
280
     0
102
RTVSPost2010PropOp45
 70
     1
102
RTVSPost2010Prop46
 90
       50
102
RTVSPost2010PropOp46
 70
     1
102
RTVSPost2010Prop47
 90
       50
102
RTVSPost2010PropOp47
 70
     1
102
RTVSPost2010Prop48
 90
       50
102
RTVSPost2010PropOp48
 70
     1
102
RTVSPost2010Prop49
280
     0
102
RTVSPost2010PropOp49
 70
     1
102
RTVSPost2010Prop50
 90
       50
102
RTVSPost2010PropOp50
 70
     1
102
RTVSPost2010Prop51ColorIndex
 90
      256
102
RTVSPost2010Prop51ColorRGB
 90
-16777216
102
RTVSPost2010PropOp51
 70
     0
102
RTVSPost2010Prop52
140
1.0
102
RTVSPost2010PropOp52
 70
     0
102
RTVSPost2010Prop53
 90
        2
102
RTVSPost2010PropOp53
 70
     1
102
RTVSPost2010Prop54
  1
strokes_ogs.tif
102
RTVSPost2010PropOp54
 70
     1
102
RTVSPost2010Prop55
280
     0
102
RTVSPost2010PropOp55
 70
     1
102
RTVSPost2010Prop56
140
1.0
102
RTVSPost2010PropOp56
 70
     1
102
RTVSPost2010Prop57
140
1.0
102
RTVSPost2010PropOp57
 70
     1
102
RTVSPropertyOp0
 70
     1
102
RTVSPropertyOp1
 70
     1
102
RTVSPropertyOp2
 70
     1
102
RTVSPropertyOp3
 70
     1
102
RTVSPropertyOp4
 70
     1
102
RTVSPropertyOp5
 70
     1
102
RTVSPropertyOp6
 70
     1
102
RTVSPropertyOp7
 70
     1
102
RTVSPropertyOp8
 70
     1
102
RTVSPropertyOp9
 70
     1
102
RTVSPropertyOp10
 70
     1
102
RTVSPropertyOp11
 70
     1
102
RTVSPropertyOp12
 70
     1
102
RTVSPropertyOp13
 70
     1
102
RTVSPropertyOp14
 70
     1
102
RTVSPropertyOp15
 70
     1
102
RTVSPropertyOp16
 70
     1
102
RTVSPropertyOp17
 70
     1
102
RTVSPropertyOp18
 70
     1
102
RTVSPropertyOp19
 70
     1
102
RTVSPropertyOp20
 70
     1
102
RTVSPropertyOp21
 70
     1
102
RTVSPropertyOp22
 70
     1
102
RTVSPropertyOp23
 70
     1
102
RTVSPropertyOp24
 70
     1
102
RTVSPropertyOp25
 70
     1
102
RTVSPropertyOp26
 70
     1
102
RTVSPropertyOp27
 70
     1
102
RTVSPropertyOp28
 70
     1
102
RTVSPropertyOp29
 70
     1
102
RTVSPropertyOp30
 70
     1
102
RTVSPropertyOp31
 70
     1
102
RTVSPropertyOp32
 70
     1
102
RTVSPropertyOp33
 70
     1
102
RTVSPropertyOp34
 70
     1
102
RTVSPropertyOp35
 70
     1
102
RTVSPropertyOp36
 70
     1
102
RTVSPropertyOp37
 70
     1
102
RTVSPropertyOp38
 70
     1
102
RTVSPropertyOp39
 70
     1
102
RTVSPropertyOp40
 70
     1
102
RTVSPropertyOp41
 70
     1
102
RTVSPropertyOp42
 70
     1
102
RTVSPropertyOp43
 70
     1
102
RTVSPropertyOp44
 70
     1
102
RTVSPropertyOp45
 70
     1
102
RTVSPropertyOp46
 70
     1
102
RTVSPropertyOp47
 70
     1
102
RTVSPropertyOp48
 70
     1
102
RTVSPropertyOp49
 70
     1
102
RTVSPropertyOp50
 70
     1
102
RTVSPropertyOp51
 70
     0
102
RTVSPropertyOp52
 70
     0
102
RTVSPropertyOp53
 70
     1
102
RTVSPropertyOp54
 70
     1
102
RTVSPropertyOp55
 70
     1
102
RTVSPropertyOp56
 70
     1
102
RTVSPropertyOp57
 70
     1
102
RTVSPropertyOp58
 70
     1
102
RTVSPropertyOp59
 70
     1
102
RTVSPropertyOp60
 70
     1
102
RTVSPropertyOp61
 70
     1
102
RTVSPropertyOp62
 70
     1
  0
XRECORD
  5
677B
102
{ACAD_REACTORS
330
677A
102
}
330
677A
100
AcDbXrecord
280
     1
102
RTVSPost2010Prop28
280
     0
102
RTVSPost2010PropOp28
 70
     1
102
RTVSPost2010Prop29
280
     1
102
RTVSPost2010PropOp29
 70
     1
102
RTVSPost2010Prop30
280
     1
102
RTVSPost2010PropOp30
 70
     1
102
RTVSPost2010Prop31
280
     0
102
RTVSPost2010PropOp31
 70
     1
102
RTVSPost2010Prop32
280
     0
102
RTVSPost2010PropOp32
 70
     1
102
RTVSPost2010Prop33
280
     0
102
RTVSPost2010PropOp33
 70
     1
102
RTVSPost2010Prop34
280
     0
102
RTVSPost2010PropOp34
 70
     1
102
RTVSPost2010Prop35
280
     0
102
RTVSPost2010PropOp35
 70
     1
102
RTVSPost2010Prop36
280
     0
102
RTVSPost2010PropOp36
 70
     1
102
RTVSPost2010Prop37
 90
       50
102
RTVSPost2010PropOp37
 70
     1
102
RTVSPost2010Prop38
140
0.0
102
RTVSPost2010PropOp38
 70
     1
102
RTVSPost2010Prop39
140
1.0
102
RTVSPost2010PropOp39
 70
     1
102
RTVSPost2010Prop40
 90
        0
102
RTVSPost2010PropOp40
 70
     1
102
RTVSPost2010Prop41ColorIndex
 90
       18
102
RTVSPost2010Prop41ColorRGB
 90
        0
102
RTVSPost2010PropOp41
 70
     1
102
RTVSPost2010Prop42
 90
       50
102
RTVSPost2010PropOp42
 70
     1
102
RTVSPost2010Prop43
 90
        3
102
RTVSPost2010PropOp43
 70
     1
102
RTVSPost2010Prop44ColorIndex
 90
        5
102
RTVSPost2010Prop44ColorRGB
 90
      255
102
RTVSPost2010PropOp44
 70
     1
102
RTVSPost2010Prop45
280
     0
102
RTVSPost2010PropOp45
 70
     1
102
RTVSPost2010Prop46
 90
       50
102
RTVSPost2010PropOp46
 70
     1
102
RTVSPost2010Prop47
 90
       50
102
RTVSPost2010PropOp47
 70
     1
102
RTVSPost2010Prop48
 90
       50
102
RTVSPost2010PropOp48
 70
     1
102
RTVSPost2010Prop49
280
     0
102
RTVSPost2010PropOp49
 70
     1
102
RTVSPost2010Prop50
 90
       50
102
RTVSPost2010PropOp50
 70
     1
102
RTVSPost2010Prop51ColorIndex
 90
      256
102
RTVSPost2010Prop51ColorRGB
 90
-16777216
102
RTVSPost2010PropOp51
 70
     0
102
RTVSPost2010Prop52
140
1.0
102
RTVSPost2010PropOp52
 70
     0
102
RTVSPost2010Prop53
 90
        2
102
RTVSPost2010PropOp53
 70
     1
102
RTVSPost2010Prop54
  1
strokes_ogs.tif
102
RTVSPost2010PropOp54
 70
     1
102
RTVSPost2010Prop55
280
     0
102
RTVSPost2010PropOp55
 70
     1
102
RTVSPost2010Prop56
140
1.0
102
RTVSPost2010PropOp56
 70
     1
102
RTVSPost2010Prop57
140
1.0
102
RTVSPost2010PropOp57
 70
     1
102
RTVSPropertyOp0
 70
     1
102
RTVSPropertyOp1
 70
     1
102
RTVSPropertyOp2
 70
     1
102
RTVSPropertyOp3
 70
     1
102
RTVSPropertyOp4
 70
     1
102
RTVSPropertyOp5
 70
     1
102
RTVSPropertyOp6
 70
     1
102
RTVSPropertyOp7
 70
     1
102
RTVSPropertyOp8
 70
     1
102
RTVSPropertyOp9
 70
     1
102
RTVSPropertyOp10
 70
     1
102
RTVSPropertyOp11
 70
     1
102
RTVSPropertyOp12
 70
     1
102
RTVSPropertyOp13
 70
     1
102
RTVSPropertyOp14
 70
     1
102
RTVSPropertyOp15
 70
     1
102
RTVSPropertyOp16
 70
     1
102
RTVSPropertyOp17
 70
     1
102
RTVSPropertyOp18
 70
     1
102
RTVSPropertyOp19
 70
     1
102
RTVSPropertyOp20
 70
     1
102
RTVSPropertyOp21
 70
     1
102
RTVSPropertyOp22
 70
     1
102
RTVSPropertyOp23
 70
     1
102
RTVSPropertyOp24
 70
     1
102
RTVSPropertyOp25
 70
     1
102
RTVSPropertyOp26
 70
     1
102
RTVSPropertyOp27
 70
     1
102
RTVSPropertyOp28
 70
     1
102
RTVSPropertyOp29
 70
     1
102
RTVSPropertyOp30
 70
     1
102
RTVSPropertyOp31
 70
     1
102
RTVSPropertyOp32
 70
     1
102
RTVSPropertyOp33
 70
     1
102
RTVSPropertyOp34
 70
     1
102
RTVSPropertyOp35
 70
     1
102
RTVSPropertyOp36
 70
     1
102
RTVSPropertyOp37
 70
     1
102
RTVSPropertyOp38
 70
     1
102
RTVSPropertyOp39
 70
     1
102
RTVSPropertyOp40
 70
     1
102
RTVSPropertyOp41
 70
     1
102
RTVSPropertyOp42
 70
     1
102
RTVSPropertyOp43
 70
     1
102
RTVSPropertyOp44
 70
     1
102
RTVSPropertyOp45
 70
     1
102
RTVSPropertyOp46
 70
     1
102
RTVSPropertyOp47
 70
     1
102
RTVSPropertyOp48
 70
     1
102
RTVSPropertyOp49
 70
     1
102
RTVSPropertyOp50
 70
     1
102
RTVSPropertyOp51
 70
     0
102
RTVSPropertyOp52
 70
     0
102
RTVSPropertyOp53
 70
     1
102
RTVSPropertyOp54
 70
     1
102
RTVSPropertyOp55
 70
     1
102
RTVSPropertyOp56
 70
     1
102
RTVSPropertyOp57
 70
     1
102
RTVSPropertyOp58
 70
     1
102
RTVSPropertyOp59
 70
     1
102
RTVSPropertyOp60
 70
     1
102
RTVSPropertyOp61
 70
     1
102
RTVSPropertyOp62
 70
     1
  0
XRECORD
  5
6789
102
{ACAD_REACTORS
330
6788
102
}
330
6788
100
AcDbXrecord
280
     1
102
RTVSPost2010Prop28
280
     0
102
RTVSPost2010PropOp28
 70
     1
102
RTVSPost2010Prop29
280
     1
102
RTVSPost2010PropOp29
 70
     1
102
RTVSPost2010Prop30
280
     1
102
RTVSPost2010PropOp30
 70
     1
102
RTVSPost2010Prop31
280
     0
102
RTVSPost2010PropOp31
 70
     1
102
RTVSPost2010Prop32
280
     0
102
RTVSPost2010PropOp32
 70
     1
102
RTVSPost2010Prop33
280
     0
102
RTVSPost2010PropOp33
 70
     1
102
RTVSPost2010Prop34
280
     0
102
RTVSPost2010PropOp34
 70
     1
102
RTVSPost2010Prop35
280
     0
102
RTVSPost2010PropOp35
 70
     1
102
RTVSPost2010Prop36
280
     0
102
RTVSPost2010PropOp36
 70
     1
102
RTVSPost2010Prop37
 90
       50
102
RTVSPost2010PropOp37
 70
     1
102
RTVSPost2010Prop38
140
0.0
102
RTVSPost2010PropOp38
 70
     1
102
RTVSPost2010Prop39
140
1.0
102
RTVSPost2010PropOp39
 70
     1
102
RTVSPost2010Prop40
 90
        0
102
RTVSPost2010PropOp40
 70
     1
102
RTVSPost2010Prop41ColorIndex
 90
       18
102
RTVSPost2010Prop41ColorRGB
 90
        0
102
RTVSPost2010PropOp41
 70
     1
102
RTVSPost2010Prop42
 90
       50
102
RTVSPost2010PropOp42
 70
     1
102
RTVSPost2010Prop43
 90
        3
102
RTVSPost2010PropOp43
 70
     1
102
RTVSPost2010Prop44ColorIndex
 90
        5
102
RTVSPost2010Prop44ColorRGB
 90
      255
102
RTVSPost2010PropOp44
 70
     1
102
RTVSPost2010Prop45
280
     0
102
RTVSPost2010PropOp45
 70
     1
102
RTVSPost2010Prop46
 90
       50
102
RTVSPost2010PropOp46
 70
     1
102
RTVSPost2010Prop47
 90
       50
102
RTVSPost2010PropOp47
 70
     1
102
RTVSPost2010Prop48
 90
       50
102
RTVSPost2010PropOp48
 70
     1
102
RTVSPost2010Prop49
280
     0
102
RTVSPost2010PropOp49
 70
     1
102
RTVSPost2010Prop50
 90
       50
102
RTVSPost2010PropOp50
 70
     1
102
RTVSPost2010Prop51ColorIndex
 90
      256
102
RTVSPost2010Prop51ColorRGB
 90
-16777216
102
RTVSPost2010PropOp51
 70
     0
102
RTVSPost2010Prop52
140
1.0
102
RTVSPost2010PropOp52
 70
     0
102
RTVSPost2010Prop53
 90
        2
102
RTVSPost2010PropOp53
 70
     1
102
RTVSPost2010Prop54
  1
strokes_ogs.tif
102
RTVSPost2010PropOp54
 70
     1
102
RTVSPost2010Prop55
280
     0
102
RTVSPost2010PropOp55
 70
     1
102
RTVSPost2010Prop56
140
1.0
102
RTVSPost2010PropOp56
 70
     1
102
RTVSPost2010Prop57
140
1.0
102
RTVSPost2010PropOp57
 70
     1
102
RTVSPropertyOp0
 70
     1
102
RTVSPropertyOp1
 70
     1
102
RTVSPropertyOp2
 70
     1
102
RTVSPropertyOp3
 70
     1
102
RTVSPropertyOp4
 70
     1
102
RTVSPropertyOp5
 70
     1
102
RTVSPropertyOp6
 70
     1
102
RTVSPropertyOp7
 70
     1
102
RTVSPropertyOp8
 70
     1
102
RTVSPropertyOp9
 70
     1
102
RTVSPropertyOp10
 70
     1
102
RTVSPropertyOp11
 70
     1
102
RTVSPropertyOp12
 70
     1
102
RTVSPropertyOp13
 70
     1
102
RTVSPropertyOp14
 70
     1
102
RTVSPropertyOp15
 70
     1
102
RTVSPropertyOp16
 70
     1
102
RTVSPropertyOp17
 70
     1
102
RTVSPropertyOp18
 70
     1
102
RTVSPropertyOp19
 70
     1
102
RTVSPropertyOp20
 70
     1
102
RTVSPropertyOp21
 70
     1
102
RTVSPropertyOp22
 70
     1
102
RTVSPropertyOp23
 70
     1
102
RTVSPropertyOp24
 70
     1
102
RTVSPropertyOp25
 70
     1
102
RTVSPropertyOp26
 70
     1
102
RTVSPropertyOp27
 70
     1
102
RTVSPropertyOp28
 70
     1
102
RTVSPropertyOp29
 70
     1
102
RTVSPropertyOp30
 70
     1
102
RTVSPropertyOp31
 70
     1
102
RTVSPropertyOp32
 70
     1
102
RTVSPropertyOp33
 70
     1
102
RTVSPropertyOp34
 70
     1
102
RTVSPropertyOp35
 70
     1
102
RTVSPropertyOp36
 70
     1
102
RTVSPropertyOp37
 70
     1
102
RTVSPropertyOp38
 70
     1
102
RTVSPropertyOp39
 70
     1
102
RTVSPropertyOp40
 70
     1
102
RTVSPropertyOp41
 70
     1
102
RTVSPropertyOp42
 70
     1
102
RTVSPropertyOp43
 70
     1
102
RTVSPropertyOp44
 70
     1
102
RTVSPropertyOp45
 70
     1
102
RTVSPropertyOp46
 70
     1
102
RTVSPropertyOp47
 70
     1
102
RTVSPropertyOp48
 70
     1
102
RTVSPropertyOp49
 70
     1
102
RTVSPropertyOp50
 70
     1
102
RTVSPropertyOp51
 70
     0
102
RTVSPropertyOp52
 70
     0
102
RTVSPropertyOp53
 70
     1
102
RTVSPropertyOp54
 70
     1
102
RTVSPropertyOp55
 70
     1
102
RTVSPropertyOp56
 70
     1
102
RTVSPropertyOp57
 70
     1
102
RTVSPropertyOp58
 70
     1
102
RTVSPropertyOp59
 70
     1
102
RTVSPropertyOp60
 70
     1
102
RTVSPropertyOp61
 70
     1
102
RTVSPropertyOp62
 70
     1
  0
XRECORD
  5
6791
102
{ACAD_REACTORS
330
6790
102
}
330
6790
100
AcDbXrecord
280
     1
102
RTVSPost2010Prop28
280
     0
102
RTVSPost2010PropOp28
 70
     1
102
RTVSPost2010Prop29
280
     1
102
RTVSPost2010PropOp29
 70
     1
102
RTVSPost2010Prop30
280
     1
102
RTVSPost2010PropOp30
 70
     1
102
RTVSPost2010Prop31
280
     0
102
RTVSPost2010PropOp31
 70
     1
102
RTVSPost2010Prop32
280
     0
102
RTVSPost2010PropOp32
 70
     1
102
RTVSPost2010Prop33
280
     0
102
RTVSPost2010PropOp33
 70
     1
102
RTVSPost2010Prop34
280
     0
102
RTVSPost2010PropOp34
 70
     1
102
RTVSPost2010Prop35
280
     0
102
RTVSPost2010PropOp35
 70
     1
102
RTVSPost2010Prop36
280
     0
102
RTVSPost2010PropOp36
 70
     1
102
RTVSPost2010Prop37
 90
       50
102
RTVSPost2010PropOp37
 70
     1
102
RTVSPost2010Prop38
140
0.0
102
RTVSPost2010PropOp38
 70
     1
102
RTVSPost2010Prop39
140
1.0
102
RTVSPost2010PropOp39
 70
     1
102
RTVSPost2010Prop40
 90
        0
102
RTVSPost2010PropOp40
 70
     1
102
RTVSPost2010Prop41ColorIndex
 90
       18
102
RTVSPost2010Prop41ColorRGB
 90
        0
102
RTVSPost2010PropOp41
 70
     1
102
RTVSPost2010Prop42
 90
       50
102
RTVSPost2010PropOp42
 70
     1
102
RTVSPost2010Prop43
 90
        3
102
RTVSPost2010PropOp43
 70
     1
102
RTVSPost2010Prop44ColorIndex
 90
        5
102
RTVSPost2010Prop44ColorRGB
 90
      255
102
RTVSPost2010PropOp44
 70
     1
102
RTVSPost2010Prop45
280
     0
102
RTVSPost2010PropOp45
 70
     1
102
RTVSPost2010Prop46
 90
       50
102
RTVSPost2010PropOp46
 70
     1
102
RTVSPost2010Prop47
 90
       50
102
RTVSPost2010PropOp47
 70
     1
102
RTVSPost2010Prop48
 90
       50
102
RTVSPost2010PropOp48
 70
     1
102
RTVSPost2010Prop49
280
     0
102
RTVSPost2010PropOp49
 70
     1
102
RTVSPost2010Prop50
 90
       50
102
RTVSPost2010PropOp50
 70
     1
102
RTVSPost2010Prop51ColorIndex
 90
      256
102
RTVSPost2010Prop51ColorRGB
 90
-16777216
102
RTVSPost2010PropOp51
 70
     0
102
RTVSPost2010Prop52
140
1.0
102
RTVSPost2010PropOp52
 70
     0
102
RTVSPost2010Prop53
 90
        2
102
RTVSPost2010PropOp53
 70
     1
102
RTVSPost2010Prop54
  1
strokes_ogs.tif
102
RTVSPost2010PropOp54
 70
     1
102
RTVSPost2010Prop55
280
     0
102
RTVSPost2010PropOp55
 70
     1
102
RTVSPost2010Prop56
140
1.0
102
RTVSPost2010PropOp56
 70
     1
102
RTVSPost2010Prop57
140
1.0
102
RTVSPost2010PropOp57
 70
     1
102
RTVSPropertyOp0
 70
     1
102
RTVSPropertyOp1
 70
     1
102
RTVSPropertyOp2
 70
     1
102
RTVSPropertyOp3
 70
     1
102
RTVSPropertyOp4
 70
     1
102
RTVSPropertyOp5
 70
     1
102
RTVSPropertyOp6
 70
     1
102
RTVSPropertyOp7
 70
     1
102
RTVSPropertyOp8
 70
     1
102
RTVSPropertyOp9
 70
     1
102
RTVSPropertyOp10
 70
     1
102
RTVSPropertyOp11
 70
     1
102
RTVSPropertyOp12
 70
     1
102
RTVSPropertyOp13
 70
     1
102
RTVSPropertyOp14
 70
     1
102
RTVSPropertyOp15
 70
     1
102
RTVSPropertyOp16
 70
     1
102
RTVSPropertyOp17
 70
     1
102
RTVSPropertyOp18
 70
     1
102
RTVSPropertyOp19
 70
     1
102
RTVSPropertyOp20
 70
     1
102
RTVSPropertyOp21
 70
     1
102
RTVSPropertyOp22
 70
     1
102
RTVSPropertyOp23
 70
     1
102
RTVSPropertyOp24
 70
     1
102
RTVSPropertyOp25
 70
     1
102
RTVSPropertyOp26
 70
     1
102
RTVSPropertyOp27
 70
     1
102
RTVSPropertyOp28
 70
     1
102
RTVSPropertyOp29
 70
     1
102
RTVSPropertyOp30
 70
     1
102
RTVSPropertyOp31
 70
     1
102
RTVSPropertyOp32
 70
     1
102
RTVSPropertyOp33
 70
     1
102
RTVSPropertyOp34
 70
     1
102
RTVSPropertyOp35
 70
     1
102
RTVSPropertyOp36
 70
     1
102
RTVSPropertyOp37
 70
     1
102
RTVSPropertyOp38
 70
     1
102
RTVSPropertyOp39
 70
     1
102
RTVSPropertyOp40
 70
     1
102
RTVSPropertyOp41
 70
     1
102
RTVSPropertyOp42
 70
     1
102
RTVSPropertyOp43
 70
     1
102
RTVSPropertyOp44
 70
     1
102
RTVSPropertyOp45
 70
     1
102
RTVSPropertyOp46
 70
     1
102
RTVSPropertyOp47
 70
     1
102
RTVSPropertyOp48
 70
     1
102
RTVSPropertyOp49
 70
     1
102
RTVSPropertyOp50
 70
     1
102
RTVSPropertyOp51
 70
     0
102
RTVSPropertyOp52
 70
     0
102
RTVSPropertyOp53
 70
     1
102
RTVSPropertyOp54
 70
     1
102
RTVSPropertyOp55
 70
     1
102
RTVSPropertyOp56
 70
     1
102
RTVSPropertyOp57
 70
     1
102
RTVSPropertyOp58
 70
     1
102
RTVSPropertyOp59
 70
     1
102
RTVSPropertyOp60
 70
     1
102
RTVSPropertyOp61
 70
     1
102
RTVSPropertyOp62
 70
     1
  0
XRECORD
  5
6783
102
{ACAD_REACTORS
330
6782
102
}
330
6782
100
AcDbXrecord
280
     1
102
RTVSPost2010Prop28
280
     0
102
RTVSPost2010PropOp28
 70
     1
102
RTVSPost2010Prop29
280
     1
102
RTVSPost2010PropOp29
 70
     1
102
RTVSPost2010Prop30
280
     1
102
RTVSPost2010PropOp30
 70
     1
102
RTVSPost2010Prop31
280
     0
102
RTVSPost2010PropOp31
 70
     1
102
RTVSPost2010Prop32
280
     0
102
RTVSPost2010PropOp32
 70
     1
102
RTVSPost2010Prop33
280
     0
102
RTVSPost2010PropOp33
 70
     1
102
RTVSPost2010Prop34
280
     0
102
RTVSPost2010PropOp34
 70
     1
102
RTVSPost2010Prop35
280
     0
102
RTVSPost2010PropOp35
 70
     1
102
RTVSPost2010Prop36
280
     0
102
RTVSPost2010PropOp36
 70
     1
102
RTVSPost2010Prop37
 90
       50
102
RTVSPost2010PropOp37
 70
     1
102
RTVSPost2010Prop38
140
0.0
102
RTVSPost2010PropOp38
 70
     1
102
RTVSPost2010Prop39
140
1.0
102
RTVSPost2010PropOp39
 70
     1
102
RTVSPost2010Prop40
 90
        0
102
RTVSPost2010PropOp40
 70
     1
102
RTVSPost2010Prop41ColorIndex
 90
       18
102
RTVSPost2010Prop41ColorRGB
 90
        0
102
RTVSPost2010PropOp41
 70
     1
102
RTVSPost2010Prop42
 90
       50
102
RTVSPost2010PropOp42
 70
     1
102
RTVSPost2010Prop43
 90
        3
102
RTVSPost2010PropOp43
 70
     1
102
RTVSPost2010Prop44ColorIndex
 90
        5
102
RTVSPost2010Prop44ColorRGB
 90
      255
102
RTVSPost2010PropOp44
 70
     1
102
RTVSPost2010Prop45
280
     0
102
RTVSPost2010PropOp45
 70
     1
102
RTVSPost2010Prop46
 90
       50
102
RTVSPost2010PropOp46
 70
     1
102
RTVSPost2010Prop47
 90
       50
102
RTVSPost2010PropOp47
 70
     1
102
RTVSPost2010Prop48
 90
       50
102
RTVSPost2010PropOp48
 70
     1
102
RTVSPost2010Prop49
280
     0
102
RTVSPost2010PropOp49
 70
     1
102
RTVSPost2010Prop50
 90
       50
102
RTVSPost2010PropOp50
 70
     1
102
RTVSPost2010Prop51ColorIndex
 90
      256
102
RTVSPost2010Prop51ColorRGB
 90
-16777216
102
RTVSPost2010PropOp51
 70
     0
102
RTVSPost2010Prop52
140
1.0
102
RTVSPost2010PropOp52
 70
     0
102
RTVSPost2010Prop53
 90
        2
102
RTVSPost2010PropOp53
 70
     1
102
RTVSPost2010Prop54
  1
strokes_ogs.tif
102
RTVSPost2010PropOp54
 70
     1
102
RTVSPost2010Prop55
280
     0
102
RTVSPost2010PropOp55
 70
     1
102
RTVSPost2010Prop56
140
1.0
102
RTVSPost2010PropOp56
 70
     1
102
RTVSPost2010Prop57
140
1.0
102
RTVSPost2010PropOp57
 70
     1
102
RTVSPropertyOp0
 70
     1
102
RTVSPropertyOp1
 70
     1
102
RTVSPropertyOp2
 70
     1
102
RTVSPropertyOp3
 70
     1
102
RTVSPropertyOp4
 70
     1
102
RTVSPropertyOp5
 70
     1
102
RTVSPropertyOp6
 70
     1
102
RTVSPropertyOp7
 70
     1
102
RTVSPropertyOp8
 70
     1
102
RTVSPropertyOp9
 70
     1
102
RTVSPropertyOp10
 70
     1
102
RTVSPropertyOp11
 70
     1
102
RTVSPropertyOp12
 70
     1
102
RTVSPropertyOp13
 70
     1
102
RTVSPropertyOp14
 70
     1
102
RTVSPropertyOp15
 70
     1
102
RTVSPropertyOp16
 70
     1
102
RTVSPropertyOp17
 70
     1
102
RTVSPropertyOp18
 70
     1
102
RTVSPropertyOp19
 70
     1
102
RTVSPropertyOp20
 70
     1
102
RTVSPropertyOp21
 70
     1
102
RTVSPropertyOp22
 70
     1
102
RTVSPropertyOp23
 70
     1
102
RTVSPropertyOp24
 70
     1
102
RTVSPropertyOp25
 70
     1
102
RTVSPropertyOp26
 70
     1
102
RTVSPropertyOp27
 70
     1
102
RTVSPropertyOp28
 70
     1
102
RTVSPropertyOp29
 70
     1
102
RTVSPropertyOp30
 70
     1
102
RTVSPropertyOp31
 70
     1
102
RTVSPropertyOp32
 70
     1
102
RTVSPropertyOp33
 70
     1
102
RTVSPropertyOp34
 70
     1
102
RTVSPropertyOp35
 70
     1
102
RTVSPropertyOp36
 70
     1
102
RTVSPropertyOp37
 70
     1
102
RTVSPropertyOp38
 70
     1
102
RTVSPropertyOp39
 70
     1
102
RTVSPropertyOp40
 70
     1
102
RTVSPropertyOp41
 70
     1
102
RTVSPropertyOp42
 70
     1
102
RTVSPropertyOp43
 70
     1
102
RTVSPropertyOp44
 70
     1
102
RTVSPropertyOp45
 70
     1
102
RTVSPropertyOp46
 70
     1
102
RTVSPropertyOp47
 70
     1
102
RTVSPropertyOp48
 70
     1
102
RTVSPropertyOp49
 70
     1
102
RTVSPropertyOp50
 70
     1
102
RTVSPropertyOp51
 70
     0
102
RTVSPropertyOp52
 70
     0
102
RTVSPropertyOp53
 70
     1
102
RTVSPropertyOp54
 70
     1
102
RTVSPropertyOp55
 70
     1
102
RTVSPropertyOp56
 70
     1
102
RTVSPropertyOp57
 70
     1
102
RTVSPropertyOp58
 70
     1
102
RTVSPropertyOp59
 70
     1
102
RTVSPropertyOp60
 70
     1
102
RTVSPropertyOp61
 70
     1
102
RTVSPropertyOp62
 70
     1
  0
XRECORD
  5
6787
102
{ACAD_REACTORS
330
6786
102
}
330
6786
100
AcDbXrecord
280
     1
102
RTVSPost2010Prop28
280
     0
102
RTVSPost2010PropOp28
 70
     1
102
RTVSPost2010Prop29
280
     1
102
RTVSPost2010PropOp29
 70
     1
102
RTVSPost2010Prop30
280
     1
102
RTVSPost2010PropOp30
 70
     1
102
RTVSPost2010Prop31
280
     0
102
RTVSPost2010PropOp31
 70
     1
102
RTVSPost2010Prop32
280
     0
102
RTVSPost2010PropOp32
 70
     1
102
RTVSPost2010Prop33
280
     0
102
RTVSPost2010PropOp33
 70
     1
102
RTVSPost2010Prop34
280
     0
102
RTVSPost2010PropOp34
 70
     1
102
RTVSPost2010Prop35
280
     0
102
RTVSPost2010PropOp35
 70
     1
102
RTVSPost2010Prop36
280
     0
102
RTVSPost2010PropOp36
 70
     1
102
RTVSPost2010Prop37
 90
       50
102
RTVSPost2010PropOp37
 70
     1
102
RTVSPost2010Prop38
140
0.0
102
RTVSPost2010PropOp38
 70
     1
102
RTVSPost2010Prop39
140
1.0
102
RTVSPost2010PropOp39
 70
     1
102
RTVSPost2010Prop40
 90
        0
102
RTVSPost2010PropOp40
 70
     1
102
RTVSPost2010Prop41ColorIndex
 90
       18
102
RTVSPost2010Prop41ColorRGB
 90
        0
102
RTVSPost2010PropOp41
 70
     1
102
RTVSPost2010Prop42
 90
       50
102
RTVSPost2010PropOp42
 70
     1
102
RTVSPost2010Prop43
 90
        3
102
RTVSPost2010PropOp43
 70
     1
102
RTVSPost2010Prop44ColorIndex
 90
        5
102
RTVSPost2010Prop44ColorRGB
 90
      255
102
RTVSPost2010PropOp44
 70
     1
102
RTVSPost2010Prop45
280
     0
102
RTVSPost2010PropOp45
 70
     1
102
RTVSPost2010Prop46
 90
       50
102
RTVSPost2010PropOp46
 70
     1
102
RTVSPost2010Prop47
 90
       50
102
RTVSPost2010PropOp47
 70
     1
102
RTVSPost2010Prop48
 90
       50
102
RTVSPost2010PropOp48
 70
     1
102
RTVSPost2010Prop49
280
     0
102
RTVSPost2010PropOp49
 70
     1
102
RTVSPost2010Prop50
 90
       50
102
RTVSPost2010PropOp50
 70
     1
102
RTVSPost2010Prop51ColorIndex
 90
      256
102
RTVSPost2010Prop51ColorRGB
 90
-16777216
102
RTVSPost2010PropOp51
 70
     0
102
RTVSPost2010Prop52
140
1.0
102
RTVSPost2010PropOp52
 70
     0
102
RTVSPost2010Prop53
 90
        2
102
RTVSPost2010PropOp53
 70
     1
102
RTVSPost2010Prop54
  1
strokes_ogs.tif
102
RTVSPost2010PropOp54
 70
     1
102
RTVSPost2010Prop55
280
     0
102
RTVSPost2010PropOp55
 70
     1
102
RTVSPost2010Prop56
140
1.0
102
RTVSPost2010PropOp56
 70
     1
102
RTVSPost2010Prop57
140
1.0
102
RTVSPost2010PropOp57
 70
     1
102
RTVSPropertyOp0
 70
     1
102
RTVSPropertyOp1
 70
     1
102
RTVSPropertyOp2
 70
     1
102
RTVSPropertyOp3
 70
     1
102
RTVSPropertyOp4
 70
     1
102
RTVSPropertyOp5
 70
     1
102
RTVSPropertyOp6
 70
     1
102
RTVSPropertyOp7
 70
     1
102
RTVSPropertyOp8
 70
     1
102
RTVSPropertyOp9
 70
     1
102
RTVSPropertyOp10
 70
     1
102
RTVSPropertyOp11
 70
     1
102
RTVSPropertyOp12
 70
     1
102
RTVSPropertyOp13
 70
     1
102
RTVSPropertyOp14
 70
     1
102
RTVSPropertyOp15
 70
     1
102
RTVSPropertyOp16
 70
     1
102
RTVSPropertyOp17
 70
     1
102
RTVSPropertyOp18
 70
     1
102
RTVSPropertyOp19
 70
     1
102
RTVSPropertyOp20
 70
     1
102
RTVSPropertyOp21
 70
     1
102
RTVSPropertyOp22
 70
     1
102
RTVSPropertyOp23
 70
     1
102
RTVSPropertyOp24
 70
     1
102
RTVSPropertyOp25
 70
     1
102
RTVSPropertyOp26
 70
     1
102
RTVSPropertyOp27
 70
     1
102
RTVSPropertyOp28
 70
     1
102
RTVSPropertyOp29
 70
     1
102
RTVSPropertyOp30
 70
     1
102
RTVSPropertyOp31
 70
     1
102
RTVSPropertyOp32
 70
     1
102
RTVSPropertyOp33
 70
     1
102
RTVSPropertyOp34
 70
     1
102
RTVSPropertyOp35
 70
     1
102
RTVSPropertyOp36
 70
     1
102
RTVSPropertyOp37
 70
     1
102
RTVSPropertyOp38
 70
     1
102
RTVSPropertyOp39
 70
     1
102
RTVSPropertyOp40
 70
     1
102
RTVSPropertyOp41
 70
     1
102
RTVSPropertyOp42
 70
     1
102
RTVSPropertyOp43
 70
     1
102
RTVSPropertyOp44
 70
     1
102
RTVSPropertyOp45
 70
     1
102
RTVSPropertyOp46
 70
     1
102
RTVSPropertyOp47
 70
     1
102
RTVSPropertyOp48
 70
     1
102
RTVSPropertyOp49
 70
     1
102
RTVSPropertyOp50
 70
     1
102
RTVSPropertyOp51
 70
     0
102
RTVSPropertyOp52
 70
     0
102
RTVSPropertyOp53
 70
     1
102
RTVSPropertyOp54
 70
     1
102
RTVSPropertyOp55
 70
     1
102
RTVSPropertyOp56
 70
     1
102
RTVSPropertyOp57
 70
     1
102
RTVSPropertyOp58
 70
     1
102
RTVSPropertyOp59
 70
     1
102
RTVSPropertyOp60
 70
     1
102
RTVSPropertyOp61
 70
     1
102
RTVSPropertyOp62
 70
     1
  0
XRECORD
  5
67A1
102
{ACAD_REACTORS
330
67A0
102
}
330
67A0
100
AcDbXrecord
280
     1
102
RTVSPost2010Prop28
280
     0
102
RTVSPost2010PropOp28
 70
     0
102
RTVSPost2010Prop29
280
     1
102
RTVSPost2010PropOp29
 70
     0
102
RTVSPost2010Prop30
280
     1
102
RTVSPost2010PropOp30
 70
     0
102
RTVSPost2010Prop31
280
     0
102
RTVSPost2010PropOp31
 70
     0
102
RTVSPost2010Prop32
280
     0
102
RTVSPost2010PropOp32
 70
     0
102
RTVSPost2010Prop33
280
     0
102
RTVSPost2010PropOp33
 70
     0
102
RTVSPost2010Prop34
280
     0
102
RTVSPost2010PropOp34
 70
     0
102
RTVSPost2010Prop35
280
     0
102
RTVSPost2010PropOp35
 70
     0
102
RTVSPost2010Prop36
280
     0
102
RTVSPost2010PropOp36
 70
     0
102
RTVSPost2010Prop37
 90
       50
102
RTVSPost2010PropOp37
 70
     0
102
RTVSPost2010Prop38
140
0.0
102
RTVSPost2010PropOp38
 70
     0
102
RTVSPost2010Prop39
140
1.0
102
RTVSPost2010PropOp39
 70
     0
102
RTVSPost2010Prop40
 90
        0
102
RTVSPost2010PropOp40
 70
     0
102
RTVSPost2010Prop41ColorIndex
 90
       18
102
RTVSPost2010Prop41ColorRGB
 90
        0
102
RTVSPost2010PropOp41
 70
     0
102
RTVSPost2010Prop42
 90
       50
102
RTVSPost2010PropOp42
 70
     0
102
RTVSPost2010Prop43
 90
        3
102
RTVSPost2010PropOp43
 70
     0
102
RTVSPost2010Prop44ColorIndex
 90
        5
102
RTVSPost2010Prop44ColorRGB
 90
      255
102
RTVSPost2010PropOp44
 70
     0
102
RTVSPost2010Prop45
280
     0
102
RTVSPost2010PropOp45
 70
     0
102
RTVSPost2010Prop46
 90
       50
102
RTVSPost2010PropOp46
 70
     0
102
RTVSPost2010Prop47
 90
       50
102
RTVSPost2010PropOp47
 70
     0
102
RTVSPost2010Prop48
 90
       50
102
RTVSPost2010PropOp48
 70
     0
102
RTVSPost2010Prop49
280
     0
102
RTVSPost2010PropOp49
 70
     0
102
RTVSPost2010Prop50
 90
       50
102
RTVSPost2010PropOp50
 70
     0
102
RTVSPost2010Prop51ColorIndex
 90
      256
102
RTVSPost2010Prop51ColorRGB
 90
-16777216
102
RTVSPost2010PropOp51
 70
     0
102
RTVSPost2010Prop52
140
1.0
102
RTVSPost2010PropOp52
 70
     0
102
RTVSPost2010Prop53
 90
        2
102
RTVSPost2010PropOp53
 70
     0
102
RTVSPost2010Prop54
  1
strokes_ogs.tif
102
RTVSPost2010PropOp54
 70
     0
102
RTVSPost2010Prop55
280
     0
102
RTVSPost2010PropOp55
 70
     0
102
RTVSPost2010Prop56
140
1.0
102
RTVSPost2010PropOp56
 70
     0
102
RTVSPost2010Prop57
140
1.0
102
RTVSPost2010PropOp57
 70
     0
102
RTVSPropertyOp0
 70
     0
102
RTVSPropertyOp1
 70
     0
102
RTVSPropertyOp2
 70
     0
102
RTVSPropertyOp3
 70
     0
102
RTVSPropertyOp4
 70
     0
102
RTVSPropertyOp5
 70
     0
102
RTVSPropertyOp6
 70
     0
102
RTVSPropertyOp7
 70
     0
102
RTVSPropertyOp8
 70
     0
102
RTVSPropertyOp9
 70
     0
102
RTVSPropertyOp10
 70
     0
102
RTVSPropertyOp11
 70
     0
102
RTVSPropertyOp12
 70
     0
102
RTVSPropertyOp13
 70
     0
102
RTVSPropertyOp14
 70
     2
102
RTVSPropertyOp15
 70
     0
102
RTVSPropertyOp16
 70
     0
102
RTVSPropertyOp17
 70
     0
102
RTVSPropertyOp18
 70
     0
102
RTVSPropertyOp19
 70
     0
102
RTVSPropertyOp20
 70
     0
102
RTVSPropertyOp21
 70
     0
102
RTVSPropertyOp22
 70
     0
102
RTVSPropertyOp23
 70
     0
102
RTVSPropertyOp24
 70
     0
102
RTVSPropertyOp25
 70
     0
102
RTVSPropertyOp26
 70
     0
102
RTVSPropertyOp27
 70
     0
102
RTVSPropertyOp28
 70
     0
102
RTVSPropertyOp29
 70
     0
102
RTVSPropertyOp30
 70
     0
102
RTVSPropertyOp31
 70
     0
102
RTVSPropertyOp32
 70
     0
102
RTVSPropertyOp33
 70
     0
102
RTVSPropertyOp34
 70
     0
102
RTVSPropertyOp35
 70
     0
102
RTVSPropertyOp36
 70
     0
102
RTVSPropertyOp37
 70
     0
102
RTVSPropertyOp38
 70
     0
102
RTVSPropertyOp39
 70
     0
102
RTVSPropertyOp40
 70
     0
102
RTVSPropertyOp41
 70
     0
102
RTVSPropertyOp42
 70
     0
102
RTVSPropertyOp43
 70
     0
102
RTVSPropertyOp44
 70
     0
102
RTVSPropertyOp45
 70
     0
102
RTVSPropertyOp46
 70
     0
102
RTVSPropertyOp47
 70
     0
102
RTVSPropertyOp48
 70
     0
102
RTVSPropertyOp49
 70
     0
102
RTVSPropertyOp50
 70
     0
102
RTVSPropertyOp51
 70
     0
102
RTVSPropertyOp52
 70
     0
102
RTVSPropertyOp53
 70
     0
102
RTVSPropertyOp54
 70
     0
102
RTVSPropertyOp55
 70
     0
102
RTVSPropertyOp56
 70
     0
102
RTVSPropertyOp57
 70
     0
102
RTVSPropertyOp58
 70
     1
102
RTVSPropertyOp59
 70
     1
102
RTVSPropertyOp60
 70
     1
102
RTVSPropertyOp61
 70
     1
102
RTVSPropertyOp62
 70
     1
  0
XRECORD
  5
678F
102
{ACAD_REACTORS
330
678E
102
}
330
678E
100
AcDbXrecord
280
     1
102
RTVSPost2010Prop28
280
     0
102
RTVSPost2010PropOp28
 70
     1
102
RTVSPost2010Prop29
280
     1
102
RTVSPost2010PropOp29
 70
     1
102
RTVSPost2010Prop30
280
     1
102
RTVSPost2010PropOp30
 70
     1
102
RTVSPost2010Prop31
280
     0
102
RTVSPost2010PropOp31
 70
     1
102
RTVSPost2010Prop32
280
     0
102
RTVSPost2010PropOp32
 70
     1
102
RTVSPost2010Prop33
280
     0
102
RTVSPost2010PropOp33
 70
     1
102
RTVSPost2010Prop34
280
     0
102
RTVSPost2010PropOp34
 70
     1
102
RTVSPost2010Prop35
280
     0
102
RTVSPost2010PropOp35
 70
     1
102
RTVSPost2010Prop36
280
     0
102
RTVSPost2010PropOp36
 70
     1
102
RTVSPost2010Prop37
 90
       50
102
RTVSPost2010PropOp37
 70
     1
102
RTVSPost2010Prop38
140
0.0
102
RTVSPost2010PropOp38
 70
     1
102
RTVSPost2010Prop39
140
1.0
102
RTVSPost2010PropOp39
 70
     1
102
RTVSPost2010Prop40
 90
        0
102
RTVSPost2010PropOp40
 70
     1
102
RTVSPost2010Prop41ColorIndex
 90
       18
102
RTVSPost2010Prop41ColorRGB
 90
        0
102
RTVSPost2010PropOp41
 70
     1
102
RTVSPost2010Prop42
 90
       50
102
RTVSPost2010PropOp42
 70
     1
102
RTVSPost2010Prop43
 90
        3
102
RTVSPost2010PropOp43
 70
     1
102
RTVSPost2010Prop44ColorIndex
 90
        5
102
RTVSPost2010Prop44ColorRGB
 90
      255
102
RTVSPost2010PropOp44
 70
     1
102
RTVSPost2010Prop45
280
     0
102
RTVSPost2010PropOp45
 70
     1
102
RTVSPost2010Prop46
 90
       50
102
RTVSPost2010PropOp46
 70
     1
102
RTVSPost2010Prop47
 90
       50
102
RTVSPost2010PropOp47
 70
     1
102
RTVSPost2010Prop48
 90
       50
102
RTVSPost2010PropOp48
 70
     1
102
RTVSPost2010Prop49
280
     0
102
RTVSPost2010PropOp49
 70
     1
102
RTVSPost2010Prop50
 90
       50
102
RTVSPost2010PropOp50
 70
     1
102
RTVSPost2010Prop51ColorIndex
 90
      256
102
RTVSPost2010Prop51ColorRGB
 90
-16777216
102
RTVSPost2010PropOp51
 70
     0
102
RTVSPost2010Prop52
140
1.0
102
RTVSPost2010PropOp52
 70
     0
102
RTVSPost2010Prop53
 90
        2
102
RTVSPost2010PropOp53
 70
     1
102
RTVSPost2010Prop54
  1
strokes_ogs.tif
102
RTVSPost2010PropOp54
 70
     1
102
RTVSPost2010Prop55
280
     0
102
RTVSPost2010PropOp55
 70
     1
102
RTVSPost2010Prop56
140
1.0
102
RTVSPost2010PropOp56
 70
     1
102
RTVSPost2010Prop57
140
1.0
102
RTVSPost2010PropOp57
 70
     1
102
RTVSPropertyOp0
 70
     1
102
RTVSPropertyOp1
 70
     1
102
RTVSPropertyOp2
 70
     1
102
RTVSPropertyOp3
 70
     1
102
RTVSPropertyOp4
 70
     1
102
RTVSPropertyOp5
 70
     1
102
RTVSPropertyOp6
 70
     1
102
RTVSPropertyOp7
 70
     1
102
RTVSPropertyOp8
 70
     1
102
RTVSPropertyOp9
 70
     1
102
RTVSPropertyOp10
 70
     1
102
RTVSPropertyOp11
 70
     1
102
RTVSPropertyOp12
 70
     1
102
RTVSPropertyOp13
 70
     1
102
RTVSPropertyOp14
 70
     1
102
RTVSPropertyOp15
 70
     1
102
RTVSPropertyOp16
 70
     1
102
RTVSPropertyOp17
 70
     1
102
RTVSPropertyOp18
 70
     1
102
RTVSPropertyOp19
 70
     1
102
RTVSPropertyOp20
 70
     1
102
RTVSPropertyOp21
 70
     1
102
RTVSPropertyOp22
 70
     1
102
RTVSPropertyOp23
 70
     1
102
RTVSPropertyOp24
 70
     1
102
RTVSPropertyOp25
 70
     1
102
RTVSPropertyOp26
 70
     1
102
RTVSPropertyOp27
 70
     1
102
RTVSPropertyOp28
 70
     1
102
RTVSPropertyOp29
 70
     1
102
RTVSPropertyOp30
 70
     1
102
RTVSPropertyOp31
 70
     1
102
RTVSPropertyOp32
 70
     1
102
RTVSPropertyOp33
 70
     1
102
RTVSPropertyOp34
 70
     1
102
RTVSPropertyOp35
 70
     1
102
RTVSPropertyOp36
 70
     1
102
RTVSPropertyOp37
 70
     1
102
RTVSPropertyOp38
 70
     1
102
RTVSPropertyOp39
 70
     1
102
RTVSPropertyOp40
 70
     1
102
RTVSPropertyOp41
 70
     1
102
RTVSPropertyOp42
 70
     1
102
RTVSPropertyOp43
 70
     1
102
RTVSPropertyOp44
 70
     1
102
RTVSPropertyOp45
 70
     1
102
RTVSPropertyOp46
 70
     1
102
RTVSPropertyOp47
 70
     1
102
RTVSPropertyOp48
 70
     1
102
RTVSPropertyOp49
 70
     1
102
RTVSPropertyOp50
 70
     1
102
RTVSPropertyOp51
 70
     0
102
RTVSPropertyOp52
 70
     0
102
RTVSPropertyOp53
 70
     1
102
RTVSPropertyOp54
 70
     1
102
RTVSPropertyOp55
 70
     1
102
RTVSPropertyOp56
 70
     1
102
RTVSPropertyOp57
 70
     1
102
RTVSPropertyOp58
 70
     1
102
RTVSPropertyOp59
 70
     1
102
RTVSPropertyOp60
 70
     1
102
RTVSPropertyOp61
 70
     1
102
RTVSPropertyOp62
 70
     1
  0
XRECORD
  5
6773
102
{ACAD_REACTORS
330
6772
102
}
330
6772
100
AcDbXrecord
280
     1
102
RTVSPost2010Prop28
280
     0
102
RTVSPost2010PropOp28
 70
     1
102
RTVSPost2010Prop29
280
     1
102
RTVSPost2010PropOp29
 70
     1
102
RTVSPost2010Prop30
280
     1
102
RTVSPost2010PropOp30
 70
     1
102
RTVSPost2010Prop31
280
     0
102
RTVSPost2010PropOp31
 70
     1
102
RTVSPost2010Prop32
280
     0
102
RTVSPost2010PropOp32
 70
     1
102
RTVSPost2010Prop33
280
     0
102
RTVSPost2010PropOp33
 70
     1
102
RTVSPost2010Prop34
280
     0
102
RTVSPost2010PropOp34
 70
     1
102
RTVSPost2010Prop35
280
     0
102
RTVSPost2010PropOp35
 70
     1
102
RTVSPost2010Prop36
280
     0
102
RTVSPost2010PropOp36
 70
     1
102
RTVSPost2010Prop37
 90
       50
102
RTVSPost2010PropOp37
 70
     1
102
RTVSPost2010Prop38
140
0.0
102
RTVSPost2010PropOp38
 70
     1
102
RTVSPost2010Prop39
140
1.0
102
RTVSPost2010PropOp39
 70
     1
102
RTVSPost2010Prop40
 90
        0
102
RTVSPost2010PropOp40
 70
     1
102
RTVSPost2010Prop41ColorIndex
 90
       18
102
RTVSPost2010Prop41ColorRGB
 90
        0
102
RTVSPost2010PropOp41
 70
     1
102
RTVSPost2010Prop42
 90
       50
102
RTVSPost2010PropOp42
 70
     1
102
RTVSPost2010Prop43
 90
        3
102
RTVSPost2010PropOp43
 70
     1
102
RTVSPost2010Prop44ColorIndex
 90
        5
102
RTVSPost2010Prop44ColorRGB
 90
      255
102
RTVSPost2010PropOp44
 70
     1
102
RTVSPost2010Prop45
280
     0
102
RTVSPost2010PropOp45
 70
     1
102
RTVSPost2010Prop46
 90
       50
102
RTVSPost2010PropOp46
 70
     1
102
RTVSPost2010Prop47
 90
       50
102
RTVSPost2010PropOp47
 70
     1
102
RTVSPost2010Prop48
 90
       50
102
RTVSPost2010PropOp48
 70
     1
102
RTVSPost2010Prop49
280
     0
102
RTVSPost2010PropOp49
 70
     1
102
RTVSPost2010Prop50
 90
       50
102
RTVSPost2010PropOp50
 70
     1
102
RTVSPost2010Prop51ColorIndex
 90
      256
102
RTVSPost2010Prop51ColorRGB
 90
-16777216
102
RTVSPost2010PropOp51
 70
     0
102
RTVSPost2010Prop52
140
1.0
102
RTVSPost2010PropOp52
 70
     0
102
RTVSPost2010Prop53
 90
        2
102
RTVSPost2010PropOp53
 70
     1
102
RTVSPost2010Prop54
  1
strokes_ogs.tif
102
RTVSPost2010PropOp54
 70
     1
102
RTVSPost2010Prop55
280
     0
102
RTVSPost2010PropOp55
 70
     1
102
RTVSPost2010Prop56
140
1.0
102
RTVSPost2010PropOp56
 70
     1
102
RTVSPost2010Prop57
140
1.0
102
RTVSPost2010PropOp57
 70
     1
102
RTVSPropertyOp0
 70
     1
102
RTVSPropertyOp1
 70
     1
102
RTVSPropertyOp2
 70
     1
102
RTVSPropertyOp3
 70
     1
102
RTVSPropertyOp4
 70
     1
102
RTVSPropertyOp5
 70
     1
102
RTVSPropertyOp6
 70
     1
102
RTVSPropertyOp7
 70
     1
102
RTVSPropertyOp8
 70
     1
102
RTVSPropertyOp9
 70
     1
102
RTVSPropertyOp10
 70
     1
102
RTVSPropertyOp11
 70
     1
102
RTVSPropertyOp12
 70
     1
102
RTVSPropertyOp13
 70
     1
102
RTVSPropertyOp14
 70
     1
102
RTVSPropertyOp15
 70
     1
102
RTVSPropertyOp16
 70
     1
102
RTVSPropertyOp17
 70
     1
102
RTVSPropertyOp18
 70
     1
102
RTVSPropertyOp19
 70
     1
102
RTVSPropertyOp20
 70
     1
102
RTVSPropertyOp21
 70
     1
102
RTVSPropertyOp22
 70
     1
102
RTVSPropertyOp23
 70
     1
102
RTVSPropertyOp24
 70
     1
102
RTVSPropertyOp25
 70
     1
102
RTVSPropertyOp26
 70
     1
102
RTVSPropertyOp27
 70
     1
102
RTVSPropertyOp28
 70
     1
102
RTVSPropertyOp29
 70
     1
102
RTVSPropertyOp30
 70
     1
102
RTVSPropertyOp31
 70
     1
102
RTVSPropertyOp32
 70
     1
102
RTVSPropertyOp33
 70
     1
102
RTVSPropertyOp34
 70
     1
102
RTVSPropertyOp35
 70
     1
102
RTVSPropertyOp36
 70
     1
102
RTVSPropertyOp37
 70
     1
102
RTVSPropertyOp38
 70
     1
102
RTVSPropertyOp39
 70
     1
102
RTVSPropertyOp40
 70
     1
102
RTVSPropertyOp41
 70
     1
102
RTVSPropertyOp42
 70
     1
102
RTVSPropertyOp43
 70
     1
102
RTVSPropertyOp44
 70
     1
102
RTVSPropertyOp45
 70
     1
102
RTVSPropertyOp46
 70
     1
102
RTVSPropertyOp47
 70
     1
102
RTVSPropertyOp48
 70
     1
102
RTVSPropertyOp49
 70
     1
102
RTVSPropertyOp50
 70
     1
102
RTVSPropertyOp51
 70
     0
102
RTVSPropertyOp52
 70
     0
102
RTVSPropertyOp53
 70
     1
102
RTVSPropertyOp54
 70
     1
102
RTVSPropertyOp55
 70
     1
102
RTVSPropertyOp56
 70
     1
102
RTVSPropertyOp57
 70
     1
102
RTVSPropertyOp58
 70
     1
102
RTVSPropertyOp59
 70
     1
102
RTVSPropertyOp60
 70
     1
102
RTVSPropertyOp61
 70
     1
102
RTVSPropertyOp62
 70
     1
  0
XRECORD
  5
6775
102
{ACAD_REACTORS
330
6774
102
}
330
6774
100
AcDbXrecord
280
     1
102
RTVSPost2010Prop28
280
     0
102
RTVSPost2010PropOp28
 70
     1
102
RTVSPost2010Prop29
280
     1
102
RTVSPost2010PropOp29
 70
     1
102
RTVSPost2010Prop30
280
     1
102
RTVSPost2010PropOp30
 70
     1
102
RTVSPost2010Prop31
280
     0
102
RTVSPost2010PropOp31
 70
     1
102
RTVSPost2010Prop32
280
     0
102
RTVSPost2010PropOp32
 70
     1
102
RTVSPost2010Prop33
280
     0
102
RTVSPost2010PropOp33
 70
     1
102
RTVSPost2010Prop34
280
     0
102
RTVSPost2010PropOp34
 70
     1
102
RTVSPost2010Prop35
280
     0
102
RTVSPost2010PropOp35
 70
     1
102
RTVSPost2010Prop36
280
     0
102
RTVSPost2010PropOp36
 70
     1
102
RTVSPost2010Prop37
 90
       50
102
RTVSPost2010PropOp37
 70
     1
102
RTVSPost2010Prop38
140
0.0
102
RTVSPost2010PropOp38
 70
     1
102
RTVSPost2010Prop39
140
1.0
102
RTVSPost2010PropOp39
 70
     1
102
RTVSPost2010Prop40
 90
        0
102
RTVSPost2010PropOp40
 70
     1
102
RTVSPost2010Prop41ColorIndex
 90
       18
102
RTVSPost2010Prop41ColorRGB
 90
        0
102
RTVSPost2010PropOp41
 70
     1
102
RTVSPost2010Prop42
 90
       50
102
RTVSPost2010PropOp42
 70
     1
102
RTVSPost2010Prop43
 90
        3
102
RTVSPost2010PropOp43
 70
     1
102
RTVSPost2010Prop44ColorIndex
 90
        5
102
RTVSPost2010Prop44ColorRGB
 90
      255
102
RTVSPost2010PropOp44
 70
     1
102
RTVSPost2010Prop45
280
     0
102
RTVSPost2010PropOp45
 70
     1
102
RTVSPost2010Prop46
 90
       50
102
RTVSPost2010PropOp46
 70
     1
102
RTVSPost2010Prop47
 90
       50
102
RTVSPost2010PropOp47
 70
     1
102
RTVSPost2010Prop48
 90
       50
102
RTVSPost2010PropOp48
 70
     1
102
RTVSPost2010Prop49
280
     0
102
RTVSPost2010PropOp49
 70
     1
102
RTVSPost2010Prop50
 90
       50
102
RTVSPost2010PropOp50
 70
     1
102
RTVSPost2010Prop51ColorIndex
 90
      256
102
RTVSPost2010Prop51ColorRGB
 90
-16777216
102
RTVSPost2010PropOp51
 70
     0
102
RTVSPost2010Prop52
140
1.0
102
RTVSPost2010PropOp52
 70
     0
102
RTVSPost2010Prop53
 90
        2
102
RTVSPost2010PropOp53
 70
     1
102
RTVSPost2010Prop54
  1
strokes_ogs.tif
102
RTVSPost2010PropOp54
 70
     1
102
RTVSPost2010Prop55
280
     0
102
RTVSPost2010PropOp55
 70
     1
102
RTVSPost2010Prop56
140
1.0
102
RTVSPost2010PropOp56
 70
     1
102
RTVSPost2010Prop57
140
1.0
102
RTVSPost2010PropOp57
 70
     1
102
RTVSPropertyOp0
 70
     1
102
RTVSPropertyOp1
 70
     1
102
RTVSPropertyOp2
 70
     1
102
RTVSPropertyOp3
 70
     1
102
RTVSPropertyOp4
 70
     1
102
RTVSPropertyOp5
 70
     1
102
RTVSPropertyOp6
 70
     1
102
RTVSPropertyOp7
 70
     1
102
RTVSPropertyOp8
 70
     1
102
RTVSPropertyOp9
 70
     1
102
RTVSPropertyOp10
 70
     1
102
RTVSPropertyOp11
 70
     1
102
RTVSPropertyOp12
 70
     1
102
RTVSPropertyOp13
 70
     1
102
RTVSPropertyOp14
 70
     1
102
RTVSPropertyOp15
 70
     1
102
RTVSPropertyOp16
 70
     1
102
RTVSPropertyOp17
 70
     1
102
RTVSPropertyOp18
 70
     1
102
RTVSPropertyOp19
 70
     1
102
RTVSPropertyOp20
 70
     1
102
RTVSPropertyOp21
 70
     1
102
RTVSPropertyOp22
 70
     1
102
RTVSPropertyOp23
 70
     1
102
RTVSPropertyOp24
 70
     1
102
RTVSPropertyOp25
 70
     1
102
RTVSPropertyOp26
 70
     1
102
RTVSPropertyOp27
 70
     1
102
RTVSPropertyOp28
 70
     1
102
RTVSPropertyOp29
 70
     1
102
RTVSPropertyOp30
 70
     1
102
RTVSPropertyOp31
 70
     1
102
RTVSPropertyOp32
 70
     1
102
RTVSPropertyOp33
 70
     1
102
RTVSPropertyOp34
 70
     1
102
RTVSPropertyOp35
 70
     1
102
RTVSPropertyOp36
 70
     1
102
RTVSPropertyOp37
 70
     1
102
RTVSPropertyOp38
 70
     1
102
RTVSPropertyOp39
 70
     1
102
RTVSPropertyOp40
 70
     1
102
RTVSPropertyOp41
 70
     1
102
RTVSPropertyOp42
 70
     1
102
RTVSPropertyOp43
 70
     1
102
RTVSPropertyOp44
 70
     1
102
RTVSPropertyOp45
 70
     1
102
RTVSPropertyOp46
 70
     1
102
RTVSPropertyOp47
 70
     1
102
RTVSPropertyOp48
 70
     1
102
RTVSPropertyOp49
 70
     1
102
RTVSPropertyOp50
 70
     1
102
RTVSPropertyOp51
 70
     0
102
RTVSPropertyOp52
 70
     0
102
RTVSPropertyOp53
 70
     1
102
RTVSPropertyOp54
 70
     1
102
RTVSPropertyOp55
 70
     1
102
RTVSPropertyOp56
 70
     1
102
RTVSPropertyOp57
 70
     1
102
RTVSPropertyOp58
 70
     1
102
RTVSPropertyOp59
 70
     1
102
RTVSPropertyOp60
 70
     1
102
RTVSPropertyOp61
 70
     1
102
RTVSPropertyOp62
 70
     1
  0
XRECORD
  5
6777
102
{ACAD_REACTORS
330
6776
102
}
330
6776
100
AcDbXrecord
280
     1
102
RTVSPost2010Prop28
280
     0
102
RTVSPost2010PropOp28
 70
     1
102
RTVSPost2010Prop29
280
     1
102
RTVSPost2010PropOp29
 70
     1
102
RTVSPost2010Prop30
280
     1
102
RTVSPost2010PropOp30
 70
     1
102
RTVSPost2010Prop31
280
     0
102
RTVSPost2010PropOp31
 70
     1
102
RTVSPost2010Prop32
280
     0
102
RTVSPost2010PropOp32
 70
     1
102
RTVSPost2010Prop33
280
     0
102
RTVSPost2010PropOp33
 70
     1
102
RTVSPost2010Prop34
280
     0
102
RTVSPost2010PropOp34
 70
     1
102
RTVSPost2010Prop35
280
     0
102
RTVSPost2010PropOp35
 70
     1
102
RTVSPost2010Prop36
280
     0
102
RTVSPost2010PropOp36
 70
     1
102
RTVSPost2010Prop37
 90
       50
102
RTVSPost2010PropOp37
 70
     1
102
RTVSPost2010Prop38
140
0.0
102
RTVSPost2010PropOp38
 70
     1
102
RTVSPost2010Prop39
140
1.0
102
RTVSPost2010PropOp39
 70
     1
102
RTVSPost2010Prop40
 90
        0
102
RTVSPost2010PropOp40
 70
     1
102
RTVSPost2010Prop41ColorIndex
 90
       18
102
RTVSPost2010Prop41ColorRGB
 90
        0
102
RTVSPost2010PropOp41
 70
     1
102
RTVSPost2010Prop42
 90
       50
102
RTVSPost2010PropOp42
 70
     1
102
RTVSPost2010Prop43
 90
        3
102
RTVSPost2010PropOp43
 70
     1
102
RTVSPost2010Prop44ColorIndex
 90
        5
102
RTVSPost2010Prop44ColorRGB
 90
      255
102
RTVSPost2010PropOp44
 70
     1
102
RTVSPost2010Prop45
280
     0
102
RTVSPost2010PropOp45
 70
     1
102
RTVSPost2010Prop46
 90
       50
102
RTVSPost2010PropOp46
 70
     1
102
RTVSPost2010Prop47
 90
       50
102
RTVSPost2010PropOp47
 70
     1
102
RTVSPost2010Prop48
 90
       50
102
RTVSPost2010PropOp48
 70
     1
102
RTVSPost2010Prop49
280
     0
102
RTVSPost2010PropOp49
 70
     1
102
RTVSPost2010Prop50
 90
       50
102
RTVSPost2010PropOp50
 70
     1
102
RTVSPost2010Prop51ColorIndex
 90
      256
102
RTVSPost2010Prop51ColorRGB
 90
-16777216
102
RTVSPost2010PropOp51
 70
     0
102
RTVSPost2010Prop52
140
1.0
102
RTVSPost2010PropOp52
 70
     0
102
RTVSPost2010Prop53
 90
        2
102
RTVSPost2010PropOp53
 70
     1
102
RTVSPost2010Prop54
  1
strokes_ogs.tif
102
RTVSPost2010PropOp54
 70
     1
102
RTVSPost2010Prop55
280
     0
102
RTVSPost2010PropOp55
 70
     1
102
RTVSPost2010Prop56
140
1.0
102
RTVSPost2010PropOp56
 70
     1
102
RTVSPost2010Prop57
140
1.0
102
RTVSPost2010PropOp57
 70
     1
102
RTVSPropertyOp0
 70
     1
102
RTVSPropertyOp1
 70
     1
102
RTVSPropertyOp2
 70
     1
102
RTVSPropertyOp3
 70
     1
102
RTVSPropertyOp4
 70
     1
102
RTVSPropertyOp5
 70
     1
102
RTVSPropertyOp6
 70
     1
102
RTVSPropertyOp7
 70
     1
102
RTVSPropertyOp8
 70
     1
102
RTVSPropertyOp9
 70
     1
102
RTVSPropertyOp10
 70
     1
102
RTVSPropertyOp11
 70
     1
102
RTVSPropertyOp12
 70
     1
102
RTVSPropertyOp13
 70
     1
102
RTVSPropertyOp14
 70
     1
102
RTVSPropertyOp15
 70
     1
102
RTVSPropertyOp16
 70
     1
102
RTVSPropertyOp17
 70
     1
102
RTVSPropertyOp18
 70
     1
102
RTVSPropertyOp19
 70
     1
102
RTVSPropertyOp20
 70
     1
102
RTVSPropertyOp21
 70
     1
102
RTVSPropertyOp22
 70
     1
102
RTVSPropertyOp23
 70
     1
102
RTVSPropertyOp24
 70
     1
102
RTVSPropertyOp25
 70
     1
102
RTVSPropertyOp26
 70
     1
102
RTVSPropertyOp27
 70
     1
102
RTVSPropertyOp28
 70
     1
102
RTVSPropertyOp29
 70
     1
102
RTVSPropertyOp30
 70
     1
102
RTVSPropertyOp31
 70
     1
102
RTVSPropertyOp32
 70
     1
102
RTVSPropertyOp33
 70
     1
102
RTVSPropertyOp34
 70
     1
102
RTVSPropertyOp35
 70
     1
102
RTVSPropertyOp36
 70
     1
102
RTVSPropertyOp37
 70
     1
102
RTVSPropertyOp38
 70
     1
102
RTVSPropertyOp39
 70
     1
102
RTVSPropertyOp40
 70
     1
102
RTVSPropertyOp41
 70
     1
102
RTVSPropertyOp42
 70
     1
102
RTVSPropertyOp43
 70
     1
102
RTVSPropertyOp44
 70
     1
102
RTVSPropertyOp45
 70
     1
102
RTVSPropertyOp46
 70
     1
102
RTVSPropertyOp47
 70
     1
102
RTVSPropertyOp48
 70
     1
102
RTVSPropertyOp49
 70
     1
102
RTVSPropertyOp50
 70
     1
102
RTVSPropertyOp51
 70
     0
102
RTVSPropertyOp52
 70
     0
102
RTVSPropertyOp53
 70
     1
102
RTVSPropertyOp54
 70
     1
102
RTVSPropertyOp55
 70
     1
102
RTVSPropertyOp56
 70
     1
102
RTVSPropertyOp57
 70
     1
102
RTVSPropertyOp58
 70
     1
102
RTVSPropertyOp59
 70
     1
102
RTVSPropertyOp60
 70
     1
102
RTVSPropertyOp61
 70
     1
102
RTVSPropertyOp62
 70
     1
  0
XRECORD
  5
6779
102
{ACAD_REACTORS
330
6778
102
}
330
6778
100
AcDbXrecord
280
     1
102
RTVSPost2010Prop28
280
     0
102
RTVSPost2010PropOp28
 70
     1
102
RTVSPost2010Prop29
280
     1
102
RTVSPost2010PropOp29
 70
     1
102
RTVSPost2010Prop30
280
     1
102
RTVSPost2010PropOp30
 70
     1
102
RTVSPost2010Prop31
280
     0
102
RTVSPost2010PropOp31
 70
     1
102
RTVSPost2010Prop32
280
     0
102
RTVSPost2010PropOp32
 70
     1
102
RTVSPost2010Prop33
280
     0
102
RTVSPost2010PropOp33
 70
     1
102
RTVSPost2010Prop34
280
     0
102
RTVSPost2010PropOp34
 70
     1
102
RTVSPost2010Prop35
280
     0
102
RTVSPost2010PropOp35
 70
     1
102
RTVSPost2010Prop36
280
     0
102
RTVSPost2010PropOp36
 70
     1
102
RTVSPost2010Prop37
 90
       50
102
RTVSPost2010PropOp37
 70
     1
102
RTVSPost2010Prop38
140
0.0
102
RTVSPost2010PropOp38
 70
     1
102
RTVSPost2010Prop39
140
1.0
102
RTVSPost2010PropOp39
 70
     1
102
RTVSPost2010Prop40
 90
        0
102
RTVSPost2010PropOp40
 70
     1
102
RTVSPost2010Prop41ColorIndex
 90
       18
102
RTVSPost2010Prop41ColorRGB
 90
        0
102
RTVSPost2010PropOp41
 70
     1
102
RTVSPost2010Prop42
 90
       50
102
RTVSPost2010PropOp42
 70
     1
102
RTVSPost2010Prop43
 90
        3
102
RTVSPost2010PropOp43
 70
     1
102
RTVSPost2010Prop44ColorIndex
 90
        5
102
RTVSPost2010Prop44ColorRGB
 90
      255
102
RTVSPost2010PropOp44
 70
     1
102
RTVSPost2010Prop45
280
     0
102
RTVSPost2010PropOp45
 70
     1
102
RTVSPost2010Prop46
 90
       50
102
RTVSPost2010PropOp46
 70
     1
102
RTVSPost2010Prop47
 90
       50
102
RTVSPost2010PropOp47
 70
     1
102
RTVSPost2010Prop48
 90
       50
102
RTVSPost2010PropOp48
 70
     1
102
RTVSPost2010Prop49
280
     0
102
RTVSPost2010PropOp49
 70
     1
102
RTVSPost2010Prop50
 90
       50
102
RTVSPost2010PropOp50
 70
     1
102
RTVSPost2010Prop51ColorIndex
 90
      256
102
RTVSPost2010Prop51ColorRGB
 90
-16777216
102
RTVSPost2010PropOp51
 70
     0
102
RTVSPost2010Prop52
140
1.0
102
RTVSPost2010PropOp52
 70
     0
102
RTVSPost2010Prop53
 90
        2
102
RTVSPost2010PropOp53
 70
     1
102
RTVSPost2010Prop54
  1
strokes_ogs.tif
102
RTVSPost2010PropOp54
 70
     1
102
RTVSPost2010Prop55
280
     0
102
RTVSPost2010PropOp55
 70
     1
102
RTVSPost2010Prop56
140
1.0
102
RTVSPost2010PropOp56
 70
     1
102
RTVSPost2010Prop57
140
1.0
102
RTVSPost2010PropOp57
 70
     1
102
RTVSPropertyOp0
 70
     1
102
RTVSPropertyOp1
 70
     1
102
RTVSPropertyOp2
 70
     1
102
RTVSPropertyOp3
 70
     1
102
RTVSPropertyOp4
 70
     1
102
RTVSPropertyOp5
 70
     1
102
RTVSPropertyOp6
 70
     1
102
RTVSPropertyOp7
 70
     1
102
RTVSPropertyOp8
 70
     1
102
RTVSPropertyOp9
 70
     1
102
RTVSPropertyOp10
 70
     1
102
RTVSPropertyOp11
 70
     1
102
RTVSPropertyOp12
 70
     1
102
RTVSPropertyOp13
 70
     1
102
RTVSPropertyOp14
 70
     1
102
RTVSPropertyOp15
 70
     1
102
RTVSPropertyOp16
 70
     1
102
RTVSPropertyOp17
 70
     1
102
RTVSPropertyOp18
 70
     1
102
RTVSPropertyOp19
 70
     1
102
RTVSPropertyOp20
 70
     1
102
RTVSPropertyOp21
 70
     1
102
RTVSPropertyOp22
 70
     1
102
RTVSPropertyOp23
 70
     1
102
RTVSPropertyOp24
 70
     1
102
RTVSPropertyOp25
 70
     1
102
RTVSPropertyOp26
 70
     1
102
RTVSPropertyOp27
 70
     1
102
RTVSPropertyOp28
 70
     1
102
RTVSPropertyOp29
 70
     1
102
RTVSPropertyOp30
 70
     1
102
RTVSPropertyOp31
 70
     1
102
RTVSPropertyOp32
 70
     1
102
RTVSPropertyOp33
 70
     1
102
RTVSPropertyOp34
 70
     1
102
RTVSPropertyOp35
 70
     1
102
RTVSPropertyOp36
 70
     1
102
RTVSPropertyOp37
 70
     1
102
RTVSPropertyOp38
 70
     1
102
RTVSPropertyOp39
 70
     1
102
RTVSPropertyOp40
 70
     1
102
RTVSPropertyOp41
 70
     1
102
RTVSPropertyOp42
 70
     1
102
RTVSPropertyOp43
 70
     1
102
RTVSPropertyOp44
 70
     1
102
RTVSPropertyOp45
 70
     1
102
RTVSPropertyOp46
 70
     1
102
RTVSPropertyOp47
 70
     1
102
RTVSPropertyOp48
 70
     1
102
RTVSPropertyOp49
 70
     1
102
RTVSPropertyOp50
 70
     1
102
RTVSPropertyOp51
 70
     0
102
RTVSPropertyOp52
 70
     0
102
RTVSPropertyOp53
 70
     1
102
RTVSPropertyOp54
 70
     1
102
RTVSPropertyOp55
 70
     1
102
RTVSPropertyOp56
 70
     1
102
RTVSPropertyOp57
 70
     1
102
RTVSPropertyOp58
 70
     1
102
RTVSPropertyOp59
 70
     1
102
RTVSPropertyOp60
 70
     1
102
RTVSPropertyOp61
 70
     1
102
RTVSPropertyOp62
 70
     1
  0
XRECORD
  5
6781
102
{ACAD_REACTORS
330
6780
102
}
330
6780
100
AcDbXrecord
280
     1
102
RTVSPost2010Prop28
280
     0
102
RTVSPost2010PropOp28
 70
     1
102
RTVSPost2010Prop29
280
     1
102
RTVSPost2010PropOp29
 70
     1
102
RTVSPost2010Prop30
280
     1
102
RTVSPost2010PropOp30
 70
     1
102
RTVSPost2010Prop31
280
     0
102
RTVSPost2010PropOp31
 70
     1
102
RTVSPost2010Prop32
280
     0
102
RTVSPost2010PropOp32
 70
     1
102
RTVSPost2010Prop33
280
     0
102
RTVSPost2010PropOp33
 70
     1
102
RTVSPost2010Prop34
280
     0
102
RTVSPost2010PropOp34
 70
     1
102
RTVSPost2010Prop35
280
     0
102
RTVSPost2010PropOp35
 70
     1
102
RTVSPost2010Prop36
280
     0
102
RTVSPost2010PropOp36
 70
     1
102
RTVSPost2010Prop37
 90
       50
102
RTVSPost2010PropOp37
 70
     1
102
RTVSPost2010Prop38
140
0.0
102
RTVSPost2010PropOp38
 70
     1
102
RTVSPost2010Prop39
140
1.0
102
RTVSPost2010PropOp39
 70
     1
102
RTVSPost2010Prop40
 90
        0
102
RTVSPost2010PropOp40
 70
     1
102
RTVSPost2010Prop41ColorIndex
 90
       18
102
RTVSPost2010Prop41ColorRGB
 90
        0
102
RTVSPost2010PropOp41
 70
     1
102
RTVSPost2010Prop42
 90
       50
102
RTVSPost2010PropOp42
 70
     1
102
RTVSPost2010Prop43
 90
        3
102
RTVSPost2010PropOp43
 70
     1
102
RTVSPost2010Prop44ColorIndex
 90
        5
102
RTVSPost2010Prop44ColorRGB
 90
      255
102
RTVSPost2010PropOp44
 70
     1
102
RTVSPost2010Prop45
280
     0
102
RTVSPost2010PropOp45
 70
     1
102
RTVSPost2010Prop46
 90
       50
102
RTVSPost2010PropOp46
 70
     1
102
RTVSPost2010Prop47
 90
       50
102
RTVSPost2010PropOp47
 70
     1
102
RTVSPost2010Prop48
 90
       50
102
RTVSPost2010PropOp48
 70
     1
102
RTVSPost2010Prop49
280
     0
102
RTVSPost2010PropOp49
 70
     1
102
RTVSPost2010Prop50
 90
       50
102
RTVSPost2010PropOp50
 70
     1
102
RTVSPost2010Prop51ColorIndex
 90
      256
102
RTVSPost2010Prop51ColorRGB
 90
-16777216
102
RTVSPost2010PropOp51
 70
     0
102
RTVSPost2010Prop52
140
1.0
102
RTVSPost2010PropOp52
 70
     0
102
RTVSPost2010Prop53
 90
        2
102
RTVSPost2010PropOp53
 70
     1
102
RTVSPost2010Prop54
  1
strokes_ogs.tif
102
RTVSPost2010PropOp54
 70
     1
102
RTVSPost2010Prop55
280
     0
102
RTVSPost2010PropOp55
 70
     1
102
RTVSPost2010Prop56
140
1.0
102
RTVSPost2010PropOp56
 70
     1
102
RTVSPost2010Prop57
140
1.0
102
RTVSPost2010PropOp57
 70
     1
102
RTVSPropertyOp0
 70
     1
102
RTVSPropertyOp1
 70
     1
102
RTVSPropertyOp2
 70
     1
102
RTVSPropertyOp3
 70
     1
102
RTVSPropertyOp4
 70
     1
102
RTVSPropertyOp5
 70
     1
102
RTVSPropertyOp6
 70
     1
102
RTVSPropertyOp7
 70
     1
102
RTVSPropertyOp8
 70
     1
102
RTVSPropertyOp9
 70
     1
102
RTVSPropertyOp10
 70
     1
102
RTVSPropertyOp11
 70
     1
102
RTVSPropertyOp12
 70
     1
102
RTVSPropertyOp13
 70
     1
102
RTVSPropertyOp14
 70
     1
102
RTVSPropertyOp15
 70
     1
102
RTVSPropertyOp16
 70
     1
102
RTVSPropertyOp17
 70
     1
102
RTVSPropertyOp18
 70
     1
102
RTVSPropertyOp19
 70
     1
102
RTVSPropertyOp20
 70
     1
102
RTVSPropertyOp21
 70
     1
102
RTVSPropertyOp22
 70
     1
102
RTVSPropertyOp23
 70
     1
102
RTVSPropertyOp24
 70
     1
102
RTVSPropertyOp25
 70
     1
102
RTVSPropertyOp26
 70
     1
102
RTVSPropertyOp27
 70
     1
102
RTVSPropertyOp28
 70
     1
102
RTVSPropertyOp29
 70
     1
102
RTVSPropertyOp30
 70
     1
102
RTVSPropertyOp31
 70
     1
102
RTVSPropertyOp32
 70
     1
102
RTVSPropertyOp33
 70
     1
102
RTVSPropertyOp34
 70
     1
102
RTVSPropertyOp35
 70
     1
102
RTVSPropertyOp36
 70
     1
102
RTVSPropertyOp37
 70
     1
102
RTVSPropertyOp38
 70
     1
102
RTVSPropertyOp39
 70
     1
102
RTVSPropertyOp40
 70
     1
102
RTVSPropertyOp41
 70
     1
102
RTVSPropertyOp42
 70
     1
102
RTVSPropertyOp43
 70
     1
102
RTVSPropertyOp44
 70
     1
102
RTVSPropertyOp45
 70
     1
102
RTVSPropertyOp46
 70
     1
102
RTVSPropertyOp47
 70
     1
102
RTVSPropertyOp48
 70
     1
102
RTVSPropertyOp49
 70
     1
102
RTVSPropertyOp50
 70
     1
102
RTVSPropertyOp51
 70
     0
102
RTVSPropertyOp52
 70
     0
102
RTVSPropertyOp53
 70
     1
102
RTVSPropertyOp54
 70
     1
102
RTVSPropertyOp55
 70
     1
102
RTVSPropertyOp56
 70
     1
102
RTVSPropertyOp57
 70
     1
102
RTVSPropertyOp58
 70
     1
102
RTVSPropertyOp59
 70
     1
102
RTVSPropertyOp60
 70
     1
102
RTVSPropertyOp61
 70
     1
102
RTVSPropertyOp62
 70
     1
  0
XRECORD
  5
679D
102
{ACAD_REACTORS
330
679C
102
}
330
679C
100
AcDbXrecord
280
     1
102
RTVSPost2010Prop28
280
     0
102
RTVSPost2010PropOp28
 70
     0
102
RTVSPost2010Prop29
280
     1
102
RTVSPost2010PropOp29
 70
     0
102
RTVSPost2010Prop30
280
     1
102
RTVSPost2010PropOp30
 70
     0
102
RTVSPost2010Prop31
280
     0
102
RTVSPost2010PropOp31
 70
     0
102
RTVSPost2010Prop32
280
     0
102
RTVSPost2010PropOp32
 70
     0
102
RTVSPost2010Prop33
280
     0
102
RTVSPost2010PropOp33
 70
     0
102
RTVSPost2010Prop34
280
     0
102
RTVSPost2010PropOp34
 70
     0
102
RTVSPost2010Prop35
280
     0
102
RTVSPost2010PropOp35
 70
     0
102
RTVSPost2010Prop36
280
     0
102
RTVSPost2010PropOp36
 70
     0
102
RTVSPost2010Prop37
 90
       50
102
RTVSPost2010PropOp37
 70
     0
102
RTVSPost2010Prop38
140
0.0
102
RTVSPost2010PropOp38
 70
     0
102
RTVSPost2010Prop39
140
1.0
102
RTVSPost2010PropOp39
 70
     0
102
RTVSPost2010Prop40
 90
        0
102
RTVSPost2010PropOp40
 70
     0
102
RTVSPost2010Prop41ColorIndex
 90
       18
102
RTVSPost2010Prop41ColorRGB
 90
        0
102
RTVSPost2010PropOp41
 70
     0
102
RTVSPost2010Prop42
 90
       50
102
RTVSPost2010PropOp42
 70
     0
102
RTVSPost2010Prop43
 90
        3
102
RTVSPost2010PropOp43
 70
     0
102
RTVSPost2010Prop44ColorIndex
 90
        5
102
RTVSPost2010Prop44ColorRGB
 90
      255
102
RTVSPost2010PropOp44
 70
     0
102
RTVSPost2010Prop45
280
     0
102
RTVSPost2010PropOp45
 70
     0
102
RTVSPost2010Prop46
 90
       50
102
RTVSPost2010PropOp46
 70
     0
102
RTVSPost2010Prop47
 90
       50
102
RTVSPost2010PropOp47
 70
     0
102
RTVSPost2010Prop48
 90
       50
102
RTVSPost2010PropOp48
 70
     0
102
RTVSPost2010Prop49
280
     0
102
RTVSPost2010PropOp49
 70
     0
102
RTVSPost2010Prop50
 90
       50
102
RTVSPost2010PropOp50
 70
     0
102
RTVSPost2010Prop51ColorIndex
 90
      256
102
RTVSPost2010Prop51ColorRGB
 90
-16777216
102
RTVSPost2010PropOp51
 70
     0
102
RTVSPost2010Prop52
140
1.0
102
RTVSPost2010PropOp52
 70
     0
102
RTVSPost2010Prop53
 90
        2
102
RTVSPost2010PropOp53
 70
     0
102
RTVSPost2010Prop54
  1
strokes_ogs.tif
102
RTVSPost2010PropOp54
 70
     0
102
RTVSPost2010Prop55
280
     0
102
RTVSPost2010PropOp55
 70
     0
102
RTVSPost2010Prop56
140
1.0
102
RTVSPost2010PropOp56
 70
     0
102
RTVSPost2010Prop57
140
1.0
102
RTVSPost2010PropOp57
 70
     0
102
RTVSPropertyOp0
 70
     0
102
RTVSPropertyOp1
 70
     0
102
RTVSPropertyOp2
 70
     0
102
RTVSPropertyOp3
 70
     0
102
RTVSPropertyOp4
 70
     0
102
RTVSPropertyOp5
 70
     0
102
RTVSPropertyOp6
 70
     0
102
RTVSPropertyOp7
 70
     0
102
RTVSPropertyOp8
 70
     0
102
RTVSPropertyOp9
 70
     0
102
RTVSPropertyOp10
 70
     0
102
RTVSPropertyOp11
 70
     0
102
RTVSPropertyOp12
 70
     0
102
RTVSPropertyOp13
 70
     0
102
RTVSPropertyOp14
 70
     2
102
RTVSPropertyOp15
 70
     0
102
RTVSPropertyOp16
 70
     0
102
RTVSPropertyOp17
 70
     0
102
RTVSPropertyOp18
 70
     0
102
RTVSPropertyOp19
 70
     0
102
RTVSPropertyOp20
 70
     0
102
RTVSPropertyOp21
 70
     0
102
RTVSPropertyOp22
 70
     0
102
RTVSPropertyOp23
 70
     0
102
RTVSPropertyOp24
 70
     0
102
RTVSPropertyOp25
 70
     0
102
RTVSPropertyOp26
 70
     0
102
RTVSPropertyOp27
 70
     0
102
RTVSPropertyOp28
 70
     0
102
RTVSPropertyOp29
 70
     0
102
RTVSPropertyOp30
 70
     0
102
RTVSPropertyOp31
 70
     0
102
RTVSPropertyOp32
 70
     0
102
RTVSPropertyOp33
 70
     0
102
RTVSPropertyOp34
 70
     0
102
RTVSPropertyOp35
 70
     0
102
RTVSPropertyOp36
 70
     0
102
RTVSPropertyOp37
 70
     0
102
RTVSPropertyOp38
 70
     0
102
RTVSPropertyOp39
 70
     0
102
RTVSPropertyOp40
 70
     0
102
RTVSPropertyOp41
 70
     0
102
RTVSPropertyOp42
 70
     0
102
RTVSPropertyOp43
 70
     0
102
RTVSPropertyOp44
 70
     0
102
RTVSPropertyOp45
 70
     0
102
RTVSPropertyOp46
 70
     0
102
RTVSPropertyOp47
 70
     0
102
RTVSPropertyOp48
 70
     0
102
RTVSPropertyOp49
 70
     0
102
RTVSPropertyOp50
 70
     0
102
RTVSPropertyOp51
 70
     0
102
RTVSPropertyOp52
 70
     0
102
RTVSPropertyOp53
 70
     0
102
RTVSPropertyOp54
 70
     0
102
RTVSPropertyOp55
 70
     0
102
RTVSPropertyOp56
 70
     0
102
RTVSPropertyOp57
 70
     0
102
RTVSPropertyOp58
 70
     1
102
RTVSPropertyOp59
 70
     1
102
RTVSPropertyOp60
 70
     1
102
RTVSPropertyOp61
 70
     1
102
RTVSPropertyOp62
 70
     1
  0
XRECORD
  5
678D
102
{ACAD_REACTORS
330
678C
102
}
330
678C
100
AcDbXrecord
280
     1
102
RTVSPost2010Prop28
280
     0
102
RTVSPost2010PropOp28
 70
     1
102
RTVSPost2010Prop29
280
     1
102
RTVSPost2010PropOp29
 70
     1
102
RTVSPost2010Prop30
280
     1
102
RTVSPost2010PropOp30
 70
     1
102
RTVSPost2010Prop31
280
     0
102
RTVSPost2010PropOp31
 70
     1
102
RTVSPost2010Prop32
280
     0
102
RTVSPost2010PropOp32
 70
     1
102
RTVSPost2010Prop33
280
     0
102
RTVSPost2010PropOp33
 70
     1
102
RTVSPost2010Prop34
280
     0
102
RTVSPost2010PropOp34
 70
     1
102
RTVSPost2010Prop35
280
     0
102
RTVSPost2010PropOp35
 70
     1
102
RTVSPost2010Prop36
280
     0
102
RTVSPost2010PropOp36
 70
     1
102
RTVSPost2010Prop37
 90
       50
102
RTVSPost2010PropOp37
 70
     1
102
RTVSPost2010Prop38
140
0.0
102
RTVSPost2010PropOp38
 70
     1
102
RTVSPost2010Prop39
140
1.0
102
RTVSPost2010PropOp39
 70
     1
102
RTVSPost2010Prop40
 90
        0
102
RTVSPost2010PropOp40
 70
     1
102
RTVSPost2010Prop41ColorIndex
 90
       18
102
RTVSPost2010Prop41ColorRGB
 90
        0
102
RTVSPost2010PropOp41
 70
     1
102
RTVSPost2010Prop42
 90
       50
102
RTVSPost2010PropOp42
 70
     1
102
RTVSPost2010Prop43
 90
        3
102
RTVSPost2010PropOp43
 70
     1
102
RTVSPost2010Prop44ColorIndex
 90
        5
102
RTVSPost2010Prop44ColorRGB
 90
      255
102
RTVSPost2010PropOp44
 70
     1
102
RTVSPost2010Prop45
280
     0
102
RTVSPost2010PropOp45
 70
     1
102
RTVSPost2010Prop46
 90
       50
102
RTVSPost2010PropOp46
 70
     1
102
RTVSPost2010Prop47
 90
       50
102
RTVSPost2010PropOp47
 70
     1
102
RTVSPost2010Prop48
 90
       50
102
RTVSPost2010PropOp48
 70
     1
102
RTVSPost2010Prop49
280
     0
102
RTVSPost2010PropOp49
 70
     1
102
RTVSPost2010Prop50
 90
       50
102
RTVSPost2010PropOp50
 70
     1
102
RTVSPost2010Prop51ColorIndex
 90
      256
102
RTVSPost2010Prop51ColorRGB
 90
-16777216
102
RTVSPost2010PropOp51
 70
     0
102
RTVSPost2010Prop52
140
1.0
102
RTVSPost2010PropOp52
 70
     0
102
RTVSPost2010Prop53
 90
        2
102
RTVSPost2010PropOp53
 70
     1
102
RTVSPost2010Prop54
  1
strokes_ogs.tif
102
RTVSPost2010PropOp54
 70
     1
102
RTVSPost2010Prop55
280
     0
102
RTVSPost2010PropOp55
 70
     1
102
RTVSPost2010Prop56
140
1.0
102
RTVSPost2010PropOp56
 70
     1
102
RTVSPost2010Prop57
140
1.0
102
RTVSPost2010PropOp57
 70
     1
102
RTVSPropertyOp0
 70
     1
102
RTVSPropertyOp1
 70
     1
102
RTVSPropertyOp2
 70
     1
102
RTVSPropertyOp3
 70
     1
102
RTVSPropertyOp4
 70
     1
102
RTVSPropertyOp5
 70
     1
102
RTVSPropertyOp6
 70
     1
102
RTVSPropertyOp7
 70
     1
102
RTVSPropertyOp8
 70
     1
102
RTVSPropertyOp9
 70
     1
102
RTVSPropertyOp10
 70
     1
102
RTVSPropertyOp11
 70
     1
102
RTVSPropertyOp12
 70
     1
102
RTVSPropertyOp13
 70
     1
102
RTVSPropertyOp14
 70
     1
102
RTVSPropertyOp15
 70
     1
102
RTVSPropertyOp16
 70
     1
102
RTVSPropertyOp17
 70
     1
102
RTVSPropertyOp18
 70
     1
102
RTVSPropertyOp19
 70
     1
102
RTVSPropertyOp20
 70
     1
102
RTVSPropertyOp21
 70
     1
102
RTVSPropertyOp22
 70
     1
102
RTVSPropertyOp23
 70
     1
102
RTVSPropertyOp24
 70
     1
102
RTVSPropertyOp25
 70
     1
102
RTVSPropertyOp26
 70
     1
102
RTVSPropertyOp27
 70
     1
102
RTVSPropertyOp28
 70
     1
102
RTVSPropertyOp29
 70
     1
102
RTVSPropertyOp30
 70
     1
102
RTVSPropertyOp31
 70
     1
102
RTVSPropertyOp32
 70
     1
102
RTVSPropertyOp33
 70
     1
102
RTVSPropertyOp34
 70
     1
102
RTVSPropertyOp35
 70
     1
102
RTVSPropertyOp36
 70
     1
102
RTVSPropertyOp37
 70
     1
102
RTVSPropertyOp38
 70
     1
102
RTVSPropertyOp39
 70
     1
102
RTVSPropertyOp40
 70
     1
102
RTVSPropertyOp41
 70
     1
102
RTVSPropertyOp42
 70
     1
102
RTVSPropertyOp43
 70
     1
102
RTVSPropertyOp44
 70
     1
102
RTVSPropertyOp45
 70
     1
102
RTVSPropertyOp46
 70
     1
102
RTVSPropertyOp47
 70
     1
102
RTVSPropertyOp48
 70
     1
102
RTVSPropertyOp49
 70
     1
102
RTVSPropertyOp50
 70
     1
102
RTVSPropertyOp51
 70
     0
102
RTVSPropertyOp52
 70
     0
102
RTVSPropertyOp53
 70
     1
102
RTVSPropertyOp54
 70
     1
102
RTVSPropertyOp55
 70
     1
102
RTVSPropertyOp56
 70
     1
102
RTVSPropertyOp57
 70
     1
102
RTVSPropertyOp58
 70
     1
102
RTVSPropertyOp59
 70
     1
102
RTVSPropertyOp60
 70
     1
102
RTVSPropertyOp61
 70
     1
102
RTVSPropertyOp62
 70
     1
  0
XRECORD
  5
679F
102
{ACAD_REACTORS
330
679E
102
}
330
679E
100
AcDbXrecord
280
     1
102
RTVSPost2010Prop28
280
     0
102
RTVSPost2010PropOp28
 70
     0
102
RTVSPost2010Prop29
280
     1
102
RTVSPost2010PropOp29
 70
     0
102
RTVSPost2010Prop30
280
     1
102
RTVSPost2010PropOp30
 70
     0
102
RTVSPost2010Prop31
280
     0
102
RTVSPost2010PropOp31
 70
     0
102
RTVSPost2010Prop32
280
     0
102
RTVSPost2010PropOp32
 70
     0
102
RTVSPost2010Prop33
280
     0
102
RTVSPost2010PropOp33
 70
     0
102
RTVSPost2010Prop34
280
     0
102
RTVSPost2010PropOp34
 70
     0
102
RTVSPost2010Prop35
280
     0
102
RTVSPost2010PropOp35
 70
     0
102
RTVSPost2010Prop36
280
     0
102
RTVSPost2010PropOp36
 70
     0
102
RTVSPost2010Prop37
 90
       50
102
RTVSPost2010PropOp37
 70
     0
102
RTVSPost2010Prop38
140
0.0
102
RTVSPost2010PropOp38
 70
     0
102
RTVSPost2010Prop39
140
1.0
102
RTVSPost2010PropOp39
 70
     0
102
RTVSPost2010Prop40
 90
        0
102
RTVSPost2010PropOp40
 70
     0
102
RTVSPost2010Prop41ColorIndex
 90
       18
102
RTVSPost2010Prop41ColorRGB
 90
        0
102
RTVSPost2010PropOp41
 70
     0
102
RTVSPost2010Prop42
 90
       50
102
RTVSPost2010PropOp42
 70
     0
102
RTVSPost2010Prop43
 90
        3
102
RTVSPost2010PropOp43
 70
     0
102
RTVSPost2010Prop44ColorIndex
 90
        5
102
RTVSPost2010Prop44ColorRGB
 90
      255
102
RTVSPost2010PropOp44
 70
     0
102
RTVSPost2010Prop45
280
     0
102
RTVSPost2010PropOp45
 70
     0
102
RTVSPost2010Prop46
 90
       50
102
RTVSPost2010PropOp46
 70
     0
102
RTVSPost2010Prop47
 90
       50
102
RTVSPost2010PropOp47
 70
     0
102
RTVSPost2010Prop48
 90
       50
102
RTVSPost2010PropOp48
 70
     0
102
RTVSPost2010Prop49
280
     0
102
RTVSPost2010PropOp49
 70
     0
102
RTVSPost2010Prop50
 90
       50
102
RTVSPost2010PropOp50
 70
     0
102
RTVSPost2010Prop51ColorIndex
 90
      256
102
RTVSPost2010Prop51ColorRGB
 90
-16777216
102
RTVSPost2010PropOp51
 70
     0
102
RTVSPost2010Prop52
140
1.0
102
RTVSPost2010PropOp52
 70
     0
102
RTVSPost2010Prop53
 90
        2
102
RTVSPost2010PropOp53
 70
     0
102
RTVSPost2010Prop54
  1
strokes_ogs.tif
102
RTVSPost2010PropOp54
 70
     0
102
RTVSPost2010Prop55
280
     0
102
RTVSPost2010PropOp55
 70
     0
102
RTVSPost2010Prop56
140
1.0
102
RTVSPost2010PropOp56
 70
     0
102
RTVSPost2010Prop57
140
1.0
102
RTVSPost2010PropOp57
 70
     0
102
RTVSPropertyOp0
 70
     0
102
RTVSPropertyOp1
 70
     0
102
RTVSPropertyOp2
 70
     0
102
RTVSPropertyOp3
 70
     0
102
RTVSPropertyOp4
 70
     0
102
RTVSPropertyOp5
 70
     0
102
RTVSPropertyOp6
 70
     0
102
RTVSPropertyOp7
 70
     0
102
RTVSPropertyOp8
 70
     0
102
RTVSPropertyOp9
 70
     0
102
RTVSPropertyOp10
 70
     0
102
RTVSPropertyOp11
 70
     0
102
RTVSPropertyOp12
 70
     0
102
RTVSPropertyOp13
 70
     0
102
RTVSPropertyOp14
 70
     2
102
RTVSPropertyOp15
 70
     0
102
RTVSPropertyOp16
 70
     0
102
RTVSPropertyOp17
 70
     0
102
RTVSPropertyOp18
 70
     0
102
RTVSPropertyOp19
 70
     0
102
RTVSPropertyOp20
 70
     0
102
RTVSPropertyOp21
 70
     0
102
RTVSPropertyOp22
 70
     0
102
RTVSPropertyOp23
 70
     0
102
RTVSPropertyOp24
 70
     0
102
RTVSPropertyOp25
 70
     0
102
RTVSPropertyOp26
 70
     0
102
RTVSPropertyOp27
 70
     0
102
RTVSPropertyOp28
 70
     0
102
RTVSPropertyOp29
 70
     0
102
RTVSPropertyOp30
 70
     0
102
RTVSPropertyOp31
 70
     0
102
RTVSPropertyOp32
 70
     0
102
RTVSPropertyOp33
 70
     0
102
RTVSPropertyOp34
 70
     0
102
RTVSPropertyOp35
 70
     0
102
RTVSPropertyOp36
 70
     0
102
RTVSPropertyOp37
 70
     0
102
RTVSPropertyOp38
 70
     0
102
RTVSPropertyOp39
 70
     0
102
RTVSPropertyOp40
 70
     0
102
RTVSPropertyOp41
 70
     0
102
RTVSPropertyOp42
 70
     0
102
RTVSPropertyOp43
 70
     0
102
RTVSPropertyOp44
 70
     0
102
RTVSPropertyOp45
 70
     0
102
RTVSPropertyOp46
 70
     0
102
RTVSPropertyOp47
 70
     0
102
RTVSPropertyOp48
 70
     0
102
RTVSPropertyOp49
 70
     0
102
RTVSPropertyOp50
 70
     0
102
RTVSPropertyOp51
 70
     0
102
RTVSPropertyOp52
 70
     0
102
RTVSPropertyOp53
 70
     0
102
RTVSPropertyOp54
 70
     0
102
RTVSPropertyOp55
 70
     0
102
RTVSPropertyOp56
 70
     0
102
RTVSPropertyOp57
 70
     0
102
RTVSPropertyOp58
 70
     1
102
RTVSPropertyOp59
 70
     1
102
RTVSPropertyOp60
 70
     1
102
RTVSPropertyOp61
 70
     1
102
RTVSPropertyOp62
 70
     1
  0
XRECORD
  5
6785
102
{ACAD_REACTORS
330
6784
102
}
330
6784
100
AcDbXrecord
280
     1
102
RTVSPost2010Prop28
280
     0
102
RTVSPost2010PropOp28
 70
     1
102
RTVSPost2010Prop29
280
     1
102
RTVSPost2010PropOp29
 70
     1
102
RTVSPost2010Prop30
280
     1
102
RTVSPost2010PropOp30
 70
     1
102
RTVSPost2010Prop31
280
     0
102
RTVSPost2010PropOp31
 70
     1
102
RTVSPost2010Prop32
280
     0
102
RTVSPost2010PropOp32
 70
     1
102
RTVSPost2010Prop33
280
     0
102
RTVSPost2010PropOp33
 70
     1
102
RTVSPost2010Prop34
280
     0
102
RTVSPost2010PropOp34
 70
     1
102
RTVSPost2010Prop35
280
     0
102
RTVSPost2010PropOp35
 70
     1
102
RTVSPost2010Prop36
280
     0
102
RTVSPost2010PropOp36
 70
     1
102
RTVSPost2010Prop37
 90
       50
102
RTVSPost2010PropOp37
 70
     1
102
RTVSPost2010Prop38
140
0.0
102
RTVSPost2010PropOp38
 70
     1
102
RTVSPost2010Prop39
140
1.0
102
RTVSPost2010PropOp39
 70
     1
102
RTVSPost2010Prop40
 90
        0
102
RTVSPost2010PropOp40
 70
     1
102
RTVSPost2010Prop41ColorIndex
 90
       18
102
RTVSPost2010Prop41ColorRGB
 90
        0
102
RTVSPost2010PropOp41
 70
     1
102
RTVSPost2010Prop42
 90
       50
102
RTVSPost2010PropOp42
 70
     1
102
RTVSPost2010Prop43
 90
        3
102
RTVSPost2010PropOp43
 70
     1
102
RTVSPost2010Prop44ColorIndex
 90
        5
102
RTVSPost2010Prop44ColorRGB
 90
      255
102
RTVSPost2010PropOp44
 70
     1
102
RTVSPost2010Prop45
280
     0
102
RTVSPost2010PropOp45
 70
     1
102
RTVSPost2010Prop46
 90
       50
102
RTVSPost2010PropOp46
 70
     1
102
RTVSPost2010Prop47
 90
       50
102
RTVSPost2010PropOp47
 70
     1
102
RTVSPost2010Prop48
 90
       50
102
RTVSPost2010PropOp48
 70
     1
102
RTVSPost2010Prop49
280
     0
102
RTVSPost2010PropOp49
 70
     1
102
RTVSPost2010Prop50
 90
       50
102
RTVSPost2010PropOp50
 70
     1
102
RTVSPost2010Prop51ColorIndex
 90
      256
102
RTVSPost2010Prop51ColorRGB
 90
-16777216
102
RTVSPost2010PropOp51
 70
     0
102
RTVSPost2010Prop52
140
1.0
102
RTVSPost2010PropOp52
 70
     0
102
RTVSPost2010Prop53
 90
        2
102
RTVSPost2010PropOp53
 70
     1
102
RTVSPost2010Prop54
  1
strokes_ogs.tif
102
RTVSPost2010PropOp54
 70
     1
102
RTVSPost2010Prop55
280
     0
102
RTVSPost2010PropOp55
 70
     1
102
RTVSPost2010Prop56
140
1.0
102
RTVSPost2010PropOp56
 70
     1
102
RTVSPost2010Prop57
140
1.0
102
RTVSPost2010PropOp57
 70
     1
102
RTVSPropertyOp0
 70
     1
102
RTVSPropertyOp1
 70
     1
102
RTVSPropertyOp2
 70
     1
102
RTVSPropertyOp3
 70
     1
102
RTVSPropertyOp4
 70
     1
102
RTVSPropertyOp5
 70
     1
102
RTVSPropertyOp6
 70
     1
102
RTVSPropertyOp7
 70
     1
102
RTVSPropertyOp8
 70
     1
102
RTVSPropertyOp9
 70
     1
102
RTVSPropertyOp10
 70
     1
102
RTVSPropertyOp11
 70
     1
102
RTVSPropertyOp12
 70
     1
102
RTVSPropertyOp13
 70
     1
102
RTVSPropertyOp14
 70
     1
102
RTVSPropertyOp15
 70
     1
102
RTVSPropertyOp16
 70
     1
102
RTVSPropertyOp17
 70
     1
102
RTVSPropertyOp18
 70
     1
102
RTVSPropertyOp19
 70
     1
102
RTVSPropertyOp20
 70
     1
102
RTVSPropertyOp21
 70
     1
102
RTVSPropertyOp22
 70
     1
102
RTVSPropertyOp23
 70
     1
102
RTVSPropertyOp24
 70
     1
102
RTVSPropertyOp25
 70
     1
102
RTVSPropertyOp26
 70
     1
102
RTVSPropertyOp27
 70
     1
102
RTVSPropertyOp28
 70
     1
102
RTVSPropertyOp29
 70
     1
102
RTVSPropertyOp30
 70
     1
102
RTVSPropertyOp31
 70
     1
102
RTVSPropertyOp32
 70
     1
102
RTVSPropertyOp33
 70
     1
102
RTVSPropertyOp34
 70
     1
102
RTVSPropertyOp35
 70
     1
102
RTVSPropertyOp36
 70
     1
102
RTVSPropertyOp37
 70
     1
102
RTVSPropertyOp38
 70
     1
102
RTVSPropertyOp39
 70
     1
102
RTVSPropertyOp40
 70
     1
102
RTVSPropertyOp41
 70
     1
102
RTVSPropertyOp42
 70
     1
102
RTVSPropertyOp43
 70
     1
102
RTVSPropertyOp44
 70
     1
102
RTVSPropertyOp45
 70
     1
102
RTVSPropertyOp46
 70
     1
102
RTVSPropertyOp47
 70
     1
102
RTVSPropertyOp48
 70
     1
102
RTVSPropertyOp49
 70
     1
102
RTVSPropertyOp50
 70
     1
102
RTVSPropertyOp51
 70
     0
102
RTVSPropertyOp52
 70
     0
102
RTVSPropertyOp53
 70
     1
102
RTVSPropertyOp54
 70
     1
102
RTVSPropertyOp55
 70
     1
102
RTVSPropertyOp56
 70
     1
102
RTVSPropertyOp57
 70
     1
102
RTVSPropertyOp58
 70
     1
102
RTVSPropertyOp59
 70
     1
102
RTVSPropertyOp60
 70
     1
102
RTVSPropertyOp61
 70
     1
102
RTVSPropertyOp62
 70
     1
  0
XRECORD
  5
679B
102
{ACAD_REACTORS
330
679A
102
}
330
679A
100
AcDbXrecord
280
     1
102
RTVSPost2010Prop28
280
     0
102
RTVSPost2010PropOp28
 70
     1
102
RTVSPost2010Prop29
280
     1
102
RTVSPost2010PropOp29
 70
     1
102
RTVSPost2010Prop30
280
     1
102
RTVSPost2010PropOp30
 70
     1
102
RTVSPost2010Prop31
280
     0
102
RTVSPost2010PropOp31
 70
     1
102
RTVSPost2010Prop32
280
     0
102
RTVSPost2010PropOp32
 70
     1
102
RTVSPost2010Prop33
280
     0
102
RTVSPost2010PropOp33
 70
     1
102
RTVSPost2010Prop34
280
     0
102
RTVSPost2010PropOp34
 70
     1
102
RTVSPost2010Prop35
280
     0
102
RTVSPost2010PropOp35
 70
     1
102
RTVSPost2010Prop36
280
     0
102
RTVSPost2010PropOp36
 70
     1
102
RTVSPost2010Prop37
 90
       50
102
RTVSPost2010PropOp37
 70
     1
102
RTVSPost2010Prop38
140
0.0
102
RTVSPost2010PropOp38
 70
     1
102
RTVSPost2010Prop39
140
1.0
102
RTVSPost2010PropOp39
 70
     1
102
RTVSPost2010Prop40
 90
        0
102
RTVSPost2010PropOp40
 70
     1
102
RTVSPost2010Prop41ColorIndex
 90
       18
102
RTVSPost2010Prop41ColorRGB
 90
        0
102
RTVSPost2010PropOp41
 70
     1
102
RTVSPost2010Prop42
 90
       50
102
RTVSPost2010PropOp42
 70
     1
102
RTVSPost2010Prop43
 90
        3
102
RTVSPost2010PropOp43
 70
     1
102
RTVSPost2010Prop44ColorIndex
 90
        5
102
RTVSPost2010Prop44ColorRGB
 90
      255
102
RTVSPost2010PropOp44
 70
     1
102
RTVSPost2010Prop45
280
     0
102
RTVSPost2010PropOp45
 70
     1
102
RTVSPost2010Prop46
 90
       50
102
RTVSPost2010PropOp46
 70
     1
102
RTVSPost2010Prop47
 90
       50
102
RTVSPost2010PropOp47
 70
     1
102
RTVSPost2010Prop48
 90
       50
102
RTVSPost2010PropOp48
 70
     1
102
RTVSPost2010Prop49
280
     0
102
RTVSPost2010PropOp49
 70
     1
102
RTVSPost2010Prop50
 90
       50
102
RTVSPost2010PropOp50
 70
     1
102
RTVSPost2010Prop51ColorIndex
 90
      256
102
RTVSPost2010Prop51ColorRGB
 90
-16777216
102
RTVSPost2010PropOp51
 70
     0
102
RTVSPost2010Prop52
140
1.0
102
RTVSPost2010PropOp52
 70
     0
102
RTVSPost2010Prop53
 90
        2
102
RTVSPost2010PropOp53
 70
     1
102
RTVSPost2010Prop54
  1
strokes_ogs.tif
102
RTVSPost2010PropOp54
 70
     1
102
RTVSPost2010Prop55
280
     0
102
RTVSPost2010PropOp55
 70
     1
102
RTVSPost2010Prop56
140
1.0
102
RTVSPost2010PropOp56
 70
     1
102
RTVSPost2010Prop57
140
1.0
102
RTVSPost2010PropOp57
 70
     1
102
RTVSPropertyOp0
 70
     1
102
RTVSPropertyOp1
 70
     1
102
RTVSPropertyOp2
 70
     1
102
RTVSPropertyOp3
 70
     1
102
RTVSPropertyOp4
 70
     1
102
RTVSPropertyOp5
 70
     1
102
RTVSPropertyOp6
 70
     1
102
RTVSPropertyOp7
 70
     1
102
RTVSPropertyOp8
 70
     1
102
RTVSPropertyOp9
 70
     1
102
RTVSPropertyOp10
 70
     1
102
RTVSPropertyOp11
 70
     1
102
RTVSPropertyOp12
 70
     1
102
RTVSPropertyOp13
 70
     1
102
RTVSPropertyOp14
 70
     1
102
RTVSPropertyOp15
 70
     1
102
RTVSPropertyOp16
 70
     1
102
RTVSPropertyOp17
 70
     1
102
RTVSPropertyOp18
 70
     1
102
RTVSPropertyOp19
 70
     1
102
RTVSPropertyOp20
 70
     1
102
RTVSPropertyOp21
 70
     1
102
RTVSPropertyOp22
 70
     1
102
RTVSPropertyOp23
 70
     1
102
RTVSPropertyOp24
 70
     1
102
RTVSPropertyOp25
 70
     1
102
RTVSPropertyOp26
 70
     1
102
RTVSPropertyOp27
 70
     1
102
RTVSPropertyOp28
 70
     1
102
RTVSPropertyOp29
 70
     1
102
RTVSPropertyOp30
 70
     1
102
RTVSPropertyOp31
 70
     1
102
RTVSPropertyOp32
 70
     1
102
RTVSPropertyOp33
 70
     1
102
RTVSPropertyOp34
 70
     1
102
RTVSPropertyOp35
 70
     1
102
RTVSPropertyOp36
 70
     1
102
RTVSPropertyOp37
 70
     1
102
RTVSPropertyOp38
 70
     1
102
RTVSPropertyOp39
 70
     1
102
RTVSPropertyOp40
 70
     1
102
RTVSPropertyOp41
 70
     1
102
RTVSPropertyOp42
 70
     1
102
RTVSPropertyOp43
 70
     1
102
RTVSPropertyOp44
 70
     1
102
RTVSPropertyOp45
 70
     1
102
RTVSPropertyOp46
 70
     1
102
RTVSPropertyOp47
 70
     1
102
RTVSPropertyOp48
 70
     1
102
RTVSPropertyOp49
 70
     1
102
RTVSPropertyOp50
 70
     1
102
RTVSPropertyOp51
 70
     0
102
RTVSPropertyOp52
 70
     0
102
RTVSPropertyOp53
 70
     1
102
RTVSPropertyOp54
 70
     1
102
RTVSPropertyOp55
 70
     1
102
RTVSPropertyOp56
 70
     1
102
RTVSPropertyOp57
 70
     1
102
RTVSPropertyOp58
 70
     1
102
RTVSPropertyOp59
 70
     1
102
RTVSPropertyOp60
 70
     1
102
RTVSPropertyOp61
 70
     1
102
RTVSPropertyOp62
 70
     1
  0
XRECORD
  5
6799
102
{ACAD_REACTORS
330
6798
102
}
330
6798
100
AcDbXrecord
280
     1
102
RTVSPost2010Prop28
280
     0
102
RTVSPost2010PropOp28
 70
     1
102
RTVSPost2010Prop29
280
     1
102
RTVSPost2010PropOp29
 70
     1
102
RTVSPost2010Prop30
280
     1
102
RTVSPost2010PropOp30
 70
     1
102
RTVSPost2010Prop31
280
     0
102
RTVSPost2010PropOp31
 70
     1
102
RTVSPost2010Prop32
280
     0
102
RTVSPost2010PropOp32
 70
     1
102
RTVSPost2010Prop33
280
     0
102
RTVSPost2010PropOp33
 70
     1
102
RTVSPost2010Prop34
280
     0
102
RTVSPost2010PropOp34
 70
     1
102
RTVSPost2010Prop35
280
     0
102
RTVSPost2010PropOp35
 70
     1
102
RTVSPost2010Prop36
280
     0
102
RTVSPost2010PropOp36
 70
     1
102
RTVSPost2010Prop37
 90
       50
102
RTVSPost2010PropOp37
 70
     1
102
RTVSPost2010Prop38
140
0.0
102
RTVSPost2010PropOp38
 70
     1
102
RTVSPost2010Prop39
140
1.0
102
RTVSPost2010PropOp39
 70
     1
102
RTVSPost2010Prop40
 90
        0
102
RTVSPost2010PropOp40
 70
     1
102
RTVSPost2010Prop41ColorIndex
 90
       18
102
RTVSPost2010Prop41ColorRGB
 90
        0
102
RTVSPost2010PropOp41
 70
     1
102
RTVSPost2010Prop42
 90
       50
102
RTVSPost2010PropOp42
 70
     1
102
RTVSPost2010Prop43
 90
        3
102
RTVSPost2010PropOp43
 70
     1
102
RTVSPost2010Prop44ColorIndex
 90
        5
102
RTVSPost2010Prop44ColorRGB
 90
      255
102
RTVSPost2010PropOp44
 70
     1
102
RTVSPost2010Prop45
280
     0
102
RTVSPost2010PropOp45
 70
     1
102
RTVSPost2010Prop46
 90
       50
102
RTVSPost2010PropOp46
 70
     1
102
RTVSPost2010Prop47
 90
       50
102
RTVSPost2010PropOp47
 70
     1
102
RTVSPost2010Prop48
 90
       50
102
RTVSPost2010PropOp48
 70
     1
102
RTVSPost2010Prop49
280
     0
102
RTVSPost2010PropOp49
 70
     1
102
RTVSPost2010Prop50
 90
       50
102
RTVSPost2010PropOp50
 70
     1
102
RTVSPost2010Prop51ColorIndex
 90
      256
102
RTVSPost2010Prop51ColorRGB
 90
-16777216
102
RTVSPost2010PropOp51
 70
     0
102
RTVSPost2010Prop52
140
1.0
102
RTVSPost2010PropOp52
 70
     0
102
RTVSPost2010Prop53
 90
        2
102
RTVSPost2010PropOp53
 70
     1
102
RTVSPost2010Prop54
  1
strokes_ogs.tif
102
RTVSPost2010PropOp54
 70
     1
102
RTVSPost2010Prop55
280
     0
102
RTVSPost2010PropOp55
 70
     1
102
RTVSPost2010Prop56
140
1.0
102
RTVSPost2010PropOp56
 70
     1
102
RTVSPost2010Prop57
140
1.0
102
RTVSPost2010PropOp57
 70
     1
102
RTVSPropertyOp0
 70
     1
102
RTVSPropertyOp1
 70
     1
102
RTVSPropertyOp2
 70
     1
102
RTVSPropertyOp3
 70
     1
102
RTVSPropertyOp4
 70
     1
102
RTVSPropertyOp5
 70
     1
102
RTVSPropertyOp6
 70
     1
102
RTVSPropertyOp7
 70
     1
102
RTVSPropertyOp8
 70
     1
102
RTVSPropertyOp9
 70
     1
102
RTVSPropertyOp10
 70
     1
102
RTVSPropertyOp11
 70
     1
102
RTVSPropertyOp12
 70
     1
102
RTVSPropertyOp13
 70
     1
102
RTVSPropertyOp14
 70
     1
102
RTVSPropertyOp15
 70
     1
102
RTVSPropertyOp16
 70
     1
102
RTVSPropertyOp17
 70
     1
102
RTVSPropertyOp18
 70
     1
102
RTVSPropertyOp19
 70
     1
102
RTVSPropertyOp20
 70
     1
102
RTVSPropertyOp21
 70
     1
102
RTVSPropertyOp22
 70
     1
102
RTVSPropertyOp23
 70
     1
102
RTVSPropertyOp24
 70
     1
102
RTVSPropertyOp25
 70
     1
102
RTVSPropertyOp26
 70
     1
102
RTVSPropertyOp27
 70
     1
102
RTVSPropertyOp28
 70
     1
102
RTVSPropertyOp29
 70
     1
102
RTVSPropertyOp30
 70
     1
102
RTVSPropertyOp31
 70
     1
102
RTVSPropertyOp32
 70
     1
102
RTVSPropertyOp33
 70
     1
102
RTVSPropertyOp34
 70
     1
102
RTVSPropertyOp35
 70
     1
102
RTVSPropertyOp36
 70
     1
102
RTVSPropertyOp37
 70
     1
102
RTVSPropertyOp38
 70
     1
102
RTVSPropertyOp39
 70
     1
102
RTVSPropertyOp40
 70
     1
102
RTVSPropertyOp41
 70
     1
102
RTVSPropertyOp42
 70
     1
102
RTVSPropertyOp43
 70
     1
102
RTVSPropertyOp44
 70
     1
102
RTVSPropertyOp45
 70
     1
102
RTVSPropertyOp46
 70
     1
102
RTVSPropertyOp47
 70
     1
102
RTVSPropertyOp48
 70
     1
102
RTVSPropertyOp49
 70
     1
102
RTVSPropertyOp50
 70
     1
102
RTVSPropertyOp51
 70
     0
102
RTVSPropertyOp52
 70
     0
102
RTVSPropertyOp53
 70
     1
102
RTVSPropertyOp54
 70
     1
102
RTVSPropertyOp55
 70
     1
102
RTVSPropertyOp56
 70
     1
102
RTVSPropertyOp57
 70
     1
102
RTVSPropertyOp58
 70
     1
102
RTVSPropertyOp59
 70
     1
102
RTVSPropertyOp60
 70
     1
102
RTVSPropertyOp61
 70
     1
102
RTVSPropertyOp62
 70
     1
  0
XRECORD
  5
6793
102
{ACAD_REACTORS
330
6792
102
}
330
6792
100
AcDbXrecord
280
     1
102
RTVSPost2010Prop28
280
     0
102
RTVSPost2010PropOp28
 70
     1
102
RTVSPost2010Prop29
280
     1
102
RTVSPost2010PropOp29
 70
     1
102
RTVSPost2010Prop30
280
     1
102
RTVSPost2010PropOp30
 70
     1
102
RTVSPost2010Prop31
280
     0
102
RTVSPost2010PropOp31
 70
     1
102
RTVSPost2010Prop32
280
     0
102
RTVSPost2010PropOp32
 70
     1
102
RTVSPost2010Prop33
280
     0
102
RTVSPost2010PropOp33
 70
     1
102
RTVSPost2010Prop34
280
     0
102
RTVSPost2010PropOp34
 70
     1
102
RTVSPost2010Prop35
280
     0
102
RTVSPost2010PropOp35
 70
     1
102
RTVSPost2010Prop36
280
     0
102
RTVSPost2010PropOp36
 70
     1
102
RTVSPost2010Prop37
 90
       50
102
RTVSPost2010PropOp37
 70
     1
102
RTVSPost2010Prop38
140
0.0
102
RTVSPost2010PropOp38
 70
     1
102
RTVSPost2010Prop39
140
1.0
102
RTVSPost2010PropOp39
 70
     1
102
RTVSPost2010Prop40
 90
        0
102
RTVSPost2010PropOp40
 70
     1
102
RTVSPost2010Prop41ColorIndex
 90
       18
102
RTVSPost2010Prop41ColorRGB
 90
        0
102
RTVSPost2010PropOp41
 70
     1
102
RTVSPost2010Prop42
 90
       50
102
RTVSPost2010PropOp42
 70
     1
102
RTVSPost2010Prop43
 90
        3
102
RTVSPost2010PropOp43
 70
     1
102
RTVSPost2010Prop44ColorIndex
 90
        5
102
RTVSPost2010Prop44ColorRGB
 90
      255
102
RTVSPost2010PropOp44
 70
     1
102
RTVSPost2010Prop45
280
     0
102
RTVSPost2010PropOp45
 70
     1
102
RTVSPost2010Prop46
 90
       50
102
RTVSPost2010PropOp46
 70
     1
102
RTVSPost2010Prop47
 90
       50
102
RTVSPost2010PropOp47
 70
     1
102
RTVSPost2010Prop48
 90
       50
102
RTVSPost2010PropOp48
 70
     1
102
RTVSPost2010Prop49
280
     0
102
RTVSPost2010PropOp49
 70
     1
102
RTVSPost2010Prop50
 90
       50
102
RTVSPost2010PropOp50
 70
     1
102
RTVSPost2010Prop51ColorIndex
 90
      256
102
RTVSPost2010Prop51ColorRGB
 90
-16777216
102
RTVSPost2010PropOp51
 70
     0
102
RTVSPost2010Prop52
140
1.0
102
RTVSPost2010PropOp52
 70
     0
102
RTVSPost2010Prop53
 90
        2
102
RTVSPost2010PropOp53
 70
     1
102
RTVSPost2010Prop54
  1
strokes_ogs.tif
102
RTVSPost2010PropOp54
 70
     1
102
RTVSPost2010Prop55
280
     0
102
RTVSPost2010PropOp55
 70
     1
102
RTVSPost2010Prop56
140
1.0
102
RTVSPost2010PropOp56
 70
     1
102
RTVSPost2010Prop57
140
1.0
102
RTVSPost2010PropOp57
 70
     1
102
RTVSPropertyOp0
 70
     1
102
RTVSPropertyOp1
 70
     1
102
RTVSPropertyOp2
 70
     1
102
RTVSPropertyOp3
 70
     1
102
RTVSPropertyOp4
 70
     1
102
RTVSPropertyOp5
 70
     1
102
RTVSPropertyOp6
 70
     1
102
RTVSPropertyOp7
 70
     1
102
RTVSPropertyOp8
 70
     1
102
RTVSPropertyOp9
 70
     1
102
RTVSPropertyOp10
 70
     1
102
RTVSPropertyOp11
 70
     1
102
RTVSPropertyOp12
 70
     1
102
RTVSPropertyOp13
 70
     1
102
RTVSPropertyOp14
 70
     1
102
RTVSPropertyOp15
 70
     1
102
RTVSPropertyOp16
 70
     1
102
RTVSPropertyOp17
 70
     1
102
RTVSPropertyOp18
 70
     1
102
RTVSPropertyOp19
 70
     1
102
RTVSPropertyOp20
 70
     1
102
RTVSPropertyOp21
 70
     1
102
RTVSPropertyOp22
 70
     1
102
RTVSPropertyOp23
 70
     1
102
RTVSPropertyOp24
 70
     1
102
RTVSPropertyOp25
 70
     1
102
RTVSPropertyOp26
 70
     1
102
RTVSPropertyOp27
 70
     1
102
RTVSPropertyOp28
 70
     1
102
RTVSPropertyOp29
 70
     1
102
RTVSPropertyOp30
 70
     1
102
RTVSPropertyOp31
 70
     1
102
RTVSPropertyOp32
 70
     1
102
RTVSPropertyOp33
 70
     1
102
RTVSPropertyOp34
 70
     1
102
RTVSPropertyOp35
 70
     1
102
RTVSPropertyOp36
 70
     1
102
RTVSPropertyOp37
 70
     1
102
RTVSPropertyOp38
 70
     1
102
RTVSPropertyOp39
 70
     1
102
RTVSPropertyOp40
 70
     1
102
RTVSPropertyOp41
 70
     1
102
RTVSPropertyOp42
 70
     1
102
RTVSPropertyOp43
 70
     1
102
RTVSPropertyOp44
 70
     1
102
RTVSPropertyOp45
 70
     1
102
RTVSPropertyOp46
 70
     1
102
RTVSPropertyOp47
 70
     1
102
RTVSPropertyOp48
 70
     1
102
RTVSPropertyOp49
 70
     1
102
RTVSPropertyOp50
 70
     1
102
RTVSPropertyOp51
 70
     0
102
RTVSPropertyOp52
 70
     0
102
RTVSPropertyOp53
 70
     1
102
RTVSPropertyOp54
 70
     1
102
RTVSPropertyOp55
 70
     1
102
RTVSPropertyOp56
 70
     1
102
RTVSPropertyOp57
 70
     1
102
RTVSPropertyOp58
 70
     1
102
RTVSPropertyOp59
 70
     1
102
RTVSPropertyOp60
 70
     1
102
RTVSPropertyOp61
 70
     1
102
RTVSPropertyOp62
 70
     1
  0
XRECORD
  5
6795
102
{ACAD_REACTORS
330
6794
102
}
330
6794
100
AcDbXrecord
280
     1
102
RTVSPost2010Prop28
280
     0
102
RTVSPost2010PropOp28
 70
     1
102
RTVSPost2010Prop29
280
     1
102
RTVSPost2010PropOp29
 70
     1
102
RTVSPost2010Prop30
280
     1
102
RTVSPost2010PropOp30
 70
     1
102
RTVSPost2010Prop31
280
     0
102
RTVSPost2010PropOp31
 70
     1
102
RTVSPost2010Prop32
280
     0
102
RTVSPost2010PropOp32
 70
     1
102
RTVSPost2010Prop33
280
     0
102
RTVSPost2010PropOp33
 70
     1
102
RTVSPost2010Prop34
280
     0
102
RTVSPost2010PropOp34
 70
     1
102
RTVSPost2010Prop35
280
     0
102
RTVSPost2010PropOp35
 70
     1
102
RTVSPost2010Prop36
280
     0
102
RTVSPost2010PropOp36
 70
     1
102
RTVSPost2010Prop37
 90
       50
102
RTVSPost2010PropOp37
 70
     1
102
RTVSPost2010Prop38
140
0.0
102
RTVSPost2010PropOp38
 70
     1
102
RTVSPost2010Prop39
140
1.0
102
RTVSPost2010PropOp39
 70
     1
102
RTVSPost2010Prop40
 90
        0
102
RTVSPost2010PropOp40
 70
     1
102
RTVSPost2010Prop41ColorIndex
 90
       18
102
RTVSPost2010Prop41ColorRGB
 90
        0
102
RTVSPost2010PropOp41
 70
     1
102
RTVSPost2010Prop42
 90
       50
102
RTVSPost2010PropOp42
 70
     1
102
RTVSPost2010Prop43
 90
        3
102
RTVSPost2010PropOp43
 70
     1
102
RTVSPost2010Prop44ColorIndex
 90
        5
102
RTVSPost2010Prop44ColorRGB
 90
      255
102
RTVSPost2010PropOp44
 70
     1
102
RTVSPost2010Prop45
280
     0
102
RTVSPost2010PropOp45
 70
     1
102
RTVSPost2010Prop46
 90
       50
102
RTVSPost2010PropOp46
 70
     1
102
RTVSPost2010Prop47
 90
       50
102
RTVSPost2010PropOp47
 70
     1
102
RTVSPost2010Prop48
 90
       50
102
RTVSPost2010PropOp48
 70
     1
102
RTVSPost2010Prop49
280
     0
102
RTVSPost2010PropOp49
 70
     1
102
RTVSPost2010Prop50
 90
       50
102
RTVSPost2010PropOp50
 70
     1
102
RTVSPost2010Prop51ColorIndex
 90
      256
102
RTVSPost2010Prop51ColorRGB
 90
-16777216
102
RTVSPost2010PropOp51
 70
     0
102
RTVSPost2010Prop52
140
1.0
102
RTVSPost2010PropOp52
 70
     0
102
RTVSPost2010Prop53
 90
        2
102
RTVSPost2010PropOp53
 70
     1
102
RTVSPost2010Prop54
  1
strokes_ogs.tif
102
RTVSPost2010PropOp54
 70
     1
102
RTVSPost2010Prop55
280
     0
102
RTVSPost2010PropOp55
 70
     1
102
RTVSPost2010Prop56
140
1.0
102
RTVSPost2010PropOp56
 70
     1
102
RTVSPost2010Prop57
140
1.0
102
RTVSPost2010PropOp57
 70
     1
102
RTVSPropertyOp0
 70
     1
102
RTVSPropertyOp1
 70
     1
102
RTVSPropertyOp2
 70
     1
102
RTVSPropertyOp3
 70
     1
102
RTVSPropertyOp4
 70
     1
102
RTVSPropertyOp5
 70
     1
102
RTVSPropertyOp6
 70
     1
102
RTVSPropertyOp7
 70
     1
102
RTVSPropertyOp8
 70
     1
102
RTVSPropertyOp9
 70
     1
102
RTVSPropertyOp10
 70
     1
102
RTVSPropertyOp11
 70
     1
102
RTVSPropertyOp12
 70
     1
102
RTVSPropertyOp13
 70
     1
102
RTVSPropertyOp14
 70
     1
102
RTVSPropertyOp15
 70
     1
102
RTVSPropertyOp16
 70
     1
102
RTVSPropertyOp17
 70
     1
102
RTVSPropertyOp18
 70
     1
102
RTVSPropertyOp19
 70
     1
102
RTVSPropertyOp20
 70
     1
102
RTVSPropertyOp21
 70
     1
102
RTVSPropertyOp22
 70
     1
102
RTVSPropertyOp23
 70
     1
102
RTVSPropertyOp24
 70
     1
102
RTVSPropertyOp25
 70
     1
102
RTVSPropertyOp26
 70
     1
102
RTVSPropertyOp27
 70
     1
102
RTVSPropertyOp28
 70
     1
102
RTVSPropertyOp29
 70
     1
102
RTVSPropertyOp30
 70
     1
102
RTVSPropertyOp31
 70
     1
102
RTVSPropertyOp32
 70
     1
102
RTVSPropertyOp33
 70
     1
102
RTVSPropertyOp34
 70
     1
102
RTVSPropertyOp35
 70
     1
102
RTVSPropertyOp36
 70
     1
102
RTVSPropertyOp37
 70
     1
102
RTVSPropertyOp38
 70
     1
102
RTVSPropertyOp39
 70
     1
102
RTVSPropertyOp40
 70
     1
102
RTVSPropertyOp41
 70
     1
102
RTVSPropertyOp42
 70
     1
102
RTVSPropertyOp43
 70
     1
102
RTVSPropertyOp44
 70
     1
102
RTVSPropertyOp45
 70
     1
102
RTVSPropertyOp46
 70
     1
102
RTVSPropertyOp47
 70
     1
102
RTVSPropertyOp48
 70
     1
102
RTVSPropertyOp49
 70
     1
102
RTVSPropertyOp50
 70
     1
102
RTVSPropertyOp51
 70
     0
102
RTVSPropertyOp52
 70
     0
102
RTVSPropertyOp53
 70
     1
102
RTVSPropertyOp54
 70
     1
102
RTVSPropertyOp55
 70
     1
102
RTVSPropertyOp56
 70
     1
102
RTVSPropertyOp57
 70
     1
102
RTVSPropertyOp58
 70
     1
102
RTVSPropertyOp59
 70
     1
102
RTVSPropertyOp60
 70
     1
102
RTVSPropertyOp61
 70
     1
102
RTVSPropertyOp62
 70
     1
  0
XRECORD
  5
678B
102
{ACAD_REACTORS
330
678A
102
}
330
678A
100
AcDbXrecord
280
     1
102
RTVSPost2010Prop28
280
     0
102
RTVSPost2010PropOp28
 70
     1
102
RTVSPost2010Prop29
280
     1
102
RTVSPost2010PropOp29
 70
     1
102
RTVSPost2010Prop30
280
     1
102
RTVSPost2010PropOp30
 70
     1
102
RTVSPost2010Prop31
280
     0
102
RTVSPost2010PropOp31
 70
     1
102
RTVSPost2010Prop32
280
     0
102
RTVSPost2010PropOp32
 70
     1
102
RTVSPost2010Prop33
280
     0
102
RTVSPost2010PropOp33
 70
     1
102
RTVSPost2010Prop34
280
     0
102
RTVSPost2010PropOp34
 70
     1
102
RTVSPost2010Prop35
280
     0
102
RTVSPost2010PropOp35
 70
     1
102
RTVSPost2010Prop36
280
     0
102
RTVSPost2010PropOp36
 70
     1
102
RTVSPost2010Prop37
 90
       50
102
RTVSPost2010PropOp37
 70
     1
102
RTVSPost2010Prop38
140
0.0
102
RTVSPost2010PropOp38
 70
     1
102
RTVSPost2010Prop39
140
1.0
102
RTVSPost2010PropOp39
 70
     1
102
RTVSPost2010Prop40
 90
        0
102
RTVSPost2010PropOp40
 70
     1
102
RTVSPost2010Prop41ColorIndex
 90
       18
102
RTVSPost2010Prop41ColorRGB
 90
        0
102
RTVSPost2010PropOp41
 70
     1
102
RTVSPost2010Prop42
 90
       50
102
RTVSPost2010PropOp42
 70
     1
102
RTVSPost2010Prop43
 90
        3
102
RTVSPost2010PropOp43
 70
     1
102
RTVSPost2010Prop44ColorIndex
 90
        5
102
RTVSPost2010Prop44ColorRGB
 90
      255
102
RTVSPost2010PropOp44
 70
     1
102
RTVSPost2010Prop45
280
     0
102
RTVSPost2010PropOp45
 70
     1
102
RTVSPost2010Prop46
 90
       50
102
RTVSPost2010PropOp46
 70
     1
102
RTVSPost2010Prop47
 90
       50
102
RTVSPost2010PropOp47
 70
     1
102
RTVSPost2010Prop48
 90
       50
102
RTVSPost2010PropOp48
 70
     1
102
RTVSPost2010Prop49
280
     0
102
RTVSPost2010PropOp49
 70
     1
102
RTVSPost2010Prop50
 90
       50
102
RTVSPost2010PropOp50
 70
     1
102
RTVSPost2010Prop51ColorIndex
 90
      256
102
RTVSPost2010Prop51ColorRGB
 90
-16777216
102
RTVSPost2010PropOp51
 70
     0
102
RTVSPost2010Prop52
140
1.0
102
RTVSPost2010PropOp52
 70
     0
102
RTVSPost2010Prop53
 90
        2
102
RTVSPost2010PropOp53
 70
     1
102
RTVSPost2010Prop54
  1
strokes_ogs.tif
102
RTVSPost2010PropOp54
 70
     1
102
RTVSPost2010Prop55
280
     0
102
RTVSPost2010PropOp55
 70
     1
102
RTVSPost2010Prop56
140
1.0
102
RTVSPost2010PropOp56
 70
     1
102
RTVSPost2010Prop57
140
1.0
102
RTVSPost2010PropOp57
 70
     1
102
RTVSPropertyOp0
 70
     1
102
RTVSPropertyOp1
 70
     1
102
RTVSPropertyOp2
 70
     1
102
RTVSPropertyOp3
 70
     1
102
RTVSPropertyOp4
 70
     1
102
RTVSPropertyOp5
 70
     1
102
RTVSPropertyOp6
 70
     1
102
RTVSPropertyOp7
 70
     1
102
RTVSPropertyOp8
 70
     1
102
RTVSPropertyOp9
 70
     1
102
RTVSPropertyOp10
 70
     1
102
RTVSPropertyOp11
 70
     1
102
RTVSPropertyOp12
 70
     1
102
RTVSPropertyOp13
 70
     1
102
RTVSPropertyOp14
 70
     1
102
RTVSPropertyOp15
 70
     1
102
RTVSPropertyOp16
 70
     1
102
RTVSPropertyOp17
 70
     1
102
RTVSPropertyOp18
 70
     1
102
RTVSPropertyOp19
 70
     1
102
RTVSPropertyOp20
 70
     1
102
RTVSPropertyOp21
 70
     1
102
RTVSPropertyOp22
 70
     1
102
RTVSPropertyOp23
 70
     1
102
RTVSPropertyOp24
 70
     1
102
RTVSPropertyOp25
 70
     1
102
RTVSPropertyOp26
 70
     1
102
RTVSPropertyOp27
 70
     1
102
RTVSPropertyOp28
 70
     1
102
RTVSPropertyOp29
 70
     1
102
RTVSPropertyOp30
 70
     1
102
RTVSPropertyOp31
 70
     1
102
RTVSPropertyOp32
 70
     1
102
RTVSPropertyOp33
 70
     1
102
RTVSPropertyOp34
 70
     1
102
RTVSPropertyOp35
 70
     1
102
RTVSPropertyOp36
 70
     1
102
RTVSPropertyOp37
 70
     1
102
RTVSPropertyOp38
 70
     1
102
RTVSPropertyOp39
 70
     1
102
RTVSPropertyOp40
 70
     1
102
RTVSPropertyOp41
 70
     1
102
RTVSPropertyOp42
 70
     1
102
RTVSPropertyOp43
 70
     1
102
RTVSPropertyOp44
 70
     1
102
RTVSPropertyOp45
 70
     1
102
RTVSPropertyOp46
 70
     1
102
RTVSPropertyOp47
 70
     1
102
RTVSPropertyOp48
 70
     1
102
RTVSPropertyOp49
 70
     1
102
RTVSPropertyOp50
 70
     1
102
RTVSPropertyOp51
 70
     0
102
RTVSPropertyOp52
 70
     0
102
RTVSPropertyOp53
 70
     1
102
RTVSPropertyOp54
 70
     1
102
RTVSPropertyOp55
 70
     1
102
RTVSPropertyOp56
 70
     1
102
RTVSPropertyOp57
 70
     1
102
RTVSPropertyOp58
 70
     1
102
RTVSPropertyOp59
 70
     1
102
RTVSPropertyOp60
 70
     1
102
RTVSPropertyOp61
 70
     1
102
RTVSPropertyOp62
 70
     1
  0
XRECORD
  5
677F
102
{ACAD_REACTORS
330
677E
102
}
330
677E
100
AcDbXrecord
280
     1
102
RTVSPost2010Prop28
280
     0
102
RTVSPost2010PropOp28
 70
     1
102
RTVSPost2010Prop29
280
     1
102
RTVSPost2010PropOp29
 70
     1
102
RTVSPost2010Prop30
280
     1
102
RTVSPost2010PropOp30
 70
     1
102
RTVSPost2010Prop31
280
     0
102
RTVSPost2010PropOp31
 70
     1
102
RTVSPost2010Prop32
280
     0
102
RTVSPost2010PropOp32
 70
     1
102
RTVSPost2010Prop33
280
     0
102
RTVSPost2010PropOp33
 70
     1
102
RTVSPost2010Prop34
280
     0
102
RTVSPost2010PropOp34
 70
     1
102
RTVSPost2010Prop35
280
     0
102
RTVSPost2010PropOp35
 70
     1
102
RTVSPost2010Prop36
280
     0
102
RTVSPost2010PropOp36
 70
     1
102
RTVSPost2010Prop37
 90
       50
102
RTVSPost2010PropOp37
 70
     1
102
RTVSPost2010Prop38
140
0.0
102
RTVSPost2010PropOp38
 70
     1
102
RTVSPost2010Prop39
140
1.0
102
RTVSPost2010PropOp39
 70
     1
102
RTVSPost2010Prop40
 90
        0
102
RTVSPost2010PropOp40
 70
     1
102
RTVSPost2010Prop41ColorIndex
 90
       18
102
RTVSPost2010Prop41ColorRGB
 90
        0
102
RTVSPost2010PropOp41
 70
     1
102
RTVSPost2010Prop42
 90
       50
102
RTVSPost2010PropOp42
 70
     1
102
RTVSPost2010Prop43
 90
        3
102
RTVSPost2010PropOp43
 70
     1
102
RTVSPost2010Prop44ColorIndex
 90
        5
102
RTVSPost2010Prop44ColorRGB
 90
      255
102
RTVSPost2010PropOp44
 70
     1
102
RTVSPost2010Prop45
280
     0
102
RTVSPost2010PropOp45
 70
     1
102
RTVSPost2010Prop46
 90
       50
102
RTVSPost2010PropOp46
 70
     1
102
RTVSPost2010Prop47
 90
       50
102
RTVSPost2010PropOp47
 70
     1
102
RTVSPost2010Prop48
 90
       50
102
RTVSPost2010PropOp48
 70
     1
102
RTVSPost2010Prop49
280
     0
102
RTVSPost2010PropOp49
 70
     1
102
RTVSPost2010Prop50
 90
       50
102
RTVSPost2010PropOp50
 70
     1
102
RTVSPost2010Prop51ColorIndex
 90
      256
102
RTVSPost2010Prop51ColorRGB
 90
-16777216
102
RTVSPost2010PropOp51
 70
     0
102
RTVSPost2010Prop52
140
1.0
102
RTVSPost2010PropOp52
 70
     0
102
RTVSPost2010Prop53
 90
        2
102
RTVSPost2010PropOp53
 70
     1
102
RTVSPost2010Prop54
  1
strokes_ogs.tif
102
RTVSPost2010PropOp54
 70
     1
102
RTVSPost2010Prop55
280
     0
102
RTVSPost2010PropOp55
 70
     1
102
RTVSPost2010Prop56
140
1.0
102
RTVSPost2010PropOp56
 70
     1
102
RTVSPost2010Prop57
140
1.0
102
RTVSPost2010PropOp57
 70
     1
102
RTVSPropertyOp0
 70
     1
102
RTVSPropertyOp1
 70
     1
102
RTVSPropertyOp2
 70
     1
102
RTVSPropertyOp3
 70
     1
102
RTVSPropertyOp4
 70
     1
102
RTVSPropertyOp5
 70
     1
102
RTVSPropertyOp6
 70
     1
102
RTVSPropertyOp7
 70
     1
102
RTVSPropertyOp8
 70
     1
102
RTVSPropertyOp9
 70
     1
102
RTVSPropertyOp10
 70
     1
102
RTVSPropertyOp11
 70
     1
102
RTVSPropertyOp12
 70
     1
102
RTVSPropertyOp13
 70
     1
102
RTVSPropertyOp14
 70
     1
102
RTVSPropertyOp15
 70
     1
102
RTVSPropertyOp16
 70
     1
102
RTVSPropertyOp17
 70
     1
102
RTVSPropertyOp18
 70
     1
102
RTVSPropertyOp19
 70
     1
102
RTVSPropertyOp20
 70
     1
102
RTVSPropertyOp21
 70
     1
102
RTVSPropertyOp22
 70
     1
102
RTVSPropertyOp23
 70
     1
102
RTVSPropertyOp24
 70
     1
102
RTVSPropertyOp25
 70
     1
102
RTVSPropertyOp26
 70
     1
102
RTVSPropertyOp27
 70
     1
102
RTVSPropertyOp28
 70
     1
102
RTVSPropertyOp29
 70
     1
102
RTVSPropertyOp30
 70
     1
102
RTVSPropertyOp31
 70
     1
102
RTVSPropertyOp32
 70
     1
102
RTVSPropertyOp33
 70
     1
102
RTVSPropertyOp34
 70
     1
102
RTVSPropertyOp35
 70
     1
102
RTVSPropertyOp36
 70
     1
102
RTVSPropertyOp37
 70
     1
102
RTVSPropertyOp38
 70
     1
102
RTVSPropertyOp39
 70
     1
102
RTVSPropertyOp40
 70
     1
102
RTVSPropertyOp41
 70
     1
102
RTVSPropertyOp42
 70
     1
102
RTVSPropertyOp43
 70
     1
102
RTVSPropertyOp44
 70
     1
102
RTVSPropertyOp45
 70
     1
102
RTVSPropertyOp46
 70
     1
102
RTVSPropertyOp47
 70
     1
102
RTVSPropertyOp48
 70
     1
102
RTVSPropertyOp49
 70
     1
102
RTVSPropertyOp50
 70
     1
102
RTVSPropertyOp51
 70
     0
102
RTVSPropertyOp52
 70
     0
102
RTVSPropertyOp53
 70
     1
102
RTVSPropertyOp54
 70
     1
102
RTVSPropertyOp55
 70
     1
102
RTVSPropertyOp56
 70
     1
102
RTVSPropertyOp57
 70
     1
102
RTVSPropertyOp58
 70
     1
102
RTVSPropertyOp59
 70
     1
102
RTVSPropertyOp60
 70
     1
102
RTVSPropertyOp61
 70
     1
102
RTVSPropertyOp62
 70
     1
  0
XRECORD
  5
6797
102
{ACAD_REACTORS
330
6796
102
}
330
6796
100
AcDbXrecord
280
     1
102
RTVSPost2010Prop28
280
     0
102
RTVSPost2010PropOp28
 70
     1
102
RTVSPost2010Prop29
280
     1
102
RTVSPost2010PropOp29
 70
     1
102
RTVSPost2010Prop30
280
     1
102
RTVSPost2010PropOp30
 70
     1
102
RTVSPost2010Prop31
280
     0
102
RTVSPost2010PropOp31
 70
     1
102
RTVSPost2010Prop32
280
     0
102
RTVSPost2010PropOp32
 70
     1
102
RTVSPost2010Prop33
280
     0
102
RTVSPost2010PropOp33
 70
     1
102
RTVSPost2010Prop34
280
     0
102
RTVSPost2010PropOp34
 70
     1
102
RTVSPost2010Prop35
280
     0
102
RTVSPost2010PropOp35
 70
     1
102
RTVSPost2010Prop36
280
     0
102
RTVSPost2010PropOp36
 70
     1
102
RTVSPost2010Prop37
 90
       50
102
RTVSPost2010PropOp37
 70
     1
102
RTVSPost2010Prop38
140
0.0
102
RTVSPost2010PropOp38
 70
     1
102
RTVSPost2010Prop39
140
1.0
102
RTVSPost2010PropOp39
 70
     1
102
RTVSPost2010Prop40
 90
        0
102
RTVSPost2010PropOp40
 70
     1
102
RTVSPost2010Prop41ColorIndex
 90
       18
102
RTVSPost2010Prop41ColorRGB
 90
        0
102
RTVSPost2010PropOp41
 70
     1
102
RTVSPost2010Prop42
 90
       50
102
RTVSPost2010PropOp42
 70
     1
102
RTVSPost2010Prop43
 90
        3
102
RTVSPost2010PropOp43
 70
     1
102
RTVSPost2010Prop44ColorIndex
 90
        5
102
RTVSPost2010Prop44ColorRGB
 90
      255
102
RTVSPost2010PropOp44
 70
     1
102
RTVSPost2010Prop45
280
     0
102
RTVSPost2010PropOp45
 70
     1
102
RTVSPost2010Prop46
 90
       50
102
RTVSPost2010PropOp46
 70
     1
102
RTVSPost2010Prop47
 90
       50
102
RTVSPost2010PropOp47
 70
     1
102
RTVSPost2010Prop48
 90
       50
102
RTVSPost2010PropOp48
 70
     1
102
RTVSPost2010Prop49
280
     0
102
RTVSPost2010PropOp49
 70
     1
102
RTVSPost2010Prop50
 90
       50
102
RTVSPost2010PropOp50
 70
     1
102
RTVSPost2010Prop51ColorIndex
 90
      256
102
RTVSPost2010Prop51ColorRGB
 90
-16777216
102
RTVSPost2010PropOp51
 70
     0
102
RTVSPost2010Prop52
140
1.0
102
RTVSPost2010PropOp52
 70
     0
102
RTVSPost2010Prop53
 90
        2
102
RTVSPost2010PropOp53
 70
     1
102
RTVSPost2010Prop54
  1
strokes_ogs.tif
102
RTVSPost2010PropOp54
 70
     1
102
RTVSPost2010Prop55
280
     0
102
RTVSPost2010PropOp55
 70
     1
102
RTVSPost2010Prop56
140
1.0
102
RTVSPost2010PropOp56
 70
     1
102
RTVSPost2010Prop57
140
1.0
102
RTVSPost2010PropOp57
 70
     1
102
RTVSPropertyOp0
 70
     1
102
RTVSPropertyOp1
 70
     1
102
RTVSPropertyOp2
 70
     1
102
RTVSPropertyOp3
 70
     1
102
RTVSPropertyOp4
 70
     1
102
RTVSPropertyOp5
 70
     1
102
RTVSPropertyOp6
 70
     1
102
RTVSPropertyOp7
 70
     1
102
RTVSPropertyOp8
 70
     1
102
RTVSPropertyOp9
 70
     1
102
RTVSPropertyOp10
 70
     1
102
RTVSPropertyOp11
 70
     1
102
RTVSPropertyOp12
 70
     1
102
RTVSPropertyOp13
 70
     1
102
RTVSPropertyOp14
 70
     1
102
RTVSPropertyOp15
 70
     1
102
RTVSPropertyOp16
 70
     1
102
RTVSPropertyOp17
 70
     1
102
RTVSPropertyOp18
 70
     1
102
RTVSPropertyOp19
 70
     1
102
RTVSPropertyOp20
 70
     1
102
RTVSPropertyOp21
 70
     1
102
RTVSPropertyOp22
 70
     1
102
RTVSPropertyOp23
 70
     1
102
RTVSPropertyOp24
 70
     1
102
RTVSPropertyOp25
 70
     1
102
RTVSPropertyOp26
 70
     1
102
RTVSPropertyOp27
 70
     1
102
RTVSPropertyOp28
 70
     1
102
RTVSPropertyOp29
 70
     1
102
RTVSPropertyOp30
 70
     1
102
RTVSPropertyOp31
 70
     1
102
RTVSPropertyOp32
 70
     1
102
RTVSPropertyOp33
 70
     1
102
RTVSPropertyOp34
 70
     1
102
RTVSPropertyOp35
 70
     1
102
RTVSPropertyOp36
 70
     1
102
RTVSPropertyOp37
 70
     1
102
RTVSPropertyOp38
 70
     1
102
RTVSPropertyOp39
 70
     1
102
RTVSPropertyOp40
 70
     1
102
RTVSPropertyOp41
 70
     1
102
RTVSPropertyOp42
 70
     1
102
RTVSPropertyOp43
 70
     1
102
RTVSPropertyOp44
 70
     1
102
RTVSPropertyOp45
 70
     1
102
RTVSPropertyOp46
 70
     1
102
RTVSPropertyOp47
 70
     1
102
RTVSPropertyOp48
 70
     1
102
RTVSPropertyOp49
 70
     1
102
RTVSPropertyOp50
 70
     1
102
RTVSPropertyOp51
 70
     0
102
RTVSPropertyOp52
 70
     0
102
RTVSPropertyOp53
 70
     1
102
RTVSPropertyOp54
 70
     1
102
RTVSPropertyOp55
 70
     1
102
RTVSPropertyOp56
 70
     1
102
RTVSPropertyOp57
 70
     1
102
RTVSPropertyOp58
 70
     1
102
RTVSPropertyOp59
 70
     1
102
RTVSPropertyOp60
 70
     1
102
RTVSPropertyOp61
 70
     1
102
RTVSPropertyOp62
 70
     1
  0
ENDSEC
  0
EOF
