  0
SECTION
  2
HEADER
  9
$ACADVER
  1
AC1015
  9
$ACADMAINTVER
 70
    20
  9
$DWGCODEPAGE
  3
ANSI_932
  9
$INSBASE
 10
0.0
 20
0.0
 30
0.0
  9
$EXTMIN
 10
10345.59771503509
 20
2822.809791742034
 30
0.0
  9
$EXTMAX
 10
13495.59771503509
 20
7247.809791742034
 30
0.0
  9
$LIMMIN
 10
0.0
 20
0.0
  9
$LIMMAX
 10
297.0
 20
210.0
  9
$ORTHOMODE
 70
     1
  9
$REGENMODE
 70
     1
  9
$FILLMODE
 70
     1
  9
$QTEXTMODE
 70
     0
  9
$MIRRTEXT
 70
     0
  9
$LTSCALE
 40
75.0
  9
$ATTMODE
 70
     1
  9
$TEXTSIZE
 40
3.5
  9
$TRACEWID
 40
0.05
  9
$TEXTSTYLE
  7
STANDARD
  9
$CLAYER
  8
SP
  9
$CELTYPE
  6
BYLAYER
  9
$CECOLOR
 62
   256
  9
$CELTSCALE
 40
1.0
  9
$DISPSILH
 70
     0
  9
$DIMSCALE
 40
15.0
  9
$DIMASZ
 40
2.5
  9
$DIMEXO
 40
1.0
  9
$DIMDLI
 40
7.0
  9
$DIMRND
 40
0.0
  9
$DIMDLE
 40
0.0
  9
$DIMEXE
 40
1.0
  9
$DIMTP
 40
0.0
  9
$DIMTM
 40
0.0
  9
$DIMTXT
 40
3.0
  9
$DIMCEN
 40
0.0
  9
$DIMTSZ
 40
0.0
  9
$DIMTOL
 70
     0
  9
$DIMLIM
 70
     0
  9
$DIMTIH
 70
     0
  9
$DIMTOH
 70
     0
  9
$DIMSE1
 70
     0
  9
$DIMSE2
 70
     0
  9
$DIMTAD
 70
     1
  9
$DIMZIN
 70
     8
  9
$DIMBLK
  1

  9
$DIMASO
 70
     1
  9
$DIMSHO
 70
     1
  9
$DIMPOST
  1

  9
$DIMAPOST
  1

  9
$DIMALT
 70
     0
  9
$DIMALTD
 70
     2
  9
$DIMALTF
 40
0.03937
  9
$DIMLFAC
 40
1.0
  9
$DIMTOFL
 70
     1
  9
$DIMTVP
 40
0.0
  9
$DIMTIX
 70
     0
  9
$DIMSOXD
 70
     0
  9
$DIMSAH
 70
     1
  9
$DIMBLK1
  1
OPEN
  9
$DIMBLK2
  1
OPEN
  9
$DIMSTYLE
  2
GOD
  9
$DIMCLRD
 70
   256
  9
$DIMCLRE
 70
   256
  9
$DIMCLRT
 70
   256
  9
$DIMTFAC
 40
1.0
  9
$DIMGAP
 40
1.0
  9
$DIMJUST
 70
     0
  9
$DIMSD1
 70
     0
  9
$DIMSD2
 70
     0
  9
$DIMTOLJ
 70
     1
  9
$DIMTZIN
 70
     8
  9
$DIMALTZ
 70
     0
  9
$DIMALTTZ
 70
     0
  9
$DIMUPT
 70
     0
  9
$DIMDEC
 70
     2
  9
$DIMTDEC
 70
     2
  9
$DIMALTU
 70
     2
  9
$DIMALTTD
 70
     2
  9
$DIMTXSTY
  7
STANDARD
  9
$DIMAUNIT
 70
     0
  9
$DIMADEC
 70
     0
  9
$DIMALTRND
 40
0.0
  9
$DIMAZIN
 70
     0
  9
$DIMDSEP
 70
    46
  9
$DIMATFIT
 70
     0
  9
$DIMFRAC
 70
     0
  9
$DIMLDRBLK
  1
OPEN
  9
$DIMLUNIT
 70
     2
  9
$DIMLWD
 70
    -2
  9
$DIMLWE
 70
    -2
  9
$DIMTMOVE
 70
     0
  9
$LUNITS
 70
     2
  9
$LUPREC
 70
     3
  9
$SKETCHINC
 40
0.1
  9
$FILLETRAD
 40
0.0
  9
$AUNITS
 70
     0
  9
$AUPREC
 70
     2
  9
$MENU
  1
acad
  9
$ELEVATION
 40
0.0
  9
$PELEVATION
 40
0.0
  9
$THICKNESS
 40
0.0
  9
$LIMCHECK
 70
     0
  9
$CHAMFERA
 40
0.0
  9
$CHAMFERB
 40
0.0
  9
$CHAMFERC
 40
20.0
  9
$CHAMFERD
 40
0.0
  9
$SKPOLY
 70
     0
  9
$TDCREATE
 40
2454939.604632489
  9
$TDUCREATE
 40
2454939.229632489
  9
$TDUPDATE
 40
2459353.582939595
  9
$TDUUPDATE
 40
2459353.207939595
  9
$TDINDWG
 40
0.1915635069
  9
$TDUSRTIMER
 40
0.1915635069
  9
$USRTIMER
 70
     1
  9
$ANGBASE
 50
0.0
  9
$ANGDIR
 70
     0
  9
$PDMODE
 70
     0
  9
$PDSIZE
 40
1.0
  9
$PLINEWID
 40
0.0
  9
$SPLFRAME
 70
     0
  9
$SPLINETYPE
 70
     6
  9
$SPLINESEGS
 70
     8
  9
$HANDSEED
  5
6683
  9
$SURFTAB1
 70
     6
  9
$SURFTAB2
 70
     6
  9
$SURFTYPE
 70
     6
  9
$SURFU
 70
     6
  9
$SURFV
 70
     6
  9
$UCSBASE
  2

  9
$UCSNAME
  2

  9
$UCSORG
 10
0.0
 20
0.0
 30
0.0
  9
$UCSXDIR
 10
1.0
 20
0.0
 30
0.0
  9
$UCSYDIR
 10
0.0
 20
1.0
 30
0.0
  9
$UCSORTHOREF
  2

  9
$UCSORTHOVIEW
 70
     0
  9
$UCSORGTOP
 10
0.0
 20
0.0
 30
0.0
  9
$UCSORGBOTTOM
 10
0.0
 20
0.0
 30
0.0
  9
$UCSORGLEFT
 10
0.0
 20
0.0
 30
0.0
  9
$UCSORGRIGHT
 10
0.0
 20
0.0
 30
0.0
  9
$UCSORGFRONT
 10
0.0
 20
0.0
 30
0.0
  9
$UCSORGBACK
 10
0.0
 20
0.0
 30
0.0
  9
$PUCSBASE
  2

  9
$PUCSNAME
  2

  9
$PUCSORG
 10
0.0
 20
0.0
 30
0.0
  9
$PUCSXDIR
 10
1.0
 20
0.0
 30
0.0
  9
$PUCSYDIR
 10
0.0
 20
1.0
 30
0.0
  9
$PUCSORTHOREF
  2

  9
$PUCSORTHOVIEW
 70
     0
  9
$PUCSORGTOP
 10
0.0
 20
0.0
 30
0.0
  9
$PUCSORGBOTTOM
 10
0.0
 20
0.0
 30
0.0
  9
$PUCSORGLEFT
 10
0.0
 20
0.0
 30
0.0
  9
$PUCSORGRIGHT
 10
0.0
 20
0.0
 30
0.0
  9
$PUCSORGFRONT
 10
0.0
 20
0.0
 30
0.0
  9
$PUCSORGBACK
 10
0.0
 20
0.0
 30
0.0
  9
$USERI1
 70
     0
  9
$USERI2
 70
     0
  9
$USERI3
 70
     0
  9
$USERI4
 70
     0
  9
$USERI5
 70
     0
  9
$USERR1
 40
0.0
  9
$USERR2
 40
0.0
  9
$USERR3
 40
0.0
  9
$USERR4
 40
0.0
  9
$USERR5
 40
0.0
  9
$WORLDVIEW
 70
     1
  9
$SHADEDGE
 70
     3
  9
$SHADEDIF
 70
    70
  9
$TILEMODE
 70
     1
  9
$MAXACTVP
 70
    16
  9
$PINSBASE
 10
0.0
 20
0.0
 30
0.0
  9
$PLIMCHECK
 70
     0
  9
$PEXTMIN
 10
1.000000000000000E+20
 20
1.000000000000000E+20
 30
1.000000000000000E+20
  9
$PEXTMAX
 10
-1.000000000000000E+20
 20
-1.000000000000000E+20
 30
-1.000000000000000E+20
  9
$PLIMMIN
 10
0.0
 20
0.0
  9
$PLIMMAX
 10
12.0
 20
9.0
  9
$UNITMODE
 70
     0
  9
$VISRETAIN
 70
     0
  9
$PLINEGEN
 70
     0
  9
$PSLTSCALE
 70
     0
  9
$TREEDEPTH
 70
  3020
  9
$CMLSTYLE
  2
STANDARD
  9
$CMLJUST
 70
     0
  9
$CMLSCALE
 40
20.0
  9
$PROXYGRAPHICS
 70
     1
  9
$MEASUREMENT
 70
     1
  9
$CELWEIGHT
370
    -1
  9
$ENDCAPS
280
     0
  9
$JOINSTYLE
280
     0
  9
$LWDISPLAY
290
     0
  9
$INSUNITS
 70
     0
  9
$HYPERLINKBASE
  1

  9
$STYLESHEET
  1

  9
$XEDIT
290
     1
  9
$CEPSNTYPE
380
     0
  9
$PSTYLEMODE
290
     1
  9
$FINGERPRINTGUID
  2
{A0F129D1-2BC8-11D4-BF85-004026350B0A}
  9
$VERSIONGUID
  2
{4894D58C-BA8A-4504-B6E8-FF45ED619B72}
  9
$EXTNAMES
290
     1
  9
$PSVPSCALE
 40
0.0
  9
$OLESTARTUP
290
     0
  0
ENDSEC
  0
SECTION
  2
CLASSES
  0
CLASS
  1
ACDBDICTIONARYWDFLT
  2
AcDbDictionaryWithDefault
  3
ObjectDBX Classes
 90
        0
280
     0
281
     0
  0
CLASS
  1
ACDBPLACEHOLDER
  2
AcDbPlaceHolder
  3
ObjectDBX Classes
 90
        0
280
     0
281
     0
  0
CLASS
  1
LAYOUT
  2
AcDbLayout
  3
ObjectDBX Classes
 90
        0
280
     0
281
     0
  0
CLASS
  1
DICTIONARYVAR
  2
AcDbDictionaryVar
  3
ObjectDBX Classes
 90
        0
280
     0
281
     0
  0
CLASS
  1
MATERIAL
  2
AcDbMaterial
  3
ObjectDBX Classes
 90
     1153
280
     0
281
     0
  0
CLASS
  1
VISUALSTYLE
  2
AcDbVisualStyle
  3
ObjectDBX Classes
 90
     4095
280
     0
281
     0
  0
CLASS
  1
TABLESTYLE
  2
AcDbTableStyle
  3
ObjectDBX Classes
 90
     4095
280
     0
281
     0
  0
CLASS
  1
SCALE
  2
AcDbScale
  3
ObjectDBX Classes
 90
     1153
280
     0
281
     0
  0
CLASS
  1
MLEADERSTYLE
  2
AcDbMLeaderStyle
  3
ACDB_MLEADERSTYLE_CLASS
 90
     4095
280
     0
281
     0
  0
CLASS
  1
ACDBSECTIONVIEWSTYLE
  2
AcDbSectionViewStyle
  3
ObjectDBX Classes
 90
     1025
280
     0
281
     0
  0
CLASS
  1
ACDBDETAILVIEWSTYLE
  2
AcDbDetailViewStyle
  3
ObjectDBX Classes
 90
     1025
280
     0
281
     0
  0
CLASS
  1
CELLSTYLEMAP
  2
AcDbCellStyleMap
  3
ObjectDBX Classes
 90
     1152
280
     0
281
     0
  0
ENDSEC
  0
SECTION
  2
TABLES
  0
TABLE
  2
VPORT
  5
8
330
0
100
AcDbSymbolTable
 70
     1
  0
VPORT
  5
63CA
330
8
100
AcDbSymbolTableRecord
100
AcDbViewportTableRecord
  2
*Active
 70
     0
 10
0.0
 20
0.0
 11
1.0
 21
1.0
 12
11920.52102845611
 22
5035.499212584476
 13
0.0
 23
0.0
 14
5.0
 24
5.0
 15
0.0
 25
0.0
 16
0.0
 26
0.0
 36
1.0
 17
0.0
 27
0.0
 37
0.0
 40
4451.592878311632
 41
2.146341463414634
 42
50.0
 43
0.0
 44
0.0
 50
0.0
 51
0.0
 71
     0
 72
   100
 73
     1
 74
     0
 75
     0
 76
     0
 77
     0
 78
     0
281
     0
 65
     1
110
0.0
120
0.0
130
0.0
111
1.0
121
0.0
131
0.0
112
0.0
122
1.0
132
0.0
 79
     0
146
0.0
1001
ACAD_NAV_VCDISPLAY
1070
     3
  0
ENDTAB
  0
TABLE
  2
LTYPE
  5
5
330
0
100
AcDbSymbolTable
 70
     2
  0
LTYPE
  5
13
330
5
100
AcDbSymbolTableRecord
100
AcDbLinetypeTableRecord
  2
BYBLOCK
 70
     0
  3

 72
    65
 73
     0
 40
0.0
  0
LTYPE
  5
14
330
5
100
AcDbSymbolTableRecord
100
AcDbLinetypeTableRecord
  2
BYLAYER
 70
     0
  3

 72
    65
 73
     0
 40
0.0
  0
LTYPE
  5
15
330
5
100
AcDbSymbolTableRecord
100
AcDbLinetypeTableRecord
  2
CONTINUOUS
 70
     0
  3
Solid line
 72
    65
 73
     0
 40
0.0
  0
LTYPE
  5
1F
330
5
100
AcDbSymbolTableRecord
100
AcDbLinetypeTableRecord
  2
CENTER
 70
     0
  3
____ _ ____ _ ____ _ ____ _ ____ _ ____ _ ____ 
 72
    65
 73
     4
 40
2.0
 49
1.25
 74
     0
 49
-0.25
 74
     0
 49
0.25
 74
     0
 49
-0.25
 74
     0
  0
ENDTAB
  0
TABLE
  2
LAYER
  5
2
102
{ACAD_XDICTIONARY
360
661D
102
}
330
0
100
AcDbSymbolTable
 70
     8
  0
LAYER
  5
F
102
{ACAD_XDICTIONARY
360
660C
102
}
330
2
100
AcDbSymbolTableRecord
100
AcDbLayerTableRecord
  2
0
 70
     0
 62
     7
  6
CONTINUOUS
370
    -3
390
1E91
  0
LAYER
  5
2F
102
{ACAD_XDICTIONARY
360
660E
102
}
330
2
100
AcDbSymbolTableRecord
100
AcDbLayerTableRecord
  2
CT
 70
     0
 62
     3
  6
CENTER
370
    -3
390
1E91
  0
LAYER
  5
30
102
{ACAD_XDICTIONARY
360
6610
102
}
330
2
100
AcDbSymbolTableRecord
100
AcDbLayerTableRecord
  2
FUTO
 70
     0
 62
     4
  6
CONTINUOUS
370
    -3
390
1E91
  0
LAYER
  5
36
102
{ACAD_XDICTIONARY
360
6612
102
}
330
2
100
AcDbSymbolTableRecord
100
AcDbLayerTableRecord
  2
SP
 70
     0
 62
     2
  6
CONTINUOUS
370
    -3
390
1E91
  0
LAYER
  5
1E9B
330
2
100
AcDbSymbolTableRecord
100
AcDbLayerTableRecord
  2
Defpoints
 70
     0
 62
     7
  6
CONTINUOUS
290
     0
370
    -3
390
1E91
  0
LAYER
  5
1EEF
102
{ACAD_XDICTIONARY
360
6614
102
}
330
2
100
AcDbSymbolTableRecord
100
AcDbLayerTableRecord
  2
2
 70
     0
 62
     3
  6
CENTER
370
    -3
390
1E91
  0
LAYER
  5
1EF0
102
{ACAD_XDICTIONARY
360
6616
102
}
330
2
100
AcDbSymbolTableRecord
100
AcDbLayerTableRecord
  2
1
 70
     0
 62
     4
  6
CONTINUOUS
370
    -3
390
1E91
  0
LAYER
  5
2188
102
{ACAD_XDICTIONARY
360
6618
102
}
330
2
100
AcDbSymbolTableRecord
100
AcDbLayerTableRecord
  2
4
 70
     0
 62
     7
  6
CONTINUOUS
370
    -3
390
1E91
  0
ENDTAB
  0
TABLE
  2
STYLE
  5
3
330
0
100
AcDbSymbolTable
 70
     1
  0
STYLE
  5
10
330
3
100
AcDbSymbolTableRecord
100
AcDbTextStyleTableRecord
  2
STANDARD
 70
     0
 40
0.0
 41
1.0
 50
15.0
 71
     0
 42
3.5
  3
C:\Program Files\AutoCAD LT\simplex.shx
  4
C:\Program Files\AutoCAD LT\extfont.shx
  0
ENDTAB
  0
TABLE
  2
VIEW
  5
6
330
0
100
AcDbSymbolTable
 70
     0
  0
ENDTAB
  0
TABLE
  2
UCS
  5
7
330
0
100
AcDbSymbolTable
 70
     0
  0
ENDTAB
  0
TABLE
  2
APPID
  5
9
330
0
100
AcDbSymbolTable
 70
     5
  0
APPID
  5
11
330
9
100
AcDbSymbolTableRecord
100
AcDbRegAppTableRecord
  2
ACAD
 70
     0
  0
APPID
  5
65F7
330
9
100
AcDbSymbolTableRecord
100
AcDbRegAppTableRecord
  2
AcadAnnoMonitorAlertIconDisabled
 70
     0
  0
APPID
  5
65F8
330
9
100
AcDbSymbolTableRecord
100
AcDbRegAppTableRecord
  2
ACAD_EXEMPT_FROM_CAD_STANDARDS
 70
     0
  0
APPID
  5
6623
330
9
100
AcDbSymbolTableRecord
100
AcDbRegAppTableRecord
  2
ACAD_NAV_VCDISPLAY
 70
     0
  0
APPID
  5
667E
330
9
100
AcDbSymbolTableRecord
100
AcDbRegAppTableRecord
  2
ACAD_MLEADERVER
 70
     0
  0
ENDTAB
  0
TABLE
  2
DIMSTYLE
  5
A
330
0
100
AcDbSymbolTable
 70
     2
100
AcDbDimStyleTable
 71
     1
340
1E99
  0
DIMSTYLE
105
1D
330
A
100
AcDbSymbolTableRecord
100
AcDbDimStyleTableRecord
  2
STANDARD
 70
     0
340
10
  0
DIMSTYLE
105
1E99
102
{ACAD_REACTORS
330
4268
330
42D6
330
426B
330
45CE
330
4580
330
45AE
330
4BEF
330
4BF5
330
4BFE
330
4271
330
5CB4
330
5CB7
330
5CB8
330
5F40
330
5F3F
330
603C
330
65BF
330
65CC
102
}
330
A
100
AcDbSymbolTableRecord
100
AcDbDimStyleTableRecord
  2
GOD
 70
     0
 40
15.0
 41
2.5
 42
1.0
 43
7.0
 44
1.0
 73
     0
 74
     0
 77
     1
 78
     8
140
3.0
141
0.0
143
0.03937
147
1.0
172
     1
173
     1
176
   256
177
   256
178
   256
271
     2
272
     2
284
     8
289
     0
340
10
341
1E7F
343
1E7F
344
1E7F
  0
ENDTAB
  0
TABLE
  2
BLOCK_RECORD
  5
1
330
0
100
AcDbSymbolTable
 70
    21
  0
BLOCK_RECORD
  5
19
102
{ACAD_XDICTIONARY
360
63F8
102
}
330
1
100
AcDbSymbolTableRecord
100
AcDbBlockTableRecord
  2
*MODEL_SPACE
340
1E94
  0
BLOCK_RECORD
  5
16
102
{ACAD_XDICTIONARY
360
63F6
102
}
330
1
100
AcDbSymbolTableRecord
100
AcDbBlockTableRecord
  2
*PAPER_SPACE
340
1E95
  0
BLOCK_RECORD
  5
1E7F
330
1
100
AcDbSymbolTableRecord
100
AcDbBlockTableRecord
  2
_OPEN
340
0
102
{BLKREFS
331
65A6
331
65A7
331
65AF
331
65B0
331
65B8
331
65B9
331
65F2
331
65F3
331
6606
331
6607
331
6274
331
6275
331
627F
331
6280
331
634F
331
6350
331
636A
331
636B
331
6385
331
6386
331
638E
331
638F
331
6397
331
6398
331
63A0
331
63A1
331
63B2
331
63B3
331
63BB
331
63BC
331
63C4
331
63C5
331
6470
102
}
  0
BLOCK_RECORD
  5
1EB4
330
1
100
AcDbSymbolTableRecord
100
AcDbBlockTableRecord
  2
_Dot
340
0
102
{BLKREFS
331
646F
102
}
  0
BLOCK_RECORD
  5
42FF
330
1
100
AcDbSymbolTableRecord
100
AcDbBlockTableRecord
  2
*D2
340
0
  0
BLOCK_RECORD
  5
430B
330
1
100
AcDbSymbolTableRecord
100
AcDbBlockTableRecord
  2
*D3
340
0
  0
BLOCK_RECORD
  5
4317
330
1
100
AcDbSymbolTableRecord
100
AcDbBlockTableRecord
  2
*D4
340
0
  0
BLOCK_RECORD
  5
4323
330
1
100
AcDbSymbolTableRecord
100
AcDbBlockTableRecord
  2
*D5
340
0
  0
BLOCK_RECORD
  5
45ED
330
1
100
AcDbSymbolTableRecord
100
AcDbBlockTableRecord
  2
*D6
340
0
  0
BLOCK_RECORD
  5
45F9
330
1
100
AcDbSymbolTableRecord
100
AcDbBlockTableRecord
  2
*D7
340
0
  0
BLOCK_RECORD
  5
4611
330
1
100
AcDbSymbolTableRecord
100
AcDbBlockTableRecord
  2
*D8
340
0
  0
BLOCK_RECORD
  5
4C5F
330
1
100
AcDbSymbolTableRecord
100
AcDbBlockTableRecord
  2
*D9
340
0
  0
BLOCK_RECORD
  5
4C6D
330
1
100
AcDbSymbolTableRecord
100
AcDbBlockTableRecord
  2
*D10
340
0
  0
BLOCK_RECORD
  5
4C79
330
1
100
AcDbSymbolTableRecord
100
AcDbBlockTableRecord
  2
*D11
340
0
  0
BLOCK_RECORD
  5
5AD4
330
1
100
AcDbSymbolTableRecord
100
AcDbBlockTableRecord
  2
_None
340
0
  0
BLOCK_RECORD
  5
5CCB
330
1
100
AcDbSymbolTableRecord
100
AcDbBlockTableRecord
  2
*D13
340
0
  0
BLOCK_RECORD
  5
5CD7
330
1
100
AcDbSymbolTableRecord
100
AcDbBlockTableRecord
  2
*D14
340
0
  0
BLOCK_RECORD
  5
5CE3
330
1
100
AcDbSymbolTableRecord
100
AcDbBlockTableRecord
  2
*D15
340
0
  0
BLOCK_RECORD
  5
5F41
330
1
100
AcDbSymbolTableRecord
100
AcDbBlockTableRecord
  2
*D16
340
0
  0
BLOCK_RECORD
  5
5F4F
330
1
100
AcDbSymbolTableRecord
100
AcDbBlockTableRecord
  2
*D17
340
0
  0
BLOCK_RECORD
  5
6040
330
1
100
AcDbSymbolTableRecord
100
AcDbBlockTableRecord
  2
*D18
340
0
  0
BLOCK_RECORD
  5
65C0
330
1
100
AcDbSymbolTableRecord
100
AcDbBlockTableRecord
  2
*D19
340
0
  0
BLOCK_RECORD
  5
65CD
330
1
100
AcDbSymbolTableRecord
100
AcDbBlockTableRecord
  2
*D20
340
0
  0
ENDTAB
  0
ENDSEC
  0
SECTION
  2
BLOCKS
  0
BLOCK
  5
1A
330
19
100
AcDbEntity
  8
0
100
AcDbBlockBegin
  2
*MODEL_SPACE
 70
     0
 10
0.0
 20
0.0
 30
0.0
  3
*MODEL_SPACE
  1

  0
ENDBLK
  5
1B
330
19
100
AcDbEntity
  8
0
100
AcDbBlockEnd
  0
BLOCK
  5
17
330
16
100
AcDbEntity
 67
     1
  8
0
100
AcDbBlockBegin
  2
*PAPER_SPACE
 70
     0
 10
0.0
 20
0.0
 30
0.0
  3
*PAPER_SPACE
  1

  0
ENDBLK
  5
18
330
16
100
AcDbEntity
 67
     1
  8
0
100
AcDbBlockEnd
  0
BLOCK
  5
1E80
330
1E7F
100
AcDbEntity
  8
0
100
AcDbBlockBegin
  2
_OPEN
 70
     0
 10
0.0
 20
0.0
 30
0.0
  3
_OPEN
  1

  0
LINE
  5
1E81
330
1E7F
100
AcDbEntity
  8
0
  6
ByBlock
 62
     0
380
     1
100
AcDbLine
 10
-1.0
 20
0.1666666666666666
 30
0.0
 11
0.0
 21
0.0
 31
0.0
  0
LINE
  5
1E82
330
1E7F
100
AcDbEntity
  8
0
  6
ByBlock
 62
     0
380
     1
100
AcDbLine
 10
0.0
 20
0.0
 30
0.0
 11
-1.0
 21
-0.1666666666666666
 31
0.0
  0
LINE
  5
1E83
330
1E7F
100
AcDbEntity
  8
0
  6
ByBlock
 62
     0
380
     1
100
AcDbLine
 10
0.0
 20
0.0
 30
0.0
 11
-1.0
 21
0.0
 31
0.0
  0
ENDBLK
  5
1E84
330
1E7F
100
AcDbEntity
  8
0
100
AcDbBlockEnd
  0
BLOCK
  5
1EB7
330
1EB4
100
AcDbEntity
  8
0
100
AcDbBlockBegin
  2
_Dot
 70
     0
 10
0.0
 20
0.0
 30
0.0
  3
_Dot
  1

  0
LINE
  5
1EC3
330
1EB4
100
AcDbEntity
  8
0
  6
ByBlock
 62
     0
380
     1
100
AcDbLine
 10
0.0
 20
0.0
 30
0.0
 11
-1.0
 21
-0.0000000000000284
 31
0.0
  0
LWPOLYLINE
  5
1EC4
330
1EB4
100
AcDbEntity
  8
0
  6
ByBlock
 62
     0
100
AcDbPolyline
 90
        2
 70
     1
 43
0.1666666666666666
 10
-0.0833333333333286
 20
-0.0000000000000284
 42
1.0
 10
0.0833333333333286
 20
-0.0000000000000284
 42
1.0
  0
ENDBLK
  5
1EB8
330
1EB4
100
AcDbEntity
  8
0
100
AcDbBlockEnd
  0
BLOCK
  5
4309
330
42FF
100
AcDbEntity
  8
0
100
AcDbBlockBegin
  2
*D2
 70
     1
 10
0.0
 20
0.0
 30
0.0
  3
*D2
  1

  0
LINE
  5
638B
330
42FF
100
AcDbEntity
  8
SP
370
    -2
100
AcDbLine
 10
11070.75356201801
 20
4582.63529450908
 30
0.0
 11
10925.36541693761
 21
4582.63529450908
 31
0.0
  0
LINE
  5
638C
330
42FF
100
AcDbEntity
  8
SP
370
    -2
100
AcDbLine
 10
11110.05558752166
 20
4897.635294509075
 30
0.0
 11
10925.36541693761
 21
4897.635294509075
 31
0.0
  0
LINE
  5
638D
330
42FF
100
AcDbEntity
  8
SP
370
    -2
100
AcDbLine
 10
10940.36541693761
 20
4620.135294509079
 30
0.0
 11
10940.36541693761
 21
4860.135294509076
 31
0.0
  0
INSERT
  5
638E
330
42FF
100
AcDbEntity
  8
SP
370
    -2
100
AcDbBlockReference
  2
_OPEN
 10
10940.36541693761
 20
4582.63529450908
 30
0.0
 41
37.5
 42
37.5
 43
37.5
 50
270.0
  0
INSERT
  5
638F
330
42FF
100
AcDbEntity
  8
SP
370
    -2
100
AcDbBlockReference
  2
_OPEN
 10
10940.36541693761
 20
4897.635294509075
 30
0.0
 41
37.5
 42
37.5
 43
37.5
 50
90.0
  0
MTEXT
  5
6390
330
42FF
100
AcDbEntity
  8
SP
100
AcDbMText
 10
10902.86541693761
 20
4740.135294509079
 30
0.0
 40
45.0
 41
0.0
 71
     5
 72
     5
  1
\A1;315
 11
0.0000000000000001
 21
1.0
 31
0.0
 73
     1
 44
1.0
1001
ACAD
1000
MTEXTBEGIN
1070
    73
1070
     1
1070
    44
1040
1.0
1070
    74
1070
     0
1000
MTEXTEND
  0
POINT
  5
6391
330
42FF
100
AcDbEntity
  8
Defpoints
 62
     0
380
     1
100
AcDbPoint
 10
11085.75356201801
 20
4582.63529450908
 30
0.0
  0
POINT
  5
6392
330
42FF
100
AcDbEntity
  8
Defpoints
 62
     0
380
     1
100
AcDbPoint
 10
11125.05558752166
 20
4897.635294509075
 30
0.0
  0
POINT
  5
6393
330
42FF
100
AcDbEntity
  8
Defpoints
 62
     0
380
     1
100
AcDbPoint
 10
10940.36541693761
 20
4897.635294509075
 30
0.0
  0
ENDBLK
  5
430A
330
42FF
100
AcDbEntity
  8
0
100
AcDbBlockEnd
  0
BLOCK
  5
4315
330
430B
100
AcDbEntity
  8
0
100
AcDbBlockBegin
  2
*D3
 70
     1
 10
0.0
 20
0.0
 30
0.0
  3
*D3
  1

  0
LINE
  5
6382
330
430B
100
AcDbEntity
  8
SP
370
    -2
100
AcDbLine
 10
11110.05558752166
 20
4227.635294509079
 30
0.0
 11
10925.36541693762
 21
4227.635294509079
 31
0.0
  0
LINE
  5
6383
330
430B
100
AcDbEntity
  8
SP
370
    -2
100
AcDbLine
 10
11070.75356201801
 20
4582.63529450908
 30
0.0
 11
10925.36541693762
 21
4582.63529450908
 31
0.0
  0
LINE
  5
6384
330
430B
100
AcDbEntity
  8
SP
370
    -2
100
AcDbLine
 10
10940.36541693762
 20
4265.135294509079
 30
0.0
 11
10940.36541693762
 21
4545.135294509079
 31
0.0
  0
INSERT
  5
6385
330
430B
100
AcDbEntity
  8
SP
370
    -2
100
AcDbBlockReference
  2
_OPEN
 10
10940.36541693762
 20
4227.635294509079
 30
0.0
 41
37.5
 42
37.5
 43
37.5
 50
270.0
  0
INSERT
  5
6386
330
430B
100
AcDbEntity
  8
SP
370
    -2
100
AcDbBlockReference
  2
_OPEN
 10
10940.36541693762
 20
4582.63529450908
 30
0.0
 41
37.5
 42
37.5
 43
37.5
 50
90.0
  0
MTEXT
  5
6387
330
430B
100
AcDbEntity
  8
SP
100
AcDbMText
 10
10902.86541693762
 20
4405.135294509081
 30
0.0
 40
45.0
 41
0.0
 71
     5
 72
     5
  1
\A1;355
 11
0.0000000000000001
 21
1.0
 31
0.0
 73
     1
 44
1.0
1001
ACAD
1000
MTEXTBEGIN
1070
    73
1070
     1
1070
    44
1040
1.0
1070
    74
1070
     0
1000
MTEXTEND
  0
POINT
  5
6388
330
430B
100
AcDbEntity
  8
Defpoints
 62
     0
380
     1
100
AcDbPoint
 10
11125.05558752166
 20
4227.635294509079
 30
0.0
  0
POINT
  5
6389
330
430B
100
AcDbEntity
  8
Defpoints
 62
     0
380
     1
100
AcDbPoint
 10
11085.75356201801
 20
4582.63529450908
 30
0.0
  0
POINT
  5
638A
330
430B
100
AcDbEntity
  8
Defpoints
 62
     0
380
     1
100
AcDbPoint
 10
10940.36541693762
 20
4582.63529450908
 30
0.0
  0
ENDBLK
  5
4316
330
430B
100
AcDbEntity
  8
0
100
AcDbBlockEnd
  0
BLOCK
  5
4321
330
4317
100
AcDbEntity
  8
0
100
AcDbBlockBegin
  2
*D4
 70
     1
 10
0.0
 20
0.0
 30
0.0
  3
*D4
  1

  0
LINE
  5
639D
330
4317
100
AcDbEntity
  8
SP
370
    -2
100
AcDbLine
 10
11375.05558752167
 20
4969.171207472601
 30
0.0
 11
11375.05558752167
 21
5055.184706197506
 31
0.0
  0
LINE
  5
639E
330
4317
100
AcDbEntity
  8
SP
370
    -2
100
AcDbLine
 10
11125.05558752166
 20
4933.635294509076
 30
0.0
 11
11125.05558752166
 21
5055.184706197506
 31
0.0
  0
LINE
  5
639F
330
4317
100
AcDbEntity
  8
SP
370
    -2
100
AcDbLine
 10
11337.55558752167
 20
5040.184706197506
 30
0.0
 11
11162.55558752166
 21
5040.184706197506
 31
0.0
  0
INSERT
  5
63A0
330
4317
100
AcDbEntity
  8
SP
370
    -2
100
AcDbBlockReference
  2
_OPEN
 10
11375.05558752167
 20
5040.184706197506
 30
0.0
 41
37.5
 42
37.5
 43
37.5
  0
INSERT
  5
63A1
330
4317
100
AcDbEntity
  8
SP
370
    -2
100
AcDbBlockReference
  2
_OPEN
 10
11125.05558752166
 20
5040.184706197506
 30
0.0
 41
37.5
 42
37.5
 43
37.5
 50
180.0
  0
MTEXT
  5
63A2
330
4317
100
AcDbEntity
  8
SP
100
AcDbMText
 10
11250.05558752167
 20
5077.684706197506
 30
0.0
 40
45.0
 41
0.0
 71
     5
 72
     5
  1
\A1;250
 73
     1
 44
1.0
1001
ACAD
1000
MTEXTBEGIN
1070
    73
1070
     1
1070
    44
1040
1.0
1070
    74
1070
     0
1000
MTEXTEND
  0
POINT
  5
63A3
330
4317
100
AcDbEntity
  8
Defpoints
 62
     0
380
     1
100
AcDbPoint
 10
11375.05558752167
 20
4954.1712074726
 30
0.0
  0
POINT
  5
63A4
330
4317
100
AcDbEntity
  8
Defpoints
 62
     0
380
     1
100
AcDbPoint
 10
11125.05558752166
 20
4918.635294509076
 30
0.0
  0
POINT
  5
63A5
330
4317
100
AcDbEntity
  8
Defpoints
 62
     0
380
     1
100
AcDbPoint
 10
11125.05558752166
 20
5040.184706197506
 30
0.0
  0
ENDBLK
  5
4322
330
4317
100
AcDbEntity
  8
0
100
AcDbBlockEnd
  0
BLOCK
  5
432D
330
4323
100
AcDbEntity
  8
0
100
AcDbBlockBegin
  2
*D5
 70
     1
 10
0.0
 20
0.0
 30
0.0
  3
*D5
  1

  0
LINE
  5
6394
330
4323
100
AcDbEntity
  8
SP
370
    -2
100
AcDbLine
 10
11375.05558752167
 20
4969.171207472601
 30
0.0
 11
11375.05558752167
 21
5055.184706197506
 31
0.0
  0
LINE
  5
6395
330
4323
100
AcDbEntity
  8
SP
370
    -2
100
AcDbLine
 10
11639.2868691555
 20
4624.305717321466
 30
0.0
 11
11639.2868691555
 21
5055.184706197506
 31
0.0
  0
LINE
  5
6396
330
4323
100
AcDbEntity
  8
SP
370
    -2
100
AcDbLine
 10
11412.55558752167
 20
5040.184706197506
 30
0.0
 11
11601.7868691555
 21
5040.184706197506
 31
0.0
  0
INSERT
  5
6397
330
4323
100
AcDbEntity
  8
SP
370
    -2
100
AcDbBlockReference
  2
_OPEN
 10
11375.05558752167
 20
5040.184706197506
 30
0.0
 41
37.5
 42
37.5
 43
37.5
 50
180.0
  0
INSERT
  5
6398
330
4323
100
AcDbEntity
  8
SP
370
    -2
100
AcDbBlockReference
  2
_OPEN
 10
11639.2868691555
 20
5040.184706197506
 30
0.0
 41
37.5
 42
37.5
 43
37.5
  0
MTEXT
  5
6399
330
4323
100
AcDbEntity
  8
SP
100
AcDbMText
 10
11507.17122833858
 20
5077.684706197506
 30
0.0
 40
45.0
 41
0.0
 71
     5
 72
     5
  1
\A1;264
 73
     1
 44
1.0
1001
ACAD
1000
MTEXTBEGIN
1070
    73
1070
     1
1070
    44
1040
1.0
1070
    74
1070
     0
1000
MTEXTEND
  0
POINT
  5
639A
330
4323
100
AcDbEntity
  8
Defpoints
 62
     0
380
     1
100
AcDbPoint
 10
11375.05558752167
 20
4954.1712074726
 30
0.0
  0
POINT
  5
639B
330
4323
100
AcDbEntity
  8
Defpoints
 62
     0
380
     1
100
AcDbPoint
 10
11639.2868691555
 20
4609.305717321467
 30
0.0
  0
POINT
  5
639C
330
4323
100
AcDbEntity
  8
Defpoints
 62
     0
380
     1
100
AcDbPoint
 10
11639.2868691555
 20
5040.184706197506
 30
0.0
  0
ENDBLK
  5
432E
330
4323
100
AcDbEntity
  8
0
100
AcDbBlockEnd
  0
BLOCK
  5
45F7
330
45ED
100
AcDbEntity
  8
0
100
AcDbBlockBegin
  2
*D6
 70
     1
 10
0.0
 20
0.0
 30
0.0
  3
*D6
  1

  0
LINE
  5
65B5
330
45ED
100
AcDbEntity
  8
SP
370
    -2
100
AcDbLine
 10
12573.45460744111
 20
4897.635294509081
 30
0.0
 11
12573.45460744111
 21
5028.635294509075
 31
0.0
  0
LINE
  5
65B6
330
45ED
100
AcDbEntity
  8
SP
370
    -2
100
AcDbLine
 10
12797.4546074411
 20
4897.635294509081
 30
0.0
 11
12797.4546074411
 21
5028.635294509075
 31
0.0
  0
LINE
  5
65B7
330
45ED
100
AcDbEntity
  8
SP
370
    -2
100
AcDbLine
 10
12610.95460744111
 20
5013.635294509075
 30
0.0
 11
12759.9546074411
 21
5013.635294509075
 31
0.0
  0
INSERT
  5
65B8
330
45ED
100
AcDbEntity
  8
SP
370
    -2
100
AcDbBlockReference
  2
_OPEN
 10
12573.45460744111
 20
5013.635294509075
 30
0.0
 41
37.5
 42
37.5
 43
37.5
 50
180.0
  0
INSERT
  5
65B9
330
45ED
100
AcDbEntity
  8
SP
370
    -2
100
AcDbBlockReference
  2
_OPEN
 10
12797.4546074411
 20
5013.635294509075
 30
0.0
 41
37.5
 42
37.5
 43
37.5
  0
MTEXT
  5
65BA
330
45ED
100
AcDbEntity
  8
SP
100
AcDbMText
 10
12685.4546074411
 20
5051.135294509075
 30
0.0
 40
45.0
 41
0.0
 71
     5
 72
     1
  1
\A1;224
 73
     1
 44
1.0
1001
ACAD
1000
MTEXTBEGIN
1070
    73
1070
     1
1070
    44
1040
1.0
1070
    74
1070
     0
1000
MTEXTEND
  0
POINT
  5
65BB
330
45ED
100
AcDbEntity
  8
Defpoints
 62
     0
100
AcDbPoint
 10
12573.45460744111
 20
4882.635294509081
 30
0.0
  0
POINT
  5
65BC
330
45ED
100
AcDbEntity
  8
Defpoints
 62
     0
100
AcDbPoint
 10
12797.4546074411
 20
4882.635294509081
 30
0.0
  0
POINT
  5
65BD
330
45ED
100
AcDbEntity
  8
Defpoints
 62
     0
100
AcDbPoint
 10
12797.4546074411
 20
5013.635294509075
 30
0.0
  0
ENDBLK
  5
45F8
330
45ED
100
AcDbEntity
  8
0
100
AcDbBlockEnd
  0
BLOCK
  5
4603
330
45F9
100
AcDbEntity
  8
0
100
AcDbBlockBegin
  2
*D7
 70
     1
 10
0.0
 20
0.0
 30
0.0
  3
*D7
  1

  0
LINE
  5
65A3
330
45F9
100
AcDbEntity
  8
SP
370
    -2
100
AcDbLine
 10
12685.45460744111
 20
5088.635294509074
 30
0.0
 11
12685.45460744111
 21
5133.635294509075
 31
0.0
  0
LINE
  5
65A4
330
45F9
100
AcDbEntity
  8
SP
370
    -2
100
AcDbLine
 10
12806.45460744111
 20
4779.135294509078
 30
0.0
 11
12806.45460744111
 21
5133.635294509075
 31
0.0
  0
LINE
  5
65A5
330
45F9
100
AcDbEntity
  8
SP
370
    -2
100
AcDbLine
 10
12722.95460744111
 20
5118.635294509075
 30
0.0
 11
12768.95460744111
 21
5118.635294509075
 31
0.0
  0
INSERT
  5
65A6
330
45F9
100
AcDbEntity
  8
SP
370
    -2
100
AcDbBlockReference
  2
_OPEN
 10
12685.45460744111
 20
5118.635294509075
 30
0.0
 41
37.5
 42
37.5
 43
37.5
 50
180.0
  0
INSERT
  5
65A7
330
45F9
100
AcDbEntity
  8
SP
370
    -2
100
AcDbBlockReference
  2
_OPEN
 10
12806.45460744111
 20
5118.635294509075
 30
0.0
 41
37.5
 42
37.5
 43
37.5
  0
MTEXT
  5
65A8
330
45F9
100
AcDbEntity
  8
SP
100
AcDbMText
 10
12745.95460744111
 20
5156.135294509074
 30
0.0
 40
45.0
 41
0.0
 71
     5
 72
     1
  1
\A1;121
 73
     1
 44
1.0
1001
ACAD
1000
MTEXTBEGIN
1070
    73
1070
     1
1070
    44
1040
1.0
1070
    74
1070
     0
1000
MTEXTEND
  0
POINT
  5
65A9
330
45F9
100
AcDbEntity
  8
Defpoints
 62
     0
100
AcDbPoint
 10
12685.45460744111
 20
5073.635294509075
 30
0.0
  0
POINT
  5
65AA
330
45F9
100
AcDbEntity
  8
Defpoints
 62
     0
100
AcDbPoint
 10
12806.45460744111
 20
4764.135294509078
 30
0.0
  0
POINT
  5
65AB
330
45F9
100
AcDbEntity
  8
Defpoints
 62
     0
100
AcDbPoint
 10
12806.45460744111
 20
5118.635294509075
 30
0.0
  0
ENDBLK
  5
4604
330
45F9
100
AcDbEntity
  8
0
100
AcDbBlockEnd
  0
BLOCK
  5
461B
330
4611
100
AcDbEntity
  8
0
100
AcDbBlockBegin
  2
*D8
 70
     1
 10
0.0
 20
0.0
 30
0.0
  3
*D8
  1

  0
LINE
  5
65AC
330
4611
100
AcDbEntity
  8
SP
370
    -2
100
AcDbLine
 10
12821.45460744111
 20
4740.135294509079
 30
0.0
 11
12995.22321274517
 21
4740.135294509079
 31
0.0
  0
LINE
  5
65AD
330
4611
100
AcDbEntity
  8
SP
370
    -2
100
AcDbLine
 10
12821.45460744111
 20
4425.135294509079
 30
0.0
 11
12995.22321274517
 21
4425.135294509079
 31
0.0
  0
LINE
  5
65AE
330
4611
100
AcDbEntity
  8
SP
370
    -2
100
AcDbLine
 10
12980.22321274516
 20
4702.635294509079
 30
0.0
 11
12980.22321274516
 21
4462.635294509079
 31
0.0
  0
INSERT
  5
65AF
330
4611
100
AcDbEntity
  8
SP
370
    -2
100
AcDbBlockReference
  2
_OPEN
 10
12980.22321274516
 20
4740.135294509079
 30
0.0
 41
37.5
 42
37.5
 43
37.5
 50
90.0
  0
INSERT
  5
65B0
330
4611
100
AcDbEntity
  8
SP
370
    -2
100
AcDbBlockReference
  2
_OPEN
 10
12980.22321274516
 20
4425.135294509079
 30
0.0
 41
37.5
 42
37.5
 43
37.5
 50
270.0
  0
MTEXT
  5
65B1
330
4611
100
AcDbEntity
  8
SP
100
AcDbMText
 10
12942.72321274516
 20
4582.63529450908
 30
0.0
 40
45.0
 41
0.0
 71
     5
 72
     1
  1
\A1;\U+03C6315
 11
0.0000000000000001
 21
1.0
 31
0.0
 73
     1
 44
1.0
1001
ACAD
1000
MTEXTBEGIN
1070
    73
1070
     1
1070
    44
1040
1.0
1070
    74
1070
     0
1000
MTEXTEND
  0
POINT
  5
65B2
330
4611
100
AcDbEntity
  8
Defpoints
 62
     0
100
AcDbPoint
 10
12806.45460744111
 20
4740.135294509079
 30
0.0
  0
POINT
  5
65B3
330
4611
100
AcDbEntity
  8
Defpoints
 62
     0
100
AcDbPoint
 10
12806.45460744111
 20
4425.135294509079
 30
0.0
  0
POINT
  5
65B4
330
4611
100
AcDbEntity
  8
Defpoints
 62
     0
100
AcDbPoint
 10
12980.22321274516
 20
4425.135294509079
 30
0.0
  0
ENDBLK
  5
461C
330
4611
100
AcDbEntity
  8
0
100
AcDbBlockEnd
  0
BLOCK
  5
4C6B
330
4C5F
100
AcDbEntity
  8
0
100
AcDbBlockBegin
  2
*D9
 70
     1
 10
0.0
 20
0.0
 30
0.0
  3
*D9
  1

  0
LINE
  5
627A
330
4C5F
100
AcDbEntity
  8
SP
370
    -2
100
AcDbLine
 10
11110.05558752166
 20
5812.362935220167
 30
0.0
 11
10936.18288508549
 21
5812.362935220167
 31
0.0
  0
LINE
  5
627B
330
4C5F
100
AcDbEntity
  8
SP
370
    -2
100
AcDbLine
 10
11062.43403925518
 20
5934.362935220168
 30
0.0
 11
10936.18288508549
 21
5934.362935220168
 31
0.0
  0
LINE
  5
627C
330
4C5F
100
AcDbEntity
  8
SP
370
    -2
100
AcDbLine
 10
10951.18288508549
 20
5774.862935220166
 30
0.0
 11
10951.18288508549
 21
5737.362935220167
 31
0.0
  0
LINE
  5
627D
330
4C5F
100
AcDbEntity
  8
SP
370
    -2
100
AcDbLine
 10
10951.18288508549
 20
5971.862935220169
 30
0.0
 11
10951.18288508549
 21
6144.362935220168
 31
0.0
  0
LINE
  5
627E
330
4C5F
100
AcDbEntity
  8
SP
370
    -2
100
AcDbLine
 10
10951.18288508549
 20
5812.362935220167
 30
0.0
 11
10951.18288508549
 21
5934.362935220168
 31
0.0
  0
INSERT
  5
627F
330
4C5F
100
AcDbEntity
  8
SP
370
    -2
100
AcDbBlockReference
  2
_OPEN
 10
10951.18288508549
 20
5812.362935220167
 30
0.0
 41
37.5
 42
37.5
 43
37.5
 50
90.0
  0
INSERT
  5
6280
330
4C5F
100
AcDbEntity
  8
SP
370
    -2
100
AcDbBlockReference
  2
_OPEN
 10
10951.18288508549
 20
5934.362935220168
 30
0.0
 41
37.5
 42
37.5
 43
37.5
 50
270.0
  0
MTEXT
  5
6281
330
4C5F
100
AcDbEntity
  8
SP
100
AcDbMText
 10
10913.68288508549
 20
6076.86293522017
 30
0.0
 40
45.0
 41
0.0
 71
     5
 72
     5
  1
\A1;122
 11
0.0000000000000001
 21
1.0
 31
0.0
 73
     1
 44
1.0
1001
ACAD
1000
MTEXTBEGIN
1070
    73
1070
     1
1070
    44
1040
1.0
1070
    74
1070
     0
1000
MTEXTEND
  0
POINT
  5
6282
330
4C5F
100
AcDbEntity
  8
Defpoints
 62
     0
380
     1
100
AcDbPoint
 10
11125.05558752167
 20
5812.362935220167
 30
0.0
  0
POINT
  5
6283
330
4C5F
100
AcDbEntity
  8
Defpoints
 62
     0
380
     1
100
AcDbPoint
 10
11077.43403925518
 20
5934.362935220168
 30
0.0
  0
POINT
  5
6284
330
4C5F
100
AcDbEntity
  8
Defpoints
 62
     0
380
     1
100
AcDbPoint
 10
10951.18288508549
 20
5934.362935220168
 30
0.0
  0
ENDBLK
  5
4C6C
330
4C5F
100
AcDbEntity
  8
0
100
AcDbBlockEnd
  0
BLOCK
  5
4C77
330
4C6D
100
AcDbEntity
  8
0
100
AcDbBlockBegin
  2
*D10
 70
     1
 10
0.0
 20
0.0
 30
0.0
  3
*D10
  1

  0
LINE
  5
634C
330
4C6D
100
AcDbEntity
  8
SP
370
    -2
100
AcDbLine
 10
11625.05558752167
 20
5487.362935220168
 30
0.0
 11
11625.05558752167
 21
5282.81776229679
 31
0.0
  0
LINE
  5
634D
330
4C6D
100
AcDbEntity
  8
SP
370
    -2
100
AcDbLine
 10
11125.05558752167
 20
5487.362935220168
 30
0.0
 11
11125.05558752167
 21
5282.81776229679
 31
0.0
  0
LINE
  5
634E
330
4C6D
100
AcDbEntity
  8
SP
370
    -2
100
AcDbLine
 10
11587.55558752167
 20
5297.81776229679
 30
0.0
 11
11162.55558752167
 21
5297.81776229679
 31
0.0
  0
INSERT
  5
634F
330
4C6D
100
AcDbEntity
  8
SP
370
    -2
100
AcDbBlockReference
  2
_OPEN
 10
11625.05558752167
 20
5297.81776229679
 30
0.0
 41
37.5
 42
37.5
 43
37.5
  0
INSERT
  5
6350
330
4C6D
100
AcDbEntity
  8
SP
370
    -2
100
AcDbBlockReference
  2
_OPEN
 10
11125.05558752167
 20
5297.81776229679
 30
0.0
 41
37.5
 42
37.5
 43
37.5
 50
180.0
  0
MTEXT
  5
6351
330
4C6D
100
AcDbEntity
  8
SP
100
AcDbMText
 10
11375.05558752167
 20
5335.31776229679
 30
0.0
 40
45.0
 41
0.0
 71
     5
 72
     5
  1
\A1;500
 73
     1
 44
1.0
1001
ACAD
1000
MTEXTBEGIN
1070
    73
1070
     1
1070
    44
1040
1.0
1070
    74
1070
     0
1000
MTEXTEND
  0
POINT
  5
6352
330
4C6D
100
AcDbEntity
  8
Defpoints
 62
     0
380
     1
100
AcDbPoint
 10
11625.05558752167
 20
5502.362935220169
 30
0.0
  0
POINT
  5
6353
330
4C6D
100
AcDbEntity
  8
Defpoints
 62
     0
380
     1
100
AcDbPoint
 10
11125.05558752167
 20
5502.362935220169
 30
0.0
  0
POINT
  5
6354
330
4C6D
100
AcDbEntity
  8
Defpoints
 62
     0
380
     1
100
AcDbPoint
 10
11125.05558752167
 20
5297.81776229679
 30
0.0
  0
ENDBLK
  5
4C78
330
4C6D
100
AcDbEntity
  8
0
100
AcDbBlockEnd
  0
BLOCK
  5
4C83
330
4C79
100
AcDbEntity
  8
0
100
AcDbBlockBegin
  2
*D11
 70
     1
 10
0.0
 20
0.0
 30
0.0
  3
*D11
  1

  0
LINE
  5
6271
330
4C79
100
AcDbEntity
  8
SP
370
    -2
100
AcDbLine
 10
11110.05558752167
 20
5812.362935220167
 30
0.0
 11
10936.18288508549
 21
5812.362935220167
 31
0.0
  0
LINE
  5
6272
330
4C79
100
AcDbEntity
  8
SP
370
    -2
100
AcDbLine
 10
11110.05558752167
 20
5502.362935220169
 30
0.0
 11
10936.18288508549
 21
5502.362935220169
 31
0.0
  0
LINE
  5
6273
330
4C79
100
AcDbEntity
  8
SP
370
    -2
100
AcDbLine
 10
10951.18288508549
 20
5774.862935220166
 30
0.0
 11
10951.18288508549
 21
5539.862935220169
 31
0.0
  0
INSERT
  5
6274
330
4C79
100
AcDbEntity
  8
SP
370
    -2
100
AcDbBlockReference
  2
_OPEN
 10
10951.18288508549
 20
5812.362935220167
 30
0.0
 41
37.5
 42
37.5
 43
37.5
 50
90.0
  0
INSERT
  5
6275
330
4C79
100
AcDbEntity
  8
SP
370
    -2
100
AcDbBlockReference
  2
_OPEN
 10
10951.18288508549
 20
5502.362935220169
 30
0.0
 41
37.5
 42
37.5
 43
37.5
 50
270.0
  0
MTEXT
  5
6276
330
4C79
100
AcDbEntity
  8
SP
100
AcDbMText
 10
10913.68288508549
 20
5657.36293522017
 30
0.0
 40
45.0
 41
0.0
 71
     5
 72
     5
  1
\A1;310
 11
0.0000000000000001
 21
1.0
 31
0.0
 73
     1
 44
1.0
1001
ACAD
1000
MTEXTBEGIN
1070
    73
1070
     1
1070
    44
1040
1.0
1070
    74
1070
     0
1000
MTEXTEND
  0
POINT
  5
6277
330
4C79
100
AcDbEntity
  8
Defpoints
 62
     0
380
     1
100
AcDbPoint
 10
11125.05558752167
 20
5812.362935220167
 30
0.0
  0
POINT
  5
6278
330
4C79
100
AcDbEntity
  8
Defpoints
 62
     0
380
     1
100
AcDbPoint
 10
11125.05558752167
 20
5502.362935220169
 30
0.0
  0
POINT
  5
6279
330
4C79
100
AcDbEntity
  8
Defpoints
 62
     0
380
     1
100
AcDbPoint
 10
10951.18288508549
 20
5502.362935220169
 30
0.0
  0
ENDBLK
  5
4C84
330
4C79
100
AcDbEntity
  8
0
100
AcDbBlockEnd
  0
BLOCK
  5
5AD5
330
5AD4
100
AcDbEntity
  8
0
100
AcDbBlockBegin
  2
_None
 70
     0
 10
0.0
 20
0.0
 30
0.0
  3
_None
  1

  0
ENDBLK
  5
5AD6
330
5AD4
100
AcDbEntity
  8
0
100
AcDbBlockEnd
  0
BLOCK
  5
5CD5
330
5CCB
100
AcDbEntity
  8
0
100
AcDbBlockBegin
  2
*D13
 70
     1
 10
0.0
 20
0.0
 30
0.0
  3
*D13
  1

  0
LINE
  5
63AF
330
5CCB
100
AcDbEntity
  8
SP
370
    -2
100
AcDbLine
 10
11375.05558752168
 20
4042.265404136122
 30
0.0
 11
11375.05558752168
 21
3939.160427891598
 31
0.0
  0
LINE
  5
63B0
330
5CCB
100
AcDbEntity
  8
SP
370
    -2
100
AcDbLine
 10
11625.05558752167
 20
4077.635294509079
 30
0.0
 11
11625.05558752167
 21
3939.160427891598
 31
0.0
  0
LINE
  5
63B1
330
5CCB
100
AcDbEntity
  8
SP
370
    -2
100
AcDbLine
 10
11412.55558752168
 20
3954.160427891597
 30
0.0
 11
11587.55558752167
 21
3954.160427891597
 31
0.0
  0
INSERT
  5
63B2
330
5CCB
100
AcDbEntity
  8
SP
370
    -2
100
AcDbBlockReference
  2
_OPEN
 10
11375.05558752168
 20
3954.160427891597
 30
0.0
 41
37.5
 42
37.5
 43
37.5
 50
180.0
  0
INSERT
  5
63B3
330
5CCB
100
AcDbEntity
  8
SP
370
    -2
100
AcDbBlockReference
  2
_OPEN
 10
11625.05558752167
 20
3954.160427891597
 30
0.0
 41
37.5
 42
37.5
 43
37.5
  0
MTEXT
  5
63B4
330
5CCB
100
AcDbEntity
  8
SP
100
AcDbMText
 10
11500.05558752168
 20
3991.660427891598
 30
0.0
 40
45.0
 41
0.0
 71
     5
 72
     5
  1
\A1;250
 73
     1
 44
1.0
1001
ACAD
1000
MTEXTBEGIN
1070
    73
1070
     1
1070
    44
1040
1.0
1070
    74
1070
     0
1000
MTEXTEND
  0
POINT
  5
63B5
330
5CCB
100
AcDbEntity
  8
Defpoints
 62
     0
380
     1
100
AcDbPoint
 10
11375.05558752168
 20
4057.265404136122
 30
0.0
  0
POINT
  5
63B6
330
5CCB
100
AcDbEntity
  8
Defpoints
 62
     0
380
     1
100
AcDbPoint
 10
11625.05558752167
 20
4092.635294509078
 30
0.0
  0
POINT
  5
63B7
330
5CCB
100
AcDbEntity
  8
Defpoints
 62
     0
380
     1
100
AcDbPoint
 10
11625.05558752167
 20
3954.160427891597
 30
0.0
  0
ENDBLK
  5
5CD6
330
5CCB
100
AcDbEntity
  8
0
100
AcDbBlockEnd
  0
BLOCK
  5
5CE1
330
5CD7
100
AcDbEntity
  8
0
100
AcDbBlockBegin
  2
*D14
 70
     1
 10
0.0
 20
0.0
 30
0.0
  3
*D14
  1

  0
LINE
  5
63C1
330
5CD7
100
AcDbEntity
  8
SP
370
    -2
100
AcDbLine
 10
11125.05558752169
 20
4077.635294509079
 30
0.0
 11
11125.05558752169
 21
3813.018410149104
 31
0.0
  0
LINE
  5
63C2
330
5CD7
100
AcDbEntity
  8
SP
370
    -2
100
AcDbLine
 10
11625.05558752167
 20
4077.635294509079
 30
0.0
 11
11625.05558752167
 21
3813.018410149104
 31
0.0
  0
LINE
  5
63C3
330
5CD7
100
AcDbEntity
  8
SP
370
    -2
100
AcDbLine
 10
11162.55558752169
 20
3828.018410149104
 30
0.0
 11
11587.55558752167
 21
3828.018410149104
 31
0.0
  0
INSERT
  5
63C4
330
5CD7
100
AcDbEntity
  8
SP
370
    -2
100
AcDbBlockReference
  2
_OPEN
 10
11125.05558752169
 20
3828.018410149104
 30
0.0
 41
37.5
 42
37.5
 43
37.5
 50
180.0
  0
INSERT
  5
63C5
330
5CD7
100
AcDbEntity
  8
SP
370
    -2
100
AcDbBlockReference
  2
_OPEN
 10
11625.05558752167
 20
3828.018410149104
 30
0.0
 41
37.5
 42
37.5
 43
37.5
  0
MTEXT
  5
63C6
330
5CD7
100
AcDbEntity
  8
SP
100
AcDbMText
 10
11375.05558752168
 20
3865.518410149104
 30
0.0
 40
45.0
 41
0.0
 71
     5
 72
     5
  1
\A1;500
 73
     1
 44
1.0
1001
ACAD
1000
MTEXTBEGIN
1070
    73
1070
     1
1070
    44
1040
1.0
1070
    74
1070
     0
1000
MTEXTEND
  0
POINT
  5
63C7
330
5CD7
100
AcDbEntity
  8
Defpoints
 62
     0
380
     1
100
AcDbPoint
 10
11125.05558752169
 20
4092.635294509078
 30
0.0
  0
POINT
  5
63C8
330
5CD7
100
AcDbEntity
  8
Defpoints
 62
     0
380
     1
100
AcDbPoint
 10
11625.05558752167
 20
4092.635294509078
 30
0.0
  0
POINT
  5
63C9
330
5CD7
100
AcDbEntity
  8
Defpoints
 62
     0
380
     1
100
AcDbPoint
 10
11625.05558752167
 20
3828.018410149104
 30
0.0
  0
ENDBLK
  5
5CE2
330
5CD7
100
AcDbEntity
  8
0
100
AcDbBlockEnd
  0
BLOCK
  5
5CED
330
5CE3
100
AcDbEntity
  8
0
100
AcDbBlockBegin
  2
*D15
 70
     1
 10
0.0
 20
0.0
 30
0.0
  3
*D15
  1

  0
LINE
  5
63B8
330
5CE3
100
AcDbEntity
  8
SP
370
    -2
100
AcDbLine
 10
11375.05558752168
 20
4042.265404136122
 30
0.0
 11
11375.05558752168
 21
3939.160427891598
 31
0.0
  0
LINE
  5
63B9
330
5CE3
100
AcDbEntity
  8
SP
370
    -2
100
AcDbLine
 10
11125.05558752169
 20
4077.635294509079
 30
0.0
 11
11125.05558752169
 21
3939.160427891598
 31
0.0
  0
LINE
  5
63BA
330
5CE3
100
AcDbEntity
  8
SP
370
    -2
100
AcDbLine
 10
11337.55558752168
 20
3954.160427891597
 30
0.0
 11
11162.55558752169
 21
3954.160427891597
 31
0.0
  0
INSERT
  5
63BB
330
5CE3
100
AcDbEntity
  8
SP
370
    -2
100
AcDbBlockReference
  2
_OPEN
 10
11375.05558752168
 20
3954.160427891597
 30
0.0
 41
37.5
 42
37.5
 43
37.5
  0
INSERT
  5
63BC
330
5CE3
100
AcDbEntity
  8
SP
370
    -2
100
AcDbBlockReference
  2
_OPEN
 10
11125.05558752169
 20
3954.160427891597
 30
0.0
 41
37.5
 42
37.5
 43
37.5
 50
180.0
  0
MTEXT
  5
63BD
330
5CE3
100
AcDbEntity
  8
SP
100
AcDbMText
 10
11250.05558752169
 20
3991.660427891598
 30
0.0
 40
45.0
 41
0.0
 71
     5
 72
     5
  1
\A1;250
 73
     1
 44
1.0
1001
ACAD
1000
MTEXTBEGIN
1070
    73
1070
     1
1070
    44
1040
1.0
1070
    74
1070
     0
1000
MTEXTEND
  0
POINT
  5
63BE
330
5CE3
100
AcDbEntity
  8
Defpoints
 62
     0
380
     1
100
AcDbPoint
 10
11375.05558752168
 20
4057.265404136122
 30
0.0
  0
POINT
  5
63BF
330
5CE3
100
AcDbEntity
  8
Defpoints
 62
     0
380
     1
100
AcDbPoint
 10
11125.05558752169
 20
4092.635294509078
 30
0.0
  0
POINT
  5
63C0
330
5CE3
100
AcDbEntity
  8
Defpoints
 62
     0
380
     1
100
AcDbPoint
 10
11125.05558752169
 20
3954.160427891597
 30
0.0
  0
ENDBLK
  5
5CEE
330
5CE3
100
AcDbEntity
  8
0
100
AcDbBlockEnd
  0
BLOCK
  5
5F4D
330
5F41
100
AcDbEntity
  8
0
100
AcDbBlockBegin
  2
*D16
 70
     1
 10
0.0
 20
0.0
 30
0.0
  3
*D16
  1

  0
LINE
  5
646A
330
5F41
100
AcDbEntity
  8
SP
100
AcDbLine
 10
11110.05558752166
 20
4157.63529450908
 30
0.0
 11
10925.36541693761
 21
4157.63529450908
 31
0.0
  0
LINE
  5
646B
330
5F41
100
AcDbEntity
  8
SP
100
AcDbLine
 10
11110.05558752166
 20
4092.635294509078
 30
0.0
 11
10925.36541693761
 21
4092.635294509078
 31
0.0
  0
LINE
  5
646C
330
5F41
100
AcDbEntity
  8
SP
100
AcDbLine
 10
10940.36541693761
 20
4195.135294509079
 30
0.0
 11
10940.36541693761
 21
4232.635294509079
 31
0.0
  0
LINE
  5
646D
330
5F41
100
AcDbEntity
  8
SP
100
AcDbLine
 10
10940.36541693761
 20
4055.135294509079
 30
0.0
 11
10940.36541693761
 21
3910.871539943879
 31
0.0
  0
LINE
  5
646E
330
5F41
100
AcDbEntity
  8
SP
100
AcDbLine
 10
10940.36541693761
 20
4157.63529450908
 30
0.0
 11
10940.36541693761
 21
4092.635294509078
 31
0.0
  0
INSERT
  5
646F
330
5F41
100
AcDbEntity
  8
SP
100
AcDbBlockReference
  2
_Dot
 10
10940.36541693761
 20
4157.63529450908
 30
0.0
 41
37.5
 42
37.5
 43
37.5
 50
270.0
  0
INSERT
  5
6470
330
5F41
100
AcDbEntity
  8
SP
100
AcDbBlockReference
  2
_OPEN
 10
10940.36541693761
 20
4092.635294509078
 30
0.0
 41
37.5
 42
37.5
 43
37.5
 50
90.0
  0
MTEXT
  5
6471
330
5F41
100
AcDbEntity
  8
SP
100
AcDbMText
 10
10902.86541693761
 20
3964.253417226481
 30
0.0
 40
45.0
 41
0.0
 71
     5
 72
     5
  1
\A1;65
 11
0.0000000000000001
 21
1.0
 31
0.0
 73
     1
 44
1.0
1001
ACAD
1000
MTEXTBEGIN
1070
    73
1070
     1
1070
    44
1040
1.0
1070
    74
1070
     0
1000
MTEXTEND
  0
POINT
  5
6472
330
5F41
100
AcDbEntity
  8
Defpoints
 62
     0
380
     1
100
AcDbPoint
 10
11125.05558752166
 20
4157.63529450908
 30
0.0
  0
POINT
  5
6473
330
5F41
100
AcDbEntity
  8
Defpoints
 62
     0
380
     1
100
AcDbPoint
 10
11125.05558752166
 20
4092.635294509078
 30
0.0
  0
POINT
  5
6474
330
5F41
100
AcDbEntity
  8
Defpoints
 62
     0
380
     1
100
AcDbPoint
 10
10940.36541693761
 20
4092.635294509078
 30
0.0
  0
ENDBLK
  5
5F4E
330
5F41
100
AcDbEntity
  8
0
100
AcDbBlockEnd
  0
BLOCK
  5
5F59
330
5F4F
100
AcDbEntity
  8
0
100
AcDbBlockBegin
  2
*D17
 70
     1
 10
0.0
 20
0.0
 30
0.0
  3
*D17
  1

  0
LINE
  5
6463
330
5F4F
100
AcDbEntity
  8
SP
100
AcDbLine
 10
11110.05558752166
 20
4227.635294509079
 30
0.0
 11
10925.36541693761
 21
4227.635294509079
 31
0.0
  0
LINE
  5
6464
330
5F4F
100
AcDbEntity
  8
SP
100
AcDbLine
 10
11110.05558752166
 20
4157.63529450908
 30
0.0
 11
10925.36541693761
 21
4157.63529450908
 31
0.0
  0
LINE
  5
6465
330
5F4F
100
AcDbEntity
  8
SP
100
AcDbLine
 10
10940.36541693761
 20
4227.635294509079
 30
0.0
 11
10940.36541693761
 21
4157.63529450908
 31
0.0
  0
MTEXT
  5
6466
330
5F4F
100
AcDbEntity
  8
SP
100
AcDbMText
 10
10889.40187548467
 20
4197.731374053975
 30
0.0
 40
45.0
 41
0.0
 71
     5
 72
     5
  1
\A1;（70）
 11
0.0000000000000001
 21
1.0
 31
0.0
 73
     1
 44
1.0
1001
ACAD
1000
MTEXTBEGIN
1070
    73
1070
     1
1070
    44
1040
1.0
1070
    74
1070
     0
1000
MTEXTEND
  0
POINT
  5
6467
330
5F4F
100
AcDbEntity
  8
Defpoints
 62
     0
380
     1
100
AcDbPoint
 10
11125.05558752166
 20
4227.635294509079
 30
0.0
  0
POINT
  5
6468
330
5F4F
100
AcDbEntity
  8
Defpoints
 62
     0
380
     1
100
AcDbPoint
 10
11125.05558752166
 20
4157.63529450908
 30
0.0
  0
POINT
  5
6469
330
5F4F
100
AcDbEntity
  8
Defpoints
 62
     0
380
     1
100
AcDbPoint
 10
10940.36541693761
 20
4157.63529450908
 30
0.0
  0
ENDBLK
  5
5F5A
330
5F4F
100
AcDbEntity
  8
0
100
AcDbBlockEnd
  0
BLOCK
  5
604A
330
6040
100
AcDbEntity
  8
0
100
AcDbBlockBegin
  2
*D18
 70
     1
 10
0.0
 20
0.0
 30
0.0
  3
*D18
  1

  0
LINE
  5
6367
330
6040
100
AcDbEntity
  8
SP
370
    -2
100
AcDbLine
 10
12253.45460744111
 20
4077.635294509081
 30
0.0
 11
12253.45460744111
 21
3897.411954469361
 31
0.0
  0
LINE
  5
6368
330
6040
100
AcDbEntity
  8
SP
370
    -2
100
AcDbLine
 10
12563.45460744111
 20
4077.635294509081
 30
0.0
 11
12563.45460744111
 21
3897.411954469361
 31
0.0
  0
LINE
  5
6369
330
6040
100
AcDbEntity
  8
SP
370
    -2
100
AcDbLine
 10
12290.95460744111
 20
3912.411954469361
 30
0.0
 11
12525.95460744111
 21
3912.411954469361
 31
0.0
  0
INSERT
  5
636A
330
6040
100
AcDbEntity
  8
SP
370
    -2
100
AcDbBlockReference
  2
_OPEN
 10
12253.45460744111
 20
3912.411954469361
 30
0.0
 41
37.5
 42
37.5
 43
37.5
 50
180.0
  0
INSERT
  5
636B
330
6040
100
AcDbEntity
  8
SP
370
    -2
100
AcDbBlockReference
  2
_OPEN
 10
12563.45460744111
 20
3912.411954469361
 30
0.0
 41
37.5
 42
37.5
 43
37.5
  0
MTEXT
  5
636C
330
6040
100
AcDbEntity
  8
SP
100
AcDbMText
 10
12408.45460744111
 20
3949.91195446936
 30
0.0
 40
45.0
 41
0.0
 71
     5
 72
     5
  1
\A1;310
 73
     1
 44
1.0
1001
ACAD
1000
MTEXTBEGIN
1070
    73
1070
     1
1070
    44
1040
1.0
1070
    74
1070
     0
1000
MTEXTEND
  0
POINT
  5
636D
330
6040
100
AcDbEntity
  8
Defpoints
 62
     0
380
     1
100
AcDbPoint
 10
12253.45460744111
 20
4092.63529450908
 30
0.0
  0
POINT
  5
636E
330
6040
100
AcDbEntity
  8
Defpoints
 62
     0
380
     1
100
AcDbPoint
 10
12563.45460744111
 20
4092.63529450908
 30
0.0
  0
POINT
  5
636F
330
6040
100
AcDbEntity
  8
Defpoints
 62
     0
380
     1
100
AcDbPoint
 10
12563.45460744111
 20
3912.411954469361
 30
0.0
  0
ENDBLK
  5
604B
330
6040
100
AcDbEntity
  8
0
100
AcDbBlockEnd
  0
BLOCK
  5
65C1
330
65C0
100
AcDbEntity
  8
0
100
AcDbBlockBegin
  2
*D19
 70
     1
 10
0.0
 20
0.0
 30
0.0
  3
*D19
  1

  0
LINE
  5
6603
330
65C0
100
AcDbEntity
  8
SP
370
    -2
100
AcDbLine
 10
12685.45460744111
 20
5088.635294509074
 30
0.0
 11
12685.45460744111
 21
5133.635294509075
 31
0.0
  0
LINE
  5
6604
330
65C0
100
AcDbEntity
  8
SP
370
    -2
100
AcDbLine
 10
12264.45460744111
 20
4681.216194509079
 30
0.0
 11
12264.45460744111
 21
5133.635294509075
 31
0.0
  0
LINE
  5
6605
330
65C0
100
AcDbEntity
  8
SP
370
    -2
100
AcDbLine
 10
12647.95460744111
 20
5118.635294509075
 30
0.0
 11
12301.95460744111
 21
5118.635294509075
 31
0.0
  0
INSERT
  5
6606
330
65C0
100
AcDbEntity
  8
SP
370
    -2
100
AcDbBlockReference
  2
_OPEN
 10
12685.45460744111
 20
5118.635294509075
 30
0.0
 41
37.5
 42
37.5
 43
37.5
  0
INSERT
  5
6607
330
65C0
100
AcDbEntity
  8
SP
370
    -2
100
AcDbBlockReference
  2
_OPEN
 10
12264.45460744111
 20
5118.635294509075
 30
0.0
 41
37.5
 42
37.5
 43
37.5
 50
180.0
  0
MTEXT
  5
6608
330
65C0
100
AcDbEntity
  8
SP
100
AcDbMText
 10
12474.95460744111
 20
5167.921008794789
 30
0.0
 40
45.0
 41
0.0
 71
     5
 72
     1
  1
\A1;(420)
 73
     1
 44
1.0
1001
ACAD
1000
MTEXTBEGIN
1070
    73
1070
     1
1070
    44
1040
1.0
1070
    74
1070
     0
1000
MTEXTEND
  0
POINT
  5
6609
330
65C0
100
AcDbEntity
  8
Defpoints
 62
     0
100
AcDbPoint
 10
12685.45460744111
 20
5073.635294509075
 30
0.0
  0
POINT
  5
660A
330
65C0
100
AcDbEntity
  8
Defpoints
 62
     0
100
AcDbPoint
 10
12264.45460744111
 20
4666.21619450908
 30
0.0
  0
POINT
  5
660B
330
65C0
100
AcDbEntity
  8
Defpoints
 62
     0
100
AcDbPoint
 10
12264.45460744111
 20
5118.635294509075
 30
0.0
  0
ENDBLK
  5
65C2
330
65C0
100
AcDbEntity
  8
0
100
AcDbBlockEnd
  0
BLOCK
  5
65CE
330
65CD
100
AcDbEntity
  8
0
100
AcDbBlockBegin
  2
*D20
 70
     1
 10
0.0
 20
0.0
 30
0.0
  3
*D20
  1

  0
LINE
  5
65EC
330
65CD
100
AcDbEntity
  8
SP
370
    -2
100
AcDbLine
 10
12563.45460744111
 20
4077.635294509081
 30
0.0
 11
12563.45460744111
 21
3897.411954469361
 31
0.0
  0
LINE
  5
65ED
330
65CD
100
AcDbEntity
  8
SP
370
    -2
100
AcDbLine
 10
12685.45460744111
 20
4278.196782543491
 30
0.0
 11
12685.45460744111
 21
3897.411954469361
 31
0.0
  0
LINE
  5
65EE
330
65CD
100
AcDbEntity
  8
SP
370
    -2
100
AcDbLine
 10
12525.95460744111
 20
3912.411954469361
 30
0.0
 11
12488.45460744111
 21
3912.411954469361
 31
0.0
  0
LINE
  5
65EF
330
65CD
100
AcDbEntity
  8
SP
370
    -2
100
AcDbLine
 10
12722.95460744111
 20
3912.411954469361
 30
0.0
 11
12760.45460744111
 21
3912.411954469361
 31
0.0
  0
MTEXT
  5
65F0
330
65CD
100
AcDbEntity
  8
SP
100
AcDbMText
 10
12804.37638076204
 20
3949.867510240252
 30
0.0
 40
45.0
 41
0.0
 71
     5
 72
     1
  1
\A1;122
 73
     1
 44
1.0
1001
ACAD
1000
MTEXTBEGIN
1070
    73
1070
     1
1070
    44
1040
1.0
1070
    74
1070
     0
1000
MTEXTEND
  0
LINE
  5
65F1
330
65CD
100
AcDbEntity
  8
SP
370
    -2
100
AcDbLine
 10
12563.45460744111
 20
3912.411954469361
 30
0.0
 11
12685.45460744111
 21
3912.411954469361
 31
0.0
  0
INSERT
  5
65F2
330
65CD
100
AcDbEntity
  8
SP
370
    -2
100
AcDbBlockReference
  2
_OPEN
 10
12563.45460744111
 20
3912.411954469361
 30
0.0
 41
37.5
 42
37.5
 43
37.5
  0
INSERT
  5
65F3
330
65CD
100
AcDbEntity
  8
SP
370
    -2
100
AcDbBlockReference
  2
_OPEN
 10
12685.45460744111
 20
3912.411954469361
 30
0.0
 41
37.5
 42
37.5
 43
37.5
 50
180.0
  0
POINT
  5
65F4
330
65CD
100
AcDbEntity
  8
Defpoints
 62
     0
100
AcDbPoint
 10
12563.45460744111
 20
4092.63529450908
 30
0.0
  0
POINT
  5
65F5
330
65CD
100
AcDbEntity
  8
Defpoints
 62
     0
100
AcDbPoint
 10
12685.45460744111
 20
4293.196782543492
 30
0.0
  0
POINT
  5
65F6
330
65CD
100
AcDbEntity
  8
Defpoints
 62
     0
100
AcDbPoint
 10
12685.45460744111
 20
3912.411954469361
 30
0.0
  0
ENDBLK
  5
65CF
330
65CD
100
AcDbEntity
  8
0
100
AcDbBlockEnd
  0
ENDSEC
  0
SECTION
  2
ENTITIES
  0
LINE
  5
28A4
330
19
100
AcDbEntity
  8
4
100
AcDbLine
 10
13495.59771503509
 20
7247.809791742034
 30
0.0
 11
13495.59771503509
 21
2822.809791742034
 31
0.0
  0
LINE
  5
28A5
330
19
100
AcDbEntity
  8
4
100
AcDbLine
 10
10345.59771503509
 20
2822.809791742034
 30
0.0
 11
10345.59771503509
 21
7247.809791742034
 31
0.0
  0
LINE
  5
28A8
330
19
100
AcDbEntity
  8
4
100
AcDbLine
 10
11020.59771503509
 20
3272.809791742034
 30
0.0
 11
12820.59771503509
 21
3272.809791742034
 31
0.0
  0
LINE
  5
28A9
330
19
100
AcDbEntity
  8
4
100
AcDbLine
 10
11020.59771503509
 20
3422.809791742034
 30
0.0
 11
12820.59771503509
 21
3422.809791742034
 31
0.0
  0
LINE
  5
28AA
330
19
100
AcDbEntity
  8
4
100
AcDbLine
 10
11020.59771503509
 20
3572.809791742034
 30
0.0
 11
12820.59771503509
 21
3572.809791742034
 31
0.0
  0
LINE
  5
28AB
330
19
100
AcDbEntity
  8
4
100
AcDbLine
 10
13495.59771503509
 20
2822.809791742034
 30
0.0
 11
10345.59771503509
 21
2822.809791742034
 31
0.0
  0
TEXT
  5
28AC
330
19
100
AcDbEntity
  8
4
100
AcDbText
 10
11812.11583326659
 20
3456.667445178387
 30
0.0
 40
75.0
  1
ミツヤ多翼送風機
100
AcDbText
  0
TEXT
  5
28AF
330
19
100
AcDbEntity
  8
4
100
AcDbText
 10
11078.35083630544
 20
3470.124330541953
 30
0.0
 40
75.0
  1
機器名称
100
AcDbText
  0
TEXT
  5
28B0
330
19
100
AcDbEntity
  8
4
100
AcDbText
 10
11074.98487407229
 20
3305.27752684005
 30
0.0
 40
75.0
  1
機器型番
100
AcDbText
  0
LINE
  5
28B2
330
19
100
AcDbEntity
  8
4
100
AcDbLine
 10
11020.59771503509
 20
3572.809791742034
 30
0.0
 11
11020.59771503509
 21
3272.809791742034
 31
0.0
  0
TEXT
  5
28B3
330
19
100
AcDbEntity
  8
4
100
AcDbText
 10
11825.57945841331
 20
3298.549168161949
 30
0.0
 40
75.0
  1
MF＃2-7
100
AcDbText
  0
LINE
  5
28B4
330
19
100
AcDbEntity
  8
4
100
AcDbLine
 10
11770.59771503509
 20
3572.809791742034
 30
0.0
 11
11770.59771503509
 21
3272.809791742034
 31
0.0
  0
LINE
  5
28B5
330
19
100
AcDbEntity
  8
4
100
AcDbLine
 10
12820.59771503509
 20
3572.809791742034
 30
0.0
 11
12820.59771503509
 21
3272.809791742034
 31
0.0
  0
TEXT
  5
28BD
330
19
100
AcDbEntity
  8
4
100
AcDbText
 10
11077.69207095238
 20
6623.63125604098
 30
0.0
 40
108.0
  1
遠心式片吸込直動形多翼ファン
100
AcDbText
  0
LINE
  5
28BE
330
19
100
AcDbEntity
  8
4
100
AcDbLine
 10
10720.59771503509
 20
6526.922923139242
 30
0.0
 11
13120.59771503509
 21
6526.922923139242
 31
0.0
  0
LINE
  5
28BF
330
19
100
AcDbEntity
  8
4
100
AcDbLine
 10
10720.59771503509
 20
6826.922923139242
 30
0.0
 11
13120.59771503509
 21
6826.922923139242
 31
0.0
  0
LINE
  5
28C0
330
19
100
AcDbEntity
  8
4
100
AcDbLine
 10
10345.59771503509
 20
7247.809791742034
 30
0.0
 11
13495.59771503509
 21
7247.809791742034
 31
0.0
  0
TEXT
  5
2934
330
19
100
AcDbEntity
  8
4
100
AcDbText
 10
10818.48108722505
 20
6396.289008061549
 30
0.0
 40
80.99999999999999
  1
左回転左横向
100
AcDbText
  0
LINE
  5
297A
330
19
100
AcDbEntity
  8
4
100
AcDbLine
 10
10720.59771503509
 20
6826.922923139242
 30
0.0
 11
10720.59771503509
 21
6526.922923139242
 31
0.0
  0
LINE
  5
2A3F
330
19
100
AcDbEntity
  8
4
100
AcDbLine
 10
12506.52384857489
 20
7002.788184066663
 30
0.0
 11
13120.59771503509
 21
7002.788184066663
 31
0.0
  0
LINE
  5
2A40
330
19
100
AcDbEntity
  8
4
100
AcDbLine
 10
13120.59771503509
 20
6844.705166430135
 30
0.0
 11
12506.52384857489
 21
6844.705166430135
 31
0.0
  0
TEXT
  5
2A41
330
19
100
AcDbEntity
  8
4
100
AcDbText
 10
12549.05205390903
 20
6881.901413984997
 30
0.0
 40
84.00000000000002
  1
No.
100
AcDbText
  0
LINE
  5
2A42
330
19
100
AcDbEntity
  8
4
100
AcDbLine
 10
12506.52384857489
 20
6844.705166430135
 30
0.0
 11
12506.52384857489
 21
7002.788184066663
 31
0.0
  0
LINE
  5
2A43
330
19
100
AcDbEntity
  8
4
100
AcDbLine
 10
13120.59771503509
 20
6826.922923139242
 30
0.0
 11
13120.59771503509
 21
6526.922923139242
 31
0.0
  0
LINE
  5
2A44
330
19
100
AcDbEntity
  8
4
100
AcDbLine
 10
13120.59771503509
 20
7002.788184066663
 30
0.0
 11
13120.59771503509
 21
6844.705166430135
 31
0.0
  0
LINE
  5
2A45
330
19
100
AcDbEntity
  8
4
100
AcDbLine
 10
13495.59771503509
 20
7247.809791742034
 30
0.0
 11
13495.59771503509
 21
7247.809791742034
 31
0.0
  0
DIMENSION
  5
4268
330
19
100
AcDbEntity
  8
SP
100
AcDbDimension
  2
*D2
 10
10940.36541693761
 20
4897.635294509075
 30
0.0
 11
10902.86541693761
 21
4740.135294509079
 31
0.0
 70
    32
 71
     5
 42
-1.0
  3
GOD
100
AcDbAlignedDimension
 13
11085.75356201801
 23
4582.63529450908
 33
0.0
 14
11125.05558752166
 24
4897.635294509075
 34
0.0
 50
90.0
100
AcDbRotatedDimension
  0
LWPOLYLINE
  5
4269
330
19
100
AcDbEntity
  8
1
100
AcDbPolyline
 90
        3
 70
     0
 43
0.0
 10
11145.05558752166
 20
4907.635294509077
 10
11349.56776426035
 20
4907.635294509081
 42
-0.2269714708976296
 10
11585.76630725709
 20
4793.88911239325
  0
LWPOLYLINE
  5
426A
330
19
100
AcDbEntity
  8
1
100
AcDbPolyline
 90
        3
 70
     0
 43
0.0
 10
11125.05558752166
 20
4897.635294509075
 10
11349.55558752166
 20
4897.635294509081
 42
-0.2269607506063405
 10
11577.96311804552
 20
4787.635294509079
 42
-0.129402372482195
  0
DIMENSION
  5
426B
330
19
100
AcDbEntity
  8
SP
100
AcDbDimension
  2
*D5
 10
11639.2868691555
 20
5040.184706197506
 30
0.0
 11
11507.17122833858
 21
5077.684706197506
 31
0.0
 70
    32
 71
     5
 42
-1.0
  3
GOD
100
AcDbAlignedDimension
 13
11375.05558752167
 23
4954.1712074726
 33
0.0
 14
11639.2868691555
 24
4609.305717321467
 34
0.0
 50
180.0
100
AcDbRotatedDimension
1001
ACAD
1000
DSTYLE
1002
{
1070
   271
1070
     0
1002
}
  0
LWPOLYLINE
  5
426C
330
19
100
AcDbEntity
  8
FUTO
100
AcDbPolyline
 90
        4
 70
     0
 43
0.0
 10
11125.05558752167
 20
4561.135294509075
 10
11125.05558752166
 20
4919.135294509075
 10
11126.25558752166
 20
4919.135294509075
 10
11126.25558752167
 20
4561.135294509075
  0
LINE
  5
426D
330
19
100
AcDbEntity
  8
1
100
AcDbLine
 10
11145.05558752167
 20
4880.235294509073
 30
0.0
 11
11145.05558752167
 21
4599.035294509074
 31
0.0
  0
LINE
  5
426E
330
19
100
AcDbEntity
  8
2
100
AcDbLine
 10
11375.05558752167
 20
4057.265404136123
 30
0.0
 11
11375.05558752167
 21
4954.1712074726
 31
0.0
  0
DIMENSION
  5
4271
330
19
100
AcDbEntity
  8
SP
100
AcDbDimension
  2
*D3
 10
10940.36541693762
 20
4582.63529450908
 30
0.0
 11
10902.86541693762
 21
4405.135294509081
 31
0.0
 70
    32
 71
     5
 42
-1.0
  3
GOD
100
AcDbAlignedDimension
 13
11125.05558752166
 23
4227.635294509079
 33
0.0
 14
11085.75356201801
 24
4582.63529450908
 34
0.0
 50
90.0
100
AcDbRotatedDimension
  0
LWPOLYLINE
  5
427F
330
19
100
AcDbEntity
  8
1
100
AcDbPolyline
 90
        3
 70
     0
 43
0.0
 10
11585.84816491458
 20
4793.785581971685
 42
-0.2162335382726867
 10
11643.92307733135
 20
4552.834457361106
 42
-0.1298839697351506
 10
11587.63804329436
 20
4436.865798998637
 42
-0.1298839697351506
  0
LWPOLYLINE
  5
4280
330
19
100
AcDbEntity
  8
1
100
AcDbPolyline
 90
        2
 70
     0
 43
0.0
 10
11149.54468051823
 20
4569.971030895083
 42
-0.0934525219043797
 10
11170.05558752167
 20
4550.080879216673
 42
-0.1987366729981355
  0
LWPOLYLINE
  5
4281
330
19
100
AcDbEntity
  8
1
100
AcDbPolyline
 90
        2
 70
     0
 43
0.0
 10
11170.05558752167
 20
4565.780202855503
 42
-0.1315967463597435
 10
11191.68312727857
 20
4526.240864501064
 42
-0.2200089805681688
  0
ARC
  5
4282
330
19
100
AcDbEntity
  8
1
100
AcDbCircle
 10
11375.05558752167
 20
4582.63529450908
 30
0.0
 40
100.8
100
AcDbArc
 50
180.0
 51
254.2028999999989
  0
ARC
  5
4283
330
19
100
AcDbEntity
  8
1
100
AcDbCircle
 10
11375.05558752167
 20
4582.63529450908
 30
0.0
 40
100.8
100
AcDbArc
 50
285.4276999999997
 51
180.0
  0
LWPOLYLINE
  5
4284
330
19
100
AcDbEntity
  8
1
100
AcDbPolyline
 90
        3
 70
     0
 43
0.0
 10
11577.96311804552
 20
4787.635294509079
 42
-0.2162148363065116
 10
11634.10579879831
 20
4554.737477701027
 42
-0.1298622998199493
 10
11580.05558752168
 20
4443.385489517006
 42
-0.3153658436290411
  0
CIRCLE
  5
4285
330
19
100
AcDbEntity
  8
CT
100
AcDbCircle
 10
11375.05558752167
 20
4582.63529450908
 30
0.0
 40
169.0
  0
LWPOLYLINE
  5
4286
330
19
100
AcDbEntity
  8
1
100
AcDbPolyline
 90
        3
 70
     0
 43
0.0
 10
11491.73400162146
 20
4368.345039019524
 42
-0.1343314877425494
 10
11358.73745852792
 20
4353.392007682882
 42
-0.3163064660587118
 10
11181.85766740373
 20
4524.380670203899
 42
-0.3163064660587118
  0
LINE
  5
4287
330
19
100
AcDbEntity
  8
1
100
AcDbLine
 10
11347.43788752168
 20
4485.635294509079
 30
0.0
 11
11402.32498752167
 21
4485.635294509079
 31
0.0
  0
LWPOLYLINE
  5
428A
330
19
100
AcDbEntity
  8
1
100
AcDbPolyline
 90
        3
 70
     0
 43
0.0
 10
11488.0338458222
 20
4377.635294509079
 42
-0.1343280102757561
 10
11360.28556224138
 20
4363.271450299874
 42
-0.3163019945347412
 10
11191.67840097925
 20
4526.265661460807
 42
-0.3153658436290411
  0
LWPOLYLINE
  5
428B
330
19
100
AcDbEntity
  8
1
100
AcDbPolyline
 90
        2
 70
     0
 43
0.0
 10
11587.59657112823
 20
4436.817874558315
 42
-0.1174780416237576
 10
11491.80344657222
 20
4368.372999427112
 42
-0.1174780416237576
  0
LINE
  5
428C
330
19
100
AcDbEntity
  8
CT
100
AcDbLine
 10
11420.99596802736
 20
4411.183460342771
 30
0.0
 11
11416.8865322423
 21
4426.520083483037
 31
0.0
  0
LWPOLYLINE
  5
428E
330
19
100
AcDbEntity
  8
1
100
AcDbPolyline
 90
        2
 70
     0
 43
0.0
 10
11580.05558752167
 20
4443.385489517007
 42
-0.1174780416237573
 10
11488.0338458222
 20
4377.63529450908
 42
-0.3153658436290411
  0
CIRCLE
  5
4290
330
19
100
AcDbEntity
  8
1
100
AcDbCircle
 10
11418.79600614398
 20
4419.393829866228
 30
0.0
 40
4.0
  0
LINE
  5
4291
330
19
100
AcDbEntity
  8
CT
100
AcDbLine
 10
11455.05558752167
 20
4496.015794509078
 30
0.0
 11
11455.05558752167
 21
4478.668694509078
 31
0.0
  0
LINE
  5
4292
330
19
100
AcDbEntity
  8
1
100
AcDbLine
 10
11435.25808752168
 20
4501.746494509078
 30
0.0
 11
11441.49058752168
 21
4495.513994509078
 31
0.0
  0
ARC
  5
4293
330
19
100
AcDbEntity
  8
1
100
AcDbCircle
 10
11443.61198752168
 20
4497.63529450908
 30
0.0
 40
3.0
100
AcDbArc
 50
225.0
 51
270.0
  0
LINE
  5
4294
330
19
100
AcDbEntity
  8
1
100
AcDbLine
 10
11428.50598752167
 20
4497.184994509079
 30
0.0
 11
11435.05558752167
 21
4490.635294509079
 31
0.0
  0
ARC
  5
4295
330
19
100
AcDbEntity
  8
1
100
AcDbCircle
 10
11437.05558752167
 20
4492.635294509079
 30
0.0
 40
2.0
100
AcDbArc
 50
89.99999999999998
 51
180.0
  0
LINE
  5
4296
330
19
100
AcDbEntity
  8
1
100
AcDbLine
 10
11435.05558752167
 20
4482.635294509079
 30
0.0
 11
11435.05558752167
 21
4492.635294509079
 31
0.0
  0
LINE
  5
4297
330
19
100
AcDbEntity
  8
1
100
AcDbLine
 10
11449.05558752167
 20
4482.635294509079
 30
0.0
 11
11449.05558752167
 21
4494.635294509079
 31
0.0
  0
LINE
  5
4298
330
19
100
AcDbEntity
  8
1
100
AcDbLine
 10
11461.05558752167
 20
4494.635294509079
 30
0.0
 11
11461.05558752167
 21
4482.635294509079
 31
0.0
  0
ARC
  5
4299
330
19
100
AcDbEntity
  8
1
100
AcDbCircle
 10
11473.05558752167
 20
4492.635294509079
 30
0.0
 40
2.0
100
AcDbArc
 50
0.0
 51
89.99999999999998
  0
LINE
  5
429A
330
19
100
AcDbEntity
  8
1
100
AcDbLine
 10
11475.05558752167
 20
4482.635294509079
 30
0.0
 11
11475.05558752167
 21
4492.635294509079
 31
0.0
  0
LINE
  5
429B
330
19
100
AcDbEntity
  8
1
100
AcDbLine
 10
11474.16338752167
 20
4494.30339450908
 30
0.0
 11
11457.76258752167
 21
4524.96539450908
 31
0.0
  0
LINE
  5
429C
330
19
100
AcDbEntity
  8
1
100
AcDbLine
 10
11475.05558752167
 20
4482.635294509079
 30
0.0
 11
11435.05558752167
 21
4482.635294509079
 31
0.0
  0
LINE
  5
429D
330
19
100
AcDbEntity
  8
1
100
AcDbLine
 10
11473.05558752167
 20
4494.635294509079
 30
0.0
 11
11437.05558752167
 21
4494.635294509079
 31
0.0
  0
LINE
  5
429E
330
19
100
AcDbEntity
  8
CT
100
AcDbLine
 10
11500.56704118227
 20
4457.123840848463
 30
0.0
 11
11489.33985382706
 21
4468.351028203674
 31
0.0
  0
CIRCLE
  5
429F
330
19
100
AcDbEntity
  8
1
100
AcDbCircle
 10
11494.55663354219
 20
4463.134248488548
 30
0.0
 40
4.0
  0
LINE
  5
42A0
330
19
100
AcDbEntity
  8
CT
100
AcDbLine
 10
11546.50742168797
 20
4536.694914003374
 30
0.0
 11
11531.1707985477
 21
4540.804349788429
 31
0.0
  0
CIRCLE
  5
42A1
330
19
100
AcDbEntity
  8
1
100
AcDbCircle
 10
11538.29705216451
 20
4538.894875886747
 30
0.0
 40
4.0
  0
LINE
  5
42A4
330
19
100
AcDbEntity
  8
CT
100
AcDbLine
 10
11329.11520701596
 20
4411.183460342773
 30
0.0
 11
11333.22464280102
 21
4426.52008348304
 31
0.0
  0
LINE
  5
42A7
330
19
100
AcDbEntity
  8
CT
100
AcDbLine
 10
11203.60375335536
 20
4536.69491400339
 30
0.0
 11
11218.94037649562
 21
4540.804349788445
 31
0.0
  0
CIRCLE
  5
42A8
330
19
100
AcDbEntity
  8
1
100
AcDbCircle
 10
11211.81412287882
 20
4538.894875886762
 30
0.0
 40
4.0
  0
LINE
  5
42A9
330
19
100
AcDbEntity
  8
CT
100
AcDbLine
 10
11249.54413386105
 20
4457.123840848474
 30
0.0
 11
11260.77132121626
 21
4468.351028203686
 31
0.0
  0
CIRCLE
  5
42AA
330
19
100
AcDbEntity
  8
1
100
AcDbCircle
 10
11255.55454150113
 20
4463.134248488559
 30
0.0
 40
4.0
  0
LINE
  5
42AB
330
19
100
AcDbEntity
  8
CT
100
AcDbLine
 10
11295.05558752167
 20
4496.015794509078
 30
0.0
 11
11295.05558752167
 21
4478.668694509078
 31
0.0
  0
ARC
  5
42AC
330
19
100
AcDbEntity
  8
1
100
AcDbCircle
 10
11277.05558752167
 20
4492.635294509079
 30
0.0
 40
2.0
100
AcDbArc
 50
89.99999999999998
 51
180.0
  0
LINE
  5
42AD
330
19
100
AcDbEntity
  8
1
100
AcDbLine
 10
11289.05558752167
 20
4494.635294509079
 30
0.0
 11
11289.05558752167
 21
4482.635294509079
 31
0.0
  0
LINE
  5
42AE
330
19
100
AcDbEntity
  8
1
100
AcDbLine
 10
11275.05558752167
 20
4482.635294509079
 30
0.0
 11
11275.05558752167
 21
4492.635294509079
 31
0.0
  0
LINE
  5
42AF
330
19
100
AcDbEntity
  8
1
100
AcDbLine
 10
11301.05558752167
 20
4482.635294509079
 30
0.0
 11
11301.05558752167
 21
4494.635294509079
 31
0.0
  0
LINE
  5
42B0
330
19
100
AcDbEntity
  8
1
100
AcDbLine
 10
11276.14638752167
 20
4494.674794509079
 30
0.0
 11
11292.26508752168
 21
4524.809094509079
 31
0.0
  0
LINE
  5
42B1
330
19
100
AcDbEntity
  8
1
100
AcDbLine
 10
11321.30898752167
 20
4496.888794509079
 30
0.0
 11
11315.05558752167
 21
4490.635294509079
 31
0.0
  0
ARC
  5
42B2
330
19
100
AcDbEntity
  8
1
100
AcDbCircle
 10
11313.05558752167
 20
4492.635294509079
 30
0.0
 40
2.0
100
AcDbArc
 50
0.0
 51
89.99999999999998
  0
LINE
  5
42B3
330
19
100
AcDbEntity
  8
1
100
AcDbLine
 10
11315.05558752167
 20
4482.635294509079
 30
0.0
 11
11315.05558752167
 21
4492.635294509079
 31
0.0
  0
LINE
  5
42B4
330
19
100
AcDbEntity
  8
1
100
AcDbLine
 10
11314.47348752167
 20
4501.366994509079
 30
0.0
 11
11308.62058752167
 21
4495.513994509078
 31
0.0
  0
ARC
  5
42B5
330
19
100
AcDbEntity
  8
1
100
AcDbCircle
 10
11306.49918752167
 20
4497.63529450908
 30
0.0
 40
3.0
100
AcDbArc
 50
270.0
 51
315.0
  0
CIRCLE
  5
42B6
330
19
100
AcDbEntity
  8
1
100
AcDbCircle
 10
11331.31516889933
 20
4419.393829866232
 30
0.0
 40
4.0
  0
LINE
  5
42B7
330
19
100
AcDbEntity
  8
1
100
AcDbLine
 10
11275.05558752167
 20
4482.635294509079
 30
0.0
 11
11315.05558752167
 21
4482.635294509079
 31
0.0
  0
LINE
  5
42B8
330
19
100
AcDbEntity
  8
1
100
AcDbLine
 10
11277.05558752167
 20
4494.635294509079
 30
0.0
 11
11313.05558752167
 21
4494.635294509079
 31
0.0
  0
LWPOLYLINE
  5
42BA
330
19
100
AcDbEntity
  8
1
100
AcDbPolyline
 90
        2
 70
     0
 43
0.0
 10
11170.05558752167
 20
4550.080879216673
 42
-0.0941668855597806
 10
11181.96699183002
 20
4523.875127418171
 42
-0.1987366729981355
  0
LINE
  5
42BC
330
19
100
AcDbEntity
  8
2
100
AcDbLine
 10
11679.99909736924
 20
4582.63529450908
 30
0.0
 11
11085.75356201801
 21
4582.63529450908
 31
0.0
  0
LINE
  5
42BE
330
19
100
AcDbEntity
  8
CT
100
AcDbLine
 10
11546.50742168798
 20
4628.575675014768
 30
0.0
 11
11531.17079854771
 21
4624.466239229713
 31
0.0
  0
CIRCLE
  5
42BF
330
19
100
AcDbEntity
  8
1
100
AcDbCircle
 10
11538.29705216452
 20
4626.375713131397
 30
0.0
 40
4.0
  0
LINE
  5
42C0
330
19
100
AcDbEntity
  8
CT
100
AcDbLine
 10
11420.99596802737
 20
4754.087128675385
 30
0.0
 11
11416.88653224232
 21
4738.750505535118
 31
0.0
  0
CIRCLE
  5
42C1
330
19
100
AcDbEntity
  8
1
100
AcDbCircle
 10
11418.796006144
 20
4745.876759151927
 30
0.0
 40
4.0
  0
LINE
  5
42C2
330
19
100
AcDbEntity
  8
CT
100
AcDbLine
 10
11500.56704118229
 20
4708.146748169684
 30
0.0
 11
11489.33985382707
 21
4696.919560814472
 31
0.0
  0
CIRCLE
  5
42C3
330
19
100
AcDbEntity
  8
1
100
AcDbCircle
 10
11494.5566335422
 20
4702.136340529597
 30
0.0
 40
4.0
  0
POINT
  5
42C4
330
19
100
AcDbEntity
  8
1
100
AcDbPoint
 10
11532.55558752167
 20
4832.63529450909
 30
0.0
  0
POINT
  5
42C5
330
19
100
AcDbEntity
  8
1
100
AcDbPoint
 10
11532.55558752167
 20
4832.63529450909
 30
0.0
  0
LINE
  5
42C7
330
19
100
AcDbEntity
  8
CT
100
AcDbLine
 10
11203.60375335536
 20
4628.575675014784
 30
0.0
 11
11218.94037649563
 21
4624.466239229729
 31
0.0
  0
CIRCLE
  5
42C8
330
19
100
AcDbEntity
  8
1
100
AcDbCircle
 10
11211.81412287882
 20
4626.375713131413
 30
0.0
 40
4.0
  0
LWPOLYLINE
  5
42C9
330
19
100
AcDbEntity
  8
FUTO
100
AcDbPolyline
 90
        2
 70
     0
 43
0.0
 10
11125.05558752167
 20
4561.135294509075
 10
11126.25558752167
 20
4561.135294509075
  0
LWPOLYLINE
  5
42CA
330
19
100
AcDbEntity
  8
CT
100
AcDbPolyline
 90
        2
 70
     0
 43
0.0
 10
11119.99242430668
 20
4571.135294509075
 10
11132.26073459062
 20
4571.135294509075
  0
ARC
  5
42CB
330
19
100
AcDbEntity
  8
1
100
AcDbCircle
 10
11130.05558752167
 20
4582.635294509076
 30
0.0
 40
1.0
100
AcDbArc
 50
126.8698976458049
 51
270.0
  0
POINT
  5
42CC
330
19
100
AcDbEntity
  8
1
100
AcDbPoint
 10
11125.05558752167
 20
4582.635294509076
 30
0.0
  0
LINE
  5
42CD
330
19
100
AcDbEntity
  8
1
100
AcDbLine
 10
11145.05558752167
 20
4581.635294509069
 30
0.0
 11
11145.05558752167
 21
4578.315484382239
 31
0.0
  0
LINE
  5
42CE
330
19
100
AcDbEntity
  8
1
100
AcDbLine
 10
11125.05558752167
 20
4581.635294509076
 30
0.0
 11
11146.05558752167
 21
4581.635294509076
 31
0.0
  0
LINE
  5
42CF
330
19
100
AcDbEntity
  8
1
100
AcDbLine
 10
11129.35558752167
 20
4583.335294509073
 30
0.0
 11
11145.05558752167
 21
4599.035294509072
 31
0.0
  0
LWPOLYLINE
  5
42D0
330
19
100
AcDbEntity
  8
1
100
AcDbPolyline
 90
        3
 70
     0
 43
0.0
 10
11146.05558752167
 20
4581.635294509076
 42
-0.101266720201501
 10
11151.55499800843
 20
4580.509939525466
 42
-0.0681921917069782
 10
11170.05558752167
 20
4565.780202855503
 42
-0.2200089805681688
  0
ARC
  5
42D1
330
19
100
AcDbEntity
  8
1
100
AcDbCircle
 10
11155.05558752167
 20
4578.315484382245
 30
0.0
 40
10.0
100
AcDbArc
 50
180.0
 51
236.5581282105191
  0
LINE
  5
42D2
330
19
100
AcDbEntity
  8
CT
100
AcDbLine
 10
11249.54413386106
 20
4708.146748169695
 30
0.0
 11
11260.77132121627
 21
4696.919560814484
 31
0.0
  0
CIRCLE
  5
42D3
330
19
100
AcDbEntity
  8
1
100
AcDbCircle
 10
11255.55454150115
 20
4702.13634052961
 30
0.0
 40
4.0
  0
LINE
  5
42D4
330
19
100
AcDbEntity
  8
CT
100
AcDbLine
 10
11329.11520701598
 20
4754.087128675389
 30
0.0
 11
11333.22464280103
 21
4738.750505535121
 31
0.0
  0
CIRCLE
  5
42D5
330
19
100
AcDbEntity
  8
1
100
AcDbCircle
 10
11331.31516889935
 20
4745.876759151932
 30
0.0
 40
4.0
  0
DIMENSION
  5
42D6
330
19
100
AcDbEntity
  8
SP
100
AcDbDimension
  2
*D4
 10
11125.05558752166
 20
5040.184706197506
 30
0.0
 11
11250.05558752167
 21
5077.684706197506
 31
0.0
 70
    32
 71
     5
 42
-1.0
  3
GOD
100
AcDbAlignedDimension
 13
11375.05558752167
 23
4954.1712074726
 33
0.0
 14
11125.05558752166
 24
4918.635294509076
 34
0.0
 50
180.0
100
AcDbRotatedDimension
  0
LINE
  5
42D7
330
19
100
AcDbEntity
  8
FUTO
100
AcDbLine
 10
11145.05558752166
 20
4907.635294509077
 30
0.0
 11
11145.05558752166
 21
4897.635294509076
 31
0.0
  0
ARC
  5
42D8
330
19
100
AcDbEntity
  8
1
100
AcDbCircle
 10
11130.05558752166
 20
4896.635294509076
 30
0.0
 40
1.0
100
AcDbArc
 50
89.99999999999998
 51
233.130102354195
  0
LINE
  5
42D9
330
19
100
AcDbEntity
  8
1
100
AcDbLine
 10
11129.35558752166
 20
4895.935294509075
 30
0.0
 11
11145.05558752167
 21
4880.235294509074
 31
0.0
  0
LWPOLYLINE
  5
42DA
330
19
100
AcDbEntity
  8
CT
100
AcDbPolyline
 90
        2
 70
     0
 43
0.0
 10
11119.99242430667
 20
4909.135294509074
 10
11132.26073459061
 20
4909.135294509076
  0
LINE
  5
457D
330
19
100
AcDbEntity
  8
1
100
AcDbLine
 10
12552.45460744111
 20
4765.044219796653
 30
0.0
 11
12552.45460744111
 21
4894.135294509075
 31
0.0
  0
LINE
  5
457E
330
19
100
AcDbEntity
  8
1
100
AcDbLine
 10
12818.45460744111
 20
4586.135294509075
 30
0.0
 11
12818.45460744111
 21
4894.135294509075
 31
0.0
  0
DIMENSION
  5
4580
330
19
100
AcDbEntity
  8
SP
100
AcDbDimension
  2
*D7
 10
12806.45460744111
 20
5118.635294509075
 30
0.0
 11
12745.95460744111
 21
5156.135294509074
 31
0.0
 70
    32
 71
     5
 42
121.0
  3
GOD
100
AcDbAlignedDimension
 13
12685.45460744111
 23
5073.635294509075
 33
0.0
 14
12806.45460744111
 24
4764.135294509078
 34
0.0
100
AcDbRotatedDimension
  0
LINE
  5
4587
330
19
100
AcDbEntity
  8
2
100
AcDbLine
 10
12685.45460744111
 20
5000.955005841836
 30
0.0
 11
12685.45460744111
 21
4293.196782543492
 31
0.0
1001
ACAD
1000
ASC_BOUNDS
1002
{
1070
    19
1005
0
1005
0
1002
}
  0
LINE
  5
4589
330
19
100
AcDbEntity
  8
FUTO
100
AcDbLine
 10
12253.45460744111
 20
4230.83529450908
 30
0.0
 11
12560.25460744111
 21
4230.83529450908
 31
0.0
  0
LINE
  5
458A
330
19
100
AcDbEntity
  8
1
100
AcDbLine
 10
12253.45460744111
 20
4227.63529450908
 30
0.0
 11
12603.45460744111
 21
4227.63529450908
 31
0.0
  0
LINE
  5
458B
330
19
100
AcDbEntity
  8
2
100
AcDbLine
 10
12836.46659157682
 20
4582.63529450908
 30
0.0
 11
12223.06648687453
 21
4582.63529450908
 31
0.0
  0
LINE
  5
458C
330
19
100
AcDbEntity
  8
1
100
AcDbLine
 10
12563.45460744111
 20
4777.953405346614
 30
0.0
 11
12381.89262423316
 21
4582.63529450908
 31
0.0
  0
LINE
  5
458D
330
19
100
AcDbEntity
  8
1
100
AcDbLine
 10
12437.45460744111
 20
4682.635294509079
 30
0.0
 11
12474.84968921264
 21
4682.635294509079
 31
0.0
  0
LINE
  5
458E
330
19
100
AcDbEntity
  8
FUTO
100
AcDbLine
 10
12383.25460744111
 20
4582.63529450908
 30
0.0
 11
12253.45460744111
 21
4230.83529450908
 31
0.0
  0
LINE
  5
458F
330
19
100
AcDbEntity
  8
FUTO
100
AcDbLine
 10
12253.45460744111
 20
4227.63529450908
 30
0.0
 11
12253.45460744111
 21
4230.83529450908
 31
0.0
  0
LINE
  5
4590
330
19
100
AcDbEntity
  8
1
100
AcDbLine
 10
12314.45460744111
 20
4486.635294509079
 30
0.0
 11
12314.45460744111
 21
4681.93529450908
 31
0.0
  0
LINE
  5
4591
330
19
100
AcDbEntity
  8
1
100
AcDbLine
 10
12354.45460744111
 20
4683.43529450908
 30
0.0
 11
12354.45460744111
 21
4532.63529450908
 31
0.0
  0
LINE
  5
4592
330
19
100
AcDbEntity
  8
1
100
AcDbLine
 10
12264.45460744111
 20
4499.08239450908
 30
0.0
 11
12264.45460744111
 21
4666.21619450908
 31
0.0
  0
LINE
  5
4593
330
19
100
AcDbEntity
  8
FUTO
100
AcDbLine
 10
12312.93149041714
 20
4391.773623687131
 30
0.0
 11
12265.33366662168
 21
4479.146787701621
 31
0.0
  0
LINE
  5
4594
330
19
100
AcDbEntity
  8
1
100
AcDbLine
 10
12314.45460744111
 20
4486.635294509079
 30
0.0
 11
12265.86790744111
 21
4497.32439450908
 31
0.0
  0
LINE
  5
4595
330
19
100
AcDbEntity
  8
FUTO
100
AcDbLine
 10
12257.25460744111
 20
4481.546787701619
 30
0.0
 11
12346.00847591881
 21
4481.546787701619
 31
0.0
  0
LINE
  5
4596
330
19
100
AcDbEntity
  8
FUTO
100
AcDbLine
 10
12257.25460744111
 20
4479.146787701621
 30
0.0
 11
12345.12419422867
 21
4479.146787701617
 31
0.0
  0
LINE
  5
4597
330
19
100
AcDbEntity
  8
FUTO
100
AcDbLine
 10
12252.45460744111
 20
4453.946787701622
 30
0.0
 11
12252.45460744111
 21
4476.74678770162
 31
0.0
  0
LINE
  5
4598
330
19
100
AcDbEntity
  8
FUTO
100
AcDbLine
 10
12254.85460744111
 20
4453.946787701622
 30
0.0
 11
12254.85460744111
 21
4476.74678770162
 31
0.0
  0
ARC
  5
4599
330
19
100
AcDbEntity
  8
FUTO
100
AcDbCircle
 10
12257.25460744111
 20
4476.74678770162
 30
0.0
 40
4.8
100
AcDbArc
 50
89.99999999999998
 51
180.0
  0
ARC
  5
459A
330
19
100
AcDbEntity
  8
FUTO
100
AcDbCircle
 10
12257.25460744111
 20
4476.74678770162
 30
0.0
 40
2.4
100
AcDbArc
 50
89.99999999999998
 51
180.0
  0
LINE
  5
459B
330
19
100
AcDbEntity
  8
FUTO
100
AcDbLine
 10
12252.45460744111
 20
4453.946787701622
 30
0.0
 11
12254.85460744111
 21
4453.946787701622
 31
0.0
  0
ARC
  5
459C
330
19
100
AcDbEntity
  8
1
100
AcDbCircle
 10
12266.25440744111
 20
4499.08219450908
 30
0.0
 40
1.7998
100
AcDbArc
 50
179.9961000000213
 51
257.5983000000071
  0
LINE
  5
459D
330
19
100
AcDbEntity
  8
1
100
AcDbLine
 10
12340.45460744111
 20
4485.635294509079
 30
0.0
 11
12340.45460744111
 21
4523.635294509079
 31
0.0
  0
ARC
  5
459E
330
19
100
AcDbEntity
  8
1
100
AcDbCircle
 10
12315.45470744111
 20
4486.635294509079
 30
0.0
 40
1.000099999999999
100
AcDbArc
 50
180.0
 51
269.9965000000103
  0
LINE
  5
459F
330
19
100
AcDbEntity
  8
1
100
AcDbLine
 10
12340.45460744111
 20
4485.635294509079
 30
0.0
 11
12315.45460744111
 21
4485.635294509079
 31
0.0
  0
LINE
  5
45A0
330
19
100
AcDbEntity
  8
1
100
AcDbLine
 10
12340.35510744111
 20
4497.63529450908
 30
0.0
 11
12351.93629758196
 21
4497.63529450908
 31
0.0
  0
LINE
  5
45A1
330
19
100
AcDbEntity
  8
1
100
AcDbLine
 10
12340.45460744111
 20
4523.635294509079
 30
0.0
 11
12354.45460744111
 21
4532.63529450908
 31
0.0
  0
LINE
  5
45A2
330
19
100
AcDbEntity
  8
1
100
AcDbLine
 10
12314.45460744111
 20
4679.635294509079
 30
0.0
 11
12265.83450744111
 21
4667.966494509079
 31
0.0
  0
ARC
  5
45A3
330
19
100
AcDbEntity
  8
1
100
AcDbCircle
 10
12266.25450744111
 20
4666.216294509079
 30
0.0
 40
1.7999
100
AcDbArc
 50
103.4933999999954
 51
180.0018999999831
  0
LINE
  5
45A4
330
19
100
AcDbEntity
  8
1
100
AcDbLine
 10
12354.28630744111
 20
4669.07599450908
 30
0.0
 11
12362.11490744111
 21
4682.635294509079
 31
0.0
  0
ARC
  5
45A5
330
19
100
AcDbEntity
  8
1
100
AcDbCircle
 10
12315.95460744111
 20
4681.93529450908
 30
0.0
 40
1.5
100
AcDbArc
 50
89.99999999999998
 51
180.0
  0
LINE
  5
45A6
330
19
100
AcDbEntity
  8
1
100
AcDbLine
 10
12354.45460744111
 20
4683.43529450908
 30
0.0
 11
12315.95460744111
 21
4683.43529450908
 31
0.0
  0
LINE
  5
45A7
330
19
100
AcDbEntity
  8
1
100
AcDbLine
 10
12437.45460744111
 20
4682.635294509079
 30
0.0
 11
12362.11490744111
 21
4682.635294509079
 31
0.0
  0
LWPOLYLINE
  5
45A8
330
19
100
AcDbEntity
  8
1
100
AcDbPolyline
 90
        3
 70
     0
 43
0.0
 10
12563.45460744111
 20
4777.953405346614
 10
12563.45460744111
 20
4582.63529450908
 10
12563.45460744111
 20
4227.63529450908
  0
LWPOLYLINE
  5
45AA
330
19
100
AcDbEntity
  8
1
100
AcDbPolyline
 90
        2
 70
     0
 43
0.0
 10
12560.25460744111
 20
4774.510955866623
 10
12560.25460744111
 20
4227.63529450908
  0
LWPOLYLINE
  5
45AB
330
19
100
AcDbEntity
  8
1
100
AcDbPolyline
 90
        2
 70
     0
 43
0.0
 10
12603.45460744111
 20
4230.83529450908
 10
12603.45460744111
 20
4227.635294509079
  0
LINE
  5
45AC
330
19
100
AcDbEntity
  8
1
100
AcDbLine
 10
12563.45460744111
 20
4230.83529450908
 30
0.0
 11
12603.45460744111
 21
4230.83529450908
 31
0.0
  0
DIMENSION
  5
45AE
330
19
100
AcDbEntity
  8
SP
100
AcDbDimension
  2
*D8
 10
12980.22321274516
 20
4425.135294509079
 30
0.0
 11
12942.72321274516
 21
4582.63529450908
 31
0.0
 70
    32
 71
     5
 42
315.0
  3
GOD
100
AcDbAlignedDimension
 13
12806.45460744111
 23
4740.135294509079
 33
0.0
 14
12806.45460744111
 24
4425.135294509079
 34
0.0
 50
90.0
100
AcDbRotatedDimension
1001
ACAD
1000
DSTYLE
1002
{
1070
     3
1000
\U+03C6<>
1002
}
  0
LINE
  5
45AF
330
19
100
AcDbEntity
  8
1
100
AcDbLine
 10
12573.45460744111
 20
4882.635294509081
 30
0.0
 11
12573.45460744111
 21
4374.635294509078
 31
0.0
  0
LINE
  5
45B0
330
19
100
AcDbEntity
  8
1
100
AcDbLine
 10
12797.4546074411
 20
4882.635294509081
 30
0.0
 11
12797.45460744111
 21
4374.635294509078
 31
0.0
  0
LINE
  5
45B2
330
19
100
AcDbEntity
  8
1
100
AcDbLine
 10
12588.45460744111
 20
4359.635294509078
 30
0.0
 11
12782.45460744111
 21
4359.635294509078
 31
0.0
  0
ARC
  5
45B4
330
19
100
AcDbEntity
  8
1
100
AcDbCircle
 10
12565.45460744111
 20
4401.135294509078
 30
0.0
 40
1.0
100
AcDbArc
 50
180.0
 51
270.0
  0
LINE
  5
45B5
330
19
100
AcDbEntity
  8
1
100
AcDbLine
 10
12572.45460744111
 20
4400.135294509079
 30
0.0
 11
12565.45460744111
 21
4400.135294509079
 31
0.0
  0
LINE
  5
45C4
330
19
100
AcDbEntity
  8
1
100
AcDbLine
 10
12571.45460744111
 20
4765.135294509079
 30
0.0
 11
12565.45460744111
 21
4765.135294509079
 31
0.0
  0
ARC
  5
45C5
330
19
100
AcDbEntity
  8
1
100
AcDbCircle
 10
12571.45460744111
 20
4766.135294509078
 30
0.0
 40
1.0
100
AcDbArc
 50
270.0
 51
0.0
  0
ARC
  5
45C6
330
19
100
AcDbEntity
  8
1
100
AcDbCircle
 10
12565.45460744111
 20
4764.135294509078
 30
0.0
 40
1.0
100
AcDbArc
 50
89.99999999999998
 51
180.0
  0
LINE
  5
45C7
330
19
100
AcDbEntity
  8
1
100
AcDbLine
 10
12799.45460744111
 20
4765.135294509079
 30
0.0
 11
12805.45460744111
 21
4765.135294509079
 31
0.0
  0
ARC
  5
45C9
330
19
100
AcDbEntity
  8
1
100
AcDbCircle
 10
12799.45460744111
 20
4766.135294509078
 30
0.0
 40
1.0
100
AcDbArc
 50
180.0
 51
270.0
  0
ARC
  5
45CB
330
19
100
AcDbEntity
  8
1
100
AcDbCircle
 10
12805.45460744111
 20
4764.135294509078
 30
0.0
 40
1.0
100
AcDbArc
 50
0.0
 51
89.99999999999998
  0
DIMENSION
  5
45CE
330
19
100
AcDbEntity
  8
SP
100
AcDbDimension
  2
*D6
 10
12797.4546074411
 20
5013.635294509075
 30
0.0
 11
12685.4546074411
 21
5051.135294509075
 31
0.0
 70
    32
 71
     5
 42
223.9999999999927
  3
GOD
100
AcDbAlignedDimension
 13
12573.45460744111
 23
4882.635294509081
 33
0.0
 14
12797.4546074411
 24
4882.635294509081
 34
0.0
100
AcDbRotatedDimension
  0
LINE
  5
45CF
330
19
100
AcDbEntity
  8
FUTO
100
AcDbLine
 10
12577.45460744111
 20
4919.135294509075
 30
0.0
 11
12793.45460744111
 21
4919.135294509075
 31
0.0
  0
ARC
  5
45D1
330
19
100
AcDbEntity
  8
FUTO
100
AcDbCircle
 10
12577.45460744111
 20
4894.135294509075
 30
0.0
 40
25.0
100
AcDbArc
 50
90.0
 51
180.0
  0
ARC
  5
45D3
330
19
100
AcDbEntity
  8
FUTO
100
AcDbCircle
 10
12793.45460744111
 20
4894.135294509075
 30
0.0
 40
25.0
100
AcDbArc
 50
0.0
 51
90.00000000000104
  0
LINE
  5
4653
330
19
100
AcDbEntity
  8
FUTO
100
AcDbLine
 10
12588.45460744111
 20
4897.635294509081
 30
0.0
 11
12782.4546074411
 21
4897.635294509081
 31
0.0
  0
ARC
  5
4669
330
19
100
AcDbEntity
  8
FUTO
100
AcDbCircle
 10
12588.45460744111
 20
4882.635294509081
 30
0.0
 40
15.0
100
AcDbArc
 50
90.0
 51
180.0
  0
ARC
  5
466A
330
19
100
AcDbEntity
  8
FUTO
100
AcDbCircle
 10
12782.4546074411
 20
4882.635294509081
 30
0.0
 40
15.0
100
AcDbArc
 50
0.0000000000010178
 51
90.0
  0
ARC
  5
467D
330
19
100
AcDbEntity
  8
1
100
AcDbCircle
 10
12588.45460744111
 20
4374.635294509078
 30
0.0
 40
15.0
100
AcDbArc
 50
180.0000000000002
 51
270.0000000000002
  0
ARC
  5
467E
330
19
100
AcDbEntity
  8
1
100
AcDbCircle
 10
12782.45460744111
 20
4374.635294509078
 30
0.0
 40
15.0
100
AcDbArc
 50
270.0000000000003
 51
0.0000000000010178
  0
DIMENSION
  5
4BEF
330
19
100
AcDbEntity
  8
SP
100
AcDbDimension
  2
*D9
 10
10951.18288508549
 20
5934.362935220168
 30
0.0
 11
10913.68288508549
 21
6076.86293522017
 31
0.0
 70
    32
 71
     5
 42
-1.0
  3
GOD
100
AcDbAlignedDimension
 13
11125.05558752167
 23
5812.362935220167
 33
0.0
 14
11077.43403925518
 24
5934.362935220168
 34
0.0
 50
90.0
100
AcDbRotatedDimension
  0
LINE
  5
4BF0
330
19
100
AcDbEntity
  8
1
100
AcDbLine
 10
11125.05558752167
 20
6067.362935220167
 30
0.0
 11
11125.05558752167
 21
5801.362935220168
 31
0.0
  0
LINE
  5
4BF1
330
19
100
AcDbEntity
  8
1
100
AcDbLine
 10
11145.05558752167
 20
6028.562935220169
 30
0.0
 11
11145.05558752167
 21
5840.16293522017
 31
0.0
  0
LINE
  5
4BF2
330
19
100
AcDbEntity
  8
1
100
AcDbLine
 10
11126.25558752166
 20
6067.362935220169
 30
0.0
 11
11126.25558752166
 21
5801.362935220168
 31
0.0
  0
LINE
  5
4BF3
330
19
100
AcDbEntity
  8
2
100
AcDbLine
 10
11375.05558752167
 20
5448.182908544904
 30
0.0
 11
11375.05558752167
 21
6075.364287666135
 31
0.0
  0
LINE
  5
4BF4
330
19
100
AcDbEntity
  8
1
100
AcDbLine
 10
11639.05558752167
 20
6032.362935220169
 30
0.0
 11
11639.05558752167
 21
5836.362935220169
 31
0.0
  0
DIMENSION
  5
4BF5
330
19
100
AcDbEntity
  8
SP
100
AcDbDimension
  2
*D10
 10
11125.05558752167
 20
5297.81776229679
 30
0.0
 11
11375.05558752167
 21
5335.31776229679
 31
0.0
 70
    32
 71
     5
 42
-1.0
  3
GOD
100
AcDbAlignedDimension
 13
11625.05558752167
 23
5502.362935220169
 33
0.0
 14
11125.05558752167
 24
5502.362935220169
 34
0.0
 50
180.0
100
AcDbRotatedDimension
  0
LINE
  5
4BF7
330
19
100
AcDbEntity
  8
1
100
AcDbLine
 10
11125.05558752167
 20
5821.362935220168
 30
0.0
 11
11375.05558752167
 21
5821.362935220168
 31
0.0
  0
LWPOLYLINE
  5
4BF8
330
19
100
AcDbEntity
  8
1
100
AcDbPolyline
 90
        3
 70
     0
 43
0.0
 10
11193.55558752167
 20
5813.362935220169
 10
11375.05558752167
 20
5813.362935220169
 10
11395.38589030149
 20
5813.362935220169
  0
LINE
  5
4BF9
330
19
100
AcDbEntity
  8
2
100
AcDbLine
 10
11700.41871636757
 20
5934.362935220168
 30
0.0
 11
11077.43403925518
 21
5934.362935220168
 31
0.0
1001
ACAD
1000
ASC_BOUNDS
1002
{
1070
    19
1005
0
1005
0
1002
}
  0
DIMENSION
  5
4BFE
330
19
100
AcDbEntity
  8
SP
100
AcDbDimension
  2
*D11
 10
10951.18288508549
 20
5502.362935220169
 30
0.0
 11
10913.68288508549
 21
5657.36293522017
 31
0.0
 70
    32
 71
     5
 42
-1.0
  3
GOD
100
AcDbAlignedDimension
 13
11125.05558752167
 23
5812.362935220167
 33
0.0
 14
11125.05558752167
 24
5502.362935220169
 34
0.0
 50
90.0
100
AcDbRotatedDimension
  0
LINE
  5
4C03
330
19
100
AcDbEntity
  8
1
100
AcDbLine
 10
11126.25558752166
 20
5821.362935220168
 30
0.0
 11
11145.05558752167
 21
5840.16293522017
 31
0.0
  0
LINE
  5
4C04
330
19
100
AcDbEntity
  8
1
100
AcDbLine
 10
11194.55558752167
 20
5814.362935220168
 30
0.0
 11
11222.2562891811
 21
5814.362935220168
 31
0.0
  0
ARC
  5
4C05
330
19
100
AcDbEntity
  8
1
100
AcDbCircle
 10
11195.40100733368
 20
5854.936788372067
 30
0.0
 40
48.65638419258441
100
AcDbArc
 50
303.5000336652645
 51
316.3683487231641
  0
LINE
  5
4C07
330
19
100
AcDbEntity
  8
1
100
AcDbLine
 10
11125.05558752167
 20
5801.362935220168
 30
0.0
 11
11126.25558752166
 21
5801.362935220168
 31
0.0
1001
ACAD
1000
ASC_BOUNDS
1002
{
1070
    19
1002
}
  0
ARC
  5
4C0B
330
19
100
AcDbEntity
  8
1
100
AcDbCircle
 10
11191.55558752167
 20
5820.362935220169
 30
0.0
 40
1.0
100
AcDbArc
 50
0.000000000000007
 51
90.0
  0
LINE
  5
4C0C
330
19
100
AcDbEntity
  8
1
100
AcDbLine
 10
11192.55558752167
 20
5820.362935220169
 30
0.0
 11
11192.55558752167
 21
5814.362935220168
 31
0.0
  0
LINE
  5
4C0D
330
19
100
AcDbEntity
  8
1
100
AcDbLine
 10
11193.55558752167
 20
5821.362935220168
 30
0.0
 11
11193.55558752167
 21
5815.362935220169
 31
0.0
  0
ARC
  5
4C0E
330
19
100
AcDbEntity
  8
1
100
AcDbCircle
 10
11193.55558752166
 20
5814.362935220168
 30
0.0
 40
1.0
100
AcDbArc
 50
180.0
 51
270.0
  0
ARC
  5
4C0F
330
19
100
AcDbEntity
  8
1
100
AcDbCircle
 10
11194.55558752167
 20
5815.362935220169
 30
0.0
 40
1.0
100
AcDbArc
 50
180.0
 51
270.0
  0
ARC
  5
4C10
330
19
100
AcDbEntity
  8
1
100
AcDbCircle
 10
11193.55558752167
 20
5814.362935220168
 30
0.0
 40
1.0
100
AcDbArc
 50
180.0
 51
270.0
  0
LINE
  5
4C11
330
19
100
AcDbEntity
  8
1
100
AcDbLine
 10
11475.05558752167
 20
5612.023235220171
 30
0.0
 11
11475.05558752167
 21
5762.702635220169
 31
0.0
  0
LINE
  5
4C12
330
19
100
AcDbEntity
  8
1
100
AcDbLine
 10
11275.05558752167
 20
5762.702635220169
 30
0.0
 11
11275.05558752167
 21
5612.023235220171
 31
0.0
  0
LINE
  5
4C16
330
19
100
AcDbEntity
  8
1
100
AcDbLine
 10
11472.05558752167
 20
5564.362935220168
 30
0.0
 11
11460.38678752167
 21
5515.742835220169
 31
0.0
  0
LINE
  5
4C18
330
19
100
AcDbEntity
  8
1
100
AcDbLine
 10
11278.05558752167
 20
5564.362935220168
 30
0.0
 11
11289.72438752167
 21
5515.742835220169
 31
0.0
  0
ARC
  5
4C19
330
19
100
AcDbEntity
  8
1
100
AcDbCircle
 10
11458.63658752167
 20
5516.162835220169
 30
0.0
 40
1.7999
100
AcDbArc
 50
269.9981000000006
 51
346.5066000000023
  0
ARC
  5
4C1A
330
19
100
AcDbEntity
  8
1
100
AcDbCircle
 10
11291.47458752167
 20
5516.162835220169
 30
0.0
 40
1.7999
100
AcDbArc
 50
193.4933999999977
 51
270.0018999999994
  0
LINE
  5
4C1B
330
19
100
AcDbEntity
  8
1
100
AcDbLine
 10
11291.50268752167
 20
5514.362935220169
 30
0.0
 11
11458.63648752167
 21
5514.362935220169
 31
0.0
  0
LINE
  5
4C1C
330
19
100
AcDbEntity
  8
1
100
AcDbLine
 10
11291.50268752167
 20
5514.362935220169
 30
0.0
 11
11458.63648752166
 21
5514.362935220169
 31
0.0
  0
LINE
  5
4C20
330
19
100
AcDbEntity
  8
1
100
AcDbLine
 10
11461.49628752167
 20
5604.19463522017
 30
0.0
 11
11475.05558752167
 21
5612.023235220171
 31
0.0
  0
LINE
  5
4C21
330
19
100
AcDbEntity
  8
1
100
AcDbLine
 10
11279.05558752167
 20
5564.362935220168
 30
0.0
 11
11474.35558752167
 21
5564.362935220168
 31
0.0
  0
LINE
  5
4C22
330
19
100
AcDbEntity
  8
1
100
AcDbLine
 10
11475.85558752167
 20
5604.362935220169
 30
0.0
 11
11274.25558752167
 21
5604.362935220169
 31
0.0
  0
LINE
  5
4C23
330
19
100
AcDbEntity
  8
1
100
AcDbLine
 10
11274.25558752167
 20
5604.362935220169
 30
0.0
 11
11274.25558752167
 21
5565.862935220168
 31
0.0
  0
ARC
  5
4C24
330
19
100
AcDbEntity
  8
1
100
AcDbCircle
 10
11275.75558752167
 20
5565.862935220168
 30
0.0
 40
1.5
100
AcDbArc
 50
180.0
 51
270.0
  0
LINE
  5
4C25
330
19
100
AcDbEntity
  8
1
100
AcDbLine
 10
11288.61488752167
 20
5604.19463522017
 30
0.0
 11
11275.05558752167
 21
5612.023235220171
 31
0.0
  0
LINE
  5
4C27
330
19
100
AcDbEntity
  8
1
100
AcDbLine
 10
11475.85558752167
 20
5604.362935220169
 30
0.0
 11
11475.85558752167
 21
5565.862935220168
 31
0.0
  0
ARC
  5
4C28
330
19
100
AcDbEntity
  8
1
100
AcDbCircle
 10
11474.35558752167
 20
5565.862935220168
 30
0.0
 40
1.5
100
AcDbArc
 50
270.0
 51
0.000000000000007
  0
ARC
  5
4C29
330
19
100
AcDbEntity
  8
1
100
AcDbCircle
 10
11624.05558752167
 20
5836.362935220169
 30
0.0
 40
15.0
100
AcDbArc
 50
270.0
 51
0.000000000000007
  0
LINE
  5
4C2A
330
19
100
AcDbEntity
  8
1
100
AcDbLine
 10
11475.05558752167
 20
5762.702635220169
 30
0.0
 11
11460.05558752167
 21
5771.362935220168
 31
0.0
  0
LWPOLYLINE
  5
4C2C
330
19
100
AcDbEntity
  8
1
100
AcDbPolyline
 90
        2
 70
     0
 43
0.0
 10
11395.38589030149
 20
5813.362935220169
 10
11556.55558752166
 20
5813.362935220169
  0
LINE
  5
4C2D
330
19
100
AcDbEntity
  8
1
100
AcDbLine
 10
11375.05558752167
 20
5821.362935220173
 30
0.0
 11
11624.05558752166
 21
5821.362935220168
 31
0.0
  0
LINE
  5
4C2E
330
19
100
AcDbEntity
  8
1
100
AcDbLine
 10
11460.05558752167
 20
5771.362935220168
 30
0.0
 11
11460.05558752167
 21
5789.090614653588
 31
0.0
  0
LINE
  5
4C2F
330
19
100
AcDbEntity
  8
1
100
AcDbLine
 10
11460.05558752167
 20
5774.362935220168
 30
0.0
 11
11460.05558752167
 21
5771.362935220168
 31
0.0
  0
ARC
  5
4C30
330
19
100
AcDbEntity
  8
1
100
AcDbCircle
 10
11457.05568752167
 20
5789.090614653588
 30
0.0
 40
2.999899999999999
100
AcDbArc
 50
359.9988000000029
 51
90.00120000000034
  0
LINE
  5
4C31
330
19
100
AcDbEntity
  8
1
100
AcDbLine
 10
11338.05558752167
 20
5798.090614653588
 30
0.0
 11
11412.05558752167
 21
5798.090614653588
 31
0.0
  0
ARC
  5
4C32
330
19
100
AcDbEntity
  8
1
100
AcDbCircle
 10
11412.05568752167
 20
5795.090614653588
 30
0.0
 40
2.999899999999999
100
AcDbArc
 50
359.9988000000029
 51
90.00120000000034
  0
LINE
  5
4C33
330
19
100
AcDbEntity
  8
1
100
AcDbLine
 10
11415.05558752167
 20
5792.090614653588
 30
0.0
 11
11415.05558752167
 21
5795.090614653588
 31
0.0
  0
LINE
  5
4C34
330
19
100
AcDbEntity
  8
1
100
AcDbLine
 10
11360.45568752167
 20
5798.090614653588
 30
0.0
 11
11360.45568752167
 21
5821.362935220168
 31
0.0
  0
LINE
  5
4C35
330
19
100
AcDbEntity
  8
1
100
AcDbLine
 10
11389.65558752167
 20
5798.090614653588
 30
0.0
 11
11389.65558752167
 21
5821.362935220173
 31
0.0
  0
LINE
  5
4C36
330
19
100
AcDbEntity
  8
1
100
AcDbLine
 10
11290.05558752167
 20
5771.362935220168
 30
0.0
 11
11290.05558752167
 21
5789.090614653588
 31
0.0
  0
LINE
  5
4C37
330
19
100
AcDbEntity
  8
1
100
AcDbLine
 10
11290.05558752167
 20
5774.362935220168
 30
0.0
 11
11290.05558752167
 21
5771.362935220168
 31
0.0
  0
LINE
  5
4C38
330
19
100
AcDbEntity
  8
1
100
AcDbLine
 10
11275.05558752167
 20
5762.702635220169
 30
0.0
 11
11290.05558752167
 21
5771.362935220168
 31
0.0
  0
ARC
  5
4C39
330
19
100
AcDbEntity
  8
1
100
AcDbCircle
 10
11293.05548752167
 20
5789.090614653588
 30
0.0
 40
2.999899999999999
100
AcDbArc
 50
89.99879999999967
 51
180.0011999999971
  0
LINE
  5
4C3A
330
19
100
AcDbEntity
  8
1
100
AcDbLine
 10
11335.05558752167
 20
5792.090614653588
 30
0.0
 11
11335.05558752167
 21
5795.090614653588
 31
0.0
  0
ARC
  5
4C3B
330
19
100
AcDbEntity
  8
1
100
AcDbCircle
 10
11338.05558752167
 20
5795.090614653588
 30
0.0
 40
2.999899999999999
100
AcDbArc
 50
89.99879999999967
 51
180.0011999999971
  0
LINE
  5
4C3C
330
19
100
AcDbEntity
  8
1
100
AcDbLine
 10
11290.05558752167
 20
5771.362935220168
 30
0.0
 11
11460.05558752167
 21
5771.362935220168
 31
0.0
  0
LINE
  5
4C3D
330
19
100
AcDbEntity
  8
1
100
AcDbLine
 10
11457.05558752167
 20
5792.090614653588
 30
0.0
 11
11293.05558752167
 21
5792.090614653588
 31
0.0
  0
ARC
  5
4C42
330
19
100
AcDbEntity
  8
1
100
AcDbCircle
 10
11554.71016770966
 20
5854.936788372067
 30
0.0
 40
48.65638419258441
100
AcDbArc
 50
223.6316512768358
 51
236.4999663347355
  0
ARC
  5
4C43
330
19
100
AcDbEntity
  8
1
100
AcDbCircle
 10
11555.55558752167
 20
5815.362935220169
 30
0.0
 40
1.0
100
AcDbArc
 50
270.0
 51
0.000000000000007
  0
ARC
  5
4C44
330
19
100
AcDbEntity
  8
1
100
AcDbCircle
 10
11556.55558752167
 20
5814.362935220168
 30
0.0
 40
1.0
100
AcDbArc
 50
270.0
 51
0.000000000000007
  0
LINE
  5
4C45
330
19
100
AcDbEntity
  8
1
100
AcDbLine
 10
11556.55558752167
 20
5821.362935220167
 30
0.0
 11
11556.55558752167
 21
5815.362935220167
 31
0.0
  0
LINE
  5
4C46
330
19
100
AcDbEntity
  8
1
100
AcDbLine
 10
11557.55558752167
 20
5820.362935220169
 30
0.0
 11
11557.55558752167
 21
5814.362935220167
 31
0.0
  0
ARC
  5
4C47
330
19
100
AcDbEntity
  8
1
100
AcDbCircle
 10
11558.55558752167
 20
5820.362935220169
 30
0.0
 40
1.0
100
AcDbArc
 50
90.0
 51
180.0
  0
LINE
  5
4C48
330
19
100
AcDbEntity
  8
1
100
AcDbLine
 10
11555.55558752167
 20
5814.362935220167
 30
0.0
 11
11527.85488586223
 21
5814.362935220168
 31
0.0
  0
LWPOLYLINE
  5
4C49
330
19
100
AcDbEntity
  8
1
100
AcDbPolyline
 90
        3
 70
     0
 43
0.0
 10
11193.55558752167
 20
6055.362935220169
 10
11375.05558752167
 20
6055.362935220169
 10
11395.38589030149
 20
6055.362935220169
  0
LINE
  5
4C4A
330
19
100
AcDbEntity
  8
1
100
AcDbLine
 10
11125.05558752167
 20
6047.362935220169
 30
0.0
 11
11375.05558752167
 21
6047.362935220169
 31
0.0
  0
LINE
  5
4C4B
330
19
100
AcDbEntity
  8
1
100
AcDbLine
 10
11194.55558752167
 20
6054.362935220169
 30
0.0
 11
11222.2562891811
 21
6054.362935220169
 31
0.0
  0
ARC
  5
4C4C
330
19
100
AcDbEntity
  8
1
100
AcDbCircle
 10
11195.40100733368
 20
6013.789082068271
 30
0.0
 40
48.65638419258441
100
AcDbArc
 50
43.63165127683589
 51
56.49996633473549
  0
ARC
  5
4C4D
330
19
100
AcDbEntity
  8
1
100
AcDbCircle
 10
11193.55558752167
 20
6054.362935220169
 30
0.0
 40
1.0
100
AcDbArc
 50
89.99999999999998
 51
180.0
  0
ARC
  5
4C4E
330
19
100
AcDbEntity
  8
1
100
AcDbCircle
 10
11194.55558752167
 20
6053.362935220168
 30
0.0
 40
1.0
100
AcDbArc
 50
89.99999999999998
 51
180.0
  0
ARC
  5
4C4F
330
19
100
AcDbEntity
  8
1
100
AcDbCircle
 10
11193.55558752166
 20
6054.362935220169
 30
0.0
 40
1.0
100
AcDbArc
 50
89.99999999999998
 51
180.0
  0
LINE
  5
4C50
330
19
100
AcDbEntity
  8
1
100
AcDbLine
 10
11193.55558752167
 20
6047.362935220169
 30
0.0
 11
11193.55558752167
 21
6053.362935220168
 31
0.0
  0
LINE
  5
4C51
330
19
100
AcDbEntity
  8
1
100
AcDbLine
 10
11192.55558752167
 20
6048.362935220168
 30
0.0
 11
11192.55558752167
 21
6054.362935220169
 31
0.0
  0
ARC
  5
4C52
330
19
100
AcDbEntity
  8
1
100
AcDbCircle
 10
11191.55558752167
 20
6048.362935220168
 30
0.0
 40
1.0
100
AcDbArc
 50
270.0
 51
0.000000000000007
  0
LINE
  5
4C53
330
19
100
AcDbEntity
  8
1
100
AcDbLine
 10
11125.05558752167
 20
6067.362935220169
 30
0.0
 11
11126.25558752166
 21
6067.362935220169
 31
0.0
1001
ACAD
1000
ASC_BOUNDS
1002
{
1070
    19
1002
}
  0
LINE
  5
4C54
330
19
100
AcDbEntity
  8
1
100
AcDbLine
 10
11126.25558752166
 20
6047.362935220169
 30
0.0
 11
11145.05558752167
 21
6028.562935220169
 31
0.0
  0
LWPOLYLINE
  5
4C55
330
19
100
AcDbEntity
  8
1
100
AcDbPolyline
 90
        2
 70
     0
 43
0.0
 10
11395.38589030149
 20
6055.362935220169
 10
11556.55558752166
 20
6055.362935220169
  0
LINE
  5
4C56
330
19
100
AcDbEntity
  8
1
100
AcDbLine
 10
11375.05558752167
 20
6047.362935220167
 30
0.0
 11
11624.05558752167
 21
6047.362935220169
 31
0.0
  0
LINE
  5
4C57
330
19
100
AcDbEntity
  8
1
100
AcDbLine
 10
11555.55558752167
 20
6054.36293522017
 30
0.0
 11
11527.85488586223
 21
6054.362935220169
 31
0.0
  0
ARC
  5
4C58
330
19
100
AcDbEntity
  8
1
100
AcDbCircle
 10
11558.55558752167
 20
6048.362935220168
 30
0.0
 40
1.0
100
AcDbArc
 50
180.0
 51
270.0
  0
LINE
  5
4C59
330
19
100
AcDbEntity
  8
1
100
AcDbLine
 10
11557.55558752167
 20
6048.362935220168
 30
0.0
 11
11557.55558752167
 21
6054.36293522017
 31
0.0
  0
LINE
  5
4C5A
330
19
100
AcDbEntity
  8
1
100
AcDbLine
 10
11556.55558752167
 20
6047.362935220171
 30
0.0
 11
11556.55558752167
 21
6053.362935220171
 31
0.0
  0
ARC
  5
4C5B
330
19
100
AcDbEntity
  8
1
100
AcDbCircle
 10
11556.55558752167
 20
6054.362935220169
 30
0.0
 40
1.0
100
AcDbArc
 50
0.000000000000007
 51
89.99999999999998
  0
ARC
  5
4C5C
330
19
100
AcDbEntity
  8
1
100
AcDbCircle
 10
11555.55558752167
 20
6053.362935220168
 30
0.0
 40
1.0
100
AcDbArc
 50
0.000000000000007
 51
89.99999999999998
  0
ARC
  5
4C5D
330
19
100
AcDbEntity
  8
1
100
AcDbCircle
 10
11554.71016770966
 20
6013.789082068271
 30
0.0
 40
48.65638419258441
100
AcDbArc
 50
123.5000336652645
 51
136.3683487231641
  0
ARC
  5
4C5E
330
19
100
AcDbEntity
  8
1
100
AcDbCircle
 10
11624.05558752167
 20
6032.362935220169
 30
0.0
 40
15.0
100
AcDbArc
 50
0.000000000000007
 51
90.0
  0
ARC
  5
4E35
330
19
100
AcDbEntity
  8
FUTO
100
AcDbCircle
 10
12793.45460744111
 20
4586.135294509076
 30
0.0
 40
25.0
100
AcDbArc
 50
301.3322514975947
 51
359.9999999999979
  0
LINE
  5
570C
330
19
100
AcDbEntity
  8
FUTO
100
AcDbLine
 10
11125.05558752169
 20
4227.635294509079
 30
0.0
 11
11625.05558752167
 21
4227.635294509079
 31
0.0
  0
LINE
  5
570D
330
19
100
AcDbEntity
  8
1
100
AcDbLine
 10
11125.05558752169
 20
4229.935294509078
 30
0.0
 11
11162.75558752169
 21
4229.935294509078
 31
0.0
  0
LINE
  5
570E
330
19
100
AcDbEntity
  8
1
100
AcDbLine
 10
11125.05558752169
 20
4229.935294509078
 30
0.0
 11
11125.05558752169
 21
4227.635294509079
 31
0.0
  0
LINE
  5
570F
330
19
100
AcDbEntity
  8
2
100
AcDbLine
 10
11143.05558752168
 20
4145.288408389977
 30
0.0
 11
11143.05558752168
 21
4241.139306172911
 31
0.0
  0
LINE
  5
5710
330
19
100
AcDbEntity
  8
1
100
AcDbLine
 10
11625.05558752167
 20
4229.935294509078
 30
0.0
 11
11587.35558752167
 21
4229.935294509078
 31
0.0
  0
LINE
  5
5711
330
19
100
AcDbEntity
  8
1
100
AcDbLine
 10
11625.05558752167
 20
4229.935294509078
 30
0.0
 11
11625.05558752167
 21
4227.635294509079
 31
0.0
  0
LINE
  5
5712
330
19
100
AcDbEntity
  8
2
100
AcDbLine
 10
11607.05558752168
 20
4145.288408389977
 30
0.0
 11
11607.05558752168
 21
4241.139306172911
 31
0.0
  0
LINE
  5
5713
330
19
100
AcDbEntity
  8
1
100
AcDbLine
 10
11587.35558752167
 20
4665.735294509079
 30
0.0
 11
11587.35558752167
 21
4229.935294509076
 31
0.0
  0
LINE
  5
5714
330
19
100
AcDbEntity
  8
1
100
AcDbLine
 10
11585.05558752167
 20
4667.557616667706
 30
0.0
 11
11585.05558752167
 21
4227.635294509079
 31
0.0
  0
LINE
  5
5715
330
19
100
AcDbEntity
  8
1
100
AcDbLine
 10
11545.05558752167
 20
4482.635294509079
 30
0.0
 11
11545.05558752167
 21
4282.63529450908
 31
0.0
  0
LINE
  5
5716
330
19
100
AcDbEntity
  8
1
100
AcDbLine
 10
11585.05558752167
 20
4282.63529450908
 30
0.0
 11
11545.05558752167
 21
4282.63529450908
 31
0.0
  0
LINE
  5
5717
330
19
100
AcDbEntity
  8
1
100
AcDbLine
 10
11165.05558752169
 20
4667.557616667706
 30
0.0
 11
11165.05558752169
 21
4227.635294509079
 31
0.0
  0
LINE
  5
5718
330
19
100
AcDbEntity
  8
1
100
AcDbLine
 10
11162.75558752169
 20
4665.735294509079
 30
0.0
 11
11162.75558752169
 21
4229.935294509076
 31
0.0
  0
LINE
  5
5719
330
19
100
AcDbEntity
  8
1
100
AcDbLine
 10
11205.05558752169
 20
4482.635294509079
 30
0.0
 11
11205.05558752169
 21
4282.63529450908
 31
0.0
  0
LINE
  5
571A
330
19
100
AcDbEntity
  8
1
100
AcDbLine
 10
11165.05558752169
 20
4282.63529450908
 30
0.0
 11
11205.05558752169
 21
4282.63529450908
 31
0.0
  0
LINE
  5
571B
330
19
100
AcDbEntity
  8
1
100
AcDbLine
 10
11165.05558752169
 20
4482.635294509079
 30
0.0
 11
11585.05558752167
 21
4482.635294509077
 31
0.0
  0
LINE
  5
571C
330
19
100
AcDbEntity
  8
1
100
AcDbLine
 10
11205.05558752169
 20
4442.635294509079
 30
0.0
 11
11375.05558752168
 21
4442.635294509079
 31
0.0
  0
LINE
  5
571D
330
19
100
AcDbEntity
  8
FUTO
100
AcDbLine
 10
11165.05558752169
 20
4482.635294509079
 30
0.0
 11
11205.05558752169
 21
4442.635294509079
 31
0.0
  0
LINE
  5
571E
330
19
100
AcDbEntity
  8
FUTO
100
AcDbLine
 10
11585.05558752167
 20
4482.635294509079
 30
0.0
 11
11545.05558752167
 21
4442.635294509079
 31
0.0
  0
LINE
  5
571F
330
19
100
AcDbEntity
  8
1
100
AcDbLine
 10
11545.05558752167
 20
4442.635294509079
 30
0.0
 11
11375.05558752168
 21
4442.635294509079
 31
0.0
  0
LINE
  5
5720
330
19
100
AcDbEntity
  8
1
100
AcDbLine
 10
11465.05558752167
 20
4787.635294509079
 30
0.0
 11
11587.35558752167
 21
4665.735294509079
 31
0.0
  0
LINE
  5
5721
330
19
100
AcDbEntity
  8
1
100
AcDbLine
 10
11285.05558752167
 20
4787.635294509079
 30
0.0
 11
11162.75558752169
 21
4665.735294509079
 31
0.0
  0
LINE
  5
5722
330
19
100
AcDbEntity
  8
1
100
AcDbLine
 10
11285.05558752167
 20
4787.635294509081
 30
0.0
 11
11465.05558752167
 21
4787.635294509079
 31
0.0
  0
LINE
  5
5934
330
19
100
AcDbEntity
  8
1
100
AcDbLine
 10
11125.05558752167
 20
5502.362935220169
 30
0.0
 11
11125.05558752167
 21
5812.362935220179
 31
0.0
  0
LINE
  5
5935
330
19
100
AcDbEntity
  8
1
100
AcDbLine
 10
11165.05558752167
 20
5502.362935220169
 30
0.0
 11
11165.05558752167
 21
5812.362935220179
 31
0.0
  0
LINE
  5
5936
330
19
100
AcDbEntity
  8
1
100
AcDbLine
 10
11165.05558752167
 20
5812.362935220179
 30
0.0
 11
11125.05558752167
 21
5812.362935220179
 31
0.0
  0
LINE
  5
5937
330
19
100
AcDbEntity
  8
CT
100
AcDbLine
 10
11127.36329932503
 20
5782.362935220169
 30
0.0
 11
11158.05558752167
 21
5782.362935220169
 31
0.0
  0
CIRCLE
  5
5938
330
19
100
AcDbEntity
  8
1
100
AcDbCircle
 10
11143.05558752166
 20
5782.362935220169
 30
0.0
 40
6.0
  0
LINE
  5
5939
330
19
100
AcDbEntity
  8
CT
100
AcDbLine
 10
11143.05558752166
 20
5798.497643102717
 30
0.0
 11
11143.05558752166
 21
5762.830563598277
 31
0.0
  0
LWPOLYLINE
  5
593A
330
19
100
AcDbEntity
  8
1
100
AcDbPolyline
 90
        2
 70
     0
 43
0.0
 10
11165.05558752167
 20
5802.866971870885
 10
11360.45558752166
 20
5802.866971870885
  0
LWPOLYLINE
  5
593B
330
19
100
AcDbEntity
  8
1
100
AcDbPolyline
 90
        2
 70
     0
 43
0.0
 10
11165.05558752167
 20
5550.76293522017
 10
11281.31958080839
 20
5550.76293522017
  0
LINE
  5
593C
330
19
100
AcDbEntity
  8
CT
100
AcDbLine
 10
11143.05558752166
 20
5548.497643102717
 30
0.0
 11
11143.05558752166
 21
5512.830563598277
 31
0.0
  0
LINE
  5
593D
330
19
100
AcDbEntity
  8
1
100
AcDbLine
 10
11125.05558752167
 20
5502.362935220169
 30
0.0
 11
11165.05558752167
 21
5502.362935220169
 31
0.0
  0
CIRCLE
  5
593E
330
19
100
AcDbEntity
  8
1
100
AcDbCircle
 10
11143.05558752166
 20
5532.362935220169
 30
0.0
 40
6.0
  0
LINE
  5
593F
330
19
100
AcDbEntity
  8
CT
100
AcDbLine
 10
11127.36329932503
 20
5532.362935220169
 30
0.0
 11
11158.05558752167
 21
5532.362935220169
 31
0.0
  0
LWPOLYLINE
  5
5940
330
19
100
AcDbEntity
  8
1
100
AcDbPolyline
 90
        2
 70
     0
 43
0.0
 10
11468.79159423494
 20
5550.76293522017
 10
11585.05558752166
 20
5550.762935220168
  0
LINE
  5
5941
330
19
100
AcDbEntity
  8
CT
100
AcDbLine
 10
11607.05558752167
 20
5548.497643102717
 30
0.0
 11
11607.05558752167
 21
5512.830563598277
 31
0.0
  0
LINE
  5
5942
330
19
100
AcDbEntity
  8
1
100
AcDbLine
 10
11585.05558752166
 20
5502.362935220173
 30
0.0
 11
11625.05558752166
 21
5502.362935220169
 31
0.0
  0
LINE
  5
5943
330
19
100
AcDbEntity
  8
CT
100
AcDbLine
 10
11622.7478757183
 20
5532.362935220169
 30
0.0
 11
11592.05558752166
 21
5532.362935220169
 31
0.0
  0
CIRCLE
  5
5944
330
19
100
AcDbEntity
  8
1
100
AcDbCircle
 10
11607.05558752167
 20
5532.362935220169
 30
0.0
 40
6.0
  0
LINE
  5
5945
330
19
100
AcDbEntity
  8
1
100
AcDbLine
 10
11625.05558752166
 20
5502.362935220169
 30
0.0
 11
11625.05558752166
 21
5812.362935220169
 31
0.0
  0
LINE
  5
5946
330
19
100
AcDbEntity
  8
1
100
AcDbLine
 10
11585.05558752166
 20
5502.362935220169
 30
0.0
 11
11585.05558752166
 21
5812.362935220169
 31
0.0
  0
CIRCLE
  5
5947
330
19
100
AcDbEntity
  8
1
100
AcDbCircle
 10
11607.05558752167
 20
5782.362935220169
 30
0.0
 40
6.0
  0
LINE
  5
5948
330
19
100
AcDbEntity
  8
CT
100
AcDbLine
 10
11607.05558752167
 20
5798.497643102717
 30
0.0
 11
11607.05558752167
 21
5762.830563598277
 31
0.0
  0
LINE
  5
5949
330
19
100
AcDbEntity
  8
FUTO
100
AcDbLine
 10
11585.05558752166
 20
5812.362935220169
 30
0.0
 11
11625.05558752167
 21
5812.362935220169
 31
0.0
  0
LWPOLYLINE
  5
594A
330
19
100
AcDbEntity
  8
1
100
AcDbPolyline
 90
        2
 70
     0
 43
0.0
 10
11389.65548752166
 20
5802.866971870885
 10
11585.05558752166
 20
5802.866971870885
  0
LINE
  5
594B
330
19
100
AcDbEntity
  8
CT
100
AcDbLine
 10
11622.7478757183
 20
5782.362935220169
 30
0.0
 11
11592.05558752166
 21
5782.362935220169
 31
0.0
  0
DIMENSION
  5
5CB4
330
19
100
AcDbEntity
  8
SP
100
AcDbDimension
  2
*D13
 10
11625.05558752167
 20
3954.160427891597
 30
0.0
 11
11500.05558752168
 21
3991.660427891598
 31
0.0
 70
    32
 71
     5
 42
-1.0
  3
GOD
100
AcDbAlignedDimension
 13
11375.05558752168
 23
4057.265404136122
 33
0.0
 14
11625.05558752167
 24
4092.635294509078
 34
0.0
100
AcDbRotatedDimension
  0
LINE
  5
5CB5
330
19
100
AcDbEntity
  8
FUTO
100
AcDbLine
 10
11165.05558752169
 20
4157.63529450908
 30
0.0
 11
11585.05558752167
 21
4157.63529450908
 31
0.0
  0
LINE
  5
5CB6
330
19
100
AcDbEntity
  8
FUTO
100
AcDbLine
 10
11165.05558752169
 20
4117.635294509079
 30
0.0
 11
11585.05558752167
 21
4117.635294509079
 31
0.0
  0
DIMENSION
  5
5CB7
330
19
100
AcDbEntity
  8
SP
100
AcDbDimension
  2
*D14
 10
11625.05558752167
 20
3828.018410149104
 30
0.0
 11
11375.05558752168
 21
3865.518410149104
 31
0.0
 70
    32
 71
     5
 42
-1.0
  3
GOD
100
AcDbAlignedDimension
 13
11125.05558752169
 23
4092.635294509078
 33
0.0
 14
11625.05558752167
 24
4092.635294509078
 34
0.0
100
AcDbRotatedDimension
  0
DIMENSION
  5
5CB8
330
19
100
AcDbEntity
  8
SP
100
AcDbDimension
  2
*D15
 10
11125.05558752169
 20
3954.160427891597
 30
0.0
 11
11250.05558752169
 21
3991.660427891598
 31
0.0
 70
    32
 71
     5
 42
-1.0
  3
GOD
100
AcDbAlignedDimension
 13
11375.05558752168
 23
4057.265404136122
 33
0.0
 14
11125.05558752169
 24
4092.635294509078
 34
0.0
100
AcDbRotatedDimension
  0
LINE
  5
5CB9
330
19
100
AcDbEntity
  8
FUTO
100
AcDbLine
 10
11165.05558752169
 20
4157.63529450908
 30
0.0
 11
11165.05558752169
 21
4092.635294509078
 31
0.0
  0
LINE
  5
5CBA
330
19
100
AcDbEntity
  8
FUTO
100
AcDbLine
 10
11161.85558752169
 20
4154.435294509079
 30
0.0
 11
11161.85558752169
 21
4095.835294509079
 31
0.0
  0
LINE
  5
5CBB
330
19
100
AcDbEntity
  8
FUTO
100
AcDbLine
 10
11125.05558752169
 20
4157.63529450908
 30
0.0
 11
11125.05558752169
 21
4154.435294509079
 31
0.0
  0
LINE
  5
5CBC
330
19
100
AcDbEntity
  8
FUTO
100
AcDbLine
 10
11125.05558752169
 20
4095.835294509081
 30
0.0
 11
11125.05558752169
 21
4092.635294509078
 31
0.0
  0
LINE
  5
5CBD
330
19
100
AcDbEntity
  8
FUTO
100
AcDbLine
 10
11125.05558752169
 20
4157.63529450908
 30
0.0
 11
11165.05558752169
 21
4157.63529450908
 31
0.0
  0
LINE
  5
5CBE
330
19
100
AcDbEntity
  8
FUTO
100
AcDbLine
 10
11125.05558752169
 20
4092.635294509078
 30
0.0
 11
11165.05558752169
 21
4092.635294509078
 31
0.0
  0
LINE
  5
5CBF
330
19
100
AcDbEntity
  8
FUTO
100
AcDbLine
 10
11125.05558752169
 20
4154.435294509079
 30
0.0
 11
11161.85558752169
 21
4154.435294509079
 31
0.0
  0
LINE
  5
5CC0
330
19
100
AcDbEntity
  8
FUTO
100
AcDbLine
 10
11125.05558752169
 20
4095.835294509079
 30
0.0
 11
11161.85558752169
 21
4095.835294509079
 31
0.0
  0
LINE
  5
5CC1
330
19
100
AcDbEntity
  8
FUTO
100
AcDbLine
 10
11625.05558752167
 20
4095.835294509079
 30
0.0
 11
11588.25558752167
 21
4095.835294509079
 31
0.0
  0
LINE
  5
5CC2
330
19
100
AcDbEntity
  8
FUTO
100
AcDbLine
 10
11625.05558752167
 20
4154.435294509079
 30
0.0
 11
11588.25558752167
 21
4154.435294509079
 31
0.0
  0
LINE
  5
5CC3
330
19
100
AcDbEntity
  8
FUTO
100
AcDbLine
 10
11625.05558752167
 20
4092.635294509078
 30
0.0
 11
11585.05558752167
 21
4092.635294509078
 31
0.0
  0
LINE
  5
5CC4
330
19
100
AcDbEntity
  8
FUTO
100
AcDbLine
 10
11625.05558752167
 20
4157.63529450908
 30
0.0
 11
11585.05558752167
 21
4157.63529450908
 31
0.0
  0
LINE
  5
5CC5
330
19
100
AcDbEntity
  8
FUTO
100
AcDbLine
 10
11625.05558752167
 20
4095.835294509081
 30
0.0
 11
11625.05558752167
 21
4092.635294509078
 31
0.0
  0
LINE
  5
5CC6
330
19
100
AcDbEntity
  8
FUTO
100
AcDbLine
 10
11625.05558752167
 20
4157.63529450908
 30
0.0
 11
11625.05558752167
 21
4154.435294509079
 31
0.0
  0
LINE
  5
5CC7
330
19
100
AcDbEntity
  8
FUTO
100
AcDbLine
 10
11588.25558752167
 20
4154.435294509079
 30
0.0
 11
11588.25558752167
 21
4095.835294509079
 31
0.0
  0
LINE
  5
5CC8
330
19
100
AcDbEntity
  8
FUTO
100
AcDbLine
 10
11585.05558752167
 20
4157.63529450908
 30
0.0
 11
11585.05558752167
 21
4092.635294509078
 31
0.0
  0
DIMENSION
  5
5F3F
330
19
100
AcDbEntity
  8
SP
100
AcDbDimension
  2
*D17
 10
10940.36541693761
 20
4157.63529450908
 30
0.0
 11
10889.40187548467
 21
4197.731374053975
 31
0.0
 70
   160
 71
     5
 42
-1.0
  3
GOD
100
AcDbAlignedDimension
 13
11125.05558752166
 23
4227.635294509079
 33
0.0
 14
11125.05558752166
 24
4157.63529450908
 34
0.0
 50
90.0
100
AcDbRotatedDimension
1001
ACAD
1000
DSTYLE
1002
{
1070
     3
1000
（<>）
1070
   279
1070
     2
1070
   289
1070
     3
1070
   343
1005
5AD4
1070
   344
1005
5AD4
1002
}
  0
DIMENSION
  5
5F40
330
19
100
AcDbEntity
  8
SP
100
AcDbDimension
  2
*D16
 10
10940.36541693761
 20
4092.635294509078
 30
0.0
 11
10902.86541693761
 21
3964.253417226481
 31
0.0
 70
    32
 71
     5
 42
-1.0
  3
GOD
100
AcDbAlignedDimension
 13
11125.05558752166
 23
4157.63529450908
 33
0.0
 14
11125.05558752166
 24
4092.635294509078
 34
0.0
 50
90.0
100
AcDbRotatedDimension
1001
ACAD
1000
DSTYLE
1002
{
1070
     6
1000
DOT
1002
}
  0
LINE
  5
6038
330
19
100
AcDbEntity
  8
FUTO
100
AcDbLine
 10
12253.45460744111
 20
4157.63529450908
 30
0.0
 11
12563.45460744111
 21
4157.63529450908
 31
0.0
  0
LINE
  5
6039
330
19
100
AcDbEntity
  8
FUTO
100
AcDbLine
 10
12253.45460744111
 20
4092.63529450908
 30
0.0
 11
12563.45460744111
 21
4092.63529450908
 31
0.0
  0
LINE
  5
603A
330
19
100
AcDbEntity
  8
FUTO
100
AcDbLine
 10
12253.45460744111
 20
4154.43529450908
 30
0.0
 11
12563.45460744111
 21
4154.43529450908
 31
0.0
  0
LINE
  5
603B
330
19
100
AcDbEntity
  8
FUTO
100
AcDbLine
 10
12253.45460744111
 20
4095.83529450908
 30
0.0
 11
12563.45460744111
 21
4095.835294509079
 31
0.0
  0
DIMENSION
  5
603C
330
19
100
AcDbEntity
  8
SP
100
AcDbDimension
  2
*D18
 10
12563.45460744111
 20
3912.411954469361
 30
0.0
 11
12408.45460744111
 21
3949.91195446936
 31
0.0
 70
    32
 71
     5
 42
-1.0
  3
GOD
100
AcDbAlignedDimension
 13
12253.45460744111
 23
4092.63529450908
 33
0.0
 14
12563.45460744111
 24
4092.63529450908
 34
0.0
100
AcDbRotatedDimension
  0
LINE
  5
603D
330
19
100
AcDbEntity
  8
FUTO
100
AcDbLine
 10
12253.45460744111
 20
4157.63529450908
 30
0.0
 11
12253.45460744111
 21
4092.63529450908
 31
0.0
  0
LINE
  5
603E
330
19
100
AcDbEntity
  8
FUTO
100
AcDbLine
 10
12563.45460744111
 20
4157.63529450908
 30
0.0
 11
12563.45460744111
 21
4092.63529450908
 31
0.0
  0
TEXT
  5
6149
330
19
100
AcDbEntity
  8
4
100
AcDbText
 10
11533.95114513362
 20
6397.953053740807
 30
0.0
 40
80.99999999999999
  1
床置防振ベッド型
100
AcDbText
  0
TEXT
  5
614A
330
19
100
AcDbEntity
  8
4
100
AcDbText
 10
12524.12014238468
 20
6397.953053740807
 30
0.0
 40
80.99999999999999
  1
縮尺：1/15
100
AcDbText
  0
LWPOLYLINE
  5
61CB
330
19
100
AcDbEntity
  8
1
100
AcDbPolyline
 90
        3
 70
     0
 43
0.0
 10
12806.45460744111
 20
4764.135294509081
 10
12806.45460744111
 20
4582.63529450908
 10
12806.45460744111
 20
4401.135294509082
  0
LINE
  5
61CC
330
19
100
AcDbEntity
  8
1
100
AcDbLine
 10
12799.45460744111
 20
4400.135294509083
 30
0.0
 11
12805.45460744111
 21
4400.135294509083
 31
0.0
  0
ARC
  5
61CD
330
19
100
AcDbEntity
  8
1
100
AcDbCircle
 10
12799.45460744111
 20
4399.135294509082
 30
0.0
 40
1.0
100
AcDbArc
 50
90.0
 51
180.0
  0
ARC
  5
61CE
330
19
100
AcDbEntity
  8
1
100
AcDbCircle
 10
12805.45460744111
 20
4401.135294509082
 30
0.0
 40
1.0
100
AcDbArc
 50
270.0
 51
0.0
  0
LINE
  5
61CF
330
19
100
AcDbEntity
  8
FUTO
100
AcDbLine
 10
12806.45460744111
 20
4425.135294509079
 30
0.0
 11
12798.45460744111
 21
4425.135294509079
 31
0.0
  0
LINE
  5
61D0
330
19
100
AcDbEntity
  8
FUTO
100
AcDbLine
 10
12806.45460744111
 20
4740.135294509079
 30
0.0
 11
12798.45460744111
 21
4740.135294509079
 31
0.0
  0
LINE
  5
61D1
330
19
100
AcDbEntity
  8
1
100
AcDbLine
 10
12799.45460744111
 20
4765.135294509081
 30
0.0
 11
12805.45460744111
 21
4765.135294509081
 31
0.0
  0
ARC
  5
61D2
330
19
100
AcDbEntity
  8
1
100
AcDbCircle
 10
12799.45460744111
 20
4766.13529450908
 30
0.0
 40
1.0
100
AcDbArc
 50
180.0
 51
270.0
  0
ARC
  5
61D3
330
19
100
AcDbEntity
  8
1
100
AcDbCircle
 10
12805.45460744111
 20
4764.13529450908
 30
0.0
 40
1.0
100
AcDbArc
 50
0.0
 51
90.0
  0
LINE
  5
61D4
330
19
100
AcDbEntity
  8
1
100
AcDbLine
 10
12588.45460744111
 20
4358.635294509077
 30
0.0
 11
12782.45460744111
 21
4358.635294509078
 31
0.0
  0
ARC
  5
61D5
330
19
100
AcDbEntity
  8
1
100
AcDbCircle
 10
12782.45460744111
 20
4374.635294509078
 30
0.0
 40
16.0
100
AcDbArc
 50
270.0000000000003
 51
0.0000000000010178
  0
LINE
  5
61D6
330
19
100
AcDbEntity
  8
1
100
AcDbLine
 10
12798.4546074411
 20
4882.635294509081
 30
0.0
 11
12798.45460744111
 21
4374.635294509078
 31
0.0
  0
LINE
  5
61D7
330
19
100
AcDbEntity
  8
1
100
AcDbLine
 10
12572.45460744111
 20
4882.635294509081
 30
0.0
 11
12572.45460744111
 21
4374.635294509078
 31
0.0
  0
ARC
  5
61D8
330
19
100
AcDbEntity
  8
1
100
AcDbCircle
 10
12588.45460744111
 20
4374.635294509078
 30
0.0
 40
16.0
100
AcDbArc
 50
180.0000000000002
 51
270.0000000000002
  0
LINE
  5
61D9
330
19
100
AcDbEntity
  8
FUTO
100
AcDbLine
 10
12588.45460744111
 20
4898.635294509081
 30
0.0
 11
12782.4546074411
 21
4898.635294509081
 31
0.0
  0
ARC
  5
61DA
330
19
100
AcDbEntity
  8
FUTO
100
AcDbCircle
 10
12588.45460744111
 20
4882.635294509081
 30
0.0
 40
16.0
100
AcDbArc
 50
90.0
 51
180.0
  0
ARC
  5
61DB
330
19
100
AcDbEntity
  8
FUTO
100
AcDbCircle
 10
12782.4546074411
 20
4882.635294509081
 30
0.0
 40
16.0
100
AcDbArc
 50
0.0000000000010178
 51
90.0
  0
LINE
  5
65BE
330
19
100
AcDbEntity
  8
1
100
AcDbLine
 10
12564.45460744111
 20
4401.135294509078
 30
0.0
 11
12564.45460744111
 21
4764.135294509078
 31
0.0
  0
DIMENSION
  5
65BF
330
19
100
AcDbEntity
  8
SP
100
AcDbDimension
  2
*D19
 10
12264.45460744111
 20
5118.635294509075
 30
0.0
 11
12474.95460744111
 21
5167.921008794789
 31
0.0
 70
    32
  1
(420)
 71
     5
 42
421.0
  3
GOD
100
AcDbAlignedDimension
 13
12685.45460744111
 23
5073.635294509075
 33
0.0
 14
12264.45460744111
 24
4666.21619450908
 34
0.0
100
AcDbRotatedDimension
1001
ACAD
1000
DSTYLE
1002
{
1070
   279
1070
     1
1002
}
  0
DIMENSION
  5
65CC
330
19
100
AcDbEntity
  8
SP
100
AcDbDimension
  2
*D20
 10
12685.45460744111
 20
3912.411954469361
 30
0.0
 11
12804.37638076204
 21
3912.367510240252
 31
0.0
 70
   160
 71
     5
 42
122.0
  3
GOD
100
AcDbAlignedDimension
 13
12563.45460744111
 23
4092.63529450908
 33
0.0
 14
12685.45460744111
 24
4293.196782543492
 34
0.0
100
AcDbRotatedDimension
1001
ACAD
1000
DSTYLE
1002
{
1070
   279
1070
     1
1002
}
  0
ENDSEC
  0
SECTION
  2
OBJECTS
  0
DICTIONARY
  5
C
330
0
100
AcDbDictionary
281
     1
  3
ACAD_CIP_PREVIOUS_PRODUCT_INFO
350
64CC
  3
ACAD_COLOR
350
64AE
  3
ACAD_DETAILVIEWSTYLE
350
64C7
  3
ACAD_GROUP
350
D
  3
ACAD_LAYOUT
350
1E92
  3
ACAD_MATERIAL
350
647C
  3
ACAD_MLEADERSTYLE
350
64C3
  3
ACAD_MLINESTYLE
350
E
  3
ACAD_PLOTSETTINGS
350
1E93
  3
ACAD_PLOTSTYLENAME
350
1E90
  3
ACAD_SCALELIST
350
64B1
  3
ACAD_SECTIONVIEWSTYLE
350
64C5
  3
ACAD_TABLESTYLE
350
64AF
  3
ACAD_VISUALSTYLE
350
6495
  3
AcadDim
350
1EC5
  3
ACDB_RECOMPOSE_DATA
350
663C
  3
AcDbVariableDictionary
350
6479
  3
AcDsDecomposeData
350
6643
  3
DWGPROPS
350
663D
  0
DICTIONARY
  5
661D
330
2
100
AcDbDictionary
280
     1
281
     1
  3
ACAD_LAYERSTATES
360
661E
  0
DICTIONARY
  5
660C
330
F
100
AcDbDictionary
280
     1
281
     1
  3
ADSK_XREC_LAYER_RECONCILED
360
660D
  0
DICTIONARY
  5
660E
330
2F
100
AcDbDictionary
280
     1
281
     1
  3
ADSK_XREC_LAYER_RECONCILED
360
660F
  0
DICTIONARY
  5
6610
330
30
100
AcDbDictionary
280
     1
281
     1
  3
ADSK_XREC_LAYER_RECONCILED
360
6611
  0
DICTIONARY
  5
6612
330
36
100
AcDbDictionary
280
     1
281
     1
  3
ADSK_XREC_LAYER_RECONCILED
360
6613
  0
DICTIONARY
  5
6614
330
1EEF
100
AcDbDictionary
280
     1
281
     1
  3
ADSK_XREC_LAYER_RECONCILED
360
6615
  0
DICTIONARY
  5
6616
330
1EF0
100
AcDbDictionary
280
     1
281
     1
  3
ADSK_XREC_LAYER_RECONCILED
360
6617
  0
DICTIONARY
  5
6618
330
2188
100
AcDbDictionary
280
     1
281
     1
  3
ADSK_XREC_LAYER_RECONCILED
360
6619
  0
DICTIONARY
  5
63F8
330
19
100
AcDbDictionary
280
     1
281
     1
  3
ACAD_LAYOUTSELFREF
360
63F9
  0
DICTIONARY
  5
63F6
330
16
100
AcDbDictionary
280
     1
281
     1
  3
ACAD_LAYOUTSELFREF
360
63F7
  0
XRECORD
  5
64CC
102
{ACAD_REACTORS
330
C
102
}
330
C
100
AcDbXrecord
280
     1
300
ACDLT
300
2015
300
INVLTS_F_S
  0
DICTIONARY
  5
64AE
102
{ACAD_REACTORS
330
C
102
}
330
C
100
AcDbDictionary
281
     1
  0
DICTIONARY
  5
64C7
102
{ACAD_REACTORS
330
C
102
}
330
C
100
AcDbDictionary
281
     1
  3
Metric50
350
64C8
  0
DICTIONARY
  5
D
102
{ACAD_REACTORS
330
C
102
}
330
C
100
AcDbDictionary
281
     1
  0
DICTIONARY
  5
1E92
102
{ACAD_REACTORS
330
C
102
}
330
C
100
AcDbDictionary
281
     1
  3
Model
350
1E94
  3
ﾚｲｱｳﾄ1
350
1E95
  0
DICTIONARY
  5
647C
102
{ACAD_REACTORS
330
C
102
}
330
C
100
AcDbDictionary
281
     1
  3
ByBlock
350
6485
  3
ByLayer
350
647D
  3
Global
350
648D
  0
DICTIONARY
  5
64C3
102
{ACAD_REACTORS
330
C
102
}
330
C
100
AcDbDictionary
281
     1
  3
Standard
350
64C4
  0
DICTIONARY
  5
E
102
{ACAD_REACTORS
330
C
102
}
330
C
100
AcDbDictionary
281
     1
  3
STANDARD
350
1C
  0
DICTIONARY
  5
1E93
102
{ACAD_REACTORS
330
C
102
}
330
C
100
AcDbDictionary
281
     1
  0
ACDBDICTIONARYWDFLT
  5
1E90
102
{ACAD_REACTORS
330
C
102
}
330
C
100
AcDbDictionary
281
     1
  3
Normal
350
1E91
100
AcDbDictionaryWithDefault
340
1E91
  0
DICTIONARY
  5
64B1
102
{ACAD_REACTORS
330
C
102
}
330
C
100
AcDbDictionary
281
     1
  3
A0
350
64B2
  3
A1
350
64B3
  3
A2
350
64B4
  3
A3
350
64B5
  3
A4
350
64B6
  3
A5
350
64B7
  3
A6
350
64B8
  3
A7
350
64B9
  3
A8
350
64BA
  3
A9
350
64BB
  3
B0
350
64BC
  3
B1
350
64BD
  3
B2
350
64BE
  3
B3
350
64BF
  3
B4
350
64C0
  3
B5
350
64C1
  3
B6
350
64C2
  0
DICTIONARY
  5
64C5
102
{ACAD_REACTORS
330
C
102
}
330
C
100
AcDbDictionary
281
     1
  3
Metric50
350
64C6
  0
DICTIONARY
  5
64AF
102
{ACAD_REACTORS
330
C
102
}
330
C
100
AcDbDictionary
281
     1
  3
Standard
350
64B0
  0
DICTIONARY
  5
6495
102
{ACAD_REACTORS
330
C
102
}
330
C
100
AcDbDictionary
281
     1
  3
2dWireframe
350
649B
  3
Basic
350
649A
  3
Brighten
350
64A1
  3
ColorChange
350
64A5
  3
Conceptual
350
649E
  3
Dim
350
64A0
  3
EdgeColorOff
350
64AD
  3
Facepattern
350
64A4
  3
Flat
350
6496
  3
FlatWithEdges
350
6497
  3
Gouraud
350
6498
  3
GouraudWithEdges
350
6499
  3
Hidden
350
649D
  3
JitterOff
350
64AB
  3
Linepattern
350
64A3
  3
OverhangOff
350
64AC
  3
Realistic
350
649F
  3
Shaded
350
64AA
  3
Shaded with edges
350
64A9
  3
Shades of Gray
350
64A6
  3
Sketchy
350
64A7
  3
Thicken
350
64A2
  3
Wireframe
350
649C
  3
X-Ray
350
64A8
  0
XRECORD
  5
1EC5
102
{ACAD_REACTORS
330
C
102
}
330
C
100
AcDbXrecord
280
     1
 90
   990106
  3

 60
     0
 61
     0
 62
     4
 63
     4
 64
     1
 65
     0
 66
     1
 67
     3
 68
     1
 69
     0
 70
     0
 71
     0
 72
     0
 40
0.0
170
     1
340
0
  0
XRECORD
  5
663C
102
{ACAD_REACTORS
330
C
102
}
330
C
100
AcDbXrecord
280
     1
 90
        1
330
5F3F
330
64B0
  0
DICTIONARY
  5
6479
102
{ACAD_REACTORS
330
C
102
}
330
C
100
AcDbDictionary
281
     1
  3
CANNOSCALE
350
662E
  3
CMLEADERSTYLE
350
662A
  3
CTABLESTYLE
350
6629
  3
CVIEWDETAILSTYLE
350
662B
  3
CVIEWSECTIONSTYLE
350
662C
  3
DIMASSOC
350
647A
  3
INDEXCTL
350
6638
  3
LAYEREVAL
350
6630
  3
LAYERNOTIFY
350
6631
  3
LIGHTINGUNITS
350
662F
  3
MSLTSCALE
350
662D
  3
SORTENTS
350
6637
  3
XCLIPFRAME
350
6639
  0
DICTIONARY
  5
6643
102
{ACAD_REACTORS
330
C
102
}
330
C
100
AcDbDictionary
281
     1
  3
AcDsRecords
350
6645
  3
AcDsSchemas
350
6644
1001
ACAD
1070
     2
  0
XRECORD
  5
663D
102
{ACAD_REACTORS
330
C
102
}
330
C
100
AcDbXrecord
280
     1
  1
DWGPROPS COOKIE
  2

  3

  4

  6

  7

  8
toshiyuki.morita
  9

300
=
301
=
302
=
303
=
304
=
305
=
306
=
307
=
308
=
309
=
 40
0.1915625462962963
 41
2454939.604632489
 42
2459353.582939595
  1

 90
        0
  0
DICTIONARY
  5
661E
102
{ACAD_REACTORS
330
661D
102
}
330
661D
100
AcDbDictionary
281
     1
  0
XRECORD
  5
660D
102
{ACAD_REACTORS
330
660C
102
}
330
660C
100
AcDbXrecord
280
     1
290
     1
  0
XRECORD
  5
660F
102
{ACAD_REACTORS
330
660E
102
}
330
660E
100
AcDbXrecord
280
     1
290
     1
  0
XRECORD
  5
6611
102
{ACAD_REACTORS
330
6610
102
}
330
6610
100
AcDbXrecord
280
     1
290
     1
  0
XRECORD
  5
6613
102
{ACAD_REACTORS
330
6612
102
}
330
6612
100
AcDbXrecord
280
     1
290
     1
  0
XRECORD
  5
6615
102
{ACAD_REACTORS
330
6614
102
}
330
6614
100
AcDbXrecord
280
     1
290
     1
  0
XRECORD
  5
6617
102
{ACAD_REACTORS
330
6616
102
}
330
6616
100
AcDbXrecord
280
     1
290
     1
  0
XRECORD
  5
6619
102
{ACAD_REACTORS
330
6618
102
}
330
6618
100
AcDbXrecord
280
     1
290
     1
  0
XRECORD
  5
63F9
102
{ACAD_REACTORS
330
63F8
102
}
330
63F8
100
AcDbXrecord
280
     1
340
19
  0
XRECORD
  5
63F7
102
{ACAD_REACTORS
330
63F6
102
}
330
63F6
100
AcDbXrecord
280
     1
340
16
  0
ACDBDETAILVIEWSTYLE
  5
64C8
102
{ACAD_XDICTIONARY
360
6626
102
}
102
{ACAD_REACTORS
330
64C7
102
}
330
64C7
100
AcDbModelDocViewStyle
 70
     0
  3
Metric50
290
     0
100
AcDbDetailViewStyle
 70
     0
 71
     0
 90
        3
 71
     1
340
10
 40
5.0
340
0
 40
5.0
300

 40
0.0
280
     1
 71
     2
340
15
 90
       25
 71
     3
340
10
 40
5.0
 90
        0
 40
15.0
 90
        1
300
%<\AcVar ViewDetailId>% (%<\AcVar ViewScale \f "%sn">%)
 71
     4
340
15
 90
       25
340
15
 90
       25
280
     0
  0
LAYOUT
  5
1E94
102
{ACAD_XDICTIONARY
360
6646
102
}
102
{ACAD_REACTORS
330
1E92
102
}
330
1E92
100
AcDbPlotSettings
  1

  2
EPSON LP-9300
  4

  6

 40
0.0
 41
0.0
 42
0.0
 43
0.0
 44
0.0
 45
0.0
 46
0.0
 47
0.0
 48
0.0
 49
0.0
140
0.0
141
0.0
142
1.0
143
1.0
 70
  1712
 72
     0
 73
     0
 74
     0
  7
GOD2000TABLE.ctb
 75
     0
147
1.0
148
0.0
149
0.0
100
AcDbLayout
  1
Model
 70
     1
 71
     0
 10
0.0
 20
0.0
 11
12.0
 21
9.0
 12
0.0
 22
0.0
 32
0.0
 14
0.0
 24
0.0
 34
0.0
 15
0.0
 25
0.0
 35
0.0
146
0.0
 13
0.0
 23
0.0
 33
0.0
 16
1.0
 26
0.0
 36
0.0
 17
0.0
 27
1.0
 37
0.0
 76
     0
330
19
331
63CA
  0
LAYOUT
  5
1E95
102
{ACAD_XDICTIONARY
360
6648
102
}
102
{ACAD_REACTORS
330
1E92
102
}
330
1E92
100
AcDbPlotSettings
  1

  2
EPSON LP-9300
  4

  6

 40
0.0
 41
0.0
 42
0.0
 43
0.0
 44
0.0
 45
0.0
 46
0.0
 47
0.0
 48
0.0
 49
0.0
140
0.0
141
0.0
142
1.0
143
1.0
 70
   688
 72
     0
 73
     0
 74
     5
  7
GOD2000TABLE.ctb
 75
    16
147
1.0
148
0.0
149
0.0
100
AcDbLayout
  1
ﾚｲｱｳﾄ1
 70
     0
 71
     1
 10
0.0
 20
0.0
 11
12.0
 21
9.0
 12
0.0
 22
0.0
 32
0.0
 14
1.000000000000000E+20
 24
1.000000000000000E+20
 34
1.000000000000000E+20
 15
-1.000000000000000E+20
 25
-1.000000000000000E+20
 35
-1.000000000000000E+20
146
0.0
 13
0.0
 23
0.0
 33
0.0
 16
1.0
 26
0.0
 36
0.0
 17
0.0
 27
1.0
 37
0.0
 76
     0
330
16
  0
MATERIAL
  5
6485
102
{ACAD_XDICTIONARY
360
6486
102
}
102
{ACAD_REACTORS
330
647C
102
}
330
647C
100
AcDbMaterial
  1
ByBlock
 72
     0
 43
0.0208333333333333
 43
0.0
 43
0.0
 43
0.0
 43
0.0
 43
0.0208333333333333
 43
0.0
 43
0.0
 43
0.0
 43
0.0
 43
1.0
 43
0.0
 43
0.0
 43
0.0
 43
0.0
 43
1.0
 77
     0
 47
0.0208333333333333
 47
0.0
 47
0.0
 47
0.0
 47
0.0
 47
0.0208333333333333
 47
0.0
 47
0.0
 47
0.0
 47
0.0
 47
1.0
 47
0.0
 47
0.0
 47
0.0
 47
0.0
 47
1.0
171
     0
 49
0.0208333333333333
 49
0.0
 49
0.0
 49
0.0
 49
0.0
 49
0.0208333333333333
 49
0.0
 49
0.0
 49
0.0
 49
0.0
 49
1.0
 49
0.0
 49
0.0
 49
0.0
 49
0.0
 49
1.0
175
     0
142
0.0208333333333333
142
0.0
142
0.0
142
0.0
142
0.0
142
0.0208333333333333
142
0.0
142
0.0
142
0.0
142
0.0
142
1.0
142
0.0
142
0.0
142
0.0
142
0.0
142
1.0
179
     0
144
0.0208333333333333
144
0.0
144
0.0
144
0.0
144
0.0
144
0.0208333333333333
144
0.0
144
0.0
144
0.0
144
0.0
144
1.0
144
0.0
144
0.0
144
0.0
144
0.0
144
1.0
147
0.0208333333333333
147
0.0
147
0.0
147
0.0
147
0.0
147
0.0208333333333333
147
0.0
147
0.0
147
0.0
147
0.0
147
1.0
147
0.0
147
0.0
147
0.0
147
0.0
147
1.0
  0
MATERIAL
  5
647D
102
{ACAD_XDICTIONARY
360
647E
102
}
102
{ACAD_REACTORS
330
647C
102
}
330
647C
100
AcDbMaterial
  1
ByLayer
 72
     0
 43
0.0208333333333333
 43
0.0
 43
0.0
 43
0.0
 43
0.0
 43
0.0208333333333333
 43
0.0
 43
0.0
 43
0.0
 43
0.0
 43
1.0
 43
0.0
 43
0.0
 43
0.0
 43
0.0
 43
1.0
 77
     0
 47
0.0208333333333333
 47
0.0
 47
0.0
 47
0.0
 47
0.0
 47
0.0208333333333333
 47
0.0
 47
0.0
 47
0.0
 47
0.0
 47
1.0
 47
0.0
 47
0.0
 47
0.0
 47
0.0
 47
1.0
171
     0
 49
0.0208333333333333
 49
0.0
 49
0.0
 49
0.0
 49
0.0
 49
0.0208333333333333
 49
0.0
 49
0.0
 49
0.0
 49
0.0
 49
1.0
 49
0.0
 49
0.0
 49
0.0
 49
0.0
 49
1.0
175
     0
142
0.0208333333333333
142
0.0
142
0.0
142
0.0
142
0.0
142
0.0208333333333333
142
0.0
142
0.0
142
0.0
142
0.0
142
1.0
142
0.0
142
0.0
142
0.0
142
0.0
142
1.0
179
     0
144
0.0208333333333333
144
0.0
144
0.0
144
0.0
144
0.0
144
0.0208333333333333
144
0.0
144
0.0
144
0.0
144
0.0
144
1.0
144
0.0
144
0.0
144
0.0
144
0.0
144
1.0
147
0.0208333333333333
147
0.0
147
0.0
147
0.0
147
0.0
147
0.0208333333333333
147
0.0
147
0.0
147
0.0
147
0.0
147
1.0
147
0.0
147
0.0
147
0.0
147
0.0
147
1.0
  0
MATERIAL
  5
648D
102
{ACAD_XDICTIONARY
360
648E
102
}
102
{ACAD_REACTORS
330
647C
102
}
330
647C
100
AcDbMaterial
  1
Global
 72
     0
 43
0.0208333333333333
 43
0.0
 43
0.0
 43
0.0
 43
0.0
 43
0.0208333333333333
 43
0.0
 43
0.0
 43
0.0
 43
0.0
 43
1.0
 43
0.0
 43
0.0
 43
0.0
 43
0.0
 43
1.0
 77
     0
 47
0.0208333333333333
 47
0.0
 47
0.0
 47
0.0
 47
0.0
 47
0.0208333333333333
 47
0.0
 47
0.0
 47
0.0
 47
0.0
 47
1.0
 47
0.0
 47
0.0
 47
0.0
 47
0.0
 47
1.0
171
     0
 49
0.0208333333333333
 49
0.0
 49
0.0
 49
0.0
 49
0.0
 49
0.0208333333333333
 49
0.0
 49
0.0
 49
0.0
 49
0.0
 49
1.0
 49
0.0
 49
0.0
 49
0.0
 49
0.0
 49
1.0
175
     0
142
0.0208333333333333
142
0.0
142
0.0
142
0.0
142
0.0
142
0.0208333333333333
142
0.0
142
0.0
142
0.0
142
0.0
142
1.0
142
0.0
142
0.0
142
0.0
142
0.0
142
1.0
179
     0
144
0.0208333333333333
144
0.0
144
0.0
144
0.0
144
0.0
144
0.0208333333333333
144
0.0
144
0.0
144
0.0
144
0.0
144
1.0
144
0.0
144
0.0
144
0.0
144
0.0
144
1.0
147
0.0208333333333333
147
0.0
147
0.0
147
0.0
147
0.0
147
0.0208333333333333
147
0.0
147
0.0
147
0.0
147
0.0
147
1.0
147
0.0
147
0.0
147
0.0
147
0.0
147
1.0
  0
MLEADERSTYLE
  5
64C4
102
{ACAD_XDICTIONARY
360
667F
102
}
102
{ACAD_REACTORS
330
64C3
102
}
330
64C3
100
AcDbMLeaderStyle
170
     2
171
     1
172
     0
 90
        2
 40
0.0
 41
0.0
173
     1
 91
-1056964608
340
13
 92
       -2
290
     1
 42
2.0
291
     1
 43
0.36
  3
Standard
 44
4.0
300

342
10
174
     1
178
     6
175
     1
176
     0
 93
-1056964608
 45
4.0
292
     0
297
     0
 46
4.0
 94
-1056964608
 47
1.0
 49
1.0
140
1.0
293
     1
141
0.0
294
     1
177
     0
142
1.0
295
     0
296
     0
143
0.125
1001
ACAD_MLEADERVER
1070
     2
  0
MLINESTYLE
  5
1C
102
{ACAD_REACTORS
330
E
102
}
330
E
100
AcDbMlineStyle
  2
STANDARD
 70
     0
  3

 62
     0
 51
90.0
 52
90.0
 71
     2
 49
0.5
 62
   256
  6
BYLAYER
 49
-0.5
 62
   256
  6
BYLAYER
  0
ACDBPLACEHOLDER
  5
1E91
102
{ACAD_REACTORS
330
1E90
102
}
330
1E90
  0
SCALE
  5
64B2
102
{ACAD_REACTORS
330
64B1
102
}
330
64B1
100
AcDbScale
 70
     0
300
1:1
140
1.0
141
1.0
290
     1
  0
SCALE
  5
64B3
102
{ACAD_REACTORS
330
64B1
102
}
330
64B1
100
AcDbScale
 70
     0
300
1:2
140
1.0
141
2.0
290
     0
  0
SCALE
  5
64B4
102
{ACAD_REACTORS
330
64B1
102
}
330
64B1
100
AcDbScale
 70
     0
300
1:4
140
1.0
141
4.0
290
     0
  0
SCALE
  5
64B5
102
{ACAD_REACTORS
330
64B1
102
}
330
64B1
100
AcDbScale
 70
     0
300
1:5
140
1.0
141
5.0
290
     0
  0
SCALE
  5
64B6
102
{ACAD_REACTORS
330
64B1
102
}
330
64B1
100
AcDbScale
 70
     0
300
1:8
140
1.0
141
8.0
290
     0
  0
SCALE
  5
64B7
102
{ACAD_REACTORS
330
64B1
102
}
330
64B1
100
AcDbScale
 70
     0
300
1:10
140
1.0
141
10.0
290
     0
  0
SCALE
  5
64B8
102
{ACAD_REACTORS
330
64B1
102
}
330
64B1
100
AcDbScale
 70
     0
300
1:16
140
1.0
141
16.0
290
     0
  0
SCALE
  5
64B9
102
{ACAD_REACTORS
330
64B1
102
}
330
64B1
100
AcDbScale
 70
     0
300
1:20
140
1.0
141
20.0
290
     0
  0
SCALE
  5
64BA
102
{ACAD_REACTORS
330
64B1
102
}
330
64B1
100
AcDbScale
 70
     0
300
1:30
140
1.0
141
30.0
290
     0
  0
SCALE
  5
64BB
102
{ACAD_REACTORS
330
64B1
102
}
330
64B1
100
AcDbScale
 70
     0
300
1:40
140
1.0
141
40.0
290
     0
  0
SCALE
  5
64BC
102
{ACAD_REACTORS
330
64B1
102
}
330
64B1
100
AcDbScale
 70
     0
300
1:50
140
1.0
141
50.0
290
     0
  0
SCALE
  5
64BD
102
{ACAD_REACTORS
330
64B1
102
}
330
64B1
100
AcDbScale
 70
     0
300
1:100
140
1.0
141
100.0
290
     0
  0
SCALE
  5
64BE
102
{ACAD_REACTORS
330
64B1
102
}
330
64B1
100
AcDbScale
 70
     0
300
2:1
140
2.0
141
1.0
290
     0
  0
SCALE
  5
64BF
102
{ACAD_REACTORS
330
64B1
102
}
330
64B1
100
AcDbScale
 70
     0
300
4:1
140
4.0
141
1.0
290
     0
  0
SCALE
  5
64C0
102
{ACAD_REACTORS
330
64B1
102
}
330
64B1
100
AcDbScale
 70
     0
300
8:1
140
8.0
141
1.0
290
     0
  0
SCALE
  5
64C1
102
{ACAD_REACTORS
330
64B1
102
}
330
64B1
100
AcDbScale
 70
     0
300
10:1
140
10.0
141
1.0
290
     0
  0
SCALE
  5
64C2
102
{ACAD_REACTORS
330
64B1
102
}
330
64B1
100
AcDbScale
 70
     0
300
100:1
140
100.0
141
1.0
290
     0
  0
ACDBSECTIONVIEWSTYLE
  5
64C6
102
{ACAD_XDICTIONARY
360
6624
102
}
102
{ACAD_REACTORS
330
64C5
102
}
330
64C5
100
AcDbModelDocViewStyle
 70
     0
  3
Metric50
290
     0
100
AcDbSectionViewStyle
 70
     0
 71
     0
 90
      102
 71
     1
340
10
 40
5.0
340
0
340
0
 40
5.0
300
I, O, Q, S, X, Z
 40
10.0
 90
        0
 40
2.5
 90
        0
 71
     2
340
15
 90
       25
340
15
 90
       50
 40
5.0
 40
2.5
 40
5.0
 71
     3
340
10
 40
5.0
 90
        0
 40
15.0
 90
        1
300
%<\AcVar ViewSectionStartId>%-%<\AcVar ViewSectionEndId>% (%<\AcVar ViewScale \f "%sn">%)
 71
     4
300
ANSI31
 40
1.0
 90
        0
290
     0
290
     0
 90
        6
 40
0.0
 40
1.570796326794896
 40
0.2617993877991494
 40
1.308996938995747
 40
-0.2617993877991494
 40
1.832595714594046
  0
TABLESTYLE
  5
64B0
102
{ACAD_XDICTIONARY
360
663A
102
}
102
{ACAD_REACTORS
330
64AF
102
}
330
64AF
100
AcDbTableStyle
  3
Standard
 70
     0
 71
     0
 40
1.5
 41
1.5
280
     0
281
     0
  7
STANDARD
140
4.5
170
     2
 62
     0
 63
     7
283
     0
274
    -2
284
     1
 64
     0
275
    -2
285
     1
 65
     0
276
    -2
286
     1
 66
     0
277
    -2
287
     1
 67
     0
278
    -2
288
     1
 68
     0
279
    -2
289
     1
 69
     0
  7
STANDARD
140
6.0
170
     5
 62
     0
 63
     7
283
     0
274
    -2
284
     1
 64
     0
275
    -2
285
     1
 65
     0
276
    -2
286
     1
 66
     0
277
    -2
287
     1
 67
     0
278
    -2
288
     1
 68
     0
279
    -2
289
     1
 69
     0
  7
STANDARD
140
4.5
170
     5
 62
     0
 63
     7
283
     0
274
    -2
284
     1
 64
     0
275
    -2
285
     1
 65
     0
276
    -2
286
     1
 66
     0
277
    -2
287
     1
 67
     0
278
    -2
288
     1
 68
     0
279
    -2
289
     1
 69
     0
  0
VISUALSTYLE
  5
649B
102
{ACAD_XDICTIONARY
360
6657
102
}
102
{ACAD_REACTORS
330
6495
102
}
330
6495
100
AcDbVisualStyle
  2
2dWireframe
 70
     4
 71
     0
 72
     2
 73
     0
 90
        0
 40
-0.6
 41
-30.0
 62
     5
 63
     7
 74
     1
 91
        4
 64
     7
 65
   257
 75
     1
175
     1
 42
1.0
 92
        0
 66
   257
 43
1.0
 76
     1
 77
     6
 78
     2
 67
     7
 79
     5
170
     0
171
     0
290
     0
174
     0
 93
        1
 44
0.0
173
     0
291
     0
 45
0.0
1001
ACAD
1000
AcDbSavedByObjectVersion
1070
     0
  0
VISUALSTYLE
  5
649A
102
{ACAD_XDICTIONARY
360
6655
102
}
102
{ACAD_REACTORS
330
6495
102
}
330
6495
100
AcDbVisualStyle
  2
Basic
 70
     7
 71
     1
 72
     0
 73
     1
 90
        0
 40
-0.6
 41
-30.0
 62
     5
 63
     7
 74
     0
 91
        4
 64
     7
 65
   257
 75
     1
175
     1
 42
1.0
 92
        8
 66
     7
 43
1.0
 76
     1
 77
     6
 78
     2
 67
     7
 79
     5
170
     0
171
     0
290
     0
174
     0
 93
        1
 44
0.0
173
     0
291
     1
 45
0.0
1001
ACAD
1000
AcDbSavedByObjectVersion
1070
     0
  0
VISUALSTYLE
  5
64A1
102
{ACAD_XDICTIONARY
360
6663
102
}
102
{ACAD_REACTORS
330
6495
102
}
330
6495
100
AcDbVisualStyle
  2
Brighten
 70
    12
 71
     2
 72
     2
 73
     0
 90
        0
 40
-0.6
 41
-30.0
 62
     5
 63
     7
 74
     1
 91
        4
 64
     7
 65
   257
 75
     1
175
     1
 42
1.0
 92
        8
 66
     7
 43
1.0
 76
     1
 77
     6
 78
     2
 67
     7
 79
     5
170
     0
171
     0
290
     0
174
     0
 93
        1
 44
50.0
173
     0
291
     1
 45
0.0
1001
ACAD
1000
AcDbSavedByObjectVersion
1070
     0
  0
VISUALSTYLE
  5
64A5
102
{ACAD_XDICTIONARY
360
666B
102
}
102
{ACAD_REACTORS
330
6495
102
}
330
6495
100
AcDbVisualStyle
  2
ColorChange
 70
    16
 71
     2
 72
     2
 73
     3
 90
        0
 40
-0.6
 41
-30.0
 62
     5
 63
     8
 74
     1
 91
        4
 64
     7
 65
   257
 75
     1
175
     1
 42
1.0
 92
        8
 66
     8
 43
1.0
 76
     1
 77
     6
 78
     2
 67
     7
 79
     5
170
     0
171
     0
290
     0
174
     0
 93
        1
 44
0.0
173
     0
291
     1
 45
0.0
1001
ACAD
1000
AcDbSavedByObjectVersion
1070
     0
  0
VISUALSTYLE
  5
649E
102
{ACAD_XDICTIONARY
360
665D
102
}
102
{ACAD_REACTORS
330
6495
102
}
330
6495
100
AcDbVisualStyle
  2
Conceptual
 70
     9
 71
     3
 72
     2
 73
     0
 90
        0
 40
-0.6
 41
-30.0
 62
     5
 63
     7
 74
     2
 91
        2
 64
     7
 65
   257
 75
     1
175
     1
 42
179.0
 92
        8
 66
     7
 43
1.0
 76
     1
 77
     6
 78
     2
 67
     7
 79
     3
170
     0
171
     0
290
     0
174
     0
 93
        1
 44
0.0
173
     0
291
     0
 45
0.0
1001
ACAD
1000
AcDbSavedByObjectVersion
1070
     0
  0
VISUALSTYLE
  5
64A0
102
{ACAD_XDICTIONARY
360
6661
102
}
102
{ACAD_REACTORS
330
6495
102
}
330
6495
100
AcDbVisualStyle
  2
Dim
 70
    11
 71
     2
 72
     2
 73
     0
 90
        0
 40
-0.6
 41
-30.0
 62
     5
 63
     7
 74
     1
 91
        4
 64
     7
 65
   257
 75
     1
175
     1
 42
1.0
 92
        8
 66
     7
 43
1.0
 76
     1
 77
     6
 78
     2
 67
     7
 79
     5
170
     0
171
     0
290
     0
174
     0
 93
        1
 44
-50.0
173
     0
291
     1
 45
0.0
1001
ACAD
1000
AcDbSavedByObjectVersion
1070
     0
  0
VISUALSTYLE
  5
64AD
102
{ACAD_XDICTIONARY
360
667B
102
}
102
{ACAD_REACTORS
330
6495
102
}
330
6495
100
AcDbVisualStyle
  2
EdgeColorOff
 70
    22
 71
     2
 72
     2
 73
     0
 90
        0
 40
-0.6
 41
-30.0
 62
     5
 63
     7
 74
     1
 91
        4
 64
     7
 65
   257
 75
     1
175
     1
 42
1.0
 92
        8
 66
     7
 43
1.0
 76
     1
 77
     6
 78
     2
 67
     7
 79
     5
170
     0
171
     0
290
     0
174
     0
 93
        1
 44
0.0
173
     0
291
     1
 45
0.0
1001
ACAD
1000
AcDbSavedByObjectVersion
1070
     0
  0
VISUALSTYLE
  5
64A4
102
{ACAD_XDICTIONARY
360
6669
102
}
102
{ACAD_REACTORS
330
6495
102
}
330
6495
100
AcDbVisualStyle
  2
Facepattern
 70
    15
 71
     2
 72
     2
 73
     0
 90
        0
 40
-0.6
 41
-30.0
 62
     5
 63
     7
 74
     1
 91
        4
 64
     7
 65
   257
 75
     1
175
     1
 42
1.0
 92
        8
 66
     7
 43
1.0
 76
     1
 77
     6
 78
     2
 67
     7
 79
     5
170
     0
171
     0
290
     0
174
     0
 93
        1
 44
0.0
173
     0
291
     1
 45
0.0
1001
ACAD
1000
AcDbSavedByObjectVersion
1070
     0
  0
VISUALSTYLE
  5
6496
102
{ACAD_XDICTIONARY
360
664D
102
}
102
{ACAD_REACTORS
330
6495
102
}
330
6495
100
AcDbVisualStyle
  2
Flat
 70
     0
 71
     2
 72
     1
 73
     1
 90
        2
 40
-0.6
 41
30.0
 62
     5
 63
     7
 74
     0
 91
        0
 64
     7
 65
   257
 75
     1
175
     1
 42
1.0
 92
        8
 66
     7
 43
1.0
 76
     1
 77
     6
 78
     2
 67
     7
 79
     5
170
     0
171
     0
290
     0
174
     0
 93
       13
 44
0.0
173
     0
291
     1
 45
0.0
1001
ACAD
1000
AcDbSavedByObjectVersion
1070
     0
  0
VISUALSTYLE
  5
6497
102
{ACAD_XDICTIONARY
360
664F
102
}
102
{ACAD_REACTORS
330
6495
102
}
330
6495
100
AcDbVisualStyle
  2
FlatWithEdges
 70
     1
 71
     2
 72
     1
 73
     1
 90
        2
 40
-0.6
 41
30.0
 62
     5
 63
     7
 74
     1
 91
        0
 64
     7
 65
   257
 75
     1
175
     1
 42
1.0
 92
        0
 66
   257
 43
1.0
 76
     1
 77
     6
 78
     2
 67
     7
 79
     5
170
     0
171
     0
290
     0
174
     0
 93
       13
 44
0.0
173
     0
291
     1
 45
0.0
1001
ACAD
1000
AcDbSavedByObjectVersion
1070
     0
  0
VISUALSTYLE
  5
6498
102
{ACAD_XDICTIONARY
360
6651
102
}
102
{ACAD_REACTORS
330
6495
102
}
330
6495
100
AcDbVisualStyle
  2
Gouraud
 70
     2
 71
     2
 72
     2
 73
     1
 90
        2
 40
-0.6
 41
30.0
 62
     5
 63
     7
 74
     0
 91
        0
 64
     7
 65
   257
 75
     1
175
     1
 42
1.0
 92
        0
 66
     7
 43
1.0
 76
     1
 77
     6
 78
     2
 67
     7
 79
     5
170
     0
171
     0
290
     0
174
     0
 93
       13
 44
0.0
173
     0
291
     1
 45
0.0
1001
ACAD
1000
AcDbSavedByObjectVersion
1070
     0
  0
VISUALSTYLE
  5
6499
102
{ACAD_XDICTIONARY
360
6653
102
}
102
{ACAD_REACTORS
330
6495
102
}
330
6495
100
AcDbVisualStyle
  2
GouraudWithEdges
 70
     3
 71
     2
 72
     2
 73
     1
 90
        2
 40
-0.6
 41
30.0
 62
     5
 63
     7
 74
     1
 91
        0
 64
     7
 65
   257
 75
     1
175
     1
 42
1.0
 92
        0
 66
   257
 43
1.0
 76
     1
 77
     6
 78
     2
 67
     7
 79
     5
170
     0
171
     0
290
     0
174
     0
 93
       13
 44
0.0
173
     0
291
     1
 45
0.0
1001
ACAD
1000
AcDbSavedByObjectVersion
1070
     0
  0
VISUALSTYLE
  5
649D
102
{ACAD_XDICTIONARY
360
665B
102
}
102
{ACAD_REACTORS
330
6495
102
}
330
6495
100
AcDbVisualStyle
  2
Hidden
 70
     6
 71
     1
 72
     2
 73
     2
 90
        0
 40
-0.6
 41
-30.0
 62
     5
 63
     7
 74
     2
 91
        2
 64
     7
 65
   257
 75
     2
175
     1
 42
40.0
 92
        0
 66
   257
 43
1.0
 76
     1
 77
     6
 78
     2
 67
     7
 79
     3
170
     0
171
     0
290
     0
174
     0
 93
        1
 44
0.0
173
     0
291
     0
 45
0.0
1001
ACAD
1000
AcDbSavedByObjectVersion
1070
     0
  0
VISUALSTYLE
  5
64AB
102
{ACAD_XDICTIONARY
360
6677
102
}
102
{ACAD_REACTORS
330
6495
102
}
330
6495
100
AcDbVisualStyle
  2
JitterOff
 70
    20
 71
     2
 72
     2
 73
     0
 90
        0
 40
-0.6
 41
-30.0
 62
     5
 63
     7
 74
     1
 91
        4
 64
     7
 65
   257
 75
     1
175
     1
 42
1.0
 92
       10
 66
     7
 43
1.0
 76
     1
 77
     6
 78
     2
 67
     7
 79
     5
170
     0
171
     0
290
     0
174
     0
 93
        1
 44
0.0
173
     0
291
     1
 45
0.0
1001
ACAD
1000
AcDbSavedByObjectVersion
1070
     0
  0
VISUALSTYLE
  5
64A3
102
{ACAD_XDICTIONARY
360
6667
102
}
102
{ACAD_REACTORS
330
6495
102
}
330
6495
100
AcDbVisualStyle
  2
Linepattern
 70
    14
 71
     2
 72
     2
 73
     0
 90
        0
 40
-0.6
 41
-30.0
 62
     5
 63
     7
 74
     1
 91
        4
 64
     7
 65
   257
 75
     7
175
     7
 42
1.0
 92
        8
 66
     7
 43
1.0
 76
     1
 77
     6
 78
     2
 67
     7
 79
     5
170
     0
171
     0
290
     0
174
     0
 93
        1
 44
0.0
173
     0
291
     1
 45
0.0
1001
ACAD
1000
AcDbSavedByObjectVersion
1070
     0
  0
VISUALSTYLE
  5
64AC
102
{ACAD_XDICTIONARY
360
6679
102
}
102
{ACAD_REACTORS
330
6495
102
}
330
6495
100
AcDbVisualStyle
  2
OverhangOff
 70
    21
 71
     2
 72
     2
 73
     0
 90
        0
 40
-0.6
 41
-30.0
 62
     5
 63
     7
 74
     1
 91
        4
 64
     7
 65
   257
 75
     1
175
     1
 42
1.0
 92
        9
 66
     7
 43
1.0
 76
     1
 77
     6
 78
     2
 67
     7
 79
     5
170
     0
171
     0
290
     0
174
     0
 93
        1
 44
0.0
173
     0
291
     1
 45
0.0
1001
ACAD
1000
AcDbSavedByObjectVersion
1070
     0
  0
VISUALSTYLE
  5
649F
102
{ACAD_XDICTIONARY
360
665F
102
}
102
{ACAD_REACTORS
330
6495
102
}
330
6495
100
AcDbVisualStyle
  2
Realistic
 70
     8
 71
     2
 72
     3
 73
     0
 90
        2
 40
-0.6
 41
30.0
 62
     5
 63
     7
 74
     0
 91
        0
 64
     7
 65
   257
 75
     1
175
     1
 42
1.0
 92
        8
 66
   257
 43
1.0
 76
     1
 77
     6
 78
     2
 67
     7
 79
     3
170
     0
171
     0
290
     0
174
     0
 93
       13
 44
0.0
173
     0
291
     0
 45
0.0
1001
ACAD
1000
AcDbSavedByObjectVersion
1070
     0
  0
VISUALSTYLE
  5
64AA
102
{ACAD_XDICTIONARY
360
6675
102
}
102
{ACAD_REACTORS
330
6495
102
}
330
6495
100
AcDbVisualStyle
  2
Shaded
 70
    27
 71
     2
 72
     2
 73
     1
 90
        2
 40
-0.6
 41
30.0
 62
     5
 63
     7
 74
     0
 91
        4
 64
     7
 65
   257
 75
     1
175
     1
 42
1.0
 92
        8
 66
   257
 43
1.0
 76
     1
 77
     6
 78
     2
 67
     8
 79
     3
170
     0
171
     0
290
     0
174
     0
 93
        5
 44
0.0
173
     0
291
     0
 45
0.0
1001
ACAD
1000
AcDbSavedByObjectVersion
1070
     0
  0
VISUALSTYLE
  5
64A9
102
{ACAD_XDICTIONARY
360
6673
102
}
102
{ACAD_REACTORS
330
6495
102
}
330
6495
100
AcDbVisualStyle
  2
Shaded with edges
 70
    26
 71
     2
 72
     2
 73
     1
 90
        2
 40
-0.6
 41
30.0
 62
     5
 63
     7
 74
     1
 91
       10
 64
     7
 65
   257
 75
     2
175
     1
 42
1.0
 92
        8
 66
   257
 43
1.0
 76
     1
 77
     6
 78
     2
 67
     7
 79
     3
170
     0
171
     0
290
     0
174
     0
 93
        5
 44
0.0
173
     0
291
     0
 45
0.0
1001
ACAD
1000
AcDbSavedByObjectVersion
1070
     0
  0
VISUALSTYLE
  5
64A6
102
{ACAD_XDICTIONARY
360
666D
102
}
102
{ACAD_REACTORS
330
6495
102
}
330
6495
100
AcDbVisualStyle
  2
Shades of Gray
 70
    23
 71
     2
 72
     2
 73
     3
 90
        0
 40
-0.6
 41
-30.0
 62
     5
 63
     7
 74
     2
 91
        2
 64
     7
 65
     7
 75
     1
175
     1
 42
40.0
 92
        8
 66
     7
 43
1.0
 76
     1
 77
     6
 78
     2
 67
     7
 79
     3
170
     0
171
     0
290
     0
174
     0
 93
        1
 44
0.0
173
     0
291
     0
 45
0.0
1001
ACAD
1000
AcDbSavedByObjectVersion
1070
     0
  0
VISUALSTYLE
  5
64A7
102
{ACAD_XDICTIONARY
360
666F
102
}
102
{ACAD_REACTORS
330
6495
102
}
330
6495
100
AcDbVisualStyle
  2
Sketchy
 70
    24
 71
     1
 72
     2
 73
     2
 90
        0
 40
-0.6
 41
-30.0
 62
     5
 63
     7
 74
     2
 91
        2
 64
     7
 65
     7
 75
     1
175
     1
 42
40.0
 92
       11
 66
     7
 43
1.0
 76
     1
 77
     6
 78
     2
 67
     7
 79
     6
170
     0
171
     0
290
     0
174
     0
 93
        1
 44
0.0
173
     0
291
     0
 45
0.0
1001
ACAD
1000
AcDbSavedByObjectVersion
1070
     0
  0
VISUALSTYLE
  5
64A2
102
{ACAD_XDICTIONARY
360
6665
102
}
102
{ACAD_REACTORS
330
6495
102
}
330
6495
100
AcDbVisualStyle
  2
Thicken
 70
    13
 71
     2
 72
     2
 73
     0
 90
        0
 40
-0.6
 41
-30.0
 62
     5
 63
     7
 74
     1
 91
        4
 64
     7
 65
   257
 75
     1
175
     1
 42
1.0
 92
       12
 66
     7
 43
1.0
 76
     1
 77
     6
 78
     2
 67
     7
 79
     5
170
     0
171
     0
290
     0
174
     0
 93
        1
 44
0.0
173
     0
291
     1
 45
0.0
1001
ACAD
1000
AcDbSavedByObjectVersion
1070
     0
  0
VISUALSTYLE
  5
649C
102
{ACAD_XDICTIONARY
360
6659
102
}
102
{ACAD_REACTORS
330
6495
102
}
330
6495
100
AcDbVisualStyle
  2
Wireframe
 70
     5
 71
     0
 72
     2
 73
     0
 90
        0
 40
-0.6
 41
-30.0
 62
     5
 63
     7
 74
     1
 91
        4
 64
     7
 65
   257
 75
     1
175
     1
 42
1.0
 92
        0
 66
   257
 43
1.0
 76
     1
 77
     6
 78
     2
 67
     7
 79
     3
170
     0
171
     0
290
     0
174
     0
 93
        1
 44
0.0
173
     0
291
     0
 45
0.0
1001
ACAD
1000
AcDbSavedByObjectVersion
1070
     0
  0
VISUALSTYLE
  5
64A8
102
{ACAD_XDICTIONARY
360
6671
102
}
102
{ACAD_REACTORS
330
6495
102
}
330
6495
100
AcDbVisualStyle
  2
X-Ray
 70
    25
 71
     2
 72
     2
 73
     1
 90
        1
 40
0.5
 41
-30.0
 62
     5
 63
     7
 74
     1
 91
        0
 64
     7
 65
   257
 75
     1
175
     1
 42
1.0
 92
        8
 66
     7
 43
1.0
 76
     1
 77
     6
 78
     2
 67
     7
 79
     3
170
     0
171
     0
290
     0
174
     0
 93
       13
 44
0.0
173
     0
291
     0
 45
0.0
1001
ACAD
1000
AcDbSavedByObjectVersion
1070
     0
  0
DICTIONARYVAR
  5
662E
102
{ACAD_REACTORS
330
6479
102
}
330
6479
100
DictionaryVariables
280
     0
  1
1:1
  0
DICTIONARYVAR
  5
662A
102
{ACAD_REACTORS
330
6479
102
}
330
6479
100
DictionaryVariables
280
     0
  1
STANDARD
  0
DICTIONARYVAR
  5
6629
102
{ACAD_REACTORS
330
6479
102
}
330
6479
100
DictionaryVariables
280
     0
  1
STANDARD
  0
DICTIONARYVAR
  5
662B
102
{ACAD_REACTORS
330
6479
102
}
330
6479
100
DictionaryVariables
280
     0
  1
Metric50
  0
DICTIONARYVAR
  5
662C
102
{ACAD_REACTORS
330
6479
102
}
330
6479
100
DictionaryVariables
280
     0
  1
Metric50
  0
DICTIONARYVAR
  5
647A
102
{ACAD_REACTORS
330
6479
102
}
330
6479
100
DictionaryVariables
280
     0
  1
1
  0
DICTIONARYVAR
  5
6638
102
{ACAD_REACTORS
330
6479
102
}
330
6479
100
DictionaryVariables
280
     0
  1
0
  0
DICTIONARYVAR
  5
6630
102
{ACAD_REACTORS
330
6479
102
}
330
6479
100
DictionaryVariables
280
     0
  1
1
  0
DICTIONARYVAR
  5
6631
102
{ACAD_REACTORS
330
6479
102
}
330
6479
100
DictionaryVariables
280
     0
  1
15
  0
DICTIONARYVAR
  5
662F
102
{ACAD_REACTORS
330
6479
102
}
330
6479
100
DictionaryVariables
280
     0
  1
0
  0
DICTIONARYVAR
  5
662D
102
{ACAD_REACTORS
330
6479
102
}
330
6479
100
DictionaryVariables
280
     0
  1
0
  0
DICTIONARYVAR
  5
6637
102
{ACAD_REACTORS
330
6479
102
}
330
6479
100
DictionaryVariables
280
     0
  1
127
  0
DICTIONARYVAR
  5
6639
102
{ACAD_REACTORS
330
6479
102
}
330
6479
100
DictionaryVariables
280
     0
  1
2
  0
DICTIONARY
  5
6645
102
{ACAD_REACTORS
330
6643
102
}
330
6643
100
AcDbDictionary
281
     1
  0
DICTIONARY
  5
6644
102
{ACAD_REACTORS
330
6643
102
}
330
6643
100
AcDbDictionary
281
     1
  3
140687754075616
350
663E
  3
140687754075632
350
663F
  3
140687754075648
350
6640
  3
140687754075664
350
6641
  3
140687754075680
350
6642
  0
DICTIONARY
  5
6626
330
64C8
100
AcDbDictionary
280
     1
281
     1
  3
ACAD_XREC_ROUNDTRIP
360
6682
  0
DICTIONARY
  5
6646
330
1E94
100
AcDbDictionary
280
     1
281
     1
  3
ACAD_XREC_ROUNDTRIP
360
6647
  0
DICTIONARY
  5
6648
330
1E95
100
AcDbDictionary
280
     1
281
     1
  3
ACAD_XREC_ROUNDTRIP
360
6649
  0
DICTIONARY
  5
6486
330
6485
100
AcDbDictionary
280
     1
281
     1
  3
ACAD_XREC_ROUNDTRIP
360
664B
  3
BUMPTILE
360
6488
  3
DIFFUSETILE
360
6487
  3
OPACITYTILE
360
648B
  3
REFLECTIONTILE
360
648A
  3
REFRACTIONTILE
360
648C
  3
SPECULARTILE
360
6489
  0
DICTIONARY
  5
647E
330
647D
100
AcDbDictionary
280
     1
281
     1
  3
ACAD_XREC_ROUNDTRIP
360
664A
  3
BUMPTILE
360
6480
  3
DIFFUSETILE
360
647F
  3
OPACITYTILE
360
6483
  3
REFLECTIONTILE
360
6482
  3
REFRACTIONTILE
360
6484
  3
SPECULARTILE
360
6481
  0
DICTIONARY
  5
648E
330
648D
100
AcDbDictionary
280
     1
281
     1
  3
ACAD_XREC_ROUNDTRIP
360
664C
  3
BUMPTILE
360
6490
  3
DIFFUSETILE
360
648F
  3
OPACITYTILE
360
6493
  3
REFLECTIONTILE
360
6492
  3
REFRACTIONTILE
360
6494
  3
SPECULARTILE
360
6491
  0
DICTIONARY
  5
667F
330
64C4
100
AcDbDictionary
280
     1
281
     1
  3
ACAD_XREC_ROUNDTRIP
360
6680
  0
DICTIONARY
  5
6624
330
64C6
100
AcDbDictionary
280
     1
281
     1
  3
ACAD_XREC_ROUNDTRIP
360
6681
  0
DICTIONARY
  5
663A
330
64B0
100
AcDbDictionary
280
     1
281
     1
  3
ACAD_ROUNDTRIP_2008_TABLESTYLE_CELLSTYLEMAP
360
663B
  3
ACAD_XREC_ROUNDTRIP
360
667D
  0
DICTIONARY
  5
6657
330
649B
100
AcDbDictionary
280
     1
281
     1
  3
ACAD_XREC_ROUNDTRIP
360
6658
  0
DICTIONARY
  5
6655
330
649A
100
AcDbDictionary
280
     1
281
     1
  3
ACAD_XREC_ROUNDTRIP
360
6656
  0
DICTIONARY
  5
6663
330
64A1
100
AcDbDictionary
280
     1
281
     1
  3
ACAD_XREC_ROUNDTRIP
360
6664
  0
DICTIONARY
  5
666B
330
64A5
100
AcDbDictionary
280
     1
281
     1
  3
ACAD_XREC_ROUNDTRIP
360
666C
  0
DICTIONARY
  5
665D
330
649E
100
AcDbDictionary
280
     1
281
     1
  3
ACAD_XREC_ROUNDTRIP
360
665E
  0
DICTIONARY
  5
6661
330
64A0
100
AcDbDictionary
280
     1
281
     1
  3
ACAD_XREC_ROUNDTRIP
360
6662
  0
DICTIONARY
  5
667B
330
64AD
100
AcDbDictionary
280
     1
281
     1
  3
ACAD_XREC_ROUNDTRIP
360
667C
  0
DICTIONARY
  5
6669
330
64A4
100
AcDbDictionary
280
     1
281
     1
  3
ACAD_XREC_ROUNDTRIP
360
666A
  0
DICTIONARY
  5
664D
330
6496
100
AcDbDictionary
280
     1
281
     1
  3
ACAD_XREC_ROUNDTRIP
360
664E
  0
DICTIONARY
  5
664F
330
6497
100
AcDbDictionary
280
     1
281
     1
  3
ACAD_XREC_ROUNDTRIP
360
6650
  0
DICTIONARY
  5
6651
330
6498
100
AcDbDictionary
280
     1
281
     1
  3
ACAD_XREC_ROUNDTRIP
360
6652
  0
DICTIONARY
  5
6653
330
6499
100
AcDbDictionary
280
     1
281
     1
  3
ACAD_XREC_ROUNDTRIP
360
6654
  0
DICTIONARY
  5
665B
330
649D
100
AcDbDictionary
280
     1
281
     1
  3
ACAD_XREC_ROUNDTRIP
360
665C
  0
DICTIONARY
  5
6677
330
64AB
100
AcDbDictionary
280
     1
281
     1
  3
ACAD_XREC_ROUNDTRIP
360
6678
  0
DICTIONARY
  5
6667
330
64A3
100
AcDbDictionary
280
     1
281
     1
  3
ACAD_XREC_ROUNDTRIP
360
6668
  0
DICTIONARY
  5
6679
330
64AC
100
AcDbDictionary
280
     1
281
     1
  3
ACAD_XREC_ROUNDTRIP
360
667A
  0
DICTIONARY
  5
665F
330
649F
100
AcDbDictionary
280
     1
281
     1
  3
ACAD_XREC_ROUNDTRIP
360
6660
  0
DICTIONARY
  5
6675
330
64AA
100
AcDbDictionary
280
     1
281
     1
  3
ACAD_XREC_ROUNDTRIP
360
6676
  0
DICTIONARY
  5
6673
330
64A9
100
AcDbDictionary
280
     1
281
     1
  3
ACAD_XREC_ROUNDTRIP
360
6674
  0
DICTIONARY
  5
666D
330
64A6
100
AcDbDictionary
280
     1
281
     1
  3
ACAD_XREC_ROUNDTRIP
360
666E
  0
DICTIONARY
  5
666F
330
64A7
100
AcDbDictionary
280
     1
281
     1
  3
ACAD_XREC_ROUNDTRIP
360
6670
  0
DICTIONARY
  5
6665
330
64A2
100
AcDbDictionary
280
     1
281
     1
  3
ACAD_XREC_ROUNDTRIP
360
6666
  0
DICTIONARY
  5
6659
330
649C
100
AcDbDictionary
280
     1
281
     1
  3
ACAD_XREC_ROUNDTRIP
360
665A
  0
DICTIONARY
  5
6671
330
64A8
100
AcDbDictionary
280
     1
281
     1
  3
ACAD_XREC_ROUNDTRIP
360
6672
  0
XRECORD
  5
663E
102
{ACAD_REACTORS
330
6644
102
}
330
6644
100
AcDbXrecord
280
     1
  1
AcDb_Thumbnail_Schema
102
{ATTRRECORD
341
663F
  2
AcDbDs::TreatedAsObjectData
280
     1
291
     1
102
ATTRRECORD}
102
{ATTRRECORD
341
6640
  2
AcDbDs::Legacy
280
     1
291
     1
102
ATTRRECORD}
  2
AcDbDs::ID
280
    10
 91
        8
102
{ATTRRECORD
341
6641
  2
AcDs:Indexable
280
     1
291
     1
102
ATTRRECORD}
102
{ATTRRECORD
341
6642
  2
AcDbDs::HandleAttribute
280
     7
282
     1
102
ATTRRECORD}
  2
Thumbnail_Data
280
    15
 91
        0
  0
XRECORD
  5
663F
102
{ACAD_REACTORS
330
6644
102
}
330
6644
100
AcDbXrecord
280
     1
  1
AcDbDs::TreatedAsObjectDataSchema
  2
AcDbDs::TreatedAsObjectData
280
     1
 91
        0
  0
XRECORD
  5
6640
102
{ACAD_REACTORS
330
6644
102
}
330
6644
100
AcDbXrecord
280
     1
  1
AcDbDs::LegacySchema
  2
AcDbDs::Legacy
280
     1
 91
        0
  0
XRECORD
  5
6641
102
{ACAD_REACTORS
330
6644
102
}
330
6644
100
AcDbXrecord
280
     1
  1
AcDbDs::IndexedPropertySchema
  2
AcDs:Indexable
280
     1
 91
        0
  0
XRECORD
  5
6642
102
{ACAD_REACTORS
330
6644
102
}
330
6644
100
AcDbXrecord
280
     1
  1
AcDbDs::HandleAttributeSchema
  2
AcDbDs::HandleAttribute
280
     7
 91
        1
284
     1
  0
XRECORD
  5
6682
102
{ACAD_REACTORS
330
6626
102
}
330
6626
100
AcDbXrecord
280
     1
102
DISPLAYNAME
  1
Metric50
102
FLAGS
 90
        0
  0
XRECORD
  5
6647
102
{ACAD_REACTORS
330
6646
102
}
330
6646
100
AcDbXrecord
280
     1
102
SHADEPLOT
 70
     0
102
SHADEPLOTRESLEVEL
 70
     2
102
SHADEPLOTCUSTOMDPI
 70
   300
  0
XRECORD
  5
6649
102
{ACAD_REACTORS
330
6648
102
}
330
6648
100
AcDbXrecord
280
     1
102
SHADEPLOT
 70
     0
102
SHADEPLOTRESLEVEL
 70
     2
102
SHADEPLOTCUSTOMDPI
 70
   300
  0
XRECORD
  5
664B
102
{ACAD_REACTORS
330
6486
102
}
330
6486
100
AcDbXrecord
280
     1
102
MATERIAL
148
0.0
149
0.0
149
0.0
 93
        0
 94
      127
282
     0
 72
     0
 77
     0
171
     0
175
     0
179
     0
273
     0
  0
XRECORD
  5
6488
102
{ACAD_REACTORS
330
6486
102
}
330
6486
100
AcDbXrecord
280
     1
270
     1
271
     1
  0
XRECORD
  5
6487
102
{ACAD_REACTORS
330
6486
102
}
330
6486
100
AcDbXrecord
280
     1
270
     1
271
     1
  0
XRECORD
  5
648B
102
{ACAD_REACTORS
330
6486
102
}
330
6486
100
AcDbXrecord
280
     1
270
     1
271
     1
  0
XRECORD
  5
648A
102
{ACAD_REACTORS
330
6486
102
}
330
6486
100
AcDbXrecord
280
     1
270
     1
271
     1
  0
XRECORD
  5
648C
102
{ACAD_REACTORS
330
6486
102
}
330
6486
100
AcDbXrecord
280
     1
270
     1
271
     1
  0
XRECORD
  5
6489
102
{ACAD_REACTORS
330
6486
102
}
330
6486
100
AcDbXrecord
280
     1
270
     1
271
     1
  0
XRECORD
  5
664A
102
{ACAD_REACTORS
330
647E
102
}
330
647E
100
AcDbXrecord
280
     1
102
MATERIAL
148
0.0
149
0.0
149
0.0
 93
        0
 94
      127
282
     0
 72
     0
 77
     0
171
     0
175
     0
179
     0
273
     0
  0
XRECORD
  5
6480
102
{ACAD_REACTORS
330
647E
102
}
330
647E
100
AcDbXrecord
280
     1
270
     1
271
     1
  0
XRECORD
  5
647F
102
{ACAD_REACTORS
330
647E
102
}
330
647E
100
AcDbXrecord
280
     1
270
     1
271
     1
  0
XRECORD
  5
6483
102
{ACAD_REACTORS
330
647E
102
}
330
647E
100
AcDbXrecord
280
     1
270
     1
271
     1
  0
XRECORD
  5
6482
102
{ACAD_REACTORS
330
647E
102
}
330
647E
100
AcDbXrecord
280
     1
270
     1
271
     1
  0
XRECORD
  5
6484
102
{ACAD_REACTORS
330
647E
102
}
330
647E
100
AcDbXrecord
280
     1
270
     1
271
     1
  0
XRECORD
  5
6481
102
{ACAD_REACTORS
330
647E
102
}
330
647E
100
AcDbXrecord
280
     1
270
     1
271
     1
  0
XRECORD
  5
664C
102
{ACAD_REACTORS
330
648E
102
}
330
648E
100
AcDbXrecord
280
     1
102
MATERIAL
148
0.0
149
0.0
149
0.0
 93
        0
 94
      127
282
     0
 72
     0
 77
     0
171
     0
175
     0
179
     0
273
     0
  0
XRECORD
  5
6490
102
{ACAD_REACTORS
330
648E
102
}
330
648E
100
AcDbXrecord
280
     1
270
     1
271
     1
  0
XRECORD
  5
648F
102
{ACAD_REACTORS
330
648E
102
}
330
648E
100
AcDbXrecord
280
     1
270
     1
271
     1
  0
XRECORD
  5
6493
102
{ACAD_REACTORS
330
648E
102
}
330
648E
100
AcDbXrecord
280
     1
270
     1
271
     1
  0
XRECORD
  5
6492
102
{ACAD_REACTORS
330
648E
102
}
330
648E
100
AcDbXrecord
280
     1
270
     1
271
     1
  0
XRECORD
  5
6494
102
{ACAD_REACTORS
330
648E
102
}
330
648E
100
AcDbXrecord
280
     1
270
     1
271
     1
  0
XRECORD
  5
6491
102
{ACAD_REACTORS
330
648E
102
}
330
648E
100
AcDbXrecord
280
     1
270
     1
271
     1
  0
XRECORD
  5
6680
102
{ACAD_REACTORS
330
667F
102
}
330
667F
100
AcDbXrecord
280
     1
102
ACAD_ROUNDTRIP_2012_MLEADER_STYLE
298
     1
  0
XRECORD
  5
6681
102
{ACAD_REACTORS
330
6624
102
}
330
6624
100
AcDbXrecord
280
     1
102
DISPLAYNAME
  1
Metric50
102
FLAGS
 90
        0
  0
CELLSTYLEMAP
  5
663B
102
{ACAD_REACTORS
330
663A
102
}
330
663A
100
AcDbCellStyleMap
 90
        3
300
CELLSTYLE
  1
TABLEFORMAT_BEGIN
 90
        5
170
     1
 91
        0
 92
    32768
 62
   257
 93
        1
300
CONTENTFORMAT
  1
CONTENTFORMAT_BEGIN
 90
        0
 91
        0
 92
      512
 93
        0
300

 40
0.0
140
1.0
 94
        5
 62
     0
340
10
144
6.0
309
CONTENTFORMAT_END
171
     1
301
MARGIN
  1
CELLMARGIN_BEGIN
 40
1.5
 40
1.5
 40
1.5
 40
1.5
 40
4.5
 40
4.5
309
CELLMARGIN_END
 94
        6
 95
        1
302
GRIDFORMAT
  1
GRIDFORMAT_BEGIN
 90
        0
 91
        1
 62
     0
 92
       -2
340
0
 93
        0
 40
1.125
309
GRIDFORMAT_END
 95
        2
302
GRIDFORMAT
  1
GRIDFORMAT_BEGIN
 90
        0
 91
        1
 62
     0
 92
       -2
340
0
 93
        0
 40
1.125
309
GRIDFORMAT_END
 95
        4
302
GRIDFORMAT
  1
GRIDFORMAT_BEGIN
 90
        0
 91
        1
 62
     0
 92
       -2
340
0
 93
        0
 40
1.125
309
GRIDFORMAT_END
 95
        8
302
GRIDFORMAT
  1
GRIDFORMAT_BEGIN
 90
        0
 91
        1
 62
     0
 92
       -2
340
0
 93
        0
 40
1.125
309
GRIDFORMAT_END
 95
       16
302
GRIDFORMAT
  1
GRIDFORMAT_BEGIN
 90
        0
 91
        1
 62
     0
 92
       -2
340
0
 93
        0
 40
1.125
309
GRIDFORMAT_END
 95
       32
302
GRIDFORMAT
  1
GRIDFORMAT_BEGIN
 90
        0
 91
        1
 62
     0
 92
       -2
340
0
 93
        0
 40
1.125
309
GRIDFORMAT_END
309
TABLEFORMAT_END
  1
CELLSTYLE_BEGIN
 90
        1
 91
        1
300
_TITLE
309
CELLSTYLE_END
300
CELLSTYLE
  1
TABLEFORMAT_BEGIN
 90
        5
170
     1
 91
        0
 92
        0
 62
   257
 93
        1
300
CONTENTFORMAT
  1
CONTENTFORMAT_BEGIN
 90
        0
 91
        0
 92
      512
 93
        0
300

 40
0.0
140
1.0
 94
        5
 62
     0
340
10
144
4.5
309
CONTENTFORMAT_END
171
     1
301
MARGIN
  1
CELLMARGIN_BEGIN
 40
1.5
 40
1.5
 40
1.5
 40
1.5
 40
4.5
 40
4.5
309
CELLMARGIN_END
 94
        6
 95
        1
302
GRIDFORMAT
  1
GRIDFORMAT_BEGIN
 90
        0
 91
        1
 62
     0
 92
       -2
340
0
 93
        0
 40
1.125
309
GRIDFORMAT_END
 95
        2
302
GRIDFORMAT
  1
GRIDFORMAT_BEGIN
 90
        0
 91
        1
 62
     0
 92
       -2
340
0
 93
        0
 40
1.125
309
GRIDFORMAT_END
 95
        4
302
GRIDFORMAT
  1
GRIDFORMAT_BEGIN
 90
        0
 91
        1
 62
     0
 92
       -2
340
0
 93
        0
 40
1.125
309
GRIDFORMAT_END
 95
        8
302
GRIDFORMAT
  1
GRIDFORMAT_BEGIN
 90
        0
 91
        1
 62
     0
 92
       -2
340
0
 93
        0
 40
1.125
309
GRIDFORMAT_END
 95
       16
302
GRIDFORMAT
  1
GRIDFORMAT_BEGIN
 90
        0
 91
        1
 62
     0
 92
       -2
340
0
 93
        0
 40
1.125
309
GRIDFORMAT_END
 95
       32
302
GRIDFORMAT
  1
GRIDFORMAT_BEGIN
 90
        0
 91
        1
 62
     0
 92
       -2
340
0
 93
        0
 40
1.125
309
GRIDFORMAT_END
309
TABLEFORMAT_END
  1
CELLSTYLE_BEGIN
 90
        2
 91
        1
300
_HEADER
309
CELLSTYLE_END
300
CELLSTYLE
  1
TABLEFORMAT_BEGIN
 90
        5
170
     1
 91
        0
 92
        0
 62
   257
 93
        1
300
CONTENTFORMAT
  1
CONTENTFORMAT_BEGIN
 90
        0
 91
        0
 92
      512
 93
        0
300

 40
0.0
140
1.0
 94
        2
 62
     0
340
10
144
4.5
309
CONTENTFORMAT_END
171
     1
301
MARGIN
  1
CELLMARGIN_BEGIN
 40
1.5
 40
1.5
 40
1.5
 40
1.5
 40
4.5
 40
4.5
309
CELLMARGIN_END
 94
        6
 95
        1
302
GRIDFORMAT
  1
GRIDFORMAT_BEGIN
 90
        0
 91
        1
 62
     0
 92
       -2
340
0
 93
        0
 40
1.125
309
GRIDFORMAT_END
 95
        2
302
GRIDFORMAT
  1
GRIDFORMAT_BEGIN
 90
        0
 91
        1
 62
     0
 92
       -2
340
0
 93
        0
 40
1.125
309
GRIDFORMAT_END
 95
        4
302
GRIDFORMAT
  1
GRIDFORMAT_BEGIN
 90
        0
 91
        1
 62
     0
 92
       -2
340
0
 93
        0
 40
1.125
309
GRIDFORMAT_END
 95
        8
302
GRIDFORMAT
  1
GRIDFORMAT_BEGIN
 90
        0
 91
        1
 62
     0
 92
       -2
340
0
 93
        0
 40
1.125
309
GRIDFORMAT_END
 95
       16
302
GRIDFORMAT
  1
GRIDFORMAT_BEGIN
 90
        0
 91
        1
 62
     0
 92
       -2
340
0
 93
        0
 40
1.125
309
GRIDFORMAT_END
 95
       32
302
GRIDFORMAT
  1
GRIDFORMAT_BEGIN
 90
        0
 91
        1
 62
     0
 92
       -2
340
0
 93
        0
 40
1.125
309
GRIDFORMAT_END
309
TABLEFORMAT_END
  1
CELLSTYLE_BEGIN
 90
        3
 91
        2
300
_DATA
309
CELLSTYLE_END
  0
XRECORD
  5
667D
102
{ACAD_REACTORS
330
663A
102
}
330
663A
100
AcDbXrecord
280
     1
102
ACAD_ROUNDTRIP_PRE2007_TABLESTYLE
 90
      512
 91
        0
  1

 92
      512
 93
        0
  2

 94
      512
 95
        0
  3

  0
XRECORD
  5
6658
102
{ACAD_REACTORS
330
6657
102
}
330
6657
100
AcDbXrecord
280
     1
102
RTVSPost2010Prop28
280
     1
102
RTVSPost2010PropOp28
 70
     1
102
RTVSPost2010Prop29
280
     1
102
RTVSPost2010PropOp29
 70
     1
102
RTVSPost2010Prop30
280
     0
102
RTVSPost2010PropOp30
 70
     1
102
RTVSPost2010Prop31
280
     0
102
RTVSPost2010PropOp31
 70
     1
102
RTVSPost2010Prop32
280
     0
102
RTVSPost2010PropOp32
 70
     1
102
RTVSPost2010Prop33
280
     0
102
RTVSPost2010PropOp33
 70
     1
102
RTVSPost2010Prop34
280
     0
102
RTVSPost2010PropOp34
 70
     1
102
RTVSPost2010Prop35
280
     0
102
RTVSPost2010PropOp35
 70
     1
102
RTVSPost2010Prop36
280
     0
102
RTVSPost2010PropOp36
 70
     1
102
RTVSPost2010Prop37
 90
       50
102
RTVSPost2010PropOp37
 70
     1
102
RTVSPost2010Prop38
140
0.0
102
RTVSPost2010PropOp38
 70
     1
102
RTVSPost2010Prop39
140
1.0
102
RTVSPost2010PropOp39
 70
     1
102
RTVSPost2010Prop40
 90
        0
102
RTVSPost2010PropOp40
 70
     1
102
RTVSPost2010Prop41ColorIndex
 90
       18
102
RTVSPost2010Prop41ColorRGB
 90
        0
102
RTVSPost2010PropOp41
 70
     1
102
RTVSPost2010Prop42
 90
       50
102
RTVSPost2010PropOp42
 70
     1
102
RTVSPost2010Prop43
 90
        3
102
RTVSPost2010PropOp43
 70
     1
102
RTVSPost2010Prop44ColorIndex
 90
        5
102
RTVSPost2010Prop44ColorRGB
 90
      255
102
RTVSPost2010PropOp44
 70
     1
102
RTVSPost2010Prop45
280
     0
102
RTVSPost2010PropOp45
 70
     1
102
RTVSPost2010Prop46
 90
       50
102
RTVSPost2010PropOp46
 70
     1
102
RTVSPost2010Prop47
 90
       50
102
RTVSPost2010PropOp47
 70
     1
102
RTVSPost2010Prop48
 90
       50
102
RTVSPost2010PropOp48
 70
     1
102
RTVSPost2010Prop49
280
     0
102
RTVSPost2010PropOp49
 70
     1
102
RTVSPost2010Prop50
 90
       50
102
RTVSPost2010PropOp50
 70
     1
102
RTVSPost2010Prop51ColorIndex
 90
      256
102
RTVSPost2010Prop51ColorRGB
 90
-16777216
102
RTVSPost2010PropOp51
 70
     0
102
RTVSPost2010Prop52
140
1.0
102
RTVSPost2010PropOp52
 70
     0
102
RTVSPost2010Prop53
 90
        2
102
RTVSPost2010PropOp53
 70
     1
102
RTVSPost2010Prop54
  1
strokes_ogs.tif
102
RTVSPost2010PropOp54
 70
     1
102
RTVSPost2010Prop55
280
     0
102
RTVSPost2010PropOp55
 70
     1
102
RTVSPost2010Prop56
140
1.0
102
RTVSPost2010PropOp56
 70
     1
102
RTVSPost2010Prop57
140
1.0
102
RTVSPost2010PropOp57
 70
     1
102
RTVSPropertyOp0
 70
     1
102
RTVSPropertyOp1
 70
     1
102
RTVSPropertyOp2
 70
     1
102
RTVSPropertyOp3
 70
     1
102
RTVSPropertyOp4
 70
     1
102
RTVSPropertyOp5
 70
     1
102
RTVSPropertyOp6
 70
     1
102
RTVSPropertyOp7
 70
     1
102
RTVSPropertyOp8
 70
     1
102
RTVSPropertyOp9
 70
     1
102
RTVSPropertyOp10
 70
     1
102
RTVSPropertyOp11
 70
     1
102
RTVSPropertyOp12
 70
     1
102
RTVSPropertyOp13
 70
     1
102
RTVSPropertyOp14
 70
     1
102
RTVSPropertyOp15
 70
     1
102
RTVSPropertyOp16
 70
     1
102
RTVSPropertyOp17
 70
     1
102
RTVSPropertyOp18
 70
     1
102
RTVSPropertyOp19
 70
     1
102
RTVSPropertyOp20
 70
     1
102
RTVSPropertyOp21
 70
     1
102
RTVSPropertyOp22
 70
     1
102
RTVSPropertyOp23
 70
     1
102
RTVSPropertyOp24
 70
     1
102
RTVSPropertyOp25
 70
     1
102
RTVSPropertyOp26
 70
     1
102
RTVSPropertyOp27
 70
     1
102
RTVSPropertyOp28
 70
     1
102
RTVSPropertyOp29
 70
     1
102
RTVSPropertyOp30
 70
     1
102
RTVSPropertyOp31
 70
     1
102
RTVSPropertyOp32
 70
     1
102
RTVSPropertyOp33
 70
     1
102
RTVSPropertyOp34
 70
     1
102
RTVSPropertyOp35
 70
     1
102
RTVSPropertyOp36
 70
     1
102
RTVSPropertyOp37
 70
     1
102
RTVSPropertyOp38
 70
     1
102
RTVSPropertyOp39
 70
     1
102
RTVSPropertyOp40
 70
     1
102
RTVSPropertyOp41
 70
     1
102
RTVSPropertyOp42
 70
     1
102
RTVSPropertyOp43
 70
     1
102
RTVSPropertyOp44
 70
     1
102
RTVSPropertyOp45
 70
     1
102
RTVSPropertyOp46
 70
     1
102
RTVSPropertyOp47
 70
     1
102
RTVSPropertyOp48
 70
     1
102
RTVSPropertyOp49
 70
     1
102
RTVSPropertyOp50
 70
     1
102
RTVSPropertyOp51
 70
     0
102
RTVSPropertyOp52
 70
     0
102
RTVSPropertyOp53
 70
     1
102
RTVSPropertyOp54
 70
     1
102
RTVSPropertyOp55
 70
     1
102
RTVSPropertyOp56
 70
     1
102
RTVSPropertyOp57
 70
     1
102
RTVSPropertyOp58
 70
     1
102
RTVSPropertyOp59
 70
     1
102
RTVSPropertyOp60
 70
     1
102
RTVSPropertyOp61
 70
     1
102
RTVSPropertyOp62
 70
     1
  0
XRECORD
  5
6656
102
{ACAD_REACTORS
330
6655
102
}
330
6655
100
AcDbXrecord
280
     1
102
RTVSPost2010Prop28
280
     0
102
RTVSPost2010PropOp28
 70
     1
102
RTVSPost2010Prop29
280
     1
102
RTVSPost2010PropOp29
 70
     1
102
RTVSPost2010Prop30
280
     1
102
RTVSPost2010PropOp30
 70
     1
102
RTVSPost2010Prop31
280
     0
102
RTVSPost2010PropOp31
 70
     1
102
RTVSPost2010Prop32
280
     0
102
RTVSPost2010PropOp32
 70
     1
102
RTVSPost2010Prop33
280
     0
102
RTVSPost2010PropOp33
 70
     1
102
RTVSPost2010Prop34
280
     0
102
RTVSPost2010PropOp34
 70
     1
102
RTVSPost2010Prop35
280
     0
102
RTVSPost2010PropOp35
 70
     1
102
RTVSPost2010Prop36
280
     0
102
RTVSPost2010PropOp36
 70
     1
102
RTVSPost2010Prop37
 90
       50
102
RTVSPost2010PropOp37
 70
     1
102
RTVSPost2010Prop38
140
0.0
102
RTVSPost2010PropOp38
 70
     1
102
RTVSPost2010Prop39
140
1.0
102
RTVSPost2010PropOp39
 70
     1
102
RTVSPost2010Prop40
 90
        0
102
RTVSPost2010PropOp40
 70
     1
102
RTVSPost2010Prop41ColorIndex
 90
       18
102
RTVSPost2010Prop41ColorRGB
 90
        0
102
RTVSPost2010PropOp41
 70
     1
102
RTVSPost2010Prop42
 90
       50
102
RTVSPost2010PropOp42
 70
     1
102
RTVSPost2010Prop43
 90
        3
102
RTVSPost2010PropOp43
 70
     1
102
RTVSPost2010Prop44ColorIndex
 90
        5
102
RTVSPost2010Prop44ColorRGB
 90
      255
102
RTVSPost2010PropOp44
 70
     1
102
RTVSPost2010Prop45
280
     0
102
RTVSPost2010PropOp45
 70
     1
102
RTVSPost2010Prop46
 90
       50
102
RTVSPost2010PropOp46
 70
     1
102
RTVSPost2010Prop47
 90
       50
102
RTVSPost2010PropOp47
 70
     1
102
RTVSPost2010Prop48
 90
       50
102
RTVSPost2010PropOp48
 70
     1
102
RTVSPost2010Prop49
280
     0
102
RTVSPost2010PropOp49
 70
     1
102
RTVSPost2010Prop50
 90
       50
102
RTVSPost2010PropOp50
 70
     1
102
RTVSPost2010Prop51ColorIndex
 90
      256
102
RTVSPost2010Prop51ColorRGB
 90
-16777216
102
RTVSPost2010PropOp51
 70
     0
102
RTVSPost2010Prop52
140
1.0
102
RTVSPost2010PropOp52
 70
     0
102
RTVSPost2010Prop53
 90
        2
102
RTVSPost2010PropOp53
 70
     1
102
RTVSPost2010Prop54
  1
strokes_ogs.tif
102
RTVSPost2010PropOp54
 70
     1
102
RTVSPost2010Prop55
280
     0
102
RTVSPost2010PropOp55
 70
     1
102
RTVSPost2010Prop56
140
1.0
102
RTVSPost2010PropOp56
 70
     1
102
RTVSPost2010Prop57
140
1.0
102
RTVSPost2010PropOp57
 70
     1
102
RTVSPropertyOp0
 70
     1
102
RTVSPropertyOp1
 70
     1
102
RTVSPropertyOp2
 70
     1
102
RTVSPropertyOp3
 70
     1
102
RTVSPropertyOp4
 70
     1
102
RTVSPropertyOp5
 70
     1
102
RTVSPropertyOp6
 70
     1
102
RTVSPropertyOp7
 70
     1
102
RTVSPropertyOp8
 70
     1
102
RTVSPropertyOp9
 70
     1
102
RTVSPropertyOp10
 70
     1
102
RTVSPropertyOp11
 70
     1
102
RTVSPropertyOp12
 70
     1
102
RTVSPropertyOp13
 70
     1
102
RTVSPropertyOp14
 70
     1
102
RTVSPropertyOp15
 70
     1
102
RTVSPropertyOp16
 70
     1
102
RTVSPropertyOp17
 70
     1
102
RTVSPropertyOp18
 70
     1
102
RTVSPropertyOp19
 70
     1
102
RTVSPropertyOp20
 70
     1
102
RTVSPropertyOp21
 70
     1
102
RTVSPropertyOp22
 70
     1
102
RTVSPropertyOp23
 70
     1
102
RTVSPropertyOp24
 70
     1
102
RTVSPropertyOp25
 70
     1
102
RTVSPropertyOp26
 70
     1
102
RTVSPropertyOp27
 70
     1
102
RTVSPropertyOp28
 70
     1
102
RTVSPropertyOp29
 70
     1
102
RTVSPropertyOp30
 70
     1
102
RTVSPropertyOp31
 70
     1
102
RTVSPropertyOp32
 70
     1
102
RTVSPropertyOp33
 70
     1
102
RTVSPropertyOp34
 70
     1
102
RTVSPropertyOp35
 70
     1
102
RTVSPropertyOp36
 70
     1
102
RTVSPropertyOp37
 70
     1
102
RTVSPropertyOp38
 70
     1
102
RTVSPropertyOp39
 70
     1
102
RTVSPropertyOp40
 70
     1
102
RTVSPropertyOp41
 70
     1
102
RTVSPropertyOp42
 70
     1
102
RTVSPropertyOp43
 70
     1
102
RTVSPropertyOp44
 70
     1
102
RTVSPropertyOp45
 70
     1
102
RTVSPropertyOp46
 70
     1
102
RTVSPropertyOp47
 70
     1
102
RTVSPropertyOp48
 70
     1
102
RTVSPropertyOp49
 70
     1
102
RTVSPropertyOp50
 70
     1
102
RTVSPropertyOp51
 70
     0
102
RTVSPropertyOp52
 70
     0
102
RTVSPropertyOp53
 70
     1
102
RTVSPropertyOp54
 70
     1
102
RTVSPropertyOp55
 70
     1
102
RTVSPropertyOp56
 70
     1
102
RTVSPropertyOp57
 70
     1
102
RTVSPropertyOp58
 70
     1
102
RTVSPropertyOp59
 70
     1
102
RTVSPropertyOp60
 70
     1
102
RTVSPropertyOp61
 70
     1
102
RTVSPropertyOp62
 70
     1
  0
XRECORD
  5
6664
102
{ACAD_REACTORS
330
6663
102
}
330
6663
100
AcDbXrecord
280
     1
102
RTVSPost2010Prop28
280
     0
102
RTVSPost2010PropOp28
 70
     1
102
RTVSPost2010Prop29
280
     1
102
RTVSPost2010PropOp29
 70
     1
102
RTVSPost2010Prop30
280
     1
102
RTVSPost2010PropOp30
 70
     1
102
RTVSPost2010Prop31
280
     0
102
RTVSPost2010PropOp31
 70
     1
102
RTVSPost2010Prop32
280
     0
102
RTVSPost2010PropOp32
 70
     1
102
RTVSPost2010Prop33
280
     0
102
RTVSPost2010PropOp33
 70
     1
102
RTVSPost2010Prop34
280
     0
102
RTVSPost2010PropOp34
 70
     1
102
RTVSPost2010Prop35
280
     0
102
RTVSPost2010PropOp35
 70
     1
102
RTVSPost2010Prop36
280
     0
102
RTVSPost2010PropOp36
 70
     1
102
RTVSPost2010Prop37
 90
       50
102
RTVSPost2010PropOp37
 70
     1
102
RTVSPost2010Prop38
140
0.0
102
RTVSPost2010PropOp38
 70
     1
102
RTVSPost2010Prop39
140
1.0
102
RTVSPost2010PropOp39
 70
     1
102
RTVSPost2010Prop40
 90
        0
102
RTVSPost2010PropOp40
 70
     1
102
RTVSPost2010Prop41ColorIndex
 90
       18
102
RTVSPost2010Prop41ColorRGB
 90
        0
102
RTVSPost2010PropOp41
 70
     1
102
RTVSPost2010Prop42
 90
       50
102
RTVSPost2010PropOp42
 70
     1
102
RTVSPost2010Prop43
 90
        3
102
RTVSPost2010PropOp43
 70
     1
102
RTVSPost2010Prop44ColorIndex
 90
        5
102
RTVSPost2010Prop44ColorRGB
 90
      255
102
RTVSPost2010PropOp44
 70
     1
102
RTVSPost2010Prop45
280
     0
102
RTVSPost2010PropOp45
 70
     1
102
RTVSPost2010Prop46
 90
       50
102
RTVSPost2010PropOp46
 70
     1
102
RTVSPost2010Prop47
 90
       50
102
RTVSPost2010PropOp47
 70
     1
102
RTVSPost2010Prop48
 90
       50
102
RTVSPost2010PropOp48
 70
     1
102
RTVSPost2010Prop49
280
     0
102
RTVSPost2010PropOp49
 70
     1
102
RTVSPost2010Prop50
 90
       50
102
RTVSPost2010PropOp50
 70
     1
102
RTVSPost2010Prop51ColorIndex
 90
      256
102
RTVSPost2010Prop51ColorRGB
 90
-16777216
102
RTVSPost2010PropOp51
 70
     0
102
RTVSPost2010Prop52
140
1.0
102
RTVSPost2010PropOp52
 70
     0
102
RTVSPost2010Prop53
 90
        2
102
RTVSPost2010PropOp53
 70
     1
102
RTVSPost2010Prop54
  1
strokes_ogs.tif
102
RTVSPost2010PropOp54
 70
     1
102
RTVSPost2010Prop55
280
     0
102
RTVSPost2010PropOp55
 70
     1
102
RTVSPost2010Prop56
140
1.0
102
RTVSPost2010PropOp56
 70
     1
102
RTVSPost2010Prop57
140
1.0
102
RTVSPost2010PropOp57
 70
     1
102
RTVSPropertyOp0
 70
     1
102
RTVSPropertyOp1
 70
     1
102
RTVSPropertyOp2
 70
     1
102
RTVSPropertyOp3
 70
     1
102
RTVSPropertyOp4
 70
     1
102
RTVSPropertyOp5
 70
     1
102
RTVSPropertyOp6
 70
     1
102
RTVSPropertyOp7
 70
     1
102
RTVSPropertyOp8
 70
     1
102
RTVSPropertyOp9
 70
     1
102
RTVSPropertyOp10
 70
     1
102
RTVSPropertyOp11
 70
     1
102
RTVSPropertyOp12
 70
     1
102
RTVSPropertyOp13
 70
     1
102
RTVSPropertyOp14
 70
     1
102
RTVSPropertyOp15
 70
     1
102
RTVSPropertyOp16
 70
     1
102
RTVSPropertyOp17
 70
     1
102
RTVSPropertyOp18
 70
     1
102
RTVSPropertyOp19
 70
     1
102
RTVSPropertyOp20
 70
     1
102
RTVSPropertyOp21
 70
     1
102
RTVSPropertyOp22
 70
     1
102
RTVSPropertyOp23
 70
     1
102
RTVSPropertyOp24
 70
     1
102
RTVSPropertyOp25
 70
     1
102
RTVSPropertyOp26
 70
     1
102
RTVSPropertyOp27
 70
     1
102
RTVSPropertyOp28
 70
     1
102
RTVSPropertyOp29
 70
     1
102
RTVSPropertyOp30
 70
     1
102
RTVSPropertyOp31
 70
     1
102
RTVSPropertyOp32
 70
     1
102
RTVSPropertyOp33
 70
     1
102
RTVSPropertyOp34
 70
     1
102
RTVSPropertyOp35
 70
     1
102
RTVSPropertyOp36
 70
     1
102
RTVSPropertyOp37
 70
     1
102
RTVSPropertyOp38
 70
     1
102
RTVSPropertyOp39
 70
     1
102
RTVSPropertyOp40
 70
     1
102
RTVSPropertyOp41
 70
     1
102
RTVSPropertyOp42
 70
     1
102
RTVSPropertyOp43
 70
     1
102
RTVSPropertyOp44
 70
     1
102
RTVSPropertyOp45
 70
     1
102
RTVSPropertyOp46
 70
     1
102
RTVSPropertyOp47
 70
     1
102
RTVSPropertyOp48
 70
     1
102
RTVSPropertyOp49
 70
     1
102
RTVSPropertyOp50
 70
     1
102
RTVSPropertyOp51
 70
     0
102
RTVSPropertyOp52
 70
     0
102
RTVSPropertyOp53
 70
     1
102
RTVSPropertyOp54
 70
     1
102
RTVSPropertyOp55
 70
     1
102
RTVSPropertyOp56
 70
     1
102
RTVSPropertyOp57
 70
     1
102
RTVSPropertyOp58
 70
     1
102
RTVSPropertyOp59
 70
     1
102
RTVSPropertyOp60
 70
     1
102
RTVSPropertyOp61
 70
     1
102
RTVSPropertyOp62
 70
     1
  0
XRECORD
  5
666C
102
{ACAD_REACTORS
330
666B
102
}
330
666B
100
AcDbXrecord
280
     1
102
RTVSPost2010Prop28
280
     0
102
RTVSPost2010PropOp28
 70
     1
102
RTVSPost2010Prop29
280
     1
102
RTVSPost2010PropOp29
 70
     1
102
RTVSPost2010Prop30
280
     1
102
RTVSPost2010PropOp30
 70
     1
102
RTVSPost2010Prop31
280
     0
102
RTVSPost2010PropOp31
 70
     1
102
RTVSPost2010Prop32
280
     0
102
RTVSPost2010PropOp32
 70
     1
102
RTVSPost2010Prop33
280
     0
102
RTVSPost2010PropOp33
 70
     1
102
RTVSPost2010Prop34
280
     0
102
RTVSPost2010PropOp34
 70
     1
102
RTVSPost2010Prop35
280
     0
102
RTVSPost2010PropOp35
 70
     1
102
RTVSPost2010Prop36
280
     0
102
RTVSPost2010PropOp36
 70
     1
102
RTVSPost2010Prop37
 90
       50
102
RTVSPost2010PropOp37
 70
     1
102
RTVSPost2010Prop38
140
0.0
102
RTVSPost2010PropOp38
 70
     1
102
RTVSPost2010Prop39
140
1.0
102
RTVSPost2010PropOp39
 70
     1
102
RTVSPost2010Prop40
 90
        0
102
RTVSPost2010PropOp40
 70
     1
102
RTVSPost2010Prop41ColorIndex
 90
       18
102
RTVSPost2010Prop41ColorRGB
 90
        0
102
RTVSPost2010PropOp41
 70
     1
102
RTVSPost2010Prop42
 90
       50
102
RTVSPost2010PropOp42
 70
     1
102
RTVSPost2010Prop43
 90
        3
102
RTVSPost2010PropOp43
 70
     1
102
RTVSPost2010Prop44ColorIndex
 90
        5
102
RTVSPost2010Prop44ColorRGB
 90
      255
102
RTVSPost2010PropOp44
 70
     1
102
RTVSPost2010Prop45
280
     0
102
RTVSPost2010PropOp45
 70
     1
102
RTVSPost2010Prop46
 90
       50
102
RTVSPost2010PropOp46
 70
     1
102
RTVSPost2010Prop47
 90
       50
102
RTVSPost2010PropOp47
 70
     1
102
RTVSPost2010Prop48
 90
       50
102
RTVSPost2010PropOp48
 70
     1
102
RTVSPost2010Prop49
280
     0
102
RTVSPost2010PropOp49
 70
     1
102
RTVSPost2010Prop50
 90
       50
102
RTVSPost2010PropOp50
 70
     1
102
RTVSPost2010Prop51ColorIndex
 90
      256
102
RTVSPost2010Prop51ColorRGB
 90
-16777216
102
RTVSPost2010PropOp51
 70
     0
102
RTVSPost2010Prop52
140
1.0
102
RTVSPost2010PropOp52
 70
     0
102
RTVSPost2010Prop53
 90
        2
102
RTVSPost2010PropOp53
 70
     1
102
RTVSPost2010Prop54
  1
strokes_ogs.tif
102
RTVSPost2010PropOp54
 70
     1
102
RTVSPost2010Prop55
280
     0
102
RTVSPost2010PropOp55
 70
     1
102
RTVSPost2010Prop56
140
1.0
102
RTVSPost2010PropOp56
 70
     1
102
RTVSPost2010Prop57
140
1.0
102
RTVSPost2010PropOp57
 70
     1
102
RTVSPropertyOp0
 70
     1
102
RTVSPropertyOp1
 70
     1
102
RTVSPropertyOp2
 70
     1
102
RTVSPropertyOp3
 70
     1
102
RTVSPropertyOp4
 70
     1
102
RTVSPropertyOp5
 70
     1
102
RTVSPropertyOp6
 70
     1
102
RTVSPropertyOp7
 70
     1
102
RTVSPropertyOp8
 70
     1
102
RTVSPropertyOp9
 70
     1
102
RTVSPropertyOp10
 70
     1
102
RTVSPropertyOp11
 70
     1
102
RTVSPropertyOp12
 70
     1
102
RTVSPropertyOp13
 70
     1
102
RTVSPropertyOp14
 70
     1
102
RTVSPropertyOp15
 70
     1
102
RTVSPropertyOp16
 70
     1
102
RTVSPropertyOp17
 70
     1
102
RTVSPropertyOp18
 70
     1
102
RTVSPropertyOp19
 70
     1
102
RTVSPropertyOp20
 70
     1
102
RTVSPropertyOp21
 70
     1
102
RTVSPropertyOp22
 70
     1
102
RTVSPropertyOp23
 70
     1
102
RTVSPropertyOp24
 70
     1
102
RTVSPropertyOp25
 70
     1
102
RTVSPropertyOp26
 70
     1
102
RTVSPropertyOp27
 70
     1
102
RTVSPropertyOp28
 70
     1
102
RTVSPropertyOp29
 70
     1
102
RTVSPropertyOp30
 70
     1
102
RTVSPropertyOp31
 70
     1
102
RTVSPropertyOp32
 70
     1
102
RTVSPropertyOp33
 70
     1
102
RTVSPropertyOp34
 70
     1
102
RTVSPropertyOp35
 70
     1
102
RTVSPropertyOp36
 70
     1
102
RTVSPropertyOp37
 70
     1
102
RTVSPropertyOp38
 70
     1
102
RTVSPropertyOp39
 70
     1
102
RTVSPropertyOp40
 70
     1
102
RTVSPropertyOp41
 70
     1
102
RTVSPropertyOp42
 70
     1
102
RTVSPropertyOp43
 70
     1
102
RTVSPropertyOp44
 70
     1
102
RTVSPropertyOp45
 70
     1
102
RTVSPropertyOp46
 70
     1
102
RTVSPropertyOp47
 70
     1
102
RTVSPropertyOp48
 70
     1
102
RTVSPropertyOp49
 70
     1
102
RTVSPropertyOp50
 70
     1
102
RTVSPropertyOp51
 70
     0
102
RTVSPropertyOp52
 70
     0
102
RTVSPropertyOp53
 70
     1
102
RTVSPropertyOp54
 70
     1
102
RTVSPropertyOp55
 70
     1
102
RTVSPropertyOp56
 70
     1
102
RTVSPropertyOp57
 70
     1
102
RTVSPropertyOp58
 70
     1
102
RTVSPropertyOp59
 70
     1
102
RTVSPropertyOp60
 70
     1
102
RTVSPropertyOp61
 70
     1
102
RTVSPropertyOp62
 70
     1
  0
XRECORD
  5
665E
102
{ACAD_REACTORS
330
665D
102
}
330
665D
100
AcDbXrecord
280
     1
102
RTVSPost2010Prop28
280
     0
102
RTVSPost2010PropOp28
 70
     1
102
RTVSPost2010Prop29
280
     1
102
RTVSPost2010PropOp29
 70
     1
102
RTVSPost2010Prop30
280
     1
102
RTVSPost2010PropOp30
 70
     1
102
RTVSPost2010Prop31
280
     0
102
RTVSPost2010PropOp31
 70
     1
102
RTVSPost2010Prop32
280
     0
102
RTVSPost2010PropOp32
 70
     1
102
RTVSPost2010Prop33
280
     0
102
RTVSPost2010PropOp33
 70
     1
102
RTVSPost2010Prop34
280
     0
102
RTVSPost2010PropOp34
 70
     1
102
RTVSPost2010Prop35
280
     0
102
RTVSPost2010PropOp35
 70
     1
102
RTVSPost2010Prop36
280
     0
102
RTVSPost2010PropOp36
 70
     1
102
RTVSPost2010Prop37
 90
       50
102
RTVSPost2010PropOp37
 70
     1
102
RTVSPost2010Prop38
140
0.0
102
RTVSPost2010PropOp38
 70
     1
102
RTVSPost2010Prop39
140
1.0
102
RTVSPost2010PropOp39
 70
     1
102
RTVSPost2010Prop40
 90
        0
102
RTVSPost2010PropOp40
 70
     1
102
RTVSPost2010Prop41ColorIndex
 90
       18
102
RTVSPost2010Prop41ColorRGB
 90
        0
102
RTVSPost2010PropOp41
 70
     1
102
RTVSPost2010Prop42
 90
       50
102
RTVSPost2010PropOp42
 70
     1
102
RTVSPost2010Prop43
 90
        3
102
RTVSPost2010PropOp43
 70
     1
102
RTVSPost2010Prop44ColorIndex
 90
        5
102
RTVSPost2010Prop44ColorRGB
 90
      255
102
RTVSPost2010PropOp44
 70
     1
102
RTVSPost2010Prop45
280
     0
102
RTVSPost2010PropOp45
 70
     1
102
RTVSPost2010Prop46
 90
       50
102
RTVSPost2010PropOp46
 70
     1
102
RTVSPost2010Prop47
 90
       50
102
RTVSPost2010PropOp47
 70
     1
102
RTVSPost2010Prop48
 90
       50
102
RTVSPost2010PropOp48
 70
     1
102
RTVSPost2010Prop49
280
     0
102
RTVSPost2010PropOp49
 70
     1
102
RTVSPost2010Prop50
 90
       50
102
RTVSPost2010PropOp50
 70
     1
102
RTVSPost2010Prop51ColorIndex
 90
      256
102
RTVSPost2010Prop51ColorRGB
 90
-16777216
102
RTVSPost2010PropOp51
 70
     0
102
RTVSPost2010Prop52
140
1.0
102
RTVSPost2010PropOp52
 70
     0
102
RTVSPost2010Prop53
 90
        2
102
RTVSPost2010PropOp53
 70
     1
102
RTVSPost2010Prop54
  1
strokes_ogs.tif
102
RTVSPost2010PropOp54
 70
     1
102
RTVSPost2010Prop55
280
     0
102
RTVSPost2010PropOp55
 70
     1
102
RTVSPost2010Prop56
140
1.0
102
RTVSPost2010PropOp56
 70
     1
102
RTVSPost2010Prop57
140
1.0
102
RTVSPost2010PropOp57
 70
     1
102
RTVSPropertyOp0
 70
     1
102
RTVSPropertyOp1
 70
     1
102
RTVSPropertyOp2
 70
     1
102
RTVSPropertyOp3
 70
     1
102
RTVSPropertyOp4
 70
     1
102
RTVSPropertyOp5
 70
     1
102
RTVSPropertyOp6
 70
     1
102
RTVSPropertyOp7
 70
     1
102
RTVSPropertyOp8
 70
     1
102
RTVSPropertyOp9
 70
     1
102
RTVSPropertyOp10
 70
     1
102
RTVSPropertyOp11
 70
     1
102
RTVSPropertyOp12
 70
     1
102
RTVSPropertyOp13
 70
     1
102
RTVSPropertyOp14
 70
     1
102
RTVSPropertyOp15
 70
     1
102
RTVSPropertyOp16
 70
     1
102
RTVSPropertyOp17
 70
     1
102
RTVSPropertyOp18
 70
     1
102
RTVSPropertyOp19
 70
     1
102
RTVSPropertyOp20
 70
     1
102
RTVSPropertyOp21
 70
     1
102
RTVSPropertyOp22
 70
     1
102
RTVSPropertyOp23
 70
     1
102
RTVSPropertyOp24
 70
     1
102
RTVSPropertyOp25
 70
     1
102
RTVSPropertyOp26
 70
     1
102
RTVSPropertyOp27
 70
     1
102
RTVSPropertyOp28
 70
     1
102
RTVSPropertyOp29
 70
     1
102
RTVSPropertyOp30
 70
     1
102
RTVSPropertyOp31
 70
     1
102
RTVSPropertyOp32
 70
     1
102
RTVSPropertyOp33
 70
     1
102
RTVSPropertyOp34
 70
     1
102
RTVSPropertyOp35
 70
     1
102
RTVSPropertyOp36
 70
     1
102
RTVSPropertyOp37
 70
     1
102
RTVSPropertyOp38
 70
     1
102
RTVSPropertyOp39
 70
     1
102
RTVSPropertyOp40
 70
     1
102
RTVSPropertyOp41
 70
     1
102
RTVSPropertyOp42
 70
     1
102
RTVSPropertyOp43
 70
     1
102
RTVSPropertyOp44
 70
     1
102
RTVSPropertyOp45
 70
     1
102
RTVSPropertyOp46
 70
     1
102
RTVSPropertyOp47
 70
     1
102
RTVSPropertyOp48
 70
     1
102
RTVSPropertyOp49
 70
     1
102
RTVSPropertyOp50
 70
     1
102
RTVSPropertyOp51
 70
     0
102
RTVSPropertyOp52
 70
     0
102
RTVSPropertyOp53
 70
     1
102
RTVSPropertyOp54
 70
     1
102
RTVSPropertyOp55
 70
     1
102
RTVSPropertyOp56
 70
     1
102
RTVSPropertyOp57
 70
     1
102
RTVSPropertyOp58
 70
     1
102
RTVSPropertyOp59
 70
     1
102
RTVSPropertyOp60
 70
     1
102
RTVSPropertyOp61
 70
     1
102
RTVSPropertyOp62
 70
     1
  0
XRECORD
  5
6662
102
{ACAD_REACTORS
330
6661
102
}
330
6661
100
AcDbXrecord
280
     1
102
RTVSPost2010Prop28
280
     0
102
RTVSPost2010PropOp28
 70
     1
102
RTVSPost2010Prop29
280
     1
102
RTVSPost2010PropOp29
 70
     1
102
RTVSPost2010Prop30
280
     1
102
RTVSPost2010PropOp30
 70
     1
102
RTVSPost2010Prop31
280
     0
102
RTVSPost2010PropOp31
 70
     1
102
RTVSPost2010Prop32
280
     0
102
RTVSPost2010PropOp32
 70
     1
102
RTVSPost2010Prop33
280
     0
102
RTVSPost2010PropOp33
 70
     1
102
RTVSPost2010Prop34
280
     0
102
RTVSPost2010PropOp34
 70
     1
102
RTVSPost2010Prop35
280
     0
102
RTVSPost2010PropOp35
 70
     1
102
RTVSPost2010Prop36
280
     0
102
RTVSPost2010PropOp36
 70
     1
102
RTVSPost2010Prop37
 90
       50
102
RTVSPost2010PropOp37
 70
     1
102
RTVSPost2010Prop38
140
0.0
102
RTVSPost2010PropOp38
 70
     1
102
RTVSPost2010Prop39
140
1.0
102
RTVSPost2010PropOp39
 70
     1
102
RTVSPost2010Prop40
 90
        0
102
RTVSPost2010PropOp40
 70
     1
102
RTVSPost2010Prop41ColorIndex
 90
       18
102
RTVSPost2010Prop41ColorRGB
 90
        0
102
RTVSPost2010PropOp41
 70
     1
102
RTVSPost2010Prop42
 90
       50
102
RTVSPost2010PropOp42
 70
     1
102
RTVSPost2010Prop43
 90
        3
102
RTVSPost2010PropOp43
 70
     1
102
RTVSPost2010Prop44ColorIndex
 90
        5
102
RTVSPost2010Prop44ColorRGB
 90
      255
102
RTVSPost2010PropOp44
 70
     1
102
RTVSPost2010Prop45
280
     0
102
RTVSPost2010PropOp45
 70
     1
102
RTVSPost2010Prop46
 90
       50
102
RTVSPost2010PropOp46
 70
     1
102
RTVSPost2010Prop47
 90
       50
102
RTVSPost2010PropOp47
 70
     1
102
RTVSPost2010Prop48
 90
       50
102
RTVSPost2010PropOp48
 70
     1
102
RTVSPost2010Prop49
280
     0
102
RTVSPost2010PropOp49
 70
     1
102
RTVSPost2010Prop50
 90
       50
102
RTVSPost2010PropOp50
 70
     1
102
RTVSPost2010Prop51ColorIndex
 90
      256
102
RTVSPost2010Prop51ColorRGB
 90
-16777216
102
RTVSPost2010PropOp51
 70
     0
102
RTVSPost2010Prop52
140
1.0
102
RTVSPost2010PropOp52
 70
     0
102
RTVSPost2010Prop53
 90
        2
102
RTVSPost2010PropOp53
 70
     1
102
RTVSPost2010Prop54
  1
strokes_ogs.tif
102
RTVSPost2010PropOp54
 70
     1
102
RTVSPost2010Prop55
280
     0
102
RTVSPost2010PropOp55
 70
     1
102
RTVSPost2010Prop56
140
1.0
102
RTVSPost2010PropOp56
 70
     1
102
RTVSPost2010Prop57
140
1.0
102
RTVSPost2010PropOp57
 70
     1
102
RTVSPropertyOp0
 70
     1
102
RTVSPropertyOp1
 70
     1
102
RTVSPropertyOp2
 70
     1
102
RTVSPropertyOp3
 70
     1
102
RTVSPropertyOp4
 70
     1
102
RTVSPropertyOp5
 70
     1
102
RTVSPropertyOp6
 70
     1
102
RTVSPropertyOp7
 70
     1
102
RTVSPropertyOp8
 70
     1
102
RTVSPropertyOp9
 70
     1
102
RTVSPropertyOp10
 70
     1
102
RTVSPropertyOp11
 70
     1
102
RTVSPropertyOp12
 70
     1
102
RTVSPropertyOp13
 70
     1
102
RTVSPropertyOp14
 70
     1
102
RTVSPropertyOp15
 70
     1
102
RTVSPropertyOp16
 70
     1
102
RTVSPropertyOp17
 70
     1
102
RTVSPropertyOp18
 70
     1
102
RTVSPropertyOp19
 70
     1
102
RTVSPropertyOp20
 70
     1
102
RTVSPropertyOp21
 70
     1
102
RTVSPropertyOp22
 70
     1
102
RTVSPropertyOp23
 70
     1
102
RTVSPropertyOp24
 70
     1
102
RTVSPropertyOp25
 70
     1
102
RTVSPropertyOp26
 70
     1
102
RTVSPropertyOp27
 70
     1
102
RTVSPropertyOp28
 70
     1
102
RTVSPropertyOp29
 70
     1
102
RTVSPropertyOp30
 70
     1
102
RTVSPropertyOp31
 70
     1
102
RTVSPropertyOp32
 70
     1
102
RTVSPropertyOp33
 70
     1
102
RTVSPropertyOp34
 70
     1
102
RTVSPropertyOp35
 70
     1
102
RTVSPropertyOp36
 70
     1
102
RTVSPropertyOp37
 70
     1
102
RTVSPropertyOp38
 70
     1
102
RTVSPropertyOp39
 70
     1
102
RTVSPropertyOp40
 70
     1
102
RTVSPropertyOp41
 70
     1
102
RTVSPropertyOp42
 70
     1
102
RTVSPropertyOp43
 70
     1
102
RTVSPropertyOp44
 70
     1
102
RTVSPropertyOp45
 70
     1
102
RTVSPropertyOp46
 70
     1
102
RTVSPropertyOp47
 70
     1
102
RTVSPropertyOp48
 70
     1
102
RTVSPropertyOp49
 70
     1
102
RTVSPropertyOp50
 70
     1
102
RTVSPropertyOp51
 70
     0
102
RTVSPropertyOp52
 70
     0
102
RTVSPropertyOp53
 70
     1
102
RTVSPropertyOp54
 70
     1
102
RTVSPropertyOp55
 70
     1
102
RTVSPropertyOp56
 70
     1
102
RTVSPropertyOp57
 70
     1
102
RTVSPropertyOp58
 70
     1
102
RTVSPropertyOp59
 70
     1
102
RTVSPropertyOp60
 70
     1
102
RTVSPropertyOp61
 70
     1
102
RTVSPropertyOp62
 70
     1
  0
XRECORD
  5
667C
102
{ACAD_REACTORS
330
667B
102
}
330
667B
100
AcDbXrecord
280
     1
102
RTVSPost2010Prop28
280
     0
102
RTVSPost2010PropOp28
 70
     0
102
RTVSPost2010Prop29
280
     1
102
RTVSPost2010PropOp29
 70
     0
102
RTVSPost2010Prop30
280
     1
102
RTVSPost2010PropOp30
 70
     0
102
RTVSPost2010Prop31
280
     0
102
RTVSPost2010PropOp31
 70
     0
102
RTVSPost2010Prop32
280
     0
102
RTVSPost2010PropOp32
 70
     0
102
RTVSPost2010Prop33
280
     0
102
RTVSPost2010PropOp33
 70
     0
102
RTVSPost2010Prop34
280
     0
102
RTVSPost2010PropOp34
 70
     0
102
RTVSPost2010Prop35
280
     0
102
RTVSPost2010PropOp35
 70
     0
102
RTVSPost2010Prop36
280
     0
102
RTVSPost2010PropOp36
 70
     0
102
RTVSPost2010Prop37
 90
       50
102
RTVSPost2010PropOp37
 70
     0
102
RTVSPost2010Prop38
140
0.0
102
RTVSPost2010PropOp38
 70
     0
102
RTVSPost2010Prop39
140
1.0
102
RTVSPost2010PropOp39
 70
     0
102
RTVSPost2010Prop40
 90
        0
102
RTVSPost2010PropOp40
 70
     0
102
RTVSPost2010Prop41ColorIndex
 90
       18
102
RTVSPost2010Prop41ColorRGB
 90
        0
102
RTVSPost2010PropOp41
 70
     0
102
RTVSPost2010Prop42
 90
       50
102
RTVSPost2010PropOp42
 70
     0
102
RTVSPost2010Prop43
 90
        3
102
RTVSPost2010PropOp43
 70
     0
102
RTVSPost2010Prop44ColorIndex
 90
        5
102
RTVSPost2010Prop44ColorRGB
 90
      255
102
RTVSPost2010PropOp44
 70
     0
102
RTVSPost2010Prop45
280
     0
102
RTVSPost2010PropOp45
 70
     0
102
RTVSPost2010Prop46
 90
       50
102
RTVSPost2010PropOp46
 70
     0
102
RTVSPost2010Prop47
 90
       50
102
RTVSPost2010PropOp47
 70
     0
102
RTVSPost2010Prop48
 90
       50
102
RTVSPost2010PropOp48
 70
     0
102
RTVSPost2010Prop49
280
     0
102
RTVSPost2010PropOp49
 70
     0
102
RTVSPost2010Prop50
 90
       50
102
RTVSPost2010PropOp50
 70
     0
102
RTVSPost2010Prop51ColorIndex
 90
      256
102
RTVSPost2010Prop51ColorRGB
 90
-16777216
102
RTVSPost2010PropOp51
 70
     0
102
RTVSPost2010Prop52
140
1.0
102
RTVSPost2010PropOp52
 70
     0
102
RTVSPost2010Prop53
 90
        2
102
RTVSPost2010PropOp53
 70
     0
102
RTVSPost2010Prop54
  1
strokes_ogs.tif
102
RTVSPost2010PropOp54
 70
     0
102
RTVSPost2010Prop55
280
     0
102
RTVSPost2010PropOp55
 70
     0
102
RTVSPost2010Prop56
140
1.0
102
RTVSPost2010PropOp56
 70
     0
102
RTVSPost2010Prop57
140
1.0
102
RTVSPost2010PropOp57
 70
     0
102
RTVSPropertyOp0
 70
     0
102
RTVSPropertyOp1
 70
     0
102
RTVSPropertyOp2
 70
     0
102
RTVSPropertyOp3
 70
     0
102
RTVSPropertyOp4
 70
     0
102
RTVSPropertyOp5
 70
     0
102
RTVSPropertyOp6
 70
     0
102
RTVSPropertyOp7
 70
     0
102
RTVSPropertyOp8
 70
     0
102
RTVSPropertyOp9
 70
     0
102
RTVSPropertyOp10
 70
     0
102
RTVSPropertyOp11
 70
     0
102
RTVSPropertyOp12
 70
     0
102
RTVSPropertyOp13
 70
     0
102
RTVSPropertyOp14
 70
     2
102
RTVSPropertyOp15
 70
     0
102
RTVSPropertyOp16
 70
     0
102
RTVSPropertyOp17
 70
     0
102
RTVSPropertyOp18
 70
     0
102
RTVSPropertyOp19
 70
     0
102
RTVSPropertyOp20
 70
     0
102
RTVSPropertyOp21
 70
     0
102
RTVSPropertyOp22
 70
     0
102
RTVSPropertyOp23
 70
     0
102
RTVSPropertyOp24
 70
     0
102
RTVSPropertyOp25
 70
     0
102
RTVSPropertyOp26
 70
     0
102
RTVSPropertyOp27
 70
     0
102
RTVSPropertyOp28
 70
     0
102
RTVSPropertyOp29
 70
     0
102
RTVSPropertyOp30
 70
     0
102
RTVSPropertyOp31
 70
     0
102
RTVSPropertyOp32
 70
     0
102
RTVSPropertyOp33
 70
     0
102
RTVSPropertyOp34
 70
     0
102
RTVSPropertyOp35
 70
     0
102
RTVSPropertyOp36
 70
     0
102
RTVSPropertyOp37
 70
     0
102
RTVSPropertyOp38
 70
     0
102
RTVSPropertyOp39
 70
     0
102
RTVSPropertyOp40
 70
     0
102
RTVSPropertyOp41
 70
     0
102
RTVSPropertyOp42
 70
     0
102
RTVSPropertyOp43
 70
     0
102
RTVSPropertyOp44
 70
     0
102
RTVSPropertyOp45
 70
     0
102
RTVSPropertyOp46
 70
     0
102
RTVSPropertyOp47
 70
     0
102
RTVSPropertyOp48
 70
     0
102
RTVSPropertyOp49
 70
     0
102
RTVSPropertyOp50
 70
     0
102
RTVSPropertyOp51
 70
     0
102
RTVSPropertyOp52
 70
     0
102
RTVSPropertyOp53
 70
     0
102
RTVSPropertyOp54
 70
     0
102
RTVSPropertyOp55
 70
     0
102
RTVSPropertyOp56
 70
     0
102
RTVSPropertyOp57
 70
     0
102
RTVSPropertyOp58
 70
     1
102
RTVSPropertyOp59
 70
     1
102
RTVSPropertyOp60
 70
     1
102
RTVSPropertyOp61
 70
     1
102
RTVSPropertyOp62
 70
     1
  0
XRECORD
  5
666A
102
{ACAD_REACTORS
330
6669
102
}
330
6669
100
AcDbXrecord
280
     1
102
RTVSPost2010Prop28
280
     0
102
RTVSPost2010PropOp28
 70
     1
102
RTVSPost2010Prop29
280
     1
102
RTVSPost2010PropOp29
 70
     1
102
RTVSPost2010Prop30
280
     1
102
RTVSPost2010PropOp30
 70
     1
102
RTVSPost2010Prop31
280
     0
102
RTVSPost2010PropOp31
 70
     1
102
RTVSPost2010Prop32
280
     0
102
RTVSPost2010PropOp32
 70
     1
102
RTVSPost2010Prop33
280
     0
102
RTVSPost2010PropOp33
 70
     1
102
RTVSPost2010Prop34
280
     0
102
RTVSPost2010PropOp34
 70
     1
102
RTVSPost2010Prop35
280
     0
102
RTVSPost2010PropOp35
 70
     1
102
RTVSPost2010Prop36
280
     0
102
RTVSPost2010PropOp36
 70
     1
102
RTVSPost2010Prop37
 90
       50
102
RTVSPost2010PropOp37
 70
     1
102
RTVSPost2010Prop38
140
0.0
102
RTVSPost2010PropOp38
 70
     1
102
RTVSPost2010Prop39
140
1.0
102
RTVSPost2010PropOp39
 70
     1
102
RTVSPost2010Prop40
 90
        0
102
RTVSPost2010PropOp40
 70
     1
102
RTVSPost2010Prop41ColorIndex
 90
       18
102
RTVSPost2010Prop41ColorRGB
 90
        0
102
RTVSPost2010PropOp41
 70
     1
102
RTVSPost2010Prop42
 90
       50
102
RTVSPost2010PropOp42
 70
     1
102
RTVSPost2010Prop43
 90
        3
102
RTVSPost2010PropOp43
 70
     1
102
RTVSPost2010Prop44ColorIndex
 90
        5
102
RTVSPost2010Prop44ColorRGB
 90
      255
102
RTVSPost2010PropOp44
 70
     1
102
RTVSPost2010Prop45
280
     0
102
RTVSPost2010PropOp45
 70
     1
102
RTVSPost2010Prop46
 90
       50
102
RTVSPost2010PropOp46
 70
     1
102
RTVSPost2010Prop47
 90
       50
102
RTVSPost2010PropOp47
 70
     1
102
RTVSPost2010Prop48
 90
       50
102
RTVSPost2010PropOp48
 70
     1
102
RTVSPost2010Prop49
280
     0
102
RTVSPost2010PropOp49
 70
     1
102
RTVSPost2010Prop50
 90
       50
102
RTVSPost2010PropOp50
 70
     1
102
RTVSPost2010Prop51ColorIndex
 90
      256
102
RTVSPost2010Prop51ColorRGB
 90
-16777216
102
RTVSPost2010PropOp51
 70
     0
102
RTVSPost2010Prop52
140
1.0
102
RTVSPost2010PropOp52
 70
     0
102
RTVSPost2010Prop53
 90
        2
102
RTVSPost2010PropOp53
 70
     1
102
RTVSPost2010Prop54
  1
strokes_ogs.tif
102
RTVSPost2010PropOp54
 70
     1
102
RTVSPost2010Prop55
280
     0
102
RTVSPost2010PropOp55
 70
     1
102
RTVSPost2010Prop56
140
1.0
102
RTVSPost2010PropOp56
 70
     1
102
RTVSPost2010Prop57
140
1.0
102
RTVSPost2010PropOp57
 70
     1
102
RTVSPropertyOp0
 70
     1
102
RTVSPropertyOp1
 70
     1
102
RTVSPropertyOp2
 70
     1
102
RTVSPropertyOp3
 70
     1
102
RTVSPropertyOp4
 70
     1
102
RTVSPropertyOp5
 70
     1
102
RTVSPropertyOp6
 70
     1
102
RTVSPropertyOp7
 70
     1
102
RTVSPropertyOp8
 70
     1
102
RTVSPropertyOp9
 70
     1
102
RTVSPropertyOp10
 70
     1
102
RTVSPropertyOp11
 70
     1
102
RTVSPropertyOp12
 70
     1
102
RTVSPropertyOp13
 70
     1
102
RTVSPropertyOp14
 70
     1
102
RTVSPropertyOp15
 70
     1
102
RTVSPropertyOp16
 70
     1
102
RTVSPropertyOp17
 70
     1
102
RTVSPropertyOp18
 70
     1
102
RTVSPropertyOp19
 70
     1
102
RTVSPropertyOp20
 70
     1
102
RTVSPropertyOp21
 70
     1
102
RTVSPropertyOp22
 70
     1
102
RTVSPropertyOp23
 70
     1
102
RTVSPropertyOp24
 70
     1
102
RTVSPropertyOp25
 70
     1
102
RTVSPropertyOp26
 70
     1
102
RTVSPropertyOp27
 70
     1
102
RTVSPropertyOp28
 70
     1
102
RTVSPropertyOp29
 70
     1
102
RTVSPropertyOp30
 70
     1
102
RTVSPropertyOp31
 70
     1
102
RTVSPropertyOp32
 70
     1
102
RTVSPropertyOp33
 70
     1
102
RTVSPropertyOp34
 70
     1
102
RTVSPropertyOp35
 70
     1
102
RTVSPropertyOp36
 70
     1
102
RTVSPropertyOp37
 70
     1
102
RTVSPropertyOp38
 70
     1
102
RTVSPropertyOp39
 70
     1
102
RTVSPropertyOp40
 70
     1
102
RTVSPropertyOp41
 70
     1
102
RTVSPropertyOp42
 70
     1
102
RTVSPropertyOp43
 70
     1
102
RTVSPropertyOp44
 70
     1
102
RTVSPropertyOp45
 70
     1
102
RTVSPropertyOp46
 70
     1
102
RTVSPropertyOp47
 70
     1
102
RTVSPropertyOp48
 70
     1
102
RTVSPropertyOp49
 70
     1
102
RTVSPropertyOp50
 70
     1
102
RTVSPropertyOp51
 70
     0
102
RTVSPropertyOp52
 70
     0
102
RTVSPropertyOp53
 70
     1
102
RTVSPropertyOp54
 70
     1
102
RTVSPropertyOp55
 70
     1
102
RTVSPropertyOp56
 70
     1
102
RTVSPropertyOp57
 70
     1
102
RTVSPropertyOp58
 70
     1
102
RTVSPropertyOp59
 70
     1
102
RTVSPropertyOp60
 70
     1
102
RTVSPropertyOp61
 70
     1
102
RTVSPropertyOp62
 70
     1
  0
XRECORD
  5
664E
102
{ACAD_REACTORS
330
664D
102
}
330
664D
100
AcDbXrecord
280
     1
102
RTVSPost2010Prop28
280
     0
102
RTVSPost2010PropOp28
 70
     1
102
RTVSPost2010Prop29
280
     1
102
RTVSPost2010PropOp29
 70
     1
102
RTVSPost2010Prop30
280
     1
102
RTVSPost2010PropOp30
 70
     1
102
RTVSPost2010Prop31
280
     0
102
RTVSPost2010PropOp31
 70
     1
102
RTVSPost2010Prop32
280
     0
102
RTVSPost2010PropOp32
 70
     1
102
RTVSPost2010Prop33
280
     0
102
RTVSPost2010PropOp33
 70
     1
102
RTVSPost2010Prop34
280
     0
102
RTVSPost2010PropOp34
 70
     1
102
RTVSPost2010Prop35
280
     0
102
RTVSPost2010PropOp35
 70
     1
102
RTVSPost2010Prop36
280
     0
102
RTVSPost2010PropOp36
 70
     1
102
RTVSPost2010Prop37
 90
       50
102
RTVSPost2010PropOp37
 70
     1
102
RTVSPost2010Prop38
140
0.0
102
RTVSPost2010PropOp38
 70
     1
102
RTVSPost2010Prop39
140
1.0
102
RTVSPost2010PropOp39
 70
     1
102
RTVSPost2010Prop40
 90
        0
102
RTVSPost2010PropOp40
 70
     1
102
RTVSPost2010Prop41ColorIndex
 90
       18
102
RTVSPost2010Prop41ColorRGB
 90
        0
102
RTVSPost2010PropOp41
 70
     1
102
RTVSPost2010Prop42
 90
       50
102
RTVSPost2010PropOp42
 70
     1
102
RTVSPost2010Prop43
 90
        3
102
RTVSPost2010PropOp43
 70
     1
102
RTVSPost2010Prop44ColorIndex
 90
        5
102
RTVSPost2010Prop44ColorRGB
 90
      255
102
RTVSPost2010PropOp44
 70
     1
102
RTVSPost2010Prop45
280
     0
102
RTVSPost2010PropOp45
 70
     1
102
RTVSPost2010Prop46
 90
       50
102
RTVSPost2010PropOp46
 70
     1
102
RTVSPost2010Prop47
 90
       50
102
RTVSPost2010PropOp47
 70
     1
102
RTVSPost2010Prop48
 90
       50
102
RTVSPost2010PropOp48
 70
     1
102
RTVSPost2010Prop49
280
     0
102
RTVSPost2010PropOp49
 70
     1
102
RTVSPost2010Prop50
 90
       50
102
RTVSPost2010PropOp50
 70
     1
102
RTVSPost2010Prop51ColorIndex
 90
      256
102
RTVSPost2010Prop51ColorRGB
 90
-16777216
102
RTVSPost2010PropOp51
 70
     0
102
RTVSPost2010Prop52
140
1.0
102
RTVSPost2010PropOp52
 70
     0
102
RTVSPost2010Prop53
 90
        2
102
RTVSPost2010PropOp53
 70
     1
102
RTVSPost2010Prop54
  1
strokes_ogs.tif
102
RTVSPost2010PropOp54
 70
     1
102
RTVSPost2010Prop55
280
     0
102
RTVSPost2010PropOp55
 70
     1
102
RTVSPost2010Prop56
140
1.0
102
RTVSPost2010PropOp56
 70
     1
102
RTVSPost2010Prop57
140
1.0
102
RTVSPost2010PropOp57
 70
     1
102
RTVSPropertyOp0
 70
     1
102
RTVSPropertyOp1
 70
     1
102
RTVSPropertyOp2
 70
     1
102
RTVSPropertyOp3
 70
     1
102
RTVSPropertyOp4
 70
     1
102
RTVSPropertyOp5
 70
     1
102
RTVSPropertyOp6
 70
     1
102
RTVSPropertyOp7
 70
     1
102
RTVSPropertyOp8
 70
     1
102
RTVSPropertyOp9
 70
     1
102
RTVSPropertyOp10
 70
     1
102
RTVSPropertyOp11
 70
     1
102
RTVSPropertyOp12
 70
     1
102
RTVSPropertyOp13
 70
     1
102
RTVSPropertyOp14
 70
     1
102
RTVSPropertyOp15
 70
     1
102
RTVSPropertyOp16
 70
     1
102
RTVSPropertyOp17
 70
     1
102
RTVSPropertyOp18
 70
     1
102
RTVSPropertyOp19
 70
     1
102
RTVSPropertyOp20
 70
     1
102
RTVSPropertyOp21
 70
     1
102
RTVSPropertyOp22
 70
     1
102
RTVSPropertyOp23
 70
     1
102
RTVSPropertyOp24
 70
     1
102
RTVSPropertyOp25
 70
     1
102
RTVSPropertyOp26
 70
     1
102
RTVSPropertyOp27
 70
     1
102
RTVSPropertyOp28
 70
     1
102
RTVSPropertyOp29
 70
     1
102
RTVSPropertyOp30
 70
     1
102
RTVSPropertyOp31
 70
     1
102
RTVSPropertyOp32
 70
     1
102
RTVSPropertyOp33
 70
     1
102
RTVSPropertyOp34
 70
     1
102
RTVSPropertyOp35
 70
     1
102
RTVSPropertyOp36
 70
     1
102
RTVSPropertyOp37
 70
     1
102
RTVSPropertyOp38
 70
     1
102
RTVSPropertyOp39
 70
     1
102
RTVSPropertyOp40
 70
     1
102
RTVSPropertyOp41
 70
     1
102
RTVSPropertyOp42
 70
     1
102
RTVSPropertyOp43
 70
     1
102
RTVSPropertyOp44
 70
     1
102
RTVSPropertyOp45
 70
     1
102
RTVSPropertyOp46
 70
     1
102
RTVSPropertyOp47
 70
     1
102
RTVSPropertyOp48
 70
     1
102
RTVSPropertyOp49
 70
     1
102
RTVSPropertyOp50
 70
     1
102
RTVSPropertyOp51
 70
     0
102
RTVSPropertyOp52
 70
     0
102
RTVSPropertyOp53
 70
     1
102
RTVSPropertyOp54
 70
     1
102
RTVSPropertyOp55
 70
     1
102
RTVSPropertyOp56
 70
     1
102
RTVSPropertyOp57
 70
     1
102
RTVSPropertyOp58
 70
     1
102
RTVSPropertyOp59
 70
     1
102
RTVSPropertyOp60
 70
     1
102
RTVSPropertyOp61
 70
     1
102
RTVSPropertyOp62
 70
     1
  0
XRECORD
  5
6650
102
{ACAD_REACTORS
330
664F
102
}
330
664F
100
AcDbXrecord
280
     1
102
RTVSPost2010Prop28
280
     0
102
RTVSPost2010PropOp28
 70
     1
102
RTVSPost2010Prop29
280
     1
102
RTVSPost2010PropOp29
 70
     1
102
RTVSPost2010Prop30
280
     1
102
RTVSPost2010PropOp30
 70
     1
102
RTVSPost2010Prop31
280
     0
102
RTVSPost2010PropOp31
 70
     1
102
RTVSPost2010Prop32
280
     0
102
RTVSPost2010PropOp32
 70
     1
102
RTVSPost2010Prop33
280
     0
102
RTVSPost2010PropOp33
 70
     1
102
RTVSPost2010Prop34
280
     0
102
RTVSPost2010PropOp34
 70
     1
102
RTVSPost2010Prop35
280
     0
102
RTVSPost2010PropOp35
 70
     1
102
RTVSPost2010Prop36
280
     0
102
RTVSPost2010PropOp36
 70
     1
102
RTVSPost2010Prop37
 90
       50
102
RTVSPost2010PropOp37
 70
     1
102
RTVSPost2010Prop38
140
0.0
102
RTVSPost2010PropOp38
 70
     1
102
RTVSPost2010Prop39
140
1.0
102
RTVSPost2010PropOp39
 70
     1
102
RTVSPost2010Prop40
 90
        0
102
RTVSPost2010PropOp40
 70
     1
102
RTVSPost2010Prop41ColorIndex
 90
       18
102
RTVSPost2010Prop41ColorRGB
 90
        0
102
RTVSPost2010PropOp41
 70
     1
102
RTVSPost2010Prop42
 90
       50
102
RTVSPost2010PropOp42
 70
     1
102
RTVSPost2010Prop43
 90
        3
102
RTVSPost2010PropOp43
 70
     1
102
RTVSPost2010Prop44ColorIndex
 90
        5
102
RTVSPost2010Prop44ColorRGB
 90
      255
102
RTVSPost2010PropOp44
 70
     1
102
RTVSPost2010Prop45
280
     0
102
RTVSPost2010PropOp45
 70
     1
102
RTVSPost2010Prop46
 90
       50
102
RTVSPost2010PropOp46
 70
     1
102
RTVSPost2010Prop47
 90
       50
102
RTVSPost2010PropOp47
 70
     1
102
RTVSPost2010Prop48
 90
       50
102
RTVSPost2010PropOp48
 70
     1
102
RTVSPost2010Prop49
280
     0
102
RTVSPost2010PropOp49
 70
     1
102
RTVSPost2010Prop50
 90
       50
102
RTVSPost2010PropOp50
 70
     1
102
RTVSPost2010Prop51ColorIndex
 90
      256
102
RTVSPost2010Prop51ColorRGB
 90
-16777216
102
RTVSPost2010PropOp51
 70
     0
102
RTVSPost2010Prop52
140
1.0
102
RTVSPost2010PropOp52
 70
     0
102
RTVSPost2010Prop53
 90
        2
102
RTVSPost2010PropOp53
 70
     1
102
RTVSPost2010Prop54
  1
strokes_ogs.tif
102
RTVSPost2010PropOp54
 70
     1
102
RTVSPost2010Prop55
280
     0
102
RTVSPost2010PropOp55
 70
     1
102
RTVSPost2010Prop56
140
1.0
102
RTVSPost2010PropOp56
 70
     1
102
RTVSPost2010Prop57
140
1.0
102
RTVSPost2010PropOp57
 70
     1
102
RTVSPropertyOp0
 70
     1
102
RTVSPropertyOp1
 70
     1
102
RTVSPropertyOp2
 70
     1
102
RTVSPropertyOp3
 70
     1
102
RTVSPropertyOp4
 70
     1
102
RTVSPropertyOp5
 70
     1
102
RTVSPropertyOp6
 70
     1
102
RTVSPropertyOp7
 70
     1
102
RTVSPropertyOp8
 70
     1
102
RTVSPropertyOp9
 70
     1
102
RTVSPropertyOp10
 70
     1
102
RTVSPropertyOp11
 70
     1
102
RTVSPropertyOp12
 70
     1
102
RTVSPropertyOp13
 70
     1
102
RTVSPropertyOp14
 70
     1
102
RTVSPropertyOp15
 70
     1
102
RTVSPropertyOp16
 70
     1
102
RTVSPropertyOp17
 70
     1
102
RTVSPropertyOp18
 70
     1
102
RTVSPropertyOp19
 70
     1
102
RTVSPropertyOp20
 70
     1
102
RTVSPropertyOp21
 70
     1
102
RTVSPropertyOp22
 70
     1
102
RTVSPropertyOp23
 70
     1
102
RTVSPropertyOp24
 70
     1
102
RTVSPropertyOp25
 70
     1
102
RTVSPropertyOp26
 70
     1
102
RTVSPropertyOp27
 70
     1
102
RTVSPropertyOp28
 70
     1
102
RTVSPropertyOp29
 70
     1
102
RTVSPropertyOp30
 70
     1
102
RTVSPropertyOp31
 70
     1
102
RTVSPropertyOp32
 70
     1
102
RTVSPropertyOp33
 70
     1
102
RTVSPropertyOp34
 70
     1
102
RTVSPropertyOp35
 70
     1
102
RTVSPropertyOp36
 70
     1
102
RTVSPropertyOp37
 70
     1
102
RTVSPropertyOp38
 70
     1
102
RTVSPropertyOp39
 70
     1
102
RTVSPropertyOp40
 70
     1
102
RTVSPropertyOp41
 70
     1
102
RTVSPropertyOp42
 70
     1
102
RTVSPropertyOp43
 70
     1
102
RTVSPropertyOp44
 70
     1
102
RTVSPropertyOp45
 70
     1
102
RTVSPropertyOp46
 70
     1
102
RTVSPropertyOp47
 70
     1
102
RTVSPropertyOp48
 70
     1
102
RTVSPropertyOp49
 70
     1
102
RTVSPropertyOp50
 70
     1
102
RTVSPropertyOp51
 70
     0
102
RTVSPropertyOp52
 70
     0
102
RTVSPropertyOp53
 70
     1
102
RTVSPropertyOp54
 70
     1
102
RTVSPropertyOp55
 70
     1
102
RTVSPropertyOp56
 70
     1
102
RTVSPropertyOp57
 70
     1
102
RTVSPropertyOp58
 70
     1
102
RTVSPropertyOp59
 70
     1
102
RTVSPropertyOp60
 70
     1
102
RTVSPropertyOp61
 70
     1
102
RTVSPropertyOp62
 70
     1
  0
XRECORD
  5
6652
102
{ACAD_REACTORS
330
6651
102
}
330
6651
100
AcDbXrecord
280
     1
102
RTVSPost2010Prop28
280
     0
102
RTVSPost2010PropOp28
 70
     1
102
RTVSPost2010Prop29
280
     1
102
RTVSPost2010PropOp29
 70
     1
102
RTVSPost2010Prop30
280
     1
102
RTVSPost2010PropOp30
 70
     1
102
RTVSPost2010Prop31
280
     0
102
RTVSPost2010PropOp31
 70
     1
102
RTVSPost2010Prop32
280
     0
102
RTVSPost2010PropOp32
 70
     1
102
RTVSPost2010Prop33
280
     0
102
RTVSPost2010PropOp33
 70
     1
102
RTVSPost2010Prop34
280
     0
102
RTVSPost2010PropOp34
 70
     1
102
RTVSPost2010Prop35
280
     0
102
RTVSPost2010PropOp35
 70
     1
102
RTVSPost2010Prop36
280
     0
102
RTVSPost2010PropOp36
 70
     1
102
RTVSPost2010Prop37
 90
       50
102
RTVSPost2010PropOp37
 70
     1
102
RTVSPost2010Prop38
140
0.0
102
RTVSPost2010PropOp38
 70
     1
102
RTVSPost2010Prop39
140
1.0
102
RTVSPost2010PropOp39
 70
     1
102
RTVSPost2010Prop40
 90
        0
102
RTVSPost2010PropOp40
 70
     1
102
RTVSPost2010Prop41ColorIndex
 90
       18
102
RTVSPost2010Prop41ColorRGB
 90
        0
102
RTVSPost2010PropOp41
 70
     1
102
RTVSPost2010Prop42
 90
       50
102
RTVSPost2010PropOp42
 70
     1
102
RTVSPost2010Prop43
 90
        3
102
RTVSPost2010PropOp43
 70
     1
102
RTVSPost2010Prop44ColorIndex
 90
        5
102
RTVSPost2010Prop44ColorRGB
 90
      255
102
RTVSPost2010PropOp44
 70
     1
102
RTVSPost2010Prop45
280
     0
102
RTVSPost2010PropOp45
 70
     1
102
RTVSPost2010Prop46
 90
       50
102
RTVSPost2010PropOp46
 70
     1
102
RTVSPost2010Prop47
 90
       50
102
RTVSPost2010PropOp47
 70
     1
102
RTVSPost2010Prop48
 90
       50
102
RTVSPost2010PropOp48
 70
     1
102
RTVSPost2010Prop49
280
     0
102
RTVSPost2010PropOp49
 70
     1
102
RTVSPost2010Prop50
 90
       50
102
RTVSPost2010PropOp50
 70
     1
102
RTVSPost2010Prop51ColorIndex
 90
      256
102
RTVSPost2010Prop51ColorRGB
 90
-16777216
102
RTVSPost2010PropOp51
 70
     0
102
RTVSPost2010Prop52
140
1.0
102
RTVSPost2010PropOp52
 70
     0
102
RTVSPost2010Prop53
 90
        2
102
RTVSPost2010PropOp53
 70
     1
102
RTVSPost2010Prop54
  1
strokes_ogs.tif
102
RTVSPost2010PropOp54
 70
     1
102
RTVSPost2010Prop55
280
     0
102
RTVSPost2010PropOp55
 70
     1
102
RTVSPost2010Prop56
140
1.0
102
RTVSPost2010PropOp56
 70
     1
102
RTVSPost2010Prop57
140
1.0
102
RTVSPost2010PropOp57
 70
     1
102
RTVSPropertyOp0
 70
     1
102
RTVSPropertyOp1
 70
     1
102
RTVSPropertyOp2
 70
     1
102
RTVSPropertyOp3
 70
     1
102
RTVSPropertyOp4
 70
     1
102
RTVSPropertyOp5
 70
     1
102
RTVSPropertyOp6
 70
     1
102
RTVSPropertyOp7
 70
     1
102
RTVSPropertyOp8
 70
     1
102
RTVSPropertyOp9
 70
     1
102
RTVSPropertyOp10
 70
     1
102
RTVSPropertyOp11
 70
     1
102
RTVSPropertyOp12
 70
     1
102
RTVSPropertyOp13
 70
     1
102
RTVSPropertyOp14
 70
     1
102
RTVSPropertyOp15
 70
     1
102
RTVSPropertyOp16
 70
     1
102
RTVSPropertyOp17
 70
     1
102
RTVSPropertyOp18
 70
     1
102
RTVSPropertyOp19
 70
     1
102
RTVSPropertyOp20
 70
     1
102
RTVSPropertyOp21
 70
     1
102
RTVSPropertyOp22
 70
     1
102
RTVSPropertyOp23
 70
     1
102
RTVSPropertyOp24
 70
     1
102
RTVSPropertyOp25
 70
     1
102
RTVSPropertyOp26
 70
     1
102
RTVSPropertyOp27
 70
     1
102
RTVSPropertyOp28
 70
     1
102
RTVSPropertyOp29
 70
     1
102
RTVSPropertyOp30
 70
     1
102
RTVSPropertyOp31
 70
     1
102
RTVSPropertyOp32
 70
     1
102
RTVSPropertyOp33
 70
     1
102
RTVSPropertyOp34
 70
     1
102
RTVSPropertyOp35
 70
     1
102
RTVSPropertyOp36
 70
     1
102
RTVSPropertyOp37
 70
     1
102
RTVSPropertyOp38
 70
     1
102
RTVSPropertyOp39
 70
     1
102
RTVSPropertyOp40
 70
     1
102
RTVSPropertyOp41
 70
     1
102
RTVSPropertyOp42
 70
     1
102
RTVSPropertyOp43
 70
     1
102
RTVSPropertyOp44
 70
     1
102
RTVSPropertyOp45
 70
     1
102
RTVSPropertyOp46
 70
     1
102
RTVSPropertyOp47
 70
     1
102
RTVSPropertyOp48
 70
     1
102
RTVSPropertyOp49
 70
     1
102
RTVSPropertyOp50
 70
     1
102
RTVSPropertyOp51
 70
     0
102
RTVSPropertyOp52
 70
     0
102
RTVSPropertyOp53
 70
     1
102
RTVSPropertyOp54
 70
     1
102
RTVSPropertyOp55
 70
     1
102
RTVSPropertyOp56
 70
     1
102
RTVSPropertyOp57
 70
     1
102
RTVSPropertyOp58
 70
     1
102
RTVSPropertyOp59
 70
     1
102
RTVSPropertyOp60
 70
     1
102
RTVSPropertyOp61
 70
     1
102
RTVSPropertyOp62
 70
     1
  0
XRECORD
  5
6654
102
{ACAD_REACTORS
330
6653
102
}
330
6653
100
AcDbXrecord
280
     1
102
RTVSPost2010Prop28
280
     0
102
RTVSPost2010PropOp28
 70
     1
102
RTVSPost2010Prop29
280
     1
102
RTVSPost2010PropOp29
 70
     1
102
RTVSPost2010Prop30
280
     1
102
RTVSPost2010PropOp30
 70
     1
102
RTVSPost2010Prop31
280
     0
102
RTVSPost2010PropOp31
 70
     1
102
RTVSPost2010Prop32
280
     0
102
RTVSPost2010PropOp32
 70
     1
102
RTVSPost2010Prop33
280
     0
102
RTVSPost2010PropOp33
 70
     1
102
RTVSPost2010Prop34
280
     0
102
RTVSPost2010PropOp34
 70
     1
102
RTVSPost2010Prop35
280
     0
102
RTVSPost2010PropOp35
 70
     1
102
RTVSPost2010Prop36
280
     0
102
RTVSPost2010PropOp36
 70
     1
102
RTVSPost2010Prop37
 90
       50
102
RTVSPost2010PropOp37
 70
     1
102
RTVSPost2010Prop38
140
0.0
102
RTVSPost2010PropOp38
 70
     1
102
RTVSPost2010Prop39
140
1.0
102
RTVSPost2010PropOp39
 70
     1
102
RTVSPost2010Prop40
 90
        0
102
RTVSPost2010PropOp40
 70
     1
102
RTVSPost2010Prop41ColorIndex
 90
       18
102
RTVSPost2010Prop41ColorRGB
 90
        0
102
RTVSPost2010PropOp41
 70
     1
102
RTVSPost2010Prop42
 90
       50
102
RTVSPost2010PropOp42
 70
     1
102
RTVSPost2010Prop43
 90
        3
102
RTVSPost2010PropOp43
 70
     1
102
RTVSPost2010Prop44ColorIndex
 90
        5
102
RTVSPost2010Prop44ColorRGB
 90
      255
102
RTVSPost2010PropOp44
 70
     1
102
RTVSPost2010Prop45
280
     0
102
RTVSPost2010PropOp45
 70
     1
102
RTVSPost2010Prop46
 90
       50
102
RTVSPost2010PropOp46
 70
     1
102
RTVSPost2010Prop47
 90
       50
102
RTVSPost2010PropOp47
 70
     1
102
RTVSPost2010Prop48
 90
       50
102
RTVSPost2010PropOp48
 70
     1
102
RTVSPost2010Prop49
280
     0
102
RTVSPost2010PropOp49
 70
     1
102
RTVSPost2010Prop50
 90
       50
102
RTVSPost2010PropOp50
 70
     1
102
RTVSPost2010Prop51ColorIndex
 90
      256
102
RTVSPost2010Prop51ColorRGB
 90
-16777216
102
RTVSPost2010PropOp51
 70
     0
102
RTVSPost2010Prop52
140
1.0
102
RTVSPost2010PropOp52
 70
     0
102
RTVSPost2010Prop53
 90
        2
102
RTVSPost2010PropOp53
 70
     1
102
RTVSPost2010Prop54
  1
strokes_ogs.tif
102
RTVSPost2010PropOp54
 70
     1
102
RTVSPost2010Prop55
280
     0
102
RTVSPost2010PropOp55
 70
     1
102
RTVSPost2010Prop56
140
1.0
102
RTVSPost2010PropOp56
 70
     1
102
RTVSPost2010Prop57
140
1.0
102
RTVSPost2010PropOp57
 70
     1
102
RTVSPropertyOp0
 70
     1
102
RTVSPropertyOp1
 70
     1
102
RTVSPropertyOp2
 70
     1
102
RTVSPropertyOp3
 70
     1
102
RTVSPropertyOp4
 70
     1
102
RTVSPropertyOp5
 70
     1
102
RTVSPropertyOp6
 70
     1
102
RTVSPropertyOp7
 70
     1
102
RTVSPropertyOp8
 70
     1
102
RTVSPropertyOp9
 70
     1
102
RTVSPropertyOp10
 70
     1
102
RTVSPropertyOp11
 70
     1
102
RTVSPropertyOp12
 70
     1
102
RTVSPropertyOp13
 70
     1
102
RTVSPropertyOp14
 70
     1
102
RTVSPropertyOp15
 70
     1
102
RTVSPropertyOp16
 70
     1
102
RTVSPropertyOp17
 70
     1
102
RTVSPropertyOp18
 70
     1
102
RTVSPropertyOp19
 70
     1
102
RTVSPropertyOp20
 70
     1
102
RTVSPropertyOp21
 70
     1
102
RTVSPropertyOp22
 70
     1
102
RTVSPropertyOp23
 70
     1
102
RTVSPropertyOp24
 70
     1
102
RTVSPropertyOp25
 70
     1
102
RTVSPropertyOp26
 70
     1
102
RTVSPropertyOp27
 70
     1
102
RTVSPropertyOp28
 70
     1
102
RTVSPropertyOp29
 70
     1
102
RTVSPropertyOp30
 70
     1
102
RTVSPropertyOp31
 70
     1
102
RTVSPropertyOp32
 70
     1
102
RTVSPropertyOp33
 70
     1
102
RTVSPropertyOp34
 70
     1
102
RTVSPropertyOp35
 70
     1
102
RTVSPropertyOp36
 70
     1
102
RTVSPropertyOp37
 70
     1
102
RTVSPropertyOp38
 70
     1
102
RTVSPropertyOp39
 70
     1
102
RTVSPropertyOp40
 70
     1
102
RTVSPropertyOp41
 70
     1
102
RTVSPropertyOp42
 70
     1
102
RTVSPropertyOp43
 70
     1
102
RTVSPropertyOp44
 70
     1
102
RTVSPropertyOp45
 70
     1
102
RTVSPropertyOp46
 70
     1
102
RTVSPropertyOp47
 70
     1
102
RTVSPropertyOp48
 70
     1
102
RTVSPropertyOp49
 70
     1
102
RTVSPropertyOp50
 70
     1
102
RTVSPropertyOp51
 70
     0
102
RTVSPropertyOp52
 70
     0
102
RTVSPropertyOp53
 70
     1
102
RTVSPropertyOp54
 70
     1
102
RTVSPropertyOp55
 70
     1
102
RTVSPropertyOp56
 70
     1
102
RTVSPropertyOp57
 70
     1
102
RTVSPropertyOp58
 70
     1
102
RTVSPropertyOp59
 70
     1
102
RTVSPropertyOp60
 70
     1
102
RTVSPropertyOp61
 70
     1
102
RTVSPropertyOp62
 70
     1
  0
XRECORD
  5
665C
102
{ACAD_REACTORS
330
665B
102
}
330
665B
100
AcDbXrecord
280
     1
102
RTVSPost2010Prop28
280
     0
102
RTVSPost2010PropOp28
 70
     1
102
RTVSPost2010Prop29
280
     1
102
RTVSPost2010PropOp29
 70
     1
102
RTVSPost2010Prop30
280
     1
102
RTVSPost2010PropOp30
 70
     1
102
RTVSPost2010Prop31
280
     0
102
RTVSPost2010PropOp31
 70
     1
102
RTVSPost2010Prop32
280
     0
102
RTVSPost2010PropOp32
 70
     1
102
RTVSPost2010Prop33
280
     0
102
RTVSPost2010PropOp33
 70
     1
102
RTVSPost2010Prop34
280
     0
102
RTVSPost2010PropOp34
 70
     1
102
RTVSPost2010Prop35
280
     0
102
RTVSPost2010PropOp35
 70
     1
102
RTVSPost2010Prop36
280
     0
102
RTVSPost2010PropOp36
 70
     1
102
RTVSPost2010Prop37
 90
       50
102
RTVSPost2010PropOp37
 70
     1
102
RTVSPost2010Prop38
140
0.0
102
RTVSPost2010PropOp38
 70
     1
102
RTVSPost2010Prop39
140
1.0
102
RTVSPost2010PropOp39
 70
     1
102
RTVSPost2010Prop40
 90
        0
102
RTVSPost2010PropOp40
 70
     1
102
RTVSPost2010Prop41ColorIndex
 90
       18
102
RTVSPost2010Prop41ColorRGB
 90
        0
102
RTVSPost2010PropOp41
 70
     1
102
RTVSPost2010Prop42
 90
       50
102
RTVSPost2010PropOp42
 70
     1
102
RTVSPost2010Prop43
 90
        3
102
RTVSPost2010PropOp43
 70
     1
102
RTVSPost2010Prop44ColorIndex
 90
        5
102
RTVSPost2010Prop44ColorRGB
 90
      255
102
RTVSPost2010PropOp44
 70
     1
102
RTVSPost2010Prop45
280
     0
102
RTVSPost2010PropOp45
 70
     1
102
RTVSPost2010Prop46
 90
       50
102
RTVSPost2010PropOp46
 70
     1
102
RTVSPost2010Prop47
 90
       50
102
RTVSPost2010PropOp47
 70
     1
102
RTVSPost2010Prop48
 90
       50
102
RTVSPost2010PropOp48
 70
     1
102
RTVSPost2010Prop49
280
     0
102
RTVSPost2010PropOp49
 70
     1
102
RTVSPost2010Prop50
 90
       50
102
RTVSPost2010PropOp50
 70
     1
102
RTVSPost2010Prop51ColorIndex
 90
      256
102
RTVSPost2010Prop51ColorRGB
 90
-16777216
102
RTVSPost2010PropOp51
 70
     0
102
RTVSPost2010Prop52
140
1.0
102
RTVSPost2010PropOp52
 70
     0
102
RTVSPost2010Prop53
 90
        2
102
RTVSPost2010PropOp53
 70
     1
102
RTVSPost2010Prop54
  1
strokes_ogs.tif
102
RTVSPost2010PropOp54
 70
     1
102
RTVSPost2010Prop55
280
     0
102
RTVSPost2010PropOp55
 70
     1
102
RTVSPost2010Prop56
140
1.0
102
RTVSPost2010PropOp56
 70
     1
102
RTVSPost2010Prop57
140
1.0
102
RTVSPost2010PropOp57
 70
     1
102
RTVSPropertyOp0
 70
     1
102
RTVSPropertyOp1
 70
     1
102
RTVSPropertyOp2
 70
     1
102
RTVSPropertyOp3
 70
     1
102
RTVSPropertyOp4
 70
     1
102
RTVSPropertyOp5
 70
     1
102
RTVSPropertyOp6
 70
     1
102
RTVSPropertyOp7
 70
     1
102
RTVSPropertyOp8
 70
     1
102
RTVSPropertyOp9
 70
     1
102
RTVSPropertyOp10
 70
     1
102
RTVSPropertyOp11
 70
     1
102
RTVSPropertyOp12
 70
     1
102
RTVSPropertyOp13
 70
     1
102
RTVSPropertyOp14
 70
     1
102
RTVSPropertyOp15
 70
     1
102
RTVSPropertyOp16
 70
     1
102
RTVSPropertyOp17
 70
     1
102
RTVSPropertyOp18
 70
     1
102
RTVSPropertyOp19
 70
     1
102
RTVSPropertyOp20
 70
     1
102
RTVSPropertyOp21
 70
     1
102
RTVSPropertyOp22
 70
     1
102
RTVSPropertyOp23
 70
     1
102
RTVSPropertyOp24
 70
     1
102
RTVSPropertyOp25
 70
     1
102
RTVSPropertyOp26
 70
     1
102
RTVSPropertyOp27
 70
     1
102
RTVSPropertyOp28
 70
     1
102
RTVSPropertyOp29
 70
     1
102
RTVSPropertyOp30
 70
     1
102
RTVSPropertyOp31
 70
     1
102
RTVSPropertyOp32
 70
     1
102
RTVSPropertyOp33
 70
     1
102
RTVSPropertyOp34
 70
     1
102
RTVSPropertyOp35
 70
     1
102
RTVSPropertyOp36
 70
     1
102
RTVSPropertyOp37
 70
     1
102
RTVSPropertyOp38
 70
     1
102
RTVSPropertyOp39
 70
     1
102
RTVSPropertyOp40
 70
     1
102
RTVSPropertyOp41
 70
     1
102
RTVSPropertyOp42
 70
     1
102
RTVSPropertyOp43
 70
     1
102
RTVSPropertyOp44
 70
     1
102
RTVSPropertyOp45
 70
     1
102
RTVSPropertyOp46
 70
     1
102
RTVSPropertyOp47
 70
     1
102
RTVSPropertyOp48
 70
     1
102
RTVSPropertyOp49
 70
     1
102
RTVSPropertyOp50
 70
     1
102
RTVSPropertyOp51
 70
     0
102
RTVSPropertyOp52
 70
     0
102
RTVSPropertyOp53
 70
     1
102
RTVSPropertyOp54
 70
     1
102
RTVSPropertyOp55
 70
     1
102
RTVSPropertyOp56
 70
     1
102
RTVSPropertyOp57
 70
     1
102
RTVSPropertyOp58
 70
     1
102
RTVSPropertyOp59
 70
     1
102
RTVSPropertyOp60
 70
     1
102
RTVSPropertyOp61
 70
     1
102
RTVSPropertyOp62
 70
     1
  0
XRECORD
  5
6678
102
{ACAD_REACTORS
330
6677
102
}
330
6677
100
AcDbXrecord
280
     1
102
RTVSPost2010Prop28
280
     0
102
RTVSPost2010PropOp28
 70
     0
102
RTVSPost2010Prop29
280
     1
102
RTVSPost2010PropOp29
 70
     0
102
RTVSPost2010Prop30
280
     1
102
RTVSPost2010PropOp30
 70
     0
102
RTVSPost2010Prop31
280
     0
102
RTVSPost2010PropOp31
 70
     0
102
RTVSPost2010Prop32
280
     0
102
RTVSPost2010PropOp32
 70
     0
102
RTVSPost2010Prop33
280
     0
102
RTVSPost2010PropOp33
 70
     0
102
RTVSPost2010Prop34
280
     0
102
RTVSPost2010PropOp34
 70
     0
102
RTVSPost2010Prop35
280
     0
102
RTVSPost2010PropOp35
 70
     0
102
RTVSPost2010Prop36
280
     0
102
RTVSPost2010PropOp36
 70
     0
102
RTVSPost2010Prop37
 90
       50
102
RTVSPost2010PropOp37
 70
     0
102
RTVSPost2010Prop38
140
0.0
102
RTVSPost2010PropOp38
 70
     0
102
RTVSPost2010Prop39
140
1.0
102
RTVSPost2010PropOp39
 70
     0
102
RTVSPost2010Prop40
 90
        0
102
RTVSPost2010PropOp40
 70
     0
102
RTVSPost2010Prop41ColorIndex
 90
       18
102
RTVSPost2010Prop41ColorRGB
 90
        0
102
RTVSPost2010PropOp41
 70
     0
102
RTVSPost2010Prop42
 90
       50
102
RTVSPost2010PropOp42
 70
     0
102
RTVSPost2010Prop43
 90
        3
102
RTVSPost2010PropOp43
 70
     0
102
RTVSPost2010Prop44ColorIndex
 90
        5
102
RTVSPost2010Prop44ColorRGB
 90
      255
102
RTVSPost2010PropOp44
 70
     0
102
RTVSPost2010Prop45
280
     0
102
RTVSPost2010PropOp45
 70
     0
102
RTVSPost2010Prop46
 90
       50
102
RTVSPost2010PropOp46
 70
     0
102
RTVSPost2010Prop47
 90
       50
102
RTVSPost2010PropOp47
 70
     0
102
RTVSPost2010Prop48
 90
       50
102
RTVSPost2010PropOp48
 70
     0
102
RTVSPost2010Prop49
280
     0
102
RTVSPost2010PropOp49
 70
     0
102
RTVSPost2010Prop50
 90
       50
102
RTVSPost2010PropOp50
 70
     0
102
RTVSPost2010Prop51ColorIndex
 90
      256
102
RTVSPost2010Prop51ColorRGB
 90
-16777216
102
RTVSPost2010PropOp51
 70
     0
102
RTVSPost2010Prop52
140
1.0
102
RTVSPost2010PropOp52
 70
     0
102
RTVSPost2010Prop53
 90
        2
102
RTVSPost2010PropOp53
 70
     0
102
RTVSPost2010Prop54
  1
strokes_ogs.tif
102
RTVSPost2010PropOp54
 70
     0
102
RTVSPost2010Prop55
280
     0
102
RTVSPost2010PropOp55
 70
     0
102
RTVSPost2010Prop56
140
1.0
102
RTVSPost2010PropOp56
 70
     0
102
RTVSPost2010Prop57
140
1.0
102
RTVSPost2010PropOp57
 70
     0
102
RTVSPropertyOp0
 70
     0
102
RTVSPropertyOp1
 70
     0
102
RTVSPropertyOp2
 70
     0
102
RTVSPropertyOp3
 70
     0
102
RTVSPropertyOp4
 70
     0
102
RTVSPropertyOp5
 70
     0
102
RTVSPropertyOp6
 70
     0
102
RTVSPropertyOp7
 70
     0
102
RTVSPropertyOp8
 70
     0
102
RTVSPropertyOp9
 70
     0
102
RTVSPropertyOp10
 70
     0
102
RTVSPropertyOp11
 70
     0
102
RTVSPropertyOp12
 70
     0
102
RTVSPropertyOp13
 70
     0
102
RTVSPropertyOp14
 70
     2
102
RTVSPropertyOp15
 70
     0
102
RTVSPropertyOp16
 70
     0
102
RTVSPropertyOp17
 70
     0
102
RTVSPropertyOp18
 70
     0
102
RTVSPropertyOp19
 70
     0
102
RTVSPropertyOp20
 70
     0
102
RTVSPropertyOp21
 70
     0
102
RTVSPropertyOp22
 70
     0
102
RTVSPropertyOp23
 70
     0
102
RTVSPropertyOp24
 70
     0
102
RTVSPropertyOp25
 70
     0
102
RTVSPropertyOp26
 70
     0
102
RTVSPropertyOp27
 70
     0
102
RTVSPropertyOp28
 70
     0
102
RTVSPropertyOp29
 70
     0
102
RTVSPropertyOp30
 70
     0
102
RTVSPropertyOp31
 70
     0
102
RTVSPropertyOp32
 70
     0
102
RTVSPropertyOp33
 70
     0
102
RTVSPropertyOp34
 70
     0
102
RTVSPropertyOp35
 70
     0
102
RTVSPropertyOp36
 70
     0
102
RTVSPropertyOp37
 70
     0
102
RTVSPropertyOp38
 70
     0
102
RTVSPropertyOp39
 70
     0
102
RTVSPropertyOp40
 70
     0
102
RTVSPropertyOp41
 70
     0
102
RTVSPropertyOp42
 70
     0
102
RTVSPropertyOp43
 70
     0
102
RTVSPropertyOp44
 70
     0
102
RTVSPropertyOp45
 70
     0
102
RTVSPropertyOp46
 70
     0
102
RTVSPropertyOp47
 70
     0
102
RTVSPropertyOp48
 70
     0
102
RTVSPropertyOp49
 70
     0
102
RTVSPropertyOp50
 70
     0
102
RTVSPropertyOp51
 70
     0
102
RTVSPropertyOp52
 70
     0
102
RTVSPropertyOp53
 70
     0
102
RTVSPropertyOp54
 70
     0
102
RTVSPropertyOp55
 70
     0
102
RTVSPropertyOp56
 70
     0
102
RTVSPropertyOp57
 70
     0
102
RTVSPropertyOp58
 70
     1
102
RTVSPropertyOp59
 70
     1
102
RTVSPropertyOp60
 70
     1
102
RTVSPropertyOp61
 70
     1
102
RTVSPropertyOp62
 70
     1
  0
XRECORD
  5
6668
102
{ACAD_REACTORS
330
6667
102
}
330
6667
100
AcDbXrecord
280
     1
102
RTVSPost2010Prop28
280
     0
102
RTVSPost2010PropOp28
 70
     1
102
RTVSPost2010Prop29
280
     1
102
RTVSPost2010PropOp29
 70
     1
102
RTVSPost2010Prop30
280
     1
102
RTVSPost2010PropOp30
 70
     1
102
RTVSPost2010Prop31
280
     0
102
RTVSPost2010PropOp31
 70
     1
102
RTVSPost2010Prop32
280
     0
102
RTVSPost2010PropOp32
 70
     1
102
RTVSPost2010Prop33
280
     0
102
RTVSPost2010PropOp33
 70
     1
102
RTVSPost2010Prop34
280
     0
102
RTVSPost2010PropOp34
 70
     1
102
RTVSPost2010Prop35
280
     0
102
RTVSPost2010PropOp35
 70
     1
102
RTVSPost2010Prop36
280
     0
102
RTVSPost2010PropOp36
 70
     1
102
RTVSPost2010Prop37
 90
       50
102
RTVSPost2010PropOp37
 70
     1
102
RTVSPost2010Prop38
140
0.0
102
RTVSPost2010PropOp38
 70
     1
102
RTVSPost2010Prop39
140
1.0
102
RTVSPost2010PropOp39
 70
     1
102
RTVSPost2010Prop40
 90
        0
102
RTVSPost2010PropOp40
 70
     1
102
RTVSPost2010Prop41ColorIndex
 90
       18
102
RTVSPost2010Prop41ColorRGB
 90
        0
102
RTVSPost2010PropOp41
 70
     1
102
RTVSPost2010Prop42
 90
       50
102
RTVSPost2010PropOp42
 70
     1
102
RTVSPost2010Prop43
 90
        3
102
RTVSPost2010PropOp43
 70
     1
102
RTVSPost2010Prop44ColorIndex
 90
        5
102
RTVSPost2010Prop44ColorRGB
 90
      255
102
RTVSPost2010PropOp44
 70
     1
102
RTVSPost2010Prop45
280
     0
102
RTVSPost2010PropOp45
 70
     1
102
RTVSPost2010Prop46
 90
       50
102
RTVSPost2010PropOp46
 70
     1
102
RTVSPost2010Prop47
 90
       50
102
RTVSPost2010PropOp47
 70
     1
102
RTVSPost2010Prop48
 90
       50
102
RTVSPost2010PropOp48
 70
     1
102
RTVSPost2010Prop49
280
     0
102
RTVSPost2010PropOp49
 70
     1
102
RTVSPost2010Prop50
 90
       50
102
RTVSPost2010PropOp50
 70
     1
102
RTVSPost2010Prop51ColorIndex
 90
      256
102
RTVSPost2010Prop51ColorRGB
 90
-16777216
102
RTVSPost2010PropOp51
 70
     0
102
RTVSPost2010Prop52
140
1.0
102
RTVSPost2010PropOp52
 70
     0
102
RTVSPost2010Prop53
 90
        2
102
RTVSPost2010PropOp53
 70
     1
102
RTVSPost2010Prop54
  1
strokes_ogs.tif
102
RTVSPost2010PropOp54
 70
     1
102
RTVSPost2010Prop55
280
     0
102
RTVSPost2010PropOp55
 70
     1
102
RTVSPost2010Prop56
140
1.0
102
RTVSPost2010PropOp56
 70
     1
102
RTVSPost2010Prop57
140
1.0
102
RTVSPost2010PropOp57
 70
     1
102
RTVSPropertyOp0
 70
     1
102
RTVSPropertyOp1
 70
     1
102
RTVSPropertyOp2
 70
     1
102
RTVSPropertyOp3
 70
     1
102
RTVSPropertyOp4
 70
     1
102
RTVSPropertyOp5
 70
     1
102
RTVSPropertyOp6
 70
     1
102
RTVSPropertyOp7
 70
     1
102
RTVSPropertyOp8
 70
     1
102
RTVSPropertyOp9
 70
     1
102
RTVSPropertyOp10
 70
     1
102
RTVSPropertyOp11
 70
     1
102
RTVSPropertyOp12
 70
     1
102
RTVSPropertyOp13
 70
     1
102
RTVSPropertyOp14
 70
     1
102
RTVSPropertyOp15
 70
     1
102
RTVSPropertyOp16
 70
     1
102
RTVSPropertyOp17
 70
     1
102
RTVSPropertyOp18
 70
     1
102
RTVSPropertyOp19
 70
     1
102
RTVSPropertyOp20
 70
     1
102
RTVSPropertyOp21
 70
     1
102
RTVSPropertyOp22
 70
     1
102
RTVSPropertyOp23
 70
     1
102
RTVSPropertyOp24
 70
     1
102
RTVSPropertyOp25
 70
     1
102
RTVSPropertyOp26
 70
     1
102
RTVSPropertyOp27
 70
     1
102
RTVSPropertyOp28
 70
     1
102
RTVSPropertyOp29
 70
     1
102
RTVSPropertyOp30
 70
     1
102
RTVSPropertyOp31
 70
     1
102
RTVSPropertyOp32
 70
     1
102
RTVSPropertyOp33
 70
     1
102
RTVSPropertyOp34
 70
     1
102
RTVSPropertyOp35
 70
     1
102
RTVSPropertyOp36
 70
     1
102
RTVSPropertyOp37
 70
     1
102
RTVSPropertyOp38
 70
     1
102
RTVSPropertyOp39
 70
     1
102
RTVSPropertyOp40
 70
     1
102
RTVSPropertyOp41
 70
     1
102
RTVSPropertyOp42
 70
     1
102
RTVSPropertyOp43
 70
     1
102
RTVSPropertyOp44
 70
     1
102
RTVSPropertyOp45
 70
     1
102
RTVSPropertyOp46
 70
     1
102
RTVSPropertyOp47
 70
     1
102
RTVSPropertyOp48
 70
     1
102
RTVSPropertyOp49
 70
     1
102
RTVSPropertyOp50
 70
     1
102
RTVSPropertyOp51
 70
     0
102
RTVSPropertyOp52
 70
     0
102
RTVSPropertyOp53
 70
     1
102
RTVSPropertyOp54
 70
     1
102
RTVSPropertyOp55
 70
     1
102
RTVSPropertyOp56
 70
     1
102
RTVSPropertyOp57
 70
     1
102
RTVSPropertyOp58
 70
     1
102
RTVSPropertyOp59
 70
     1
102
RTVSPropertyOp60
 70
     1
102
RTVSPropertyOp61
 70
     1
102
RTVSPropertyOp62
 70
     1
  0
XRECORD
  5
667A
102
{ACAD_REACTORS
330
6679
102
}
330
6679
100
AcDbXrecord
280
     1
102
RTVSPost2010Prop28
280
     0
102
RTVSPost2010PropOp28
 70
     0
102
RTVSPost2010Prop29
280
     1
102
RTVSPost2010PropOp29
 70
     0
102
RTVSPost2010Prop30
280
     1
102
RTVSPost2010PropOp30
 70
     0
102
RTVSPost2010Prop31
280
     0
102
RTVSPost2010PropOp31
 70
     0
102
RTVSPost2010Prop32
280
     0
102
RTVSPost2010PropOp32
 70
     0
102
RTVSPost2010Prop33
280
     0
102
RTVSPost2010PropOp33
 70
     0
102
RTVSPost2010Prop34
280
     0
102
RTVSPost2010PropOp34
 70
     0
102
RTVSPost2010Prop35
280
     0
102
RTVSPost2010PropOp35
 70
     0
102
RTVSPost2010Prop36
280
     0
102
RTVSPost2010PropOp36
 70
     0
102
RTVSPost2010Prop37
 90
       50
102
RTVSPost2010PropOp37
 70
     0
102
RTVSPost2010Prop38
140
0.0
102
RTVSPost2010PropOp38
 70
     0
102
RTVSPost2010Prop39
140
1.0
102
RTVSPost2010PropOp39
 70
     0
102
RTVSPost2010Prop40
 90
        0
102
RTVSPost2010PropOp40
 70
     0
102
RTVSPost2010Prop41ColorIndex
 90
       18
102
RTVSPost2010Prop41ColorRGB
 90
        0
102
RTVSPost2010PropOp41
 70
     0
102
RTVSPost2010Prop42
 90
       50
102
RTVSPost2010PropOp42
 70
     0
102
RTVSPost2010Prop43
 90
        3
102
RTVSPost2010PropOp43
 70
     0
102
RTVSPost2010Prop44ColorIndex
 90
        5
102
RTVSPost2010Prop44ColorRGB
 90
      255
102
RTVSPost2010PropOp44
 70
     0
102
RTVSPost2010Prop45
280
     0
102
RTVSPost2010PropOp45
 70
     0
102
RTVSPost2010Prop46
 90
       50
102
RTVSPost2010PropOp46
 70
     0
102
RTVSPost2010Prop47
 90
       50
102
RTVSPost2010PropOp47
 70
     0
102
RTVSPost2010Prop48
 90
       50
102
RTVSPost2010PropOp48
 70
     0
102
RTVSPost2010Prop49
280
     0
102
RTVSPost2010PropOp49
 70
     0
102
RTVSPost2010Prop50
 90
       50
102
RTVSPost2010PropOp50
 70
     0
102
RTVSPost2010Prop51ColorIndex
 90
      256
102
RTVSPost2010Prop51ColorRGB
 90
-16777216
102
RTVSPost2010PropOp51
 70
     0
102
RTVSPost2010Prop52
140
1.0
102
RTVSPost2010PropOp52
 70
     0
102
RTVSPost2010Prop53
 90
        2
102
RTVSPost2010PropOp53
 70
     0
102
RTVSPost2010Prop54
  1
strokes_ogs.tif
102
RTVSPost2010PropOp54
 70
     0
102
RTVSPost2010Prop55
280
     0
102
RTVSPost2010PropOp55
 70
     0
102
RTVSPost2010Prop56
140
1.0
102
RTVSPost2010PropOp56
 70
     0
102
RTVSPost2010Prop57
140
1.0
102
RTVSPost2010PropOp57
 70
     0
102
RTVSPropertyOp0
 70
     0
102
RTVSPropertyOp1
 70
     0
102
RTVSPropertyOp2
 70
     0
102
RTVSPropertyOp3
 70
     0
102
RTVSPropertyOp4
 70
     0
102
RTVSPropertyOp5
 70
     0
102
RTVSPropertyOp6
 70
     0
102
RTVSPropertyOp7
 70
     0
102
RTVSPropertyOp8
 70
     0
102
RTVSPropertyOp9
 70
     0
102
RTVSPropertyOp10
 70
     0
102
RTVSPropertyOp11
 70
     0
102
RTVSPropertyOp12
 70
     0
102
RTVSPropertyOp13
 70
     0
102
RTVSPropertyOp14
 70
     2
102
RTVSPropertyOp15
 70
     0
102
RTVSPropertyOp16
 70
     0
102
RTVSPropertyOp17
 70
     0
102
RTVSPropertyOp18
 70
     0
102
RTVSPropertyOp19
 70
     0
102
RTVSPropertyOp20
 70
     0
102
RTVSPropertyOp21
 70
     0
102
RTVSPropertyOp22
 70
     0
102
RTVSPropertyOp23
 70
     0
102
RTVSPropertyOp24
 70
     0
102
RTVSPropertyOp25
 70
     0
102
RTVSPropertyOp26
 70
     0
102
RTVSPropertyOp27
 70
     0
102
RTVSPropertyOp28
 70
     0
102
RTVSPropertyOp29
 70
     0
102
RTVSPropertyOp30
 70
     0
102
RTVSPropertyOp31
 70
     0
102
RTVSPropertyOp32
 70
     0
102
RTVSPropertyOp33
 70
     0
102
RTVSPropertyOp34
 70
     0
102
RTVSPropertyOp35
 70
     0
102
RTVSPropertyOp36
 70
     0
102
RTVSPropertyOp37
 70
     0
102
RTVSPropertyOp38
 70
     0
102
RTVSPropertyOp39
 70
     0
102
RTVSPropertyOp40
 70
     0
102
RTVSPropertyOp41
 70
     0
102
RTVSPropertyOp42
 70
     0
102
RTVSPropertyOp43
 70
     0
102
RTVSPropertyOp44
 70
     0
102
RTVSPropertyOp45
 70
     0
102
RTVSPropertyOp46
 70
     0
102
RTVSPropertyOp47
 70
     0
102
RTVSPropertyOp48
 70
     0
102
RTVSPropertyOp49
 70
     0
102
RTVSPropertyOp50
 70
     0
102
RTVSPropertyOp51
 70
     0
102
RTVSPropertyOp52
 70
     0
102
RTVSPropertyOp53
 70
     0
102
RTVSPropertyOp54
 70
     0
102
RTVSPropertyOp55
 70
     0
102
RTVSPropertyOp56
 70
     0
102
RTVSPropertyOp57
 70
     0
102
RTVSPropertyOp58
 70
     1
102
RTVSPropertyOp59
 70
     1
102
RTVSPropertyOp60
 70
     1
102
RTVSPropertyOp61
 70
     1
102
RTVSPropertyOp62
 70
     1
  0
XRECORD
  5
6660
102
{ACAD_REACTORS
330
665F
102
}
330
665F
100
AcDbXrecord
280
     1
102
RTVSPost2010Prop28
280
     0
102
RTVSPost2010PropOp28
 70
     1
102
RTVSPost2010Prop29
280
     1
102
RTVSPost2010PropOp29
 70
     1
102
RTVSPost2010Prop30
280
     1
102
RTVSPost2010PropOp30
 70
     1
102
RTVSPost2010Prop31
280
     0
102
RTVSPost2010PropOp31
 70
     1
102
RTVSPost2010Prop32
280
     0
102
RTVSPost2010PropOp32
 70
     1
102
RTVSPost2010Prop33
280
     0
102
RTVSPost2010PropOp33
 70
     1
102
RTVSPost2010Prop34
280
     0
102
RTVSPost2010PropOp34
 70
     1
102
RTVSPost2010Prop35
280
     0
102
RTVSPost2010PropOp35
 70
     1
102
RTVSPost2010Prop36
280
     0
102
RTVSPost2010PropOp36
 70
     1
102
RTVSPost2010Prop37
 90
       50
102
RTVSPost2010PropOp37
 70
     1
102
RTVSPost2010Prop38
140
0.0
102
RTVSPost2010PropOp38
 70
     1
102
RTVSPost2010Prop39
140
1.0
102
RTVSPost2010PropOp39
 70
     1
102
RTVSPost2010Prop40
 90
        0
102
RTVSPost2010PropOp40
 70
     1
102
RTVSPost2010Prop41ColorIndex
 90
       18
102
RTVSPost2010Prop41ColorRGB
 90
        0
102
RTVSPost2010PropOp41
 70
     1
102
RTVSPost2010Prop42
 90
       50
102
RTVSPost2010PropOp42
 70
     1
102
RTVSPost2010Prop43
 90
        3
102
RTVSPost2010PropOp43
 70
     1
102
RTVSPost2010Prop44ColorIndex
 90
        5
102
RTVSPost2010Prop44ColorRGB
 90
      255
102
RTVSPost2010PropOp44
 70
     1
102
RTVSPost2010Prop45
280
     0
102
RTVSPost2010PropOp45
 70
     1
102
RTVSPost2010Prop46
 90
       50
102
RTVSPost2010PropOp46
 70
     1
102
RTVSPost2010Prop47
 90
       50
102
RTVSPost2010PropOp47
 70
     1
102
RTVSPost2010Prop48
 90
       50
102
RTVSPost2010PropOp48
 70
     1
102
RTVSPost2010Prop49
280
     0
102
RTVSPost2010PropOp49
 70
     1
102
RTVSPost2010Prop50
 90
       50
102
RTVSPost2010PropOp50
 70
     1
102
RTVSPost2010Prop51ColorIndex
 90
      256
102
RTVSPost2010Prop51ColorRGB
 90
-16777216
102
RTVSPost2010PropOp51
 70
     0
102
RTVSPost2010Prop52
140
1.0
102
RTVSPost2010PropOp52
 70
     0
102
RTVSPost2010Prop53
 90
        2
102
RTVSPost2010PropOp53
 70
     1
102
RTVSPost2010Prop54
  1
strokes_ogs.tif
102
RTVSPost2010PropOp54
 70
     1
102
RTVSPost2010Prop55
280
     0
102
RTVSPost2010PropOp55
 70
     1
102
RTVSPost2010Prop56
140
1.0
102
RTVSPost2010PropOp56
 70
     1
102
RTVSPost2010Prop57
140
1.0
102
RTVSPost2010PropOp57
 70
     1
102
RTVSPropertyOp0
 70
     1
102
RTVSPropertyOp1
 70
     1
102
RTVSPropertyOp2
 70
     1
102
RTVSPropertyOp3
 70
     1
102
RTVSPropertyOp4
 70
     1
102
RTVSPropertyOp5
 70
     1
102
RTVSPropertyOp6
 70
     1
102
RTVSPropertyOp7
 70
     1
102
RTVSPropertyOp8
 70
     1
102
RTVSPropertyOp9
 70
     1
102
RTVSPropertyOp10
 70
     1
102
RTVSPropertyOp11
 70
     1
102
RTVSPropertyOp12
 70
     1
102
RTVSPropertyOp13
 70
     1
102
RTVSPropertyOp14
 70
     1
102
RTVSPropertyOp15
 70
     1
102
RTVSPropertyOp16
 70
     1
102
RTVSPropertyOp17
 70
     1
102
RTVSPropertyOp18
 70
     1
102
RTVSPropertyOp19
 70
     1
102
RTVSPropertyOp20
 70
     1
102
RTVSPropertyOp21
 70
     1
102
RTVSPropertyOp22
 70
     1
102
RTVSPropertyOp23
 70
     1
102
RTVSPropertyOp24
 70
     1
102
RTVSPropertyOp25
 70
     1
102
RTVSPropertyOp26
 70
     1
102
RTVSPropertyOp27
 70
     1
102
RTVSPropertyOp28
 70
     1
102
RTVSPropertyOp29
 70
     1
102
RTVSPropertyOp30
 70
     1
102
RTVSPropertyOp31
 70
     1
102
RTVSPropertyOp32
 70
     1
102
RTVSPropertyOp33
 70
     1
102
RTVSPropertyOp34
 70
     1
102
RTVSPropertyOp35
 70
     1
102
RTVSPropertyOp36
 70
     1
102
RTVSPropertyOp37
 70
     1
102
RTVSPropertyOp38
 70
     1
102
RTVSPropertyOp39
 70
     1
102
RTVSPropertyOp40
 70
     1
102
RTVSPropertyOp41
 70
     1
102
RTVSPropertyOp42
 70
     1
102
RTVSPropertyOp43
 70
     1
102
RTVSPropertyOp44
 70
     1
102
RTVSPropertyOp45
 70
     1
102
RTVSPropertyOp46
 70
     1
102
RTVSPropertyOp47
 70
     1
102
RTVSPropertyOp48
 70
     1
102
RTVSPropertyOp49
 70
     1
102
RTVSPropertyOp50
 70
     1
102
RTVSPropertyOp51
 70
     0
102
RTVSPropertyOp52
 70
     0
102
RTVSPropertyOp53
 70
     1
102
RTVSPropertyOp54
 70
     1
102
RTVSPropertyOp55
 70
     1
102
RTVSPropertyOp56
 70
     1
102
RTVSPropertyOp57
 70
     1
102
RTVSPropertyOp58
 70
     1
102
RTVSPropertyOp59
 70
     1
102
RTVSPropertyOp60
 70
     1
102
RTVSPropertyOp61
 70
     1
102
RTVSPropertyOp62
 70
     1
  0
XRECORD
  5
6676
102
{ACAD_REACTORS
330
6675
102
}
330
6675
100
AcDbXrecord
280
     1
102
RTVSPost2010Prop28
280
     0
102
RTVSPost2010PropOp28
 70
     1
102
RTVSPost2010Prop29
280
     1
102
RTVSPost2010PropOp29
 70
     1
102
RTVSPost2010Prop30
280
     1
102
RTVSPost2010PropOp30
 70
     1
102
RTVSPost2010Prop31
280
     0
102
RTVSPost2010PropOp31
 70
     1
102
RTVSPost2010Prop32
280
     0
102
RTVSPost2010PropOp32
 70
     1
102
RTVSPost2010Prop33
280
     0
102
RTVSPost2010PropOp33
 70
     1
102
RTVSPost2010Prop34
280
     0
102
RTVSPost2010PropOp34
 70
     1
102
RTVSPost2010Prop35
280
     0
102
RTVSPost2010PropOp35
 70
     1
102
RTVSPost2010Prop36
280
     0
102
RTVSPost2010PropOp36
 70
     1
102
RTVSPost2010Prop37
 90
       50
102
RTVSPost2010PropOp37
 70
     1
102
RTVSPost2010Prop38
140
0.0
102
RTVSPost2010PropOp38
 70
     1
102
RTVSPost2010Prop39
140
1.0
102
RTVSPost2010PropOp39
 70
     1
102
RTVSPost2010Prop40
 90
        0
102
RTVSPost2010PropOp40
 70
     1
102
RTVSPost2010Prop41ColorIndex
 90
       18
102
RTVSPost2010Prop41ColorRGB
 90
        0
102
RTVSPost2010PropOp41
 70
     1
102
RTVSPost2010Prop42
 90
       50
102
RTVSPost2010PropOp42
 70
     1
102
RTVSPost2010Prop43
 90
        3
102
RTVSPost2010PropOp43
 70
     1
102
RTVSPost2010Prop44ColorIndex
 90
        5
102
RTVSPost2010Prop44ColorRGB
 90
      255
102
RTVSPost2010PropOp44
 70
     1
102
RTVSPost2010Prop45
280
     0
102
RTVSPost2010PropOp45
 70
     1
102
RTVSPost2010Prop46
 90
       50
102
RTVSPost2010PropOp46
 70
     1
102
RTVSPost2010Prop47
 90
       50
102
RTVSPost2010PropOp47
 70
     1
102
RTVSPost2010Prop48
 90
       50
102
RTVSPost2010PropOp48
 70
     1
102
RTVSPost2010Prop49
280
     0
102
RTVSPost2010PropOp49
 70
     1
102
RTVSPost2010Prop50
 90
       50
102
RTVSPost2010PropOp50
 70
     1
102
RTVSPost2010Prop51ColorIndex
 90
      256
102
RTVSPost2010Prop51ColorRGB
 90
-16777216
102
RTVSPost2010PropOp51
 70
     0
102
RTVSPost2010Prop52
140
1.0
102
RTVSPost2010PropOp52
 70
     0
102
RTVSPost2010Prop53
 90
        2
102
RTVSPost2010PropOp53
 70
     1
102
RTVSPost2010Prop54
  1
strokes_ogs.tif
102
RTVSPost2010PropOp54
 70
     1
102
RTVSPost2010Prop55
280
     0
102
RTVSPost2010PropOp55
 70
     1
102
RTVSPost2010Prop56
140
1.0
102
RTVSPost2010PropOp56
 70
     1
102
RTVSPost2010Prop57
140
1.0
102
RTVSPost2010PropOp57
 70
     1
102
RTVSPropertyOp0
 70
     1
102
RTVSPropertyOp1
 70
     1
102
RTVSPropertyOp2
 70
     1
102
RTVSPropertyOp3
 70
     1
102
RTVSPropertyOp4
 70
     1
102
RTVSPropertyOp5
 70
     1
102
RTVSPropertyOp6
 70
     1
102
RTVSPropertyOp7
 70
     1
102
RTVSPropertyOp8
 70
     1
102
RTVSPropertyOp9
 70
     1
102
RTVSPropertyOp10
 70
     1
102
RTVSPropertyOp11
 70
     1
102
RTVSPropertyOp12
 70
     1
102
RTVSPropertyOp13
 70
     1
102
RTVSPropertyOp14
 70
     1
102
RTVSPropertyOp15
 70
     1
102
RTVSPropertyOp16
 70
     1
102
RTVSPropertyOp17
 70
     1
102
RTVSPropertyOp18
 70
     1
102
RTVSPropertyOp19
 70
     1
102
RTVSPropertyOp20
 70
     1
102
RTVSPropertyOp21
 70
     1
102
RTVSPropertyOp22
 70
     1
102
RTVSPropertyOp23
 70
     1
102
RTVSPropertyOp24
 70
     1
102
RTVSPropertyOp25
 70
     1
102
RTVSPropertyOp26
 70
     1
102
RTVSPropertyOp27
 70
     1
102
RTVSPropertyOp28
 70
     1
102
RTVSPropertyOp29
 70
     1
102
RTVSPropertyOp30
 70
     1
102
RTVSPropertyOp31
 70
     1
102
RTVSPropertyOp32
 70
     1
102
RTVSPropertyOp33
 70
     1
102
RTVSPropertyOp34
 70
     1
102
RTVSPropertyOp35
 70
     1
102
RTVSPropertyOp36
 70
     1
102
RTVSPropertyOp37
 70
     1
102
RTVSPropertyOp38
 70
     1
102
RTVSPropertyOp39
 70
     1
102
RTVSPropertyOp40
 70
     1
102
RTVSPropertyOp41
 70
     1
102
RTVSPropertyOp42
 70
     1
102
RTVSPropertyOp43
 70
     1
102
RTVSPropertyOp44
 70
     1
102
RTVSPropertyOp45
 70
     1
102
RTVSPropertyOp46
 70
     1
102
RTVSPropertyOp47
 70
     1
102
RTVSPropertyOp48
 70
     1
102
RTVSPropertyOp49
 70
     1
102
RTVSPropertyOp50
 70
     1
102
RTVSPropertyOp51
 70
     0
102
RTVSPropertyOp52
 70
     0
102
RTVSPropertyOp53
 70
     1
102
RTVSPropertyOp54
 70
     1
102
RTVSPropertyOp55
 70
     1
102
RTVSPropertyOp56
 70
     1
102
RTVSPropertyOp57
 70
     1
102
RTVSPropertyOp58
 70
     1
102
RTVSPropertyOp59
 70
     1
102
RTVSPropertyOp60
 70
     1
102
RTVSPropertyOp61
 70
     1
102
RTVSPropertyOp62
 70
     1
  0
XRECORD
  5
6674
102
{ACAD_REACTORS
330
6673
102
}
330
6673
100
AcDbXrecord
280
     1
102
RTVSPost2010Prop28
280
     0
102
RTVSPost2010PropOp28
 70
     1
102
RTVSPost2010Prop29
280
     1
102
RTVSPost2010PropOp29
 70
     1
102
RTVSPost2010Prop30
280
     1
102
RTVSPost2010PropOp30
 70
     1
102
RTVSPost2010Prop31
280
     0
102
RTVSPost2010PropOp31
 70
     1
102
RTVSPost2010Prop32
280
     0
102
RTVSPost2010PropOp32
 70
     1
102
RTVSPost2010Prop33
280
     0
102
RTVSPost2010PropOp33
 70
     1
102
RTVSPost2010Prop34
280
     0
102
RTVSPost2010PropOp34
 70
     1
102
RTVSPost2010Prop35
280
     0
102
RTVSPost2010PropOp35
 70
     1
102
RTVSPost2010Prop36
280
     0
102
RTVSPost2010PropOp36
 70
     1
102
RTVSPost2010Prop37
 90
       50
102
RTVSPost2010PropOp37
 70
     1
102
RTVSPost2010Prop38
140
0.0
102
RTVSPost2010PropOp38
 70
     1
102
RTVSPost2010Prop39
140
1.0
102
RTVSPost2010PropOp39
 70
     1
102
RTVSPost2010Prop40
 90
        0
102
RTVSPost2010PropOp40
 70
     1
102
RTVSPost2010Prop41ColorIndex
 90
       18
102
RTVSPost2010Prop41ColorRGB
 90
        0
102
RTVSPost2010PropOp41
 70
     1
102
RTVSPost2010Prop42
 90
       50
102
RTVSPost2010PropOp42
 70
     1
102
RTVSPost2010Prop43
 90
        3
102
RTVSPost2010PropOp43
 70
     1
102
RTVSPost2010Prop44ColorIndex
 90
        5
102
RTVSPost2010Prop44ColorRGB
 90
      255
102
RTVSPost2010PropOp44
 70
     1
102
RTVSPost2010Prop45
280
     0
102
RTVSPost2010PropOp45
 70
     1
102
RTVSPost2010Prop46
 90
       50
102
RTVSPost2010PropOp46
 70
     1
102
RTVSPost2010Prop47
 90
       50
102
RTVSPost2010PropOp47
 70
     1
102
RTVSPost2010Prop48
 90
       50
102
RTVSPost2010PropOp48
 70
     1
102
RTVSPost2010Prop49
280
     0
102
RTVSPost2010PropOp49
 70
     1
102
RTVSPost2010Prop50
 90
       50
102
RTVSPost2010PropOp50
 70
     1
102
RTVSPost2010Prop51ColorIndex
 90
      256
102
RTVSPost2010Prop51ColorRGB
 90
-16777216
102
RTVSPost2010PropOp51
 70
     0
102
RTVSPost2010Prop52
140
1.0
102
RTVSPost2010PropOp52
 70
     0
102
RTVSPost2010Prop53
 90
        2
102
RTVSPost2010PropOp53
 70
     1
102
RTVSPost2010Prop54
  1
strokes_ogs.tif
102
RTVSPost2010PropOp54
 70
     1
102
RTVSPost2010Prop55
280
     0
102
RTVSPost2010PropOp55
 70
     1
102
RTVSPost2010Prop56
140
1.0
102
RTVSPost2010PropOp56
 70
     1
102
RTVSPost2010Prop57
140
1.0
102
RTVSPost2010PropOp57
 70
     1
102
RTVSPropertyOp0
 70
     1
102
RTVSPropertyOp1
 70
     1
102
RTVSPropertyOp2
 70
     1
102
RTVSPropertyOp3
 70
     1
102
RTVSPropertyOp4
 70
     1
102
RTVSPropertyOp5
 70
     1
102
RTVSPropertyOp6
 70
     1
102
RTVSPropertyOp7
 70
     1
102
RTVSPropertyOp8
 70
     1
102
RTVSPropertyOp9
 70
     1
102
RTVSPropertyOp10
 70
     1
102
RTVSPropertyOp11
 70
     1
102
RTVSPropertyOp12
 70
     1
102
RTVSPropertyOp13
 70
     1
102
RTVSPropertyOp14
 70
     1
102
RTVSPropertyOp15
 70
     1
102
RTVSPropertyOp16
 70
     1
102
RTVSPropertyOp17
 70
     1
102
RTVSPropertyOp18
 70
     1
102
RTVSPropertyOp19
 70
     1
102
RTVSPropertyOp20
 70
     1
102
RTVSPropertyOp21
 70
     1
102
RTVSPropertyOp22
 70
     1
102
RTVSPropertyOp23
 70
     1
102
RTVSPropertyOp24
 70
     1
102
RTVSPropertyOp25
 70
     1
102
RTVSPropertyOp26
 70
     1
102
RTVSPropertyOp27
 70
     1
102
RTVSPropertyOp28
 70
     1
102
RTVSPropertyOp29
 70
     1
102
RTVSPropertyOp30
 70
     1
102
RTVSPropertyOp31
 70
     1
102
RTVSPropertyOp32
 70
     1
102
RTVSPropertyOp33
 70
     1
102
RTVSPropertyOp34
 70
     1
102
RTVSPropertyOp35
 70
     1
102
RTVSPropertyOp36
 70
     1
102
RTVSPropertyOp37
 70
     1
102
RTVSPropertyOp38
 70
     1
102
RTVSPropertyOp39
 70
     1
102
RTVSPropertyOp40
 70
     1
102
RTVSPropertyOp41
 70
     1
102
RTVSPropertyOp42
 70
     1
102
RTVSPropertyOp43
 70
     1
102
RTVSPropertyOp44
 70
     1
102
RTVSPropertyOp45
 70
     1
102
RTVSPropertyOp46
 70
     1
102
RTVSPropertyOp47
 70
     1
102
RTVSPropertyOp48
 70
     1
102
RTVSPropertyOp49
 70
     1
102
RTVSPropertyOp50
 70
     1
102
RTVSPropertyOp51
 70
     0
102
RTVSPropertyOp52
 70
     0
102
RTVSPropertyOp53
 70
     1
102
RTVSPropertyOp54
 70
     1
102
RTVSPropertyOp55
 70
     1
102
RTVSPropertyOp56
 70
     1
102
RTVSPropertyOp57
 70
     1
102
RTVSPropertyOp58
 70
     1
102
RTVSPropertyOp59
 70
     1
102
RTVSPropertyOp60
 70
     1
102
RTVSPropertyOp61
 70
     1
102
RTVSPropertyOp62
 70
     1
  0
XRECORD
  5
666E
102
{ACAD_REACTORS
330
666D
102
}
330
666D
100
AcDbXrecord
280
     1
102
RTVSPost2010Prop28
280
     0
102
RTVSPost2010PropOp28
 70
     1
102
RTVSPost2010Prop29
280
     1
102
RTVSPost2010PropOp29
 70
     1
102
RTVSPost2010Prop30
280
     1
102
RTVSPost2010PropOp30
 70
     1
102
RTVSPost2010Prop31
280
     0
102
RTVSPost2010PropOp31
 70
     1
102
RTVSPost2010Prop32
280
     0
102
RTVSPost2010PropOp32
 70
     1
102
RTVSPost2010Prop33
280
     0
102
RTVSPost2010PropOp33
 70
     1
102
RTVSPost2010Prop34
280
     0
102
RTVSPost2010PropOp34
 70
     1
102
RTVSPost2010Prop35
280
     0
102
RTVSPost2010PropOp35
 70
     1
102
RTVSPost2010Prop36
280
     0
102
RTVSPost2010PropOp36
 70
     1
102
RTVSPost2010Prop37
 90
       50
102
RTVSPost2010PropOp37
 70
     1
102
RTVSPost2010Prop38
140
0.0
102
RTVSPost2010PropOp38
 70
     1
102
RTVSPost2010Prop39
140
1.0
102
RTVSPost2010PropOp39
 70
     1
102
RTVSPost2010Prop40
 90
        0
102
RTVSPost2010PropOp40
 70
     1
102
RTVSPost2010Prop41ColorIndex
 90
       18
102
RTVSPost2010Prop41ColorRGB
 90
        0
102
RTVSPost2010PropOp41
 70
     1
102
RTVSPost2010Prop42
 90
       50
102
RTVSPost2010PropOp42
 70
     1
102
RTVSPost2010Prop43
 90
        3
102
RTVSPost2010PropOp43
 70
     1
102
RTVSPost2010Prop44ColorIndex
 90
        5
102
RTVSPost2010Prop44ColorRGB
 90
      255
102
RTVSPost2010PropOp44
 70
     1
102
RTVSPost2010Prop45
280
     0
102
RTVSPost2010PropOp45
 70
     1
102
RTVSPost2010Prop46
 90
       50
102
RTVSPost2010PropOp46
 70
     1
102
RTVSPost2010Prop47
 90
       50
102
RTVSPost2010PropOp47
 70
     1
102
RTVSPost2010Prop48
 90
       50
102
RTVSPost2010PropOp48
 70
     1
102
RTVSPost2010Prop49
280
     0
102
RTVSPost2010PropOp49
 70
     1
102
RTVSPost2010Prop50
 90
       50
102
RTVSPost2010PropOp50
 70
     1
102
RTVSPost2010Prop51ColorIndex
 90
      256
102
RTVSPost2010Prop51ColorRGB
 90
-16777216
102
RTVSPost2010PropOp51
 70
     0
102
RTVSPost2010Prop52
140
1.0
102
RTVSPost2010PropOp52
 70
     0
102
RTVSPost2010Prop53
 90
        2
102
RTVSPost2010PropOp53
 70
     1
102
RTVSPost2010Prop54
  1
strokes_ogs.tif
102
RTVSPost2010PropOp54
 70
     1
102
RTVSPost2010Prop55
280
     0
102
RTVSPost2010PropOp55
 70
     1
102
RTVSPost2010Prop56
140
1.0
102
RTVSPost2010PropOp56
 70
     1
102
RTVSPost2010Prop57
140
1.0
102
RTVSPost2010PropOp57
 70
     1
102
RTVSPropertyOp0
 70
     1
102
RTVSPropertyOp1
 70
     1
102
RTVSPropertyOp2
 70
     1
102
RTVSPropertyOp3
 70
     1
102
RTVSPropertyOp4
 70
     1
102
RTVSPropertyOp5
 70
     1
102
RTVSPropertyOp6
 70
     1
102
RTVSPropertyOp7
 70
     1
102
RTVSPropertyOp8
 70
     1
102
RTVSPropertyOp9
 70
     1
102
RTVSPropertyOp10
 70
     1
102
RTVSPropertyOp11
 70
     1
102
RTVSPropertyOp12
 70
     1
102
RTVSPropertyOp13
 70
     1
102
RTVSPropertyOp14
 70
     1
102
RTVSPropertyOp15
 70
     1
102
RTVSPropertyOp16
 70
     1
102
RTVSPropertyOp17
 70
     1
102
RTVSPropertyOp18
 70
     1
102
RTVSPropertyOp19
 70
     1
102
RTVSPropertyOp20
 70
     1
102
RTVSPropertyOp21
 70
     1
102
RTVSPropertyOp22
 70
     1
102
RTVSPropertyOp23
 70
     1
102
RTVSPropertyOp24
 70
     1
102
RTVSPropertyOp25
 70
     1
102
RTVSPropertyOp26
 70
     1
102
RTVSPropertyOp27
 70
     1
102
RTVSPropertyOp28
 70
     1
102
RTVSPropertyOp29
 70
     1
102
RTVSPropertyOp30
 70
     1
102
RTVSPropertyOp31
 70
     1
102
RTVSPropertyOp32
 70
     1
102
RTVSPropertyOp33
 70
     1
102
RTVSPropertyOp34
 70
     1
102
RTVSPropertyOp35
 70
     1
102
RTVSPropertyOp36
 70
     1
102
RTVSPropertyOp37
 70
     1
102
RTVSPropertyOp38
 70
     1
102
RTVSPropertyOp39
 70
     1
102
RTVSPropertyOp40
 70
     1
102
RTVSPropertyOp41
 70
     1
102
RTVSPropertyOp42
 70
     1
102
RTVSPropertyOp43
 70
     1
102
RTVSPropertyOp44
 70
     1
102
RTVSPropertyOp45
 70
     1
102
RTVSPropertyOp46
 70
     1
102
RTVSPropertyOp47
 70
     1
102
RTVSPropertyOp48
 70
     1
102
RTVSPropertyOp49
 70
     1
102
RTVSPropertyOp50
 70
     1
102
RTVSPropertyOp51
 70
     0
102
RTVSPropertyOp52
 70
     0
102
RTVSPropertyOp53
 70
     1
102
RTVSPropertyOp54
 70
     1
102
RTVSPropertyOp55
 70
     1
102
RTVSPropertyOp56
 70
     1
102
RTVSPropertyOp57
 70
     1
102
RTVSPropertyOp58
 70
     1
102
RTVSPropertyOp59
 70
     1
102
RTVSPropertyOp60
 70
     1
102
RTVSPropertyOp61
 70
     1
102
RTVSPropertyOp62
 70
     1
  0
XRECORD
  5
6670
102
{ACAD_REACTORS
330
666F
102
}
330
666F
100
AcDbXrecord
280
     1
102
RTVSPost2010Prop28
280
     0
102
RTVSPost2010PropOp28
 70
     1
102
RTVSPost2010Prop29
280
     1
102
RTVSPost2010PropOp29
 70
     1
102
RTVSPost2010Prop30
280
     1
102
RTVSPost2010PropOp30
 70
     1
102
RTVSPost2010Prop31
280
     0
102
RTVSPost2010PropOp31
 70
     1
102
RTVSPost2010Prop32
280
     0
102
RTVSPost2010PropOp32
 70
     1
102
RTVSPost2010Prop33
280
     0
102
RTVSPost2010PropOp33
 70
     1
102
RTVSPost2010Prop34
280
     0
102
RTVSPost2010PropOp34
 70
     1
102
RTVSPost2010Prop35
280
     0
102
RTVSPost2010PropOp35
 70
     1
102
RTVSPost2010Prop36
280
     0
102
RTVSPost2010PropOp36
 70
     1
102
RTVSPost2010Prop37
 90
       50
102
RTVSPost2010PropOp37
 70
     1
102
RTVSPost2010Prop38
140
0.0
102
RTVSPost2010PropOp38
 70
     1
102
RTVSPost2010Prop39
140
1.0
102
RTVSPost2010PropOp39
 70
     1
102
RTVSPost2010Prop40
 90
        0
102
RTVSPost2010PropOp40
 70
     1
102
RTVSPost2010Prop41ColorIndex
 90
       18
102
RTVSPost2010Prop41ColorRGB
 90
        0
102
RTVSPost2010PropOp41
 70
     1
102
RTVSPost2010Prop42
 90
       50
102
RTVSPost2010PropOp42
 70
     1
102
RTVSPost2010Prop43
 90
        3
102
RTVSPost2010PropOp43
 70
     1
102
RTVSPost2010Prop44ColorIndex
 90
        5
102
RTVSPost2010Prop44ColorRGB
 90
      255
102
RTVSPost2010PropOp44
 70
     1
102
RTVSPost2010Prop45
280
     0
102
RTVSPost2010PropOp45
 70
     1
102
RTVSPost2010Prop46
 90
       50
102
RTVSPost2010PropOp46
 70
     1
102
RTVSPost2010Prop47
 90
       50
102
RTVSPost2010PropOp47
 70
     1
102
RTVSPost2010Prop48
 90
       50
102
RTVSPost2010PropOp48
 70
     1
102
RTVSPost2010Prop49
280
     0
102
RTVSPost2010PropOp49
 70
     1
102
RTVSPost2010Prop50
 90
       50
102
RTVSPost2010PropOp50
 70
     1
102
RTVSPost2010Prop51ColorIndex
 90
      256
102
RTVSPost2010Prop51ColorRGB
 90
-16777216
102
RTVSPost2010PropOp51
 70
     0
102
RTVSPost2010Prop52
140
1.0
102
RTVSPost2010PropOp52
 70
     0
102
RTVSPost2010Prop53
 90
        2
102
RTVSPost2010PropOp53
 70
     1
102
RTVSPost2010Prop54
  1
strokes_ogs.tif
102
RTVSPost2010PropOp54
 70
     1
102
RTVSPost2010Prop55
280
     0
102
RTVSPost2010PropOp55
 70
     1
102
RTVSPost2010Prop56
140
1.0
102
RTVSPost2010PropOp56
 70
     1
102
RTVSPost2010Prop57
140
1.0
102
RTVSPost2010PropOp57
 70
     1
102
RTVSPropertyOp0
 70
     1
102
RTVSPropertyOp1
 70
     1
102
RTVSPropertyOp2
 70
     1
102
RTVSPropertyOp3
 70
     1
102
RTVSPropertyOp4
 70
     1
102
RTVSPropertyOp5
 70
     1
102
RTVSPropertyOp6
 70
     1
102
RTVSPropertyOp7
 70
     1
102
RTVSPropertyOp8
 70
     1
102
RTVSPropertyOp9
 70
     1
102
RTVSPropertyOp10
 70
     1
102
RTVSPropertyOp11
 70
     1
102
RTVSPropertyOp12
 70
     1
102
RTVSPropertyOp13
 70
     1
102
RTVSPropertyOp14
 70
     1
102
RTVSPropertyOp15
 70
     1
102
RTVSPropertyOp16
 70
     1
102
RTVSPropertyOp17
 70
     1
102
RTVSPropertyOp18
 70
     1
102
RTVSPropertyOp19
 70
     1
102
RTVSPropertyOp20
 70
     1
102
RTVSPropertyOp21
 70
     1
102
RTVSPropertyOp22
 70
     1
102
RTVSPropertyOp23
 70
     1
102
RTVSPropertyOp24
 70
     1
102
RTVSPropertyOp25
 70
     1
102
RTVSPropertyOp26
 70
     1
102
RTVSPropertyOp27
 70
     1
102
RTVSPropertyOp28
 70
     1
102
RTVSPropertyOp29
 70
     1
102
RTVSPropertyOp30
 70
     1
102
RTVSPropertyOp31
 70
     1
102
RTVSPropertyOp32
 70
     1
102
RTVSPropertyOp33
 70
     1
102
RTVSPropertyOp34
 70
     1
102
RTVSPropertyOp35
 70
     1
102
RTVSPropertyOp36
 70
     1
102
RTVSPropertyOp37
 70
     1
102
RTVSPropertyOp38
 70
     1
102
RTVSPropertyOp39
 70
     1
102
RTVSPropertyOp40
 70
     1
102
RTVSPropertyOp41
 70
     1
102
RTVSPropertyOp42
 70
     1
102
RTVSPropertyOp43
 70
     1
102
RTVSPropertyOp44
 70
     1
102
RTVSPropertyOp45
 70
     1
102
RTVSPropertyOp46
 70
     1
102
RTVSPropertyOp47
 70
     1
102
RTVSPropertyOp48
 70
     1
102
RTVSPropertyOp49
 70
     1
102
RTVSPropertyOp50
 70
     1
102
RTVSPropertyOp51
 70
     0
102
RTVSPropertyOp52
 70
     0
102
RTVSPropertyOp53
 70
     1
102
RTVSPropertyOp54
 70
     1
102
RTVSPropertyOp55
 70
     1
102
RTVSPropertyOp56
 70
     1
102
RTVSPropertyOp57
 70
     1
102
RTVSPropertyOp58
 70
     1
102
RTVSPropertyOp59
 70
     1
102
RTVSPropertyOp60
 70
     1
102
RTVSPropertyOp61
 70
     1
102
RTVSPropertyOp62
 70
     1
  0
XRECORD
  5
6666
102
{ACAD_REACTORS
330
6665
102
}
330
6665
100
AcDbXrecord
280
     1
102
RTVSPost2010Prop28
280
     0
102
RTVSPost2010PropOp28
 70
     1
102
RTVSPost2010Prop29
280
     1
102
RTVSPost2010PropOp29
 70
     1
102
RTVSPost2010Prop30
280
     1
102
RTVSPost2010PropOp30
 70
     1
102
RTVSPost2010Prop31
280
     0
102
RTVSPost2010PropOp31
 70
     1
102
RTVSPost2010Prop32
280
     0
102
RTVSPost2010PropOp32
 70
     1
102
RTVSPost2010Prop33
280
     0
102
RTVSPost2010PropOp33
 70
     1
102
RTVSPost2010Prop34
280
     0
102
RTVSPost2010PropOp34
 70
     1
102
RTVSPost2010Prop35
280
     0
102
RTVSPost2010PropOp35
 70
     1
102
RTVSPost2010Prop36
280
     0
102
RTVSPost2010PropOp36
 70
     1
102
RTVSPost2010Prop37
 90
       50
102
RTVSPost2010PropOp37
 70
     1
102
RTVSPost2010Prop38
140
0.0
102
RTVSPost2010PropOp38
 70
     1
102
RTVSPost2010Prop39
140
1.0
102
RTVSPost2010PropOp39
 70
     1
102
RTVSPost2010Prop40
 90
        0
102
RTVSPost2010PropOp40
 70
     1
102
RTVSPost2010Prop41ColorIndex
 90
       18
102
RTVSPost2010Prop41ColorRGB
 90
        0
102
RTVSPost2010PropOp41
 70
     1
102
RTVSPost2010Prop42
 90
       50
102
RTVSPost2010PropOp42
 70
     1
102
RTVSPost2010Prop43
 90
        3
102
RTVSPost2010PropOp43
 70
     1
102
RTVSPost2010Prop44ColorIndex
 90
        5
102
RTVSPost2010Prop44ColorRGB
 90
      255
102
RTVSPost2010PropOp44
 70
     1
102
RTVSPost2010Prop45
280
     0
102
RTVSPost2010PropOp45
 70
     1
102
RTVSPost2010Prop46
 90
       50
102
RTVSPost2010PropOp46
 70
     1
102
RTVSPost2010Prop47
 90
       50
102
RTVSPost2010PropOp47
 70
     1
102
RTVSPost2010Prop48
 90
       50
102
RTVSPost2010PropOp48
 70
     1
102
RTVSPost2010Prop49
280
     0
102
RTVSPost2010PropOp49
 70
     1
102
RTVSPost2010Prop50
 90
       50
102
RTVSPost2010PropOp50
 70
     1
102
RTVSPost2010Prop51ColorIndex
 90
      256
102
RTVSPost2010Prop51ColorRGB
 90
-16777216
102
RTVSPost2010PropOp51
 70
     0
102
RTVSPost2010Prop52
140
1.0
102
RTVSPost2010PropOp52
 70
     0
102
RTVSPost2010Prop53
 90
        2
102
RTVSPost2010PropOp53
 70
     1
102
RTVSPost2010Prop54
  1
strokes_ogs.tif
102
RTVSPost2010PropOp54
 70
     1
102
RTVSPost2010Prop55
280
     0
102
RTVSPost2010PropOp55
 70
     1
102
RTVSPost2010Prop56
140
1.0
102
RTVSPost2010PropOp56
 70
     1
102
RTVSPost2010Prop57
140
1.0
102
RTVSPost2010PropOp57
 70
     1
102
RTVSPropertyOp0
 70
     1
102
RTVSPropertyOp1
 70
     1
102
RTVSPropertyOp2
 70
     1
102
RTVSPropertyOp3
 70
     1
102
RTVSPropertyOp4
 70
     1
102
RTVSPropertyOp5
 70
     1
102
RTVSPropertyOp6
 70
     1
102
RTVSPropertyOp7
 70
     1
102
RTVSPropertyOp8
 70
     1
102
RTVSPropertyOp9
 70
     1
102
RTVSPropertyOp10
 70
     1
102
RTVSPropertyOp11
 70
     1
102
RTVSPropertyOp12
 70
     1
102
RTVSPropertyOp13
 70
     1
102
RTVSPropertyOp14
 70
     1
102
RTVSPropertyOp15
 70
     1
102
RTVSPropertyOp16
 70
     1
102
RTVSPropertyOp17
 70
     1
102
RTVSPropertyOp18
 70
     1
102
RTVSPropertyOp19
 70
     1
102
RTVSPropertyOp20
 70
     1
102
RTVSPropertyOp21
 70
     1
102
RTVSPropertyOp22
 70
     1
102
RTVSPropertyOp23
 70
     1
102
RTVSPropertyOp24
 70
     1
102
RTVSPropertyOp25
 70
     1
102
RTVSPropertyOp26
 70
     1
102
RTVSPropertyOp27
 70
     1
102
RTVSPropertyOp28
 70
     1
102
RTVSPropertyOp29
 70
     1
102
RTVSPropertyOp30
 70
     1
102
RTVSPropertyOp31
 70
     1
102
RTVSPropertyOp32
 70
     1
102
RTVSPropertyOp33
 70
     1
102
RTVSPropertyOp34
 70
     1
102
RTVSPropertyOp35
 70
     1
102
RTVSPropertyOp36
 70
     1
102
RTVSPropertyOp37
 70
     1
102
RTVSPropertyOp38
 70
     1
102
RTVSPropertyOp39
 70
     1
102
RTVSPropertyOp40
 70
     1
102
RTVSPropertyOp41
 70
     1
102
RTVSPropertyOp42
 70
     1
102
RTVSPropertyOp43
 70
     1
102
RTVSPropertyOp44
 70
     1
102
RTVSPropertyOp45
 70
     1
102
RTVSPropertyOp46
 70
     1
102
RTVSPropertyOp47
 70
     1
102
RTVSPropertyOp48
 70
     1
102
RTVSPropertyOp49
 70
     1
102
RTVSPropertyOp50
 70
     1
102
RTVSPropertyOp51
 70
     0
102
RTVSPropertyOp52
 70
     0
102
RTVSPropertyOp53
 70
     1
102
RTVSPropertyOp54
 70
     1
102
RTVSPropertyOp55
 70
     1
102
RTVSPropertyOp56
 70
     1
102
RTVSPropertyOp57
 70
     1
102
RTVSPropertyOp58
 70
     1
102
RTVSPropertyOp59
 70
     1
102
RTVSPropertyOp60
 70
     1
102
RTVSPropertyOp61
 70
     1
102
RTVSPropertyOp62
 70
     1
  0
XRECORD
  5
665A
102
{ACAD_REACTORS
330
6659
102
}
330
6659
100
AcDbXrecord
280
     1
102
RTVSPost2010Prop28
280
     0
102
RTVSPost2010PropOp28
 70
     1
102
RTVSPost2010Prop29
280
     1
102
RTVSPost2010PropOp29
 70
     1
102
RTVSPost2010Prop30
280
     1
102
RTVSPost2010PropOp30
 70
     1
102
RTVSPost2010Prop31
280
     0
102
RTVSPost2010PropOp31
 70
     1
102
RTVSPost2010Prop32
280
     0
102
RTVSPost2010PropOp32
 70
     1
102
RTVSPost2010Prop33
280
     0
102
RTVSPost2010PropOp33
 70
     1
102
RTVSPost2010Prop34
280
     0
102
RTVSPost2010PropOp34
 70
     1
102
RTVSPost2010Prop35
280
     0
102
RTVSPost2010PropOp35
 70
     1
102
RTVSPost2010Prop36
280
     0
102
RTVSPost2010PropOp36
 70
     1
102
RTVSPost2010Prop37
 90
       50
102
RTVSPost2010PropOp37
 70
     1
102
RTVSPost2010Prop38
140
0.0
102
RTVSPost2010PropOp38
 70
     1
102
RTVSPost2010Prop39
140
1.0
102
RTVSPost2010PropOp39
 70
     1
102
RTVSPost2010Prop40
 90
        0
102
RTVSPost2010PropOp40
 70
     1
102
RTVSPost2010Prop41ColorIndex
 90
       18
102
RTVSPost2010Prop41ColorRGB
 90
        0
102
RTVSPost2010PropOp41
 70
     1
102
RTVSPost2010Prop42
 90
       50
102
RTVSPost2010PropOp42
 70
     1
102
RTVSPost2010Prop43
 90
        3
102
RTVSPost2010PropOp43
 70
     1
102
RTVSPost2010Prop44ColorIndex
 90
        5
102
RTVSPost2010Prop44ColorRGB
 90
      255
102
RTVSPost2010PropOp44
 70
     1
102
RTVSPost2010Prop45
280
     0
102
RTVSPost2010PropOp45
 70
     1
102
RTVSPost2010Prop46
 90
       50
102
RTVSPost2010PropOp46
 70
     1
102
RTVSPost2010Prop47
 90
       50
102
RTVSPost2010PropOp47
 70
     1
102
RTVSPost2010Prop48
 90
       50
102
RTVSPost2010PropOp48
 70
     1
102
RTVSPost2010Prop49
280
     0
102
RTVSPost2010PropOp49
 70
     1
102
RTVSPost2010Prop50
 90
       50
102
RTVSPost2010PropOp50
 70
     1
102
RTVSPost2010Prop51ColorIndex
 90
      256
102
RTVSPost2010Prop51ColorRGB
 90
-16777216
102
RTVSPost2010PropOp51
 70
     0
102
RTVSPost2010Prop52
140
1.0
102
RTVSPost2010PropOp52
 70
     0
102
RTVSPost2010Prop53
 90
        2
102
RTVSPost2010PropOp53
 70
     1
102
RTVSPost2010Prop54
  1
strokes_ogs.tif
102
RTVSPost2010PropOp54
 70
     1
102
RTVSPost2010Prop55
280
     0
102
RTVSPost2010PropOp55
 70
     1
102
RTVSPost2010Prop56
140
1.0
102
RTVSPost2010PropOp56
 70
     1
102
RTVSPost2010Prop57
140
1.0
102
RTVSPost2010PropOp57
 70
     1
102
RTVSPropertyOp0
 70
     1
102
RTVSPropertyOp1
 70
     1
102
RTVSPropertyOp2
 70
     1
102
RTVSPropertyOp3
 70
     1
102
RTVSPropertyOp4
 70
     1
102
RTVSPropertyOp5
 70
     1
102
RTVSPropertyOp6
 70
     1
102
RTVSPropertyOp7
 70
     1
102
RTVSPropertyOp8
 70
     1
102
RTVSPropertyOp9
 70
     1
102
RTVSPropertyOp10
 70
     1
102
RTVSPropertyOp11
 70
     1
102
RTVSPropertyOp12
 70
     1
102
RTVSPropertyOp13
 70
     1
102
RTVSPropertyOp14
 70
     1
102
RTVSPropertyOp15
 70
     1
102
RTVSPropertyOp16
 70
     1
102
RTVSPropertyOp17
 70
     1
102
RTVSPropertyOp18
 70
     1
102
RTVSPropertyOp19
 70
     1
102
RTVSPropertyOp20
 70
     1
102
RTVSPropertyOp21
 70
     1
102
RTVSPropertyOp22
 70
     1
102
RTVSPropertyOp23
 70
     1
102
RTVSPropertyOp24
 70
     1
102
RTVSPropertyOp25
 70
     1
102
RTVSPropertyOp26
 70
     1
102
RTVSPropertyOp27
 70
     1
102
RTVSPropertyOp28
 70
     1
102
RTVSPropertyOp29
 70
     1
102
RTVSPropertyOp30
 70
     1
102
RTVSPropertyOp31
 70
     1
102
RTVSPropertyOp32
 70
     1
102
RTVSPropertyOp33
 70
     1
102
RTVSPropertyOp34
 70
     1
102
RTVSPropertyOp35
 70
     1
102
RTVSPropertyOp36
 70
     1
102
RTVSPropertyOp37
 70
     1
102
RTVSPropertyOp38
 70
     1
102
RTVSPropertyOp39
 70
     1
102
RTVSPropertyOp40
 70
     1
102
RTVSPropertyOp41
 70
     1
102
RTVSPropertyOp42
 70
     1
102
RTVSPropertyOp43
 70
     1
102
RTVSPropertyOp44
 70
     1
102
RTVSPropertyOp45
 70
     1
102
RTVSPropertyOp46
 70
     1
102
RTVSPropertyOp47
 70
     1
102
RTVSPropertyOp48
 70
     1
102
RTVSPropertyOp49
 70
     1
102
RTVSPropertyOp50
 70
     1
102
RTVSPropertyOp51
 70
     0
102
RTVSPropertyOp52
 70
     0
102
RTVSPropertyOp53
 70
     1
102
RTVSPropertyOp54
 70
     1
102
RTVSPropertyOp55
 70
     1
102
RTVSPropertyOp56
 70
     1
102
RTVSPropertyOp57
 70
     1
102
RTVSPropertyOp58
 70
     1
102
RTVSPropertyOp59
 70
     1
102
RTVSPropertyOp60
 70
     1
102
RTVSPropertyOp61
 70
     1
102
RTVSPropertyOp62
 70
     1
  0
XRECORD
  5
6672
102
{ACAD_REACTORS
330
6671
102
}
330
6671
100
AcDbXrecord
280
     1
102
RTVSPost2010Prop28
280
     0
102
RTVSPost2010PropOp28
 70
     1
102
RTVSPost2010Prop29
280
     1
102
RTVSPost2010PropOp29
 70
     1
102
RTVSPost2010Prop30
280
     1
102
RTVSPost2010PropOp30
 70
     1
102
RTVSPost2010Prop31
280
     0
102
RTVSPost2010PropOp31
 70
     1
102
RTVSPost2010Prop32
280
     0
102
RTVSPost2010PropOp32
 70
     1
102
RTVSPost2010Prop33
280
     0
102
RTVSPost2010PropOp33
 70
     1
102
RTVSPost2010Prop34
280
     0
102
RTVSPost2010PropOp34
 70
     1
102
RTVSPost2010Prop35
280
     0
102
RTVSPost2010PropOp35
 70
     1
102
RTVSPost2010Prop36
280
     0
102
RTVSPost2010PropOp36
 70
     1
102
RTVSPost2010Prop37
 90
       50
102
RTVSPost2010PropOp37
 70
     1
102
RTVSPost2010Prop38
140
0.0
102
RTVSPost2010PropOp38
 70
     1
102
RTVSPost2010Prop39
140
1.0
102
RTVSPost2010PropOp39
 70
     1
102
RTVSPost2010Prop40
 90
        0
102
RTVSPost2010PropOp40
 70
     1
102
RTVSPost2010Prop41ColorIndex
 90
       18
102
RTVSPost2010Prop41ColorRGB
 90
        0
102
RTVSPost2010PropOp41
 70
     1
102
RTVSPost2010Prop42
 90
       50
102
RTVSPost2010PropOp42
 70
     1
102
RTVSPost2010Prop43
 90
        3
102
RTVSPost2010PropOp43
 70
     1
102
RTVSPost2010Prop44ColorIndex
 90
        5
102
RTVSPost2010Prop44ColorRGB
 90
      255
102
RTVSPost2010PropOp44
 70
     1
102
RTVSPost2010Prop45
280
     0
102
RTVSPost2010PropOp45
 70
     1
102
RTVSPost2010Prop46
 90
       50
102
RTVSPost2010PropOp46
 70
     1
102
RTVSPost2010Prop47
 90
       50
102
RTVSPost2010PropOp47
 70
     1
102
RTVSPost2010Prop48
 90
       50
102
RTVSPost2010PropOp48
 70
     1
102
RTVSPost2010Prop49
280
     0
102
RTVSPost2010PropOp49
 70
     1
102
RTVSPost2010Prop50
 90
       50
102
RTVSPost2010PropOp50
 70
     1
102
RTVSPost2010Prop51ColorIndex
 90
      256
102
RTVSPost2010Prop51ColorRGB
 90
-16777216
102
RTVSPost2010PropOp51
 70
     0
102
RTVSPost2010Prop52
140
1.0
102
RTVSPost2010PropOp52
 70
     0
102
RTVSPost2010Prop53
 90
        2
102
RTVSPost2010PropOp53
 70
     1
102
RTVSPost2010Prop54
  1
strokes_ogs.tif
102
RTVSPost2010PropOp54
 70
     1
102
RTVSPost2010Prop55
280
     0
102
RTVSPost2010PropOp55
 70
     1
102
RTVSPost2010Prop56
140
1.0
102
RTVSPost2010PropOp56
 70
     1
102
RTVSPost2010Prop57
140
1.0
102
RTVSPost2010PropOp57
 70
     1
102
RTVSPropertyOp0
 70
     1
102
RTVSPropertyOp1
 70
     1
102
RTVSPropertyOp2
 70
     1
102
RTVSPropertyOp3
 70
     1
102
RTVSPropertyOp4
 70
     1
102
RTVSPropertyOp5
 70
     1
102
RTVSPropertyOp6
 70
     1
102
RTVSPropertyOp7
 70
     1
102
RTVSPropertyOp8
 70
     1
102
RTVSPropertyOp9
 70
     1
102
RTVSPropertyOp10
 70
     1
102
RTVSPropertyOp11
 70
     1
102
RTVSPropertyOp12
 70
     1
102
RTVSPropertyOp13
 70
     1
102
RTVSPropertyOp14
 70
     1
102
RTVSPropertyOp15
 70
     1
102
RTVSPropertyOp16
 70
     1
102
RTVSPropertyOp17
 70
     1
102
RTVSPropertyOp18
 70
     1
102
RTVSPropertyOp19
 70
     1
102
RTVSPropertyOp20
 70
     1
102
RTVSPropertyOp21
 70
     1
102
RTVSPropertyOp22
 70
     1
102
RTVSPropertyOp23
 70
     1
102
RTVSPropertyOp24
 70
     1
102
RTVSPropertyOp25
 70
     1
102
RTVSPropertyOp26
 70
     1
102
RTVSPropertyOp27
 70
     1
102
RTVSPropertyOp28
 70
     1
102
RTVSPropertyOp29
 70
     1
102
RTVSPropertyOp30
 70
     1
102
RTVSPropertyOp31
 70
     1
102
RTVSPropertyOp32
 70
     1
102
RTVSPropertyOp33
 70
     1
102
RTVSPropertyOp34
 70
     1
102
RTVSPropertyOp35
 70
     1
102
RTVSPropertyOp36
 70
     1
102
RTVSPropertyOp37
 70
     1
102
RTVSPropertyOp38
 70
     1
102
RTVSPropertyOp39
 70
     1
102
RTVSPropertyOp40
 70
     1
102
RTVSPropertyOp41
 70
     1
102
RTVSPropertyOp42
 70
     1
102
RTVSPropertyOp43
 70
     1
102
RTVSPropertyOp44
 70
     1
102
RTVSPropertyOp45
 70
     1
102
RTVSPropertyOp46
 70
     1
102
RTVSPropertyOp47
 70
     1
102
RTVSPropertyOp48
 70
     1
102
RTVSPropertyOp49
 70
     1
102
RTVSPropertyOp50
 70
     1
102
RTVSPropertyOp51
 70
     0
102
RTVSPropertyOp52
 70
     0
102
RTVSPropertyOp53
 70
     1
102
RTVSPropertyOp54
 70
     1
102
RTVSPropertyOp55
 70
     1
102
RTVSPropertyOp56
 70
     1
102
RTVSPropertyOp57
 70
     1
102
RTVSPropertyOp58
 70
     1
102
RTVSPropertyOp59
 70
     1
102
RTVSPropertyOp60
 70
     1
102
RTVSPropertyOp61
 70
     1
102
RTVSPropertyOp62
 70
     1
  0
ENDSEC
  0
EOF
