  0
SECTION
  2
HEADER
  9
$ACADVER
  1
AC1015
  9
$ACADMAINTVER
 70
    20
  9
$DWGCODEPAGE
  3
ANSI_932
  9
$INSBASE
 10
0.0
 20
0.0
 30
0.0
  9
$EXTMIN
 10
17345.59771503509
 20
2822.809791742034
 30
0.0
  9
$EXTMAX
 10
20495.59771503509
 20
7247.809791742034
 30
0.0
  9
$LIMMIN
 10
0.0
 20
0.0
  9
$LIMMAX
 10
297.0
 20
210.0
  9
$ORTHOMODE
 70
     1
  9
$REGENMODE
 70
     1
  9
$FILLMODE
 70
     1
  9
$QTEXTMODE
 70
     0
  9
$MIRRTEXT
 70
     0
  9
$LTSCALE
 40
75.0
  9
$ATTMODE
 70
     1
  9
$TEXTSIZE
 40
3.5
  9
$TRACEWID
 40
0.05
  9
$TEXTSTYLE
  7
STANDARD
  9
$CLAYER
  8
SP
  9
$CELTYPE
  6
BYLAYER
  9
$CECOLOR
 62
   256
  9
$CELTSCALE
 40
1.0
  9
$DISPSILH
 70
     0
  9
$DIMSCALE
 40
15.0
  9
$DIMASZ
 40
2.5
  9
$DIMEXO
 40
1.0
  9
$DIMDLI
 40
7.0
  9
$DIMRND
 40
0.0
  9
$DIMDLE
 40
0.0
  9
$DIMEXE
 40
1.0
  9
$DIMTP
 40
0.0
  9
$DIMTM
 40
0.0
  9
$DIMTXT
 40
3.0
  9
$DIMCEN
 40
0.0
  9
$DIMTSZ
 40
0.0
  9
$DIMTOL
 70
     0
  9
$DIMLIM
 70
     0
  9
$DIMTIH
 70
     0
  9
$DIMTOH
 70
     0
  9
$DIMSE1
 70
     0
  9
$DIMSE2
 70
     0
  9
$DIMTAD
 70
     1
  9
$DIMZIN
 70
     8
  9
$DIMBLK
  1

  9
$DIMASO
 70
     1
  9
$DIMSHO
 70
     1
  9
$DIMPOST
  1

  9
$DIMAPOST
  1

  9
$DIMALT
 70
     0
  9
$DIMALTD
 70
     2
  9
$DIMALTF
 40
0.03937
  9
$DIMLFAC
 40
1.0
  9
$DIMTOFL
 70
     1
  9
$DIMTVP
 40
0.0
  9
$DIMTIX
 70
     0
  9
$DIMSOXD
 70
     0
  9
$DIMSAH
 70
     1
  9
$DIMBLK1
  1
OPEN
  9
$DIMBLK2
  1
OPEN
  9
$DIMSTYLE
  2
GOD
  9
$DIMCLRD
 70
   256
  9
$DIMCLRE
 70
   256
  9
$DIMCLRT
 70
   256
  9
$DIMTFAC
 40
1.0
  9
$DIMGAP
 40
1.0
  9
$DIMJUST
 70
     0
  9
$DIMSD1
 70
     0
  9
$DIMSD2
 70
     0
  9
$DIMTOLJ
 70
     1
  9
$DIMTZIN
 70
     8
  9
$DIMALTZ
 70
     0
  9
$DIMALTTZ
 70
     0
  9
$DIMUPT
 70
     0
  9
$DIMDEC
 70
     2
  9
$DIMTDEC
 70
     2
  9
$DIMALTU
 70
     2
  9
$DIMALTTD
 70
     2
  9
$DIMTXSTY
  7
STANDARD
  9
$DIMAUNIT
 70
     0
  9
$DIMADEC
 70
     0
  9
$DIMALTRND
 40
0.0
  9
$DIMAZIN
 70
     0
  9
$DIMDSEP
 70
    46
  9
$DIMATFIT
 70
     0
  9
$DIMFRAC
 70
     0
  9
$DIMLDRBLK
  1
OPEN
  9
$DIMLUNIT
 70
     2
  9
$DIMLWD
 70
    -2
  9
$DIMLWE
 70
    -2
  9
$DIMTMOVE
 70
     0
  9
$LUNITS
 70
     2
  9
$LUPREC
 70
     3
  9
$SKETCHINC
 40
0.1
  9
$FILLETRAD
 40
0.0
  9
$AUNITS
 70
     0
  9
$AUPREC
 70
     2
  9
$MENU
  1
acad
  9
$ELEVATION
 40
0.0
  9
$PELEVATION
 40
0.0
  9
$THICKNESS
 40
0.0
  9
$LIMCHECK
 70
     0
  9
$CHAMFERA
 40
0.0
  9
$CHAMFERB
 40
0.0
  9
$CHAMFERC
 40
20.0
  9
$CHAMFERD
 40
0.0
  9
$SKPOLY
 70
     0
  9
$TDCREATE
 40
2454939.604629630
  9
$TDUCREATE
 40
2454939.229629630
  9
$TDUPDATE
 40
2459353.581937512
  9
$TDUUPDATE
 40
2459353.206937512
  9
$TDINDWG
 40
0.2029537037
  9
$TDUSRTIMER
 40
0.2029537037
  9
$USRTIMER
 70
     1
  9
$ANGBASE
 50
0.0
  9
$ANGDIR
 70
     0
  9
$PDMODE
 70
     0
  9
$PDSIZE
 40
1.0
  9
$PLINEWID
 40
0.0
  9
$SPLFRAME
 70
     0
  9
$SPLINETYPE
 70
     6
  9
$SPLINESEGS
 70
     8
  9
$HANDSEED
  5
6E68
  9
$SURFTAB1
 70
     6
  9
$SURFTAB2
 70
     6
  9
$SURFTYPE
 70
     6
  9
$SURFU
 70
     6
  9
$SURFV
 70
     6
  9
$UCSBASE
  2

  9
$UCSNAME
  2

  9
$UCSORG
 10
0.0
 20
0.0
 30
0.0
  9
$UCSXDIR
 10
1.0
 20
0.0
 30
0.0
  9
$UCSYDIR
 10
0.0
 20
1.0
 30
0.0
  9
$UCSORTHOREF
  2

  9
$UCSORTHOVIEW
 70
     0
  9
$UCSORGTOP
 10
0.0
 20
0.0
 30
0.0
  9
$UCSORGBOTTOM
 10
0.0
 20
0.0
 30
0.0
  9
$UCSORGLEFT
 10
0.0
 20
0.0
 30
0.0
  9
$UCSORGRIGHT
 10
0.0
 20
0.0
 30
0.0
  9
$UCSORGFRONT
 10
0.0
 20
0.0
 30
0.0
  9
$UCSORGBACK
 10
0.0
 20
0.0
 30
0.0
  9
$PUCSBASE
  2

  9
$PUCSNAME
  2

  9
$PUCSORG
 10
0.0
 20
0.0
 30
0.0
  9
$PUCSXDIR
 10
1.0
 20
0.0
 30
0.0
  9
$PUCSYDIR
 10
0.0
 20
1.0
 30
0.0
  9
$PUCSORTHOREF
  2

  9
$PUCSORTHOVIEW
 70
     0
  9
$PUCSORGTOP
 10
0.0
 20
0.0
 30
0.0
  9
$PUCSORGBOTTOM
 10
0.0
 20
0.0
 30
0.0
  9
$PUCSORGLEFT
 10
0.0
 20
0.0
 30
0.0
  9
$PUCSORGRIGHT
 10
0.0
 20
0.0
 30
0.0
  9
$PUCSORGFRONT
 10
0.0
 20
0.0
 30
0.0
  9
$PUCSORGBACK
 10
0.0
 20
0.0
 30
0.0
  9
$USERI1
 70
     0
  9
$USERI2
 70
     0
  9
$USERI3
 70
     0
  9
$USERI4
 70
     0
  9
$USERI5
 70
     0
  9
$USERR1
 40
0.0
  9
$USERR2
 40
0.0
  9
$USERR3
 40
0.0
  9
$USERR4
 40
0.0
  9
$USERR5
 40
0.0
  9
$WORLDVIEW
 70
     1
  9
$SHADEDGE
 70
     3
  9
$SHADEDIF
 70
    70
  9
$TILEMODE
 70
     1
  9
$MAXACTVP
 70
    16
  9
$PINSBASE
 10
0.0
 20
0.0
 30
0.0
  9
$PLIMCHECK
 70
     0
  9
$PEXTMIN
 10
1.000000000000000E+20
 20
1.000000000000000E+20
 30
1.000000000000000E+20
  9
$PEXTMAX
 10
-1.000000000000000E+20
 20
-1.000000000000000E+20
 30
-1.000000000000000E+20
  9
$PLIMMIN
 10
0.0
 20
0.0
  9
$PLIMMAX
 10
12.0
 20
9.0
  9
$UNITMODE
 70
     0
  9
$VISRETAIN
 70
     0
  9
$PLINEGEN
 70
     0
  9
$PSLTSCALE
 70
     0
  9
$TREEDEPTH
 70
  3020
  9
$CMLSTYLE
  2
STANDARD
  9
$CMLJUST
 70
     0
  9
$CMLSCALE
 40
20.0
  9
$PROXYGRAPHICS
 70
     1
  9
$MEASUREMENT
 70
     1
  9
$CELWEIGHT
370
    -1
  9
$ENDCAPS
280
     0
  9
$JOINSTYLE
280
     0
  9
$LWDISPLAY
290
     0
  9
$INSUNITS
 70
     0
  9
$HYPERLINKBASE
  1

  9
$STYLESHEET
  1

  9
$XEDIT
290
     1
  9
$CEPSNTYPE
380
     0
  9
$PSTYLEMODE
290
     1
  9
$FINGERPRINTGUID
  2
{A0F129D1-2BC8-11D4-BF85-004026350B0A}
  9
$VERSIONGUID
  2
{10ABF3C2-8E14-484E-AEDA-3053A508620D}
  9
$EXTNAMES
290
     1
  9
$PSVPSCALE
 40
0.0
  9
$OLESTARTUP
290
     0
  0
ENDSEC
  0
SECTION
  2
CLASSES
  0
CLASS
  1
ACDBDICTIONARYWDFLT
  2
AcDbDictionaryWithDefault
  3
ObjectDBX Classes
 90
        0
280
     0
281
     0
  0
CLASS
  1
ACDBPLACEHOLDER
  2
AcDbPlaceHolder
  3
ObjectDBX Classes
 90
        0
280
     0
281
     0
  0
CLASS
  1
LAYOUT
  2
AcDbLayout
  3
ObjectDBX Classes
 90
        0
280
     0
281
     0
  0
CLASS
  1
DICTIONARYVAR
  2
AcDbDictionaryVar
  3
ObjectDBX Classes
 90
        0
280
     0
281
     0
  0
CLASS
  1
MATERIAL
  2
AcDbMaterial
  3
ObjectDBX Classes
 90
     1153
280
     0
281
     0
  0
CLASS
  1
VISUALSTYLE
  2
AcDbVisualStyle
  3
ObjectDBX Classes
 90
     4095
280
     0
281
     0
  0
CLASS
  1
TABLESTYLE
  2
AcDbTableStyle
  3
ObjectDBX Classes
 90
     4095
280
     0
281
     0
  0
CLASS
  1
SCALE
  2
AcDbScale
  3
ObjectDBX Classes
 90
     1153
280
     0
281
     0
  0
CLASS
  1
MLEADERSTYLE
  2
AcDbMLeaderStyle
  3
ACDB_MLEADERSTYLE_CLASS
 90
     4095
280
     0
281
     0
  0
CLASS
  1
ACDBSECTIONVIEWSTYLE
  2
AcDbSectionViewStyle
  3
ObjectDBX Classes
 90
     1025
280
     0
281
     0
  0
CLASS
  1
ACDBDETAILVIEWSTYLE
  2
AcDbDetailViewStyle
  3
ObjectDBX Classes
 90
     1025
280
     0
281
     0
  0
CLASS
  1
SORTENTSTABLE
  2
AcDbSortentsTable
  3
ObjectDBX Classes
 90
        0
280
     0
281
     0
  0
CLASS
  1
CELLSTYLEMAP
  2
AcDbCellStyleMap
  3
ObjectDBX Classes
 90
     1152
280
     0
281
     0
  0
ENDSEC
  0
SECTION
  2
TABLES
  0
TABLE
  2
VPORT
  5
8
330
0
100
AcDbSymbolTable
 70
     1
  0
VPORT
  5
6B42
330
8
100
AcDbSymbolTableRecord
100
AcDbViewportTableRecord
  2
*Active
 70
     0
 10
0.0
 20
0.0
 11
1.0
 21
1.0
 12
18920.60115490199
 22
5436.965570483898
 13
0.0
 23
0.0
 14
5.0
 24
5.0
 15
0.0
 25
0.0
 16
0.0
 26
0.0
 36
1.0
 17
0.0
 27
0.0
 37
0.0
 40
5084.919021831403
 41
2.146341463414634
 42
50.0
 43
0.0
 44
0.0
 50
0.0
 51
0.0
 71
     0
 72
   100
 73
     1
 74
     0
 75
     0
 76
     0
 77
     0
 78
     0
281
     0
 65
     1
110
0.0
120
0.0
130
0.0
111
1.0
121
0.0
131
0.0
112
0.0
122
1.0
132
0.0
 79
     0
146
0.0
1001
ACAD_NAV_VCDISPLAY
1070
     3
  0
ENDTAB
  0
TABLE
  2
LTYPE
  5
5
330
0
100
AcDbSymbolTable
 70
     4
  0
LTYPE
  5
13
330
5
100
AcDbSymbolTableRecord
100
AcDbLinetypeTableRecord
  2
BYBLOCK
 70
     0
  3

 72
    65
 73
     0
 40
0.0
  0
LTYPE
  5
14
330
5
100
AcDbSymbolTableRecord
100
AcDbLinetypeTableRecord
  2
BYLAYER
 70
     0
  3

 72
    65
 73
     0
 40
0.0
  0
LTYPE
  5
15
330
5
100
AcDbSymbolTableRecord
100
AcDbLinetypeTableRecord
  2
CONTINUOUS
 70
     0
  3
Solid line
 72
    65
 73
     0
 40
0.0
  0
LTYPE
  5
1F
330
5
100
AcDbSymbolTableRecord
100
AcDbLinetypeTableRecord
  2
CENTER
 70
     0
  3
____ _ ____ _ ____ _ ____ _ ____ _ ____ _ ____ 
 72
    65
 73
     4
 40
2.0
 49
1.25
 74
     0
 49
-0.25
 74
     0
 49
0.25
 74
     0
 49
-0.25
 74
     0
  0
LTYPE
  5
20
330
5
100
AcDbSymbolTableRecord
100
AcDbLinetypeTableRecord
  2
HIDDEN
 70
     0
  3
__ __ __ __ __ __ __ __ __ __ __ __ __ __ __ __
 72
    65
 73
     2
 40
0.375
 49
0.25
 74
     0
 49
-0.125
 74
     0
  0
LTYPE
  5
21
330
5
100
AcDbSymbolTableRecord
100
AcDbLinetypeTableRecord
  2
PHANTOM
 70
     0
  3
______  __  __  ______  __  __  ______  __  __ 
 72
    65
 73
     6
 40
2.5
 49
1.25
 74
     0
 49
-0.25
 74
     0
 49
0.25
 74
     0
 49
-0.25
 74
     0
 49
0.25
 74
     0
 49
-0.25
 74
     0
  0
ENDTAB
  0
TABLE
  2
LAYER
  5
2
102
{ACAD_XDICTIONARY
360
6DFB
102
}
330
0
100
AcDbSymbolTable
 70
    13
  0
LAYER
  5
F
102
{ACAD_XDICTIONARY
360
6DE0
102
}
330
2
100
AcDbSymbolTableRecord
100
AcDbLayerTableRecord
  2
0
 70
     0
 62
     7
  6
CONTINUOUS
370
    -3
390
1E91
  0
LAYER
  5
2F
102
{ACAD_XDICTIONARY
360
6DE2
102
}
330
2
100
AcDbSymbolTableRecord
100
AcDbLayerTableRecord
  2
CT
 70
     0
 62
     3
  6
CENTER
370
    -3
390
1E91
  0
LAYER
  5
30
102
{ACAD_XDICTIONARY
360
6DE4
102
}
330
2
100
AcDbSymbolTableRecord
100
AcDbLayerTableRecord
  2
FUTO
 70
     0
 62
     4
  6
CONTINUOUS
370
    -3
390
1E91
  0
LAYER
  5
32
102
{ACAD_XDICTIONARY
360
6DE6
102
}
330
2
100
AcDbSymbolTableRecord
100
AcDbLayerTableRecord
  2
HOSO
 70
     0
 62
     7
  6
CONTINUOUS
370
    -3
390
1E91
  0
LAYER
  5
33
102
{ACAD_XDICTIONARY
360
6DE8
102
}
330
2
100
AcDbSymbolTableRecord
100
AcDbLayerTableRecord
  2
KL
 70
     0
 62
     7
  6
HIDDEN
370
    -3
390
1E91
  0
LAYER
  5
34
102
{ACAD_XDICTIONARY
360
6DEA
102
}
330
2
100
AcDbSymbolTableRecord
100
AcDbLayerTableRecord
  2
MOJI
 70
     0
 62
     3
  6
CONTINUOUS
370
    -3
390
1E91
  0
LAYER
  5
35
102
{ACAD_XDICTIONARY
360
6DEC
102
}
330
2
100
AcDbSymbolTableRecord
100
AcDbLayerTableRecord
  2
SL
 70
     0
 62
     1
  6
PHANTOM
370
    -3
390
1E91
  0
LAYER
  5
36
102
{ACAD_XDICTIONARY
360
6DEE
102
}
330
2
100
AcDbSymbolTableRecord
100
AcDbLayerTableRecord
  2
SP
 70
     0
 62
     2
  6
CONTINUOUS
370
    -3
390
1E91
  0
LAYER
  5
1E9B
330
2
100
AcDbSymbolTableRecord
100
AcDbLayerTableRecord
  2
Defpoints
 70
     0
 62
     7
  6
CONTINUOUS
290
     0
370
    -3
390
1E91
  0
LAYER
  5
1EEE
102
{ACAD_XDICTIONARY
360
6DF0
102
}
330
2
100
AcDbSymbolTableRecord
100
AcDbLayerTableRecord
  2
3
 70
     0
 62
    -2
  6
CONTINUOUS
370
    -3
390
1E91
  0
LAYER
  5
1EEF
102
{ACAD_XDICTIONARY
360
6DF2
102
}
330
2
100
AcDbSymbolTableRecord
100
AcDbLayerTableRecord
  2
2
 70
     0
 62
     3
  6
CENTER
370
    -3
390
1E91
  0
LAYER
  5
1EF0
102
{ACAD_XDICTIONARY
360
6DF4
102
}
330
2
100
AcDbSymbolTableRecord
100
AcDbLayerTableRecord
  2
1
 70
     0
 62
     4
  6
CONTINUOUS
370
    -3
390
1E91
  0
LAYER
  5
2188
102
{ACAD_XDICTIONARY
360
6DF6
102
}
330
2
100
AcDbSymbolTableRecord
100
AcDbLayerTableRecord
  2
4
 70
     0
 62
     7
  6
CONTINUOUS
370
    -3
390
1E91
  0
ENDTAB
  0
TABLE
  2
STYLE
  5
3
330
0
100
AcDbSymbolTable
 70
     1
  0
STYLE
  5
10
330
3
100
AcDbSymbolTableRecord
100
AcDbTextStyleTableRecord
  2
STANDARD
 70
     0
 40
0.0
 41
1.0
 50
15.0
 71
     0
 42
3.5
  3
C:\Program Files\AutoCAD LT\simplex.shx
  4
C:\Program Files\AutoCAD LT\extfont.shx
  0
ENDTAB
  0
TABLE
  2
VIEW
  5
6
330
0
100
AcDbSymbolTable
 70
     0
  0
ENDTAB
  0
TABLE
  2
UCS
  5
7
330
0
100
AcDbSymbolTable
 70
     0
  0
ENDTAB
  0
TABLE
  2
APPID
  5
9
330
0
100
AcDbSymbolTable
 70
     5
  0
APPID
  5
11
330
9
100
AcDbSymbolTableRecord
100
AcDbRegAppTableRecord
  2
ACAD
 70
     0
  0
APPID
  5
6D8C
330
9
100
AcDbSymbolTableRecord
100
AcDbRegAppTableRecord
  2
ACAD_EXEMPT_FROM_CAD_STANDARDS
 70
     0
  0
APPID
  5
6DCC
330
9
100
AcDbSymbolTableRecord
100
AcDbRegAppTableRecord
  2
AcadAnnoMonitorAlertIconDisabled
 70
     0
  0
APPID
  5
6E01
330
9
100
AcDbSymbolTableRecord
100
AcDbRegAppTableRecord
  2
ACAD_NAV_VCDISPLAY
 70
     0
  0
APPID
  5
6E65
330
9
100
AcDbSymbolTableRecord
100
AcDbRegAppTableRecord
  2
ACAD_MLEADERVER
 70
     0
  0
ENDTAB
  0
TABLE
  2
DIMSTYLE
  5
A
330
0
100
AcDbSymbolTable
 70
     3
100
AcDbDimStyleTable
 71
     1
340
1E99
  0
DIMSTYLE
105
1D
330
A
100
AcDbSymbolTableRecord
100
AcDbDimStyleTableRecord
  2
STANDARD
 70
     0
340
10
  0
DIMSTYLE
105
1E99
102
{ACAD_REACTORS
330
6602
330
6607
330
660A
330
660B
330
6615
330
6616
330
6617
330
6618
330
661C
330
662C
330
663F
330
6696
330
669D
330
66FE
330
66FF
330
6700
330
6741
330
6D94
330
6DA1
102
}
330
A
100
AcDbSymbolTableRecord
100
AcDbDimStyleTableRecord
  2
GOD
 70
     0
 40
15.0
 41
2.5
 42
1.0
 43
7.0
 44
1.0
 73
     0
 74
     0
 77
     1
 78
     8
140
3.0
141
0.0
143
0.03937
147
1.0
172
     1
173
     1
176
   256
177
   256
178
   256
271
     2
272
     2
284
     8
289
     0
340
10
341
1E7F
343
1E7F
344
1E7F
  0
DIMSTYLE
105
1EF1
330
A
100
AcDbSymbolTableRecord
100
AcDbDimStyleTableRecord
  2
IGA
 70
     0
 40
2.0
 41
2.0
 42
0.5
 43
10.0
 44
1.0
 47
1.0
 48
1.0
 73
     0
 74
     0
 77
     1
 78
     8
140
3.0
141
0.0
143
0.03937
146
10.0
147
1.0
173
     1
271
     1
272
     0
279
     2
284
     8
340
10
341
1E7F
343
1E7F
344
1E7F
  0
ENDTAB
  0
TABLE
  2
BLOCK_RECORD
  5
1
330
0
100
AcDbSymbolTable
 70
    32
  0
BLOCK_RECORD
  5
19
102
{ACAD_XDICTIONARY
360
6B70
102
}
330
1
100
AcDbSymbolTableRecord
100
AcDbBlockTableRecord
  2
*MODEL_SPACE
340
1E94
  0
BLOCK_RECORD
  5
16
102
{ACAD_XDICTIONARY
360
6B6E
102
}
330
1
100
AcDbSymbolTableRecord
100
AcDbBlockTableRecord
  2
*PAPER_SPACE
340
1E95
  0
BLOCK_RECORD
  5
1E7F
330
1
100
AcDbSymbolTableRecord
100
AcDbBlockTableRecord
  2
_OPEN
340
0
102
{BLKREFS
331
69DA
331
69DB
331
69E3
331
69E4
331
69EC
331
69ED
331
6A07
331
6A08
331
6A10
331
6A11
331
6A22
331
6A23
331
6A2B
331
6A2C
331
6BFB
331
6992
331
6993
331
69AD
331
69AE
331
69B6
331
69B7
331
69C8
331
69C9
331
69D1
331
69D2
331
6D71
331
6D72
331
6D7A
331
6D7B
331
6D83
331
6D84
331
6DC7
331
6DC8
331
6DDA
331
6DDB
102
}
  0
BLOCK_RECORD
  5
1EB4
330
1
100
AcDbSymbolTableRecord
100
AcDbBlockTableRecord
  2
_Dot
340
0
102
{BLKREFS
331
6BFA
102
}
  0
BLOCK_RECORD
  5
22E5
330
1
100
AcDbSymbolTableRecord
100
AcDbBlockTableRecord
  2
A$C5EBD6DA5
340
0
  0
BLOCK_RECORD
  5
3F67
330
1
100
AcDbSymbolTableRecord
100
AcDbBlockTableRecord
  2
A$C2860434C
340
0
  0
BLOCK_RECORD
  5
5AD4
330
1
100
AcDbSymbolTableRecord
100
AcDbBlockTableRecord
  2
_None
340
0
  0
BLOCK_RECORD
  5
674D
330
1
100
AcDbSymbolTableRecord
100
AcDbBlockTableRecord
  2
*D5
340
0
  0
BLOCK_RECORD
  5
6759
330
1
100
AcDbSymbolTableRecord
100
AcDbBlockTableRecord
  2
*D6
340
0
  0
BLOCK_RECORD
  5
6767
330
1
100
AcDbSymbolTableRecord
100
AcDbBlockTableRecord
  2
*D7
340
0
  0
BLOCK_RECORD
  5
6773
330
1
100
AcDbSymbolTableRecord
100
AcDbBlockTableRecord
  2
*D8
340
0
  0
BLOCK_RECORD
  5
677D
330
1
100
AcDbSymbolTableRecord
100
AcDbBlockTableRecord
  2
*D9
340
0
  0
BLOCK_RECORD
  5
6789
330
1
100
AcDbSymbolTableRecord
100
AcDbBlockTableRecord
  2
*D10
340
0
  0
BLOCK_RECORD
  5
6795
330
1
100
AcDbSymbolTableRecord
100
AcDbBlockTableRecord
  2
*D11
340
0
  0
BLOCK_RECORD
  5
67A1
330
1
100
AcDbSymbolTableRecord
100
AcDbBlockTableRecord
  2
*D12
340
0
  0
BLOCK_RECORD
  5
67AD
330
1
100
AcDbSymbolTableRecord
100
AcDbBlockTableRecord
  2
*D13
340
0
  0
BLOCK_RECORD
  5
67BB
330
1
100
AcDbSymbolTableRecord
100
AcDbBlockTableRecord
  2
*D14
340
0
  0
BLOCK_RECORD
  5
67C7
330
1
100
AcDbSymbolTableRecord
100
AcDbBlockTableRecord
  2
*D15
340
0
  0
BLOCK_RECORD
  5
67D3
330
1
100
AcDbSymbolTableRecord
100
AcDbBlockTableRecord
  2
*D16
340
0
  0
BLOCK_RECORD
  5
67DF
330
1
100
AcDbSymbolTableRecord
100
AcDbBlockTableRecord
  2
*D17
340
0
  0
BLOCK_RECORD
  5
67F7
330
1
100
AcDbSymbolTableRecord
100
AcDbBlockTableRecord
  2
*D19
340
0
  0
BLOCK_RECORD
  5
6803
330
1
100
AcDbSymbolTableRecord
100
AcDbBlockTableRecord
  2
*D20
340
0
  0
BLOCK_RECORD
  5
680F
330
1
100
AcDbSymbolTableRecord
100
AcDbBlockTableRecord
  2
*D21
340
0
  0
BLOCK_RECORD
  5
6827
330
1
100
AcDbSymbolTableRecord
100
AcDbBlockTableRecord
  2
*D23
340
0
  0
BLOCK_RECORD
  5
6D95
330
1
100
AcDbSymbolTableRecord
100
AcDbBlockTableRecord
  2
*D30
340
0
  0
BLOCK_RECORD
  5
6DA2
330
1
100
AcDbSymbolTableRecord
100
AcDbBlockTableRecord
  2
*D31
340
0
  0
ENDTAB
  0
ENDSEC
  0
SECTION
  2
BLOCKS
  0
BLOCK
  5
1A
330
19
100
AcDbEntity
  8
0
100
AcDbBlockBegin
  2
*MODEL_SPACE
 70
     0
 10
0.0
 20
0.0
 30
0.0
  3
*MODEL_SPACE
  1

  0
ENDBLK
  5
1B
330
19
100
AcDbEntity
  8
0
100
AcDbBlockEnd
  0
BLOCK
  5
17
330
16
100
AcDbEntity
 67
     1
  8
0
100
AcDbBlockBegin
  2
*PAPER_SPACE
 70
     0
 10
0.0
 20
0.0
 30
0.0
  3
*PAPER_SPACE
  1

  0
ENDBLK
  5
18
330
16
100
AcDbEntity
 67
     1
  8
0
100
AcDbBlockEnd
  0
BLOCK
  5
1E80
330
1E7F
100
AcDbEntity
  8
0
100
AcDbBlockBegin
  2
_OPEN
 70
     0
 10
0.0
 20
0.0
 30
0.0
  3
_OPEN
  1

  0
LINE
  5
1E81
330
1E7F
100
AcDbEntity
  8
0
  6
ByBlock
 62
     0
100
AcDbLine
 10
-1.0
 20
0.1666666666666666
 30
0.0
 11
0.0
 21
0.0
 31
0.0
  0
LINE
  5
1E82
330
1E7F
100
AcDbEntity
  8
0
  6
ByBlock
 62
     0
100
AcDbLine
 10
0.0
 20
0.0
 30
0.0
 11
-1.0
 21
-0.1666666666666666
 31
0.0
  0
LINE
  5
1E83
330
1E7F
100
AcDbEntity
  8
0
  6
ByBlock
 62
     0
100
AcDbLine
 10
0.0
 20
0.0
 30
0.0
 11
-1.0
 21
0.0
 31
0.0
  0
ENDBLK
  5
1E84
330
1E7F
100
AcDbEntity
  8
0
100
AcDbBlockEnd
  0
BLOCK
  5
1EB7
330
1EB4
100
AcDbEntity
  8
0
100
AcDbBlockBegin
  2
_Dot
 70
     0
 10
0.0
 20
0.0
 30
0.0
  3
_Dot
  1

  0
LINE
  5
1EC3
330
1EB4
100
AcDbEntity
  8
0
  6
ByBlock
 62
     0
100
AcDbLine
 10
0.0
 20
0.0
 30
0.0
 11
-1.0
 21
-0.0000000000000284
 31
0.0
  0
LWPOLYLINE
  5
1EC4
330
1EB4
100
AcDbEntity
  8
0
  6
ByBlock
 62
     0
100
AcDbPolyline
 90
        2
 70
     1
 43
0.1666666666666666
 10
-0.0833333333333286
 20
-0.0000000000000284
 42
1.0
 10
0.0833333333333286
 20
-0.0000000000000284
 42
1.0
  0
ENDBLK
  5
1EB8
330
1EB4
100
AcDbEntity
  8
0
100
AcDbBlockEnd
  0
BLOCK
  5
22ED
330
22E5
100
AcDbEntity
  8
0
100
AcDbBlockBegin
  2
A$C5EBD6DA5
 70
     0
 10
0.0
 20
0.0
 30
0.0
  3
A$C5EBD6DA5
  1

  0
LWPOLYLINE
  5
22E6
330
22E5
100
AcDbEntity
  8
1
100
AcDbPolyline
 90
        2
 70
     0
 43
0.0
 10
8.000000000002728
 20
-181.5000000000009
 10
8.000000000000909
 20
181.5000000000009
  0
LINE
  5
22E7
330
22E5
100
AcDbEntity
  8
1
100
AcDbLine
 10
1.000000000000909
 20
182.5000000000009
 30
0.0
 11
7.000000000002728
 21
182.5000000000009
 31
0.0
  0
ARC
  5
22E8
330
22E5
100
AcDbEntity
  8
1
100
AcDbCircle
 10
1.000000000000909
 20
183.5000000000009
 30
0.0
 40
1.0
100
AcDbArc
 50
180.0
 51
270.0
  0
LINE
  5
22E9
330
22E5
100
AcDbEntity
  8
1
100
AcDbLine
 10
1.000000000000909
 20
-182.5000000000009
 30
0.0
 11
7.000000000002728
 21
-182.5000000000009
 31
0.0
  0
ARC
  5
22EA
330
22E5
100
AcDbEntity
  8
1
100
AcDbCircle
 10
1.000000000000909
 20
-183.5000000000009
 30
0.0
 40
1.0
100
AcDbArc
 50
90.0
 51
180.0
  0
ARC
  5
22EB
330
22E5
100
AcDbEntity
  8
1
100
AcDbCircle
 10
7.000000000000909
 20
-181.5000000000009
 30
0.0
 40
1.0
100
AcDbArc
 50
270.0
 51
0.0
  0
ARC
  5
22EC
330
22E5
100
AcDbEntity
  8
1
100
AcDbCircle
 10
7.000000000000909
 20
181.5000000000009
 30
0.0
 40
1.0
100
AcDbArc
 50
0.0
 51
90.0
  0
ENDBLK
  5
22EE
330
22E5
100
AcDbEntity
  8
0
100
AcDbBlockEnd
  0
BLOCK
  5
3F70
330
3F67
100
AcDbEntity
  8
0
100
AcDbBlockBegin
  2
A$C2860434C
 70
     0
 10
0.0
 20
0.0
 30
0.0
  3
A$C2860434C
  1

  0
LINE
  5
3F68
330
3F67
100
AcDbEntity
  8
FUTO
100
AcDbLine
 10
46.80127011642617
 20
-0.0000088960860012
 30
0.0
 11
8.586023312103861
 21
70.14998454137458
 31
0.0
  0
LINE
  5
3F69
330
3F67
100
AcDbEntity
  8
FUTO
100
AcDbLine
 10
-0.0000161416137416
 20
53.3499845413753
 30
0.0
 11
1.599983858386622
 21
53.3499845413753
 31
0.0
  0
LINE
  5
3F6A
330
3F67
100
AcDbEntity
  8
FUTO
100
AcDbLine
 10
-0.0000161416137416
 20
53.3499845413753
 30
0.0
 11
-0.0000161416137416
 21
68.54998454137422
 31
0.0
  0
LINE
  5
3F6B
330
3F67
100
AcDbEntity
  8
FUTO
100
AcDbLine
 10
1.599983858386622
 20
53.3499845413753
 30
0.0
 11
1.599983858386622
 21
68.54998454137422
 31
0.0
  0
LINE
  5
3F6C
330
3F67
100
AcDbEntity
  8
FUTO
100
AcDbLine
 10
3.199983858386985
 20
70.14998454137458
 30
0.0
 11
91.76921462761674
 21
70.14998454137094
 31
0.0
  0
LINE
  5
3F6D
330
3F67
100
AcDbEntity
  8
FUTO
100
AcDbLine
 10
3.199983858386985
 20
71.74998454137313
 30
0.0
 11
92.79485565325741
 21
71.74998454137313
 31
0.0
  0
ARC
  5
3F6E
330
3F67
100
AcDbEntity
  8
FUTO
100
AcDbCircle
 10
3.199983858386985
 20
68.54998454137422
 30
0.0
 40
3.2
100
AcDbArc
 50
90.0
 51
180.0
  0
ARC
  5
3F6F
330
3F67
100
AcDbEntity
  8
FUTO
100
AcDbCircle
 10
3.199983858386985
 20
68.54998454137422
 30
0.0
 40
1.6
100
AcDbArc
 50
90.0
 51
180.0
  0
ENDBLK
  5
3F71
330
3F67
100
AcDbEntity
  8
0
100
AcDbBlockEnd
  0
BLOCK
  5
5AD5
330
5AD4
100
AcDbEntity
  8
0
100
AcDbBlockBegin
  2
_None
 70
     0
 10
0.0
 20
0.0
 30
0.0
  3
_None
  1

  0
ENDBLK
  5
5AD6
330
5AD4
100
AcDbEntity
  8
0
100
AcDbBlockEnd
  0
BLOCK
  5
6757
330
674D
100
AcDbEntity
  8
0
100
AcDbBlockBegin
  2
*D5
 70
     1
 10
0.0
 20
0.0
 30
0.0
  3
*D5
  1

  0
LINE
  5
69AA
330
674D
100
AcDbEntity
  8
SP
370
    -2
100
AcDbLine
 10
18392.89863623605
 20
4810.44073435656
 30
0.0
 11
18392.89863623605
 21
4873.697450085384
 31
0.0
  0
LINE
  5
69AB
330
674D
100
AcDbEntity
  8
SP
370
    -2
100
AcDbLine
 10
18657.12991786988
 20
4510.771785590089
 30
0.0
 11
18657.12991786988
 21
4873.697450085384
 31
0.0
  0
LINE
  5
69AC
330
674D
100
AcDbEntity
  8
SP
370
    -2
100
AcDbLine
 10
18430.39863623605
 20
4858.697450085385
 30
0.0
 11
18619.62991786988
 21
4858.697450085385
 31
0.0
  0
INSERT
  5
69AD
330
674D
100
AcDbEntity
  8
SP
370
    -2
100
AcDbBlockReference
  2
_OPEN
 10
18392.89863623605
 20
4858.697450085385
 30
0.0
 41
37.5
 42
37.5
 43
37.5
 50
180.0
  0
INSERT
  5
69AE
330
674D
100
AcDbEntity
  8
SP
370
    -2
100
AcDbBlockReference
  2
_OPEN
 10
18657.12991786988
 20
4858.697450085385
 30
0.0
 41
37.5
 42
37.5
 43
37.5
  0
MTEXT
  5
69AF
330
674D
100
AcDbEntity
  8
SP
100
AcDbMText
 10
18525.01427705296
 20
4896.197450085384
 30
0.0
 40
45.0
 41
0.0
 71
     5
 72
     5
  1
\A1;264
 73
     1
 44
1.0
1001
ACAD
1000
MTEXTBEGIN
1070
    73
1070
     1
1070
    44
1040
1.0
1070
    74
1070
     0
1000
MTEXTEND
  0
POINT
  5
69B0
330
674D
100
AcDbEntity
  8
Defpoints
 62
     0
100
AcDbPoint
 10
18392.89863623605
 20
4795.440734356559
 30
0.0
  0
POINT
  5
69B1
330
674D
100
AcDbEntity
  8
Defpoints
 62
     0
100
AcDbPoint
 10
18657.12991786988
 20
4495.77178559009
 30
0.0
  0
POINT
  5
69B2
330
674D
100
AcDbEntity
  8
Defpoints
 62
     0
100
AcDbPoint
 10
18657.12991786988
 20
4858.697450085385
 30
0.0
  0
ENDBLK
  5
6758
330
674D
100
AcDbEntity
  8
0
100
AcDbBlockEnd
  0
BLOCK
  5
6765
330
6759
100
AcDbEntity
  8
0
100
AcDbBlockBegin
  2
*D6
 70
     1
 10
0.0
 20
0.0
 30
0.0
  3
*D6
  1

  0
LINE
  5
698D
330
6759
100
AcDbEntity
  8
SP
370
    -2
100
AcDbLine
 10
18127.89863623603
 20
5752.169849113562
 30
0.0
 11
17954.02593379986
 21
5752.169849113562
 31
0.0
  0
LINE
  5
698E
330
6759
100
AcDbEntity
  8
SP
370
    -2
100
AcDbLine
 10
18080.27708796955
 20
5874.169849113564
 30
0.0
 11
17954.02593379986
 21
5874.169849113564
 31
0.0
  0
LINE
  5
698F
330
6759
100
AcDbEntity
  8
SP
370
    -2
100
AcDbLine
 10
17969.02593379986
 20
5714.669849113562
 30
0.0
 11
17969.02593379986
 21
5677.169849113562
 31
0.0
  0
LINE
  5
6990
330
6759
100
AcDbEntity
  8
SP
370
    -2
100
AcDbLine
 10
17969.02593379986
 20
5911.669849113565
 30
0.0
 11
17969.02593379986
 21
6084.169849113564
 31
0.0
  0
LINE
  5
6991
330
6759
100
AcDbEntity
  8
SP
370
    -2
100
AcDbLine
 10
17969.02593379986
 20
5752.169849113562
 30
0.0
 11
17969.02593379986
 21
5874.169849113564
 31
0.0
  0
INSERT
  5
6992
330
6759
100
AcDbEntity
  8
SP
370
    -2
100
AcDbBlockReference
  2
_OPEN
 10
17969.02593379986
 20
5752.169849113562
 30
0.0
 41
37.5
 42
37.5
 43
37.5
 50
90.0
  0
INSERT
  5
6993
330
6759
100
AcDbEntity
  8
SP
370
    -2
100
AcDbBlockReference
  2
_OPEN
 10
17969.02593379986
 20
5874.169849113564
 30
0.0
 41
37.5
 42
37.5
 43
37.5
 50
270.0
  0
MTEXT
  5
6994
330
6759
100
AcDbEntity
  8
SP
100
AcDbMText
 10
17931.52593379986
 20
6016.669849113567
 30
0.0
 40
45.0
 41
0.0
 71
     5
 72
     5
  1
\A1;122
 11
0.0000000000000001
 21
1.0
 31
0.0
 73
     1
 44
1.0
1001
ACAD
1000
MTEXTBEGIN
1070
    73
1070
     1
1070
    44
1040
1.0
1070
    74
1070
     0
1000
MTEXTEND
  0
POINT
  5
6995
330
6759
100
AcDbEntity
  8
Defpoints
 62
     0
100
AcDbPoint
 10
18142.89863623604
 20
5752.169849113562
 30
0.0
  0
POINT
  5
6996
330
6759
100
AcDbEntity
  8
Defpoints
 62
     0
100
AcDbPoint
 10
18095.27708796955
 20
5874.169849113564
 30
0.0
  0
POINT
  5
6997
330
6759
100
AcDbEntity
  8
Defpoints
 62
     0
100
AcDbPoint
 10
17969.02593379986
 20
5874.169849113564
 30
0.0
  0
ENDBLK
  5
6766
330
6759
100
AcDbEntity
  8
0
100
AcDbBlockEnd
  0
BLOCK
  5
6771
330
6767
100
AcDbEntity
  8
0
100
AcDbBlockBegin
  2
*D7
 70
     1
 10
0.0
 20
0.0
 30
0.0
  3
*D7
  1

  0
LINE
  5
69B3
330
6767
100
AcDbEntity
  8
SP
370
    -2
100
AcDbLine
 10
18392.89863623605
 20
4810.44073435656
 30
0.0
 11
18392.89863623605
 21
4873.697450085384
 31
0.0
  0
LINE
  5
69B4
330
6767
100
AcDbEntity
  8
SP
370
    -2
100
AcDbLine
 10
18142.89863623605
 20
4558.942208402481
 30
0.0
 11
18142.89863623605
 21
4873.697450085384
 31
0.0
  0
LINE
  5
69B5
330
6767
100
AcDbEntity
  8
SP
370
    -2
100
AcDbLine
 10
18355.39863623605
 20
4858.697450085385
 30
0.0
 11
18180.39863623605
 21
4858.697450085385
 31
0.0
  0
INSERT
  5
69B6
330
6767
100
AcDbEntity
  8
SP
370
    -2
100
AcDbBlockReference
  2
_OPEN
 10
18392.89863623605
 20
4858.697450085385
 30
0.0
 41
37.5
 42
37.5
 43
37.5
  0
INSERT
  5
69B7
330
6767
100
AcDbEntity
  8
SP
370
    -2
100
AcDbBlockReference
  2
_OPEN
 10
18142.89863623605
 20
4858.697450085385
 30
0.0
 41
37.5
 42
37.5
 43
37.5
 50
180.0
  0
MTEXT
  5
69B8
330
6767
100
AcDbEntity
  8
SP
100
AcDbMText
 10
18267.89863623605
 20
4896.197450085384
 30
0.0
 40
45.0
 41
0.0
 71
     5
 72
     5
  1
\A1;250
 73
     1
 44
1.0
1001
ACAD
1000
MTEXTBEGIN
1070
    73
1070
     1
1070
    44
1040
1.0
1070
    74
1070
     0
1000
MTEXTEND
  0
POINT
  5
69B9
330
6767
100
AcDbEntity
  8
Defpoints
 62
     0
100
AcDbPoint
 10
18392.89863623605
 20
4795.440734356559
 30
0.0
  0
POINT
  5
69BA
330
6767
100
AcDbEntity
  8
Defpoints
 62
     0
100
AcDbPoint
 10
18142.89863623605
 20
4543.942208402481
 30
0.0
  0
POINT
  5
69BB
330
6767
100
AcDbEntity
  8
Defpoints
 62
     0
100
AcDbPoint
 10
18142.89863623605
 20
4858.697450085385
 30
0.0
  0
ENDBLK
  5
6772
330
6767
100
AcDbEntity
  8
0
100
AcDbBlockEnd
  0
BLOCK
  5
677B
330
6773
100
AcDbEntity
  8
0
100
AcDbBlockBegin
  2
*D8
 70
     1
 10
0.0
 20
0.0
 30
0.0
  3
*D8
  1

  0
LINE
  5
6BE6
330
6773
100
AcDbEntity
  8
SP
100
AcDbLine
 10
18127.89863623605
 20
4167.442208402477
 30
0.0
 11
17917.89863623605
 21
4167.442208402477
 31
0.0
  0
LINE
  5
6BE7
330
6773
100
AcDbEntity
  8
SP
100
AcDbLine
 10
18127.89863623605
 20
4131.442208402478
 30
0.0
 11
17917.89863623605
 21
4131.442208402478
 31
0.0
  0
LINE
  5
6BE8
330
6773
100
AcDbEntity
  8
SP
100
AcDbLine
 10
17932.89863623605
 20
4167.442208402477
 30
0.0
 11
17932.89863623605
 21
4131.442208402478
 31
0.0
  0
MTEXT
  5
6BE9
330
6773
100
AcDbEntity
  8
SP
100
AcDbMText
 10
17880.81848848751
 20
4141.963182972953
 30
0.0
 40
45.0
 41
0.0
 71
     5
 72
     5
  1
\A1;（36）
 11
0.0000000000000001
 21
1.0
 31
0.0
 73
     1
 44
1.0
1001
ACAD
1000
MTEXTBEGIN
1070
    73
1070
     1
1070
    44
1040
1.0
1070
    74
1070
     0
1000
MTEXTEND
  0
POINT
  5
6BEA
330
6773
100
AcDbEntity
  8
Defpoints
 62
     0
100
AcDbPoint
 10
18142.89863623605
 20
4167.442208402477
 30
0.0
  0
POINT
  5
6BEB
330
6773
100
AcDbEntity
  8
Defpoints
 62
     0
100
AcDbPoint
 10
18142.89863623605
 20
4131.442208402478
 30
0.0
  0
POINT
  5
6BEC
330
6773
100
AcDbEntity
  8
Defpoints
 62
     0
100
AcDbPoint
 10
17932.89863623605
 20
4131.442208402478
 30
0.0
  0
ENDBLK
  5
677C
330
6773
100
AcDbEntity
  8
0
100
AcDbBlockEnd
  0
BLOCK
  5
6787
330
677D
100
AcDbEntity
  8
0
100
AcDbBlockBegin
  2
*D9
 70
     1
 10
0.0
 20
0.0
 30
0.0
  3
*D9
  1

  0
LINE
  5
69E0
330
677D
100
AcDbEntity
  8
SP
370
    -2
100
AcDbLine
 10
18072.95512638847
 20
4522.442208402477
 30
0.0
 11
18022.89863623604
 21
4522.442208402477
 31
0.0
  0
LINE
  5
69E1
330
677D
100
AcDbEntity
  8
SP
370
    -2
100
AcDbLine
 10
18127.89863623604
 20
4207.44220840248
 30
0.0
 11
18022.89863623604
 21
4207.44220840248
 31
0.0
  0
LINE
  5
69E2
330
677D
100
AcDbEntity
  8
SP
370
    -2
100
AcDbLine
 10
18037.89863623604
 20
4484.942208402477
 30
0.0
 11
18037.89863623604
 21
4244.94220840248
 31
0.0
  0
INSERT
  5
69E3
330
677D
100
AcDbEntity
  8
SP
370
    -2
100
AcDbBlockReference
  2
_OPEN
 10
18037.89863623604
 20
4522.442208402477
 30
0.0
 41
37.5
 42
37.5
 43
37.5
 50
90.0
  0
INSERT
  5
69E4
330
677D
100
AcDbEntity
  8
SP
370
    -2
100
AcDbBlockReference
  2
_OPEN
 10
18037.89863623604
 20
4207.44220840248
 30
0.0
 41
37.5
 42
37.5
 43
37.5
 50
270.0
  0
MTEXT
  5
69E5
330
677D
100
AcDbEntity
  8
SP
100
AcDbMText
 10
18000.39863623604
 20
4364.942208402482
 30
0.0
 40
45.0
 41
0.0
 71
     5
 72
     5
  1
\A1;315
 11
0.0000000000000001
 21
1.0
 31
0.0
 73
     1
 44
1.0
1001
ACAD
1000
MTEXTBEGIN
1070
    73
1070
     1
1070
    44
1040
1.0
1070
    74
1070
     0
1000
MTEXTEND
  0
POINT
  5
69E6
330
677D
100
AcDbEntity
  8
Defpoints
 62
     0
100
AcDbPoint
 10
18087.95512638847
 20
4522.442208402477
 30
0.0
  0
POINT
  5
69E7
330
677D
100
AcDbEntity
  8
Defpoints
 62
     0
100
AcDbPoint
 10
18142.89863623604
 20
4207.44220840248
 30
0.0
  0
POINT
  5
69E8
330
677D
100
AcDbEntity
  8
Defpoints
 62
     0
100
AcDbPoint
 10
18037.89863623604
 20
4207.44220840248
 30
0.0
  0
ENDBLK
  5
6788
330
677D
100
AcDbEntity
  8
0
100
AcDbBlockEnd
  0
BLOCK
  5
6793
330
6789
100
AcDbEntity
  8
0
100
AcDbBlockBegin
  2
*D10
 70
     1
 10
0.0
 20
0.0
 30
0.0
  3
*D10
  1

  0
LINE
  5
69E9
330
6789
100
AcDbEntity
  8
SP
370
    -2
100
AcDbLine
 10
18127.89863623605
 20
4167.442208402477
 30
0.0
 11
17917.89863623605
 21
4167.442208402477
 31
0.0
  0
LINE
  5
69EA
330
6789
100
AcDbEntity
  8
SP
370
    -2
100
AcDbLine
 10
18072.95512638847
 20
4522.442208402477
 30
0.0
 11
17917.89863623605
 21
4522.442208402477
 31
0.0
  0
LINE
  5
69EB
330
6789
100
AcDbEntity
  8
SP
370
    -2
100
AcDbLine
 10
17932.89863623605
 20
4204.942208402477
 30
0.0
 11
17932.89863623605
 21
4484.942208402477
 31
0.0
  0
INSERT
  5
69EC
330
6789
100
AcDbEntity
  8
SP
370
    -2
100
AcDbBlockReference
  2
_OPEN
 10
17932.89863623605
 20
4167.442208402477
 30
0.0
 41
37.5
 42
37.5
 43
37.5
 50
270.0
  0
INSERT
  5
69ED
330
6789
100
AcDbEntity
  8
SP
370
    -2
100
AcDbBlockReference
  2
_OPEN
 10
17932.89863623605
 20
4522.442208402477
 30
0.0
 41
37.5
 42
37.5
 43
37.5
 50
90.0
  0
MTEXT
  5
69EE
330
6789
100
AcDbEntity
  8
SP
100
AcDbMText
 10
17895.39863623605
 20
4344.94220840248
 30
0.0
 40
45.0
 41
0.0
 71
     5
 72
     5
  1
\A1;355
 11
0.0000000000000001
 21
1.0
 31
0.0
 73
     1
 44
1.0
1001
ACAD
1000
MTEXTBEGIN
1070
    73
1070
     1
1070
    44
1040
1.0
1070
    74
1070
     0
1000
MTEXTEND
  0
POINT
  5
69EF
330
6789
100
AcDbEntity
  8
Defpoints
 62
     0
100
AcDbPoint
 10
18142.89863623605
 20
4167.442208402477
 30
0.0
  0
POINT
  5
69F0
330
6789
100
AcDbEntity
  8
Defpoints
 62
     0
100
AcDbPoint
 10
18087.95512638847
 20
4522.442208402477
 30
0.0
  0
POINT
  5
69F1
330
6789
100
AcDbEntity
  8
Defpoints
 62
     0
100
AcDbPoint
 10
17932.89863623605
 20
4522.442208402477
 30
0.0
  0
ENDBLK
  5
6794
330
6789
100
AcDbEntity
  8
0
100
AcDbBlockEnd
  0
BLOCK
  5
679F
330
6795
100
AcDbEntity
  8
0
100
AcDbBlockBegin
  2
*D11
 70
     1
 10
0.0
 20
0.0
 30
0.0
  3
*D11
  1

  0
LINE
  5
69CE
330
6795
100
AcDbEntity
  8
SP
370
    -2
100
AcDbLine
 10
18392.89863623605
 20
4016.07231802952
 30
0.0
 11
18392.89863623605
 21
3946.442208402478
 31
0.0
  0
LINE
  5
69CF
330
6795
100
AcDbEntity
  8
SP
370
    -2
100
AcDbLine
 10
18142.89863623606
 20
4051.442208402477
 30
0.0
 11
18142.89863623606
 21
3946.442208402478
 31
0.0
  0
LINE
  5
69D0
330
6795
100
AcDbEntity
  8
SP
370
    -2
100
AcDbLine
 10
18355.39863623605
 20
3961.442208402477
 30
0.0
 11
18180.39863623606
 21
3961.442208402477
 31
0.0
  0
INSERT
  5
69D1
330
6795
100
AcDbEntity
  8
SP
370
    -2
100
AcDbBlockReference
  2
_OPEN
 10
18392.89863623605
 20
3961.442208402477
 30
0.0
 41
37.5
 42
37.5
 43
37.5
  0
INSERT
  5
69D2
330
6795
100
AcDbEntity
  8
SP
370
    -2
100
AcDbBlockReference
  2
_OPEN
 10
18142.89863623606
 20
3961.442208402477
 30
0.0
 41
37.5
 42
37.5
 43
37.5
 50
180.0
  0
MTEXT
  5
69D3
330
6795
100
AcDbEntity
  8
SP
100
AcDbMText
 10
18267.89863623606
 20
3998.942208402477
 30
0.0
 40
45.0
 41
0.0
 71
     5
 72
     5
  1
\A1;250
 73
     1
 44
1.0
1001
ACAD
1000
MTEXTBEGIN
1070
    73
1070
     1
1070
    44
1040
1.0
1070
    74
1070
     0
1000
MTEXTEND
  0
POINT
  5
69D4
330
6795
100
AcDbEntity
  8
Defpoints
 62
     0
100
AcDbPoint
 10
18392.89863623605
 20
4031.07231802952
 30
0.0
  0
POINT
  5
69D5
330
6795
100
AcDbEntity
  8
Defpoints
 62
     0
100
AcDbPoint
 10
18142.89863623606
 20
4066.442208402476
 30
0.0
  0
POINT
  5
69D6
330
6795
100
AcDbEntity
  8
Defpoints
 62
     0
100
AcDbPoint
 10
18142.89863623606
 20
3961.442208402477
 30
0.0
  0
ENDBLK
  5
67A0
330
6795
100
AcDbEntity
  8
0
100
AcDbBlockEnd
  0
BLOCK
  5
67AB
330
67A1
100
AcDbEntity
  8
0
100
AcDbBlockBegin
  2
*D12
 70
     1
 10
0.0
 20
0.0
 30
0.0
  3
*D12
  1

  0
LINE
  5
69D7
330
67A1
100
AcDbEntity
  8
SP
370
    -2
100
AcDbLine
 10
18142.89863623606
 20
4051.442208402477
 30
0.0
 11
18142.89863623606
 21
3841.442208402477
 31
0.0
  0
LINE
  5
69D8
330
67A1
100
AcDbEntity
  8
SP
370
    -2
100
AcDbLine
 10
18642.89863623605
 20
4051.442208402477
 30
0.0
 11
18642.89863623605
 21
3841.442208402477
 31
0.0
  0
LINE
  5
69D9
330
67A1
100
AcDbEntity
  8
SP
370
    -2
100
AcDbLine
 10
18180.39863623606
 20
3856.442208402478
 30
0.0
 11
18605.39863623605
 21
3856.442208402478
 31
0.0
  0
INSERT
  5
69DA
330
67A1
100
AcDbEntity
  8
SP
370
    -2
100
AcDbBlockReference
  2
_OPEN
 10
18142.89863623606
 20
3856.442208402478
 30
0.0
 41
37.5
 42
37.5
 43
37.5
 50
180.0
  0
INSERT
  5
69DB
330
67A1
100
AcDbEntity
  8
SP
370
    -2
100
AcDbBlockReference
  2
_OPEN
 10
18642.89863623605
 20
3856.442208402478
 30
0.0
 41
37.5
 42
37.5
 43
37.5
  0
MTEXT
  5
69DC
330
67A1
100
AcDbEntity
  8
SP
100
AcDbMText
 10
18392.89863623605
 20
3893.942208402478
 30
0.0
 40
45.0
 41
0.0
 71
     5
 72
     5
  1
\A1;500
 73
     1
 44
1.0
1001
ACAD
1000
MTEXTBEGIN
1070
    73
1070
     1
1070
    44
1040
1.0
1070
    74
1070
     0
1000
MTEXTEND
  0
POINT
  5
69DD
330
67A1
100
AcDbEntity
  8
Defpoints
 62
     0
100
AcDbPoint
 10
18142.89863623606
 20
4066.442208402476
 30
0.0
  0
POINT
  5
69DE
330
67A1
100
AcDbEntity
  8
Defpoints
 62
     0
100
AcDbPoint
 10
18642.89863623605
 20
4066.442208402476
 30
0.0
  0
POINT
  5
69DF
330
67A1
100
AcDbEntity
  8
Defpoints
 62
     0
100
AcDbPoint
 10
18642.89863623605
 20
3856.442208402478
 30
0.0
  0
ENDBLK
  5
67AC
330
67A1
100
AcDbEntity
  8
0
100
AcDbBlockEnd
  0
BLOCK
  5
67B9
330
67AD
100
AcDbEntity
  8
0
100
AcDbBlockBegin
  2
*D13
 70
     1
 10
0.0
 20
0.0
 30
0.0
  3
*D13
  1

  0
LINE
  5
6BF5
330
67AD
100
AcDbEntity
  8
SP
100
AcDbLine
 10
18127.89863623605
 20
4131.442208402478
 30
0.0
 11
17917.89863623605
 21
4131.442208402478
 31
0.0
  0
LINE
  5
6BF6
330
67AD
100
AcDbEntity
  8
SP
100
AcDbLine
 10
18127.89863623605
 20
4066.442208402476
 30
0.0
 11
17917.89863623605
 21
4066.442208402476
 31
0.0
  0
LINE
  5
6BF7
330
67AD
100
AcDbEntity
  8
SP
100
AcDbLine
 10
17932.89863623605
 20
4168.942208402477
 30
0.0
 11
17932.89863623605
 21
4206.442208402477
 31
0.0
  0
LINE
  5
6BF8
330
67AD
100
AcDbEntity
  8
SP
100
AcDbLine
 10
17932.89863623605
 20
4028.942208402477
 30
0.0
 11
17932.89863623605
 21
3884.678453837277
 31
0.0
  0
LINE
  5
6BF9
330
67AD
100
AcDbEntity
  8
SP
100
AcDbLine
 10
17932.89863623605
 20
4131.442208402478
 30
0.0
 11
17932.89863623605
 21
4066.442208402476
 31
0.0
  0
INSERT
  5
6BFA
330
67AD
100
AcDbEntity
  8
SP
100
AcDbBlockReference
  2
_Dot
 10
17932.89863623605
 20
4131.442208402478
 30
0.0
 41
37.5
 42
37.5
 43
37.5
 50
270.0
  0
INSERT
  5
6BFB
330
67AD
100
AcDbEntity
  8
SP
100
AcDbBlockReference
  2
_OPEN
 10
17932.89863623605
 20
4066.442208402476
 30
0.0
 41
37.5
 42
37.5
 43
37.5
 50
90.0
  0
MTEXT
  5
6BFC
330
67AD
100
AcDbEntity
  8
SP
100
AcDbMText
 10
17895.39863623605
 20
3938.06033111988
 30
0.0
 40
45.0
 41
0.0
 71
     5
 72
     5
  1
\A1;65
 11
0.0000000000000001
 21
1.0
 31
0.0
 73
     1
 44
1.0
1001
ACAD
1000
MTEXTBEGIN
1070
    73
1070
     1
1070
    44
1040
1.0
1070
    74
1070
     0
1000
MTEXTEND
  0
POINT
  5
6BFD
330
67AD
100
AcDbEntity
  8
Defpoints
 62
     0
100
AcDbPoint
 10
18142.89863623605
 20
4131.442208402478
 30
0.0
  0
POINT
  5
6BFE
330
67AD
100
AcDbEntity
  8
Defpoints
 62
     0
100
AcDbPoint
 10
18142.89863623605
 20
4066.442208402476
 30
0.0
  0
POINT
  5
6BFF
330
67AD
100
AcDbEntity
  8
Defpoints
 62
     0
100
AcDbPoint
 10
17932.89863623605
 20
4066.442208402476
 30
0.0
  0
ENDBLK
  5
67BA
330
67AD
100
AcDbEntity
  8
0
100
AcDbBlockEnd
  0
BLOCK
  5
67C5
330
67BB
100
AcDbEntity
  8
0
100
AcDbBlockBegin
  2
*D14
 70
     1
 10
0.0
 20
0.0
 30
0.0
  3
*D14
  1

  0
LINE
  5
6A04
330
67BB
100
AcDbEntity
  8
SP
370
    -2
100
AcDbLine
 10
18392.89863623605
 20
4016.07231802952
 30
0.0
 11
18392.89863623605
 21
3946.442208402478
 31
0.0
  0
LINE
  5
6A05
330
67BB
100
AcDbEntity
  8
SP
370
    -2
100
AcDbLine
 10
18642.89863623605
 20
4051.442208402477
 30
0.0
 11
18642.89863623605
 21
3946.442208402478
 31
0.0
  0
LINE
  5
6A06
330
67BB
100
AcDbEntity
  8
SP
370
    -2
100
AcDbLine
 10
18430.39863623605
 20
3961.442208402477
 30
0.0
 11
18605.39863623605
 21
3961.442208402477
 31
0.0
  0
INSERT
  5
6A07
330
67BB
100
AcDbEntity
  8
SP
370
    -2
100
AcDbBlockReference
  2
_OPEN
 10
18392.89863623605
 20
3961.442208402477
 30
0.0
 41
37.5
 42
37.5
 43
37.5
 50
180.0
  0
INSERT
  5
6A08
330
67BB
100
AcDbEntity
  8
SP
370
    -2
100
AcDbBlockReference
  2
_OPEN
 10
18642.89863623605
 20
3961.442208402477
 30
0.0
 41
37.5
 42
37.5
 43
37.5
  0
MTEXT
  5
6A09
330
67BB
100
AcDbEntity
  8
SP
100
AcDbMText
 10
18517.89863623605
 20
3998.942208402477
 30
0.0
 40
45.0
 41
0.0
 71
     5
 72
     5
  1
\A1;250
 73
     1
 44
1.0
1001
ACAD
1000
MTEXTBEGIN
1070
    73
1070
     1
1070
    44
1040
1.0
1070
    74
1070
     0
1000
MTEXTEND
  0
POINT
  5
6A0A
330
67BB
100
AcDbEntity
  8
Defpoints
 62
     0
100
AcDbPoint
 10
18392.89863623605
 20
4031.07231802952
 30
0.0
  0
POINT
  5
6A0B
330
67BB
100
AcDbEntity
  8
Defpoints
 62
     0
100
AcDbPoint
 10
18642.89863623605
 20
4066.442208402476
 30
0.0
  0
POINT
  5
6A0C
330
67BB
100
AcDbEntity
  8
Defpoints
 62
     0
100
AcDbPoint
 10
18642.89863623605
 20
3961.442208402477
 30
0.0
  0
ENDBLK
  5
67C6
330
67BB
100
AcDbEntity
  8
0
100
AcDbBlockEnd
  0
BLOCK
  5
67D1
330
67C7
100
AcDbEntity
  8
0
100
AcDbBlockBegin
  2
*D15
 70
     1
 10
0.0
 20
0.0
 30
0.0
  3
*D15
  1

  0
LINE
  5
69C5
330
67C7
100
AcDbEntity
  8
SP
370
    -2
100
AcDbLine
 10
18072.95512638847
 20
4522.442208402477
 30
0.0
 11
17917.89863623605
 21
4522.442208402477
 31
0.0
  0
LINE
  5
69C6
330
67C7
100
AcDbEntity
  8
SP
370
    -2
100
AcDbLine
 10
18400.75234010085
 20
4744.729428518949
 30
0.0
 11
17917.89863623605
 21
4744.729428518949
 31
0.0
  0
LINE
  5
69C7
330
67C7
100
AcDbEntity
  8
SP
370
    -2
100
AcDbLine
 10
17932.89863623605
 20
4559.942208402477
 30
0.0
 11
17932.89863623605
 21
4707.229428518949
 31
0.0
  0
INSERT
  5
69C8
330
67C7
100
AcDbEntity
  8
SP
370
    -2
100
AcDbBlockReference
  2
_OPEN
 10
17932.89863623605
 20
4522.442208402477
 30
0.0
 41
37.5
 42
37.5
 43
37.5
 50
270.0
  0
INSERT
  5
69C9
330
67C7
100
AcDbEntity
  8
SP
370
    -2
100
AcDbBlockReference
  2
_OPEN
 10
17932.89863623605
 20
4744.729428518949
 30
0.0
 41
37.5
 42
37.5
 43
37.5
 50
90.0
  0
MTEXT
  5
69CA
330
67C7
100
AcDbEntity
  8
SP
100
AcDbMText
 10
17895.39863623605
 20
4633.585818460716
 30
0.0
 40
45.0
 41
0.0
 71
     5
 72
     5
  1
\A1;222
 11
0.0000000000000001
 21
1.0
 31
0.0
 73
     1
 44
1.0
1001
ACAD
1000
MTEXTBEGIN
1070
    73
1070
     1
1070
    44
1040
1.0
1070
    74
1070
     0
1000
MTEXTEND
  0
POINT
  5
69CB
330
67C7
100
AcDbEntity
  8
Defpoints
 62
     0
100
AcDbPoint
 10
18087.95512638847
 20
4522.442208402477
 30
0.0
  0
POINT
  5
69CC
330
67C7
100
AcDbEntity
  8
Defpoints
 62
     0
100
AcDbPoint
 10
18415.75234010085
 20
4744.729428518949
 30
0.0
  0
POINT
  5
69CD
330
67C7
100
AcDbEntity
  8
Defpoints
 62
     0
100
AcDbPoint
 10
17932.89863623605
 20
4744.729428518949
 30
0.0
  0
ENDBLK
  5
67D2
330
67C7
100
AcDbEntity
  8
0
100
AcDbBlockEnd
  0
BLOCK
  5
67DD
330
67D3
100
AcDbEntity
  8
0
100
AcDbBlockBegin
  2
*D16
 70
     1
 10
0.0
 20
0.0
 30
0.0
  3
*D16
  1

  0
LINE
  5
6A1F
330
67D3
100
AcDbEntity
  8
SP
370
    -2
100
AcDbLine
 10
18642.89863623604
 20
5427.169849113564
 30
0.0
 11
18642.89863623604
 21
5280.148415360105
 31
0.0
  0
LINE
  5
6A20
330
67D3
100
AcDbEntity
  8
SP
370
    -2
100
AcDbLine
 10
18142.89863623604
 20
5427.169849113564
 30
0.0
 11
18142.89863623604
 21
5280.148415360105
 31
0.0
  0
LINE
  5
6A21
330
67D3
100
AcDbEntity
  8
SP
370
    -2
100
AcDbLine
 10
18605.39863623604
 20
5295.148415360106
 30
0.0
 11
18180.39863623604
 21
5295.148415360106
 31
0.0
  0
INSERT
  5
6A22
330
67D3
100
AcDbEntity
  8
SP
370
    -2
100
AcDbBlockReference
  2
_OPEN
 10
18642.89863623604
 20
5295.148415360106
 30
0.0
 41
37.5
 42
37.5
 43
37.5
  0
INSERT
  5
6A23
330
67D3
100
AcDbEntity
  8
SP
370
    -2
100
AcDbBlockReference
  2
_OPEN
 10
18142.89863623604
 20
5295.148415360106
 30
0.0
 41
37.5
 42
37.5
 43
37.5
 50
180.0
  0
MTEXT
  5
6A24
330
67D3
100
AcDbEntity
  8
SP
100
AcDbMText
 10
18392.89863623604
 20
5332.648415360106
 30
0.0
 40
45.0
 41
0.0
 71
     5
 72
     5
  1
\A1;500
 73
     1
 44
1.0
1001
ACAD
1000
MTEXTBEGIN
1070
    73
1070
     1
1070
    44
1040
1.0
1070
    74
1070
     0
1000
MTEXTEND
  0
POINT
  5
6A25
330
67D3
100
AcDbEntity
  8
Defpoints
 62
     0
100
AcDbPoint
 10
18642.89863623604
 20
5442.169849113565
 30
0.0
  0
POINT
  5
6A26
330
67D3
100
AcDbEntity
  8
Defpoints
 62
     0
100
AcDbPoint
 10
18142.89863623604
 20
5442.169849113565
 30
0.0
  0
POINT
  5
6A27
330
67D3
100
AcDbEntity
  8
Defpoints
 62
     0
100
AcDbPoint
 10
18142.89863623604
 20
5295.148415360106
 30
0.0
  0
ENDBLK
  5
67DE
330
67D3
100
AcDbEntity
  8
0
100
AcDbBlockEnd
  0
BLOCK
  5
67E9
330
67DF
100
AcDbEntity
  8
0
100
AcDbBlockBegin
  2
*D17
 70
     1
 10
0.0
 20
0.0
 30
0.0
  3
*D17
  1

  0
LINE
  5
6A28
330
67DF
100
AcDbEntity
  8
SP
370
    -2
100
AcDbLine
 10
18127.89863623604
 20
5752.169849113562
 30
0.0
 11
17954.02593379986
 21
5752.169849113562
 31
0.0
  0
LINE
  5
6A29
330
67DF
100
AcDbEntity
  8
SP
370
    -2
100
AcDbLine
 10
18127.89863623604
 20
5442.169849113565
 30
0.0
 11
17954.02593379986
 21
5442.169849113565
 31
0.0
  0
LINE
  5
6A2A
330
67DF
100
AcDbEntity
  8
SP
370
    -2
100
AcDbLine
 10
17969.02593379986
 20
5714.669849113562
 30
0.0
 11
17969.02593379986
 21
5479.669849113564
 31
0.0
  0
INSERT
  5
6A2B
330
67DF
100
AcDbEntity
  8
SP
370
    -2
100
AcDbBlockReference
  2
_OPEN
 10
17969.02593379986
 20
5752.169849113562
 30
0.0
 41
37.5
 42
37.5
 43
37.5
 50
90.0
  0
INSERT
  5
6A2C
330
67DF
100
AcDbEntity
  8
SP
370
    -2
100
AcDbBlockReference
  2
_OPEN
 10
17969.02593379986
 20
5442.169849113565
 30
0.0
 41
37.5
 42
37.5
 43
37.5
 50
270.0
  0
MTEXT
  5
6A2D
330
67DF
100
AcDbEntity
  8
SP
100
AcDbMText
 10
17931.52593379986
 20
5597.169849113566
 30
0.0
 40
45.0
 41
0.0
 71
     5
 72
     5
  1
\A1;310
 11
0.0000000000000001
 21
1.0
 31
0.0
 73
     1
 44
1.0
1001
ACAD
1000
MTEXTBEGIN
1070
    73
1070
     1
1070
    44
1040
1.0
1070
    74
1070
     0
1000
MTEXTEND
  0
POINT
  5
6A2E
330
67DF
100
AcDbEntity
  8
Defpoints
 62
     0
100
AcDbPoint
 10
18142.89863623604
 20
5752.169849113562
 30
0.0
  0
POINT
  5
6A2F
330
67DF
100
AcDbEntity
  8
Defpoints
 62
     0
100
AcDbPoint
 10
18142.89863623604
 20
5442.169849113565
 30
0.0
  0
POINT
  5
6A30
330
67DF
100
AcDbEntity
  8
Defpoints
 62
     0
100
AcDbPoint
 10
17969.02593379986
 20
5442.169849113565
 30
0.0
  0
ENDBLK
  5
67EA
330
67DF
100
AcDbEntity
  8
0
100
AcDbBlockEnd
  0
BLOCK
  5
6801
330
67F7
100
AcDbEntity
  8
0
100
AcDbBlockBegin
  2
*D19
 70
     1
 10
0.0
 20
0.0
 30
0.0
  3
*D19
  1

  0
LINE
  5
6D6E
330
67F7
100
AcDbEntity
  8
SP
370
    -2
100
AcDbLine
 10
19730.74606377954
 20
4934.704780904065
 30
0.0
 11
19730.74606377954
 21
4969.729428518949
 31
0.0
  0
LINE
  5
6D6F
330
67F7
100
AcDbEntity
  8
SP
370
    -2
100
AcDbLine
 10
19851.74606377954
 20
4718.942208402473
 30
0.0
 11
19851.74606377954
 21
4969.729428518949
 31
0.0
  0
LINE
  5
6D70
330
67F7
100
AcDbEntity
  8
SP
370
    -2
100
AcDbLine
 10
19768.24606377954
 20
4954.729428518949
 30
0.0
 11
19814.24606377954
 21
4954.729428518949
 31
0.0
  0
INSERT
  5
6D71
330
67F7
100
AcDbEntity
  8
SP
370
    -2
100
AcDbBlockReference
  2
_OPEN
 10
19730.74606377954
 20
4954.729428518949
 30
0.0
 41
37.5
 42
37.5
 43
37.5
 50
180.0
  0
INSERT
  5
6D72
330
67F7
100
AcDbEntity
  8
SP
370
    -2
100
AcDbBlockReference
  2
_OPEN
 10
19851.74606377954
 20
4954.729428518949
 30
0.0
 41
37.5
 42
37.5
 43
37.5
  0
MTEXT
  5
6D73
330
67F7
100
AcDbEntity
  8
SP
100
AcDbMText
 10
19791.24606377954
 20
4992.22942851895
 30
0.0
 40
45.0
 41
0.0
 71
     5
 72
     1
  1
\A1;121
 73
     1
 44
1.0
1001
ACAD
1000
MTEXTBEGIN
1070
    73
1070
     1
1070
    44
1040
1.0
1070
    74
1070
     0
1000
MTEXTEND
  0
POINT
  5
6D74
330
67F7
100
AcDbEntity
  8
Defpoints
 62
     0
100
AcDbPoint
 10
19730.74606377954
 20
4919.704780904066
 30
0.0
  0
POINT
  5
6D75
330
67F7
100
AcDbEntity
  8
Defpoints
 62
     0
100
AcDbPoint
 10
19851.74606377954
 20
4703.942208402473
 30
0.0
  0
POINT
  5
6D76
330
67F7
100
AcDbEntity
  8
Defpoints
 62
     0
100
AcDbPoint
 10
19851.74606377954
 20
4954.729428518949
 30
0.0
  0
ENDBLK
  5
6802
330
67F7
100
AcDbEntity
  8
0
100
AcDbBlockEnd
  0
BLOCK
  5
680D
330
6803
100
AcDbEntity
  8
0
100
AcDbBlockBegin
  2
*D20
 70
     1
 10
0.0
 20
0.0
 30
0.0
  3
*D20
  1

  0
LINE
  5
6D77
330
6803
100
AcDbEntity
  8
SP
370
    -2
100
AcDbLine
 10
19618.74606377954
 20
4744.72942851895
 30
0.0
 11
19618.74606377954
 21
4864.729428518949
 31
0.0
  0
LINE
  5
6D78
330
6803
100
AcDbEntity
  8
SP
370
    -2
100
AcDbLine
 10
19842.74606377954
 20
4744.729428518949
 30
0.0
 11
19842.74606377954
 21
4864.729428518949
 31
0.0
  0
LINE
  5
6D79
330
6803
100
AcDbEntity
  8
SP
370
    -2
100
AcDbLine
 10
19656.24606377954
 20
4849.729428518949
 30
0.0
 11
19805.24606377954
 21
4849.729428518949
 31
0.0
  0
INSERT
  5
6D7A
330
6803
100
AcDbEntity
  8
SP
370
    -2
100
AcDbBlockReference
  2
_OPEN
 10
19618.74606377954
 20
4849.729428518949
 30
0.0
 41
37.5
 42
37.5
 43
37.5
 50
180.0
  0
INSERT
  5
6D7B
330
6803
100
AcDbEntity
  8
SP
370
    -2
100
AcDbBlockReference
  2
_OPEN
 10
19842.74606377954
 20
4849.729428518949
 30
0.0
 41
37.5
 42
37.5
 43
37.5
  0
MTEXT
  5
6D7C
330
6803
100
AcDbEntity
  8
SP
100
AcDbMText
 10
19730.74606377954
 20
4887.229428518949
 30
0.0
 40
45.0
 41
0.0
 71
     5
 72
     1
  1
\A1;224
 73
     1
 44
1.0
1001
ACAD
1000
MTEXTBEGIN
1070
    73
1070
     1
1070
    44
1040
1.0
1070
    74
1070
     0
1000
MTEXTEND
  0
POINT
  5
6D7D
330
6803
100
AcDbEntity
  8
Defpoints
 62
     0
100
AcDbPoint
 10
19618.74606377954
 20
4729.729428518949
 30
0.0
  0
POINT
  5
6D7E
330
6803
100
AcDbEntity
  8
Defpoints
 62
     0
100
AcDbPoint
 10
19842.74606377954
 20
4729.729428518949
 30
0.0
  0
POINT
  5
6D7F
330
6803
100
AcDbEntity
  8
Defpoints
 62
     0
100
AcDbPoint
 10
19842.74606377954
 20
4849.729428518949
 30
0.0
  0
ENDBLK
  5
680E
330
6803
100
AcDbEntity
  8
0
100
AcDbBlockEnd
  0
BLOCK
  5
6819
330
680F
100
AcDbEntity
  8
0
100
AcDbBlockBegin
  2
*D21
 70
     1
 10
0.0
 20
0.0
 30
0.0
  3
*D21
  1

  0
LINE
  5
6A0D
330
680F
100
AcDbEntity
  8
SP
370
    -2
100
AcDbLine
 10
19298.74606377954
 20
4051.442208402476
 30
0.0
 11
19298.74606377954
 21
3946.442208402474
 31
0.0
  0
LINE
  5
6A0E
330
680F
100
AcDbEntity
  8
SP
370
    -2
100
AcDbLine
 10
19608.74606377954
 20
4051.442208402475
 30
0.0
 11
19608.74606377954
 21
3946.442208402474
 31
0.0
  0
LINE
  5
6A0F
330
680F
100
AcDbEntity
  8
SP
370
    -2
100
AcDbLine
 10
19336.24606377954
 20
3961.442208402474
 30
0.0
 11
19571.24606377954
 21
3961.442208402474
 31
0.0
  0
INSERT
  5
6A10
330
680F
100
AcDbEntity
  8
SP
370
    -2
100
AcDbBlockReference
  2
_OPEN
 10
19298.74606377954
 20
3961.442208402474
 30
0.0
 41
37.5
 42
37.5
 43
37.5
 50
180.0
  0
INSERT
  5
6A11
330
680F
100
AcDbEntity
  8
SP
370
    -2
100
AcDbBlockReference
  2
_OPEN
 10
19608.74606377954
 20
3961.442208402474
 30
0.0
 41
37.5
 42
37.5
 43
37.5
  0
MTEXT
  5
6A12
330
680F
100
AcDbEntity
  8
SP
100
AcDbMText
 10
19453.74606377954
 20
3998.942208402474
 30
0.0
 40
45.0
 41
0.0
 71
     5
 72
     5
  1
\A1;310
 73
     1
 44
1.0
1001
ACAD
1000
MTEXTBEGIN
1070
    73
1070
     1
1070
    44
1040
1.0
1070
    74
1070
     0
1000
MTEXTEND
  0
POINT
  5
6A13
330
680F
100
AcDbEntity
  8
Defpoints
 62
     0
100
AcDbPoint
 10
19298.74606377954
 20
4066.442208402476
 30
0.0
  0
POINT
  5
6A14
330
680F
100
AcDbEntity
  8
Defpoints
 62
     0
100
AcDbPoint
 10
19608.74606377954
 20
4066.442208402475
 30
0.0
  0
POINT
  5
6A15
330
680F
100
AcDbEntity
  8
Defpoints
 62
     0
100
AcDbPoint
 10
19608.74606377954
 20
3961.442208402474
 30
0.0
  0
ENDBLK
  5
681A
330
680F
100
AcDbEntity
  8
0
100
AcDbBlockEnd
  0
BLOCK
  5
6831
330
6827
100
AcDbEntity
  8
0
100
AcDbBlockBegin
  2
*D23
 70
     1
 10
0.0
 20
0.0
 30
0.0
  3
*D23
  1

  0
LINE
  5
6D80
330
6827
100
AcDbEntity
  8
SP
370
    -2
100
AcDbLine
 10
19866.74606377955
 20
4679.942208402476
 30
0.0
 11
19982.96065229132
 21
4679.942208402476
 31
0.0
  0
LINE
  5
6D81
330
6827
100
AcDbEntity
  8
SP
370
    -2
100
AcDbLine
 10
19866.74606377955
 20
4364.942208402476
 30
0.0
 11
19982.96065229132
 21
4364.942208402476
 31
0.0
  0
LINE
  5
6D82
330
6827
100
AcDbEntity
  8
SP
370
    -2
100
AcDbLine
 10
19967.96065229132
 20
4642.442208402476
 30
0.0
 11
19967.96065229132
 21
4402.442208402476
 31
0.0
  0
INSERT
  5
6D83
330
6827
100
AcDbEntity
  8
SP
370
    -2
100
AcDbBlockReference
  2
_OPEN
 10
19967.96065229132
 20
4679.942208402476
 30
0.0
 41
37.5
 42
37.5
 43
37.5
 50
90.0
  0
INSERT
  5
6D84
330
6827
100
AcDbEntity
  8
SP
370
    -2
100
AcDbBlockReference
  2
_OPEN
 10
19967.96065229132
 20
4364.942208402476
 30
0.0
 41
37.5
 42
37.5
 43
37.5
 50
270.0
  0
MTEXT
  5
6D85
330
6827
100
AcDbEntity
  8
SP
100
AcDbMText
 10
19930.46065229132
 20
4522.44220840247
 30
0.0
 40
45.0
 41
0.0
 71
     5
 72
     1
  1
\A1;\U+03C6315
 11
0.0000000000000001
 21
1.0
 31
0.0
 73
     1
 44
1.0
1001
ACAD
1000
MTEXTBEGIN
1070
    73
1070
     1
1070
    44
1040
1.0
1070
    74
1070
     0
1000
MTEXTEND
  0
POINT
  5
6D86
330
6827
100
AcDbEntity
  8
Defpoints
 62
     0
100
AcDbPoint
 10
19851.74606377955
 20
4679.942208402476
 30
0.0
  0
POINT
  5
6D87
330
6827
100
AcDbEntity
  8
Defpoints
 62
     0
100
AcDbPoint
 10
19851.74606377955
 20
4364.942208402476
 30
0.0
  0
POINT
  5
6D88
330
6827
100
AcDbEntity
  8
Defpoints
 62
     0
100
AcDbPoint
 10
19967.96065229132
 20
4364.942208402476
 30
0.0
  0
ENDBLK
  5
6832
330
6827
100
AcDbEntity
  8
0
100
AcDbBlockEnd
  0
BLOCK
  5
6D96
330
6D95
100
AcDbEntity
  8
0
100
AcDbBlockBegin
  2
*D30
 70
     1
 10
0.0
 20
0.0
 30
0.0
  3
*D30
  1

  0
LINE
  5
6DD7
330
6D95
100
AcDbEntity
  8
SP
370
    -2
100
AcDbLine
 10
19730.74606377954
 20
4934.704780904065
 30
0.0
 11
19730.74606377954
 21
4969.729428518949
 31
0.0
  0
LINE
  5
6DD8
330
6D95
100
AcDbEntity
  8
SP
370
    -2
100
AcDbLine
 10
19309.74606377954
 20
4621.023108402475
 30
0.0
 11
19309.74606377954
 21
4969.729428518949
 31
0.0
  0
LINE
  5
6DD9
330
6D95
100
AcDbEntity
  8
SP
370
    -2
100
AcDbLine
 10
19693.24606377954
 20
4954.729428518949
 30
0.0
 11
19347.24606377954
 21
4954.729428518949
 31
0.0
  0
INSERT
  5
6DDA
330
6D95
100
AcDbEntity
  8
SP
370
    -2
100
AcDbBlockReference
  2
_OPEN
 10
19730.74606377954
 20
4954.729428518949
 30
0.0
 41
37.5
 42
37.5
 43
37.5
  0
INSERT
  5
6DDB
330
6D95
100
AcDbEntity
  8
SP
370
    -2
100
AcDbBlockReference
  2
_OPEN
 10
19309.74606377954
 20
4954.729428518949
 30
0.0
 41
37.5
 42
37.5
 43
37.5
 50
180.0
  0
MTEXT
  5
6DDC
330
6D95
100
AcDbEntity
  8
SP
100
AcDbMText
 10
19520.24606377954
 20
5004.015142804664
 30
0.0
 40
45.0
 41
0.0
 71
     5
 72
     1
  1
\A1;(420)
 73
     1
 44
1.0
1001
ACAD
1000
MTEXTBEGIN
1070
    73
1070
     1
1070
    44
1040
1.0
1070
    74
1070
     0
1000
MTEXTEND
  0
POINT
  5
6DDD
330
6D95
100
AcDbEntity
  8
Defpoints
 62
     0
100
AcDbPoint
 10
19730.74606377954
 20
4919.704780904066
 30
0.0
  0
POINT
  5
6DDE
330
6D95
100
AcDbEntity
  8
Defpoints
 62
     0
100
AcDbPoint
 10
19309.74606377954
 20
4606.023108402475
 30
0.0
  0
POINT
  5
6DDF
330
6D95
100
AcDbEntity
  8
Defpoints
 62
     0
100
AcDbPoint
 10
19309.74606377954
 20
4954.729428518949
 30
0.0
  0
ENDBLK
  5
6D97
330
6D95
100
AcDbEntity
  8
0
100
AcDbBlockEnd
  0
BLOCK
  5
6DA3
330
6DA2
100
AcDbEntity
  8
0
100
AcDbBlockBegin
  2
*D31
 70
     1
 10
0.0
 20
0.0
 30
0.0
  3
*D31
  1

  0
LINE
  5
6DC1
330
6DA2
100
AcDbEntity
  8
SP
370
    -2
100
AcDbLine
 10
19608.74606377954
 20
4051.442208402475
 30
0.0
 11
19608.74606377954
 21
3946.442208402474
 31
0.0
  0
LINE
  5
6DC2
330
6DA2
100
AcDbEntity
  8
SP
370
    -2
100
AcDbLine
 10
19730.74606377954
 20
4153.55860072051
 30
0.0
 11
19730.74606377954
 21
3946.442208402474
 31
0.0
  0
LINE
  5
6DC3
330
6DA2
100
AcDbEntity
  8
SP
370
    -2
100
AcDbLine
 10
19571.24606377954
 20
3961.442208402474
 30
0.0
 11
19533.74606377954
 21
3961.442208402474
 31
0.0
  0
LINE
  5
6DC4
330
6DA2
100
AcDbEntity
  8
SP
370
    -2
100
AcDbLine
 10
19768.24606377954
 20
3961.442208402474
 30
0.0
 11
19805.74606377954
 21
3961.442208402474
 31
0.0
  0
MTEXT
  5
6DC5
330
6DA2
100
AcDbEntity
  8
SP
100
AcDbMText
 10
19852.03970010176
 20
3994.15072860378
 30
0.0
 40
45.0
 41
0.0
 71
     5
 72
     1
  1
\A1;122
 73
     1
 44
1.0
1001
ACAD
1000
MTEXTBEGIN
1070
    73
1070
     1
1070
    44
1040
1.0
1070
    74
1070
     0
1000
MTEXTEND
  0
LINE
  5
6DC6
330
6DA2
100
AcDbEntity
  8
SP
370
    -2
100
AcDbLine
 10
19608.74606377954
 20
3961.442208402474
 30
0.0
 11
19730.74606377954
 21
3961.442208402474
 31
0.0
  0
INSERT
  5
6DC7
330
6DA2
100
AcDbEntity
  8
SP
370
    -2
100
AcDbBlockReference
  2
_OPEN
 10
19608.74606377954
 20
3961.442208402474
 30
0.0
 41
37.5
 42
37.5
 43
37.5
  0
INSERT
  5
6DC8
330
6DA2
100
AcDbEntity
  8
SP
370
    -2
100
AcDbBlockReference
  2
_OPEN
 10
19730.74606377954
 20
3961.442208402474
 30
0.0
 41
37.5
 42
37.5
 43
37.5
 50
180.0
  0
POINT
  5
6DC9
330
6DA2
100
AcDbEntity
  8
Defpoints
 62
     0
100
AcDbPoint
 10
19608.74606377954
 20
4066.442208402475
 30
0.0
  0
POINT
  5
6DCA
330
6DA2
100
AcDbEntity
  8
Defpoints
 62
     0
100
AcDbPoint
 10
19730.74606377954
 20
4168.558600720511
 30
0.0
  0
POINT
  5
6DCB
330
6DA2
100
AcDbEntity
  8
Defpoints
 62
     0
100
AcDbPoint
 10
19730.74606377954
 20
3961.442208402474
 30
0.0
  0
ENDBLK
  5
6DA4
330
6DA2
100
AcDbEntity
  8
0
100
AcDbBlockEnd
  0
ENDSEC
  0
SECTION
  2
ENTITIES
  0
LINE
  5
2CF0
330
19
100
AcDbEntity
  8
4
100
AcDbLine
 10
17345.59771503509
 20
2822.809791742034
 30
0.0
 11
17345.59771503509
 21
7247.809791742034
 31
0.0
  0
LINE
  5
2CF1
330
19
100
AcDbEntity
  8
4
100
AcDbLine
 10
20495.59771503509
 20
7247.809791742034
 30
0.0
 11
20495.59771503509
 21
2822.809791742034
 31
0.0
  0
LINE
  5
2CF2
330
19
100
AcDbEntity
  8
4
100
AcDbLine
 10
20495.59771503509
 20
2822.809791742034
 30
0.0
 11
17345.59771503509
 21
2822.809791742034
 31
0.0
  0
TEXT
  5
2D01
330
19
100
AcDbEntity
  8
4
100
AcDbText
 10
18825.57945841331
 20
3298.549168161949
 30
0.0
 40
75.0
  1
MF＃2-7
100
AcDbText
  0
TEXT
  5
2D03
330
19
100
AcDbEntity
  8
4
100
AcDbText
 10
18812.11583326659
 20
3456.667445178387
 30
0.0
 40
75.0
  1
ミツヤ多翼送風機
100
AcDbText
  0
LINE
  5
2D04
330
19
100
AcDbEntity
  8
4
100
AcDbLine
 10
18020.59771503509
 20
3572.809791742034
 30
0.0
 11
19820.59771503509
 21
3572.809791742034
 31
0.0
  0
LINE
  5
2D05
330
19
100
AcDbEntity
  8
4
100
AcDbLine
 10
18020.59771503509
 20
3422.809791742034
 30
0.0
 11
19820.59771503509
 21
3422.809791742034
 31
0.0
  0
LINE
  5
2D06
330
19
100
AcDbEntity
  8
4
100
AcDbLine
 10
18020.59771503509
 20
3272.809791742034
 30
0.0
 11
19820.59771503509
 21
3272.809791742034
 31
0.0
  0
LINE
  5
2D09
330
19
100
AcDbEntity
  8
4
100
AcDbLine
 10
18020.59771503509
 20
3572.809791742034
 30
0.0
 11
18020.59771503509
 21
3272.809791742034
 31
0.0
  0
TEXT
  5
2D0A
330
19
100
AcDbEntity
  8
4
100
AcDbText
 10
18074.98487407229
 20
3305.27752684005
 30
0.0
 40
75.0
  1
機器型番
100
AcDbText
  0
TEXT
  5
2D0B
330
19
100
AcDbEntity
  8
4
100
AcDbText
 10
18078.35083630545
 20
3470.124330541953
 30
0.0
 40
75.0
  1
機器名称
100
AcDbText
  0
LINE
  5
2D0C
330
19
100
AcDbEntity
  8
4
100
AcDbLine
 10
18770.59771503509
 20
3572.809791742034
 30
0.0
 11
18770.59771503509
 21
3272.809791742034
 31
0.0
  0
LINE
  5
2D0D
330
19
100
AcDbEntity
  8
4
100
AcDbLine
 10
19820.59771503509
 20
3572.809791742034
 30
0.0
 11
19820.59771503509
 21
3272.809791742034
 31
0.0
  0
TEXT
  5
2D0E
330
19
100
AcDbEntity
  8
4
100
AcDbText
 10
17818.48108722505
 20
6396.289008061549
 30
0.0
 40
80.99999999999999
  1
右回転左横向
100
AcDbText
  0
LINE
  5
2D0F
330
19
100
AcDbEntity
  8
4
100
AcDbLine
 10
17345.59771503509
 20
7247.809791742034
 30
0.0
 11
20495.59771503509
 21
7247.809791742034
 31
0.0
  0
LINE
  5
2D10
330
19
100
AcDbEntity
  8
4
100
AcDbLine
 10
17720.59771503509
 20
6826.922923139242
 30
0.0
 11
20120.5977150351
 21
6826.922923139242
 31
0.0
  0
LINE
  5
2D11
330
19
100
AcDbEntity
  8
4
100
AcDbLine
 10
17720.59771503509
 20
6526.922923139242
 30
0.0
 11
20120.5977150351
 21
6526.922923139242
 31
0.0
  0
LINE
  5
2E4B
330
19
100
AcDbEntity
  8
4
100
AcDbLine
 10
17720.59771503509
 20
6826.922923139242
 30
0.0
 11
17720.59771503509
 21
6526.922923139242
 31
0.0
  0
LINE
  5
2F6C
330
19
100
AcDbEntity
  8
4
100
AcDbLine
 10
20120.5977150351
 20
6844.705166430135
 30
0.0
 11
19506.52384857489
 21
6844.705166430135
 31
0.0
  0
LINE
  5
2F6D
330
19
100
AcDbEntity
  8
4
100
AcDbLine
 10
19506.52384857489
 20
7002.788184066663
 30
0.0
 11
20120.5977150351
 21
7002.788184066663
 31
0.0
  0
TEXT
  5
2F6F
330
19
100
AcDbEntity
  8
4
100
AcDbText
 10
18077.69207095238
 20
6623.63125604098
 30
0.0
 40
108.0
  1
遠心式片吸込直動形多翼ファン
100
AcDbText
  0
LINE
  5
2F7D
330
19
100
AcDbEntity
  8
4
100
AcDbLine
 10
19506.52384857489
 20
6844.705166430135
 30
0.0
 11
19506.52384857489
 21
7002.788184066663
 31
0.0
  0
TEXT
  5
2F7E
330
19
100
AcDbEntity
  8
4
100
AcDbText
 10
19549.05205390902
 20
6881.901413984997
 30
0.0
 40
84.00000000000002
  1
No.
100
AcDbText
  0
LINE
  5
2F7F
330
19
100
AcDbEntity
  8
4
100
AcDbLine
 10
20120.5977150351
 20
6826.922923139242
 30
0.0
 11
20120.5977150351
 21
6526.922923139242
 31
0.0
  0
LINE
  5
2F80
330
19
100
AcDbEntity
  8
4
100
AcDbLine
 10
20120.5977150351
 20
7002.788184066663
 30
0.0
 11
20120.5977150351
 21
6844.705166430135
 31
0.0
  0
LINE
  5
2F81
330
19
100
AcDbEntity
  8
4
100
AcDbLine
 10
20495.59771503509
 20
7247.809791742034
 30
0.0
 11
20495.59771503509
 21
7247.809791742034
 31
0.0
  0
TEXT
  5
614D
330
19
100
AcDbEntity
  8
4
100
AcDbText
 10
19524.12014238469
 20
6397.953053740807
 30
0.0
 40
80.99999999999999
  1
縮尺：1/15
100
AcDbText
  0
TEXT
  5
614E
330
19
100
AcDbEntity
  8
4
100
AcDbText
 10
18533.95114513362
 20
6397.953053740807
 30
0.0
 40
80.99999999999999
  1
床置防振ベッド型
100
AcDbText
  0
ARC
  5
65FC
330
19
100
AcDbEntity
  8
1
100
AcDbCircle
 10
18641.89863623604
 20
5972.169849113564
 30
0.0
 40
15.0
100
AcDbArc
 50
0.0
 51
90.0
  0
ARC
  5
65FD
330
19
100
AcDbEntity
  8
1
100
AcDbCircle
 10
18641.89863623604
 20
5776.169849113564
 30
0.0
 40
15.0
100
AcDbArc
 50
270.0
 51
0.0
  0
LINE
  5
65FE
330
19
100
AcDbEntity
  8
2
100
AcDbLine
 10
18718.26176508195
 20
5874.169849113564
 30
0.0
 11
18095.27708796955
 21
5874.169849113564
 31
0.0
1001
ACAD
1000
ASC_BOUNDS
1002
{
1070
    19
1005
0
1005
0
1002
}
  0
LWPOLYLINE
  5
65FF
330
19
100
AcDbEntity
  8
1
100
AcDbPolyline
 90
        3
 70
     0
 43
0.0
 10
18595.80616675989
 20
4317.442208402476
 42
0.2162148363065116
 10
18651.94884751269
 20
4550.340025210529
 42
0.1298622998199493
 10
18597.89863623605
 20
4661.692013394549
 42
0.3153658436290411
  0
LWPOLYLINE
  5
6600
330
19
100
AcDbEntity
  8
1
100
AcDbPolyline
 90
        3
 70
     0
 43
0.0
 10
18603.69121362896
 20
4311.29192093987
 42
0.2162335382726867
 10
18661.76612604572
 20
4552.24304555045
 42
0.1298839697351506
 10
18605.48109200873
 20
4668.211703912918
 42
0.1298839697351506
  0
LINE
  5
6601
330
19
100
AcDbEntity
  8
2
100
AcDbLine
 10
18087.95512638847
 20
4522.442208402477
 30
0.0
 11
18682.20066173971
 21
4522.442208402477
 31
0.0
  0
DIMENSION
  5
6602
330
19
100
AcDbEntity
  8
SP
100
AcDbDimension
  2
*D5
 10
18657.12991786988
 20
4858.697450085385
 30
0.0
 11
18525.01427705296
 21
4896.197450085384
 31
0.0
 70
    32
 71
     5
 42
-1.0
  3
GOD
100
AcDbAlignedDimension
 13
18392.89863623605
 23
4795.440734356559
 33
0.0
 14
18657.12991786988
 24
4495.77178559009
 34
0.0
 50
180.0
100
AcDbRotatedDimension
1001
ACAD
1000
DSTYLE
1002
{
1070
   271
1070
     0
1002
}
  0
LINE
  5
6603
330
19
100
AcDbEntity
  8
2
100
AcDbLine
 10
18392.89863623604
 20
5387.989822438299
 30
0.0
 11
18392.89863623604
 21
6015.171201559531
 31
0.0
  0
LINE
  5
6604
330
19
100
AcDbEntity
  8
1
100
AcDbLine
 10
18144.09863623604
 20
6007.169849113564
 30
0.0
 11
18144.09863623604
 21
5741.169849113564
 31
0.0
  0
LINE
  5
6605
330
19
100
AcDbEntity
  8
1
100
AcDbLine
 10
18162.89863623604
 20
5968.369849113565
 30
0.0
 11
18162.89863623604
 21
5779.969849113565
 31
0.0
  0
LINE
  5
6606
330
19
100
AcDbEntity
  8
1
100
AcDbLine
 10
18142.89863623604
 20
6007.169849113562
 30
0.0
 11
18142.89863623604
 21
5741.169849113564
 31
0.0
  0
DIMENSION
  5
6607
330
19
100
AcDbEntity
  8
SP
100
AcDbDimension
  2
*D6
 10
17969.02593379986
 20
5874.169849113564
 30
0.0
 11
17931.52593379986
 21
6016.669849113567
 31
0.0
 70
    32
 71
     5
 42
-1.0
  3
GOD
100
AcDbAlignedDimension
 13
18142.89863623604
 23
5752.169849113562
 33
0.0
 14
18095.27708796955
 24
5874.169849113564
 34
0.0
 50
90.0
100
AcDbRotatedDimension
  0
LWPOLYLINE
  5
6608
330
19
100
AcDbEntity
  8
1
100
AcDbPolyline
 90
        3
 70
     0
 43
0.0
 10
18509.57705033583
 20
4736.732463892031
 42
0.1343314877425494
 10
18376.58050724229
 20
4751.685495228674
 42
0.3163064660587118
 10
18199.70071611811
 20
4580.696832707657
 42
0.3163064660587118
  0
LINE
  5
6609
330
19
100
AcDbEntity
  8
2
100
AcDbLine
 10
18392.89863623605
 20
4031.072318029519
 30
0.0
 11
18392.89863623605
 21
4795.440734356559
 31
0.0
  0
DIMENSION
  5
660A
330
19
100
AcDbEntity
  8
SP
100
AcDbDimension
  2
*D7
 10
18142.89863623605
 20
4858.697450085385
 30
0.0
 11
18267.89863623605
 21
4896.197450085384
 31
0.0
 70
    32
 71
     5
 42
-1.0
  3
GOD
100
AcDbAlignedDimension
 13
18392.89863623605
 23
4795.440734356559
 33
0.0
 14
18142.89863623605
 24
4543.942208402481
 34
0.0
 50
180.0
100
AcDbRotatedDimension
  0
DIMENSION
  5
660B
330
19
100
AcDbEntity
  8
SP
100
AcDbDimension
  2
*D8
 10
17932.89863623605
 20
4131.442208402478
 30
0.0
 11
17880.81848848751
 21
4141.963182972953
 31
0.0
 70
   160
 71
     5
 42
-1.0
  3
GOD
100
AcDbAlignedDimension
 13
18142.89863623605
 23
4167.442208402477
 33
0.0
 14
18142.89863623605
 24
4131.442208402478
 34
0.0
 50
90.0
100
AcDbRotatedDimension
1001
ACAD
1000
DSTYLE
1002
{
1070
     3
1000
（<>）
1070
   279
1070
     2
1070
   289
1070
     3
1070
   343
1005
5AD4
1070
   344
1005
5AD4
1002
}
  0
LINE
  5
660C
330
19
100
AcDbEntity
  8
1
100
AcDbLine
 10
18180.59863623606
 20
4605.542208402478
 30
0.0
 11
18180.59863623606
 21
4169.742208402475
 31
0.0
  0
LINE
  5
660D
330
19
100
AcDbEntity
  8
1
100
AcDbLine
 10
18182.89863623606
 20
4607.364530561104
 30
0.0
 11
18182.89863623606
 21
4167.442208402477
 31
0.0
  0
LINE
  5
660E
330
19
100
AcDbEntity
  8
1
100
AcDbLine
 10
18602.89863623604
 20
4607.364530561104
 30
0.0
 11
18602.89863623605
 21
4167.442208402477
 31
0.0
  0
LINE
  5
660F
330
19
100
AcDbEntity
  8
1
100
AcDbLine
 10
18605.19863623604
 20
4605.542208402478
 30
0.0
 11
18605.19863623604
 21
4169.742208402475
 31
0.0
  0
LINE
  5
6610
330
19
100
AcDbEntity
  8
1
100
AcDbLine
 10
18147.19863623604
 20
4209.14220840248
 30
0.0
 11
18162.89863623604
 21
4224.842208402481
 31
0.0
  0
LINE
  5
6611
330
19
100
AcDbEntity
  8
FUTO
100
AcDbLine
 10
18144.09863623604
 20
4185.942208402479
 30
0.0
 11
18144.09863623605
 21
4543.942208402479
 31
0.0
  0
LINE
  5
6612
330
19
100
AcDbEntity
  8
FUTO
100
AcDbLine
 10
18142.89863623605
 20
4543.942208402481
 30
0.0
 11
18142.89863623604
 21
4185.94220840248
 31
0.0
  0
LWPOLYLINE
  5
6613
330
19
100
AcDbEntity
  8
1
100
AcDbPolyline
 90
        3
 70
     0
 43
0.0
 10
18162.89863623604
 20
4197.442208402479
 10
18367.41081297473
 20
4197.442208402474
 42
0.2269714708976296
 10
18603.60935597147
 20
4311.188390518306
  0
LWPOLYLINE
  5
6614
330
19
100
AcDbEntity
  8
1
100
AcDbPolyline
 90
        3
 70
     0
 43
0.0
 10
18142.89863623604
 20
4207.44220840248
 10
18367.39863623604
 20
4207.442208402475
 42
0.2269607506063405
 10
18595.80616675989
 20
4317.442208402476
 42
0.129402372482195
  0
DIMENSION
  5
6615
330
19
100
AcDbEntity
  8
SP
100
AcDbDimension
  2
*D9
 10
18037.89863623604
 20
4207.44220840248
 30
0.0
 11
18000.39863623604
 21
4364.942208402482
 31
0.0
 70
    32
 71
     5
 42
-1.0
  3
GOD
100
AcDbAlignedDimension
 13
18087.95512638847
 23
4522.442208402477
 33
0.0
 14
18142.89863623604
 24
4207.44220840248
 34
0.0
 50
90.0
100
AcDbRotatedDimension
  0
DIMENSION
  5
6616
330
19
100
AcDbEntity
  8
SP
100
AcDbDimension
  2
*D10
 10
17932.89863623605
 20
4522.442208402477
 30
0.0
 11
17895.39863623605
 21
4344.94220840248
 31
0.0
 70
    32
 71
     5
 42
-1.0
  3
GOD
100
AcDbAlignedDimension
 13
18142.89863623605
 23
4167.442208402477
 33
0.0
 14
18087.95512638847
 24
4522.442208402477
 34
0.0
 50
90.0
100
AcDbRotatedDimension
  0
DIMENSION
  5
6617
330
19
100
AcDbEntity
  8
SP
100
AcDbDimension
  2
*D11
 10
18142.89863623606
 20
3961.442208402477
 30
0.0
 11
18267.89863623606
 21
3998.942208402477
 31
0.0
 70
    32
 71
     5
 42
-1.0
  3
GOD
100
AcDbAlignedDimension
 13
18392.89863623605
 23
4031.07231802952
 33
0.0
 14
18142.89863623606
 24
4066.442208402476
 34
0.0
100
AcDbRotatedDimension
  0
DIMENSION
  5
6618
330
19
100
AcDbEntity
  8
SP
100
AcDbDimension
  2
*D12
 10
18642.89863623605
 20
3856.442208402478
 30
0.0
 11
18392.89863623605
 21
3893.942208402478
 31
0.0
 70
    32
 71
     5
 42
-1.0
  3
GOD
100
AcDbAlignedDimension
 13
18142.89863623606
 23
4066.442208402476
 33
0.0
 14
18642.89863623605
 24
4066.442208402476
 34
0.0
100
AcDbRotatedDimension
  0
LINE
  5
6619
330
19
100
AcDbEntity
  8
FUTO
100
AcDbLine
 10
18182.89863623606
 20
4091.442208402477
 30
0.0
 11
18602.89863623605
 21
4091.442208402477
 31
0.0
  0
LINE
  5
661A
330
19
100
AcDbEntity
  8
FUTO
100
AcDbLine
 10
18182.89863623606
 20
4131.442208402478
 30
0.0
 11
18602.89863623605
 21
4131.442208402478
 31
0.0
  0
LINE
  5
661B
330
19
100
AcDbEntity
  8
FUTO
100
AcDbLine
 10
18142.89863623606
 20
4167.442208402477
 30
0.0
 11
18642.89863623605
 21
4167.442208402477
 31
0.0
  0
DIMENSION
  5
661C
330
19
100
AcDbEntity
  8
SP
100
AcDbDimension
  2
*D13
 10
17932.89863623605
 20
4066.442208402476
 30
0.0
 11
17895.39863623605
 21
3938.06033111988
 31
0.0
 70
    32
 71
     5
 42
-1.0
  3
GOD
100
AcDbAlignedDimension
 13
18142.89863623605
 23
4131.442208402478
 33
0.0
 14
18142.89863623605
 24
4066.442208402476
 34
0.0
 50
90.0
100
AcDbRotatedDimension
1001
ACAD
1000
DSTYLE
1002
{
1070
     6
1000
DOT
1002
}
  0
LINE
  5
661D
330
19
100
AcDbEntity
  8
FUTO
100
AcDbLine
 10
18142.89863623606
 20
4069.642208402478
 30
0.0
 11
18142.89863623606
 21
4066.442208402476
 31
0.0
  0
LINE
  5
661E
330
19
100
AcDbEntity
  8
FUTO
100
AcDbLine
 10
18182.89863623606
 20
4131.442208402478
 30
0.0
 11
18182.89863623606
 21
4066.442208402476
 31
0.0
  0
LINE
  5
661F
330
19
100
AcDbEntity
  8
FUTO
100
AcDbLine
 10
18142.89863623606
 20
4066.442208402476
 30
0.0
 11
18182.89863623606
 21
4066.442208402476
 31
0.0
  0
LINE
  5
6620
330
19
100
AcDbEntity
  8
FUTO
100
AcDbLine
 10
18142.89863623606
 20
4069.642208402477
 30
0.0
 11
18179.69863623606
 21
4069.642208402477
 31
0.0
  0
LINE
  5
6621
330
19
100
AcDbEntity
  8
FUTO
100
AcDbLine
 10
18142.89863623606
 20
4128.242208402477
 30
0.0
 11
18179.69863623606
 21
4128.242208402477
 31
0.0
  0
LINE
  5
6622
330
19
100
AcDbEntity
  8
FUTO
100
AcDbLine
 10
18142.89863623606
 20
4131.442208402478
 30
0.0
 11
18182.89863623606
 21
4131.442208402478
 31
0.0
  0
LINE
  5
6623
330
19
100
AcDbEntity
  8
1
100
AcDbLine
 10
18142.89863623606
 20
4169.742208402476
 30
0.0
 11
18180.59863623606
 21
4169.742208402476
 31
0.0
  0
LINE
  5
6624
330
19
100
AcDbEntity
  8
FUTO
100
AcDbLine
 10
18142.89863623606
 20
4131.442208402478
 30
0.0
 11
18142.89863623606
 21
4128.242208402477
 31
0.0
  0
LINE
  5
6625
330
19
100
AcDbEntity
  8
2
100
AcDbLine
 10
18160.89863623605
 20
4119.095322283373
 30
0.0
 11
18160.89863623605
 21
4180.946220066309
 31
0.0
  0
LINE
  5
6626
330
19
100
AcDbEntity
  8
1
100
AcDbLine
 10
18142.89863623606
 20
4169.742208402476
 30
0.0
 11
18142.89863623606
 21
4167.442208402477
 31
0.0
  0
LINE
  5
6627
330
19
100
AcDbEntity
  8
FUTO
100
AcDbLine
 10
18142.89863623604
 20
4185.94220840248
 30
0.0
 11
18144.09863623604
 21
4185.942208402479
 31
0.0
  0
ARC
  5
6628
330
19
100
AcDbEntity
  8
1
100
AcDbCircle
 10
18147.89863623603
 20
4208.442208402479
 30
0.0
 40
1.0
100
AcDbArc
 50
126.8698976457554
 51
270.0
  0
LWPOLYLINE
  5
6629
330
19
100
AcDbEntity
  8
CT
100
AcDbPolyline
 90
        2
 70
     0
 43
0.0
 10
18137.83547302104
 20
4195.94220840248
 10
18150.10378330499
 20
4195.94220840248
  0
LINE
  5
662A
330
19
100
AcDbEntity
  8
FUTO
100
AcDbLine
 10
18179.69863623606
 20
4128.242208402477
 30
0.0
 11
18179.69863623606
 21
4069.642208402477
 31
0.0
  0
LINE
  5
662B
330
19
100
AcDbEntity
  8
FUTO
100
AcDbLine
 10
18162.89863623604
 20
4197.442208402479
 30
0.0
 11
18162.89863623604
 21
4207.442208402478
 31
0.0
  0
DIMENSION
  5
662C
330
19
100
AcDbEntity
  8
SP
100
AcDbDimension
  2
*D14
 10
18642.89863623605
 20
3961.442208402477
 30
0.0
 11
18517.89863623605
 21
3998.942208402477
 31
0.0
 70
    32
 71
     5
 42
-1.0
  3
GOD
100
AcDbAlignedDimension
 13
18392.89863623605
 23
4031.07231802952
 33
0.0
 14
18642.89863623605
 24
4066.442208402476
 34
0.0
100
AcDbRotatedDimension
  0
LINE
  5
662D
330
19
100
AcDbEntity
  8
FUTO
100
AcDbLine
 10
18602.89863623605
 20
4131.442208402478
 30
0.0
 11
18602.89863623605
 21
4066.442208402476
 31
0.0
  0
LINE
  5
662E
330
19
100
AcDbEntity
  8
FUTO
100
AcDbLine
 10
18642.89863623605
 20
4069.642208402478
 30
0.0
 11
18642.89863623605
 21
4066.442208402476
 31
0.0
  0
LINE
  5
662F
330
19
100
AcDbEntity
  8
FUTO
100
AcDbLine
 10
18642.89863623605
 20
4066.442208402476
 30
0.0
 11
18602.89863623605
 21
4066.442208402476
 31
0.0
  0
LINE
  5
6630
330
19
100
AcDbEntity
  8
FUTO
100
AcDbLine
 10
18606.09863623605
 20
4128.242208402477
 30
0.0
 11
18606.09863623605
 21
4069.642208402477
 31
0.0
  0
LINE
  5
6631
330
19
100
AcDbEntity
  8
FUTO
100
AcDbLine
 10
18642.89863623605
 20
4131.442208402478
 30
0.0
 11
18642.89863623605
 21
4128.242208402477
 31
0.0
  0
LINE
  5
6632
330
19
100
AcDbEntity
  8
FUTO
100
AcDbLine
 10
18642.89863623605
 20
4131.442208402478
 30
0.0
 11
18602.89863623605
 21
4131.442208402478
 31
0.0
  0
LINE
  5
6633
330
19
100
AcDbEntity
  8
FUTO
100
AcDbLine
 10
18642.89863623605
 20
4128.242208402477
 30
0.0
 11
18606.09863623605
 21
4128.242208402477
 31
0.0
  0
LINE
  5
6634
330
19
100
AcDbEntity
  8
FUTO
100
AcDbLine
 10
18642.89863623605
 20
4069.642208402477
 30
0.0
 11
18606.09863623605
 21
4069.642208402477
 31
0.0
  0
LINE
  5
6635
330
19
100
AcDbEntity
  8
2
100
AcDbLine
 10
18624.89863623605
 20
4119.095322283373
 30
0.0
 11
18624.89863623605
 21
4180.946220066309
 31
0.0
  0
LINE
  5
6636
330
19
100
AcDbEntity
  8
1
100
AcDbLine
 10
18642.89863623605
 20
4169.742208402476
 30
0.0
 11
18642.89863623605
 21
4167.442208402477
 31
0.0
  0
LINE
  5
6637
330
19
100
AcDbEntity
  8
1
100
AcDbLine
 10
18642.89863623605
 20
4169.742208402476
 30
0.0
 11
18605.19863623604
 21
4169.742208402476
 31
0.0
  0
LINE
  5
6638
330
19
100
AcDbEntity
  8
1
100
AcDbLine
 10
18302.89863623605
 20
4727.442208402477
 30
0.0
 11
18180.59863623606
 21
4605.542208402478
 31
0.0
  0
LINE
  5
6639
330
19
100
AcDbEntity
  8
1
100
AcDbLine
 10
18222.89863623606
 20
4382.442208402477
 30
0.0
 11
18392.89863623605
 21
4382.442208402477
 31
0.0
  0
LINE
  5
663A
330
19
100
AcDbEntity
  8
1
100
AcDbLine
 10
18182.89863623606
 20
4422.442208402477
 30
0.0
 11
18602.89863623605
 21
4422.442208402475
 31
0.0
  0
LWPOLYLINE
  5
663B
330
19
100
AcDbEntity
  8
1
100
AcDbPolyline
 90
        3
 70
     0
 43
0.0
 10
18505.87689453658
 20
4727.442208402476
 42
0.1343280102757561
 10
18378.12861095576
 20
4741.806052611681
 42
0.3163019945347412
 10
18209.52144969363
 20
4578.811841450749
 42
0.3153658436290411
  0
LINE
  5
663C
330
19
100
AcDbEntity
  8
1
100
AcDbLine
 10
18225.91292195032
 20
4382.442208402477
 30
0.0
 11
18392.89863623605
 21
4382.442208402477
 31
0.0
  0
CIRCLE
  5
663D
330
19
100
AcDbEntity
  8
CT
100
AcDbCircle
 10
18392.89863623604
 20
4522.442208402477
 30
0.0
 40
169.0
  0
LINE
  5
663E
330
19
100
AcDbEntity
  8
1
100
AcDbLine
 10
18190.19863623604
 20
4422.442208402477
 30
0.0
 11
18595.59863623604
 21
4422.442208402477
 31
0.0
  0
DIMENSION
  5
663F
330
19
100
AcDbEntity
  8
SP
100
AcDbDimension
  2
*D15
 10
17932.89863623605
 20
4744.729428518949
 30
0.0
 11
17895.39863623605
 21
4633.585818460716
 31
0.0
 70
    32
 71
     5
 42
-1.0
  3
GOD
100
AcDbAlignedDimension
 13
18087.95512638847
 23
4522.442208402477
 33
0.0
 14
18415.75234010085
 24
4744.729428518949
 34
0.0
 50
90.0
100
AcDbRotatedDimension
1001
ACAD
1000
DSTYLE
1002
{
1070
   271
1070
     0
1002
}
  0
LINE
  5
6640
330
19
100
AcDbEntity
  8
1
100
AcDbLine
 10
18162.89863623604
 20
4224.842208402482
 30
0.0
 11
18162.89863623605
 21
4506.042208402481
 31
0.0
  0
LINE
  5
6641
330
19
100
AcDbEntity
  8
1
100
AcDbLine
 10
18222.89863623606
 20
4422.442208402477
 30
0.0
 11
18222.89863623606
 21
4222.442208402477
 31
0.0
  0
LINE
  5
6642
330
19
100
AcDbEntity
  8
1
100
AcDbLine
 10
18227.89863623603
 20
4380.774208402477
 30
0.0
 11
18227.89863623603
 21
4225.642208402477
 31
0.0
  0
LINE
  5
6643
330
19
100
AcDbEntity
  8
1
100
AcDbLine
 10
18182.89863623606
 20
4222.442208402477
 30
0.0
 11
18222.89863623606
 21
4222.442208402477
 31
0.0
  0
LINE
  5
6644
330
19
100
AcDbEntity
  8
1
100
AcDbLine
 10
18190.19863623604
 20
4225.642208402477
 30
0.0
 11
18227.89863623603
 21
4225.642208402477
 31
0.0
  0
POINT
  5
6645
330
19
100
AcDbEntity
  8
1
100
AcDbPoint
 10
18142.89863623603
 20
4364.942208402474
 30
0.0
  0
POINT
  5
6646
330
19
100
AcDbEntity
  8
1
100
AcDbPoint
 10
18142.89863623603
 20
4364.942208402474
 30
0.0
  0
LINE
  5
6647
330
19
100
AcDbEntity
  8
FUTO
100
AcDbLine
 10
18182.89863623606
 20
4422.442208402477
 30
0.0
 11
18222.89863623606
 21
4382.442208402477
 31
0.0
  0
LINE
  5
6648
330
19
100
AcDbEntity
  8
1
100
AcDbLine
 10
18190.19863623604
 20
4412.442208402477
 30
0.0
 11
18227.89863623603
 21
4380.774208402477
 31
0.0
  0
LINE
  5
6649
330
19
100
AcDbEntity
  8
CT
100
AcDbLine
 10
18221.44680206974
 20
4476.501827896773
 30
0.0
 11
18236.78342521001
 21
4480.611263681828
 31
0.0
  0
CIRCLE
  5
664A
330
19
100
AcDbEntity
  8
1
100
AcDbCircle
 10
18229.6571715932
 20
4478.701789780145
 30
0.0
 40
4.0
  0
LINE
  5
664B
330
19
100
AcDbEntity
  8
1
100
AcDbLine
 10
18142.89863623605
 20
4523.44220840248
 30
0.0
 11
18163.89863623605
 21
4523.44220840248
 31
0.0
  0
LINE
  5
664C
330
19
100
AcDbEntity
  8
1
100
AcDbLine
 10
18147.19863623605
 20
4521.742208402483
 30
0.0
 11
18162.89863623605
 21
4506.042208402482
 31
0.0
  0
LWPOLYLINE
  5
664D
330
19
100
AcDbEntity
  8
FUTO
100
AcDbPolyline
 90
        2
 70
     0
 43
0.0
 10
18142.89863623605
 20
4543.942208402481
 10
18144.09863623605
 20
4543.942208402481
  0
ARC
  5
664E
330
19
100
AcDbEntity
  8
1
100
AcDbCircle
 10
18147.89863623605
 20
4522.44220840248
 30
0.0
 40
1.0
100
AcDbArc
 50
90.0
 51
233.130102354229
  0
POINT
  5
664F
330
19
100
AcDbEntity
  8
1
100
AcDbPoint
 10
18142.89863623605
 20
4522.44220840248
 30
0.0
  0
LWPOLYLINE
  5
6650
330
19
100
AcDbEntity
  8
CT
100
AcDbPolyline
 90
        2
 70
     0
 43
0.0
 10
18137.83547302105
 20
4533.942208402481
 10
18150.103783305
 20
4533.94220840248
  0
LINE
  5
6651
330
19
100
AcDbEntity
  8
1
100
AcDbLine
 10
18162.89863623605
 20
4523.442208402486
 30
0.0
 11
18162.89863623605
 21
4526.762018529317
 31
0.0
  0
ARC
  5
6652
330
19
100
AcDbEntity
  8
1
100
AcDbCircle
 10
18172.89863623605
 20
4526.762018529311
 30
0.0
 40
10.0
100
AcDbArc
 50
123.4418717894868
 51
180.0
  0
LWPOLYLINE
  5
6653
330
19
100
AcDbEntity
  8
1
100
AcDbPolyline
 90
        2
 70
     0
 43
0.0
 10
18187.89863623605
 20
4539.297300056052
 42
0.1315967463597435
 10
18209.52617599295
 20
4578.836638410492
 42
0.2200089805681688
  0
LWPOLYLINE
  5
6654
330
19
100
AcDbEntity
  8
1
100
AcDbPolyline
 90
        2
 70
     0
 43
0.0
 10
18187.89863623605
 20
4554.996623694883
 42
0.0941668855597806
 10
18199.8100405444
 20
4581.202375493385
 42
0.1987366729981355
  0
LINE
  5
6655
330
19
100
AcDbEntity
  8
CT
100
AcDbLine
 10
18221.44680206974
 20
4568.382588908167
 30
0.0
 11
18236.78342521001
 21
4564.273153123111
 31
0.0
  0
CIRCLE
  5
6656
330
19
100
AcDbEntity
  8
1
100
AcDbCircle
 10
18229.6571715932
 20
4566.182627024795
 30
0.0
 40
4.0
  0
LWPOLYLINE
  5
6657
330
19
100
AcDbEntity
  8
1
100
AcDbPolyline
 90
        3
 70
     0
 43
0.0
 10
18163.89863623605
 20
4523.44220840248
 42
0.101266720201501
 10
18169.39804672281
 20
4524.567563386089
 42
0.0681921917069782
 10
18187.89863623605
 20
4539.297300056052
 42
0.2200089805681688
  0
LWPOLYLINE
  5
6658
330
19
100
AcDbEntity
  8
1
100
AcDbPolyline
 90
        2
 70
     0
 43
0.0
 10
18167.3877292326
 20
4535.106472016471
 42
0.0934525219043797
 10
18187.89863623605
 20
4554.996623694883
 42
0.1987366729981355
  0
ARC
  5
6659
330
19
100
AcDbEntity
  8
1
100
AcDbCircle
 10
18392.89863623604
 20
4522.442208402477
 30
0.0
 40
100.8
100
AcDbArc
 50
285.7970999999919
 51
0.0
  0
ARC
  5
665A
330
19
100
AcDbEntity
  8
1
100
AcDbCircle
 10
18392.89863623604
 20
4522.442208402477
 30
0.0
 40
100.8
100
AcDbArc
 50
0.0
 51
254.5722999998826
  0
LINE
  5
665B
330
19
100
AcDbEntity
  8
1
100
AcDbLine
 10
18562.89863623605
 20
4382.442208402477
 30
0.0
 11
18392.89863623605
 21
4382.442208402477
 31
0.0
  0
LINE
  5
665C
330
19
100
AcDbEntity
  8
1
100
AcDbLine
 10
18559.88435052175
 20
4382.442208402477
 30
0.0
 11
18392.89863623605
 21
4382.442208402477
 31
0.0
  0
ARC
  5
665D
330
19
100
AcDbEntity
  8
1
100
AcDbCircle
 10
18454.89863623604
 20
4432.442208402477
 30
0.0
 40
2.0
100
AcDbArc
 50
90.0
 51
180.0
  0
LINE
  5
665E
330
19
100
AcDbEntity
  8
1
100
AcDbLine
 10
18453.48073623604
 20
4441.173908402476
 30
0.0
 11
18459.33363623604
 21
4435.320908402476
 31
0.0
  0
LINE
  5
665F
330
19
100
AcDbEntity
  8
1
100
AcDbLine
 10
18492.89863623604
 20
4422.442208402477
 30
0.0
 11
18452.89863623604
 21
4422.442208402477
 31
0.0
  0
LINE
  5
6660
330
19
100
AcDbEntity
  8
CT
100
AcDbLine
 10
18346.95825573036
 20
4350.990374236168
 30
0.0
 11
18351.06769151541
 21
4366.326997376435
 31
0.0
  0
LINE
  5
6661
330
19
100
AcDbEntity
  8
CT
100
AcDbLine
 10
18438.83901674175
 20
4350.990374236171
 30
0.0
 11
18434.72958095669
 21
4366.326997376438
 31
0.0
  0
CIRCLE
  5
6662
330
19
100
AcDbEntity
  8
1
100
AcDbCircle
 10
18349.15821761373
 20
4359.200743759625
 30
0.0
 40
4.0
  0
LINE
  5
6663
330
19
100
AcDbEntity
  8
CT
100
AcDbLine
 10
18312.89863623604
 20
4435.822708402477
 30
0.0
 11
18312.89863623604
 21
4418.475608402476
 31
0.0
  0
LINE
  5
6664
330
19
100
AcDbEntity
  8
1
100
AcDbLine
 10
18332.69613623604
 20
4441.553408402477
 30
0.0
 11
18326.46363623604
 21
4435.320908402476
 31
0.0
  0
ARC
  5
6665
330
19
100
AcDbEntity
  8
1
100
AcDbCircle
 10
18324.34223623604
 20
4437.442208402477
 30
0.0
 40
3.0
100
AcDbArc
 50
270.0
 51
314.9999999999263
  0
ARC
  5
6666
330
19
100
AcDbEntity
  8
1
100
AcDbCircle
 10
18330.89863623604
 20
4432.442208402477
 30
0.0
 40
2.0
100
AcDbArc
 50
0.0
 51
90.0
  0
LINE
  5
6667
330
19
100
AcDbEntity
  8
1
100
AcDbLine
 10
18332.89863623604
 20
4422.442208402477
 30
0.0
 11
18332.89863623604
 21
4432.442208402477
 31
0.0
  0
LINE
  5
6668
330
19
100
AcDbEntity
  8
1
100
AcDbLine
 10
18318.89863623604
 20
4422.442208402477
 30
0.0
 11
18318.89863623604
 21
4434.442208402477
 31
0.0
  0
LINE
  5
6669
330
19
100
AcDbEntity
  8
1
100
AcDbLine
 10
18306.89863623604
 20
4434.442208402477
 30
0.0
 11
18306.89863623604
 21
4422.442208402477
 31
0.0
  0
ARC
  5
666A
330
19
100
AcDbEntity
  8
1
100
AcDbCircle
 10
18294.89863623604
 20
4432.442208402477
 30
0.0
 40
2.0
100
AcDbArc
 50
90.0
 51
180.0
  0
LINE
  5
666B
330
19
100
AcDbEntity
  8
1
100
AcDbLine
 10
18292.89863623604
 20
4422.442208402477
 30
0.0
 11
18292.89863623604
 21
4432.442208402477
 31
0.0
  0
LINE
  5
666C
330
19
100
AcDbEntity
  8
1
100
AcDbLine
 10
18293.79083623604
 20
4434.110308402477
 30
0.0
 11
18310.19163623604
 21
4464.772308402477
 31
0.0
  0
LINE
  5
666D
330
19
100
AcDbEntity
  8
1
100
AcDbLine
 10
18292.89863623604
 20
4422.442208402477
 30
0.0
 11
18332.89863623604
 21
4422.442208402477
 31
0.0
  0
LINE
  5
666E
330
19
100
AcDbEntity
  8
1
100
AcDbLine
 10
18294.89863623604
 20
4434.442208402477
 30
0.0
 11
18330.89863623604
 21
4434.442208402477
 31
0.0
  0
LINE
  5
666F
330
19
100
AcDbEntity
  8
CT
100
AcDbLine
 10
18267.38718257544
 20
4396.93075474186
 30
0.0
 11
18278.61436993065
 21
4408.157942097072
 31
0.0
  0
CIRCLE
  5
6670
330
19
100
AcDbEntity
  8
1
100
AcDbCircle
 10
18273.39759021553
 20
4402.941162381946
 30
0.0
 40
4.0
  0
LINE
  5
6671
330
19
100
AcDbEntity
  8
1
100
AcDbLine
 10
18339.44823623604
 20
4436.991908402477
 30
0.0
 11
18332.89863623604
 21
4430.442208402477
 31
0.0
  0
LINE
  5
6672
330
19
100
AcDbEntity
  8
1
100
AcDbLine
 10
18446.64523623604
 20
4436.695708402477
 30
0.0
 11
18452.89863623604
 21
4430.442208402477
 31
0.0
  0
LINE
  5
6673
330
19
100
AcDbEntity
  8
1
100
AcDbLine
 10
18452.89863623604
 20
4422.442208402477
 30
0.0
 11
18452.89863623604
 21
4432.442208402477
 31
0.0
  0
CIRCLE
  5
6674
330
19
100
AcDbEntity
  8
1
100
AcDbCircle
 10
18436.63905485838
 20
4359.200743759629
 30
0.0
 40
4.0
  0
LINE
  5
6675
330
19
100
AcDbEntity
  8
1
100
AcDbLine
 10
18420.51633623604
 20
4425.442208402477
 30
0.0
 11
18365.62923623604
 21
4425.442208402477
 31
0.0
  0
LINE
  5
6676
330
19
100
AcDbEntity
  8
1
100
AcDbLine
 10
18562.89863623605
 20
4422.442208402477
 30
0.0
 11
18562.89863623605
 21
4222.442208402477
 31
0.0
  0
LINE
  5
6677
330
19
100
AcDbEntity
  8
1
100
AcDbLine
 10
18557.89863623604
 20
4380.774208402477
 30
0.0
 11
18557.89863623604
 21
4225.642208402477
 31
0.0
  0
LINE
  5
6678
330
19
100
AcDbEntity
  8
1
100
AcDbLine
 10
18602.89863623605
 20
4222.442208402477
 30
0.0
 11
18562.89863623605
 21
4222.442208402477
 31
0.0
  0
LINE
  5
6679
330
19
100
AcDbEntity
  8
1
100
AcDbLine
 10
18557.89863623604
 20
4225.642208402477
 30
0.0
 11
18595.59863623604
 21
4225.642208402477
 31
0.0
  0
LINE
  5
667A
330
19
100
AcDbEntity
  8
CT
100
AcDbLine
 10
18564.35047040236
 20
4476.501827896787
 30
0.0
 11
18549.01384726209
 21
4480.611263681843
 31
0.0
  0
LINE
  5
667B
330
19
100
AcDbEntity
  8
CT
100
AcDbLine
 10
18518.41008989666
 20
4396.930754741872
 30
0.0
 11
18507.18290254145
 21
4408.157942097084
 31
0.0
  0
CIRCLE
  5
667C
330
19
100
AcDbEntity
  8
1
100
AcDbCircle
 10
18512.39968225658
 20
4402.941162381956
 30
0.0
 40
4.0
  0
LINE
  5
667D
330
19
100
AcDbEntity
  8
CT
100
AcDbLine
 10
18472.89863623604
 20
4435.822708402477
 30
0.0
 11
18472.89863623604
 21
4418.475608402476
 31
0.0
  0
ARC
  5
667E
330
19
100
AcDbEntity
  8
1
100
AcDbCircle
 10
18490.89863623604
 20
4432.442208402477
 30
0.0
 40
2.0
100
AcDbArc
 50
0.0
 51
90.0
  0
LINE
  5
667F
330
19
100
AcDbEntity
  8
1
100
AcDbLine
 10
18478.89863623604
 20
4434.442208402477
 30
0.0
 11
18478.89863623604
 21
4422.442208402477
 31
0.0
  0
LINE
  5
6680
330
19
100
AcDbEntity
  8
1
100
AcDbLine
 10
18492.89863623604
 20
4422.442208402477
 30
0.0
 11
18492.89863623604
 21
4432.442208402477
 31
0.0
  0
LINE
  5
6681
330
19
100
AcDbEntity
  8
1
100
AcDbLine
 10
18466.89863623604
 20
4422.442208402477
 30
0.0
 11
18466.89863623604
 21
4434.442208402477
 31
0.0
  0
LINE
  5
6682
330
19
100
AcDbEntity
  8
1
100
AcDbLine
 10
18491.80783623604
 20
4434.481708402477
 30
0.0
 11
18475.68913623604
 21
4464.616008402477
 31
0.0
  0
ARC
  5
6683
330
19
100
AcDbEntity
  8
1
100
AcDbCircle
 10
18461.45503623604
 20
4437.442208402477
 30
0.0
 40
3.0
100
AcDbArc
 50
225.0000000000737
 51
270.0
  0
LINE
  5
6684
330
19
100
AcDbEntity
  8
1
100
AcDbLine
 10
18490.89863623604
 20
4434.442208402477
 30
0.0
 11
18454.89863623604
 21
4434.442208402477
 31
0.0
  0
LINE
  5
6685
330
19
100
AcDbEntity
  8
FUTO
100
AcDbLine
 10
18602.89863623605
 20
4422.442208402477
 30
0.0
 11
18562.89863623605
 21
4382.442208402477
 31
0.0
  0
CIRCLE
  5
6686
330
19
100
AcDbEntity
  8
1
100
AcDbCircle
 10
18556.1401008789
 20
4478.701789780159
 30
0.0
 40
4.0
  0
LINE
  5
6687
330
19
100
AcDbEntity
  8
1
100
AcDbLine
 10
18595.59863623604
 20
4412.442208402477
 30
0.0
 11
18557.89863623604
 21
4380.774208402477
 31
0.0
  0
LINE
  5
6688
330
19
100
AcDbEntity
  8
1
100
AcDbLine
 10
18302.89863623605
 20
4727.442208402479
 30
0.0
 11
18482.89863623605
 21
4727.442208402477
 31
0.0
  0
LINE
  5
6689
330
19
100
AcDbEntity
  8
CT
100
AcDbLine
 10
18346.95825573034
 20
4693.894042568782
 30
0.0
 11
18351.0676915154
 21
4678.557419428515
 31
0.0
  0
CIRCLE
  5
668A
330
19
100
AcDbEntity
  8
1
100
AcDbCircle
 10
18349.15821761372
 20
4685.683673045325
 30
0.0
 40
4.0
  0
LINE
  5
668B
330
19
100
AcDbEntity
  8
CT
100
AcDbLine
 10
18267.38718257543
 20
4647.953662063082
 30
0.0
 11
18278.61436993064
 21
4636.726474707869
 31
0.0
  0
CIRCLE
  5
668C
330
19
100
AcDbEntity
  8
1
100
AcDbCircle
 10
18273.39759021551
 20
4641.943254422995
 30
0.0
 40
4.0
  0
LINE
  5
668D
330
19
100
AcDbEntity
  8
CT
100
AcDbLine
 10
18438.83901674174
 20
4693.894042568786
 30
0.0
 11
18434.72958095668
 21
4678.55741942852
 31
0.0
  0
CIRCLE
  5
668E
330
19
100
AcDbEntity
  8
1
100
AcDbCircle
 10
18436.63905485836
 20
4685.683673045329
 30
0.0
 40
4.0
  0
LINE
  5
668F
330
19
100
AcDbEntity
  8
1
100
AcDbLine
 10
18482.89863623605
 20
4727.442208402477
 30
0.0
 11
18605.19863623604
 21
4605.542208402478
 31
0.0
  0
LINE
  5
6690
330
19
100
AcDbEntity
  8
CT
100
AcDbLine
 10
18564.35047040235
 20
4568.382588908181
 30
0.0
 11
18549.01384726208
 21
4564.273153123127
 31
0.0
  0
CIRCLE
  5
6691
330
19
100
AcDbEntity
  8
1
100
AcDbCircle
 10
18556.14010087889
 20
4566.182627024811
 30
0.0
 40
4.0
  0
LWPOLYLINE
  5
6692
330
19
100
AcDbEntity
  8
1
100
AcDbPolyline
 90
        2
 70
     0
 43
0.0
 10
18605.43961984261
 20
4668.25962835324
 42
0.1174780416237576
 10
18509.64649528659
 20
4736.704503484443
 42
0.1174780416237576
  0
LWPOLYLINE
  5
6693
330
19
100
AcDbEntity
  8
1
100
AcDbPolyline
 90
        2
 70
     0
 43
0.0
 10
18597.89863623605
 20
4661.692013394548
 42
0.1174780416237573
 10
18505.87689453657
 20
4727.442208402475
 42
0.3153658436290411
  0
LINE
  5
6694
330
19
100
AcDbEntity
  8
CT
100
AcDbLine
 10
18518.41008989665
 20
4647.953662063093
 30
0.0
 11
18507.18290254144
 21
4636.726474707881
 31
0.0
  0
CIRCLE
  5
6695
330
19
100
AcDbEntity
  8
1
100
AcDbCircle
 10
18512.39968225657
 20
4641.943254423007
 30
0.0
 40
4.0
  0
DIMENSION
  5
6696
330
19
100
AcDbEntity
  8
SP
100
AcDbDimension
  2
*D16
 10
18142.89863623604
 20
5295.148415360106
 30
0.0
 11
18392.89863623604
 21
5332.648415360106
 31
0.0
 70
    32
 71
     5
 42
-1.0
  3
GOD
100
AcDbAlignedDimension
 13
18642.89863623604
 23
5442.169849113565
 33
0.0
 14
18142.89863623604
 24
5442.169849113565
 34
0.0
 50
180.0
100
AcDbRotatedDimension
  0
LWPOLYLINE
  5
6697
330
19
100
AcDbEntity
  8
1
100
AcDbPolyline
 90
        2
 70
     0
 43
0.0
 10
18182.89863623604
 20
5490.569849113565
 10
18299.16262952276
 20
5490.569849113565
  0
LWPOLYLINE
  5
6698
330
19
100
AcDbEntity
  8
1
100
AcDbPolyline
 90
        2
 70
     0
 43
0.0
 10
18182.89863623604
 20
5742.67388576428
 10
18378.29863623604
 20
5742.67388576428
  0
LWPOLYLINE
  5
6699
330
19
100
AcDbEntity
  8
1
100
AcDbPolyline
 90
        3
 70
     0
 43
0.0
 10
18211.39863623604
 20
5753.169849113564
 10
18392.89863623604
 20
5753.169849113564
 10
18413.22893901586
 20
5753.169849113564
  0
LINE
  5
669A
330
19
100
AcDbEntity
  8
1
100
AcDbLine
 10
18142.89863623604
 20
5761.169849113564
 30
0.0
 11
18392.89863623604
 21
5761.169849113564
 31
0.0
  0
LINE
  5
669B
330
19
100
AcDbEntity
  8
1
100
AcDbLine
 10
18182.89863623604
 20
5442.169849113565
 30
0.0
 11
18182.89863623604
 21
5752.169849113575
 31
0.0
  0
LINE
  5
669C
330
19
100
AcDbEntity
  8
1
100
AcDbLine
 10
18142.89863623604
 20
5442.169849113565
 30
0.0
 11
18142.89863623604
 21
5752.169849113575
 31
0.0
  0
DIMENSION
  5
669D
330
19
100
AcDbEntity
  8
SP
100
AcDbDimension
  2
*D17
 10
17969.02593379986
 20
5442.169849113565
 30
0.0
 11
17931.52593379986
 21
5597.169849113566
 31
0.0
 70
    32
 71
     5
 42
-1.0
  3
GOD
100
AcDbAlignedDimension
 13
18142.89863623604
 23
5752.169849113562
 33
0.0
 14
18142.89863623604
 24
5442.169849113565
 34
0.0
 50
90.0
100
AcDbRotatedDimension
  0
LINE
  5
669E
330
19
100
AcDbEntity
  8
CT
100
AcDbLine
 10
18160.89863623604
 20
5488.304556996113
 30
0.0
 11
18160.89863623604
 21
5452.637477491673
 31
0.0
  0
LINE
  5
669F
330
19
100
AcDbEntity
  8
CT
100
AcDbLine
 10
18145.2063480394
 20
5472.169849113564
 30
0.0
 11
18175.89863623604
 21
5472.169849113564
 31
0.0
  0
CIRCLE
  5
66A0
330
19
100
AcDbEntity
  8
1
100
AcDbCircle
 10
18160.89863623604
 20
5472.169849113564
 30
0.0
 40
6.0
  0
LINE
  5
66A1
330
19
100
AcDbEntity
  8
1
100
AcDbLine
 10
18142.89863623604
 20
5442.169849113565
 30
0.0
 11
18182.89863623604
 21
5442.169849113565
 31
0.0
  0
LINE
  5
66A2
330
19
100
AcDbEntity
  8
1
100
AcDbLine
 10
18144.09863623604
 20
5761.169849113564
 30
0.0
 11
18162.89863623604
 21
5779.969849113565
 31
0.0
  0
CIRCLE
  5
66A3
330
19
100
AcDbEntity
  8
1
100
AcDbCircle
 10
18160.89863623604
 20
5722.169849113564
 30
0.0
 40
6.0
  0
LINE
  5
66A4
330
19
100
AcDbEntity
  8
CT
100
AcDbLine
 10
18145.2063480394
 20
5722.169849113564
 30
0.0
 11
18175.89863623604
 21
5722.169849113564
 31
0.0
  0
LINE
  5
66A5
330
19
100
AcDbEntity
  8
1
100
AcDbLine
 10
18182.89863623604
 20
5752.169849113575
 30
0.0
 11
18142.89863623604
 21
5752.169849113575
 31
0.0
  0
LINE
  5
66A6
330
19
100
AcDbEntity
  8
CT
100
AcDbLine
 10
18160.89863623604
 20
5738.304556996113
 30
0.0
 11
18160.89863623604
 21
5702.637477491673
 31
0.0
  0
LINE
  5
66A7
330
19
100
AcDbEntity
  8
1
100
AcDbLine
 10
18142.89863623604
 20
5741.169849113564
 30
0.0
 11
18144.09863623604
 21
5741.169849113564
 31
0.0
1001
ACAD
1000
ASC_BOUNDS
1002
{
1070
    19
1002
}
  0
ARC
  5
66A8
330
19
100
AcDbEntity
  8
1
100
AcDbCircle
 10
18211.39863623604
 20
5754.169849113564
 30
0.0
 40
1.0
100
AcDbArc
 50
180.0
 51
270.0
  0
ARC
  5
66A9
330
19
100
AcDbEntity
  8
1
100
AcDbCircle
 10
18212.39863623604
 20
5755.169849113563
 30
0.0
 40
1.0
100
AcDbArc
 50
180.0
 51
270.0
  0
ARC
  5
66AA
330
19
100
AcDbEntity
  8
1
100
AcDbCircle
 10
18211.39863623604
 20
5754.169849113564
 30
0.0
 40
1.0
100
AcDbArc
 50
180.0
 51
270.0
  0
LINE
  5
66AB
330
19
100
AcDbEntity
  8
1
100
AcDbLine
 10
18211.39863623604
 20
5761.169849113564
 30
0.0
 11
18211.39863623604
 21
5755.169849113563
 31
0.0
  0
LINE
  5
66AC
330
19
100
AcDbEntity
  8
1
100
AcDbLine
 10
18210.39863623604
 20
5760.169849113564
 30
0.0
 11
18210.39863623604
 21
5754.169849113564
 31
0.0
  0
ARC
  5
66AD
330
19
100
AcDbEntity
  8
1
100
AcDbCircle
 10
18209.39863623604
 20
5760.169849113564
 30
0.0
 40
1.0
100
AcDbArc
 50
0.0
 51
90.0
  0
ARC
  5
66AE
330
19
100
AcDbEntity
  8
1
100
AcDbCircle
 10
18213.24405604805
 20
5794.743702265463
 30
0.0
 40
48.65638419258441
100
AcDbArc
 50
303.5000336651998
 51
316.3683487232455
  0
LINE
  5
66AF
330
19
100
AcDbEntity
  8
1
100
AcDbLine
 10
18212.39863623604
 20
5754.169849113564
 30
0.0
 11
18240.09933789548
 21
5754.169849113564
 31
0.0
  0
LINE
  5
66B0
330
19
100
AcDbEntity
  8
1
100
AcDbLine
 10
18602.89863623604
 20
5442.169849113565
 30
0.0
 11
18602.89863623604
 21
5752.169849113563
 31
0.0
  0
LINE
  5
66B1
330
19
100
AcDbEntity
  8
1
100
AcDbLine
 10
18642.89863623604
 20
5442.169849113565
 30
0.0
 11
18642.89863623604
 21
5752.169849113563
 31
0.0
  0
LINE
  5
66B2
330
19
100
AcDbEntity
  8
1
100
AcDbLine
 10
18292.89863623604
 20
5702.509549113564
 30
0.0
 11
18292.89863623604
 21
5551.830149113565
 31
0.0
  0
LINE
  5
66B3
330
19
100
AcDbEntity
  8
1
100
AcDbLine
 10
18492.89863623604
 20
5551.830149113565
 30
0.0
 11
18492.89863623604
 21
5702.509549113564
 31
0.0
  0
LINE
  5
66B4
330
19
100
AcDbEntity
  8
1
100
AcDbLine
 10
18493.69863623604
 20
5544.169849113564
 30
0.0
 11
18292.09863623604
 21
5544.169849113564
 31
0.0
  0
LINE
  5
66B5
330
19
100
AcDbEntity
  8
1
100
AcDbLine
 10
18296.89863623604
 20
5504.169849113564
 30
0.0
 11
18492.19863623604
 21
5504.169849113564
 31
0.0
  0
LINE
  5
66B6
330
19
100
AcDbEntity
  8
1
100
AcDbLine
 10
18309.34573623604
 20
5454.169849113564
 30
0.0
 11
18476.47953623604
 21
5454.169849113564
 31
0.0
  0
LINE
  5
66B7
330
19
100
AcDbEntity
  8
1
100
AcDbLine
 10
18309.34573623604
 20
5454.169849113564
 30
0.0
 11
18476.47953623604
 21
5454.169849113564
 31
0.0
  0
LINE
  5
66B8
330
19
100
AcDbEntity
  8
1
100
AcDbLine
 10
18295.89863623604
 20
5504.169849113564
 30
0.0
 11
18307.56743623604
 21
5455.549749113564
 31
0.0
  0
ARC
  5
66B9
330
19
100
AcDbEntity
  8
1
100
AcDbCircle
 10
18309.31763623604
 20
5455.969749113563
 30
0.0
 40
1.7999
100
AcDbArc
 50
193.4933999999955
 51
270.0018999998789
  0
LINE
  5
66BA
330
19
100
AcDbEntity
  8
1
100
AcDbLine
 10
18306.45793623604
 20
5544.001549113565
 30
0.0
 11
18292.89863623604
 21
5551.830149113565
 31
0.0
  0
ARC
  5
66BB
330
19
100
AcDbEntity
  8
1
100
AcDbCircle
 10
18293.59863623604
 20
5505.669849113564
 30
0.0
 40
1.5
100
AcDbArc
 50
180.0
 51
270.0
  0
LINE
  5
66BC
330
19
100
AcDbEntity
  8
1
100
AcDbLine
 10
18292.09863623604
 20
5544.169849113564
 30
0.0
 11
18292.09863623604
 21
5505.669849113564
 31
0.0
  0
LINE
  5
66BD
330
19
100
AcDbEntity
  8
CT
100
AcDbLine
 10
18624.89863623604
 20
5488.304556996113
 30
0.0
 11
18624.89863623604
 21
5452.637477491673
 31
0.0
  0
LINE
  5
66BE
330
19
100
AcDbEntity
  8
1
100
AcDbLine
 10
18489.89863623604
 20
5504.169849113564
 30
0.0
 11
18478.22983623604
 21
5455.549749113564
 31
0.0
  0
ARC
  5
66BF
330
19
100
AcDbEntity
  8
1
100
AcDbCircle
 10
18476.47963623604
 20
5455.969749113563
 30
0.0
 40
1.7999
100
AcDbArc
 50
269.9980999999127
 51
346.5066000000045
  0
CIRCLE
  5
66C0
330
19
100
AcDbEntity
  8
1
100
AcDbCircle
 10
18624.89863623604
 20
5472.169849113564
 30
0.0
 40
6.0
  0
LINE
  5
66C1
330
19
100
AcDbEntity
  8
CT
100
AcDbLine
 10
18640.59092443268
 20
5472.169849113564
 30
0.0
 11
18609.89863623603
 21
5472.169849113564
 31
0.0
  0
LINE
  5
66C2
330
19
100
AcDbEntity
  8
1
100
AcDbLine
 10
18602.89863623604
 20
5442.169849113568
 30
0.0
 11
18642.89863623604
 21
5442.169849113565
 31
0.0
  0
LWPOLYLINE
  5
66C3
330
19
100
AcDbEntity
  8
1
100
AcDbPolyline
 90
        2
 70
     0
 43
0.0
 10
18486.63464294931
 20
5490.569849113565
 10
18602.89863623604
 20
5490.569849113564
  0
LINE
  5
66C4
330
19
100
AcDbEntity
  8
1
100
AcDbLine
 10
18479.33933623604
 20
5544.001549113565
 30
0.0
 11
18492.89863623604
 21
5551.830149113565
 31
0.0
  0
ARC
  5
66C5
330
19
100
AcDbEntity
  8
1
100
AcDbCircle
 10
18492.19863623604
 20
5505.669849113564
 30
0.0
 40
1.5
100
AcDbArc
 50
270.0
 51
0.0
  0
LINE
  5
66C6
330
19
100
AcDbEntity
  8
1
100
AcDbLine
 10
18493.69863623604
 20
5544.169849113564
 30
0.0
 11
18493.69863623604
 21
5505.669849113564
 31
0.0
  0
LWPOLYLINE
  5
66C7
330
19
100
AcDbEntity
  8
1
100
AcDbPolyline
 90
        2
 70
     0
 43
0.0
 10
18407.49853623604
 20
5742.67388576428
 10
18602.89863623604
 20
5742.67388576428
  0
LINE
  5
66C8
330
19
100
AcDbEntity
  8
1
100
AcDbLine
 10
18392.89863623604
 20
5761.169849113567
 30
0.0
 11
18641.89863623604
 21
5761.169849113564
 31
0.0
  0
LWPOLYLINE
  5
66C9
330
19
100
AcDbEntity
  8
1
100
AcDbPolyline
 90
        2
 70
     0
 43
0.0
 10
18413.22893901586
 20
5753.169849113564
 10
18574.39863623604
 20
5753.169849113564
  0
LINE
  5
66CA
330
19
100
AcDbEntity
  8
1
100
AcDbLine
 10
18474.89863623604
 20
5731.897528546983
 30
0.0
 11
18310.89863623604
 21
5731.897528546983
 31
0.0
  0
LINE
  5
66CB
330
19
100
AcDbEntity
  8
1
100
AcDbLine
 10
18307.89863623604
 20
5711.169849113564
 30
0.0
 11
18477.89863623604
 21
5711.169849113564
 31
0.0
  0
LINE
  5
66CC
330
19
100
AcDbEntity
  8
1
100
AcDbLine
 10
18355.89863623604
 20
5737.897528546984
 30
0.0
 11
18429.89863623604
 21
5737.897528546984
 31
0.0
  0
ARC
  5
66CD
330
19
100
AcDbEntity
  8
1
100
AcDbCircle
 10
18355.89863623604
 20
5734.897528546984
 30
0.0
 40
2.999899999999999
100
AcDbArc
 50
89.99879999987914
 51
180.0011999999906
  0
LINE
  5
66CE
330
19
100
AcDbEntity
  8
1
100
AcDbLine
 10
18352.89863623604
 20
5731.897528546983
 30
0.0
 11
18352.89863623604
 21
5734.897528546984
 31
0.0
  0
ARC
  5
66CF
330
19
100
AcDbEntity
  8
1
100
AcDbCircle
 10
18310.89853623604
 20
5728.897528546983
 30
0.0
 40
2.999899999999999
100
AcDbArc
 50
89.99879999987914
 51
180.0011999999906
  0
LINE
  5
66D0
330
19
100
AcDbEntity
  8
1
100
AcDbLine
 10
18292.89863623604
 20
5702.509549113564
 30
0.0
 11
18307.89863623604
 21
5711.169849113564
 31
0.0
  0
LINE
  5
66D1
330
19
100
AcDbEntity
  8
1
100
AcDbLine
 10
18307.89863623604
 20
5714.169849113564
 30
0.0
 11
18307.89863623604
 21
5711.169849113564
 31
0.0
  0
LINE
  5
66D2
330
19
100
AcDbEntity
  8
1
100
AcDbLine
 10
18307.89863623604
 20
5711.169849113564
 30
0.0
 11
18307.89863623604
 21
5728.897528546983
 31
0.0
  0
LINE
  5
66D3
330
19
100
AcDbEntity
  8
1
100
AcDbLine
 10
18407.49863623604
 20
5737.897528546984
 30
0.0
 11
18407.49863623604
 21
5761.169849113567
 31
0.0
  0
LINE
  5
66D4
330
19
100
AcDbEntity
  8
1
100
AcDbLine
 10
18378.29873623604
 20
5737.897528546984
 30
0.0
 11
18378.29873623604
 21
5761.169849113564
 31
0.0
  0
LINE
  5
66D5
330
19
100
AcDbEntity
  8
1
100
AcDbLine
 10
18432.89863623604
 20
5731.897528546983
 30
0.0
 11
18432.89863623604
 21
5734.897528546984
 31
0.0
  0
ARC
  5
66D6
330
19
100
AcDbEntity
  8
1
100
AcDbCircle
 10
18429.89873623604
 20
5734.897528546984
 30
0.0
 40
2.999899999999999
100
AcDbArc
 50
359.9988000000094
 51
90.00119999991241
  0
LINE
  5
66D7
330
19
100
AcDbEntity
  8
1
100
AcDbLine
 10
18573.39863623604
 20
5754.169849113562
 30
0.0
 11
18545.69793457661
 21
5754.169849113564
 31
0.0
  0
ARC
  5
66D8
330
19
100
AcDbEntity
  8
1
100
AcDbCircle
 10
18572.55321642403
 20
5794.743702265463
 30
0.0
 40
48.65638419258441
100
AcDbArc
 50
223.6316512767545
 51
236.4999663348002
  0
ARC
  5
66D9
330
19
100
AcDbEntity
  8
1
100
AcDbCircle
 10
18474.89873623604
 20
5728.897528546983
 30
0.0
 40
2.999899999999999
100
AcDbArc
 50
359.9988000000094
 51
90.00119999991241
  0
LINE
  5
66DA
330
19
100
AcDbEntity
  8
1
100
AcDbLine
 10
18492.89863623604
 20
5702.509549113564
 30
0.0
 11
18477.89863623604
 21
5711.169849113564
 31
0.0
  0
LINE
  5
66DB
330
19
100
AcDbEntity
  8
1
100
AcDbLine
 10
18477.89863623604
 20
5714.169849113564
 30
0.0
 11
18477.89863623604
 21
5711.169849113564
 31
0.0
  0
LINE
  5
66DC
330
19
100
AcDbEntity
  8
1
100
AcDbLine
 10
18477.89863623604
 20
5711.169849113564
 30
0.0
 11
18477.89863623604
 21
5728.897528546983
 31
0.0
  0
LINE
  5
66DD
330
19
100
AcDbEntity
  8
CT
100
AcDbLine
 10
18640.59092443268
 20
5722.169849113564
 30
0.0
 11
18609.89863623603
 21
5722.169849113564
 31
0.0
  0
LINE
  5
66DE
330
19
100
AcDbEntity
  8
FUTO
100
AcDbLine
 10
18602.89863623604
 20
5752.169849113563
 30
0.0
 11
18642.89863623604
 21
5752.169849113563
 31
0.0
  0
LINE
  5
66DF
330
19
100
AcDbEntity
  8
CT
100
AcDbLine
 10
18624.89863623604
 20
5738.304556996113
 30
0.0
 11
18624.89863623604
 21
5702.637477491673
 31
0.0
  0
CIRCLE
  5
66E0
330
19
100
AcDbEntity
  8
1
100
AcDbCircle
 10
18624.89863623604
 20
5722.169849113564
 30
0.0
 40
6.0
  0
ARC
  5
66E1
330
19
100
AcDbEntity
  8
1
100
AcDbCircle
 10
18576.39863623604
 20
5760.169849113564
 30
0.0
 40
1.0
100
AcDbArc
 50
90.0
 51
180.0
  0
LINE
  5
66E2
330
19
100
AcDbEntity
  8
1
100
AcDbLine
 10
18575.39863623604
 20
5760.169849113564
 30
0.0
 11
18575.39863623604
 21
5754.169849113562
 31
0.0
  0
LINE
  5
66E3
330
19
100
AcDbEntity
  8
1
100
AcDbLine
 10
18574.39863623604
 20
5761.169849113562
 30
0.0
 11
18574.39863623604
 21
5755.169849113562
 31
0.0
  0
ARC
  5
66E4
330
19
100
AcDbEntity
  8
1
100
AcDbCircle
 10
18574.39863623604
 20
5754.169849113564
 30
0.0
 40
1.0
100
AcDbArc
 50
270.0
 51
0.0
  0
ARC
  5
66E5
330
19
100
AcDbEntity
  8
1
100
AcDbCircle
 10
18573.39863623604
 20
5755.169849113563
 30
0.0
 40
1.0
100
AcDbArc
 50
270.0
 51
0.0
  0
LINE
  5
66E6
330
19
100
AcDbEntity
  8
1
100
AcDbLine
 10
18142.89863623604
 20
5987.169849113564
 30
0.0
 11
18392.89863623604
 21
5987.169849113564
 31
0.0
  0
LWPOLYLINE
  5
66E7
330
19
100
AcDbEntity
  8
1
100
AcDbPolyline
 90
        3
 70
     0
 43
0.0
 10
18211.39863623604
 20
5995.169849113564
 10
18392.89863623604
 20
5995.169849113564
 10
18413.22893901586
 20
5995.169849113564
  0
LINE
  5
66E8
330
19
100
AcDbEntity
  8
1
100
AcDbLine
 10
18144.09863623604
 20
5987.169849113564
 30
0.0
 11
18162.89863623604
 21
5968.369849113565
 31
0.0
  0
LINE
  5
66E9
330
19
100
AcDbEntity
  8
1
100
AcDbLine
 10
18142.89863623604
 20
6007.169849113564
 30
0.0
 11
18144.09863623604
 21
6007.169849113564
 31
0.0
1001
ACAD
1000
ASC_BOUNDS
1002
{
1070
    19
1002
}
  0
ARC
  5
66EA
330
19
100
AcDbEntity
  8
1
100
AcDbCircle
 10
18209.39863623604
 20
5988.169849113564
 30
0.0
 40
1.0
100
AcDbArc
 50
270.0
 51
0.0
  0
LINE
  5
66EB
330
19
100
AcDbEntity
  8
1
100
AcDbLine
 10
18210.39863623604
 20
5988.169849113564
 30
0.0
 11
18210.39863623604
 21
5994.169849113564
 31
0.0
  0
LINE
  5
66EC
330
19
100
AcDbEntity
  8
1
100
AcDbLine
 10
18211.39863623604
 20
5987.169849113564
 30
0.0
 11
18211.39863623604
 21
5993.169849113564
 31
0.0
  0
ARC
  5
66ED
330
19
100
AcDbEntity
  8
1
100
AcDbCircle
 10
18211.39863623604
 20
5994.169849113564
 30
0.0
 40
1.0
100
AcDbArc
 50
90.0
 51
180.0
  0
ARC
  5
66EE
330
19
100
AcDbEntity
  8
1
100
AcDbCircle
 10
18212.39863623604
 20
5993.169849113564
 30
0.0
 40
1.0
100
AcDbArc
 50
90.0
 51
180.0
  0
ARC
  5
66EF
330
19
100
AcDbEntity
  8
1
100
AcDbCircle
 10
18211.39863623604
 20
5994.169849113564
 30
0.0
 40
1.0
100
AcDbArc
 50
90.0
 51
180.0
  0
ARC
  5
66F0
330
19
100
AcDbEntity
  8
1
100
AcDbCircle
 10
18213.24405604805
 20
5953.595995961666
 30
0.0
 40
48.65638419258441
100
AcDbArc
 50
43.63165127675452
 51
56.4999663348002
  0
LINE
  5
66F1
330
19
100
AcDbEntity
  8
1
100
AcDbLine
 10
18212.39863623604
 20
5994.169849113564
 30
0.0
 11
18240.09933789548
 21
5994.169849113564
 31
0.0
  0
LINE
  5
66F2
330
19
100
AcDbEntity
  8
1
100
AcDbLine
 10
18392.89863623604
 20
5987.169849113563
 30
0.0
 11
18641.89863623604
 21
5987.169849113564
 31
0.0
  0
LWPOLYLINE
  5
66F3
330
19
100
AcDbEntity
  8
1
100
AcDbPolyline
 90
        2
 70
     0
 43
0.0
 10
18413.22893901586
 20
5995.169849113564
 10
18574.39863623604
 20
5995.169849113564
  0
LINE
  5
66F4
330
19
100
AcDbEntity
  8
1
100
AcDbLine
 10
18573.39863623604
 20
5994.169849113566
 30
0.0
 11
18545.69793457661
 21
5994.169849113564
 31
0.0
  0
ARC
  5
66F5
330
19
100
AcDbEntity
  8
1
100
AcDbCircle
 10
18572.55321642403
 20
5953.595995961666
 30
0.0
 40
48.65638419258441
100
AcDbArc
 50
123.5000336651998
 51
136.3683487232455
  0
ARC
  5
66F6
330
19
100
AcDbEntity
  8
1
100
AcDbCircle
 10
18573.39863623604
 20
5993.169849113564
 30
0.0
 40
1.0
100
AcDbArc
 50
0.0
 51
90.0
  0
ARC
  5
66F7
330
19
100
AcDbEntity
  8
1
100
AcDbCircle
 10
18574.39863623604
 20
5994.169849113564
 30
0.0
 40
1.0
100
AcDbArc
 50
0.0
 51
90.0
  0
LINE
  5
66F8
330
19
100
AcDbEntity
  8
1
100
AcDbLine
 10
18574.39863623604
 20
5987.169849113566
 30
0.0
 11
18574.39863623604
 21
5993.169849113566
 31
0.0
  0
LINE
  5
66F9
330
19
100
AcDbEntity
  8
1
100
AcDbLine
 10
18575.39863623604
 20
5988.169849113564
 30
0.0
 11
18575.39863623604
 21
5994.169849113566
 31
0.0
  0
ARC
  5
66FA
330
19
100
AcDbEntity
  8
1
100
AcDbCircle
 10
18576.39863623604
 20
5988.169849113564
 30
0.0
 40
1.0
100
AcDbArc
 50
180.0
 51
270.0
  0
LINE
  5
66FB
330
19
100
AcDbEntity
  8
1
100
AcDbLine
 10
18656.89863623604
 20
5972.169849113564
 30
0.0
 11
18656.89863623604
 21
5776.169849113564
 31
0.0
  0
LINE
  5
66FC
330
19
100
AcDbEntity
  8
2
100
AcDbLine
 10
19730.74606377954
 20
4833.495109327419
 30
0.0
 11
19730.74606377954
 21
4168.558600720511
 31
0.0
1001
ACAD
1000
ASC_BOUNDS
1002
{
1070
    19
1005
0
1005
0
1002
}
  0
DIMENSION
  5
66FE
330
19
100
AcDbEntity
  8
SP
100
AcDbDimension
  2
*D19
 10
19851.74606377954
 20
4954.729428518949
 30
0.0
 11
19791.24606377954
 21
4992.22942851895
 31
0.0
 70
    32
 71
     5
 42
121.0
  3
GOD
100
AcDbAlignedDimension
 13
19730.74606377954
 23
4919.704780904066
 33
0.0
 14
19851.74606377954
 24
4703.942208402473
 34
0.0
100
AcDbRotatedDimension
  0
DIMENSION
  5
66FF
330
19
100
AcDbEntity
  8
SP
100
AcDbDimension
  2
*D20
 10
19842.74606377954
 20
4849.729428518949
 30
0.0
 11
19730.74606377954
 21
4887.229428518949
 31
0.0
 70
    32
 71
     5
 42
223.9999999999927
  3
GOD
100
AcDbAlignedDimension
 13
19618.74606377954
 23
4729.729428518949
 33
0.0
 14
19842.74606377954
 24
4729.729428518949
 34
0.0
100
AcDbRotatedDimension
  0
DIMENSION
  5
6700
330
19
100
AcDbEntity
  8
SP
100
AcDbDimension
  2
*D21
 10
19608.74606377954
 20
3961.442208402474
 30
0.0
 11
19453.74606377954
 21
3998.942208402474
 31
0.0
 70
    32
 71
     5
 42
-1.0
  3
GOD
100
AcDbAlignedDimension
 13
19298.74606377954
 23
4066.442208402476
 33
0.0
 14
19608.74606377954
 24
4066.442208402475
 34
0.0
100
AcDbRotatedDimension
  0
LINE
  5
6701
330
19
100
AcDbEntity
  8
FUTO
100
AcDbLine
 10
19298.74606377954
 20
4069.642208402475
 30
0.0
 11
19608.74606377954
 21
4069.642208402474
 31
0.0
  0
LINE
  5
6702
330
19
100
AcDbEntity
  8
FUTO
100
AcDbLine
 10
19298.74606377954
 20
4128.242208402475
 30
0.0
 11
19608.74606377954
 21
4128.242208402475
 31
0.0
  0
LINE
  5
6703
330
19
100
AcDbEntity
  8
FUTO
100
AcDbLine
 10
19298.74606377954
 20
4066.442208402476
 30
0.0
 11
19608.74606377954
 21
4066.442208402475
 31
0.0
  0
LINE
  5
6704
330
19
100
AcDbEntity
  8
FUTO
100
AcDbLine
 10
19298.74606377954
 20
4131.442208402475
 30
0.0
 11
19608.74606377954
 21
4131.442208402475
 31
0.0
  0
LINE
  5
6705
330
19
100
AcDbEntity
  8
1
100
AcDbLine
 10
19482.74606377954
 20
4622.442208402474
 30
0.0
 11
19407.40636377954
 21
4622.442208402474
 31
0.0
  0
LINE
  5
6707
330
19
100
AcDbEntity
  8
2
100
AcDbLine
 10
19881.75804791526
 20
4522.442208402474
 30
0.0
 11
19268.35794321296
 21
4522.442208402474
 31
0.0
  0
LINE
  5
6708
330
19
100
AcDbEntity
  8
FUTO
100
AcDbLine
 10
19298.74606377954
 20
4170.642208402475
 30
0.0
 11
19605.54606377954
 21
4170.642208402475
 31
0.0
  0
LINE
  5
6709
330
19
100
AcDbEntity
  8
1
100
AcDbLine
 10
19298.74606377954
 20
4167.442208402476
 30
0.0
 11
19648.74606377954
 21
4167.442208402476
 31
0.0
  0
LINE
  5
670A
330
19
100
AcDbEntity
  8
FUTO
100
AcDbLine
 10
19428.54606377954
 20
4522.442208402474
 30
0.0
 11
19298.74606377954
 21
4170.642208402475
 31
0.0
  0
LINE
  5
670B
330
19
100
AcDbEntity
  8
FUTO
100
AcDbLine
 10
19298.74606377954
 20
4131.442208402475
 30
0.0
 11
19298.74606377954
 21
4066.442208402476
 31
0.0
  0
LINE
  5
670C
330
19
100
AcDbEntity
  8
FUTO
100
AcDbLine
 10
19298.74606377954
 20
4167.442208402476
 30
0.0
 11
19298.74606377954
 21
4170.642208402475
 31
0.0
  0
LINE
  5
670D
330
19
100
AcDbEntity
  8
1
100
AcDbLine
 10
19359.74606377954
 20
4426.442208402474
 30
0.0
 11
19359.74606377954
 21
4621.742208402475
 31
0.0
  0
LINE
  5
670E
330
19
100
AcDbEntity
  8
1
100
AcDbLine
 10
19399.74606377954
 20
4623.242208402476
 30
0.0
 11
19399.74606377954
 21
4472.442208402474
 31
0.0
  0
LINE
  5
670F
330
19
100
AcDbEntity
  8
1
100
AcDbLine
 10
19309.74606377954
 20
4438.889308402475
 30
0.0
 11
19309.74606377954
 21
4606.023108402475
 31
0.0
  0
LINE
  5
6710
330
19
100
AcDbEntity
  8
FUTO
100
AcDbLine
 10
19358.22294675557
 20
4331.580537580527
 30
0.0
 11
19310.62512296012
 21
4418.953701595016
 31
0.0
  0
LINE
  5
6711
330
19
100
AcDbEntity
  8
1
100
AcDbLine
 10
19359.74606377954
 20
4426.442208402474
 30
0.0
 11
19311.15936377954
 21
4437.131308402475
 31
0.0
  0
LINE
  5
6712
330
19
100
AcDbEntity
  8
FUTO
100
AcDbLine
 10
19302.54606377954
 20
4421.353701595014
 30
0.0
 11
19391.29993225725
 21
4421.353701595014
 31
0.0
  0
LINE
  5
6713
330
19
100
AcDbEntity
  8
FUTO
100
AcDbLine
 10
19302.54606377954
 20
4418.953701595016
 30
0.0
 11
19390.4156505671
 21
4418.953701595013
 31
0.0
  0
LINE
  5
6714
330
19
100
AcDbEntity
  8
FUTO
100
AcDbLine
 10
19297.74606377954
 20
4393.753701595017
 30
0.0
 11
19297.74606377954
 21
4416.553701595016
 31
0.0
  0
LINE
  5
6715
330
19
100
AcDbEntity
  8
FUTO
100
AcDbLine
 10
19300.14606377954
 20
4393.753701595017
 30
0.0
 11
19300.14606377954
 21
4416.553701595016
 31
0.0
  0
ARC
  5
6716
330
19
100
AcDbEntity
  8
FUTO
100
AcDbCircle
 10
19302.54606377954
 20
4416.553701595016
 30
0.0
 40
4.8
100
AcDbArc
 50
90.0
 51
180.0
  0
ARC
  5
6717
330
19
100
AcDbEntity
  8
FUTO
100
AcDbCircle
 10
19302.54606377954
 20
4416.553701595016
 30
0.0
 40
2.4
100
AcDbArc
 50
90.0
 51
180.0
  0
LINE
  5
6718
330
19
100
AcDbEntity
  8
FUTO
100
AcDbLine
 10
19297.74606377954
 20
4393.753701595017
 30
0.0
 11
19300.14606377954
 21
4393.753701595017
 31
0.0
  0
ARC
  5
6719
330
19
100
AcDbEntity
  8
1
100
AcDbCircle
 10
19311.54586377954
 20
4438.889108402475
 30
0.0
 40
1.7998
100
AcDbArc
 50
179.9961000000213
 51
257.598300000058
  0
LINE
  5
671A
330
19
100
AcDbEntity
  8
1
100
AcDbLine
 10
19385.74606377954
 20
4425.442208402475
 30
0.0
 11
19385.74606377954
 21
4463.442208402475
 31
0.0
  0
ARC
  5
671B
330
19
100
AcDbEntity
  8
1
100
AcDbCircle
 10
19360.74616377954
 20
4426.442208402474
 30
0.0
 40
1.000099999999999
100
AcDbArc
 50
180.0
 51
269.9964999999583
  0
LINE
  5
671C
330
19
100
AcDbEntity
  8
1
100
AcDbLine
 10
19385.74606377954
 20
4425.442208402475
 30
0.0
 11
19360.74606377954
 21
4425.442208402475
 31
0.0
  0
LINE
  5
671D
330
19
100
AcDbEntity
  8
1
100
AcDbLine
 10
19385.64656377954
 20
4437.442208402474
 30
0.0
 11
19397.22775392039
 21
4437.442208402474
 31
0.0
  0
LINE
  5
671E
330
19
100
AcDbEntity
  8
1
100
AcDbLine
 10
19385.74606377954
 20
4463.442208402475
 30
0.0
 11
19399.74606377954
 21
4472.442208402474
 31
0.0
  0
LINE
  5
671F
330
19
100
AcDbEntity
  8
1
100
AcDbLine
 10
19359.74606377954
 20
4619.442208402474
 30
0.0
 11
19311.12596377954
 21
4607.773408402475
 31
0.0
  0
ARC
  5
6720
330
19
100
AcDbEntity
  8
1
100
AcDbCircle
 10
19311.54596377954
 20
4606.023208402475
 30
0.0
 40
1.7999
100
AcDbArc
 50
103.4933999998941
 51
180.0018999999831
  0
LINE
  5
6721
330
19
100
AcDbEntity
  8
1
100
AcDbLine
 10
19399.57776377954
 20
4608.882908402476
 30
0.0
 11
19407.40636377954
 21
4622.442208402474
 31
0.0
  0
ARC
  5
6722
330
19
100
AcDbEntity
  8
1
100
AcDbCircle
 10
19361.24606377954
 20
4621.742208402475
 30
0.0
 40
1.5
100
AcDbArc
 50
90.0
 51
180.0
  0
LINE
  5
6723
330
19
100
AcDbEntity
  8
1
100
AcDbLine
 10
19399.74606377954
 20
4623.242208402476
 30
0.0
 11
19361.24606377954
 21
4623.242208402476
 31
0.0
  0
ARC
  5
6724
330
19
100
AcDbEntity
  8
FUTO
100
AcDbCircle
 10
19633.74606377954
 20
4212.442208402474
 30
0.0
 40
16.0
100
AcDbArc
 50
180.0
 51
270.0
  0
ARC
  5
6725
330
19
100
AcDbEntity
  8
FUTO
100
AcDbCircle
 10
19827.74606377955
 20
4212.442208402474
 30
0.0
 40
16.0
100
AcDbArc
 50
270.0
 51
0.0
  0
ARC
  5
6726
330
19
100
AcDbEntity
  8
FUTO
100
AcDbCircle
 10
19633.74606377954
 20
4212.442208402474
 30
0.0
 40
15.0
100
AcDbArc
 50
180.0
 51
270.0
  0
ARC
  5
6727
330
19
100
AcDbEntity
  8
FUTO
100
AcDbCircle
 10
19827.74606377955
 20
4212.442208402474
 30
0.0
 40
15.0
100
AcDbArc
 50
270.0
 51
0.0
  0
ARC
  5
6728
330
19
100
AcDbEntity
  8
FUTO
100
AcDbCircle
 10
19838.74606377954
 20
4210.94220840248
 30
0.0
 40
25.0
100
AcDbArc
 50
270.0
 51
0.0
  0
LWPOLYLINE
  5
6729
330
19
100
AcDbEntity
  8
1
100
AcDbPolyline
 90
        3
 70
     0
 43
0.0
 10
19608.74606377954
 20
4717.760319240006
 10
19608.74606377954
 20
4522.442208402474
 10
19608.74606377954
 20
4167.442208402476
  0
LWPOLYLINE
  5
672A
330
19
100
AcDbEntity
  8
1
100
AcDbPolyline
 90
        2
 70
     0
 43
0.0
 10
19605.54606377954
 20
4714.317869760015
 10
19605.54606377954
 20
4167.442208402476
  0
LINE
  5
672B
330
19
100
AcDbEntity
  8
FUTO
100
AcDbLine
 10
19633.74606377954
 20
4196.442208402475
 30
0.0
 11
19827.74606377955
 21
4196.442208402475
 31
0.0
  0
LINE
  5
672C
330
19
100
AcDbEntity
  8
FUTO
100
AcDbLine
 10
19633.74606377954
 20
4197.442208402474
 30
0.0
 11
19827.74606377955
 21
4197.442208402474
 31
0.0
  0
LINE
  5
672D
330
19
100
AcDbEntity
  8
FUTO
100
AcDbLine
 10
19622.74606377954
 20
4185.942208402479
 30
0.0
 11
19838.74606377954
 21
4185.942208402479
 31
0.0
  0
LINE
  5
672F
330
19
100
AcDbEntity
  8
FUTO
100
AcDbLine
 10
19608.74606377954
 20
4170.642208402475
 30
0.0
 11
19648.74606377954
 21
4170.642208402475
 31
0.0
  0
LINE
  5
6730
330
19
100
AcDbEntity
  8
FUTO
100
AcDbLine
 10
19608.74606377954
 20
4131.442208402475
 30
0.0
 11
19608.74606377954
 21
4066.442208402476
 31
0.0
  0
ARC
  5
6731
330
19
100
AcDbEntity
  8
FUTO
100
AcDbCircle
 10
19622.74606377954
 20
4210.94220840248
 30
0.0
 40
25.0
100
AcDbArc
 50
238.6677485023813
 51
270.0
  0
LWPOLYLINE
  5
6732
330
19
100
AcDbEntity
  8
FUTO
100
AcDbPolyline
 90
        2
 70
     0
 43
0.0
 10
19648.74606377954
 20
4170.642208402475
 10
19648.74606377954
 20
4167.442208402475
  0
LINE
  5
6733
330
19
100
AcDbEntity
  8
FUTO
100
AcDbLine
 10
19633.74606377954
 20
4745.729428518949
 30
0.0
 11
19827.74606377954
 21
4745.729428518949
 31
0.0
  0
LINE
  5
6734
330
19
100
AcDbEntity
  8
FUTO
100
AcDbLine
 10
19633.74606377954
 20
4744.72942851895
 30
0.0
 11
19827.74606377954
 21
4744.729428518949
 31
0.0
  0
LINE
  5
6735
330
19
100
AcDbEntity
  8
1
100
AcDbLine
 10
19617.74606377954
 20
4729.729428518949
 30
0.0
 11
19617.74606377954
 21
4212.442208402474
 31
0.0
  0
LINE
  5
6736
330
19
100
AcDbEntity
  8
1
100
AcDbLine
 10
19618.74606377954
 20
4729.729428518949
 30
0.0
 11
19618.74606377954
 21
4212.442208402474
 31
0.0
  0
ARC
  5
6737
330
19
100
AcDbEntity
  8
FUTO
100
AcDbCircle
 10
19633.74606377954
 20
4729.729428518949
 30
0.0
 40
16.0
100
AcDbArc
 50
90.0
 51
180.0
  0
ARC
  5
6738
330
19
100
AcDbEntity
  8
FUTO
100
AcDbCircle
 10
19633.74606377954
 20
4729.729428518949
 30
0.0
 40
15.0
100
AcDbArc
 50
90.0
 51
180.0
  0
LINE
  5
6739
330
19
100
AcDbEntity
  8
1
100
AcDbLine
 10
19482.74606377954
 20
4622.442208402474
 30
0.0
 11
19520.14114555108
 21
4622.442208402474
 31
0.0
  0
LINE
  5
673A
330
19
100
AcDbEntity
  8
1
100
AcDbLine
 10
19616.74606377954
 20
4704.942208402474
 30
0.0
 11
19610.74606377954
 21
4704.942208402474
 31
0.0
  0
ARC
  5
673B
330
19
100
AcDbEntity
  8
1
100
AcDbCircle
 10
19616.74606377954
 20
4705.942208402474
 30
0.0
 40
1.0
100
AcDbArc
 50
270.0
 51
0.0
  0
ARC
  5
673C
330
19
100
AcDbEntity
  8
1
100
AcDbCircle
 10
19610.74606377954
 20
4703.942208402473
 30
0.0
 40
1.0
100
AcDbArc
 50
90.0
 51
180.0
  0
LINE
  5
673D
330
19
100
AcDbEntity
  8
1
100
AcDbLine
 10
19843.74606377954
 20
4729.729428518949
 30
0.0
 11
19843.74606377955
 21
4212.442208402474
 31
0.0
  0
LWPOLYLINE
  5
673E
330
19
100
AcDbEntity
  8
1
100
AcDbPolyline
 90
        3
 70
     0
 43
0.0
 10
19851.74606377954
 20
4703.942208402476
 10
19851.74606377955
 20
4522.442208402476
 10
19851.74606377955
 20
4340.942208402477
  0
LINE
  5
673F
330
19
100
AcDbEntity
  8
1
100
AcDbLine
 10
19842.74606377954
 20
4729.729428518949
 30
0.0
 11
19842.74606377955
 21
4212.442208402474
 31
0.0
  0
LINE
  5
6740
330
19
100
AcDbEntity
  8
1
100
AcDbLine
 10
19863.74606377954
 20
4210.94220840248
 30
0.0
 11
19863.74606377954
 21
4518.942208402481
 31
0.0
  0
DIMENSION
  5
6741
330
19
100
AcDbEntity
  8
SP
100
AcDbDimension
  2
*D23
 10
19967.96065229132
 20
4364.942208402476
 30
0.0
 11
19930.46065229132
 21
4522.44220840247
 31
0.0
 70
    32
 71
     5
 42
315.0
  3
GOD
100
AcDbAlignedDimension
 13
19851.74606377954
 23
4679.942208402475
 33
0.0
 14
19851.74606377954
 24
4364.942208402474
 34
0.0
 50
90.0
100
AcDbRotatedDimension
1001
ACAD
1000
DSTYLE
1002
{
1070
     3
1000
\U+03C6<>
1002
}
  0
ARC
  5
6742
330
19
100
AcDbEntity
  8
1
100
AcDbCircle
 10
19850.74606377954
 20
4340.942208402477
 30
0.0
 40
1.0
100
AcDbArc
 50
270.0
 51
0.0
  0
ARC
  5
6743
330
19
100
AcDbEntity
  8
1
100
AcDbCircle
 10
19844.74606377954
 20
4338.942208402477
 30
0.0
 40
1.0
100
AcDbArc
 50
90.0
 51
180.0
  0
LINE
  5
6744
330
19
100
AcDbEntity
  8
1
100
AcDbLine
 10
19844.74606377954
 20
4339.942208402479
 30
0.0
 11
19850.74606377955
 21
4339.942208402479
 31
0.0
  0
LINE
  5
6745
330
19
100
AcDbEntity
  8
FUTO
100
AcDbLine
 10
19851.74606377955
 20
4364.942208402474
 30
0.0
 11
19843.74606377954
 21
4364.942208402474
 31
0.0
  0
ARC
  5
6746
330
19
100
AcDbEntity
  8
FUTO
100
AcDbCircle
 10
19838.74606377954
 20
4518.942208402481
 30
0.0
 40
25.0
100
AcDbArc
 50
0.0
 51
58.66774850238129
  0
ARC
  5
6747
330
19
100
AcDbEntity
  8
FUTO
100
AcDbCircle
 10
19827.74606377954
 20
4729.729428518949
 30
0.0
 40
16.0
100
AcDbArc
 50
0.0
 51
90.0
  0
ARC
  5
6748
330
19
100
AcDbEntity
  8
1
100
AcDbCircle
 10
19850.74606377954
 20
4703.942208402476
 30
0.0
 40
1.0
100
AcDbArc
 50
0.0
 51
90.0
  0
ARC
  5
6749
330
19
100
AcDbEntity
  8
1
100
AcDbCircle
 10
19844.74606377954
 20
4705.942208402475
 30
0.0
 40
1.0
100
AcDbArc
 50
180.0
 51
270.0
  0
LINE
  5
674A
330
19
100
AcDbEntity
  8
1
100
AcDbLine
 10
19844.74606377954
 20
4704.942208402476
 30
0.0
 11
19850.74606377954
 21
4704.942208402476
 31
0.0
  0
LINE
  5
674B
330
19
100
AcDbEntity
  8
FUTO
100
AcDbLine
 10
19851.74606377954
 20
4679.942208402475
 30
0.0
 11
19843.74606377954
 21
4679.942208402475
 31
0.0
  0
ARC
  5
674C
330
19
100
AcDbEntity
  8
FUTO
100
AcDbCircle
 10
19827.74606377954
 20
4729.729428518949
 30
0.0
 40
15.0
100
AcDbArc
 50
0.0
 51
90.0
  0
LINE
  5
6D6C
330
19
100
AcDbEntity
  8
1
100
AcDbLine
 10
19608.74606377954
 20
4717.760319240006
 30
0.0
 11
19427.18408057159
 21
4522.442208402474
 31
0.0
  0
LINE
  5
6D89
330
19
100
AcDbEntity
  8
1
100
AcDbLine
 10
19616.74606377954
 20
4339.942208402475
 30
0.0
 11
19610.74606377954
 21
4339.942208402475
 31
0.0
  0
ARC
  5
6D8A
330
19
100
AcDbEntity
  8
1
100
AcDbCircle
 10
19616.74606377954
 20
4338.942208402476
 30
0.0
 40
1.0
100
AcDbArc
 50
0.0
 51
90.00000000000003
  0
ARC
  5
6D8B
330
19
100
AcDbEntity
  8
1
100
AcDbCircle
 10
19610.74606377954
 20
4340.942208402475
 30
0.0
 40
1.0
100
AcDbArc
 50
180.0
 51
270.0
  0
LINE
  5
6D93
330
19
100
AcDbEntity
  8
1
100
AcDbLine
 10
19609.74606377954
 20
4340.942208402475
 30
0.0
 11
19609.74606377954
 21
4703.942208402473
 31
0.0
  0
DIMENSION
  5
6D94
330
19
100
AcDbEntity
  8
SP
100
AcDbDimension
  2
*D30
 10
19309.74606377954
 20
4954.729428518949
 30
0.0
 11
19520.24606377954
 21
5004.015142804664
 31
0.0
 70
    32
  1
(420)
 71
     5
 42
421.0
  3
GOD
100
AcDbAlignedDimension
 13
19730.74606377954
 23
4919.704780904066
 33
0.0
 14
19309.74606377954
 24
4606.023108402475
 34
0.0
100
AcDbRotatedDimension
1001
ACAD
1000
DSTYLE
1002
{
1070
   279
1070
     1
1002
}
  0
DIMENSION
  5
6DA1
330
19
100
AcDbEntity
  8
SP
100
AcDbDimension
  2
*D31
 10
19730.74606377954
 20
3961.442208402474
 30
0.0
 11
19852.03970010176
 21
3956.65072860378
 31
0.0
 70
   160
 71
     5
 42
122.0
  3
GOD
100
AcDbAlignedDimension
 13
19608.74606377954
 23
4066.442208402475
 33
0.0
 14
19730.74606377954
 24
4168.558600720511
 34
0.0
100
AcDbRotatedDimension
1001
ACAD
1000
DSTYLE
1002
{
1070
   279
1070
     1
1002
}
  0
ENDSEC
  0
SECTION
  2
OBJECTS
  0
DICTIONARY
  5
C
330
0
100
AcDbDictionary
281
     1
  3
ACAD_CIP_PREVIOUS_PRODUCT_INFO
350
6C9B
  3
ACAD_COLOR
350
6C7D
  3
ACAD_DETAILVIEWSTYLE
350
6C96
  3
ACAD_GROUP
350
D
  3
ACAD_LAYOUT
350
1E92
  3
ACAD_MATERIAL
350
6C4B
  3
ACAD_MLEADERSTYLE
350
6C92
  3
ACAD_MLINESTYLE
350
E
  3
ACAD_PLOTSETTINGS
350
1E93
  3
ACAD_PLOTSTYLENAME
350
1E90
  3
ACAD_SCALELIST
350
6C80
  3
ACAD_SECTIONVIEWSTYLE
350
6C94
  3
ACAD_TABLESTYLE
350
6C7E
  3
ACAD_VISUALSTYLE
350
6C64
  3
AcadDim
350
1EC5
  3
ACDB_RECOMPOSE_DATA
350
6E23
  3
AcDbVariableDictionary
350
6C48
  3
AcDsDecomposeData
350
6E2A
  3
DWGPROPS
350
6E24
  0
DICTIONARY
  5
6DFB
330
2
100
AcDbDictionary
280
     1
281
     1
  3
ACAD_LAYERSTATES
360
6DFC
  0
DICTIONARY
  5
6DE0
330
F
100
AcDbDictionary
280
     1
281
     1
  3
ADSK_XREC_LAYER_RECONCILED
360
6DE1
  0
DICTIONARY
  5
6DE2
330
2F
100
AcDbDictionary
280
     1
281
     1
  3
ADSK_XREC_LAYER_RECONCILED
360
6DE3
  0
DICTIONARY
  5
6DE4
330
30
100
AcDbDictionary
280
     1
281
     1
  3
ADSK_XREC_LAYER_RECONCILED
360
6DE5
  0
DICTIONARY
  5
6DE6
330
32
100
AcDbDictionary
280
     1
281
     1
  3
ADSK_XREC_LAYER_RECONCILED
360
6DE7
  0
DICTIONARY
  5
6DE8
330
33
100
AcDbDictionary
280
     1
281
     1
  3
ADSK_XREC_LAYER_RECONCILED
360
6DE9
  0
DICTIONARY
  5
6DEA
330
34
100
AcDbDictionary
280
     1
281
     1
  3
ADSK_XREC_LAYER_RECONCILED
360
6DEB
  0
DICTIONARY
  5
6DEC
330
35
100
AcDbDictionary
280
     1
281
     1
  3
ADSK_XREC_LAYER_RECONCILED
360
6DED
  0
DICTIONARY
  5
6DEE
330
36
100
AcDbDictionary
280
     1
281
     1
  3
ADSK_XREC_LAYER_RECONCILED
360
6DEF
  0
DICTIONARY
  5
6DF0
330
1EEE
100
AcDbDictionary
280
     1
281
     1
  3
ADSK_XREC_LAYER_RECONCILED
360
6DF1
  0
DICTIONARY
  5
6DF2
330
1EEF
100
AcDbDictionary
280
     1
281
     1
  3
ADSK_XREC_LAYER_RECONCILED
360
6DF3
  0
DICTIONARY
  5
6DF4
330
1EF0
100
AcDbDictionary
280
     1
281
     1
  3
ADSK_XREC_LAYER_RECONCILED
360
6DF5
  0
DICTIONARY
  5
6DF6
330
2188
100
AcDbDictionary
280
     1
281
     1
  3
ADSK_XREC_LAYER_RECONCILED
360
6DF7
  0
DICTIONARY
  5
6B70
330
19
100
AcDbDictionary
280
     1
281
     1
  3
ACAD_LAYOUTSELFREF
360
6B71
  3
ACAD_SORTENTS
360
6D6D
  0
DICTIONARY
  5
6B6E
330
16
100
AcDbDictionary
280
     1
281
     1
  3
ACAD_LAYOUTSELFREF
360
6B6F
  0
XRECORD
  5
6C9B
102
{ACAD_REACTORS
330
C
102
}
330
C
100
AcDbXrecord
280
     1
300
ACDLT
300
2015
300
INVLTS_F_S
  0
DICTIONARY
  5
6C7D
102
{ACAD_REACTORS
330
C
102
}
330
C
100
AcDbDictionary
281
     1
  0
DICTIONARY
  5
6C96
102
{ACAD_REACTORS
330
C
102
}
330
C
100
AcDbDictionary
281
     1
  3
Metric50
350
6C97
  0
DICTIONARY
  5
D
102
{ACAD_REACTORS
330
C
102
}
330
C
100
AcDbDictionary
281
     1
  0
DICTIONARY
  5
1E92
102
{ACAD_REACTORS
330
C
102
}
330
C
100
AcDbDictionary
281
     1
  3
Model
350
1E94
  3
ﾚｲｱｳﾄ1
350
1E95
  0
DICTIONARY
  5
6C4B
102
{ACAD_REACTORS
330
C
102
}
330
C
100
AcDbDictionary
281
     1
  3
ByBlock
350
6C54
  3
ByLayer
350
6C4C
  3
Global
350
6C5C
  0
DICTIONARY
  5
6C92
102
{ACAD_REACTORS
330
C
102
}
330
C
100
AcDbDictionary
281
     1
  3
Standard
350
6C93
  0
DICTIONARY
  5
E
102
{ACAD_REACTORS
330
C
102
}
330
C
100
AcDbDictionary
281
     1
  3
STANDARD
350
1C
  0
DICTIONARY
  5
1E93
102
{ACAD_REACTORS
330
C
102
}
330
C
100
AcDbDictionary
281
     1
  0
ACDBDICTIONARYWDFLT
  5
1E90
102
{ACAD_REACTORS
330
C
102
}
330
C
100
AcDbDictionary
281
     1
  3
Normal
350
1E91
100
AcDbDictionaryWithDefault
340
1E91
  0
DICTIONARY
  5
6C80
102
{ACAD_REACTORS
330
C
102
}
330
C
100
AcDbDictionary
281
     1
  3
A0
350
6C81
  3
A1
350
6C82
  3
A2
350
6C83
  3
A3
350
6C84
  3
A4
350
6C85
  3
A5
350
6C86
  3
A6
350
6C87
  3
A7
350
6C88
  3
A8
350
6C89
  3
A9
350
6C8A
  3
B0
350
6C8B
  3
B1
350
6C8C
  3
B2
350
6C8D
  3
B3
350
6C8E
  3
B4
350
6C8F
  3
B5
350
6C90
  3
B6
350
6C91
  0
DICTIONARY
  5
6C94
102
{ACAD_REACTORS
330
C
102
}
330
C
100
AcDbDictionary
281
     1
  3
Metric50
350
6C95
  0
DICTIONARY
  5
6C7E
102
{ACAD_REACTORS
330
C
102
}
330
C
100
AcDbDictionary
281
     1
  3
Standard
350
6C7F
  0
DICTIONARY
  5
6C64
102
{ACAD_REACTORS
330
C
102
}
330
C
100
AcDbDictionary
281
     1
  3
2dWireframe
350
6C6A
  3
Basic
350
6C69
  3
Brighten
350
6C70
  3
ColorChange
350
6C74
  3
Conceptual
350
6C6D
  3
Dim
350
6C6F
  3
EdgeColorOff
350
6C7C
  3
Facepattern
350
6C73
  3
Flat
350
6C65
  3
FlatWithEdges
350
6C66
  3
Gouraud
350
6C67
  3
GouraudWithEdges
350
6C68
  3
Hidden
350
6C6C
  3
JitterOff
350
6C7A
  3
Linepattern
350
6C72
  3
OverhangOff
350
6C7B
  3
Realistic
350
6C6E
  3
Shaded
350
6C79
  3
Shaded with edges
350
6C78
  3
Shades of Gray
350
6C75
  3
Sketchy
350
6C76
  3
Thicken
350
6C71
  3
Wireframe
350
6C6B
  3
X-Ray
350
6C77
  0
XRECORD
  5
1EC5
102
{ACAD_REACTORS
330
C
102
}
330
C
100
AcDbXrecord
280
     1
 90
   990106
  3

 60
     0
 61
     0
 62
     4
 63
     4
 64
     1
 65
     0
 66
     1
 67
     3
 68
     1
 69
     0
 70
     0
 71
     0
 72
     0
 40
0.0
170
     1
340
0
  0
XRECORD
  5
6E23
102
{ACAD_REACTORS
330
C
102
}
330
C
100
AcDbXrecord
280
     1
 90
        1
330
660B
330
6C7F
  0
DICTIONARY
  5
6C48
102
{ACAD_REACTORS
330
C
102
}
330
C
100
AcDbDictionary
281
     1
  3
CANNOSCALE
350
6E14
  3
CMLEADERSTYLE
350
6E10
  3
CTABLESTYLE
350
6E0F
  3
CVIEWDETAILSTYLE
350
6E11
  3
CVIEWSECTIONSTYLE
350
6E12
  3
DIMASSOC
350
6C49
  3
INDEXCTL
350
6E1F
  3
LAYEREVAL
350
6E16
  3
LAYERNOTIFY
350
6E17
  3
LIGHTINGUNITS
350
6E15
  3
MSLTSCALE
350
6E13
  3
SORTENTS
350
6E1E
  3
XCLIPFRAME
350
6E20
  0
DICTIONARY
  5
6E2A
102
{ACAD_REACTORS
330
C
102
}
330
C
100
AcDbDictionary
281
     1
  3
AcDsRecords
350
6E2C
  3
AcDsSchemas
350
6E2B
1001
ACAD
1070
     2
  0
XRECORD
  5
6E24
102
{ACAD_REACTORS
330
C
102
}
330
C
100
AcDbXrecord
280
     1
  1
DWGPROPS COOKIE
  2

  3

  4

  6

  7

  8
toshiyuki.morita
  9

300
=
301
=
302
=
303
=
304
=
305
=
306
=
307
=
308
=
309
=
 40
0.2029527777777778
 41
2454939.60462963
 42
2459353.581937512
  1

 90
        0
  0
DICTIONARY
  5
6DFC
102
{ACAD_REACTORS
330
6DFB
102
}
330
6DFB
100
AcDbDictionary
281
     1
  0
XRECORD
  5
6DE1
102
{ACAD_REACTORS
330
6DE0
102
}
330
6DE0
100
AcDbXrecord
280
     1
290
     1
  0
XRECORD
  5
6DE3
102
{ACAD_REACTORS
330
6DE2
102
}
330
6DE2
100
AcDbXrecord
280
     1
290
     1
  0
XRECORD
  5
6DE5
102
{ACAD_REACTORS
330
6DE4
102
}
330
6DE4
100
AcDbXrecord
280
     1
290
     1
  0
XRECORD
  5
6DE7
102
{ACAD_REACTORS
330
6DE6
102
}
330
6DE6
100
AcDbXrecord
280
     1
290
     1
  0
XRECORD
  5
6DE9
102
{ACAD_REACTORS
330
6DE8
102
}
330
6DE8
100
AcDbXrecord
280
     1
290
     1
  0
XRECORD
  5
6DEB
102
{ACAD_REACTORS
330
6DEA
102
}
330
6DEA
100
AcDbXrecord
280
     1
290
     1
  0
XRECORD
  5
6DED
102
{ACAD_REACTORS
330
6DEC
102
}
330
6DEC
100
AcDbXrecord
280
     1
290
     1
  0
XRECORD
  5
6DEF
102
{ACAD_REACTORS
330
6DEE
102
}
330
6DEE
100
AcDbXrecord
280
     1
290
     1
  0
XRECORD
  5
6DF1
102
{ACAD_REACTORS
330
6DF0
102
}
330
6DF0
100
AcDbXrecord
280
     1
290
     1
  0
XRECORD
  5
6DF3
102
{ACAD_REACTORS
330
6DF2
102
}
330
6DF2
100
AcDbXrecord
280
     1
290
     1
  0
XRECORD
  5
6DF5
102
{ACAD_REACTORS
330
6DF4
102
}
330
6DF4
100
AcDbXrecord
280
     1
290
     1
  0
XRECORD
  5
6DF7
102
{ACAD_REACTORS
330
6DF6
102
}
330
6DF6
100
AcDbXrecord
280
     1
290
     1
  0
XRECORD
  5
6B71
102
{ACAD_REACTORS
330
6B70
102
}
330
6B70
100
AcDbXrecord
280
     1
340
19
  0
SORTENTSTABLE
  5
6D6D
102
{ACAD_REACTORS
330
6B70
102
}
330
6B70
100
AcDbSortentsTable
330
19
331
673F
  5
6740
331
6730
  5
6731
331
6721
  5
6722
331
6712
  5
6713
331
6718
  5
6719
331
6709
  5
670A
331
6743
  5
6744
331
6734
  5
6735
331
6725
  5
6726
331
6716
  5
6717
331
6707
  5
6708
331
6749
  5
674A
331
673A
  5
673B
331
672B
  5
672C
331
671C
  5
671D
331
670D
  5
670E
331
6747
  5
6748
331
673E
  5
673F
331
672F
  5
6730
331
6720
  5
6721
331
6711
  5
6712
331
6708
  5
6709
331
6742
  5
6743
331
6733
  5
6734
331
6724
  5
6725
331
6715
  5
6716
331
6748
  5
6749
331
6739
  5
673A
331
672A
  5
672B
331
671B
  5
671C
331
670C
  5
670D
331
6746
  5
6747
331
6737
  5
6738
331
674C
  5
6C9D
331
673D
  5
673E
331
671F
  5
6720
331
6710
  5
6711
331
6741
  5
6742
331
6732
  5
6733
331
6723
  5
6724
331
6714
  5
6715
331
6738
  5
6739
331
6729
  5
672A
331
671A
  5
671B
331
670B
  5
670C
331
6745
  5
6746
331
6736
  5
6737
331
6727
  5
6728
331
674B
  5
674C
331
673C
  5
673D
331
672D
  5
672F
331
671E
  5
671F
331
670F
  5
6710
331
6D6C
  5
6707
331
6740
  5
6741
331
6731
  5
6732
331
6722
  5
6723
331
6713
  5
6714
331
6728
  5
6729
331
6719
  5
671A
331
670A
  5
670B
331
6744
  5
6745
331
6735
  5
6736
331
6726
  5
6727
331
6717
  5
6718
331
674A
  5
674B
331
673B
  5
673C
331
672C
  5
672D
331
671D
  5
671E
331
670E
  5
670F
  0
XRECORD
  5
6B6F
102
{ACAD_REACTORS
330
6B6E
102
}
330
6B6E
100
AcDbXrecord
280
     1
340
16
  0
ACDBDETAILVIEWSTYLE
  5
6C97
102
{ACAD_XDICTIONARY
360
6E0D
102
}
102
{ACAD_REACTORS
330
6C96
102
}
330
6C96
100
AcDbModelDocViewStyle
 70
     0
  3
Metric50
290
     0
100
AcDbDetailViewStyle
 70
     0
 71
     0
 90
        3
 71
     1
340
10
 40
5.0
340
0
 40
5.0
300

 40
0.0
280
     1
 71
     2
340
15
 90
       25
 71
     3
340
10
 40
5.0
 90
        0
 40
15.0
 90
        1
300
%<\AcVar ViewDetailId>% (%<\AcVar ViewScale \f "%sn">%)
 71
     4
340
15
 90
       25
340
15
 90
       25
280
     0
  0
LAYOUT
  5
1E94
102
{ACAD_XDICTIONARY
360
6E2D
102
}
102
{ACAD_REACTORS
330
1E92
102
}
330
1E92
100
AcDbPlotSettings
  1

  2
EPSON LP-9300
  4

  6

 40
0.0
 41
0.0
 42
0.0
 43
0.0
 44
0.0
 45
0.0
 46
0.0
 47
0.0
 48
0.0
 49
0.0
140
0.0
141
0.0
142
1.0
143
1.0
 70
  1712
 72
     0
 73
     0
 74
     0
  7
GOD2000TABLE.ctb
 75
     0
147
1.0
148
0.0
149
0.0
100
AcDbLayout
  1
Model
 70
     1
 71
     0
 10
0.0
 20
0.0
 11
12.0
 21
9.0
 12
0.0
 22
0.0
 32
0.0
 14
0.0
 24
0.0
 34
0.0
 15
0.0
 25
0.0
 35
0.0
146
0.0
 13
0.0
 23
0.0
 33
0.0
 16
1.0
 26
0.0
 36
0.0
 17
0.0
 27
1.0
 37
0.0
 76
     0
330
19
331
6B42
  0
LAYOUT
  5
1E95
102
{ACAD_XDICTIONARY
360
6E2F
102
}
102
{ACAD_REACTORS
330
1E92
102
}
330
1E92
100
AcDbPlotSettings
  1

  2
EPSON LP-9300
  4

  6

 40
0.0
 41
0.0
 42
0.0
 43
0.0
 44
0.0
 45
0.0
 46
0.0
 47
0.0
 48
0.0
 49
0.0
140
0.0
141
0.0
142
1.0
143
1.0
 70
   688
 72
     0
 73
     0
 74
     5
  7
GOD2000TABLE.ctb
 75
    16
147
1.0
148
0.0
149
0.0
100
AcDbLayout
  1
ﾚｲｱｳﾄ1
 70
     0
 71
     1
 10
0.0
 20
0.0
 11
12.0
 21
9.0
 12
0.0
 22
0.0
 32
0.0
 14
1.000000000000000E+20
 24
1.000000000000000E+20
 34
1.000000000000000E+20
 15
-1.000000000000000E+20
 25
-1.000000000000000E+20
 35
-1.000000000000000E+20
146
0.0
 13
0.0
 23
0.0
 33
0.0
 16
1.0
 26
0.0
 36
0.0
 17
0.0
 27
1.0
 37
0.0
 76
     0
330
16
  0
MATERIAL
  5
6C54
102
{ACAD_XDICTIONARY
360
6C55
102
}
102
{ACAD_REACTORS
330
6C4B
102
}
330
6C4B
100
AcDbMaterial
  1
ByBlock
 72
     0
 43
0.0208333333333333
 43
0.0
 43
0.0
 43
0.0
 43
0.0
 43
0.0208333333333333
 43
0.0
 43
0.0
 43
0.0
 43
0.0
 43
1.0
 43
0.0
 43
0.0
 43
0.0
 43
0.0
 43
1.0
 77
     0
 47
0.0208333333333333
 47
0.0
 47
0.0
 47
0.0
 47
0.0
 47
0.0208333333333333
 47
0.0
 47
0.0
 47
0.0
 47
0.0
 47
1.0
 47
0.0
 47
0.0
 47
0.0
 47
0.0
 47
1.0
171
     0
 49
0.0208333333333333
 49
0.0
 49
0.0
 49
0.0
 49
0.0
 49
0.0208333333333333
 49
0.0
 49
0.0
 49
0.0
 49
0.0
 49
1.0
 49
0.0
 49
0.0
 49
0.0
 49
0.0
 49
1.0
175
     0
142
0.0208333333333333
142
0.0
142
0.0
142
0.0
142
0.0
142
0.0208333333333333
142
0.0
142
0.0
142
0.0
142
0.0
142
1.0
142
0.0
142
0.0
142
0.0
142
0.0
142
1.0
179
     0
144
0.0208333333333333
144
0.0
144
0.0
144
0.0
144
0.0
144
0.0208333333333333
144
0.0
144
0.0
144
0.0
144
0.0
144
1.0
144
0.0
144
0.0
144
0.0
144
0.0
144
1.0
147
0.0208333333333333
147
0.0
147
0.0
147
0.0
147
0.0
147
0.0208333333333333
147
0.0
147
0.0
147
0.0
147
0.0
147
1.0
147
0.0
147
0.0
147
0.0
147
0.0
147
1.0
  0
MATERIAL
  5
6C4C
102
{ACAD_XDICTIONARY
360
6C4D
102
}
102
{ACAD_REACTORS
330
6C4B
102
}
330
6C4B
100
AcDbMaterial
  1
ByLayer
 72
     0
 43
0.0208333333333333
 43
0.0
 43
0.0
 43
0.0
 43
0.0
 43
0.0208333333333333
 43
0.0
 43
0.0
 43
0.0
 43
0.0
 43
1.0
 43
0.0
 43
0.0
 43
0.0
 43
0.0
 43
1.0
 77
     0
 47
0.0208333333333333
 47
0.0
 47
0.0
 47
0.0
 47
0.0
 47
0.0208333333333333
 47
0.0
 47
0.0
 47
0.0
 47
0.0
 47
1.0
 47
0.0
 47
0.0
 47
0.0
 47
0.0
 47
1.0
171
     0
 49
0.0208333333333333
 49
0.0
 49
0.0
 49
0.0
 49
0.0
 49
0.0208333333333333
 49
0.0
 49
0.0
 49
0.0
 49
0.0
 49
1.0
 49
0.0
 49
0.0
 49
0.0
 49
0.0
 49
1.0
175
     0
142
0.0208333333333333
142
0.0
142
0.0
142
0.0
142
0.0
142
0.0208333333333333
142
0.0
142
0.0
142
0.0
142
0.0
142
1.0
142
0.0
142
0.0
142
0.0
142
0.0
142
1.0
179
     0
144
0.0208333333333333
144
0.0
144
0.0
144
0.0
144
0.0
144
0.0208333333333333
144
0.0
144
0.0
144
0.0
144
0.0
144
1.0
144
0.0
144
0.0
144
0.0
144
0.0
144
1.0
147
0.0208333333333333
147
0.0
147
0.0
147
0.0
147
0.0
147
0.0208333333333333
147
0.0
147
0.0
147
0.0
147
0.0
147
1.0
147
0.0
147
0.0
147
0.0
147
0.0
147
1.0
  0
MATERIAL
  5
6C5C
102
{ACAD_XDICTIONARY
360
6C5D
102
}
102
{ACAD_REACTORS
330
6C4B
102
}
330
6C4B
100
AcDbMaterial
  1
Global
 72
     0
 43
0.0208333333333333
 43
0.0
 43
0.0
 43
0.0
 43
0.0
 43
0.0208333333333333
 43
0.0
 43
0.0
 43
0.0
 43
0.0
 43
1.0
 43
0.0
 43
0.0
 43
0.0
 43
0.0
 43
1.0
 77
     0
 47
0.0208333333333333
 47
0.0
 47
0.0
 47
0.0
 47
0.0
 47
0.0208333333333333
 47
0.0
 47
0.0
 47
0.0
 47
0.0
 47
1.0
 47
0.0
 47
0.0
 47
0.0
 47
0.0
 47
1.0
171
     0
 49
0.0208333333333333
 49
0.0
 49
0.0
 49
0.0
 49
0.0
 49
0.0208333333333333
 49
0.0
 49
0.0
 49
0.0
 49
0.0
 49
1.0
 49
0.0
 49
0.0
 49
0.0
 49
0.0
 49
1.0
175
     0
142
0.0208333333333333
142
0.0
142
0.0
142
0.0
142
0.0
142
0.0208333333333333
142
0.0
142
0.0
142
0.0
142
0.0
142
1.0
142
0.0
142
0.0
142
0.0
142
0.0
142
1.0
179
     0
144
0.0208333333333333
144
0.0
144
0.0
144
0.0
144
0.0
144
0.0208333333333333
144
0.0
144
0.0
144
0.0
144
0.0
144
1.0
144
0.0
144
0.0
144
0.0
144
0.0
144
1.0
147
0.0208333333333333
147
0.0
147
0.0
147
0.0
147
0.0
147
0.0208333333333333
147
0.0
147
0.0
147
0.0
147
0.0
147
1.0
147
0.0
147
0.0
147
0.0
147
0.0
147
1.0
  0
MLEADERSTYLE
  5
6C93
102
{ACAD_XDICTIONARY
360
6E66
102
}
102
{ACAD_REACTORS
330
6C92
102
}
330
6C92
100
AcDbMLeaderStyle
170
     2
171
     1
172
     0
 90
        2
 40
0.0
 41
0.0
173
     1
 91
-1056964608
340
13
 92
       -2
290
     1
 42
2.0
291
     1
 43
0.36
  3
Standard
 44
4.0
300

342
10
174
     1
178
     6
175
     1
176
     0
 93
-1056964608
 45
4.0
292
     0
297
     0
 46
4.0
 94
-1056964608
 47
1.0
 49
1.0
140
1.0
293
     1
141
0.0
294
     1
177
     0
142
1.0
295
     0
296
     0
143
0.125
1001
ACAD_MLEADERVER
1070
     2
  0
MLINESTYLE
  5
1C
102
{ACAD_REACTORS
330
E
102
}
330
E
100
AcDbMlineStyle
  2
STANDARD
 70
     0
  3

 62
     0
 51
90.0
 52
90.0
 71
     2
 49
0.5
 62
   256
  6
BYLAYER
 49
-0.5
 62
   256
  6
BYLAYER
  0
ACDBPLACEHOLDER
  5
1E91
102
{ACAD_REACTORS
330
1E90
102
}
330
1E90
  0
SCALE
  5
6C81
102
{ACAD_REACTORS
330
6C80
102
}
330
6C80
100
AcDbScale
 70
     0
300
1:1
140
1.0
141
1.0
290
     1
  0
SCALE
  5
6C82
102
{ACAD_REACTORS
330
6C80
102
}
330
6C80
100
AcDbScale
 70
     0
300
1:2
140
1.0
141
2.0
290
     0
  0
SCALE
  5
6C83
102
{ACAD_REACTORS
330
6C80
102
}
330
6C80
100
AcDbScale
 70
     0
300
1:4
140
1.0
141
4.0
290
     0
  0
SCALE
  5
6C84
102
{ACAD_REACTORS
330
6C80
102
}
330
6C80
100
AcDbScale
 70
     0
300
1:5
140
1.0
141
5.0
290
     0
  0
SCALE
  5
6C85
102
{ACAD_REACTORS
330
6C80
102
}
330
6C80
100
AcDbScale
 70
     0
300
1:8
140
1.0
141
8.0
290
     0
  0
SCALE
  5
6C86
102
{ACAD_REACTORS
330
6C80
102
}
330
6C80
100
AcDbScale
 70
     0
300
1:10
140
1.0
141
10.0
290
     0
  0
SCALE
  5
6C87
102
{ACAD_REACTORS
330
6C80
102
}
330
6C80
100
AcDbScale
 70
     0
300
1:16
140
1.0
141
16.0
290
     0
  0
SCALE
  5
6C88
102
{ACAD_REACTORS
330
6C80
102
}
330
6C80
100
AcDbScale
 70
     0
300
1:20
140
1.0
141
20.0
290
     0
  0
SCALE
  5
6C89
102
{ACAD_REACTORS
330
6C80
102
}
330
6C80
100
AcDbScale
 70
     0
300
1:30
140
1.0
141
30.0
290
     0
  0
SCALE
  5
6C8A
102
{ACAD_REACTORS
330
6C80
102
}
330
6C80
100
AcDbScale
 70
     0
300
1:40
140
1.0
141
40.0
290
     0
  0
SCALE
  5
6C8B
102
{ACAD_REACTORS
330
6C80
102
}
330
6C80
100
AcDbScale
 70
     0
300
1:50
140
1.0
141
50.0
290
     0
  0
SCALE
  5
6C8C
102
{ACAD_REACTORS
330
6C80
102
}
330
6C80
100
AcDbScale
 70
     0
300
1:100
140
1.0
141
100.0
290
     0
  0
SCALE
  5
6C8D
102
{ACAD_REACTORS
330
6C80
102
}
330
6C80
100
AcDbScale
 70
     0
300
2:1
140
2.0
141
1.0
290
     0
  0
SCALE
  5
6C8E
102
{ACAD_REACTORS
330
6C80
102
}
330
6C80
100
AcDbScale
 70
     0
300
4:1
140
4.0
141
1.0
290
     0
  0
SCALE
  5
6C8F
102
{ACAD_REACTORS
330
6C80
102
}
330
6C80
100
AcDbScale
 70
     0
300
8:1
140
8.0
141
1.0
290
     0
  0
SCALE
  5
6C90
102
{ACAD_REACTORS
330
6C80
102
}
330
6C80
100
AcDbScale
 70
     0
300
10:1
140
10.0
141
1.0
290
     0
  0
SCALE
  5
6C91
102
{ACAD_REACTORS
330
6C80
102
}
330
6C80
100
AcDbScale
 70
     0
300
100:1
140
100.0
141
1.0
290
     0
  0
ACDBSECTIONVIEWSTYLE
  5
6C95
102
{ACAD_XDICTIONARY
360
6E0B
102
}
102
{ACAD_REACTORS
330
6C94
102
}
330
6C94
100
AcDbModelDocViewStyle
 70
     0
  3
Metric50
290
     0
100
AcDbSectionViewStyle
 70
     0
 71
     0
 90
      102
 71
     1
340
10
 40
5.0
340
0
340
0
 40
5.0
300
I, O, Q, S, X, Z
 40
10.0
 90
        0
 40
2.5
 90
        0
 71
     2
340
15
 90
       25
340
15
 90
       50
 40
5.0
 40
2.5
 40
5.0
 71
     3
340
10
 40
5.0
 90
        0
 40
15.0
 90
        1
300
%<\AcVar ViewSectionStartId>%-%<\AcVar ViewSectionEndId>% (%<\AcVar ViewScale \f "%sn">%)
 71
     4
300
ANSI31
 40
1.0
 90
        0
290
     0
290
     0
 90
        6
 40
0.0
 40
1.570796326794896
 40
0.2617993877991494
 40
1.308996938995747
 40
-0.2617993877991494
 40
1.832595714594046
  0
TABLESTYLE
  5
6C7F
102
{ACAD_XDICTIONARY
360
6E21
102
}
102
{ACAD_REACTORS
330
6C7E
102
}
330
6C7E
100
AcDbTableStyle
  3
Standard
 70
     0
 71
     0
 40
1.5
 41
1.5
280
     0
281
     0
  7
STANDARD
140
4.5
170
     2
 62
     0
 63
     7
283
     0
274
    -2
284
     1
 64
     0
275
    -2
285
     1
 65
     0
276
    -2
286
     1
 66
     0
277
    -2
287
     1
 67
     0
278
    -2
288
     1
 68
     0
279
    -2
289
     1
 69
     0
  7
STANDARD
140
6.0
170
     5
 62
     0
 63
     7
283
     0
274
    -2
284
     1
 64
     0
275
    -2
285
     1
 65
     0
276
    -2
286
     1
 66
     0
277
    -2
287
     1
 67
     0
278
    -2
288
     1
 68
     0
279
    -2
289
     1
 69
     0
  7
STANDARD
140
4.5
170
     5
 62
     0
 63
     7
283
     0
274
    -2
284
     1
 64
     0
275
    -2
285
     1
 65
     0
276
    -2
286
     1
 66
     0
277
    -2
287
     1
 67
     0
278
    -2
288
     1
 68
     0
279
    -2
289
     1
 69
     0
  0
VISUALSTYLE
  5
6C6A
102
{ACAD_XDICTIONARY
360
6E3E
102
}
102
{ACAD_REACTORS
330
6C64
102
}
330
6C64
100
AcDbVisualStyle
  2
2dWireframe
 70
     4
 71
     0
 72
     2
 73
     0
 90
        0
 40
-0.6
 41
-30.0
 62
     5
 63
     7
 74
     1
 91
        4
 64
     7
 65
   257
 75
     1
175
     1
 42
1.0
 92
        0
 66
   257
 43
1.0
 76
     1
 77
     6
 78
     2
 67
     7
 79
     5
170
     0
171
     0
290
     0
174
     0
 93
        1
 44
0.0
173
     0
291
     0
 45
0.0
1001
ACAD
1000
AcDbSavedByObjectVersion
1070
     0
  0
VISUALSTYLE
  5
6C69
102
{ACAD_XDICTIONARY
360
6E3C
102
}
102
{ACAD_REACTORS
330
6C64
102
}
330
6C64
100
AcDbVisualStyle
  2
Basic
 70
     7
 71
     1
 72
     0
 73
     1
 90
        0
 40
-0.6
 41
-30.0
 62
     5
 63
     7
 74
     0
 91
        4
 64
     7
 65
   257
 75
     1
175
     1
 42
1.0
 92
        8
 66
     7
 43
1.0
 76
     1
 77
     6
 78
     2
 67
     7
 79
     5
170
     0
171
     0
290
     0
174
     0
 93
        1
 44
0.0
173
     0
291
     1
 45
0.0
1001
ACAD
1000
AcDbSavedByObjectVersion
1070
     0
  0
VISUALSTYLE
  5
6C70
102
{ACAD_XDICTIONARY
360
6E4A
102
}
102
{ACAD_REACTORS
330
6C64
102
}
330
6C64
100
AcDbVisualStyle
  2
Brighten
 70
    12
 71
     2
 72
     2
 73
     0
 90
        0
 40
-0.6
 41
-30.0
 62
     5
 63
     7
 74
     1
 91
        4
 64
     7
 65
   257
 75
     1
175
     1
 42
1.0
 92
        8
 66
     7
 43
1.0
 76
     1
 77
     6
 78
     2
 67
     7
 79
     5
170
     0
171
     0
290
     0
174
     0
 93
        1
 44
50.0
173
     0
291
     1
 45
0.0
1001
ACAD
1000
AcDbSavedByObjectVersion
1070
     0
  0
VISUALSTYLE
  5
6C74
102
{ACAD_XDICTIONARY
360
6E52
102
}
102
{ACAD_REACTORS
330
6C64
102
}
330
6C64
100
AcDbVisualStyle
  2
ColorChange
 70
    16
 71
     2
 72
     2
 73
     3
 90
        0
 40
-0.6
 41
-30.0
 62
     5
 63
     8
 74
     1
 91
        4
 64
     7
 65
   257
 75
     1
175
     1
 42
1.0
 92
        8
 66
     8
 43
1.0
 76
     1
 77
     6
 78
     2
 67
     7
 79
     5
170
     0
171
     0
290
     0
174
     0
 93
        1
 44
0.0
173
     0
291
     1
 45
0.0
1001
ACAD
1000
AcDbSavedByObjectVersion
1070
     0
  0
VISUALSTYLE
  5
6C6D
102
{ACAD_XDICTIONARY
360
6E44
102
}
102
{ACAD_REACTORS
330
6C64
102
}
330
6C64
100
AcDbVisualStyle
  2
Conceptual
 70
     9
 71
     3
 72
     2
 73
     0
 90
        0
 40
-0.6
 41
-30.0
 62
     5
 63
     7
 74
     2
 91
        2
 64
     7
 65
   257
 75
     1
175
     1
 42
179.0
 92
        8
 66
     7
 43
1.0
 76
     1
 77
     6
 78
     2
 67
     7
 79
     3
170
     0
171
     0
290
     0
174
     0
 93
        1
 44
0.0
173
     0
291
     0
 45
0.0
1001
ACAD
1000
AcDbSavedByObjectVersion
1070
     0
  0
VISUALSTYLE
  5
6C6F
102
{ACAD_XDICTIONARY
360
6E48
102
}
102
{ACAD_REACTORS
330
6C64
102
}
330
6C64
100
AcDbVisualStyle
  2
Dim
 70
    11
 71
     2
 72
     2
 73
     0
 90
        0
 40
-0.6
 41
-30.0
 62
     5
 63
     7
 74
     1
 91
        4
 64
     7
 65
   257
 75
     1
175
     1
 42
1.0
 92
        8
 66
     7
 43
1.0
 76
     1
 77
     6
 78
     2
 67
     7
 79
     5
170
     0
171
     0
290
     0
174
     0
 93
        1
 44
-50.0
173
     0
291
     1
 45
0.0
1001
ACAD
1000
AcDbSavedByObjectVersion
1070
     0
  0
VISUALSTYLE
  5
6C7C
102
{ACAD_XDICTIONARY
360
6E62
102
}
102
{ACAD_REACTORS
330
6C64
102
}
330
6C64
100
AcDbVisualStyle
  2
EdgeColorOff
 70
    22
 71
     2
 72
     2
 73
     0
 90
        0
 40
-0.6
 41
-30.0
 62
     5
 63
     7
 74
     1
 91
        4
 64
     7
 65
   257
 75
     1
175
     1
 42
1.0
 92
        8
 66
     7
 43
1.0
 76
     1
 77
     6
 78
     2
 67
     7
 79
     5
170
     0
171
     0
290
     0
174
     0
 93
        1
 44
0.0
173
     0
291
     1
 45
0.0
1001
ACAD
1000
AcDbSavedByObjectVersion
1070
     0
  0
VISUALSTYLE
  5
6C73
102
{ACAD_XDICTIONARY
360
6E50
102
}
102
{ACAD_REACTORS
330
6C64
102
}
330
6C64
100
AcDbVisualStyle
  2
Facepattern
 70
    15
 71
     2
 72
     2
 73
     0
 90
        0
 40
-0.6
 41
-30.0
 62
     5
 63
     7
 74
     1
 91
        4
 64
     7
 65
   257
 75
     1
175
     1
 42
1.0
 92
        8
 66
     7
 43
1.0
 76
     1
 77
     6
 78
     2
 67
     7
 79
     5
170
     0
171
     0
290
     0
174
     0
 93
        1
 44
0.0
173
     0
291
     1
 45
0.0
1001
ACAD
1000
AcDbSavedByObjectVersion
1070
     0
  0
VISUALSTYLE
  5
6C65
102
{ACAD_XDICTIONARY
360
6E34
102
}
102
{ACAD_REACTORS
330
6C64
102
}
330
6C64
100
AcDbVisualStyle
  2
Flat
 70
     0
 71
     2
 72
     1
 73
     1
 90
        2
 40
-0.6
 41
30.0
 62
     5
 63
     7
 74
     0
 91
        0
 64
     7
 65
   257
 75
     1
175
     1
 42
1.0
 92
        8
 66
     7
 43
1.0
 76
     1
 77
     6
 78
     2
 67
     7
 79
     5
170
     0
171
     0
290
     0
174
     0
 93
       13
 44
0.0
173
     0
291
     1
 45
0.0
1001
ACAD
1000
AcDbSavedByObjectVersion
1070
     0
  0
VISUALSTYLE
  5
6C66
102
{ACAD_XDICTIONARY
360
6E36
102
}
102
{ACAD_REACTORS
330
6C64
102
}
330
6C64
100
AcDbVisualStyle
  2
FlatWithEdges
 70
     1
 71
     2
 72
     1
 73
     1
 90
        2
 40
-0.6
 41
30.0
 62
     5
 63
     7
 74
     1
 91
        0
 64
     7
 65
   257
 75
     1
175
     1
 42
1.0
 92
        0
 66
   257
 43
1.0
 76
     1
 77
     6
 78
     2
 67
     7
 79
     5
170
     0
171
     0
290
     0
174
     0
 93
       13
 44
0.0
173
     0
291
     1
 45
0.0
1001
ACAD
1000
AcDbSavedByObjectVersion
1070
     0
  0
VISUALSTYLE
  5
6C67
102
{ACAD_XDICTIONARY
360
6E38
102
}
102
{ACAD_REACTORS
330
6C64
102
}
330
6C64
100
AcDbVisualStyle
  2
Gouraud
 70
     2
 71
     2
 72
     2
 73
     1
 90
        2
 40
-0.6
 41
30.0
 62
     5
 63
     7
 74
     0
 91
        0
 64
     7
 65
   257
 75
     1
175
     1
 42
1.0
 92
        0
 66
     7
 43
1.0
 76
     1
 77
     6
 78
     2
 67
     7
 79
     5
170
     0
171
     0
290
     0
174
     0
 93
       13
 44
0.0
173
     0
291
     1
 45
0.0
1001
ACAD
1000
AcDbSavedByObjectVersion
1070
     0
  0
VISUALSTYLE
  5
6C68
102
{ACAD_XDICTIONARY
360
6E3A
102
}
102
{ACAD_REACTORS
330
6C64
102
}
330
6C64
100
AcDbVisualStyle
  2
GouraudWithEdges
 70
     3
 71
     2
 72
     2
 73
     1
 90
        2
 40
-0.6
 41
30.0
 62
     5
 63
     7
 74
     1
 91
        0
 64
     7
 65
   257
 75
     1
175
     1
 42
1.0
 92
        0
 66
   257
 43
1.0
 76
     1
 77
     6
 78
     2
 67
     7
 79
     5
170
     0
171
     0
290
     0
174
     0
 93
       13
 44
0.0
173
     0
291
     1
 45
0.0
1001
ACAD
1000
AcDbSavedByObjectVersion
1070
     0
  0
VISUALSTYLE
  5
6C6C
102
{ACAD_XDICTIONARY
360
6E42
102
}
102
{ACAD_REACTORS
330
6C64
102
}
330
6C64
100
AcDbVisualStyle
  2
Hidden
 70
     6
 71
     1
 72
     2
 73
     2
 90
        0
 40
-0.6
 41
-30.0
 62
     5
 63
     7
 74
     2
 91
        2
 64
     7
 65
   257
 75
     2
175
     1
 42
40.0
 92
        0
 66
   257
 43
1.0
 76
     1
 77
     6
 78
     2
 67
     7
 79
     3
170
     0
171
     0
290
     0
174
     0
 93
        1
 44
0.0
173
     0
291
     0
 45
0.0
1001
ACAD
1000
AcDbSavedByObjectVersion
1070
     0
  0
VISUALSTYLE
  5
6C7A
102
{ACAD_XDICTIONARY
360
6E5E
102
}
102
{ACAD_REACTORS
330
6C64
102
}
330
6C64
100
AcDbVisualStyle
  2
JitterOff
 70
    20
 71
     2
 72
     2
 73
     0
 90
        0
 40
-0.6
 41
-30.0
 62
     5
 63
     7
 74
     1
 91
        4
 64
     7
 65
   257
 75
     1
175
     1
 42
1.0
 92
       10
 66
     7
 43
1.0
 76
     1
 77
     6
 78
     2
 67
     7
 79
     5
170
     0
171
     0
290
     0
174
     0
 93
        1
 44
0.0
173
     0
291
     1
 45
0.0
1001
ACAD
1000
AcDbSavedByObjectVersion
1070
     0
  0
VISUALSTYLE
  5
6C72
102
{ACAD_XDICTIONARY
360
6E4E
102
}
102
{ACAD_REACTORS
330
6C64
102
}
330
6C64
100
AcDbVisualStyle
  2
Linepattern
 70
    14
 71
     2
 72
     2
 73
     0
 90
        0
 40
-0.6
 41
-30.0
 62
     5
 63
     7
 74
     1
 91
        4
 64
     7
 65
   257
 75
     7
175
     7
 42
1.0
 92
        8
 66
     7
 43
1.0
 76
     1
 77
     6
 78
     2
 67
     7
 79
     5
170
     0
171
     0
290
     0
174
     0
 93
        1
 44
0.0
173
     0
291
     1
 45
0.0
1001
ACAD
1000
AcDbSavedByObjectVersion
1070
     0
  0
VISUALSTYLE
  5
6C7B
102
{ACAD_XDICTIONARY
360
6E60
102
}
102
{ACAD_REACTORS
330
6C64
102
}
330
6C64
100
AcDbVisualStyle
  2
OverhangOff
 70
    21
 71
     2
 72
     2
 73
     0
 90
        0
 40
-0.6
 41
-30.0
 62
     5
 63
     7
 74
     1
 91
        4
 64
     7
 65
   257
 75
     1
175
     1
 42
1.0
 92
        9
 66
     7
 43
1.0
 76
     1
 77
     6
 78
     2
 67
     7
 79
     5
170
     0
171
     0
290
     0
174
     0
 93
        1
 44
0.0
173
     0
291
     1
 45
0.0
1001
ACAD
1000
AcDbSavedByObjectVersion
1070
     0
  0
VISUALSTYLE
  5
6C6E
102
{ACAD_XDICTIONARY
360
6E46
102
}
102
{ACAD_REACTORS
330
6C64
102
}
330
6C64
100
AcDbVisualStyle
  2
Realistic
 70
     8
 71
     2
 72
     3
 73
     0
 90
        2
 40
-0.6
 41
30.0
 62
     5
 63
     7
 74
     0
 91
        0
 64
     7
 65
   257
 75
     1
175
     1
 42
1.0
 92
        8
 66
   257
 43
1.0
 76
     1
 77
     6
 78
     2
 67
     7
 79
     3
170
     0
171
     0
290
     0
174
     0
 93
       13
 44
0.0
173
     0
291
     0
 45
0.0
1001
ACAD
1000
AcDbSavedByObjectVersion
1070
     0
  0
VISUALSTYLE
  5
6C79
102
{ACAD_XDICTIONARY
360
6E5C
102
}
102
{ACAD_REACTORS
330
6C64
102
}
330
6C64
100
AcDbVisualStyle
  2
Shaded
 70
    27
 71
     2
 72
     2
 73
     1
 90
        2
 40
-0.6
 41
30.0
 62
     5
 63
     7
 74
     0
 91
        4
 64
     7
 65
   257
 75
     1
175
     1
 42
1.0
 92
        8
 66
   257
 43
1.0
 76
     1
 77
     6
 78
     2
 67
     8
 79
     3
170
     0
171
     0
290
     0
174
     0
 93
        5
 44
0.0
173
     0
291
     0
 45
0.0
1001
ACAD
1000
AcDbSavedByObjectVersion
1070
     0
  0
VISUALSTYLE
  5
6C78
102
{ACAD_XDICTIONARY
360
6E5A
102
}
102
{ACAD_REACTORS
330
6C64
102
}
330
6C64
100
AcDbVisualStyle
  2
Shaded with edges
 70
    26
 71
     2
 72
     2
 73
     1
 90
        2
 40
-0.6
 41
30.0
 62
     5
 63
     7
 74
     1
 91
        2
 64
     7
 65
   257
 75
     2
175
     1
 42
1.0
 92
        8
 66
   257
 43
1.0
 76
     1
 77
     6
 78
     2
 67
     7
 79
     3
170
     0
171
     0
290
     0
174
     0
 93
        5
 44
0.0
173
     0
291
     0
 45
0.0
1001
ACAD
1000
AcDbSavedByObjectVersion
1070
     0
  0
VISUALSTYLE
  5
6C75
102
{ACAD_XDICTIONARY
360
6E54
102
}
102
{ACAD_REACTORS
330
6C64
102
}
330
6C64
100
AcDbVisualStyle
  2
Shades of Gray
 70
    23
 71
     2
 72
     2
 73
     3
 90
        0
 40
-0.6
 41
-30.0
 62
     5
 63
     7
 74
     2
 91
        2
 64
     7
 65
     7
 75
     1
175
     1
 42
40.0
 92
        8
 66
     7
 43
1.0
 76
     1
 77
     6
 78
     2
 67
     7
 79
     3
170
     0
171
     0
290
     0
174
     0
 93
        1
 44
0.0
173
     0
291
     0
 45
0.0
1001
ACAD
1000
AcDbSavedByObjectVersion
1070
     0
  0
VISUALSTYLE
  5
6C76
102
{ACAD_XDICTIONARY
360
6E56
102
}
102
{ACAD_REACTORS
330
6C64
102
}
330
6C64
100
AcDbVisualStyle
  2
Sketchy
 70
    24
 71
     1
 72
     2
 73
     2
 90
        0
 40
-0.6
 41
-30.0
 62
     5
 63
     7
 74
     2
 91
        2
 64
     7
 65
     7
 75
     1
175
     1
 42
40.0
 92
       11
 66
     7
 43
1.0
 76
     1
 77
     6
 78
     2
 67
     7
 79
     6
170
     0
171
     0
290
     0
174
     0
 93
        1
 44
0.0
173
     0
291
     0
 45
0.0
1001
ACAD
1000
AcDbSavedByObjectVersion
1070
     0
  0
VISUALSTYLE
  5
6C71
102
{ACAD_XDICTIONARY
360
6E4C
102
}
102
{ACAD_REACTORS
330
6C64
102
}
330
6C64
100
AcDbVisualStyle
  2
Thicken
 70
    13
 71
     2
 72
     2
 73
     0
 90
        0
 40
-0.6
 41
-30.0
 62
     5
 63
     7
 74
     1
 91
        4
 64
     7
 65
   257
 75
     1
175
     1
 42
1.0
 92
       12
 66
     7
 43
1.0
 76
     1
 77
     6
 78
     2
 67
     7
 79
     5
170
     0
171
     0
290
     0
174
     0
 93
        1
 44
0.0
173
     0
291
     1
 45
0.0
1001
ACAD
1000
AcDbSavedByObjectVersion
1070
     0
  0
VISUALSTYLE
  5
6C6B
102
{ACAD_XDICTIONARY
360
6E40
102
}
102
{ACAD_REACTORS
330
6C64
102
}
330
6C64
100
AcDbVisualStyle
  2
Wireframe
 70
     5
 71
     0
 72
     2
 73
     0
 90
        0
 40
-0.6
 41
-30.0
 62
     5
 63
     7
 74
     1
 91
        4
 64
     7
 65
   257
 75
     1
175
     1
 42
1.0
 92
        0
 66
   257
 43
1.0
 76
     1
 77
     6
 78
     2
 67
     7
 79
     3
170
     0
171
     0
290
     0
174
     0
 93
        1
 44
0.0
173
     0
291
     0
 45
0.0
1001
ACAD
1000
AcDbSavedByObjectVersion
1070
     0
  0
VISUALSTYLE
  5
6C77
102
{ACAD_XDICTIONARY
360
6E58
102
}
102
{ACAD_REACTORS
330
6C64
102
}
330
6C64
100
AcDbVisualStyle
  2
X-Ray
 70
    25
 71
     2
 72
     2
 73
     1
 90
        1
 40
0.5
 41
-30.0
 62
     5
 63
     7
 74
     1
 91
        0
 64
     7
 65
   257
 75
     1
175
     1
 42
1.0
 92
        8
 66
     7
 43
1.0
 76
     1
 77
     6
 78
     2
 67
     7
 79
     3
170
     0
171
     0
290
     0
174
     0
 93
       13
 44
0.0
173
     0
291
     0
 45
0.0
1001
ACAD
1000
AcDbSavedByObjectVersion
1070
     0
  0
DICTIONARYVAR
  5
6E14
102
{ACAD_REACTORS
330
6C48
102
}
330
6C48
100
DictionaryVariables
280
     0
  1
1:1
  0
DICTIONARYVAR
  5
6E10
102
{ACAD_REACTORS
330
6C48
102
}
330
6C48
100
DictionaryVariables
280
     0
  1
STANDARD
  0
DICTIONARYVAR
  5
6E0F
102
{ACAD_REACTORS
330
6C48
102
}
330
6C48
100
DictionaryVariables
280
     0
  1
STANDARD
  0
DICTIONARYVAR
  5
6E11
102
{ACAD_REACTORS
330
6C48
102
}
330
6C48
100
DictionaryVariables
280
     0
  1
Metric50
  0
DICTIONARYVAR
  5
6E12
102
{ACAD_REACTORS
330
6C48
102
}
330
6C48
100
DictionaryVariables
280
     0
  1
Metric50
  0
DICTIONARYVAR
  5
6C49
102
{ACAD_REACTORS
330
6C48
102
}
330
6C48
100
DictionaryVariables
280
     0
  1
1
  0
DICTIONARYVAR
  5
6E1F
102
{ACAD_REACTORS
330
6C48
102
}
330
6C48
100
DictionaryVariables
280
     0
  1
0
  0
DICTIONARYVAR
  5
6E16
102
{ACAD_REACTORS
330
6C48
102
}
330
6C48
100
DictionaryVariables
280
     0
  1
1
  0
DICTIONARYVAR
  5
6E17
102
{ACAD_REACTORS
330
6C48
102
}
330
6C48
100
DictionaryVariables
280
     0
  1
15
  0
DICTIONARYVAR
  5
6E15
102
{ACAD_REACTORS
330
6C48
102
}
330
6C48
100
DictionaryVariables
280
     0
  1
0
  0
DICTIONARYVAR
  5
6E13
102
{ACAD_REACTORS
330
6C48
102
}
330
6C48
100
DictionaryVariables
280
     0
  1
0
  0
DICTIONARYVAR
  5
6E1E
102
{ACAD_REACTORS
330
6C48
102
}
330
6C48
100
DictionaryVariables
280
     0
  1
127
  0
DICTIONARYVAR
  5
6E20
102
{ACAD_REACTORS
330
6C48
102
}
330
6C48
100
DictionaryVariables
280
     0
  1
2
  0
DICTIONARY
  5
6E2C
102
{ACAD_REACTORS
330
6E2A
102
}
330
6E2A
100
AcDbDictionary
281
     1
  0
DICTIONARY
  5
6E2B
102
{ACAD_REACTORS
330
6E2A
102
}
330
6E2A
100
AcDbDictionary
281
     1
  3
140687754363472
350
6E25
  3
140687754363488
350
6E26
  3
140687754363504
350
6E27
  3
140687754363520
350
6E28
  3
140687754363536
350
6E29
  0
DICTIONARY
  5
6E0D
330
6C97
100
AcDbDictionary
280
     1
281
     1
  3
ACAD_XREC_ROUNDTRIP
360
6E0E
  0
DICTIONARY
  5
6E2D
330
1E94
100
AcDbDictionary
280
     1
281
     1
  3
ACAD_XREC_ROUNDTRIP
360
6E2E
  0
DICTIONARY
  5
6E2F
330
1E95
100
AcDbDictionary
280
     1
281
     1
  3
ACAD_XREC_ROUNDTRIP
360
6E30
  0
DICTIONARY
  5
6C55
330
6C54
100
AcDbDictionary
280
     1
281
     1
  3
ACAD_XREC_ROUNDTRIP
360
6E32
  3
BUMPTILE
360
6C57
  3
DIFFUSETILE
360
6C56
  3
OPACITYTILE
360
6C5A
  3
REFLECTIONTILE
360
6C59
  3
REFRACTIONTILE
360
6C5B
  3
SPECULARTILE
360
6C58
  0
DICTIONARY
  5
6C4D
330
6C4C
100
AcDbDictionary
280
     1
281
     1
  3
ACAD_XREC_ROUNDTRIP
360
6E31
  3
BUMPTILE
360
6C4F
  3
DIFFUSETILE
360
6C4E
  3
OPACITYTILE
360
6C52
  3
REFLECTIONTILE
360
6C51
  3
REFRACTIONTILE
360
6C53
  3
SPECULARTILE
360
6C50
  0
DICTIONARY
  5
6C5D
330
6C5C
100
AcDbDictionary
280
     1
281
     1
  3
ACAD_XREC_ROUNDTRIP
360
6E33
  3
BUMPTILE
360
6C5F
  3
DIFFUSETILE
360
6C5E
  3
OPACITYTILE
360
6C62
  3
REFLECTIONTILE
360
6C61
  3
REFRACTIONTILE
360
6C63
  3
SPECULARTILE
360
6C60
  0
DICTIONARY
  5
6E66
330
6C93
100
AcDbDictionary
280
     1
281
     1
  3
ACAD_XREC_ROUNDTRIP
360
6E67
  0
DICTIONARY
  5
6E0B
330
6C95
100
AcDbDictionary
280
     1
281
     1
  3
ACAD_XREC_ROUNDTRIP
360
6E0C
  0
DICTIONARY
  5
6E21
330
6C7F
100
AcDbDictionary
280
     1
281
     1
  3
ACAD_ROUNDTRIP_2008_TABLESTYLE_CELLSTYLEMAP
360
6E22
  3
ACAD_XREC_ROUNDTRIP
360
6E64
  0
DICTIONARY
  5
6E3E
330
6C6A
100
AcDbDictionary
280
     1
281
     1
  3
ACAD_XREC_ROUNDTRIP
360
6E3F
  0
DICTIONARY
  5
6E3C
330
6C69
100
AcDbDictionary
280
     1
281
     1
  3
ACAD_XREC_ROUNDTRIP
360
6E3D
  0
DICTIONARY
  5
6E4A
330
6C70
100
AcDbDictionary
280
     1
281
     1
  3
ACAD_XREC_ROUNDTRIP
360
6E4B
  0
DICTIONARY
  5
6E52
330
6C74
100
AcDbDictionary
280
     1
281
     1
  3
ACAD_XREC_ROUNDTRIP
360
6E53
  0
DICTIONARY
  5
6E44
330
6C6D
100
AcDbDictionary
280
     1
281
     1
  3
ACAD_XREC_ROUNDTRIP
360
6E45
  0
DICTIONARY
  5
6E48
330
6C6F
100
AcDbDictionary
280
     1
281
     1
  3
ACAD_XREC_ROUNDTRIP
360
6E49
  0
DICTIONARY
  5
6E62
330
6C7C
100
AcDbDictionary
280
     1
281
     1
  3
ACAD_XREC_ROUNDTRIP
360
6E63
  0
DICTIONARY
  5
6E50
330
6C73
100
AcDbDictionary
280
     1
281
     1
  3
ACAD_XREC_ROUNDTRIP
360
6E51
  0
DICTIONARY
  5
6E34
330
6C65
100
AcDbDictionary
280
     1
281
     1
  3
ACAD_XREC_ROUNDTRIP
360
6E35
  0
DICTIONARY
  5
6E36
330
6C66
100
AcDbDictionary
280
     1
281
     1
  3
ACAD_XREC_ROUNDTRIP
360
6E37
  0
DICTIONARY
  5
6E38
330
6C67
100
AcDbDictionary
280
     1
281
     1
  3
ACAD_XREC_ROUNDTRIP
360
6E39
  0
DICTIONARY
  5
6E3A
330
6C68
100
AcDbDictionary
280
     1
281
     1
  3
ACAD_XREC_ROUNDTRIP
360
6E3B
  0
DICTIONARY
  5
6E42
330
6C6C
100
AcDbDictionary
280
     1
281
     1
  3
ACAD_XREC_ROUNDTRIP
360
6E43
  0
DICTIONARY
  5
6E5E
330
6C7A
100
AcDbDictionary
280
     1
281
     1
  3
ACAD_XREC_ROUNDTRIP
360
6E5F
  0
DICTIONARY
  5
6E4E
330
6C72
100
AcDbDictionary
280
     1
281
     1
  3
ACAD_XREC_ROUNDTRIP
360
6E4F
  0
DICTIONARY
  5
6E60
330
6C7B
100
AcDbDictionary
280
     1
281
     1
  3
ACAD_XREC_ROUNDTRIP
360
6E61
  0
DICTIONARY
  5
6E46
330
6C6E
100
AcDbDictionary
280
     1
281
     1
  3
ACAD_XREC_ROUNDTRIP
360
6E47
  0
DICTIONARY
  5
6E5C
330
6C79
100
AcDbDictionary
280
     1
281
     1
  3
ACAD_XREC_ROUNDTRIP
360
6E5D
  0
DICTIONARY
  5
6E5A
330
6C78
100
AcDbDictionary
280
     1
281
     1
  3
ACAD_XREC_ROUNDTRIP
360
6E5B
  0
DICTIONARY
  5
6E54
330
6C75
100
AcDbDictionary
280
     1
281
     1
  3
ACAD_XREC_ROUNDTRIP
360
6E55
  0
DICTIONARY
  5
6E56
330
6C76
100
AcDbDictionary
280
     1
281
     1
  3
ACAD_XREC_ROUNDTRIP
360
6E57
  0
DICTIONARY
  5
6E4C
330
6C71
100
AcDbDictionary
280
     1
281
     1
  3
ACAD_XREC_ROUNDTRIP
360
6E4D
  0
DICTIONARY
  5
6E40
330
6C6B
100
AcDbDictionary
280
     1
281
     1
  3
ACAD_XREC_ROUNDTRIP
360
6E41
  0
DICTIONARY
  5
6E58
330
6C77
100
AcDbDictionary
280
     1
281
     1
  3
ACAD_XREC_ROUNDTRIP
360
6E59
  0
XRECORD
  5
6E25
102
{ACAD_REACTORS
330
6E2B
102
}
330
6E2B
100
AcDbXrecord
280
     1
  1
AcDb_Thumbnail_Schema
102
{ATTRRECORD
341
6E26
  2
AcDbDs::TreatedAsObjectData
280
     1
291
     1
102
ATTRRECORD}
102
{ATTRRECORD
341
6E27
  2
AcDbDs::Legacy
280
     1
291
     1
102
ATTRRECORD}
  2
AcDbDs::ID
280
    10
 91
        8
102
{ATTRRECORD
341
6E28
  2
AcDs:Indexable
280
     1
291
     1
102
ATTRRECORD}
102
{ATTRRECORD
341
6E29
  2
AcDbDs::HandleAttribute
280
     7
282
     1
102
ATTRRECORD}
  2
Thumbnail_Data
280
    15
 91
        0
  0
XRECORD
  5
6E26
102
{ACAD_REACTORS
330
6E2B
102
}
330
6E2B
100
AcDbXrecord
280
     1
  1
AcDbDs::TreatedAsObjectDataSchema
  2
AcDbDs::TreatedAsObjectData
280
     1
 91
        0
  0
XRECORD
  5
6E27
102
{ACAD_REACTORS
330
6E2B
102
}
330
6E2B
100
AcDbXrecord
280
     1
  1
AcDbDs::LegacySchema
  2
AcDbDs::Legacy
280
     1
 91
        0
  0
XRECORD
  5
6E28
102
{ACAD_REACTORS
330
6E2B
102
}
330
6E2B
100
AcDbXrecord
280
     1
  1
AcDbDs::IndexedPropertySchema
  2
AcDs:Indexable
280
     1
 91
        0
  0
XRECORD
  5
6E29
102
{ACAD_REACTORS
330
6E2B
102
}
330
6E2B
100
AcDbXrecord
280
     1
  1
AcDbDs::HandleAttributeSchema
  2
AcDbDs::HandleAttribute
280
     7
 91
        1
284
     1
  0
XRECORD
  5
6E0E
102
{ACAD_REACTORS
330
6E0D
102
}
330
6E0D
100
AcDbXrecord
280
     1
102
DISPLAYNAME
  1
Metric50
102
FLAGS
 90
        0
  0
XRECORD
  5
6E2E
102
{ACAD_REACTORS
330
6E2D
102
}
330
6E2D
100
AcDbXrecord
280
     1
102
SHADEPLOT
 70
     0
102
SHADEPLOTRESLEVEL
 70
     2
102
SHADEPLOTCUSTOMDPI
 70
   300
  0
XRECORD
  5
6E30
102
{ACAD_REACTORS
330
6E2F
102
}
330
6E2F
100
AcDbXrecord
280
     1
102
SHADEPLOT
 70
     0
102
SHADEPLOTRESLEVEL
 70
     2
102
SHADEPLOTCUSTOMDPI
 70
   300
  0
XRECORD
  5
6E32
102
{ACAD_REACTORS
330
6C55
102
}
330
6C55
100
AcDbXrecord
280
     1
102
MATERIAL
148
0.0
149
0.0
149
0.0
 93
        0
 94
      127
282
     0
 72
     0
 77
     0
171
     0
175
     0
179
     0
273
     0
  0
XRECORD
  5
6C57
102
{ACAD_REACTORS
330
6C55
102
}
330
6C55
100
AcDbXrecord
280
     1
270
     1
271
     1
  0
XRECORD
  5
6C56
102
{ACAD_REACTORS
330
6C55
102
}
330
6C55
100
AcDbXrecord
280
     1
270
     1
271
     1
  0
XRECORD
  5
6C5A
102
{ACAD_REACTORS
330
6C55
102
}
330
6C55
100
AcDbXrecord
280
     1
270
     1
271
     1
  0
XRECORD
  5
6C59
102
{ACAD_REACTORS
330
6C55
102
}
330
6C55
100
AcDbXrecord
280
     1
270
     1
271
     1
  0
XRECORD
  5
6C5B
102
{ACAD_REACTORS
330
6C55
102
}
330
6C55
100
AcDbXrecord
280
     1
270
     1
271
     1
  0
XRECORD
  5
6C58
102
{ACAD_REACTORS
330
6C55
102
}
330
6C55
100
AcDbXrecord
280
     1
270
     1
271
     1
  0
XRECORD
  5
6E31
102
{ACAD_REACTORS
330
6C4D
102
}
330
6C4D
100
AcDbXrecord
280
     1
102
MATERIAL
148
0.0
149
0.0
149
0.0
 93
        0
 94
      127
282
     0
 72
     0
 77
     0
171
     0
175
     0
179
     0
273
     0
  0
XRECORD
  5
6C4F
102
{ACAD_REACTORS
330
6C4D
102
}
330
6C4D
100
AcDbXrecord
280
     1
270
     1
271
     1
  0
XRECORD
  5
6C4E
102
{ACAD_REACTORS
330
6C4D
102
}
330
6C4D
100
AcDbXrecord
280
     1
270
     1
271
     1
  0
XRECORD
  5
6C52
102
{ACAD_REACTORS
330
6C4D
102
}
330
6C4D
100
AcDbXrecord
280
     1
270
     1
271
     1
  0
XRECORD
  5
6C51
102
{ACAD_REACTORS
330
6C4D
102
}
330
6C4D
100
AcDbXrecord
280
     1
270
     1
271
     1
  0
XRECORD
  5
6C53
102
{ACAD_REACTORS
330
6C4D
102
}
330
6C4D
100
AcDbXrecord
280
     1
270
     1
271
     1
  0
XRECORD
  5
6C50
102
{ACAD_REACTORS
330
6C4D
102
}
330
6C4D
100
AcDbXrecord
280
     1
270
     1
271
     1
  0
XRECORD
  5
6E33
102
{ACAD_REACTORS
330
6C5D
102
}
330
6C5D
100
AcDbXrecord
280
     1
102
MATERIAL
148
0.0
149
0.0
149
0.0
 93
        0
 94
      127
282
     0
 72
     0
 77
     0
171
     0
175
     0
179
     0
273
     0
  0
XRECORD
  5
6C5F
102
{ACAD_REACTORS
330
6C5D
102
}
330
6C5D
100
AcDbXrecord
280
     1
270
     1
271
     1
  0
XRECORD
  5
6C5E
102
{ACAD_REACTORS
330
6C5D
102
}
330
6C5D
100
AcDbXrecord
280
     1
270
     1
271
     1
  0
XRECORD
  5
6C62
102
{ACAD_REACTORS
330
6C5D
102
}
330
6C5D
100
AcDbXrecord
280
     1
270
     1
271
     1
  0
XRECORD
  5
6C61
102
{ACAD_REACTORS
330
6C5D
102
}
330
6C5D
100
AcDbXrecord
280
     1
270
     1
271
     1
  0
XRECORD
  5
6C63
102
{ACAD_REACTORS
330
6C5D
102
}
330
6C5D
100
AcDbXrecord
280
     1
270
     1
271
     1
  0
XRECORD
  5
6C60
102
{ACAD_REACTORS
330
6C5D
102
}
330
6C5D
100
AcDbXrecord
280
     1
270
     1
271
     1
  0
XRECORD
  5
6E67
102
{ACAD_REACTORS
330
6E66
102
}
330
6E66
100
AcDbXrecord
280
     1
102
ACAD_ROUNDTRIP_2012_MLEADER_STYLE
298
     1
  0
XRECORD
  5
6E0C
102
{ACAD_REACTORS
330
6E0B
102
}
330
6E0B
100
AcDbXrecord
280
     1
102
DISPLAYNAME
  1
Metric50
102
FLAGS
 90
        0
  0
CELLSTYLEMAP
  5
6E22
102
{ACAD_REACTORS
330
6E21
102
}
330
6E21
100
AcDbCellStyleMap
 90
        3
300
CELLSTYLE
  1
TABLEFORMAT_BEGIN
 90
        5
170
     1
 91
        0
 92
    32768
 62
   257
 93
        1
300
CONTENTFORMAT
  1
CONTENTFORMAT_BEGIN
 90
        0
 91
        0
 92
      512
 93
        0
300

 40
0.0
140
1.0
 94
        5
 62
     0
340
10
144
6.0
309
CONTENTFORMAT_END
171
     1
301
MARGIN
  1
CELLMARGIN_BEGIN
 40
1.5
 40
1.5
 40
1.5
 40
1.5
 40
4.5
 40
4.5
309
CELLMARGIN_END
 94
        6
 95
        1
302
GRIDFORMAT
  1
GRIDFORMAT_BEGIN
 90
        0
 91
        1
 62
     0
 92
       -2
340
0
 93
        0
 40
1.125
309
GRIDFORMAT_END
 95
        2
302
GRIDFORMAT
  1
GRIDFORMAT_BEGIN
 90
        0
 91
        1
 62
     0
 92
       -2
340
0
 93
        0
 40
1.125
309
GRIDFORMAT_END
 95
        4
302
GRIDFORMAT
  1
GRIDFORMAT_BEGIN
 90
        0
 91
        1
 62
     0
 92
       -2
340
0
 93
        0
 40
1.125
309
GRIDFORMAT_END
 95
        8
302
GRIDFORMAT
  1
GRIDFORMAT_BEGIN
 90
        0
 91
        1
 62
     0
 92
       -2
340
0
 93
        0
 40
1.125
309
GRIDFORMAT_END
 95
       16
302
GRIDFORMAT
  1
GRIDFORMAT_BEGIN
 90
        0
 91
        1
 62
     0
 92
       -2
340
0
 93
        0
 40
1.125
309
GRIDFORMAT_END
 95
       32
302
GRIDFORMAT
  1
GRIDFORMAT_BEGIN
 90
        0
 91
        1
 62
     0
 92
       -2
340
0
 93
        0
 40
1.125
309
GRIDFORMAT_END
309
TABLEFORMAT_END
  1
CELLSTYLE_BEGIN
 90
        1
 91
        1
300
_TITLE
309
CELLSTYLE_END
300
CELLSTYLE
  1
TABLEFORMAT_BEGIN
 90
        5
170
     1
 91
        0
 92
        0
 62
   257
 93
        1
300
CONTENTFORMAT
  1
CONTENTFORMAT_BEGIN
 90
        0
 91
        0
 92
      512
 93
        0
300

 40
0.0
140
1.0
 94
        5
 62
     0
340
10
144
4.5
309
CONTENTFORMAT_END
171
     1
301
MARGIN
  1
CELLMARGIN_BEGIN
 40
1.5
 40
1.5
 40
1.5
 40
1.5
 40
4.5
 40
4.5
309
CELLMARGIN_END
 94
        6
 95
        1
302
GRIDFORMAT
  1
GRIDFORMAT_BEGIN
 90
        0
 91
        1
 62
     0
 92
       -2
340
0
 93
        0
 40
1.125
309
GRIDFORMAT_END
 95
        2
302
GRIDFORMAT
  1
GRIDFORMAT_BEGIN
 90
        0
 91
        1
 62
     0
 92
       -2
340
0
 93
        0
 40
1.125
309
GRIDFORMAT_END
 95
        4
302
GRIDFORMAT
  1
GRIDFORMAT_BEGIN
 90
        0
 91
        1
 62
     0
 92
       -2
340
0
 93
        0
 40
1.125
309
GRIDFORMAT_END
 95
        8
302
GRIDFORMAT
  1
GRIDFORMAT_BEGIN
 90
        0
 91
        1
 62
     0
 92
       -2
340
0
 93
        0
 40
1.125
309
GRIDFORMAT_END
 95
       16
302
GRIDFORMAT
  1
GRIDFORMAT_BEGIN
 90
        0
 91
        1
 62
     0
 92
       -2
340
0
 93
        0
 40
1.125
309
GRIDFORMAT_END
 95
       32
302
GRIDFORMAT
  1
GRIDFORMAT_BEGIN
 90
        0
 91
        1
 62
     0
 92
       -2
340
0
 93
        0
 40
1.125
309
GRIDFORMAT_END
309
TABLEFORMAT_END
  1
CELLSTYLE_BEGIN
 90
        2
 91
        1
300
_HEADER
309
CELLSTYLE_END
300
CELLSTYLE
  1
TABLEFORMAT_BEGIN
 90
        5
170
     1
 91
        0
 92
        0
 62
   257
 93
        1
300
CONTENTFORMAT
  1
CONTENTFORMAT_BEGIN
 90
        0
 91
        0
 92
      512
 93
        0
300

 40
0.0
140
1.0
 94
        2
 62
     0
340
10
144
4.5
309
CONTENTFORMAT_END
171
     1
301
MARGIN
  1
CELLMARGIN_BEGIN
 40
1.5
 40
1.5
 40
1.5
 40
1.5
 40
4.5
 40
4.5
309
CELLMARGIN_END
 94
        6
 95
        1
302
GRIDFORMAT
  1
GRIDFORMAT_BEGIN
 90
        0
 91
        1
 62
     0
 92
       -2
340
0
 93
        0
 40
1.125
309
GRIDFORMAT_END
 95
        2
302
GRIDFORMAT
  1
GRIDFORMAT_BEGIN
 90
        0
 91
        1
 62
     0
 92
       -2
340
0
 93
        0
 40
1.125
309
GRIDFORMAT_END
 95
        4
302
GRIDFORMAT
  1
GRIDFORMAT_BEGIN
 90
        0
 91
        1
 62
     0
 92
       -2
340
0
 93
        0
 40
1.125
309
GRIDFORMAT_END
 95
        8
302
GRIDFORMAT
  1
GRIDFORMAT_BEGIN
 90
        0
 91
        1
 62
     0
 92
       -2
340
0
 93
        0
 40
1.125
309
GRIDFORMAT_END
 95
       16
302
GRIDFORMAT
  1
GRIDFORMAT_BEGIN
 90
        0
 91
        1
 62
     0
 92
       -2
340
0
 93
        0
 40
1.125
309
GRIDFORMAT_END
 95
       32
302
GRIDFORMAT
  1
GRIDFORMAT_BEGIN
 90
        0
 91
        1
 62
     0
 92
       -2
340
0
 93
        0
 40
1.125
309
GRIDFORMAT_END
309
TABLEFORMAT_END
  1
CELLSTYLE_BEGIN
 90
        3
 91
        2
300
_DATA
309
CELLSTYLE_END
  0
XRECORD
  5
6E64
102
{ACAD_REACTORS
330
6E21
102
}
330
6E21
100
AcDbXrecord
280
     1
102
ACAD_ROUNDTRIP_PRE2007_TABLESTYLE
 90
      512
 91
        0
  1

 92
      512
 93
        0
  2

 94
      512
 95
        0
  3

  0
XRECORD
  5
6E3F
102
{ACAD_REACTORS
330
6E3E
102
}
330
6E3E
100
AcDbXrecord
280
     1
102
RTVSPost2010Prop28
280
     1
102
RTVSPost2010PropOp28
 70
     1
102
RTVSPost2010Prop29
280
     1
102
RTVSPost2010PropOp29
 70
     1
102
RTVSPost2010Prop30
280
     0
102
RTVSPost2010PropOp30
 70
     1
102
RTVSPost2010Prop31
280
     0
102
RTVSPost2010PropOp31
 70
     1
102
RTVSPost2010Prop32
280
     0
102
RTVSPost2010PropOp32
 70
     1
102
RTVSPost2010Prop33
280
     0
102
RTVSPost2010PropOp33
 70
     1
102
RTVSPost2010Prop34
280
     0
102
RTVSPost2010PropOp34
 70
     1
102
RTVSPost2010Prop35
280
     0
102
RTVSPost2010PropOp35
 70
     1
102
RTVSPost2010Prop36
280
     0
102
RTVSPost2010PropOp36
 70
     1
102
RTVSPost2010Prop37
 90
       50
102
RTVSPost2010PropOp37
 70
     1
102
RTVSPost2010Prop38
140
0.0
102
RTVSPost2010PropOp38
 70
     1
102
RTVSPost2010Prop39
140
1.0
102
RTVSPost2010PropOp39
 70
     1
102
RTVSPost2010Prop40
 90
        0
102
RTVSPost2010PropOp40
 70
     1
102
RTVSPost2010Prop41ColorIndex
 90
       18
102
RTVSPost2010Prop41ColorRGB
 90
        0
102
RTVSPost2010PropOp41
 70
     1
102
RTVSPost2010Prop42
 90
       50
102
RTVSPost2010PropOp42
 70
     1
102
RTVSPost2010Prop43
 90
        3
102
RTVSPost2010PropOp43
 70
     1
102
RTVSPost2010Prop44ColorIndex
 90
        5
102
RTVSPost2010Prop44ColorRGB
 90
      255
102
RTVSPost2010PropOp44
 70
     1
102
RTVSPost2010Prop45
280
     0
102
RTVSPost2010PropOp45
 70
     1
102
RTVSPost2010Prop46
 90
       50
102
RTVSPost2010PropOp46
 70
     1
102
RTVSPost2010Prop47
 90
       50
102
RTVSPost2010PropOp47
 70
     1
102
RTVSPost2010Prop48
 90
       50
102
RTVSPost2010PropOp48
 70
     1
102
RTVSPost2010Prop49
280
     0
102
RTVSPost2010PropOp49
 70
     1
102
RTVSPost2010Prop50
 90
       50
102
RTVSPost2010PropOp50
 70
     1
102
RTVSPost2010Prop51ColorIndex
 90
      256
102
RTVSPost2010Prop51ColorRGB
 90
-16777216
102
RTVSPost2010PropOp51
 70
     0
102
RTVSPost2010Prop52
140
1.0
102
RTVSPost2010PropOp52
 70
     0
102
RTVSPost2010Prop53
 90
        2
102
RTVSPost2010PropOp53
 70
     1
102
RTVSPost2010Prop54
  1
strokes_ogs.tif
102
RTVSPost2010PropOp54
 70
     1
102
RTVSPost2010Prop55
280
     0
102
RTVSPost2010PropOp55
 70
     1
102
RTVSPost2010Prop56
140
1.0
102
RTVSPost2010PropOp56
 70
     1
102
RTVSPost2010Prop57
140
1.0
102
RTVSPost2010PropOp57
 70
     1
102
RTVSPropertyOp0
 70
     1
102
RTVSPropertyOp1
 70
     1
102
RTVSPropertyOp2
 70
     1
102
RTVSPropertyOp3
 70
     1
102
RTVSPropertyOp4
 70
     1
102
RTVSPropertyOp5
 70
     1
102
RTVSPropertyOp6
 70
     1
102
RTVSPropertyOp7
 70
     1
102
RTVSPropertyOp8
 70
     1
102
RTVSPropertyOp9
 70
     1
102
RTVSPropertyOp10
 70
     1
102
RTVSPropertyOp11
 70
     1
102
RTVSPropertyOp12
 70
     1
102
RTVSPropertyOp13
 70
     1
102
RTVSPropertyOp14
 70
     1
102
RTVSPropertyOp15
 70
     1
102
RTVSPropertyOp16
 70
     1
102
RTVSPropertyOp17
 70
     1
102
RTVSPropertyOp18
 70
     1
102
RTVSPropertyOp19
 70
     1
102
RTVSPropertyOp20
 70
     1
102
RTVSPropertyOp21
 70
     1
102
RTVSPropertyOp22
 70
     1
102
RTVSPropertyOp23
 70
     1
102
RTVSPropertyOp24
 70
     1
102
RTVSPropertyOp25
 70
     1
102
RTVSPropertyOp26
 70
     1
102
RTVSPropertyOp27
 70
     1
102
RTVSPropertyOp28
 70
     1
102
RTVSPropertyOp29
 70
     1
102
RTVSPropertyOp30
 70
     1
102
RTVSPropertyOp31
 70
     1
102
RTVSPropertyOp32
 70
     1
102
RTVSPropertyOp33
 70
     1
102
RTVSPropertyOp34
 70
     1
102
RTVSPropertyOp35
 70
     1
102
RTVSPropertyOp36
 70
     1
102
RTVSPropertyOp37
 70
     1
102
RTVSPropertyOp38
 70
     1
102
RTVSPropertyOp39
 70
     1
102
RTVSPropertyOp40
 70
     1
102
RTVSPropertyOp41
 70
     1
102
RTVSPropertyOp42
 70
     1
102
RTVSPropertyOp43
 70
     1
102
RTVSPropertyOp44
 70
     1
102
RTVSPropertyOp45
 70
     1
102
RTVSPropertyOp46
 70
     1
102
RTVSPropertyOp47
 70
     1
102
RTVSPropertyOp48
 70
     1
102
RTVSPropertyOp49
 70
     1
102
RTVSPropertyOp50
 70
     1
102
RTVSPropertyOp51
 70
     0
102
RTVSPropertyOp52
 70
     0
102
RTVSPropertyOp53
 70
     1
102
RTVSPropertyOp54
 70
     1
102
RTVSPropertyOp55
 70
     1
102
RTVSPropertyOp56
 70
     1
102
RTVSPropertyOp57
 70
     1
102
RTVSPropertyOp58
 70
     1
102
RTVSPropertyOp59
 70
     1
102
RTVSPropertyOp60
 70
     1
102
RTVSPropertyOp61
 70
     1
102
RTVSPropertyOp62
 70
     1
  0
XRECORD
  5
6E3D
102
{ACAD_REACTORS
330
6E3C
102
}
330
6E3C
100
AcDbXrecord
280
     1
102
RTVSPost2010Prop28
280
     0
102
RTVSPost2010PropOp28
 70
     1
102
RTVSPost2010Prop29
280
     1
102
RTVSPost2010PropOp29
 70
     1
102
RTVSPost2010Prop30
280
     1
102
RTVSPost2010PropOp30
 70
     1
102
RTVSPost2010Prop31
280
     0
102
RTVSPost2010PropOp31
 70
     1
102
RTVSPost2010Prop32
280
     0
102
RTVSPost2010PropOp32
 70
     1
102
RTVSPost2010Prop33
280
     0
102
RTVSPost2010PropOp33
 70
     1
102
RTVSPost2010Prop34
280
     0
102
RTVSPost2010PropOp34
 70
     1
102
RTVSPost2010Prop35
280
     0
102
RTVSPost2010PropOp35
 70
     1
102
RTVSPost2010Prop36
280
     0
102
RTVSPost2010PropOp36
 70
     1
102
RTVSPost2010Prop37
 90
       50
102
RTVSPost2010PropOp37
 70
     1
102
RTVSPost2010Prop38
140
0.0
102
RTVSPost2010PropOp38
 70
     1
102
RTVSPost2010Prop39
140
1.0
102
RTVSPost2010PropOp39
 70
     1
102
RTVSPost2010Prop40
 90
        0
102
RTVSPost2010PropOp40
 70
     1
102
RTVSPost2010Prop41ColorIndex
 90
       18
102
RTVSPost2010Prop41ColorRGB
 90
        0
102
RTVSPost2010PropOp41
 70
     1
102
RTVSPost2010Prop42
 90
       50
102
RTVSPost2010PropOp42
 70
     1
102
RTVSPost2010Prop43
 90
        3
102
RTVSPost2010PropOp43
 70
     1
102
RTVSPost2010Prop44ColorIndex
 90
        5
102
RTVSPost2010Prop44ColorRGB
 90
      255
102
RTVSPost2010PropOp44
 70
     1
102
RTVSPost2010Prop45
280
     0
102
RTVSPost2010PropOp45
 70
     1
102
RTVSPost2010Prop46
 90
       50
102
RTVSPost2010PropOp46
 70
     1
102
RTVSPost2010Prop47
 90
       50
102
RTVSPost2010PropOp47
 70
     1
102
RTVSPost2010Prop48
 90
       50
102
RTVSPost2010PropOp48
 70
     1
102
RTVSPost2010Prop49
280
     0
102
RTVSPost2010PropOp49
 70
     1
102
RTVSPost2010Prop50
 90
       50
102
RTVSPost2010PropOp50
 70
     1
102
RTVSPost2010Prop51ColorIndex
 90
      256
102
RTVSPost2010Prop51ColorRGB
 90
-16777216
102
RTVSPost2010PropOp51
 70
     0
102
RTVSPost2010Prop52
140
1.0
102
RTVSPost2010PropOp52
 70
     0
102
RTVSPost2010Prop53
 90
        2
102
RTVSPost2010PropOp53
 70
     1
102
RTVSPost2010Prop54
  1
strokes_ogs.tif
102
RTVSPost2010PropOp54
 70
     1
102
RTVSPost2010Prop55
280
     0
102
RTVSPost2010PropOp55
 70
     1
102
RTVSPost2010Prop56
140
1.0
102
RTVSPost2010PropOp56
 70
     1
102
RTVSPost2010Prop57
140
1.0
102
RTVSPost2010PropOp57
 70
     1
102
RTVSPropertyOp0
 70
     1
102
RTVSPropertyOp1
 70
     1
102
RTVSPropertyOp2
 70
     1
102
RTVSPropertyOp3
 70
     1
102
RTVSPropertyOp4
 70
     1
102
RTVSPropertyOp5
 70
     1
102
RTVSPropertyOp6
 70
     1
102
RTVSPropertyOp7
 70
     1
102
RTVSPropertyOp8
 70
     1
102
RTVSPropertyOp9
 70
     1
102
RTVSPropertyOp10
 70
     1
102
RTVSPropertyOp11
 70
     1
102
RTVSPropertyOp12
 70
     1
102
RTVSPropertyOp13
 70
     1
102
RTVSPropertyOp14
 70
     1
102
RTVSPropertyOp15
 70
     1
102
RTVSPropertyOp16
 70
     1
102
RTVSPropertyOp17
 70
     1
102
RTVSPropertyOp18
 70
     1
102
RTVSPropertyOp19
 70
     1
102
RTVSPropertyOp20
 70
     1
102
RTVSPropertyOp21
 70
     1
102
RTVSPropertyOp22
 70
     1
102
RTVSPropertyOp23
 70
     1
102
RTVSPropertyOp24
 70
     1
102
RTVSPropertyOp25
 70
     1
102
RTVSPropertyOp26
 70
     1
102
RTVSPropertyOp27
 70
     1
102
RTVSPropertyOp28
 70
     1
102
RTVSPropertyOp29
 70
     1
102
RTVSPropertyOp30
 70
     1
102
RTVSPropertyOp31
 70
     1
102
RTVSPropertyOp32
 70
     1
102
RTVSPropertyOp33
 70
     1
102
RTVSPropertyOp34
 70
     1
102
RTVSPropertyOp35
 70
     1
102
RTVSPropertyOp36
 70
     1
102
RTVSPropertyOp37
 70
     1
102
RTVSPropertyOp38
 70
     1
102
RTVSPropertyOp39
 70
     1
102
RTVSPropertyOp40
 70
     1
102
RTVSPropertyOp41
 70
     1
102
RTVSPropertyOp42
 70
     1
102
RTVSPropertyOp43
 70
     1
102
RTVSPropertyOp44
 70
     1
102
RTVSPropertyOp45
 70
     1
102
RTVSPropertyOp46
 70
     1
102
RTVSPropertyOp47
 70
     1
102
RTVSPropertyOp48
 70
     1
102
RTVSPropertyOp49
 70
     1
102
RTVSPropertyOp50
 70
     1
102
RTVSPropertyOp51
 70
     0
102
RTVSPropertyOp52
 70
     0
102
RTVSPropertyOp53
 70
     1
102
RTVSPropertyOp54
 70
     1
102
RTVSPropertyOp55
 70
     1
102
RTVSPropertyOp56
 70
     1
102
RTVSPropertyOp57
 70
     1
102
RTVSPropertyOp58
 70
     1
102
RTVSPropertyOp59
 70
     1
102
RTVSPropertyOp60
 70
     1
102
RTVSPropertyOp61
 70
     1
102
RTVSPropertyOp62
 70
     1
  0
XRECORD
  5
6E4B
102
{ACAD_REACTORS
330
6E4A
102
}
330
6E4A
100
AcDbXrecord
280
     1
102
RTVSPost2010Prop28
280
     0
102
RTVSPost2010PropOp28
 70
     1
102
RTVSPost2010Prop29
280
     1
102
RTVSPost2010PropOp29
 70
     1
102
RTVSPost2010Prop30
280
     1
102
RTVSPost2010PropOp30
 70
     1
102
RTVSPost2010Prop31
280
     0
102
RTVSPost2010PropOp31
 70
     1
102
RTVSPost2010Prop32
280
     0
102
RTVSPost2010PropOp32
 70
     1
102
RTVSPost2010Prop33
280
     0
102
RTVSPost2010PropOp33
 70
     1
102
RTVSPost2010Prop34
280
     0
102
RTVSPost2010PropOp34
 70
     1
102
RTVSPost2010Prop35
280
     0
102
RTVSPost2010PropOp35
 70
     1
102
RTVSPost2010Prop36
280
     0
102
RTVSPost2010PropOp36
 70
     1
102
RTVSPost2010Prop37
 90
       50
102
RTVSPost2010PropOp37
 70
     1
102
RTVSPost2010Prop38
140
0.0
102
RTVSPost2010PropOp38
 70
     1
102
RTVSPost2010Prop39
140
1.0
102
RTVSPost2010PropOp39
 70
     1
102
RTVSPost2010Prop40
 90
        0
102
RTVSPost2010PropOp40
 70
     1
102
RTVSPost2010Prop41ColorIndex
 90
       18
102
RTVSPost2010Prop41ColorRGB
 90
        0
102
RTVSPost2010PropOp41
 70
     1
102
RTVSPost2010Prop42
 90
       50
102
RTVSPost2010PropOp42
 70
     1
102
RTVSPost2010Prop43
 90
        3
102
RTVSPost2010PropOp43
 70
     1
102
RTVSPost2010Prop44ColorIndex
 90
        5
102
RTVSPost2010Prop44ColorRGB
 90
      255
102
RTVSPost2010PropOp44
 70
     1
102
RTVSPost2010Prop45
280
     0
102
RTVSPost2010PropOp45
 70
     1
102
RTVSPost2010Prop46
 90
       50
102
RTVSPost2010PropOp46
 70
     1
102
RTVSPost2010Prop47
 90
       50
102
RTVSPost2010PropOp47
 70
     1
102
RTVSPost2010Prop48
 90
       50
102
RTVSPost2010PropOp48
 70
     1
102
RTVSPost2010Prop49
280
     0
102
RTVSPost2010PropOp49
 70
     1
102
RTVSPost2010Prop50
 90
       50
102
RTVSPost2010PropOp50
 70
     1
102
RTVSPost2010Prop51ColorIndex
 90
      256
102
RTVSPost2010Prop51ColorRGB
 90
-16777216
102
RTVSPost2010PropOp51
 70
     0
102
RTVSPost2010Prop52
140
1.0
102
RTVSPost2010PropOp52
 70
     0
102
RTVSPost2010Prop53
 90
        2
102
RTVSPost2010PropOp53
 70
     1
102
RTVSPost2010Prop54
  1
strokes_ogs.tif
102
RTVSPost2010PropOp54
 70
     1
102
RTVSPost2010Prop55
280
     0
102
RTVSPost2010PropOp55
 70
     1
102
RTVSPost2010Prop56
140
1.0
102
RTVSPost2010PropOp56
 70
     1
102
RTVSPost2010Prop57
140
1.0
102
RTVSPost2010PropOp57
 70
     1
102
RTVSPropertyOp0
 70
     1
102
RTVSPropertyOp1
 70
     1
102
RTVSPropertyOp2
 70
     1
102
RTVSPropertyOp3
 70
     1
102
RTVSPropertyOp4
 70
     1
102
RTVSPropertyOp5
 70
     1
102
RTVSPropertyOp6
 70
     1
102
RTVSPropertyOp7
 70
     1
102
RTVSPropertyOp8
 70
     1
102
RTVSPropertyOp9
 70
     1
102
RTVSPropertyOp10
 70
     1
102
RTVSPropertyOp11
 70
     1
102
RTVSPropertyOp12
 70
     1
102
RTVSPropertyOp13
 70
     1
102
RTVSPropertyOp14
 70
     1
102
RTVSPropertyOp15
 70
     1
102
RTVSPropertyOp16
 70
     1
102
RTVSPropertyOp17
 70
     1
102
RTVSPropertyOp18
 70
     1
102
RTVSPropertyOp19
 70
     1
102
RTVSPropertyOp20
 70
     1
102
RTVSPropertyOp21
 70
     1
102
RTVSPropertyOp22
 70
     1
102
RTVSPropertyOp23
 70
     1
102
RTVSPropertyOp24
 70
     1
102
RTVSPropertyOp25
 70
     1
102
RTVSPropertyOp26
 70
     1
102
RTVSPropertyOp27
 70
     1
102
RTVSPropertyOp28
 70
     1
102
RTVSPropertyOp29
 70
     1
102
RTVSPropertyOp30
 70
     1
102
RTVSPropertyOp31
 70
     1
102
RTVSPropertyOp32
 70
     1
102
RTVSPropertyOp33
 70
     1
102
RTVSPropertyOp34
 70
     1
102
RTVSPropertyOp35
 70
     1
102
RTVSPropertyOp36
 70
     1
102
RTVSPropertyOp37
 70
     1
102
RTVSPropertyOp38
 70
     1
102
RTVSPropertyOp39
 70
     1
102
RTVSPropertyOp40
 70
     1
102
RTVSPropertyOp41
 70
     1
102
RTVSPropertyOp42
 70
     1
102
RTVSPropertyOp43
 70
     1
102
RTVSPropertyOp44
 70
     1
102
RTVSPropertyOp45
 70
     1
102
RTVSPropertyOp46
 70
     1
102
RTVSPropertyOp47
 70
     1
102
RTVSPropertyOp48
 70
     1
102
RTVSPropertyOp49
 70
     1
102
RTVSPropertyOp50
 70
     1
102
RTVSPropertyOp51
 70
     0
102
RTVSPropertyOp52
 70
     0
102
RTVSPropertyOp53
 70
     1
102
RTVSPropertyOp54
 70
     1
102
RTVSPropertyOp55
 70
     1
102
RTVSPropertyOp56
 70
     1
102
RTVSPropertyOp57
 70
     1
102
RTVSPropertyOp58
 70
     1
102
RTVSPropertyOp59
 70
     1
102
RTVSPropertyOp60
 70
     1
102
RTVSPropertyOp61
 70
     1
102
RTVSPropertyOp62
 70
     1
  0
XRECORD
  5
6E53
102
{ACAD_REACTORS
330
6E52
102
}
330
6E52
100
AcDbXrecord
280
     1
102
RTVSPost2010Prop28
280
     0
102
RTVSPost2010PropOp28
 70
     1
102
RTVSPost2010Prop29
280
     1
102
RTVSPost2010PropOp29
 70
     1
102
RTVSPost2010Prop30
280
     1
102
RTVSPost2010PropOp30
 70
     1
102
RTVSPost2010Prop31
280
     0
102
RTVSPost2010PropOp31
 70
     1
102
RTVSPost2010Prop32
280
     0
102
RTVSPost2010PropOp32
 70
     1
102
RTVSPost2010Prop33
280
     0
102
RTVSPost2010PropOp33
 70
     1
102
RTVSPost2010Prop34
280
     0
102
RTVSPost2010PropOp34
 70
     1
102
RTVSPost2010Prop35
280
     0
102
RTVSPost2010PropOp35
 70
     1
102
RTVSPost2010Prop36
280
     0
102
RTVSPost2010PropOp36
 70
     1
102
RTVSPost2010Prop37
 90
       50
102
RTVSPost2010PropOp37
 70
     1
102
RTVSPost2010Prop38
140
0.0
102
RTVSPost2010PropOp38
 70
     1
102
RTVSPost2010Prop39
140
1.0
102
RTVSPost2010PropOp39
 70
     1
102
RTVSPost2010Prop40
 90
        0
102
RTVSPost2010PropOp40
 70
     1
102
RTVSPost2010Prop41ColorIndex
 90
       18
102
RTVSPost2010Prop41ColorRGB
 90
        0
102
RTVSPost2010PropOp41
 70
     1
102
RTVSPost2010Prop42
 90
       50
102
RTVSPost2010PropOp42
 70
     1
102
RTVSPost2010Prop43
 90
        3
102
RTVSPost2010PropOp43
 70
     1
102
RTVSPost2010Prop44ColorIndex
 90
        5
102
RTVSPost2010Prop44ColorRGB
 90
      255
102
RTVSPost2010PropOp44
 70
     1
102
RTVSPost2010Prop45
280
     0
102
RTVSPost2010PropOp45
 70
     1
102
RTVSPost2010Prop46
 90
       50
102
RTVSPost2010PropOp46
 70
     1
102
RTVSPost2010Prop47
 90
       50
102
RTVSPost2010PropOp47
 70
     1
102
RTVSPost2010Prop48
 90
       50
102
RTVSPost2010PropOp48
 70
     1
102
RTVSPost2010Prop49
280
     0
102
RTVSPost2010PropOp49
 70
     1
102
RTVSPost2010Prop50
 90
       50
102
RTVSPost2010PropOp50
 70
     1
102
RTVSPost2010Prop51ColorIndex
 90
      256
102
RTVSPost2010Prop51ColorRGB
 90
-16777216
102
RTVSPost2010PropOp51
 70
     0
102
RTVSPost2010Prop52
140
1.0
102
RTVSPost2010PropOp52
 70
     0
102
RTVSPost2010Prop53
 90
        2
102
RTVSPost2010PropOp53
 70
     1
102
RTVSPost2010Prop54
  1
strokes_ogs.tif
102
RTVSPost2010PropOp54
 70
     1
102
RTVSPost2010Prop55
280
     0
102
RTVSPost2010PropOp55
 70
     1
102
RTVSPost2010Prop56
140
1.0
102
RTVSPost2010PropOp56
 70
     1
102
RTVSPost2010Prop57
140
1.0
102
RTVSPost2010PropOp57
 70
     1
102
RTVSPropertyOp0
 70
     1
102
RTVSPropertyOp1
 70
     1
102
RTVSPropertyOp2
 70
     1
102
RTVSPropertyOp3
 70
     1
102
RTVSPropertyOp4
 70
     1
102
RTVSPropertyOp5
 70
     1
102
RTVSPropertyOp6
 70
     1
102
RTVSPropertyOp7
 70
     1
102
RTVSPropertyOp8
 70
     1
102
RTVSPropertyOp9
 70
     1
102
RTVSPropertyOp10
 70
     1
102
RTVSPropertyOp11
 70
     1
102
RTVSPropertyOp12
 70
     1
102
RTVSPropertyOp13
 70
     1
102
RTVSPropertyOp14
 70
     1
102
RTVSPropertyOp15
 70
     1
102
RTVSPropertyOp16
 70
     1
102
RTVSPropertyOp17
 70
     1
102
RTVSPropertyOp18
 70
     1
102
RTVSPropertyOp19
 70
     1
102
RTVSPropertyOp20
 70
     1
102
RTVSPropertyOp21
 70
     1
102
RTVSPropertyOp22
 70
     1
102
RTVSPropertyOp23
 70
     1
102
RTVSPropertyOp24
 70
     1
102
RTVSPropertyOp25
 70
     1
102
RTVSPropertyOp26
 70
     1
102
RTVSPropertyOp27
 70
     1
102
RTVSPropertyOp28
 70
     1
102
RTVSPropertyOp29
 70
     1
102
RTVSPropertyOp30
 70
     1
102
RTVSPropertyOp31
 70
     1
102
RTVSPropertyOp32
 70
     1
102
RTVSPropertyOp33
 70
     1
102
RTVSPropertyOp34
 70
     1
102
RTVSPropertyOp35
 70
     1
102
RTVSPropertyOp36
 70
     1
102
RTVSPropertyOp37
 70
     1
102
RTVSPropertyOp38
 70
     1
102
RTVSPropertyOp39
 70
     1
102
RTVSPropertyOp40
 70
     1
102
RTVSPropertyOp41
 70
     1
102
RTVSPropertyOp42
 70
     1
102
RTVSPropertyOp43
 70
     1
102
RTVSPropertyOp44
 70
     1
102
RTVSPropertyOp45
 70
     1
102
RTVSPropertyOp46
 70
     1
102
RTVSPropertyOp47
 70
     1
102
RTVSPropertyOp48
 70
     1
102
RTVSPropertyOp49
 70
     1
102
RTVSPropertyOp50
 70
     1
102
RTVSPropertyOp51
 70
     0
102
RTVSPropertyOp52
 70
     0
102
RTVSPropertyOp53
 70
     1
102
RTVSPropertyOp54
 70
     1
102
RTVSPropertyOp55
 70
     1
102
RTVSPropertyOp56
 70
     1
102
RTVSPropertyOp57
 70
     1
102
RTVSPropertyOp58
 70
     1
102
RTVSPropertyOp59
 70
     1
102
RTVSPropertyOp60
 70
     1
102
RTVSPropertyOp61
 70
     1
102
RTVSPropertyOp62
 70
     1
  0
XRECORD
  5
6E45
102
{ACAD_REACTORS
330
6E44
102
}
330
6E44
100
AcDbXrecord
280
     1
102
RTVSPost2010Prop28
280
     0
102
RTVSPost2010PropOp28
 70
     1
102
RTVSPost2010Prop29
280
     1
102
RTVSPost2010PropOp29
 70
     1
102
RTVSPost2010Prop30
280
     1
102
RTVSPost2010PropOp30
 70
     1
102
RTVSPost2010Prop31
280
     0
102
RTVSPost2010PropOp31
 70
     1
102
RTVSPost2010Prop32
280
     0
102
RTVSPost2010PropOp32
 70
     1
102
RTVSPost2010Prop33
280
     0
102
RTVSPost2010PropOp33
 70
     1
102
RTVSPost2010Prop34
280
     0
102
RTVSPost2010PropOp34
 70
     1
102
RTVSPost2010Prop35
280
     0
102
RTVSPost2010PropOp35
 70
     1
102
RTVSPost2010Prop36
280
     0
102
RTVSPost2010PropOp36
 70
     1
102
RTVSPost2010Prop37
 90
       50
102
RTVSPost2010PropOp37
 70
     1
102
RTVSPost2010Prop38
140
0.0
102
RTVSPost2010PropOp38
 70
     1
102
RTVSPost2010Prop39
140
1.0
102
RTVSPost2010PropOp39
 70
     1
102
RTVSPost2010Prop40
 90
        0
102
RTVSPost2010PropOp40
 70
     1
102
RTVSPost2010Prop41ColorIndex
 90
       18
102
RTVSPost2010Prop41ColorRGB
 90
        0
102
RTVSPost2010PropOp41
 70
     1
102
RTVSPost2010Prop42
 90
       50
102
RTVSPost2010PropOp42
 70
     1
102
RTVSPost2010Prop43
 90
        3
102
RTVSPost2010PropOp43
 70
     1
102
RTVSPost2010Prop44ColorIndex
 90
        5
102
RTVSPost2010Prop44ColorRGB
 90
      255
102
RTVSPost2010PropOp44
 70
     1
102
RTVSPost2010Prop45
280
     0
102
RTVSPost2010PropOp45
 70
     1
102
RTVSPost2010Prop46
 90
       50
102
RTVSPost2010PropOp46
 70
     1
102
RTVSPost2010Prop47
 90
       50
102
RTVSPost2010PropOp47
 70
     1
102
RTVSPost2010Prop48
 90
       50
102
RTVSPost2010PropOp48
 70
     1
102
RTVSPost2010Prop49
280
     0
102
RTVSPost2010PropOp49
 70
     1
102
RTVSPost2010Prop50
 90
       50
102
RTVSPost2010PropOp50
 70
     1
102
RTVSPost2010Prop51ColorIndex
 90
      256
102
RTVSPost2010Prop51ColorRGB
 90
-16777216
102
RTVSPost2010PropOp51
 70
     0
102
RTVSPost2010Prop52
140
1.0
102
RTVSPost2010PropOp52
 70
     0
102
RTVSPost2010Prop53
 90
        2
102
RTVSPost2010PropOp53
 70
     1
102
RTVSPost2010Prop54
  1
strokes_ogs.tif
102
RTVSPost2010PropOp54
 70
     1
102
RTVSPost2010Prop55
280
     0
102
RTVSPost2010PropOp55
 70
     1
102
RTVSPost2010Prop56
140
1.0
102
RTVSPost2010PropOp56
 70
     1
102
RTVSPost2010Prop57
140
1.0
102
RTVSPost2010PropOp57
 70
     1
102
RTVSPropertyOp0
 70
     1
102
RTVSPropertyOp1
 70
     1
102
RTVSPropertyOp2
 70
     1
102
RTVSPropertyOp3
 70
     1
102
RTVSPropertyOp4
 70
     1
102
RTVSPropertyOp5
 70
     1
102
RTVSPropertyOp6
 70
     1
102
RTVSPropertyOp7
 70
     1
102
RTVSPropertyOp8
 70
     1
102
RTVSPropertyOp9
 70
     1
102
RTVSPropertyOp10
 70
     1
102
RTVSPropertyOp11
 70
     1
102
RTVSPropertyOp12
 70
     1
102
RTVSPropertyOp13
 70
     1
102
RTVSPropertyOp14
 70
     1
102
RTVSPropertyOp15
 70
     1
102
RTVSPropertyOp16
 70
     1
102
RTVSPropertyOp17
 70
     1
102
RTVSPropertyOp18
 70
     1
102
RTVSPropertyOp19
 70
     1
102
RTVSPropertyOp20
 70
     1
102
RTVSPropertyOp21
 70
     1
102
RTVSPropertyOp22
 70
     1
102
RTVSPropertyOp23
 70
     1
102
RTVSPropertyOp24
 70
     1
102
RTVSPropertyOp25
 70
     1
102
RTVSPropertyOp26
 70
     1
102
RTVSPropertyOp27
 70
     1
102
RTVSPropertyOp28
 70
     1
102
RTVSPropertyOp29
 70
     1
102
RTVSPropertyOp30
 70
     1
102
RTVSPropertyOp31
 70
     1
102
RTVSPropertyOp32
 70
     1
102
RTVSPropertyOp33
 70
     1
102
RTVSPropertyOp34
 70
     1
102
RTVSPropertyOp35
 70
     1
102
RTVSPropertyOp36
 70
     1
102
RTVSPropertyOp37
 70
     1
102
RTVSPropertyOp38
 70
     1
102
RTVSPropertyOp39
 70
     1
102
RTVSPropertyOp40
 70
     1
102
RTVSPropertyOp41
 70
     1
102
RTVSPropertyOp42
 70
     1
102
RTVSPropertyOp43
 70
     1
102
RTVSPropertyOp44
 70
     1
102
RTVSPropertyOp45
 70
     1
102
RTVSPropertyOp46
 70
     1
102
RTVSPropertyOp47
 70
     1
102
RTVSPropertyOp48
 70
     1
102
RTVSPropertyOp49
 70
     1
102
RTVSPropertyOp50
 70
     1
102
RTVSPropertyOp51
 70
     0
102
RTVSPropertyOp52
 70
     0
102
RTVSPropertyOp53
 70
     1
102
RTVSPropertyOp54
 70
     1
102
RTVSPropertyOp55
 70
     1
102
RTVSPropertyOp56
 70
     1
102
RTVSPropertyOp57
 70
     1
102
RTVSPropertyOp58
 70
     1
102
RTVSPropertyOp59
 70
     1
102
RTVSPropertyOp60
 70
     1
102
RTVSPropertyOp61
 70
     1
102
RTVSPropertyOp62
 70
     1
  0
XRECORD
  5
6E49
102
{ACAD_REACTORS
330
6E48
102
}
330
6E48
100
AcDbXrecord
280
     1
102
RTVSPost2010Prop28
280
     0
102
RTVSPost2010PropOp28
 70
     1
102
RTVSPost2010Prop29
280
     1
102
RTVSPost2010PropOp29
 70
     1
102
RTVSPost2010Prop30
280
     1
102
RTVSPost2010PropOp30
 70
     1
102
RTVSPost2010Prop31
280
     0
102
RTVSPost2010PropOp31
 70
     1
102
RTVSPost2010Prop32
280
     0
102
RTVSPost2010PropOp32
 70
     1
102
RTVSPost2010Prop33
280
     0
102
RTVSPost2010PropOp33
 70
     1
102
RTVSPost2010Prop34
280
     0
102
RTVSPost2010PropOp34
 70
     1
102
RTVSPost2010Prop35
280
     0
102
RTVSPost2010PropOp35
 70
     1
102
RTVSPost2010Prop36
280
     0
102
RTVSPost2010PropOp36
 70
     1
102
RTVSPost2010Prop37
 90
       50
102
RTVSPost2010PropOp37
 70
     1
102
RTVSPost2010Prop38
140
0.0
102
RTVSPost2010PropOp38
 70
     1
102
RTVSPost2010Prop39
140
1.0
102
RTVSPost2010PropOp39
 70
     1
102
RTVSPost2010Prop40
 90
        0
102
RTVSPost2010PropOp40
 70
     1
102
RTVSPost2010Prop41ColorIndex
 90
       18
102
RTVSPost2010Prop41ColorRGB
 90
        0
102
RTVSPost2010PropOp41
 70
     1
102
RTVSPost2010Prop42
 90
       50
102
RTVSPost2010PropOp42
 70
     1
102
RTVSPost2010Prop43
 90
        3
102
RTVSPost2010PropOp43
 70
     1
102
RTVSPost2010Prop44ColorIndex
 90
        5
102
RTVSPost2010Prop44ColorRGB
 90
      255
102
RTVSPost2010PropOp44
 70
     1
102
RTVSPost2010Prop45
280
     0
102
RTVSPost2010PropOp45
 70
     1
102
RTVSPost2010Prop46
 90
       50
102
RTVSPost2010PropOp46
 70
     1
102
RTVSPost2010Prop47
 90
       50
102
RTVSPost2010PropOp47
 70
     1
102
RTVSPost2010Prop48
 90
       50
102
RTVSPost2010PropOp48
 70
     1
102
RTVSPost2010Prop49
280
     0
102
RTVSPost2010PropOp49
 70
     1
102
RTVSPost2010Prop50
 90
       50
102
RTVSPost2010PropOp50
 70
     1
102
RTVSPost2010Prop51ColorIndex
 90
      256
102
RTVSPost2010Prop51ColorRGB
 90
-16777216
102
RTVSPost2010PropOp51
 70
     0
102
RTVSPost2010Prop52
140
1.0
102
RTVSPost2010PropOp52
 70
     0
102
RTVSPost2010Prop53
 90
        2
102
RTVSPost2010PropOp53
 70
     1
102
RTVSPost2010Prop54
  1
strokes_ogs.tif
102
RTVSPost2010PropOp54
 70
     1
102
RTVSPost2010Prop55
280
     0
102
RTVSPost2010PropOp55
 70
     1
102
RTVSPost2010Prop56
140
1.0
102
RTVSPost2010PropOp56
 70
     1
102
RTVSPost2010Prop57
140
1.0
102
RTVSPost2010PropOp57
 70
     1
102
RTVSPropertyOp0
 70
     1
102
RTVSPropertyOp1
 70
     1
102
RTVSPropertyOp2
 70
     1
102
RTVSPropertyOp3
 70
     1
102
RTVSPropertyOp4
 70
     1
102
RTVSPropertyOp5
 70
     1
102
RTVSPropertyOp6
 70
     1
102
RTVSPropertyOp7
 70
     1
102
RTVSPropertyOp8
 70
     1
102
RTVSPropertyOp9
 70
     1
102
RTVSPropertyOp10
 70
     1
102
RTVSPropertyOp11
 70
     1
102
RTVSPropertyOp12
 70
     1
102
RTVSPropertyOp13
 70
     1
102
RTVSPropertyOp14
 70
     1
102
RTVSPropertyOp15
 70
     1
102
RTVSPropertyOp16
 70
     1
102
RTVSPropertyOp17
 70
     1
102
RTVSPropertyOp18
 70
     1
102
RTVSPropertyOp19
 70
     1
102
RTVSPropertyOp20
 70
     1
102
RTVSPropertyOp21
 70
     1
102
RTVSPropertyOp22
 70
     1
102
RTVSPropertyOp23
 70
     1
102
RTVSPropertyOp24
 70
     1
102
RTVSPropertyOp25
 70
     1
102
RTVSPropertyOp26
 70
     1
102
RTVSPropertyOp27
 70
     1
102
RTVSPropertyOp28
 70
     1
102
RTVSPropertyOp29
 70
     1
102
RTVSPropertyOp30
 70
     1
102
RTVSPropertyOp31
 70
     1
102
RTVSPropertyOp32
 70
     1
102
RTVSPropertyOp33
 70
     1
102
RTVSPropertyOp34
 70
     1
102
RTVSPropertyOp35
 70
     1
102
RTVSPropertyOp36
 70
     1
102
RTVSPropertyOp37
 70
     1
102
RTVSPropertyOp38
 70
     1
102
RTVSPropertyOp39
 70
     1
102
RTVSPropertyOp40
 70
     1
102
RTVSPropertyOp41
 70
     1
102
RTVSPropertyOp42
 70
     1
102
RTVSPropertyOp43
 70
     1
102
RTVSPropertyOp44
 70
     1
102
RTVSPropertyOp45
 70
     1
102
RTVSPropertyOp46
 70
     1
102
RTVSPropertyOp47
 70
     1
102
RTVSPropertyOp48
 70
     1
102
RTVSPropertyOp49
 70
     1
102
RTVSPropertyOp50
 70
     1
102
RTVSPropertyOp51
 70
     0
102
RTVSPropertyOp52
 70
     0
102
RTVSPropertyOp53
 70
     1
102
RTVSPropertyOp54
 70
     1
102
RTVSPropertyOp55
 70
     1
102
RTVSPropertyOp56
 70
     1
102
RTVSPropertyOp57
 70
     1
102
RTVSPropertyOp58
 70
     1
102
RTVSPropertyOp59
 70
     1
102
RTVSPropertyOp60
 70
     1
102
RTVSPropertyOp61
 70
     1
102
RTVSPropertyOp62
 70
     1
  0
XRECORD
  5
6E63
102
{ACAD_REACTORS
330
6E62
102
}
330
6E62
100
AcDbXrecord
280
     1
102
RTVSPost2010Prop28
280
     0
102
RTVSPost2010PropOp28
 70
     0
102
RTVSPost2010Prop29
280
     1
102
RTVSPost2010PropOp29
 70
     0
102
RTVSPost2010Prop30
280
     1
102
RTVSPost2010PropOp30
 70
     0
102
RTVSPost2010Prop31
280
     0
102
RTVSPost2010PropOp31
 70
     0
102
RTVSPost2010Prop32
280
     0
102
RTVSPost2010PropOp32
 70
     0
102
RTVSPost2010Prop33
280
     0
102
RTVSPost2010PropOp33
 70
     0
102
RTVSPost2010Prop34
280
     0
102
RTVSPost2010PropOp34
 70
     0
102
RTVSPost2010Prop35
280
     0
102
RTVSPost2010PropOp35
 70
     0
102
RTVSPost2010Prop36
280
     0
102
RTVSPost2010PropOp36
 70
     0
102
RTVSPost2010Prop37
 90
       50
102
RTVSPost2010PropOp37
 70
     0
102
RTVSPost2010Prop38
140
0.0
102
RTVSPost2010PropOp38
 70
     0
102
RTVSPost2010Prop39
140
1.0
102
RTVSPost2010PropOp39
 70
     0
102
RTVSPost2010Prop40
 90
        0
102
RTVSPost2010PropOp40
 70
     0
102
RTVSPost2010Prop41ColorIndex
 90
       18
102
RTVSPost2010Prop41ColorRGB
 90
        0
102
RTVSPost2010PropOp41
 70
     0
102
RTVSPost2010Prop42
 90
       50
102
RTVSPost2010PropOp42
 70
     0
102
RTVSPost2010Prop43
 90
        3
102
RTVSPost2010PropOp43
 70
     0
102
RTVSPost2010Prop44ColorIndex
 90
        5
102
RTVSPost2010Prop44ColorRGB
 90
      255
102
RTVSPost2010PropOp44
 70
     0
102
RTVSPost2010Prop45
280
     0
102
RTVSPost2010PropOp45
 70
     0
102
RTVSPost2010Prop46
 90
       50
102
RTVSPost2010PropOp46
 70
     0
102
RTVSPost2010Prop47
 90
       50
102
RTVSPost2010PropOp47
 70
     0
102
RTVSPost2010Prop48
 90
       50
102
RTVSPost2010PropOp48
 70
     0
102
RTVSPost2010Prop49
280
     0
102
RTVSPost2010PropOp49
 70
     0
102
RTVSPost2010Prop50
 90
       50
102
RTVSPost2010PropOp50
 70
     0
102
RTVSPost2010Prop51ColorIndex
 90
      256
102
RTVSPost2010Prop51ColorRGB
 90
-16777216
102
RTVSPost2010PropOp51
 70
     0
102
RTVSPost2010Prop52
140
1.0
102
RTVSPost2010PropOp52
 70
     0
102
RTVSPost2010Prop53
 90
        2
102
RTVSPost2010PropOp53
 70
     0
102
RTVSPost2010Prop54
  1
strokes_ogs.tif
102
RTVSPost2010PropOp54
 70
     0
102
RTVSPost2010Prop55
280
     0
102
RTVSPost2010PropOp55
 70
     0
102
RTVSPost2010Prop56
140
1.0
102
RTVSPost2010PropOp56
 70
     0
102
RTVSPost2010Prop57
140
1.0
102
RTVSPost2010PropOp57
 70
     0
102
RTVSPropertyOp0
 70
     0
102
RTVSPropertyOp1
 70
     0
102
RTVSPropertyOp2
 70
     0
102
RTVSPropertyOp3
 70
     0
102
RTVSPropertyOp4
 70
     0
102
RTVSPropertyOp5
 70
     0
102
RTVSPropertyOp6
 70
     0
102
RTVSPropertyOp7
 70
     0
102
RTVSPropertyOp8
 70
     0
102
RTVSPropertyOp9
 70
     0
102
RTVSPropertyOp10
 70
     0
102
RTVSPropertyOp11
 70
     0
102
RTVSPropertyOp12
 70
     0
102
RTVSPropertyOp13
 70
     0
102
RTVSPropertyOp14
 70
     2
102
RTVSPropertyOp15
 70
     0
102
RTVSPropertyOp16
 70
     0
102
RTVSPropertyOp17
 70
     0
102
RTVSPropertyOp18
 70
     0
102
RTVSPropertyOp19
 70
     0
102
RTVSPropertyOp20
 70
     0
102
RTVSPropertyOp21
 70
     0
102
RTVSPropertyOp22
 70
     0
102
RTVSPropertyOp23
 70
     0
102
RTVSPropertyOp24
 70
     0
102
RTVSPropertyOp25
 70
     0
102
RTVSPropertyOp26
 70
     0
102
RTVSPropertyOp27
 70
     0
102
RTVSPropertyOp28
 70
     0
102
RTVSPropertyOp29
 70
     0
102
RTVSPropertyOp30
 70
     0
102
RTVSPropertyOp31
 70
     0
102
RTVSPropertyOp32
 70
     0
102
RTVSPropertyOp33
 70
     0
102
RTVSPropertyOp34
 70
     0
102
RTVSPropertyOp35
 70
     0
102
RTVSPropertyOp36
 70
     0
102
RTVSPropertyOp37
 70
     0
102
RTVSPropertyOp38
 70
     0
102
RTVSPropertyOp39
 70
     0
102
RTVSPropertyOp40
 70
     0
102
RTVSPropertyOp41
 70
     0
102
RTVSPropertyOp42
 70
     0
102
RTVSPropertyOp43
 70
     0
102
RTVSPropertyOp44
 70
     0
102
RTVSPropertyOp45
 70
     0
102
RTVSPropertyOp46
 70
     0
102
RTVSPropertyOp47
 70
     0
102
RTVSPropertyOp48
 70
     0
102
RTVSPropertyOp49
 70
     0
102
RTVSPropertyOp50
 70
     0
102
RTVSPropertyOp51
 70
     0
102
RTVSPropertyOp52
 70
     0
102
RTVSPropertyOp53
 70
     0
102
RTVSPropertyOp54
 70
     0
102
RTVSPropertyOp55
 70
     0
102
RTVSPropertyOp56
 70
     0
102
RTVSPropertyOp57
 70
     0
102
RTVSPropertyOp58
 70
     1
102
RTVSPropertyOp59
 70
     1
102
RTVSPropertyOp60
 70
     1
102
RTVSPropertyOp61
 70
     1
102
RTVSPropertyOp62
 70
     1
  0
XRECORD
  5
6E51
102
{ACAD_REACTORS
330
6E50
102
}
330
6E50
100
AcDbXrecord
280
     1
102
RTVSPost2010Prop28
280
     0
102
RTVSPost2010PropOp28
 70
     1
102
RTVSPost2010Prop29
280
     1
102
RTVSPost2010PropOp29
 70
     1
102
RTVSPost2010Prop30
280
     1
102
RTVSPost2010PropOp30
 70
     1
102
RTVSPost2010Prop31
280
     0
102
RTVSPost2010PropOp31
 70
     1
102
RTVSPost2010Prop32
280
     0
102
RTVSPost2010PropOp32
 70
     1
102
RTVSPost2010Prop33
280
     0
102
RTVSPost2010PropOp33
 70
     1
102
RTVSPost2010Prop34
280
     0
102
RTVSPost2010PropOp34
 70
     1
102
RTVSPost2010Prop35
280
     0
102
RTVSPost2010PropOp35
 70
     1
102
RTVSPost2010Prop36
280
     0
102
RTVSPost2010PropOp36
 70
     1
102
RTVSPost2010Prop37
 90
       50
102
RTVSPost2010PropOp37
 70
     1
102
RTVSPost2010Prop38
140
0.0
102
RTVSPost2010PropOp38
 70
     1
102
RTVSPost2010Prop39
140
1.0
102
RTVSPost2010PropOp39
 70
     1
102
RTVSPost2010Prop40
 90
        0
102
RTVSPost2010PropOp40
 70
     1
102
RTVSPost2010Prop41ColorIndex
 90
       18
102
RTVSPost2010Prop41ColorRGB
 90
        0
102
RTVSPost2010PropOp41
 70
     1
102
RTVSPost2010Prop42
 90
       50
102
RTVSPost2010PropOp42
 70
     1
102
RTVSPost2010Prop43
 90
        3
102
RTVSPost2010PropOp43
 70
     1
102
RTVSPost2010Prop44ColorIndex
 90
        5
102
RTVSPost2010Prop44ColorRGB
 90
      255
102
RTVSPost2010PropOp44
 70
     1
102
RTVSPost2010Prop45
280
     0
102
RTVSPost2010PropOp45
 70
     1
102
RTVSPost2010Prop46
 90
       50
102
RTVSPost2010PropOp46
 70
     1
102
RTVSPost2010Prop47
 90
       50
102
RTVSPost2010PropOp47
 70
     1
102
RTVSPost2010Prop48
 90
       50
102
RTVSPost2010PropOp48
 70
     1
102
RTVSPost2010Prop49
280
     0
102
RTVSPost2010PropOp49
 70
     1
102
RTVSPost2010Prop50
 90
       50
102
RTVSPost2010PropOp50
 70
     1
102
RTVSPost2010Prop51ColorIndex
 90
      256
102
RTVSPost2010Prop51ColorRGB
 90
-16777216
102
RTVSPost2010PropOp51
 70
     0
102
RTVSPost2010Prop52
140
1.0
102
RTVSPost2010PropOp52
 70
     0
102
RTVSPost2010Prop53
 90
        2
102
RTVSPost2010PropOp53
 70
     1
102
RTVSPost2010Prop54
  1
strokes_ogs.tif
102
RTVSPost2010PropOp54
 70
     1
102
RTVSPost2010Prop55
280
     0
102
RTVSPost2010PropOp55
 70
     1
102
RTVSPost2010Prop56
140
1.0
102
RTVSPost2010PropOp56
 70
     1
102
RTVSPost2010Prop57
140
1.0
102
RTVSPost2010PropOp57
 70
     1
102
RTVSPropertyOp0
 70
     1
102
RTVSPropertyOp1
 70
     1
102
RTVSPropertyOp2
 70
     1
102
RTVSPropertyOp3
 70
     1
102
RTVSPropertyOp4
 70
     1
102
RTVSPropertyOp5
 70
     1
102
RTVSPropertyOp6
 70
     1
102
RTVSPropertyOp7
 70
     1
102
RTVSPropertyOp8
 70
     1
102
RTVSPropertyOp9
 70
     1
102
RTVSPropertyOp10
 70
     1
102
RTVSPropertyOp11
 70
     1
102
RTVSPropertyOp12
 70
     1
102
RTVSPropertyOp13
 70
     1
102
RTVSPropertyOp14
 70
     1
102
RTVSPropertyOp15
 70
     1
102
RTVSPropertyOp16
 70
     1
102
RTVSPropertyOp17
 70
     1
102
RTVSPropertyOp18
 70
     1
102
RTVSPropertyOp19
 70
     1
102
RTVSPropertyOp20
 70
     1
102
RTVSPropertyOp21
 70
     1
102
RTVSPropertyOp22
 70
     1
102
RTVSPropertyOp23
 70
     1
102
RTVSPropertyOp24
 70
     1
102
RTVSPropertyOp25
 70
     1
102
RTVSPropertyOp26
 70
     1
102
RTVSPropertyOp27
 70
     1
102
RTVSPropertyOp28
 70
     1
102
RTVSPropertyOp29
 70
     1
102
RTVSPropertyOp30
 70
     1
102
RTVSPropertyOp31
 70
     1
102
RTVSPropertyOp32
 70
     1
102
RTVSPropertyOp33
 70
     1
102
RTVSPropertyOp34
 70
     1
102
RTVSPropertyOp35
 70
     1
102
RTVSPropertyOp36
 70
     1
102
RTVSPropertyOp37
 70
     1
102
RTVSPropertyOp38
 70
     1
102
RTVSPropertyOp39
 70
     1
102
RTVSPropertyOp40
 70
     1
102
RTVSPropertyOp41
 70
     1
102
RTVSPropertyOp42
 70
     1
102
RTVSPropertyOp43
 70
     1
102
RTVSPropertyOp44
 70
     1
102
RTVSPropertyOp45
 70
     1
102
RTVSPropertyOp46
 70
     1
102
RTVSPropertyOp47
 70
     1
102
RTVSPropertyOp48
 70
     1
102
RTVSPropertyOp49
 70
     1
102
RTVSPropertyOp50
 70
     1
102
RTVSPropertyOp51
 70
     0
102
RTVSPropertyOp52
 70
     0
102
RTVSPropertyOp53
 70
     1
102
RTVSPropertyOp54
 70
     1
102
RTVSPropertyOp55
 70
     1
102
RTVSPropertyOp56
 70
     1
102
RTVSPropertyOp57
 70
     1
102
RTVSPropertyOp58
 70
     1
102
RTVSPropertyOp59
 70
     1
102
RTVSPropertyOp60
 70
     1
102
RTVSPropertyOp61
 70
     1
102
RTVSPropertyOp62
 70
     1
  0
XRECORD
  5
6E35
102
{ACAD_REACTORS
330
6E34
102
}
330
6E34
100
AcDbXrecord
280
     1
102
RTVSPost2010Prop28
280
     0
102
RTVSPost2010PropOp28
 70
     1
102
RTVSPost2010Prop29
280
     1
102
RTVSPost2010PropOp29
 70
     1
102
RTVSPost2010Prop30
280
     1
102
RTVSPost2010PropOp30
 70
     1
102
RTVSPost2010Prop31
280
     0
102
RTVSPost2010PropOp31
 70
     1
102
RTVSPost2010Prop32
280
     0
102
RTVSPost2010PropOp32
 70
     1
102
RTVSPost2010Prop33
280
     0
102
RTVSPost2010PropOp33
 70
     1
102
RTVSPost2010Prop34
280
     0
102
RTVSPost2010PropOp34
 70
     1
102
RTVSPost2010Prop35
280
     0
102
RTVSPost2010PropOp35
 70
     1
102
RTVSPost2010Prop36
280
     0
102
RTVSPost2010PropOp36
 70
     1
102
RTVSPost2010Prop37
 90
       50
102
RTVSPost2010PropOp37
 70
     1
102
RTVSPost2010Prop38
140
0.0
102
RTVSPost2010PropOp38
 70
     1
102
RTVSPost2010Prop39
140
1.0
102
RTVSPost2010PropOp39
 70
     1
102
RTVSPost2010Prop40
 90
        0
102
RTVSPost2010PropOp40
 70
     1
102
RTVSPost2010Prop41ColorIndex
 90
       18
102
RTVSPost2010Prop41ColorRGB
 90
        0
102
RTVSPost2010PropOp41
 70
     1
102
RTVSPost2010Prop42
 90
       50
102
RTVSPost2010PropOp42
 70
     1
102
RTVSPost2010Prop43
 90
        3
102
RTVSPost2010PropOp43
 70
     1
102
RTVSPost2010Prop44ColorIndex
 90
        5
102
RTVSPost2010Prop44ColorRGB
 90
      255
102
RTVSPost2010PropOp44
 70
     1
102
RTVSPost2010Prop45
280
     0
102
RTVSPost2010PropOp45
 70
     1
102
RTVSPost2010Prop46
 90
       50
102
RTVSPost2010PropOp46
 70
     1
102
RTVSPost2010Prop47
 90
       50
102
RTVSPost2010PropOp47
 70
     1
102
RTVSPost2010Prop48
 90
       50
102
RTVSPost2010PropOp48
 70
     1
102
RTVSPost2010Prop49
280
     0
102
RTVSPost2010PropOp49
 70
     1
102
RTVSPost2010Prop50
 90
       50
102
RTVSPost2010PropOp50
 70
     1
102
RTVSPost2010Prop51ColorIndex
 90
      256
102
RTVSPost2010Prop51ColorRGB
 90
-16777216
102
RTVSPost2010PropOp51
 70
     0
102
RTVSPost2010Prop52
140
1.0
102
RTVSPost2010PropOp52
 70
     0
102
RTVSPost2010Prop53
 90
        2
102
RTVSPost2010PropOp53
 70
     1
102
RTVSPost2010Prop54
  1
strokes_ogs.tif
102
RTVSPost2010PropOp54
 70
     1
102
RTVSPost2010Prop55
280
     0
102
RTVSPost2010PropOp55
 70
     1
102
RTVSPost2010Prop56
140
1.0
102
RTVSPost2010PropOp56
 70
     1
102
RTVSPost2010Prop57
140
1.0
102
RTVSPost2010PropOp57
 70
     1
102
RTVSPropertyOp0
 70
     1
102
RTVSPropertyOp1
 70
     1
102
RTVSPropertyOp2
 70
     1
102
RTVSPropertyOp3
 70
     1
102
RTVSPropertyOp4
 70
     1
102
RTVSPropertyOp5
 70
     1
102
RTVSPropertyOp6
 70
     1
102
RTVSPropertyOp7
 70
     1
102
RTVSPropertyOp8
 70
     1
102
RTVSPropertyOp9
 70
     1
102
RTVSPropertyOp10
 70
     1
102
RTVSPropertyOp11
 70
     1
102
RTVSPropertyOp12
 70
     1
102
RTVSPropertyOp13
 70
     1
102
RTVSPropertyOp14
 70
     1
102
RTVSPropertyOp15
 70
     1
102
RTVSPropertyOp16
 70
     1
102
RTVSPropertyOp17
 70
     1
102
RTVSPropertyOp18
 70
     1
102
RTVSPropertyOp19
 70
     1
102
RTVSPropertyOp20
 70
     1
102
RTVSPropertyOp21
 70
     1
102
RTVSPropertyOp22
 70
     1
102
RTVSPropertyOp23
 70
     1
102
RTVSPropertyOp24
 70
     1
102
RTVSPropertyOp25
 70
     1
102
RTVSPropertyOp26
 70
     1
102
RTVSPropertyOp27
 70
     1
102
RTVSPropertyOp28
 70
     1
102
RTVSPropertyOp29
 70
     1
102
RTVSPropertyOp30
 70
     1
102
RTVSPropertyOp31
 70
     1
102
RTVSPropertyOp32
 70
     1
102
RTVSPropertyOp33
 70
     1
102
RTVSPropertyOp34
 70
     1
102
RTVSPropertyOp35
 70
     1
102
RTVSPropertyOp36
 70
     1
102
RTVSPropertyOp37
 70
     1
102
RTVSPropertyOp38
 70
     1
102
RTVSPropertyOp39
 70
     1
102
RTVSPropertyOp40
 70
     1
102
RTVSPropertyOp41
 70
     1
102
RTVSPropertyOp42
 70
     1
102
RTVSPropertyOp43
 70
     1
102
RTVSPropertyOp44
 70
     1
102
RTVSPropertyOp45
 70
     1
102
RTVSPropertyOp46
 70
     1
102
RTVSPropertyOp47
 70
     1
102
RTVSPropertyOp48
 70
     1
102
RTVSPropertyOp49
 70
     1
102
RTVSPropertyOp50
 70
     1
102
RTVSPropertyOp51
 70
     0
102
RTVSPropertyOp52
 70
     0
102
RTVSPropertyOp53
 70
     1
102
RTVSPropertyOp54
 70
     1
102
RTVSPropertyOp55
 70
     1
102
RTVSPropertyOp56
 70
     1
102
RTVSPropertyOp57
 70
     1
102
RTVSPropertyOp58
 70
     1
102
RTVSPropertyOp59
 70
     1
102
RTVSPropertyOp60
 70
     1
102
RTVSPropertyOp61
 70
     1
102
RTVSPropertyOp62
 70
     1
  0
XRECORD
  5
6E37
102
{ACAD_REACTORS
330
6E36
102
}
330
6E36
100
AcDbXrecord
280
     1
102
RTVSPost2010Prop28
280
     0
102
RTVSPost2010PropOp28
 70
     1
102
RTVSPost2010Prop29
280
     1
102
RTVSPost2010PropOp29
 70
     1
102
RTVSPost2010Prop30
280
     1
102
RTVSPost2010PropOp30
 70
     1
102
RTVSPost2010Prop31
280
     0
102
RTVSPost2010PropOp31
 70
     1
102
RTVSPost2010Prop32
280
     0
102
RTVSPost2010PropOp32
 70
     1
102
RTVSPost2010Prop33
280
     0
102
RTVSPost2010PropOp33
 70
     1
102
RTVSPost2010Prop34
280
     0
102
RTVSPost2010PropOp34
 70
     1
102
RTVSPost2010Prop35
280
     0
102
RTVSPost2010PropOp35
 70
     1
102
RTVSPost2010Prop36
280
     0
102
RTVSPost2010PropOp36
 70
     1
102
RTVSPost2010Prop37
 90
       50
102
RTVSPost2010PropOp37
 70
     1
102
RTVSPost2010Prop38
140
0.0
102
RTVSPost2010PropOp38
 70
     1
102
RTVSPost2010Prop39
140
1.0
102
RTVSPost2010PropOp39
 70
     1
102
RTVSPost2010Prop40
 90
        0
102
RTVSPost2010PropOp40
 70
     1
102
RTVSPost2010Prop41ColorIndex
 90
       18
102
RTVSPost2010Prop41ColorRGB
 90
        0
102
RTVSPost2010PropOp41
 70
     1
102
RTVSPost2010Prop42
 90
       50
102
RTVSPost2010PropOp42
 70
     1
102
RTVSPost2010Prop43
 90
        3
102
RTVSPost2010PropOp43
 70
     1
102
RTVSPost2010Prop44ColorIndex
 90
        5
102
RTVSPost2010Prop44ColorRGB
 90
      255
102
RTVSPost2010PropOp44
 70
     1
102
RTVSPost2010Prop45
280
     0
102
RTVSPost2010PropOp45
 70
     1
102
RTVSPost2010Prop46
 90
       50
102
RTVSPost2010PropOp46
 70
     1
102
RTVSPost2010Prop47
 90
       50
102
RTVSPost2010PropOp47
 70
     1
102
RTVSPost2010Prop48
 90
       50
102
RTVSPost2010PropOp48
 70
     1
102
RTVSPost2010Prop49
280
     0
102
RTVSPost2010PropOp49
 70
     1
102
RTVSPost2010Prop50
 90
       50
102
RTVSPost2010PropOp50
 70
     1
102
RTVSPost2010Prop51ColorIndex
 90
      256
102
RTVSPost2010Prop51ColorRGB
 90
-16777216
102
RTVSPost2010PropOp51
 70
     0
102
RTVSPost2010Prop52
140
1.0
102
RTVSPost2010PropOp52
 70
     0
102
RTVSPost2010Prop53
 90
        2
102
RTVSPost2010PropOp53
 70
     1
102
RTVSPost2010Prop54
  1
strokes_ogs.tif
102
RTVSPost2010PropOp54
 70
     1
102
RTVSPost2010Prop55
280
     0
102
RTVSPost2010PropOp55
 70
     1
102
RTVSPost2010Prop56
140
1.0
102
RTVSPost2010PropOp56
 70
     1
102
RTVSPost2010Prop57
140
1.0
102
RTVSPost2010PropOp57
 70
     1
102
RTVSPropertyOp0
 70
     1
102
RTVSPropertyOp1
 70
     1
102
RTVSPropertyOp2
 70
     1
102
RTVSPropertyOp3
 70
     1
102
RTVSPropertyOp4
 70
     1
102
RTVSPropertyOp5
 70
     1
102
RTVSPropertyOp6
 70
     1
102
RTVSPropertyOp7
 70
     1
102
RTVSPropertyOp8
 70
     1
102
RTVSPropertyOp9
 70
     1
102
RTVSPropertyOp10
 70
     1
102
RTVSPropertyOp11
 70
     1
102
RTVSPropertyOp12
 70
     1
102
RTVSPropertyOp13
 70
     1
102
RTVSPropertyOp14
 70
     1
102
RTVSPropertyOp15
 70
     1
102
RTVSPropertyOp16
 70
     1
102
RTVSPropertyOp17
 70
     1
102
RTVSPropertyOp18
 70
     1
102
RTVSPropertyOp19
 70
     1
102
RTVSPropertyOp20
 70
     1
102
RTVSPropertyOp21
 70
     1
102
RTVSPropertyOp22
 70
     1
102
RTVSPropertyOp23
 70
     1
102
RTVSPropertyOp24
 70
     1
102
RTVSPropertyOp25
 70
     1
102
RTVSPropertyOp26
 70
     1
102
RTVSPropertyOp27
 70
     1
102
RTVSPropertyOp28
 70
     1
102
RTVSPropertyOp29
 70
     1
102
RTVSPropertyOp30
 70
     1
102
RTVSPropertyOp31
 70
     1
102
RTVSPropertyOp32
 70
     1
102
RTVSPropertyOp33
 70
     1
102
RTVSPropertyOp34
 70
     1
102
RTVSPropertyOp35
 70
     1
102
RTVSPropertyOp36
 70
     1
102
RTVSPropertyOp37
 70
     1
102
RTVSPropertyOp38
 70
     1
102
RTVSPropertyOp39
 70
     1
102
RTVSPropertyOp40
 70
     1
102
RTVSPropertyOp41
 70
     1
102
RTVSPropertyOp42
 70
     1
102
RTVSPropertyOp43
 70
     1
102
RTVSPropertyOp44
 70
     1
102
RTVSPropertyOp45
 70
     1
102
RTVSPropertyOp46
 70
     1
102
RTVSPropertyOp47
 70
     1
102
RTVSPropertyOp48
 70
     1
102
RTVSPropertyOp49
 70
     1
102
RTVSPropertyOp50
 70
     1
102
RTVSPropertyOp51
 70
     0
102
RTVSPropertyOp52
 70
     0
102
RTVSPropertyOp53
 70
     1
102
RTVSPropertyOp54
 70
     1
102
RTVSPropertyOp55
 70
     1
102
RTVSPropertyOp56
 70
     1
102
RTVSPropertyOp57
 70
     1
102
RTVSPropertyOp58
 70
     1
102
RTVSPropertyOp59
 70
     1
102
RTVSPropertyOp60
 70
     1
102
RTVSPropertyOp61
 70
     1
102
RTVSPropertyOp62
 70
     1
  0
XRECORD
  5
6E39
102
{ACAD_REACTORS
330
6E38
102
}
330
6E38
100
AcDbXrecord
280
     1
102
RTVSPost2010Prop28
280
     0
102
RTVSPost2010PropOp28
 70
     1
102
RTVSPost2010Prop29
280
     1
102
RTVSPost2010PropOp29
 70
     1
102
RTVSPost2010Prop30
280
     1
102
RTVSPost2010PropOp30
 70
     1
102
RTVSPost2010Prop31
280
     0
102
RTVSPost2010PropOp31
 70
     1
102
RTVSPost2010Prop32
280
     0
102
RTVSPost2010PropOp32
 70
     1
102
RTVSPost2010Prop33
280
     0
102
RTVSPost2010PropOp33
 70
     1
102
RTVSPost2010Prop34
280
     0
102
RTVSPost2010PropOp34
 70
     1
102
RTVSPost2010Prop35
280
     0
102
RTVSPost2010PropOp35
 70
     1
102
RTVSPost2010Prop36
280
     0
102
RTVSPost2010PropOp36
 70
     1
102
RTVSPost2010Prop37
 90
       50
102
RTVSPost2010PropOp37
 70
     1
102
RTVSPost2010Prop38
140
0.0
102
RTVSPost2010PropOp38
 70
     1
102
RTVSPost2010Prop39
140
1.0
102
RTVSPost2010PropOp39
 70
     1
102
RTVSPost2010Prop40
 90
        0
102
RTVSPost2010PropOp40
 70
     1
102
RTVSPost2010Prop41ColorIndex
 90
       18
102
RTVSPost2010Prop41ColorRGB
 90
        0
102
RTVSPost2010PropOp41
 70
     1
102
RTVSPost2010Prop42
 90
       50
102
RTVSPost2010PropOp42
 70
     1
102
RTVSPost2010Prop43
 90
        3
102
RTVSPost2010PropOp43
 70
     1
102
RTVSPost2010Prop44ColorIndex
 90
        5
102
RTVSPost2010Prop44ColorRGB
 90
      255
102
RTVSPost2010PropOp44
 70
     1
102
RTVSPost2010Prop45
280
     0
102
RTVSPost2010PropOp45
 70
     1
102
RTVSPost2010Prop46
 90
       50
102
RTVSPost2010PropOp46
 70
     1
102
RTVSPost2010Prop47
 90
       50
102
RTVSPost2010PropOp47
 70
     1
102
RTVSPost2010Prop48
 90
       50
102
RTVSPost2010PropOp48
 70
     1
102
RTVSPost2010Prop49
280
     0
102
RTVSPost2010PropOp49
 70
     1
102
RTVSPost2010Prop50
 90
       50
102
RTVSPost2010PropOp50
 70
     1
102
RTVSPost2010Prop51ColorIndex
 90
      256
102
RTVSPost2010Prop51ColorRGB
 90
-16777216
102
RTVSPost2010PropOp51
 70
     0
102
RTVSPost2010Prop52
140
1.0
102
RTVSPost2010PropOp52
 70
     0
102
RTVSPost2010Prop53
 90
        2
102
RTVSPost2010PropOp53
 70
     1
102
RTVSPost2010Prop54
  1
strokes_ogs.tif
102
RTVSPost2010PropOp54
 70
     1
102
RTVSPost2010Prop55
280
     0
102
RTVSPost2010PropOp55
 70
     1
102
RTVSPost2010Prop56
140
1.0
102
RTVSPost2010PropOp56
 70
     1
102
RTVSPost2010Prop57
140
1.0
102
RTVSPost2010PropOp57
 70
     1
102
RTVSPropertyOp0
 70
     1
102
RTVSPropertyOp1
 70
     1
102
RTVSPropertyOp2
 70
     1
102
RTVSPropertyOp3
 70
     1
102
RTVSPropertyOp4
 70
     1
102
RTVSPropertyOp5
 70
     1
102
RTVSPropertyOp6
 70
     1
102
RTVSPropertyOp7
 70
     1
102
RTVSPropertyOp8
 70
     1
102
RTVSPropertyOp9
 70
     1
102
RTVSPropertyOp10
 70
     1
102
RTVSPropertyOp11
 70
     1
102
RTVSPropertyOp12
 70
     1
102
RTVSPropertyOp13
 70
     1
102
RTVSPropertyOp14
 70
     1
102
RTVSPropertyOp15
 70
     1
102
RTVSPropertyOp16
 70
     1
102
RTVSPropertyOp17
 70
     1
102
RTVSPropertyOp18
 70
     1
102
RTVSPropertyOp19
 70
     1
102
RTVSPropertyOp20
 70
     1
102
RTVSPropertyOp21
 70
     1
102
RTVSPropertyOp22
 70
     1
102
RTVSPropertyOp23
 70
     1
102
RTVSPropertyOp24
 70
     1
102
RTVSPropertyOp25
 70
     1
102
RTVSPropertyOp26
 70
     1
102
RTVSPropertyOp27
 70
     1
102
RTVSPropertyOp28
 70
     1
102
RTVSPropertyOp29
 70
     1
102
RTVSPropertyOp30
 70
     1
102
RTVSPropertyOp31
 70
     1
102
RTVSPropertyOp32
 70
     1
102
RTVSPropertyOp33
 70
     1
102
RTVSPropertyOp34
 70
     1
102
RTVSPropertyOp35
 70
     1
102
RTVSPropertyOp36
 70
     1
102
RTVSPropertyOp37
 70
     1
102
RTVSPropertyOp38
 70
     1
102
RTVSPropertyOp39
 70
     1
102
RTVSPropertyOp40
 70
     1
102
RTVSPropertyOp41
 70
     1
102
RTVSPropertyOp42
 70
     1
102
RTVSPropertyOp43
 70
     1
102
RTVSPropertyOp44
 70
     1
102
RTVSPropertyOp45
 70
     1
102
RTVSPropertyOp46
 70
     1
102
RTVSPropertyOp47
 70
     1
102
RTVSPropertyOp48
 70
     1
102
RTVSPropertyOp49
 70
     1
102
RTVSPropertyOp50
 70
     1
102
RTVSPropertyOp51
 70
     0
102
RTVSPropertyOp52
 70
     0
102
RTVSPropertyOp53
 70
     1
102
RTVSPropertyOp54
 70
     1
102
RTVSPropertyOp55
 70
     1
102
RTVSPropertyOp56
 70
     1
102
RTVSPropertyOp57
 70
     1
102
RTVSPropertyOp58
 70
     1
102
RTVSPropertyOp59
 70
     1
102
RTVSPropertyOp60
 70
     1
102
RTVSPropertyOp61
 70
     1
102
RTVSPropertyOp62
 70
     1
  0
XRECORD
  5
6E3B
102
{ACAD_REACTORS
330
6E3A
102
}
330
6E3A
100
AcDbXrecord
280
     1
102
RTVSPost2010Prop28
280
     0
102
RTVSPost2010PropOp28
 70
     1
102
RTVSPost2010Prop29
280
     1
102
RTVSPost2010PropOp29
 70
     1
102
RTVSPost2010Prop30
280
     1
102
RTVSPost2010PropOp30
 70
     1
102
RTVSPost2010Prop31
280
     0
102
RTVSPost2010PropOp31
 70
     1
102
RTVSPost2010Prop32
280
     0
102
RTVSPost2010PropOp32
 70
     1
102
RTVSPost2010Prop33
280
     0
102
RTVSPost2010PropOp33
 70
     1
102
RTVSPost2010Prop34
280
     0
102
RTVSPost2010PropOp34
 70
     1
102
RTVSPost2010Prop35
280
     0
102
RTVSPost2010PropOp35
 70
     1
102
RTVSPost2010Prop36
280
     0
102
RTVSPost2010PropOp36
 70
     1
102
RTVSPost2010Prop37
 90
       50
102
RTVSPost2010PropOp37
 70
     1
102
RTVSPost2010Prop38
140
0.0
102
RTVSPost2010PropOp38
 70
     1
102
RTVSPost2010Prop39
140
1.0
102
RTVSPost2010PropOp39
 70
     1
102
RTVSPost2010Prop40
 90
        0
102
RTVSPost2010PropOp40
 70
     1
102
RTVSPost2010Prop41ColorIndex
 90
       18
102
RTVSPost2010Prop41ColorRGB
 90
        0
102
RTVSPost2010PropOp41
 70
     1
102
RTVSPost2010Prop42
 90
       50
102
RTVSPost2010PropOp42
 70
     1
102
RTVSPost2010Prop43
 90
        3
102
RTVSPost2010PropOp43
 70
     1
102
RTVSPost2010Prop44ColorIndex
 90
        5
102
RTVSPost2010Prop44ColorRGB
 90
      255
102
RTVSPost2010PropOp44
 70
     1
102
RTVSPost2010Prop45
280
     0
102
RTVSPost2010PropOp45
 70
     1
102
RTVSPost2010Prop46
 90
       50
102
RTVSPost2010PropOp46
 70
     1
102
RTVSPost2010Prop47
 90
       50
102
RTVSPost2010PropOp47
 70
     1
102
RTVSPost2010Prop48
 90
       50
102
RTVSPost2010PropOp48
 70
     1
102
RTVSPost2010Prop49
280
     0
102
RTVSPost2010PropOp49
 70
     1
102
RTVSPost2010Prop50
 90
       50
102
RTVSPost2010PropOp50
 70
     1
102
RTVSPost2010Prop51ColorIndex
 90
      256
102
RTVSPost2010Prop51ColorRGB
 90
-16777216
102
RTVSPost2010PropOp51
 70
     0
102
RTVSPost2010Prop52
140
1.0
102
RTVSPost2010PropOp52
 70
     0
102
RTVSPost2010Prop53
 90
        2
102
RTVSPost2010PropOp53
 70
     1
102
RTVSPost2010Prop54
  1
strokes_ogs.tif
102
RTVSPost2010PropOp54
 70
     1
102
RTVSPost2010Prop55
280
     0
102
RTVSPost2010PropOp55
 70
     1
102
RTVSPost2010Prop56
140
1.0
102
RTVSPost2010PropOp56
 70
     1
102
RTVSPost2010Prop57
140
1.0
102
RTVSPost2010PropOp57
 70
     1
102
RTVSPropertyOp0
 70
     1
102
RTVSPropertyOp1
 70
     1
102
RTVSPropertyOp2
 70
     1
102
RTVSPropertyOp3
 70
     1
102
RTVSPropertyOp4
 70
     1
102
RTVSPropertyOp5
 70
     1
102
RTVSPropertyOp6
 70
     1
102
RTVSPropertyOp7
 70
     1
102
RTVSPropertyOp8
 70
     1
102
RTVSPropertyOp9
 70
     1
102
RTVSPropertyOp10
 70
     1
102
RTVSPropertyOp11
 70
     1
102
RTVSPropertyOp12
 70
     1
102
RTVSPropertyOp13
 70
     1
102
RTVSPropertyOp14
 70
     1
102
RTVSPropertyOp15
 70
     1
102
RTVSPropertyOp16
 70
     1
102
RTVSPropertyOp17
 70
     1
102
RTVSPropertyOp18
 70
     1
102
RTVSPropertyOp19
 70
     1
102
RTVSPropertyOp20
 70
     1
102
RTVSPropertyOp21
 70
     1
102
RTVSPropertyOp22
 70
     1
102
RTVSPropertyOp23
 70
     1
102
RTVSPropertyOp24
 70
     1
102
RTVSPropertyOp25
 70
     1
102
RTVSPropertyOp26
 70
     1
102
RTVSPropertyOp27
 70
     1
102
RTVSPropertyOp28
 70
     1
102
RTVSPropertyOp29
 70
     1
102
RTVSPropertyOp30
 70
     1
102
RTVSPropertyOp31
 70
     1
102
RTVSPropertyOp32
 70
     1
102
RTVSPropertyOp33
 70
     1
102
RTVSPropertyOp34
 70
     1
102
RTVSPropertyOp35
 70
     1
102
RTVSPropertyOp36
 70
     1
102
RTVSPropertyOp37
 70
     1
102
RTVSPropertyOp38
 70
     1
102
RTVSPropertyOp39
 70
     1
102
RTVSPropertyOp40
 70
     1
102
RTVSPropertyOp41
 70
     1
102
RTVSPropertyOp42
 70
     1
102
RTVSPropertyOp43
 70
     1
102
RTVSPropertyOp44
 70
     1
102
RTVSPropertyOp45
 70
     1
102
RTVSPropertyOp46
 70
     1
102
RTVSPropertyOp47
 70
     1
102
RTVSPropertyOp48
 70
     1
102
RTVSPropertyOp49
 70
     1
102
RTVSPropertyOp50
 70
     1
102
RTVSPropertyOp51
 70
     0
102
RTVSPropertyOp52
 70
     0
102
RTVSPropertyOp53
 70
     1
102
RTVSPropertyOp54
 70
     1
102
RTVSPropertyOp55
 70
     1
102
RTVSPropertyOp56
 70
     1
102
RTVSPropertyOp57
 70
     1
102
RTVSPropertyOp58
 70
     1
102
RTVSPropertyOp59
 70
     1
102
RTVSPropertyOp60
 70
     1
102
RTVSPropertyOp61
 70
     1
102
RTVSPropertyOp62
 70
     1
  0
XRECORD
  5
6E43
102
{ACAD_REACTORS
330
6E42
102
}
330
6E42
100
AcDbXrecord
280
     1
102
RTVSPost2010Prop28
280
     0
102
RTVSPost2010PropOp28
 70
     1
102
RTVSPost2010Prop29
280
     1
102
RTVSPost2010PropOp29
 70
     1
102
RTVSPost2010Prop30
280
     1
102
RTVSPost2010PropOp30
 70
     1
102
RTVSPost2010Prop31
280
     0
102
RTVSPost2010PropOp31
 70
     1
102
RTVSPost2010Prop32
280
     0
102
RTVSPost2010PropOp32
 70
     1
102
RTVSPost2010Prop33
280
     0
102
RTVSPost2010PropOp33
 70
     1
102
RTVSPost2010Prop34
280
     0
102
RTVSPost2010PropOp34
 70
     1
102
RTVSPost2010Prop35
280
     0
102
RTVSPost2010PropOp35
 70
     1
102
RTVSPost2010Prop36
280
     0
102
RTVSPost2010PropOp36
 70
     1
102
RTVSPost2010Prop37
 90
       50
102
RTVSPost2010PropOp37
 70
     1
102
RTVSPost2010Prop38
140
0.0
102
RTVSPost2010PropOp38
 70
     1
102
RTVSPost2010Prop39
140
1.0
102
RTVSPost2010PropOp39
 70
     1
102
RTVSPost2010Prop40
 90
        0
102
RTVSPost2010PropOp40
 70
     1
102
RTVSPost2010Prop41ColorIndex
 90
       18
102
RTVSPost2010Prop41ColorRGB
 90
        0
102
RTVSPost2010PropOp41
 70
     1
102
RTVSPost2010Prop42
 90
       50
102
RTVSPost2010PropOp42
 70
     1
102
RTVSPost2010Prop43
 90
        3
102
RTVSPost2010PropOp43
 70
     1
102
RTVSPost2010Prop44ColorIndex
 90
        5
102
RTVSPost2010Prop44ColorRGB
 90
      255
102
RTVSPost2010PropOp44
 70
     1
102
RTVSPost2010Prop45
280
     0
102
RTVSPost2010PropOp45
 70
     1
102
RTVSPost2010Prop46
 90
       50
102
RTVSPost2010PropOp46
 70
     1
102
RTVSPost2010Prop47
 90
       50
102
RTVSPost2010PropOp47
 70
     1
102
RTVSPost2010Prop48
 90
       50
102
RTVSPost2010PropOp48
 70
     1
102
RTVSPost2010Prop49
280
     0
102
RTVSPost2010PropOp49
 70
     1
102
RTVSPost2010Prop50
 90
       50
102
RTVSPost2010PropOp50
 70
     1
102
RTVSPost2010Prop51ColorIndex
 90
      256
102
RTVSPost2010Prop51ColorRGB
 90
-16777216
102
RTVSPost2010PropOp51
 70
     0
102
RTVSPost2010Prop52
140
1.0
102
RTVSPost2010PropOp52
 70
     0
102
RTVSPost2010Prop53
 90
        2
102
RTVSPost2010PropOp53
 70
     1
102
RTVSPost2010Prop54
  1
strokes_ogs.tif
102
RTVSPost2010PropOp54
 70
     1
102
RTVSPost2010Prop55
280
     0
102
RTVSPost2010PropOp55
 70
     1
102
RTVSPost2010Prop56
140
1.0
102
RTVSPost2010PropOp56
 70
     1
102
RTVSPost2010Prop57
140
1.0
102
RTVSPost2010PropOp57
 70
     1
102
RTVSPropertyOp0
 70
     1
102
RTVSPropertyOp1
 70
     1
102
RTVSPropertyOp2
 70
     1
102
RTVSPropertyOp3
 70
     1
102
RTVSPropertyOp4
 70
     1
102
RTVSPropertyOp5
 70
     1
102
RTVSPropertyOp6
 70
     1
102
RTVSPropertyOp7
 70
     1
102
RTVSPropertyOp8
 70
     1
102
RTVSPropertyOp9
 70
     1
102
RTVSPropertyOp10
 70
     1
102
RTVSPropertyOp11
 70
     1
102
RTVSPropertyOp12
 70
     1
102
RTVSPropertyOp13
 70
     1
102
RTVSPropertyOp14
 70
     1
102
RTVSPropertyOp15
 70
     1
102
RTVSPropertyOp16
 70
     1
102
RTVSPropertyOp17
 70
     1
102
RTVSPropertyOp18
 70
     1
102
RTVSPropertyOp19
 70
     1
102
RTVSPropertyOp20
 70
     1
102
RTVSPropertyOp21
 70
     1
102
RTVSPropertyOp22
 70
     1
102
RTVSPropertyOp23
 70
     1
102
RTVSPropertyOp24
 70
     1
102
RTVSPropertyOp25
 70
     1
102
RTVSPropertyOp26
 70
     1
102
RTVSPropertyOp27
 70
     1
102
RTVSPropertyOp28
 70
     1
102
RTVSPropertyOp29
 70
     1
102
RTVSPropertyOp30
 70
     1
102
RTVSPropertyOp31
 70
     1
102
RTVSPropertyOp32
 70
     1
102
RTVSPropertyOp33
 70
     1
102
RTVSPropertyOp34
 70
     1
102
RTVSPropertyOp35
 70
     1
102
RTVSPropertyOp36
 70
     1
102
RTVSPropertyOp37
 70
     1
102
RTVSPropertyOp38
 70
     1
102
RTVSPropertyOp39
 70
     1
102
RTVSPropertyOp40
 70
     1
102
RTVSPropertyOp41
 70
     1
102
RTVSPropertyOp42
 70
     1
102
RTVSPropertyOp43
 70
     1
102
RTVSPropertyOp44
 70
     1
102
RTVSPropertyOp45
 70
     1
102
RTVSPropertyOp46
 70
     1
102
RTVSPropertyOp47
 70
     1
102
RTVSPropertyOp48
 70
     1
102
RTVSPropertyOp49
 70
     1
102
RTVSPropertyOp50
 70
     1
102
RTVSPropertyOp51
 70
     0
102
RTVSPropertyOp52
 70
     0
102
RTVSPropertyOp53
 70
     1
102
RTVSPropertyOp54
 70
     1
102
RTVSPropertyOp55
 70
     1
102
RTVSPropertyOp56
 70
     1
102
RTVSPropertyOp57
 70
     1
102
RTVSPropertyOp58
 70
     1
102
RTVSPropertyOp59
 70
     1
102
RTVSPropertyOp60
 70
     1
102
RTVSPropertyOp61
 70
     1
102
RTVSPropertyOp62
 70
     1
  0
XRECORD
  5
6E5F
102
{ACAD_REACTORS
330
6E5E
102
}
330
6E5E
100
AcDbXrecord
280
     1
102
RTVSPost2010Prop28
280
     0
102
RTVSPost2010PropOp28
 70
     0
102
RTVSPost2010Prop29
280
     1
102
RTVSPost2010PropOp29
 70
     0
102
RTVSPost2010Prop30
280
     1
102
RTVSPost2010PropOp30
 70
     0
102
RTVSPost2010Prop31
280
     0
102
RTVSPost2010PropOp31
 70
     0
102
RTVSPost2010Prop32
280
     0
102
RTVSPost2010PropOp32
 70
     0
102
RTVSPost2010Prop33
280
     0
102
RTVSPost2010PropOp33
 70
     0
102
RTVSPost2010Prop34
280
     0
102
RTVSPost2010PropOp34
 70
     0
102
RTVSPost2010Prop35
280
     0
102
RTVSPost2010PropOp35
 70
     0
102
RTVSPost2010Prop36
280
     0
102
RTVSPost2010PropOp36
 70
     0
102
RTVSPost2010Prop37
 90
       50
102
RTVSPost2010PropOp37
 70
     0
102
RTVSPost2010Prop38
140
0.0
102
RTVSPost2010PropOp38
 70
     0
102
RTVSPost2010Prop39
140
1.0
102
RTVSPost2010PropOp39
 70
     0
102
RTVSPost2010Prop40
 90
        0
102
RTVSPost2010PropOp40
 70
     0
102
RTVSPost2010Prop41ColorIndex
 90
       18
102
RTVSPost2010Prop41ColorRGB
 90
        0
102
RTVSPost2010PropOp41
 70
     0
102
RTVSPost2010Prop42
 90
       50
102
RTVSPost2010PropOp42
 70
     0
102
RTVSPost2010Prop43
 90
        3
102
RTVSPost2010PropOp43
 70
     0
102
RTVSPost2010Prop44ColorIndex
 90
        5
102
RTVSPost2010Prop44ColorRGB
 90
      255
102
RTVSPost2010PropOp44
 70
     0
102
RTVSPost2010Prop45
280
     0
102
RTVSPost2010PropOp45
 70
     0
102
RTVSPost2010Prop46
 90
       50
102
RTVSPost2010PropOp46
 70
     0
102
RTVSPost2010Prop47
 90
       50
102
RTVSPost2010PropOp47
 70
     0
102
RTVSPost2010Prop48
 90
       50
102
RTVSPost2010PropOp48
 70
     0
102
RTVSPost2010Prop49
280
     0
102
RTVSPost2010PropOp49
 70
     0
102
RTVSPost2010Prop50
 90
       50
102
RTVSPost2010PropOp50
 70
     0
102
RTVSPost2010Prop51ColorIndex
 90
      256
102
RTVSPost2010Prop51ColorRGB
 90
-16777216
102
RTVSPost2010PropOp51
 70
     0
102
RTVSPost2010Prop52
140
1.0
102
RTVSPost2010PropOp52
 70
     0
102
RTVSPost2010Prop53
 90
        2
102
RTVSPost2010PropOp53
 70
     0
102
RTVSPost2010Prop54
  1
strokes_ogs.tif
102
RTVSPost2010PropOp54
 70
     0
102
RTVSPost2010Prop55
280
     0
102
RTVSPost2010PropOp55
 70
     0
102
RTVSPost2010Prop56
140
1.0
102
RTVSPost2010PropOp56
 70
     0
102
RTVSPost2010Prop57
140
1.0
102
RTVSPost2010PropOp57
 70
     0
102
RTVSPropertyOp0
 70
     0
102
RTVSPropertyOp1
 70
     0
102
RTVSPropertyOp2
 70
     0
102
RTVSPropertyOp3
 70
     0
102
RTVSPropertyOp4
 70
     0
102
RTVSPropertyOp5
 70
     0
102
RTVSPropertyOp6
 70
     0
102
RTVSPropertyOp7
 70
     0
102
RTVSPropertyOp8
 70
     0
102
RTVSPropertyOp9
 70
     0
102
RTVSPropertyOp10
 70
     0
102
RTVSPropertyOp11
 70
     0
102
RTVSPropertyOp12
 70
     0
102
RTVSPropertyOp13
 70
     0
102
RTVSPropertyOp14
 70
     2
102
RTVSPropertyOp15
 70
     0
102
RTVSPropertyOp16
 70
     0
102
RTVSPropertyOp17
 70
     0
102
RTVSPropertyOp18
 70
     0
102
RTVSPropertyOp19
 70
     0
102
RTVSPropertyOp20
 70
     0
102
RTVSPropertyOp21
 70
     0
102
RTVSPropertyOp22
 70
     0
102
RTVSPropertyOp23
 70
     0
102
RTVSPropertyOp24
 70
     0
102
RTVSPropertyOp25
 70
     0
102
RTVSPropertyOp26
 70
     0
102
RTVSPropertyOp27
 70
     0
102
RTVSPropertyOp28
 70
     0
102
RTVSPropertyOp29
 70
     0
102
RTVSPropertyOp30
 70
     0
102
RTVSPropertyOp31
 70
     0
102
RTVSPropertyOp32
 70
     0
102
RTVSPropertyOp33
 70
     0
102
RTVSPropertyOp34
 70
     0
102
RTVSPropertyOp35
 70
     0
102
RTVSPropertyOp36
 70
     0
102
RTVSPropertyOp37
 70
     0
102
RTVSPropertyOp38
 70
     0
102
RTVSPropertyOp39
 70
     0
102
RTVSPropertyOp40
 70
     0
102
RTVSPropertyOp41
 70
     0
102
RTVSPropertyOp42
 70
     0
102
RTVSPropertyOp43
 70
     0
102
RTVSPropertyOp44
 70
     0
102
RTVSPropertyOp45
 70
     0
102
RTVSPropertyOp46
 70
     0
102
RTVSPropertyOp47
 70
     0
102
RTVSPropertyOp48
 70
     0
102
RTVSPropertyOp49
 70
     0
102
RTVSPropertyOp50
 70
     0
102
RTVSPropertyOp51
 70
     0
102
RTVSPropertyOp52
 70
     0
102
RTVSPropertyOp53
 70
     0
102
RTVSPropertyOp54
 70
     0
102
RTVSPropertyOp55
 70
     0
102
RTVSPropertyOp56
 70
     0
102
RTVSPropertyOp57
 70
     0
102
RTVSPropertyOp58
 70
     1
102
RTVSPropertyOp59
 70
     1
102
RTVSPropertyOp60
 70
     1
102
RTVSPropertyOp61
 70
     1
102
RTVSPropertyOp62
 70
     1
  0
XRECORD
  5
6E4F
102
{ACAD_REACTORS
330
6E4E
102
}
330
6E4E
100
AcDbXrecord
280
     1
102
RTVSPost2010Prop28
280
     0
102
RTVSPost2010PropOp28
 70
     1
102
RTVSPost2010Prop29
280
     1
102
RTVSPost2010PropOp29
 70
     1
102
RTVSPost2010Prop30
280
     1
102
RTVSPost2010PropOp30
 70
     1
102
RTVSPost2010Prop31
280
     0
102
RTVSPost2010PropOp31
 70
     1
102
RTVSPost2010Prop32
280
     0
102
RTVSPost2010PropOp32
 70
     1
102
RTVSPost2010Prop33
280
     0
102
RTVSPost2010PropOp33
 70
     1
102
RTVSPost2010Prop34
280
     0
102
RTVSPost2010PropOp34
 70
     1
102
RTVSPost2010Prop35
280
     0
102
RTVSPost2010PropOp35
 70
     1
102
RTVSPost2010Prop36
280
     0
102
RTVSPost2010PropOp36
 70
     1
102
RTVSPost2010Prop37
 90
       50
102
RTVSPost2010PropOp37
 70
     1
102
RTVSPost2010Prop38
140
0.0
102
RTVSPost2010PropOp38
 70
     1
102
RTVSPost2010Prop39
140
1.0
102
RTVSPost2010PropOp39
 70
     1
102
RTVSPost2010Prop40
 90
        0
102
RTVSPost2010PropOp40
 70
     1
102
RTVSPost2010Prop41ColorIndex
 90
       18
102
RTVSPost2010Prop41ColorRGB
 90
        0
102
RTVSPost2010PropOp41
 70
     1
102
RTVSPost2010Prop42
 90
       50
102
RTVSPost2010PropOp42
 70
     1
102
RTVSPost2010Prop43
 90
        3
102
RTVSPost2010PropOp43
 70
     1
102
RTVSPost2010Prop44ColorIndex
 90
        5
102
RTVSPost2010Prop44ColorRGB
 90
      255
102
RTVSPost2010PropOp44
 70
     1
102
RTVSPost2010Prop45
280
     0
102
RTVSPost2010PropOp45
 70
     1
102
RTVSPost2010Prop46
 90
       50
102
RTVSPost2010PropOp46
 70
     1
102
RTVSPost2010Prop47
 90
       50
102
RTVSPost2010PropOp47
 70
     1
102
RTVSPost2010Prop48
 90
       50
102
RTVSPost2010PropOp48
 70
     1
102
RTVSPost2010Prop49
280
     0
102
RTVSPost2010PropOp49
 70
     1
102
RTVSPost2010Prop50
 90
       50
102
RTVSPost2010PropOp50
 70
     1
102
RTVSPost2010Prop51ColorIndex
 90
      256
102
RTVSPost2010Prop51ColorRGB
 90
-16777216
102
RTVSPost2010PropOp51
 70
     0
102
RTVSPost2010Prop52
140
1.0
102
RTVSPost2010PropOp52
 70
     0
102
RTVSPost2010Prop53
 90
        2
102
RTVSPost2010PropOp53
 70
     1
102
RTVSPost2010Prop54
  1
strokes_ogs.tif
102
RTVSPost2010PropOp54
 70
     1
102
RTVSPost2010Prop55
280
     0
102
RTVSPost2010PropOp55
 70
     1
102
RTVSPost2010Prop56
140
1.0
102
RTVSPost2010PropOp56
 70
     1
102
RTVSPost2010Prop57
140
1.0
102
RTVSPost2010PropOp57
 70
     1
102
RTVSPropertyOp0
 70
     1
102
RTVSPropertyOp1
 70
     1
102
RTVSPropertyOp2
 70
     1
102
RTVSPropertyOp3
 70
     1
102
RTVSPropertyOp4
 70
     1
102
RTVSPropertyOp5
 70
     1
102
RTVSPropertyOp6
 70
     1
102
RTVSPropertyOp7
 70
     1
102
RTVSPropertyOp8
 70
     1
102
RTVSPropertyOp9
 70
     1
102
RTVSPropertyOp10
 70
     1
102
RTVSPropertyOp11
 70
     1
102
RTVSPropertyOp12
 70
     1
102
RTVSPropertyOp13
 70
     1
102
RTVSPropertyOp14
 70
     1
102
RTVSPropertyOp15
 70
     1
102
RTVSPropertyOp16
 70
     1
102
RTVSPropertyOp17
 70
     1
102
RTVSPropertyOp18
 70
     1
102
RTVSPropertyOp19
 70
     1
102
RTVSPropertyOp20
 70
     1
102
RTVSPropertyOp21
 70
     1
102
RTVSPropertyOp22
 70
     1
102
RTVSPropertyOp23
 70
     1
102
RTVSPropertyOp24
 70
     1
102
RTVSPropertyOp25
 70
     1
102
RTVSPropertyOp26
 70
     1
102
RTVSPropertyOp27
 70
     1
102
RTVSPropertyOp28
 70
     1
102
RTVSPropertyOp29
 70
     1
102
RTVSPropertyOp30
 70
     1
102
RTVSPropertyOp31
 70
     1
102
RTVSPropertyOp32
 70
     1
102
RTVSPropertyOp33
 70
     1
102
RTVSPropertyOp34
 70
     1
102
RTVSPropertyOp35
 70
     1
102
RTVSPropertyOp36
 70
     1
102
RTVSPropertyOp37
 70
     1
102
RTVSPropertyOp38
 70
     1
102
RTVSPropertyOp39
 70
     1
102
RTVSPropertyOp40
 70
     1
102
RTVSPropertyOp41
 70
     1
102
RTVSPropertyOp42
 70
     1
102
RTVSPropertyOp43
 70
     1
102
RTVSPropertyOp44
 70
     1
102
RTVSPropertyOp45
 70
     1
102
RTVSPropertyOp46
 70
     1
102
RTVSPropertyOp47
 70
     1
102
RTVSPropertyOp48
 70
     1
102
RTVSPropertyOp49
 70
     1
102
RTVSPropertyOp50
 70
     1
102
RTVSPropertyOp51
 70
     0
102
RTVSPropertyOp52
 70
     0
102
RTVSPropertyOp53
 70
     1
102
RTVSPropertyOp54
 70
     1
102
RTVSPropertyOp55
 70
     1
102
RTVSPropertyOp56
 70
     1
102
RTVSPropertyOp57
 70
     1
102
RTVSPropertyOp58
 70
     1
102
RTVSPropertyOp59
 70
     1
102
RTVSPropertyOp60
 70
     1
102
RTVSPropertyOp61
 70
     1
102
RTVSPropertyOp62
 70
     1
  0
XRECORD
  5
6E61
102
{ACAD_REACTORS
330
6E60
102
}
330
6E60
100
AcDbXrecord
280
     1
102
RTVSPost2010Prop28
280
     0
102
RTVSPost2010PropOp28
 70
     0
102
RTVSPost2010Prop29
280
     1
102
RTVSPost2010PropOp29
 70
     0
102
RTVSPost2010Prop30
280
     1
102
RTVSPost2010PropOp30
 70
     0
102
RTVSPost2010Prop31
280
     0
102
RTVSPost2010PropOp31
 70
     0
102
RTVSPost2010Prop32
280
     0
102
RTVSPost2010PropOp32
 70
     0
102
RTVSPost2010Prop33
280
     0
102
RTVSPost2010PropOp33
 70
     0
102
RTVSPost2010Prop34
280
     0
102
RTVSPost2010PropOp34
 70
     0
102
RTVSPost2010Prop35
280
     0
102
RTVSPost2010PropOp35
 70
     0
102
RTVSPost2010Prop36
280
     0
102
RTVSPost2010PropOp36
 70
     0
102
RTVSPost2010Prop37
 90
       50
102
RTVSPost2010PropOp37
 70
     0
102
RTVSPost2010Prop38
140
0.0
102
RTVSPost2010PropOp38
 70
     0
102
RTVSPost2010Prop39
140
1.0
102
RTVSPost2010PropOp39
 70
     0
102
RTVSPost2010Prop40
 90
        0
102
RTVSPost2010PropOp40
 70
     0
102
RTVSPost2010Prop41ColorIndex
 90
       18
102
RTVSPost2010Prop41ColorRGB
 90
        0
102
RTVSPost2010PropOp41
 70
     0
102
RTVSPost2010Prop42
 90
       50
102
RTVSPost2010PropOp42
 70
     0
102
RTVSPost2010Prop43
 90
        3
102
RTVSPost2010PropOp43
 70
     0
102
RTVSPost2010Prop44ColorIndex
 90
        5
102
RTVSPost2010Prop44ColorRGB
 90
      255
102
RTVSPost2010PropOp44
 70
     0
102
RTVSPost2010Prop45
280
     0
102
RTVSPost2010PropOp45
 70
     0
102
RTVSPost2010Prop46
 90
       50
102
RTVSPost2010PropOp46
 70
     0
102
RTVSPost2010Prop47
 90
       50
102
RTVSPost2010PropOp47
 70
     0
102
RTVSPost2010Prop48
 90
       50
102
RTVSPost2010PropOp48
 70
     0
102
RTVSPost2010Prop49
280
     0
102
RTVSPost2010PropOp49
 70
     0
102
RTVSPost2010Prop50
 90
       50
102
RTVSPost2010PropOp50
 70
     0
102
RTVSPost2010Prop51ColorIndex
 90
      256
102
RTVSPost2010Prop51ColorRGB
 90
-16777216
102
RTVSPost2010PropOp51
 70
     0
102
RTVSPost2010Prop52
140
1.0
102
RTVSPost2010PropOp52
 70
     0
102
RTVSPost2010Prop53
 90
        2
102
RTVSPost2010PropOp53
 70
     0
102
RTVSPost2010Prop54
  1
strokes_ogs.tif
102
RTVSPost2010PropOp54
 70
     0
102
RTVSPost2010Prop55
280
     0
102
RTVSPost2010PropOp55
 70
     0
102
RTVSPost2010Prop56
140
1.0
102
RTVSPost2010PropOp56
 70
     0
102
RTVSPost2010Prop57
140
1.0
102
RTVSPost2010PropOp57
 70
     0
102
RTVSPropertyOp0
 70
     0
102
RTVSPropertyOp1
 70
     0
102
RTVSPropertyOp2
 70
     0
102
RTVSPropertyOp3
 70
     0
102
RTVSPropertyOp4
 70
     0
102
RTVSPropertyOp5
 70
     0
102
RTVSPropertyOp6
 70
     0
102
RTVSPropertyOp7
 70
     0
102
RTVSPropertyOp8
 70
     0
102
RTVSPropertyOp9
 70
     0
102
RTVSPropertyOp10
 70
     0
102
RTVSPropertyOp11
 70
     0
102
RTVSPropertyOp12
 70
     0
102
RTVSPropertyOp13
 70
     0
102
RTVSPropertyOp14
 70
     2
102
RTVSPropertyOp15
 70
     0
102
RTVSPropertyOp16
 70
     0
102
RTVSPropertyOp17
 70
     0
102
RTVSPropertyOp18
 70
     0
102
RTVSPropertyOp19
 70
     0
102
RTVSPropertyOp20
 70
     0
102
RTVSPropertyOp21
 70
     0
102
RTVSPropertyOp22
 70
     0
102
RTVSPropertyOp23
 70
     0
102
RTVSPropertyOp24
 70
     0
102
RTVSPropertyOp25
 70
     0
102
RTVSPropertyOp26
 70
     0
102
RTVSPropertyOp27
 70
     0
102
RTVSPropertyOp28
 70
     0
102
RTVSPropertyOp29
 70
     0
102
RTVSPropertyOp30
 70
     0
102
RTVSPropertyOp31
 70
     0
102
RTVSPropertyOp32
 70
     0
102
RTVSPropertyOp33
 70
     0
102
RTVSPropertyOp34
 70
     0
102
RTVSPropertyOp35
 70
     0
102
RTVSPropertyOp36
 70
     0
102
RTVSPropertyOp37
 70
     0
102
RTVSPropertyOp38
 70
     0
102
RTVSPropertyOp39
 70
     0
102
RTVSPropertyOp40
 70
     0
102
RTVSPropertyOp41
 70
     0
102
RTVSPropertyOp42
 70
     0
102
RTVSPropertyOp43
 70
     0
102
RTVSPropertyOp44
 70
     0
102
RTVSPropertyOp45
 70
     0
102
RTVSPropertyOp46
 70
     0
102
RTVSPropertyOp47
 70
     0
102
RTVSPropertyOp48
 70
     0
102
RTVSPropertyOp49
 70
     0
102
RTVSPropertyOp50
 70
     0
102
RTVSPropertyOp51
 70
     0
102
RTVSPropertyOp52
 70
     0
102
RTVSPropertyOp53
 70
     0
102
RTVSPropertyOp54
 70
     0
102
RTVSPropertyOp55
 70
     0
102
RTVSPropertyOp56
 70
     0
102
RTVSPropertyOp57
 70
     0
102
RTVSPropertyOp58
 70
     1
102
RTVSPropertyOp59
 70
     1
102
RTVSPropertyOp60
 70
     1
102
RTVSPropertyOp61
 70
     1
102
RTVSPropertyOp62
 70
     1
  0
XRECORD
  5
6E47
102
{ACAD_REACTORS
330
6E46
102
}
330
6E46
100
AcDbXrecord
280
     1
102
RTVSPost2010Prop28
280
     0
102
RTVSPost2010PropOp28
 70
     1
102
RTVSPost2010Prop29
280
     1
102
RTVSPost2010PropOp29
 70
     1
102
RTVSPost2010Prop30
280
     1
102
RTVSPost2010PropOp30
 70
     1
102
RTVSPost2010Prop31
280
     0
102
RTVSPost2010PropOp31
 70
     1
102
RTVSPost2010Prop32
280
     0
102
RTVSPost2010PropOp32
 70
     1
102
RTVSPost2010Prop33
280
     0
102
RTVSPost2010PropOp33
 70
     1
102
RTVSPost2010Prop34
280
     0
102
RTVSPost2010PropOp34
 70
     1
102
RTVSPost2010Prop35
280
     0
102
RTVSPost2010PropOp35
 70
     1
102
RTVSPost2010Prop36
280
     0
102
RTVSPost2010PropOp36
 70
     1
102
RTVSPost2010Prop37
 90
       50
102
RTVSPost2010PropOp37
 70
     1
102
RTVSPost2010Prop38
140
0.0
102
RTVSPost2010PropOp38
 70
     1
102
RTVSPost2010Prop39
140
1.0
102
RTVSPost2010PropOp39
 70
     1
102
RTVSPost2010Prop40
 90
        0
102
RTVSPost2010PropOp40
 70
     1
102
RTVSPost2010Prop41ColorIndex
 90
       18
102
RTVSPost2010Prop41ColorRGB
 90
        0
102
RTVSPost2010PropOp41
 70
     1
102
RTVSPost2010Prop42
 90
       50
102
RTVSPost2010PropOp42
 70
     1
102
RTVSPost2010Prop43
 90
        3
102
RTVSPost2010PropOp43
 70
     1
102
RTVSPost2010Prop44ColorIndex
 90
        5
102
RTVSPost2010Prop44ColorRGB
 90
      255
102
RTVSPost2010PropOp44
 70
     1
102
RTVSPost2010Prop45
280
     0
102
RTVSPost2010PropOp45
 70
     1
102
RTVSPost2010Prop46
 90
       50
102
RTVSPost2010PropOp46
 70
     1
102
RTVSPost2010Prop47
 90
       50
102
RTVSPost2010PropOp47
 70
     1
102
RTVSPost2010Prop48
 90
       50
102
RTVSPost2010PropOp48
 70
     1
102
RTVSPost2010Prop49
280
     0
102
RTVSPost2010PropOp49
 70
     1
102
RTVSPost2010Prop50
 90
       50
102
RTVSPost2010PropOp50
 70
     1
102
RTVSPost2010Prop51ColorIndex
 90
      256
102
RTVSPost2010Prop51ColorRGB
 90
-16777216
102
RTVSPost2010PropOp51
 70
     0
102
RTVSPost2010Prop52
140
1.0
102
RTVSPost2010PropOp52
 70
     0
102
RTVSPost2010Prop53
 90
        2
102
RTVSPost2010PropOp53
 70
     1
102
RTVSPost2010Prop54
  1
strokes_ogs.tif
102
RTVSPost2010PropOp54
 70
     1
102
RTVSPost2010Prop55
280
     0
102
RTVSPost2010PropOp55
 70
     1
102
RTVSPost2010Prop56
140
1.0
102
RTVSPost2010PropOp56
 70
     1
102
RTVSPost2010Prop57
140
1.0
102
RTVSPost2010PropOp57
 70
     1
102
RTVSPropertyOp0
 70
     1
102
RTVSPropertyOp1
 70
     1
102
RTVSPropertyOp2
 70
     1
102
RTVSPropertyOp3
 70
     1
102
RTVSPropertyOp4
 70
     1
102
RTVSPropertyOp5
 70
     1
102
RTVSPropertyOp6
 70
     1
102
RTVSPropertyOp7
 70
     1
102
RTVSPropertyOp8
 70
     1
102
RTVSPropertyOp9
 70
     1
102
RTVSPropertyOp10
 70
     1
102
RTVSPropertyOp11
 70
     1
102
RTVSPropertyOp12
 70
     1
102
RTVSPropertyOp13
 70
     1
102
RTVSPropertyOp14
 70
     1
102
RTVSPropertyOp15
 70
     1
102
RTVSPropertyOp16
 70
     1
102
RTVSPropertyOp17
 70
     1
102
RTVSPropertyOp18
 70
     1
102
RTVSPropertyOp19
 70
     1
102
RTVSPropertyOp20
 70
     1
102
RTVSPropertyOp21
 70
     1
102
RTVSPropertyOp22
 70
     1
102
RTVSPropertyOp23
 70
     1
102
RTVSPropertyOp24
 70
     1
102
RTVSPropertyOp25
 70
     1
102
RTVSPropertyOp26
 70
     1
102
RTVSPropertyOp27
 70
     1
102
RTVSPropertyOp28
 70
     1
102
RTVSPropertyOp29
 70
     1
102
RTVSPropertyOp30
 70
     1
102
RTVSPropertyOp31
 70
     1
102
RTVSPropertyOp32
 70
     1
102
RTVSPropertyOp33
 70
     1
102
RTVSPropertyOp34
 70
     1
102
RTVSPropertyOp35
 70
     1
102
RTVSPropertyOp36
 70
     1
102
RTVSPropertyOp37
 70
     1
102
RTVSPropertyOp38
 70
     1
102
RTVSPropertyOp39
 70
     1
102
RTVSPropertyOp40
 70
     1
102
RTVSPropertyOp41
 70
     1
102
RTVSPropertyOp42
 70
     1
102
RTVSPropertyOp43
 70
     1
102
RTVSPropertyOp44
 70
     1
102
RTVSPropertyOp45
 70
     1
102
RTVSPropertyOp46
 70
     1
102
RTVSPropertyOp47
 70
     1
102
RTVSPropertyOp48
 70
     1
102
RTVSPropertyOp49
 70
     1
102
RTVSPropertyOp50
 70
     1
102
RTVSPropertyOp51
 70
     0
102
RTVSPropertyOp52
 70
     0
102
RTVSPropertyOp53
 70
     1
102
RTVSPropertyOp54
 70
     1
102
RTVSPropertyOp55
 70
     1
102
RTVSPropertyOp56
 70
     1
102
RTVSPropertyOp57
 70
     1
102
RTVSPropertyOp58
 70
     1
102
RTVSPropertyOp59
 70
     1
102
RTVSPropertyOp60
 70
     1
102
RTVSPropertyOp61
 70
     1
102
RTVSPropertyOp62
 70
     1
  0
XRECORD
  5
6E5D
102
{ACAD_REACTORS
330
6E5C
102
}
330
6E5C
100
AcDbXrecord
280
     1
102
RTVSPost2010Prop28
280
     0
102
RTVSPost2010PropOp28
 70
     1
102
RTVSPost2010Prop29
280
     1
102
RTVSPost2010PropOp29
 70
     1
102
RTVSPost2010Prop30
280
     1
102
RTVSPost2010PropOp30
 70
     1
102
RTVSPost2010Prop31
280
     0
102
RTVSPost2010PropOp31
 70
     1
102
RTVSPost2010Prop32
280
     0
102
RTVSPost2010PropOp32
 70
     1
102
RTVSPost2010Prop33
280
     0
102
RTVSPost2010PropOp33
 70
     1
102
RTVSPost2010Prop34
280
     0
102
RTVSPost2010PropOp34
 70
     1
102
RTVSPost2010Prop35
280
     0
102
RTVSPost2010PropOp35
 70
     1
102
RTVSPost2010Prop36
280
     0
102
RTVSPost2010PropOp36
 70
     1
102
RTVSPost2010Prop37
 90
       50
102
RTVSPost2010PropOp37
 70
     1
102
RTVSPost2010Prop38
140
0.0
102
RTVSPost2010PropOp38
 70
     1
102
RTVSPost2010Prop39
140
1.0
102
RTVSPost2010PropOp39
 70
     1
102
RTVSPost2010Prop40
 90
        0
102
RTVSPost2010PropOp40
 70
     1
102
RTVSPost2010Prop41ColorIndex
 90
       18
102
RTVSPost2010Prop41ColorRGB
 90
        0
102
RTVSPost2010PropOp41
 70
     1
102
RTVSPost2010Prop42
 90
       50
102
RTVSPost2010PropOp42
 70
     1
102
RTVSPost2010Prop43
 90
        3
102
RTVSPost2010PropOp43
 70
     1
102
RTVSPost2010Prop44ColorIndex
 90
        5
102
RTVSPost2010Prop44ColorRGB
 90
      255
102
RTVSPost2010PropOp44
 70
     1
102
RTVSPost2010Prop45
280
     0
102
RTVSPost2010PropOp45
 70
     1
102
RTVSPost2010Prop46
 90
       50
102
RTVSPost2010PropOp46
 70
     1
102
RTVSPost2010Prop47
 90
       50
102
RTVSPost2010PropOp47
 70
     1
102
RTVSPost2010Prop48
 90
       50
102
RTVSPost2010PropOp48
 70
     1
102
RTVSPost2010Prop49
280
     0
102
RTVSPost2010PropOp49
 70
     1
102
RTVSPost2010Prop50
 90
       50
102
RTVSPost2010PropOp50
 70
     1
102
RTVSPost2010Prop51ColorIndex
 90
      256
102
RTVSPost2010Prop51ColorRGB
 90
-16777216
102
RTVSPost2010PropOp51
 70
     0
102
RTVSPost2010Prop52
140
1.0
102
RTVSPost2010PropOp52
 70
     0
102
RTVSPost2010Prop53
 90
        2
102
RTVSPost2010PropOp53
 70
     1
102
RTVSPost2010Prop54
  1
strokes_ogs.tif
102
RTVSPost2010PropOp54
 70
     1
102
RTVSPost2010Prop55
280
     0
102
RTVSPost2010PropOp55
 70
     1
102
RTVSPost2010Prop56
140
1.0
102
RTVSPost2010PropOp56
 70
     1
102
RTVSPost2010Prop57
140
1.0
102
RTVSPost2010PropOp57
 70
     1
102
RTVSPropertyOp0
 70
     1
102
RTVSPropertyOp1
 70
     1
102
RTVSPropertyOp2
 70
     1
102
RTVSPropertyOp3
 70
     1
102
RTVSPropertyOp4
 70
     1
102
RTVSPropertyOp5
 70
     1
102
RTVSPropertyOp6
 70
     1
102
RTVSPropertyOp7
 70
     1
102
RTVSPropertyOp8
 70
     1
102
RTVSPropertyOp9
 70
     1
102
RTVSPropertyOp10
 70
     1
102
RTVSPropertyOp11
 70
     1
102
RTVSPropertyOp12
 70
     1
102
RTVSPropertyOp13
 70
     1
102
RTVSPropertyOp14
 70
     1
102
RTVSPropertyOp15
 70
     1
102
RTVSPropertyOp16
 70
     1
102
RTVSPropertyOp17
 70
     1
102
RTVSPropertyOp18
 70
     1
102
RTVSPropertyOp19
 70
     1
102
RTVSPropertyOp20
 70
     1
102
RTVSPropertyOp21
 70
     1
102
RTVSPropertyOp22
 70
     1
102
RTVSPropertyOp23
 70
     1
102
RTVSPropertyOp24
 70
     1
102
RTVSPropertyOp25
 70
     1
102
RTVSPropertyOp26
 70
     1
102
RTVSPropertyOp27
 70
     1
102
RTVSPropertyOp28
 70
     1
102
RTVSPropertyOp29
 70
     1
102
RTVSPropertyOp30
 70
     1
102
RTVSPropertyOp31
 70
     1
102
RTVSPropertyOp32
 70
     1
102
RTVSPropertyOp33
 70
     1
102
RTVSPropertyOp34
 70
     1
102
RTVSPropertyOp35
 70
     1
102
RTVSPropertyOp36
 70
     1
102
RTVSPropertyOp37
 70
     1
102
RTVSPropertyOp38
 70
     1
102
RTVSPropertyOp39
 70
     1
102
RTVSPropertyOp40
 70
     1
102
RTVSPropertyOp41
 70
     1
102
RTVSPropertyOp42
 70
     1
102
RTVSPropertyOp43
 70
     1
102
RTVSPropertyOp44
 70
     1
102
RTVSPropertyOp45
 70
     1
102
RTVSPropertyOp46
 70
     1
102
RTVSPropertyOp47
 70
     1
102
RTVSPropertyOp48
 70
     1
102
RTVSPropertyOp49
 70
     1
102
RTVSPropertyOp50
 70
     1
102
RTVSPropertyOp51
 70
     0
102
RTVSPropertyOp52
 70
     0
102
RTVSPropertyOp53
 70
     1
102
RTVSPropertyOp54
 70
     1
102
RTVSPropertyOp55
 70
     1
102
RTVSPropertyOp56
 70
     1
102
RTVSPropertyOp57
 70
     1
102
RTVSPropertyOp58
 70
     1
102
RTVSPropertyOp59
 70
     1
102
RTVSPropertyOp60
 70
     1
102
RTVSPropertyOp61
 70
     1
102
RTVSPropertyOp62
 70
     1
  0
XRECORD
  5
6E5B
102
{ACAD_REACTORS
330
6E5A
102
}
330
6E5A
100
AcDbXrecord
280
     1
102
RTVSPost2010Prop28
280
     0
102
RTVSPost2010PropOp28
 70
     1
102
RTVSPost2010Prop29
280
     1
102
RTVSPost2010PropOp29
 70
     1
102
RTVSPost2010Prop30
280
     1
102
RTVSPost2010PropOp30
 70
     1
102
RTVSPost2010Prop31
280
     0
102
RTVSPost2010PropOp31
 70
     1
102
RTVSPost2010Prop32
280
     0
102
RTVSPost2010PropOp32
 70
     1
102
RTVSPost2010Prop33
280
     0
102
RTVSPost2010PropOp33
 70
     1
102
RTVSPost2010Prop34
280
     0
102
RTVSPost2010PropOp34
 70
     1
102
RTVSPost2010Prop35
280
     0
102
RTVSPost2010PropOp35
 70
     1
102
RTVSPost2010Prop36
280
     0
102
RTVSPost2010PropOp36
 70
     1
102
RTVSPost2010Prop37
 90
       50
102
RTVSPost2010PropOp37
 70
     1
102
RTVSPost2010Prop38
140
0.0
102
RTVSPost2010PropOp38
 70
     1
102
RTVSPost2010Prop39
140
1.0
102
RTVSPost2010PropOp39
 70
     1
102
RTVSPost2010Prop40
 90
        0
102
RTVSPost2010PropOp40
 70
     1
102
RTVSPost2010Prop41ColorIndex
 90
       18
102
RTVSPost2010Prop41ColorRGB
 90
        0
102
RTVSPost2010PropOp41
 70
     1
102
RTVSPost2010Prop42
 90
       50
102
RTVSPost2010PropOp42
 70
     1
102
RTVSPost2010Prop43
 90
        3
102
RTVSPost2010PropOp43
 70
     1
102
RTVSPost2010Prop44ColorIndex
 90
        5
102
RTVSPost2010Prop44ColorRGB
 90
      255
102
RTVSPost2010PropOp44
 70
     1
102
RTVSPost2010Prop45
280
     0
102
RTVSPost2010PropOp45
 70
     1
102
RTVSPost2010Prop46
 90
       50
102
RTVSPost2010PropOp46
 70
     1
102
RTVSPost2010Prop47
 90
       50
102
RTVSPost2010PropOp47
 70
     1
102
RTVSPost2010Prop48
 90
       50
102
RTVSPost2010PropOp48
 70
     1
102
RTVSPost2010Prop49
280
     0
102
RTVSPost2010PropOp49
 70
     1
102
RTVSPost2010Prop50
 90
       50
102
RTVSPost2010PropOp50
 70
     1
102
RTVSPost2010Prop51ColorIndex
 90
      256
102
RTVSPost2010Prop51ColorRGB
 90
-16777216
102
RTVSPost2010PropOp51
 70
     0
102
RTVSPost2010Prop52
140
1.0
102
RTVSPost2010PropOp52
 70
     0
102
RTVSPost2010Prop53
 90
        2
102
RTVSPost2010PropOp53
 70
     1
102
RTVSPost2010Prop54
  1
strokes_ogs.tif
102
RTVSPost2010PropOp54
 70
     1
102
RTVSPost2010Prop55
280
     0
102
RTVSPost2010PropOp55
 70
     1
102
RTVSPost2010Prop56
140
1.0
102
RTVSPost2010PropOp56
 70
     1
102
RTVSPost2010Prop57
140
1.0
102
RTVSPost2010PropOp57
 70
     1
102
RTVSPropertyOp0
 70
     1
102
RTVSPropertyOp1
 70
     1
102
RTVSPropertyOp2
 70
     1
102
RTVSPropertyOp3
 70
     1
102
RTVSPropertyOp4
 70
     1
102
RTVSPropertyOp5
 70
     1
102
RTVSPropertyOp6
 70
     1
102
RTVSPropertyOp7
 70
     1
102
RTVSPropertyOp8
 70
     1
102
RTVSPropertyOp9
 70
     1
102
RTVSPropertyOp10
 70
     1
102
RTVSPropertyOp11
 70
     1
102
RTVSPropertyOp12
 70
     1
102
RTVSPropertyOp13
 70
     1
102
RTVSPropertyOp14
 70
     1
102
RTVSPropertyOp15
 70
     1
102
RTVSPropertyOp16
 70
     1
102
RTVSPropertyOp17
 70
     1
102
RTVSPropertyOp18
 70
     1
102
RTVSPropertyOp19
 70
     1
102
RTVSPropertyOp20
 70
     1
102
RTVSPropertyOp21
 70
     1
102
RTVSPropertyOp22
 70
     1
102
RTVSPropertyOp23
 70
     1
102
RTVSPropertyOp24
 70
     1
102
RTVSPropertyOp25
 70
     1
102
RTVSPropertyOp26
 70
     1
102
RTVSPropertyOp27
 70
     1
102
RTVSPropertyOp28
 70
     1
102
RTVSPropertyOp29
 70
     1
102
RTVSPropertyOp30
 70
     1
102
RTVSPropertyOp31
 70
     1
102
RTVSPropertyOp32
 70
     1
102
RTVSPropertyOp33
 70
     1
102
RTVSPropertyOp34
 70
     1
102
RTVSPropertyOp35
 70
     1
102
RTVSPropertyOp36
 70
     1
102
RTVSPropertyOp37
 70
     1
102
RTVSPropertyOp38
 70
     1
102
RTVSPropertyOp39
 70
     1
102
RTVSPropertyOp40
 70
     1
102
RTVSPropertyOp41
 70
     1
102
RTVSPropertyOp42
 70
     1
102
RTVSPropertyOp43
 70
     1
102
RTVSPropertyOp44
 70
     1
102
RTVSPropertyOp45
 70
     1
102
RTVSPropertyOp46
 70
     1
102
RTVSPropertyOp47
 70
     1
102
RTVSPropertyOp48
 70
     1
102
RTVSPropertyOp49
 70
     1
102
RTVSPropertyOp50
 70
     1
102
RTVSPropertyOp51
 70
     0
102
RTVSPropertyOp52
 70
     0
102
RTVSPropertyOp53
 70
     1
102
RTVSPropertyOp54
 70
     1
102
RTVSPropertyOp55
 70
     1
102
RTVSPropertyOp56
 70
     1
102
RTVSPropertyOp57
 70
     1
102
RTVSPropertyOp58
 70
     1
102
RTVSPropertyOp59
 70
     1
102
RTVSPropertyOp60
 70
     1
102
RTVSPropertyOp61
 70
     1
102
RTVSPropertyOp62
 70
     1
  0
XRECORD
  5
6E55
102
{ACAD_REACTORS
330
6E54
102
}
330
6E54
100
AcDbXrecord
280
     1
102
RTVSPost2010Prop28
280
     0
102
RTVSPost2010PropOp28
 70
     1
102
RTVSPost2010Prop29
280
     1
102
RTVSPost2010PropOp29
 70
     1
102
RTVSPost2010Prop30
280
     1
102
RTVSPost2010PropOp30
 70
     1
102
RTVSPost2010Prop31
280
     0
102
RTVSPost2010PropOp31
 70
     1
102
RTVSPost2010Prop32
280
     0
102
RTVSPost2010PropOp32
 70
     1
102
RTVSPost2010Prop33
280
     0
102
RTVSPost2010PropOp33
 70
     1
102
RTVSPost2010Prop34
280
     0
102
RTVSPost2010PropOp34
 70
     1
102
RTVSPost2010Prop35
280
     0
102
RTVSPost2010PropOp35
 70
     1
102
RTVSPost2010Prop36
280
     0
102
RTVSPost2010PropOp36
 70
     1
102
RTVSPost2010Prop37
 90
       50
102
RTVSPost2010PropOp37
 70
     1
102
RTVSPost2010Prop38
140
0.0
102
RTVSPost2010PropOp38
 70
     1
102
RTVSPost2010Prop39
140
1.0
102
RTVSPost2010PropOp39
 70
     1
102
RTVSPost2010Prop40
 90
        0
102
RTVSPost2010PropOp40
 70
     1
102
RTVSPost2010Prop41ColorIndex
 90
       18
102
RTVSPost2010Prop41ColorRGB
 90
        0
102
RTVSPost2010PropOp41
 70
     1
102
RTVSPost2010Prop42
 90
       50
102
RTVSPost2010PropOp42
 70
     1
102
RTVSPost2010Prop43
 90
        3
102
RTVSPost2010PropOp43
 70
     1
102
RTVSPost2010Prop44ColorIndex
 90
        5
102
RTVSPost2010Prop44ColorRGB
 90
      255
102
RTVSPost2010PropOp44
 70
     1
102
RTVSPost2010Prop45
280
     0
102
RTVSPost2010PropOp45
 70
     1
102
RTVSPost2010Prop46
 90
       50
102
RTVSPost2010PropOp46
 70
     1
102
RTVSPost2010Prop47
 90
       50
102
RTVSPost2010PropOp47
 70
     1
102
RTVSPost2010Prop48
 90
       50
102
RTVSPost2010PropOp48
 70
     1
102
RTVSPost2010Prop49
280
     0
102
RTVSPost2010PropOp49
 70
     1
102
RTVSPost2010Prop50
 90
       50
102
RTVSPost2010PropOp50
 70
     1
102
RTVSPost2010Prop51ColorIndex
 90
      256
102
RTVSPost2010Prop51ColorRGB
 90
-16777216
102
RTVSPost2010PropOp51
 70
     0
102
RTVSPost2010Prop52
140
1.0
102
RTVSPost2010PropOp52
 70
     0
102
RTVSPost2010Prop53
 90
        2
102
RTVSPost2010PropOp53
 70
     1
102
RTVSPost2010Prop54
  1
strokes_ogs.tif
102
RTVSPost2010PropOp54
 70
     1
102
RTVSPost2010Prop55
280
     0
102
RTVSPost2010PropOp55
 70
     1
102
RTVSPost2010Prop56
140
1.0
102
RTVSPost2010PropOp56
 70
     1
102
RTVSPost2010Prop57
140
1.0
102
RTVSPost2010PropOp57
 70
     1
102
RTVSPropertyOp0
 70
     1
102
RTVSPropertyOp1
 70
     1
102
RTVSPropertyOp2
 70
     1
102
RTVSPropertyOp3
 70
     1
102
RTVSPropertyOp4
 70
     1
102
RTVSPropertyOp5
 70
     1
102
RTVSPropertyOp6
 70
     1
102
RTVSPropertyOp7
 70
     1
102
RTVSPropertyOp8
 70
     1
102
RTVSPropertyOp9
 70
     1
102
RTVSPropertyOp10
 70
     1
102
RTVSPropertyOp11
 70
     1
102
RTVSPropertyOp12
 70
     1
102
RTVSPropertyOp13
 70
     1
102
RTVSPropertyOp14
 70
     1
102
RTVSPropertyOp15
 70
     1
102
RTVSPropertyOp16
 70
     1
102
RTVSPropertyOp17
 70
     1
102
RTVSPropertyOp18
 70
     1
102
RTVSPropertyOp19
 70
     1
102
RTVSPropertyOp20
 70
     1
102
RTVSPropertyOp21
 70
     1
102
RTVSPropertyOp22
 70
     1
102
RTVSPropertyOp23
 70
     1
102
RTVSPropertyOp24
 70
     1
102
RTVSPropertyOp25
 70
     1
102
RTVSPropertyOp26
 70
     1
102
RTVSPropertyOp27
 70
     1
102
RTVSPropertyOp28
 70
     1
102
RTVSPropertyOp29
 70
     1
102
RTVSPropertyOp30
 70
     1
102
RTVSPropertyOp31
 70
     1
102
RTVSPropertyOp32
 70
     1
102
RTVSPropertyOp33
 70
     1
102
RTVSPropertyOp34
 70
     1
102
RTVSPropertyOp35
 70
     1
102
RTVSPropertyOp36
 70
     1
102
RTVSPropertyOp37
 70
     1
102
RTVSPropertyOp38
 70
     1
102
RTVSPropertyOp39
 70
     1
102
RTVSPropertyOp40
 70
     1
102
RTVSPropertyOp41
 70
     1
102
RTVSPropertyOp42
 70
     1
102
RTVSPropertyOp43
 70
     1
102
RTVSPropertyOp44
 70
     1
102
RTVSPropertyOp45
 70
     1
102
RTVSPropertyOp46
 70
     1
102
RTVSPropertyOp47
 70
     1
102
RTVSPropertyOp48
 70
     1
102
RTVSPropertyOp49
 70
     1
102
RTVSPropertyOp50
 70
     1
102
RTVSPropertyOp51
 70
     0
102
RTVSPropertyOp52
 70
     0
102
RTVSPropertyOp53
 70
     1
102
RTVSPropertyOp54
 70
     1
102
RTVSPropertyOp55
 70
     1
102
RTVSPropertyOp56
 70
     1
102
RTVSPropertyOp57
 70
     1
102
RTVSPropertyOp58
 70
     1
102
RTVSPropertyOp59
 70
     1
102
RTVSPropertyOp60
 70
     1
102
RTVSPropertyOp61
 70
     1
102
RTVSPropertyOp62
 70
     1
  0
XRECORD
  5
6E57
102
{ACAD_REACTORS
330
6E56
102
}
330
6E56
100
AcDbXrecord
280
     1
102
RTVSPost2010Prop28
280
     0
102
RTVSPost2010PropOp28
 70
     1
102
RTVSPost2010Prop29
280
     1
102
RTVSPost2010PropOp29
 70
     1
102
RTVSPost2010Prop30
280
     1
102
RTVSPost2010PropOp30
 70
     1
102
RTVSPost2010Prop31
280
     0
102
RTVSPost2010PropOp31
 70
     1
102
RTVSPost2010Prop32
280
     0
102
RTVSPost2010PropOp32
 70
     1
102
RTVSPost2010Prop33
280
     0
102
RTVSPost2010PropOp33
 70
     1
102
RTVSPost2010Prop34
280
     0
102
RTVSPost2010PropOp34
 70
     1
102
RTVSPost2010Prop35
280
     0
102
RTVSPost2010PropOp35
 70
     1
102
RTVSPost2010Prop36
280
     0
102
RTVSPost2010PropOp36
 70
     1
102
RTVSPost2010Prop37
 90
       50
102
RTVSPost2010PropOp37
 70
     1
102
RTVSPost2010Prop38
140
0.0
102
RTVSPost2010PropOp38
 70
     1
102
RTVSPost2010Prop39
140
1.0
102
RTVSPost2010PropOp39
 70
     1
102
RTVSPost2010Prop40
 90
        0
102
RTVSPost2010PropOp40
 70
     1
102
RTVSPost2010Prop41ColorIndex
 90
       18
102
RTVSPost2010Prop41ColorRGB
 90
        0
102
RTVSPost2010PropOp41
 70
     1
102
RTVSPost2010Prop42
 90
       50
102
RTVSPost2010PropOp42
 70
     1
102
RTVSPost2010Prop43
 90
        3
102
RTVSPost2010PropOp43
 70
     1
102
RTVSPost2010Prop44ColorIndex
 90
        5
102
RTVSPost2010Prop44ColorRGB
 90
      255
102
RTVSPost2010PropOp44
 70
     1
102
RTVSPost2010Prop45
280
     0
102
RTVSPost2010PropOp45
 70
     1
102
RTVSPost2010Prop46
 90
       50
102
RTVSPost2010PropOp46
 70
     1
102
RTVSPost2010Prop47
 90
       50
102
RTVSPost2010PropOp47
 70
     1
102
RTVSPost2010Prop48
 90
       50
102
RTVSPost2010PropOp48
 70
     1
102
RTVSPost2010Prop49
280
     0
102
RTVSPost2010PropOp49
 70
     1
102
RTVSPost2010Prop50
 90
       50
102
RTVSPost2010PropOp50
 70
     1
102
RTVSPost2010Prop51ColorIndex
 90
      256
102
RTVSPost2010Prop51ColorRGB
 90
-16777216
102
RTVSPost2010PropOp51
 70
     0
102
RTVSPost2010Prop52
140
1.0
102
RTVSPost2010PropOp52
 70
     0
102
RTVSPost2010Prop53
 90
        2
102
RTVSPost2010PropOp53
 70
     1
102
RTVSPost2010Prop54
  1
strokes_ogs.tif
102
RTVSPost2010PropOp54
 70
     1
102
RTVSPost2010Prop55
280
     0
102
RTVSPost2010PropOp55
 70
     1
102
RTVSPost2010Prop56
140
1.0
102
RTVSPost2010PropOp56
 70
     1
102
RTVSPost2010Prop57
140
1.0
102
RTVSPost2010PropOp57
 70
     1
102
RTVSPropertyOp0
 70
     1
102
RTVSPropertyOp1
 70
     1
102
RTVSPropertyOp2
 70
     1
102
RTVSPropertyOp3
 70
     1
102
RTVSPropertyOp4
 70
     1
102
RTVSPropertyOp5
 70
     1
102
RTVSPropertyOp6
 70
     1
102
RTVSPropertyOp7
 70
     1
102
RTVSPropertyOp8
 70
     1
102
RTVSPropertyOp9
 70
     1
102
RTVSPropertyOp10
 70
     1
102
RTVSPropertyOp11
 70
     1
102
RTVSPropertyOp12
 70
     1
102
RTVSPropertyOp13
 70
     1
102
RTVSPropertyOp14
 70
     1
102
RTVSPropertyOp15
 70
     1
102
RTVSPropertyOp16
 70
     1
102
RTVSPropertyOp17
 70
     1
102
RTVSPropertyOp18
 70
     1
102
RTVSPropertyOp19
 70
     1
102
RTVSPropertyOp20
 70
     1
102
RTVSPropertyOp21
 70
     1
102
RTVSPropertyOp22
 70
     1
102
RTVSPropertyOp23
 70
     1
102
RTVSPropertyOp24
 70
     1
102
RTVSPropertyOp25
 70
     1
102
RTVSPropertyOp26
 70
     1
102
RTVSPropertyOp27
 70
     1
102
RTVSPropertyOp28
 70
     1
102
RTVSPropertyOp29
 70
     1
102
RTVSPropertyOp30
 70
     1
102
RTVSPropertyOp31
 70
     1
102
RTVSPropertyOp32
 70
     1
102
RTVSPropertyOp33
 70
     1
102
RTVSPropertyOp34
 70
     1
102
RTVSPropertyOp35
 70
     1
102
RTVSPropertyOp36
 70
     1
102
RTVSPropertyOp37
 70
     1
102
RTVSPropertyOp38
 70
     1
102
RTVSPropertyOp39
 70
     1
102
RTVSPropertyOp40
 70
     1
102
RTVSPropertyOp41
 70
     1
102
RTVSPropertyOp42
 70
     1
102
RTVSPropertyOp43
 70
     1
102
RTVSPropertyOp44
 70
     1
102
RTVSPropertyOp45
 70
     1
102
RTVSPropertyOp46
 70
     1
102
RTVSPropertyOp47
 70
     1
102
RTVSPropertyOp48
 70
     1
102
RTVSPropertyOp49
 70
     1
102
RTVSPropertyOp50
 70
     1
102
RTVSPropertyOp51
 70
     0
102
RTVSPropertyOp52
 70
     0
102
RTVSPropertyOp53
 70
     1
102
RTVSPropertyOp54
 70
     1
102
RTVSPropertyOp55
 70
     1
102
RTVSPropertyOp56
 70
     1
102
RTVSPropertyOp57
 70
     1
102
RTVSPropertyOp58
 70
     1
102
RTVSPropertyOp59
 70
     1
102
RTVSPropertyOp60
 70
     1
102
RTVSPropertyOp61
 70
     1
102
RTVSPropertyOp62
 70
     1
  0
XRECORD
  5
6E4D
102
{ACAD_REACTORS
330
6E4C
102
}
330
6E4C
100
AcDbXrecord
280
     1
102
RTVSPost2010Prop28
280
     0
102
RTVSPost2010PropOp28
 70
     1
102
RTVSPost2010Prop29
280
     1
102
RTVSPost2010PropOp29
 70
     1
102
RTVSPost2010Prop30
280
     1
102
RTVSPost2010PropOp30
 70
     1
102
RTVSPost2010Prop31
280
     0
102
RTVSPost2010PropOp31
 70
     1
102
RTVSPost2010Prop32
280
     0
102
RTVSPost2010PropOp32
 70
     1
102
RTVSPost2010Prop33
280
     0
102
RTVSPost2010PropOp33
 70
     1
102
RTVSPost2010Prop34
280
     0
102
RTVSPost2010PropOp34
 70
     1
102
RTVSPost2010Prop35
280
     0
102
RTVSPost2010PropOp35
 70
     1
102
RTVSPost2010Prop36
280
     0
102
RTVSPost2010PropOp36
 70
     1
102
RTVSPost2010Prop37
 90
       50
102
RTVSPost2010PropOp37
 70
     1
102
RTVSPost2010Prop38
140
0.0
102
RTVSPost2010PropOp38
 70
     1
102
RTVSPost2010Prop39
140
1.0
102
RTVSPost2010PropOp39
 70
     1
102
RTVSPost2010Prop40
 90
        0
102
RTVSPost2010PropOp40
 70
     1
102
RTVSPost2010Prop41ColorIndex
 90
       18
102
RTVSPost2010Prop41ColorRGB
 90
        0
102
RTVSPost2010PropOp41
 70
     1
102
RTVSPost2010Prop42
 90
       50
102
RTVSPost2010PropOp42
 70
     1
102
RTVSPost2010Prop43
 90
        3
102
RTVSPost2010PropOp43
 70
     1
102
RTVSPost2010Prop44ColorIndex
 90
        5
102
RTVSPost2010Prop44ColorRGB
 90
      255
102
RTVSPost2010PropOp44
 70
     1
102
RTVSPost2010Prop45
280
     0
102
RTVSPost2010PropOp45
 70
     1
102
RTVSPost2010Prop46
 90
       50
102
RTVSPost2010PropOp46
 70
     1
102
RTVSPost2010Prop47
 90
       50
102
RTVSPost2010PropOp47
 70
     1
102
RTVSPost2010Prop48
 90
       50
102
RTVSPost2010PropOp48
 70
     1
102
RTVSPost2010Prop49
280
     0
102
RTVSPost2010PropOp49
 70
     1
102
RTVSPost2010Prop50
 90
       50
102
RTVSPost2010PropOp50
 70
     1
102
RTVSPost2010Prop51ColorIndex
 90
      256
102
RTVSPost2010Prop51ColorRGB
 90
-16777216
102
RTVSPost2010PropOp51
 70
     0
102
RTVSPost2010Prop52
140
1.0
102
RTVSPost2010PropOp52
 70
     0
102
RTVSPost2010Prop53
 90
        2
102
RTVSPost2010PropOp53
 70
     1
102
RTVSPost2010Prop54
  1
strokes_ogs.tif
102
RTVSPost2010PropOp54
 70
     1
102
RTVSPost2010Prop55
280
     0
102
RTVSPost2010PropOp55
 70
     1
102
RTVSPost2010Prop56
140
1.0
102
RTVSPost2010PropOp56
 70
     1
102
RTVSPost2010Prop57
140
1.0
102
RTVSPost2010PropOp57
 70
     1
102
RTVSPropertyOp0
 70
     1
102
RTVSPropertyOp1
 70
     1
102
RTVSPropertyOp2
 70
     1
102
RTVSPropertyOp3
 70
     1
102
RTVSPropertyOp4
 70
     1
102
RTVSPropertyOp5
 70
     1
102
RTVSPropertyOp6
 70
     1
102
RTVSPropertyOp7
 70
     1
102
RTVSPropertyOp8
 70
     1
102
RTVSPropertyOp9
 70
     1
102
RTVSPropertyOp10
 70
     1
102
RTVSPropertyOp11
 70
     1
102
RTVSPropertyOp12
 70
     1
102
RTVSPropertyOp13
 70
     1
102
RTVSPropertyOp14
 70
     1
102
RTVSPropertyOp15
 70
     1
102
RTVSPropertyOp16
 70
     1
102
RTVSPropertyOp17
 70
     1
102
RTVSPropertyOp18
 70
     1
102
RTVSPropertyOp19
 70
     1
102
RTVSPropertyOp20
 70
     1
102
RTVSPropertyOp21
 70
     1
102
RTVSPropertyOp22
 70
     1
102
RTVSPropertyOp23
 70
     1
102
RTVSPropertyOp24
 70
     1
102
RTVSPropertyOp25
 70
     1
102
RTVSPropertyOp26
 70
     1
102
RTVSPropertyOp27
 70
     1
102
RTVSPropertyOp28
 70
     1
102
RTVSPropertyOp29
 70
     1
102
RTVSPropertyOp30
 70
     1
102
RTVSPropertyOp31
 70
     1
102
RTVSPropertyOp32
 70
     1
102
RTVSPropertyOp33
 70
     1
102
RTVSPropertyOp34
 70
     1
102
RTVSPropertyOp35
 70
     1
102
RTVSPropertyOp36
 70
     1
102
RTVSPropertyOp37
 70
     1
102
RTVSPropertyOp38
 70
     1
102
RTVSPropertyOp39
 70
     1
102
RTVSPropertyOp40
 70
     1
102
RTVSPropertyOp41
 70
     1
102
RTVSPropertyOp42
 70
     1
102
RTVSPropertyOp43
 70
     1
102
RTVSPropertyOp44
 70
     1
102
RTVSPropertyOp45
 70
     1
102
RTVSPropertyOp46
 70
     1
102
RTVSPropertyOp47
 70
     1
102
RTVSPropertyOp48
 70
     1
102
RTVSPropertyOp49
 70
     1
102
RTVSPropertyOp50
 70
     1
102
RTVSPropertyOp51
 70
     0
102
RTVSPropertyOp52
 70
     0
102
RTVSPropertyOp53
 70
     1
102
RTVSPropertyOp54
 70
     1
102
RTVSPropertyOp55
 70
     1
102
RTVSPropertyOp56
 70
     1
102
RTVSPropertyOp57
 70
     1
102
RTVSPropertyOp58
 70
     1
102
RTVSPropertyOp59
 70
     1
102
RTVSPropertyOp60
 70
     1
102
RTVSPropertyOp61
 70
     1
102
RTVSPropertyOp62
 70
     1
  0
XRECORD
  5
6E41
102
{ACAD_REACTORS
330
6E40
102
}
330
6E40
100
AcDbXrecord
280
     1
102
RTVSPost2010Prop28
280
     0
102
RTVSPost2010PropOp28
 70
     1
102
RTVSPost2010Prop29
280
     1
102
RTVSPost2010PropOp29
 70
     1
102
RTVSPost2010Prop30
280
     1
102
RTVSPost2010PropOp30
 70
     1
102
RTVSPost2010Prop31
280
     0
102
RTVSPost2010PropOp31
 70
     1
102
RTVSPost2010Prop32
280
     0
102
RTVSPost2010PropOp32
 70
     1
102
RTVSPost2010Prop33
280
     0
102
RTVSPost2010PropOp33
 70
     1
102
RTVSPost2010Prop34
280
     0
102
RTVSPost2010PropOp34
 70
     1
102
RTVSPost2010Prop35
280
     0
102
RTVSPost2010PropOp35
 70
     1
102
RTVSPost2010Prop36
280
     0
102
RTVSPost2010PropOp36
 70
     1
102
RTVSPost2010Prop37
 90
       50
102
RTVSPost2010PropOp37
 70
     1
102
RTVSPost2010Prop38
140
0.0
102
RTVSPost2010PropOp38
 70
     1
102
RTVSPost2010Prop39
140
1.0
102
RTVSPost2010PropOp39
 70
     1
102
RTVSPost2010Prop40
 90
        0
102
RTVSPost2010PropOp40
 70
     1
102
RTVSPost2010Prop41ColorIndex
 90
       18
102
RTVSPost2010Prop41ColorRGB
 90
        0
102
RTVSPost2010PropOp41
 70
     1
102
RTVSPost2010Prop42
 90
       50
102
RTVSPost2010PropOp42
 70
     1
102
RTVSPost2010Prop43
 90
        3
102
RTVSPost2010PropOp43
 70
     1
102
RTVSPost2010Prop44ColorIndex
 90
        5
102
RTVSPost2010Prop44ColorRGB
 90
      255
102
RTVSPost2010PropOp44
 70
     1
102
RTVSPost2010Prop45
280
     0
102
RTVSPost2010PropOp45
 70
     1
102
RTVSPost2010Prop46
 90
       50
102
RTVSPost2010PropOp46
 70
     1
102
RTVSPost2010Prop47
 90
       50
102
RTVSPost2010PropOp47
 70
     1
102
RTVSPost2010Prop48
 90
       50
102
RTVSPost2010PropOp48
 70
     1
102
RTVSPost2010Prop49
280
     0
102
RTVSPost2010PropOp49
 70
     1
102
RTVSPost2010Prop50
 90
       50
102
RTVSPost2010PropOp50
 70
     1
102
RTVSPost2010Prop51ColorIndex
 90
      256
102
RTVSPost2010Prop51ColorRGB
 90
-16777216
102
RTVSPost2010PropOp51
 70
     0
102
RTVSPost2010Prop52
140
1.0
102
RTVSPost2010PropOp52
 70
     0
102
RTVSPost2010Prop53
 90
        2
102
RTVSPost2010PropOp53
 70
     1
102
RTVSPost2010Prop54
  1
strokes_ogs.tif
102
RTVSPost2010PropOp54
 70
     1
102
RTVSPost2010Prop55
280
     0
102
RTVSPost2010PropOp55
 70
     1
102
RTVSPost2010Prop56
140
1.0
102
RTVSPost2010PropOp56
 70
     1
102
RTVSPost2010Prop57
140
1.0
102
RTVSPost2010PropOp57
 70
     1
102
RTVSPropertyOp0
 70
     1
102
RTVSPropertyOp1
 70
     1
102
RTVSPropertyOp2
 70
     1
102
RTVSPropertyOp3
 70
     1
102
RTVSPropertyOp4
 70
     1
102
RTVSPropertyOp5
 70
     1
102
RTVSPropertyOp6
 70
     1
102
RTVSPropertyOp7
 70
     1
102
RTVSPropertyOp8
 70
     1
102
RTVSPropertyOp9
 70
     1
102
RTVSPropertyOp10
 70
     1
102
RTVSPropertyOp11
 70
     1
102
RTVSPropertyOp12
 70
     1
102
RTVSPropertyOp13
 70
     1
102
RTVSPropertyOp14
 70
     1
102
RTVSPropertyOp15
 70
     1
102
RTVSPropertyOp16
 70
     1
102
RTVSPropertyOp17
 70
     1
102
RTVSPropertyOp18
 70
     1
102
RTVSPropertyOp19
 70
     1
102
RTVSPropertyOp20
 70
     1
102
RTVSPropertyOp21
 70
     1
102
RTVSPropertyOp22
 70
     1
102
RTVSPropertyOp23
 70
     1
102
RTVSPropertyOp24
 70
     1
102
RTVSPropertyOp25
 70
     1
102
RTVSPropertyOp26
 70
     1
102
RTVSPropertyOp27
 70
     1
102
RTVSPropertyOp28
 70
     1
102
RTVSPropertyOp29
 70
     1
102
RTVSPropertyOp30
 70
     1
102
RTVSPropertyOp31
 70
     1
102
RTVSPropertyOp32
 70
     1
102
RTVSPropertyOp33
 70
     1
102
RTVSPropertyOp34
 70
     1
102
RTVSPropertyOp35
 70
     1
102
RTVSPropertyOp36
 70
     1
102
RTVSPropertyOp37
 70
     1
102
RTVSPropertyOp38
 70
     1
102
RTVSPropertyOp39
 70
     1
102
RTVSPropertyOp40
 70
     1
102
RTVSPropertyOp41
 70
     1
102
RTVSPropertyOp42
 70
     1
102
RTVSPropertyOp43
 70
     1
102
RTVSPropertyOp44
 70
     1
102
RTVSPropertyOp45
 70
     1
102
RTVSPropertyOp46
 70
     1
102
RTVSPropertyOp47
 70
     1
102
RTVSPropertyOp48
 70
     1
102
RTVSPropertyOp49
 70
     1
102
RTVSPropertyOp50
 70
     1
102
RTVSPropertyOp51
 70
     0
102
RTVSPropertyOp52
 70
     0
102
RTVSPropertyOp53
 70
     1
102
RTVSPropertyOp54
 70
     1
102
RTVSPropertyOp55
 70
     1
102
RTVSPropertyOp56
 70
     1
102
RTVSPropertyOp57
 70
     1
102
RTVSPropertyOp58
 70
     1
102
RTVSPropertyOp59
 70
     1
102
RTVSPropertyOp60
 70
     1
102
RTVSPropertyOp61
 70
     1
102
RTVSPropertyOp62
 70
     1
  0
XRECORD
  5
6E59
102
{ACAD_REACTORS
330
6E58
102
}
330
6E58
100
AcDbXrecord
280
     1
102
RTVSPost2010Prop28
280
     0
102
RTVSPost2010PropOp28
 70
     1
102
RTVSPost2010Prop29
280
     1
102
RTVSPost2010PropOp29
 70
     1
102
RTVSPost2010Prop30
280
     1
102
RTVSPost2010PropOp30
 70
     1
102
RTVSPost2010Prop31
280
     0
102
RTVSPost2010PropOp31
 70
     1
102
RTVSPost2010Prop32
280
     0
102
RTVSPost2010PropOp32
 70
     1
102
RTVSPost2010Prop33
280
     0
102
RTVSPost2010PropOp33
 70
     1
102
RTVSPost2010Prop34
280
     0
102
RTVSPost2010PropOp34
 70
     1
102
RTVSPost2010Prop35
280
     0
102
RTVSPost2010PropOp35
 70
     1
102
RTVSPost2010Prop36
280
     0
102
RTVSPost2010PropOp36
 70
     1
102
RTVSPost2010Prop37
 90
       50
102
RTVSPost2010PropOp37
 70
     1
102
RTVSPost2010Prop38
140
0.0
102
RTVSPost2010PropOp38
 70
     1
102
RTVSPost2010Prop39
140
1.0
102
RTVSPost2010PropOp39
 70
     1
102
RTVSPost2010Prop40
 90
        0
102
RTVSPost2010PropOp40
 70
     1
102
RTVSPost2010Prop41ColorIndex
 90
       18
102
RTVSPost2010Prop41ColorRGB
 90
        0
102
RTVSPost2010PropOp41
 70
     1
102
RTVSPost2010Prop42
 90
       50
102
RTVSPost2010PropOp42
 70
     1
102
RTVSPost2010Prop43
 90
        3
102
RTVSPost2010PropOp43
 70
     1
102
RTVSPost2010Prop44ColorIndex
 90
        5
102
RTVSPost2010Prop44ColorRGB
 90
      255
102
RTVSPost2010PropOp44
 70
     1
102
RTVSPost2010Prop45
280
     0
102
RTVSPost2010PropOp45
 70
     1
102
RTVSPost2010Prop46
 90
       50
102
RTVSPost2010PropOp46
 70
     1
102
RTVSPost2010Prop47
 90
       50
102
RTVSPost2010PropOp47
 70
     1
102
RTVSPost2010Prop48
 90
       50
102
RTVSPost2010PropOp48
 70
     1
102
RTVSPost2010Prop49
280
     0
102
RTVSPost2010PropOp49
 70
     1
102
RTVSPost2010Prop50
 90
       50
102
RTVSPost2010PropOp50
 70
     1
102
RTVSPost2010Prop51ColorIndex
 90
      256
102
RTVSPost2010Prop51ColorRGB
 90
-16777216
102
RTVSPost2010PropOp51
 70
     0
102
RTVSPost2010Prop52
140
1.0
102
RTVSPost2010PropOp52
 70
     0
102
RTVSPost2010Prop53
 90
        2
102
RTVSPost2010PropOp53
 70
     1
102
RTVSPost2010Prop54
  1
strokes_ogs.tif
102
RTVSPost2010PropOp54
 70
     1
102
RTVSPost2010Prop55
280
     0
102
RTVSPost2010PropOp55
 70
     1
102
RTVSPost2010Prop56
140
1.0
102
RTVSPost2010PropOp56
 70
     1
102
RTVSPost2010Prop57
140
1.0
102
RTVSPost2010PropOp57
 70
     1
102
RTVSPropertyOp0
 70
     1
102
RTVSPropertyOp1
 70
     1
102
RTVSPropertyOp2
 70
     1
102
RTVSPropertyOp3
 70
     1
102
RTVSPropertyOp4
 70
     1
102
RTVSPropertyOp5
 70
     1
102
RTVSPropertyOp6
 70
     1
102
RTVSPropertyOp7
 70
     1
102
RTVSPropertyOp8
 70
     1
102
RTVSPropertyOp9
 70
     1
102
RTVSPropertyOp10
 70
     1
102
RTVSPropertyOp11
 70
     1
102
RTVSPropertyOp12
 70
     1
102
RTVSPropertyOp13
 70
     1
102
RTVSPropertyOp14
 70
     1
102
RTVSPropertyOp15
 70
     1
102
RTVSPropertyOp16
 70
     1
102
RTVSPropertyOp17
 70
     1
102
RTVSPropertyOp18
 70
     1
102
RTVSPropertyOp19
 70
     1
102
RTVSPropertyOp20
 70
     1
102
RTVSPropertyOp21
 70
     1
102
RTVSPropertyOp22
 70
     1
102
RTVSPropertyOp23
 70
     1
102
RTVSPropertyOp24
 70
     1
102
RTVSPropertyOp25
 70
     1
102
RTVSPropertyOp26
 70
     1
102
RTVSPropertyOp27
 70
     1
102
RTVSPropertyOp28
 70
     1
102
RTVSPropertyOp29
 70
     1
102
RTVSPropertyOp30
 70
     1
102
RTVSPropertyOp31
 70
     1
102
RTVSPropertyOp32
 70
     1
102
RTVSPropertyOp33
 70
     1
102
RTVSPropertyOp34
 70
     1
102
RTVSPropertyOp35
 70
     1
102
RTVSPropertyOp36
 70
     1
102
RTVSPropertyOp37
 70
     1
102
RTVSPropertyOp38
 70
     1
102
RTVSPropertyOp39
 70
     1
102
RTVSPropertyOp40
 70
     1
102
RTVSPropertyOp41
 70
     1
102
RTVSPropertyOp42
 70
     1
102
RTVSPropertyOp43
 70
     1
102
RTVSPropertyOp44
 70
     1
102
RTVSPropertyOp45
 70
     1
102
RTVSPropertyOp46
 70
     1
102
RTVSPropertyOp47
 70
     1
102
RTVSPropertyOp48
 70
     1
102
RTVSPropertyOp49
 70
     1
102
RTVSPropertyOp50
 70
     1
102
RTVSPropertyOp51
 70
     0
102
RTVSPropertyOp52
 70
     0
102
RTVSPropertyOp53
 70
     1
102
RTVSPropertyOp54
 70
     1
102
RTVSPropertyOp55
 70
     1
102
RTVSPropertyOp56
 70
     1
102
RTVSPropertyOp57
 70
     1
102
RTVSPropertyOp58
 70
     1
102
RTVSPropertyOp59
 70
     1
102
RTVSPropertyOp60
 70
     1
102
RTVSPropertyOp61
 70
     1
102
RTVSPropertyOp62
 70
     1
  0
ENDSEC
  0
EOF
