  0
SECTION
  2
HEADER
  9
$ACADVER
  1
AC1015
  9
$ACADMAINTVER
 70
    20
  9
$DWGCODEPAGE
  3
ANSI_932
  9
$INSBASE
 10
0.0
 20
0.0
 30
0.0
  9
$EXTMIN
 10
17345.59771503509
 20
2822.809791742034
 30
0.0
  9
$EXTMAX
 10
20495.59771503509
 20
7247.809791742034
 30
0.0
  9
$LIMMIN
 10
0.0
 20
0.0
  9
$LIMMAX
 10
297.0
 20
210.0
  9
$ORTHOMODE
 70
     1
  9
$REGENMODE
 70
     1
  9
$FILLMODE
 70
     1
  9
$QTEXTMODE
 70
     0
  9
$MIRRTEXT
 70
     0
  9
$LTSCALE
 40
75.0
  9
$ATTMODE
 70
     1
  9
$TEXTSIZE
 40
3.5
  9
$TRACEWID
 40
0.05
  9
$TEXTSTYLE
  7
STANDARD
  9
$CLAYER
  8
1
  9
$CELTYPE
  6
BYLAYER
  9
$CECOLOR
 62
   256
  9
$CELTSCALE
 40
1.0
  9
$DISPSILH
 70
     0
  9
$DIMSCALE
 40
15.0
  9
$DIMASZ
 40
2.5
  9
$DIMEXO
 40
1.0
  9
$DIMDLI
 40
7.0
  9
$DIMRND
 40
0.0
  9
$DIMDLE
 40
0.0
  9
$DIMEXE
 40
1.0
  9
$DIMTP
 40
0.0
  9
$DIMTM
 40
0.0
  9
$DIMTXT
 40
3.0
  9
$DIMCEN
 40
0.0
  9
$DIMTSZ
 40
0.0
  9
$DIMTOL
 70
     0
  9
$DIMLIM
 70
     0
  9
$DIMTIH
 70
     0
  9
$DIMTOH
 70
     0
  9
$DIMSE1
 70
     0
  9
$DIMSE2
 70
     0
  9
$DIMTAD
 70
     1
  9
$DIMZIN
 70
     8
  9
$DIMBLK
  1

  9
$DIMASO
 70
     1
  9
$DIMSHO
 70
     1
  9
$DIMPOST
  1

  9
$DIMAPOST
  1

  9
$DIMALT
 70
     0
  9
$DIMALTD
 70
     2
  9
$DIMALTF
 40
0.03937
  9
$DIMLFAC
 40
1.0
  9
$DIMTOFL
 70
     1
  9
$DIMTVP
 40
0.0
  9
$DIMTIX
 70
     0
  9
$DIMSOXD
 70
     0
  9
$DIMSAH
 70
     1
  9
$DIMBLK1
  1
OPEN
  9
$DIMBLK2
  1
OPEN
  9
$DIMSTYLE
  2
GOD
  9
$DIMCLRD
 70
   256
  9
$DIMCLRE
 70
   256
  9
$DIMCLRT
 70
   256
  9
$DIMTFAC
 40
1.0
  9
$DIMGAP
 40
1.0
  9
$DIMJUST
 70
     0
  9
$DIMSD1
 70
     0
  9
$DIMSD2
 70
     0
  9
$DIMTOLJ
 70
     1
  9
$DIMTZIN
 70
     8
  9
$DIMALTZ
 70
     0
  9
$DIMALTTZ
 70
     0
  9
$DIMUPT
 70
     0
  9
$DIMDEC
 70
     2
  9
$DIMTDEC
 70
     2
  9
$DIMALTU
 70
     2
  9
$DIMALTTD
 70
     2
  9
$DIMTXSTY
  7
STANDARD
  9
$DIMAUNIT
 70
     0
  9
$DIMADEC
 70
     0
  9
$DIMALTRND
 40
0.0
  9
$DIMAZIN
 70
     0
  9
$DIMDSEP
 70
    46
  9
$DIMATFIT
 70
     0
  9
$DIMFRAC
 70
     0
  9
$DIMLDRBLK
  1
OPEN
  9
$DIMLUNIT
 70
     2
  9
$DIMLWD
 70
    -2
  9
$DIMLWE
 70
    -2
  9
$DIMTMOVE
 70
     0
  9
$LUNITS
 70
     2
  9
$LUPREC
 70
     3
  9
$SKETCHINC
 40
0.1
  9
$FILLETRAD
 40
0.0
  9
$AUNITS
 70
     0
  9
$AUPREC
 70
     2
  9
$MENU
  1
acad
  9
$ELEVATION
 40
0.0
  9
$PELEVATION
 40
0.0
  9
$THICKNESS
 40
0.0
  9
$LIMCHECK
 70
     0
  9
$CHAMFERA
 40
0.0
  9
$CHAMFERB
 40
0.0
  9
$CHAMFERC
 40
20.0
  9
$CHAMFERD
 40
0.0
  9
$SKPOLY
 70
     0
  9
$TDCREATE
 40
2454939.604632489
  9
$TDUCREATE
 40
2454939.229632489
  9
$TDUPDATE
 40
2459353.581326076
  9
$TDUUPDATE
 40
2459353.206326076
  9
$TDINDWG
 40
0.4766018519
  9
$TDUSRTIMER
 40
0.4766018519
  9
$USRTIMER
 70
     1
  9
$ANGBASE
 50
0.0
  9
$ANGDIR
 70
     0
  9
$PDMODE
 70
     0
  9
$PDSIZE
 40
1.0
  9
$PLINEWID
 40
0.0
  9
$SPLFRAME
 70
     0
  9
$SPLINETYPE
 70
     6
  9
$SPLINESEGS
 70
     8
  9
$HANDSEED
  5
64A8
  9
$SURFTAB1
 70
     6
  9
$SURFTAB2
 70
     6
  9
$SURFTYPE
 70
     6
  9
$SURFU
 70
     6
  9
$SURFV
 70
     6
  9
$UCSBASE
  2

  9
$UCSNAME
  2

  9
$UCSORG
 10
0.0
 20
0.0
 30
0.0
  9
$UCSXDIR
 10
1.0
 20
0.0
 30
0.0
  9
$UCSYDIR
 10
0.0
 20
1.0
 30
0.0
  9
$UCSORTHOREF
  2

  9
$UCSORTHOVIEW
 70
     0
  9
$UCSORGTOP
 10
0.0
 20
0.0
 30
0.0
  9
$UCSORGBOTTOM
 10
0.0
 20
0.0
 30
0.0
  9
$UCSORGLEFT
 10
0.0
 20
0.0
 30
0.0
  9
$UCSORGRIGHT
 10
0.0
 20
0.0
 30
0.0
  9
$UCSORGFRONT
 10
0.0
 20
0.0
 30
0.0
  9
$UCSORGBACK
 10
0.0
 20
0.0
 30
0.0
  9
$PUCSBASE
  2

  9
$PUCSNAME
  2

  9
$PUCSORG
 10
0.0
 20
0.0
 30
0.0
  9
$PUCSXDIR
 10
1.0
 20
0.0
 30
0.0
  9
$PUCSYDIR
 10
0.0
 20
1.0
 30
0.0
  9
$PUCSORTHOREF
  2

  9
$PUCSORTHOVIEW
 70
     0
  9
$PUCSORGTOP
 10
0.0
 20
0.0
 30
0.0
  9
$PUCSORGBOTTOM
 10
0.0
 20
0.0
 30
0.0
  9
$PUCSORGLEFT
 10
0.0
 20
0.0
 30
0.0
  9
$PUCSORGRIGHT
 10
0.0
 20
0.0
 30
0.0
  9
$PUCSORGFRONT
 10
0.0
 20
0.0
 30
0.0
  9
$PUCSORGBACK
 10
0.0
 20
0.0
 30
0.0
  9
$USERI1
 70
     0
  9
$USERI2
 70
     0
  9
$USERI3
 70
     0
  9
$USERI4
 70
     0
  9
$USERI5
 70
     0
  9
$USERR1
 40
0.0
  9
$USERR2
 40
0.0
  9
$USERR3
 40
0.0
  9
$USERR4
 40
0.0
  9
$USERR5
 40
0.0
  9
$WORLDVIEW
 70
     1
  9
$SHADEDGE
 70
     3
  9
$SHADEDIF
 70
    70
  9
$TILEMODE
 70
     1
  9
$MAXACTVP
 70
    16
  9
$PINSBASE
 10
0.0
 20
0.0
 30
0.0
  9
$PLIMCHECK
 70
     0
  9
$PEXTMIN
 10
1.000000000000000E+20
 20
1.000000000000000E+20
 30
1.000000000000000E+20
  9
$PEXTMAX
 10
-1.000000000000000E+20
 20
-1.000000000000000E+20
 30
-1.000000000000000E+20
  9
$PLIMMIN
 10
0.0
 20
0.0
  9
$PLIMMAX
 10
12.0
 20
9.0
  9
$UNITMODE
 70
     0
  9
$VISRETAIN
 70
     0
  9
$PLINEGEN
 70
     0
  9
$PSLTSCALE
 70
     0
  9
$TREEDEPTH
 70
  3020
  9
$CMLSTYLE
  2
STANDARD
  9
$CMLJUST
 70
     0
  9
$CMLSCALE
 40
20.0
  9
$PROXYGRAPHICS
 70
     1
  9
$MEASUREMENT
 70
     1
  9
$CELWEIGHT
370
    -1
  9
$ENDCAPS
280
     0
  9
$JOINSTYLE
280
     0
  9
$LWDISPLAY
290
     0
  9
$INSUNITS
 70
     0
  9
$HYPERLINKBASE
  1

  9
$STYLESHEET
  1

  9
$XEDIT
290
     1
  9
$CEPSNTYPE
380
     0
  9
$PSTYLEMODE
290
     1
  9
$FINGERPRINTGUID
  2
{A0F129D1-2BC8-11D4-BF85-004026350B0A}
  9
$VERSIONGUID
  2
{F18AB84F-4875-5F43-B77E-C1EB5A220109}
  9
$EXTNAMES
290
     1
  9
$PSVPSCALE
 40
0.0
  9
$OLESTARTUP
290
     0
  0
ENDSEC
  0
SECTION
  2
CLASSES
  0
CLASS
  1
ACDBDICTIONARYWDFLT
  2
AcDbDictionaryWithDefault
  3
ObjectDBX Classes
 90
        0
280
     0
281
     0
  0
CLASS
  1
ACDBPLACEHOLDER
  2
AcDbPlaceHolder
  3
ObjectDBX Classes
 90
        0
280
     0
281
     0
  0
CLASS
  1
LAYOUT
  2
AcDbLayout
  3
ObjectDBX Classes
 90
        0
280
     0
281
     0
  0
CLASS
  1
MATERIAL
  2
AcDbMaterial
  3
ObjectDBX Classes
 90
     1153
280
     0
281
     0
  0
CLASS
  1
VISUALSTYLE
  2
AcDbVisualStyle
  3
ObjectDBX Classes
 90
     4095
280
     0
281
     0
  0
CLASS
  1
TABLESTYLE
  2
AcDbTableStyle
  3
ObjectDBX Classes
 90
     4095
280
     0
281
     0
  0
CLASS
  1
SCALE
  2
AcDbScale
  3
ObjectDBX Classes
 90
     1153
280
     0
281
     0
  0
CLASS
  1
MLEADERSTYLE
  2
AcDbMLeaderStyle
  3
ACDB_MLEADERSTYLE_CLASS
 90
     4095
280
     0
281
     0
  0
CLASS
  1
ACDBSECTIONVIEWSTYLE
  2
AcDbSectionViewStyle
  3
ObjectDBX Classes
 90
     1025
280
     0
281
     0
  0
CLASS
  1
ACDBDETAILVIEWSTYLE
  2
AcDbDetailViewStyle
  3
ObjectDBX Classes
 90
     1025
280
     0
281
     0
  0
CLASS
  1
SORTENTSTABLE
  2
AcDbSortentsTable
  3
ObjectDBX Classes
 90
        0
280
     0
281
     0
  0
CLASS
  1
DICTIONARYVAR
  2
AcDbDictionaryVar
  3
ObjectDBX Classes
 90
        0
280
     0
281
     0
  0
CLASS
  1
CELLSTYLEMAP
  2
AcDbCellStyleMap
  3
ObjectDBX Classes
 90
     1152
280
     0
281
     0
  0
ENDSEC
  0
SECTION
  2
TABLES
  0
TABLE
  2
VPORT
  5
8
330
0
100
AcDbSymbolTable
 70
     1
  0
VPORT
  5
6264
330
8
100
AcDbSymbolTableRecord
100
AcDbViewportTableRecord
  2
*Active
 70
     0
 10
0.0
 20
0.0
 11
1.0
 21
1.0
 12
18920.8055625543
 22
5347.532776622678
 13
0.0
 23
0.0
 14
5.0
 24
5.0
 15
0.0
 25
0.0
 16
0.0
 26
0.0
 36
1.0
 17
0.0
 27
0.0
 37
0.0
 40
5086.192447055114
 41
2.146341463414634
 42
50.0
 43
0.0
 44
0.0
 50
0.0
 51
0.0
 71
     0
 72
   100
 73
     1
 74
     0
 75
     0
 76
     0
 77
     0
 78
     0
281
     0
 65
     1
110
0.0
120
0.0
130
0.0
111
1.0
121
0.0
131
0.0
112
0.0
122
1.0
132
0.0
 79
     0
146
0.0
1001
ACAD_NAV_VCDISPLAY
1070
     3
  0
ENDTAB
  0
TABLE
  2
LTYPE
  5
5
330
0
100
AcDbSymbolTable
 70
     4
  0
LTYPE
  5
13
330
5
100
AcDbSymbolTableRecord
100
AcDbLinetypeTableRecord
  2
BYBLOCK
 70
     0
  3

 72
    65
 73
     0
 40
0.0
  0
LTYPE
  5
14
330
5
100
AcDbSymbolTableRecord
100
AcDbLinetypeTableRecord
  2
BYLAYER
 70
     0
  3

 72
    65
 73
     0
 40
0.0
  0
LTYPE
  5
15
330
5
100
AcDbSymbolTableRecord
100
AcDbLinetypeTableRecord
  2
CONTINUOUS
 70
     0
  3
Solid line
 72
    65
 73
     0
 40
0.0
  0
LTYPE
  5
1F
330
5
100
AcDbSymbolTableRecord
100
AcDbLinetypeTableRecord
  2
CENTER
 70
     0
  3
____ _ ____ _ ____ _ ____ _ ____ _ ____ _ ____ 
 72
    65
 73
     4
 40
2.0
 49
1.25
 74
     0
 49
-0.25
 74
     0
 49
0.25
 74
     0
 49
-0.25
 74
     0
  0
LTYPE
  5
20
330
5
100
AcDbSymbolTableRecord
100
AcDbLinetypeTableRecord
  2
HIDDEN
 70
     0
  3
__ __ __ __ __ __ __ __ __ __ __ __ __ __ __ __
 72
    65
 73
     2
 40
0.375
 49
0.25
 74
     0
 49
-0.125
 74
     0
  0
LTYPE
  5
21
330
5
100
AcDbSymbolTableRecord
100
AcDbLinetypeTableRecord
  2
PHANTOM
 70
     0
  3
______  __  __  ______  __  __  ______  __  __ 
 72
    65
 73
     6
 40
2.5
 49
1.25
 74
     0
 49
-0.25
 74
     0
 49
0.25
 74
     0
 49
-0.25
 74
     0
 49
0.25
 74
     0
 49
-0.25
 74
     0
  0
ENDTAB
  0
TABLE
  2
LAYER
  5
2
102
{ACAD_XDICTIONARY
360
641B
102
}
330
0
100
AcDbSymbolTable
 70
    13
  0
LAYER
  5
F
102
{ACAD_XDICTIONARY
360
6400
102
}
330
2
100
AcDbSymbolTableRecord
100
AcDbLayerTableRecord
  2
0
 70
     0
 62
     7
  6
CONTINUOUS
370
    -3
390
1E91
  0
LAYER
  5
2F
102
{ACAD_XDICTIONARY
360
6402
102
}
330
2
100
AcDbSymbolTableRecord
100
AcDbLayerTableRecord
  2
CT
 70
     0
 62
     3
  6
CENTER
370
    -3
390
1E91
  0
LAYER
  5
30
102
{ACAD_XDICTIONARY
360
6404
102
}
330
2
100
AcDbSymbolTableRecord
100
AcDbLayerTableRecord
  2
FUTO
 70
     0
 62
     4
  6
CONTINUOUS
370
    -3
390
1E91
  0
LAYER
  5
32
102
{ACAD_XDICTIONARY
360
6406
102
}
330
2
100
AcDbSymbolTableRecord
100
AcDbLayerTableRecord
  2
HOSO
 70
     0
 62
     7
  6
CONTINUOUS
370
    -3
390
1E91
  0
LAYER
  5
33
102
{ACAD_XDICTIONARY
360
6408
102
}
330
2
100
AcDbSymbolTableRecord
100
AcDbLayerTableRecord
  2
KL
 70
     0
 62
     7
  6
HIDDEN
370
    -3
390
1E91
  0
LAYER
  5
34
102
{ACAD_XDICTIONARY
360
640A
102
}
330
2
100
AcDbSymbolTableRecord
100
AcDbLayerTableRecord
  2
MOJI
 70
     0
 62
     3
  6
CONTINUOUS
370
    -3
390
1E91
  0
LAYER
  5
35
102
{ACAD_XDICTIONARY
360
640C
102
}
330
2
100
AcDbSymbolTableRecord
100
AcDbLayerTableRecord
  2
SL
 70
     0
 62
     1
  6
PHANTOM
370
    -3
390
1E91
  0
LAYER
  5
36
102
{ACAD_XDICTIONARY
360
640E
102
}
330
2
100
AcDbSymbolTableRecord
100
AcDbLayerTableRecord
  2
SP
 70
     0
 62
     2
  6
CONTINUOUS
370
    -3
390
1E91
  0
LAYER
  5
1E9B
330
2
100
AcDbSymbolTableRecord
100
AcDbLayerTableRecord
  2
Defpoints
 70
     0
 62
     7
  6
CONTINUOUS
290
     0
370
    -3
390
1E91
  0
LAYER
  5
1EEE
102
{ACAD_XDICTIONARY
360
6410
102
}
330
2
100
AcDbSymbolTableRecord
100
AcDbLayerTableRecord
  2
3
 70
     0
 62
    -2
  6
CONTINUOUS
370
    -3
390
1E91
  0
LAYER
  5
1EEF
102
{ACAD_XDICTIONARY
360
6412
102
}
330
2
100
AcDbSymbolTableRecord
100
AcDbLayerTableRecord
  2
2
 70
     0
 62
     3
  6
CENTER
370
    -3
390
1E91
  0
LAYER
  5
1EF0
102
{ACAD_XDICTIONARY
360
6414
102
}
330
2
100
AcDbSymbolTableRecord
100
AcDbLayerTableRecord
  2
1
 70
     0
 62
     4
  6
CONTINUOUS
370
    -3
390
1E91
  0
LAYER
  5
2188
102
{ACAD_XDICTIONARY
360
6416
102
}
330
2
100
AcDbSymbolTableRecord
100
AcDbLayerTableRecord
  2
4
 70
     0
 62
     7
  6
CONTINUOUS
370
    -3
390
1E91
  0
ENDTAB
  0
TABLE
  2
STYLE
  5
3
330
0
100
AcDbSymbolTable
 70
     1
  0
STYLE
  5
10
330
3
100
AcDbSymbolTableRecord
100
AcDbTextStyleTableRecord
  2
STANDARD
 70
     0
 40
0.0
 41
1.0
 50
15.0
 71
     0
 42
3.5
  3
C:\Program Files\AutoCAD LT\simplex.shx
  4
C:\Program Files\AutoCAD LT\extfont.shx
  0
ENDTAB
  0
TABLE
  2
VIEW
  5
6
330
0
100
AcDbSymbolTable
 70
     0
  0
ENDTAB
  0
TABLE
  2
UCS
  5
7
330
0
100
AcDbSymbolTable
 70
     0
  0
ENDTAB
  0
TABLE
  2
APPID
  5
9
330
0
100
AcDbSymbolTable
 70
     5
  0
APPID
  5
11
330
9
100
AcDbSymbolTableRecord
100
AcDbRegAppTableRecord
  2
ACAD
 70
     0
  0
APPID
  5
63AC
330
9
100
AcDbSymbolTableRecord
100
AcDbRegAppTableRecord
  2
ACAD_EXEMPT_FROM_CAD_STANDARDS
 70
     0
  0
APPID
  5
63EC
330
9
100
AcDbSymbolTableRecord
100
AcDbRegAppTableRecord
  2
AcadAnnoMonitorAlertIconDisabled
 70
     0
  0
APPID
  5
6421
330
9
100
AcDbSymbolTableRecord
100
AcDbRegAppTableRecord
  2
ACAD_NAV_VCDISPLAY
 70
     0
  0
APPID
  5
64A5
330
9
100
AcDbSymbolTableRecord
100
AcDbRegAppTableRecord
  2
ACAD_MLEADERVER
 70
     0
  0
ENDTAB
  0
TABLE
  2
DIMSTYLE
  5
A
330
0
100
AcDbSymbolTable
 70
     3
100
AcDbDimStyleTable
 71
     2
340
1E99
340
1D
  0
DIMSTYLE
105
1D
330
A
100
AcDbSymbolTableRecord
100
AcDbDimStyleTableRecord
  2
STANDARD
 70
     0
340
10
  0
DIMSTYLE
105
1E99
102
{ACAD_REACTORS
330
3F26
330
3F0E
330
3F3E
330
3F4B
330
3F58
330
469F
330
46D1
330
46E3
330
4D6D
330
4D74
330
4D73
330
5E6E
330
5E71
330
5E72
330
5E83
330
5E84
330
60E8
330
63B4
330
63C1
102
}
330
A
100
AcDbSymbolTableRecord
100
AcDbDimStyleTableRecord
  2
GOD
 70
     0
 40
15.0
 41
2.5
 42
1.0
 43
7.0
 44
1.0
 73
     0
 74
     0
 77
     1
 78
     8
140
3.0
141
0.0
143
0.03937
147
1.0
172
     1
173
     1
176
   256
177
   256
178
   256
271
     2
272
     2
284
     8
289
     0
340
10
341
1E7F
343
1E7F
344
1E7F
  0
DIMSTYLE
105
1EF1
330
A
100
AcDbSymbolTableRecord
100
AcDbDimStyleTableRecord
  2
IGA
 70
     0
 40
2.0
 41
2.0
 42
0.5
 43
10.0
 44
1.0
 47
1.0
 48
1.0
 73
     0
 74
     0
 77
     1
 78
     8
140
3.0
141
0.0
143
0.03937
146
10.0
147
1.0
173
     1
271
     1
272
     0
279
     2
284
     8
340
10
341
1E7F
343
1E7F
344
1E7F
  0
ENDTAB
  0
TABLE
  2
BLOCK_RECORD
  5
1
330
0
100
AcDbSymbolTable
 70
    32
  0
BLOCK_RECORD
  5
19
102
{ACAD_XDICTIONARY
360
638F
102
}
330
1
100
AcDbSymbolTableRecord
100
AcDbBlockTableRecord
  2
*MODEL_SPACE
340
1E94
  0
BLOCK_RECORD
  5
16
330
1
100
AcDbSymbolTableRecord
100
AcDbBlockTableRecord
  2
*PAPER_SPACE
340
1E95
  0
BLOCK_RECORD
  5
1E7F
330
1
100
AcDbSymbolTableRecord
100
AcDbBlockTableRecord
  2
_OPEN
340
0
102
{BLKREFS
331
6228
331
623A
331
6242
331
6243
331
624B
331
624C
331
621E
331
621F
331
6227
331
49DE
331
49DF
331
4A02
331
4A03
331
4A0B
331
4A0C
331
4E08
331
4E09
331
4E11
331
4E12
331
4E1A
331
4E1B
331
6394
331
6395
331
639D
331
639E
331
63A6
331
63A7
331
63E7
331
63E8
331
63FA
331
63FB
331
49B1
331
49B2
331
49BA
331
49BB
102
}
  0
BLOCK_RECORD
  5
1EB4
330
1
100
AcDbSymbolTableRecord
100
AcDbBlockTableRecord
  2
_Dot
340
0
102
{BLKREFS
331
6239
102
}
  0
BLOCK_RECORD
  5
22E5
330
1
100
AcDbSymbolTableRecord
100
AcDbBlockTableRecord
  2
A$C5EBD6DA5
340
0
  0
BLOCK_RECORD
  5
3F0F
330
1
100
AcDbSymbolTableRecord
100
AcDbBlockTableRecord
  2
*D3
340
0
  0
BLOCK_RECORD
  5
3F27
330
1
100
AcDbSymbolTableRecord
100
AcDbBlockTableRecord
  2
*D4
340
0
  0
BLOCK_RECORD
  5
3F3F
330
1
100
AcDbSymbolTableRecord
100
AcDbBlockTableRecord
  2
*D5
340
0
  0
BLOCK_RECORD
  5
3F4C
330
1
100
AcDbSymbolTableRecord
100
AcDbBlockTableRecord
  2
*D6
340
0
  0
BLOCK_RECORD
  5
3F59
330
1
100
AcDbSymbolTableRecord
100
AcDbBlockTableRecord
  2
*D7
340
0
  0
BLOCK_RECORD
  5
3F67
330
1
100
AcDbSymbolTableRecord
100
AcDbBlockTableRecord
  2
A$C2860434C
340
0
  0
BLOCK_RECORD
  5
46F6
330
1
100
AcDbSymbolTableRecord
100
AcDbBlockTableRecord
  2
*D10
340
0
  0
BLOCK_RECORD
  5
471A
330
1
100
AcDbSymbolTableRecord
100
AcDbBlockTableRecord
  2
*D11
340
0
  0
BLOCK_RECORD
  5
4726
330
1
100
AcDbSymbolTableRecord
100
AcDbBlockTableRecord
  2
*D12
340
0
  0
BLOCK_RECORD
  5
4DDD
330
1
100
AcDbSymbolTableRecord
100
AcDbBlockTableRecord
  2
*D13
340
0
  0
BLOCK_RECORD
  5
4DEB
330
1
100
AcDbSymbolTableRecord
100
AcDbBlockTableRecord
  2
*D14
340
0
  0
BLOCK_RECORD
  5
4DF7
330
1
100
AcDbSymbolTableRecord
100
AcDbBlockTableRecord
  2
*D15
340
0
  0
BLOCK_RECORD
  5
5AD4
330
1
100
AcDbSymbolTableRecord
100
AcDbBlockTableRecord
  2
_None
340
0
  0
BLOCK_RECORD
  5
5E85
330
1
100
AcDbSymbolTableRecord
100
AcDbBlockTableRecord
  2
*D17
340
0
  0
BLOCK_RECORD
  5
5E91
330
1
100
AcDbSymbolTableRecord
100
AcDbBlockTableRecord
  2
*D18
340
0
  0
BLOCK_RECORD
  5
5E9D
330
1
100
AcDbSymbolTableRecord
100
AcDbBlockTableRecord
  2
*D19
340
0
  0
BLOCK_RECORD
  5
5EA9
330
1
100
AcDbSymbolTableRecord
100
AcDbBlockTableRecord
  2
*D20
340
0
  0
BLOCK_RECORD
  5
5EB7
330
1
100
AcDbSymbolTableRecord
100
AcDbBlockTableRecord
  2
*D21
340
0
  0
BLOCK_RECORD
  5
60EC
330
1
100
AcDbSymbolTableRecord
100
AcDbBlockTableRecord
  2
*D22
340
0
  0
BLOCK_RECORD
  5
63B5
330
1
100
AcDbSymbolTableRecord
100
AcDbBlockTableRecord
  2
*D30
340
0
  0
BLOCK_RECORD
  5
63C2
330
1
100
AcDbSymbolTableRecord
100
AcDbBlockTableRecord
  2
*D31
340
0
  0
ENDTAB
  0
ENDSEC
  0
SECTION
  2
BLOCKS
  0
BLOCK
  5
1A
330
19
100
AcDbEntity
  8
0
100
AcDbBlockBegin
  2
*MODEL_SPACE
 70
     0
 10
0.0
 20
0.0
 30
0.0
  3
*MODEL_SPACE
  1

  0
ENDBLK
  5
1B
330
19
100
AcDbEntity
  8
0
100
AcDbBlockEnd
  0
BLOCK
  5
17
330
16
100
AcDbEntity
 67
     1
  8
0
100
AcDbBlockBegin
  2
*PAPER_SPACE
 70
     0
 10
0.0
 20
0.0
 30
0.0
  3
*PAPER_SPACE
  1

  0
ENDBLK
  5
18
330
16
100
AcDbEntity
 67
     1
  8
0
100
AcDbBlockEnd
  0
BLOCK
  5
1E80
330
1E7F
100
AcDbEntity
  8
0
100
AcDbBlockBegin
  2
_OPEN
 70
     0
 10
0.0
 20
0.0
 30
0.0
  3
_OPEN
  1

  0
LINE
  5
1E81
330
1E7F
100
AcDbEntity
  8
0
  6
ByBlock
 62
     0
100
AcDbLine
 10
-1.0
 20
0.1666666666666666
 30
0.0
 11
0.0
 21
0.0
 31
0.0
  0
LINE
  5
1E82
330
1E7F
100
AcDbEntity
  8
0
  6
ByBlock
 62
     0
100
AcDbLine
 10
0.0
 20
0.0
 30
0.0
 11
-1.0
 21
-0.1666666666666666
 31
0.0
  0
LINE
  5
1E83
330
1E7F
100
AcDbEntity
  8
0
  6
ByBlock
 62
     0
100
AcDbLine
 10
0.0
 20
0.0
 30
0.0
 11
-1.0
 21
0.0
 31
0.0
  0
ENDBLK
  5
1E84
330
1E7F
100
AcDbEntity
  8
0
100
AcDbBlockEnd
  0
BLOCK
  5
1EB7
330
1EB4
100
AcDbEntity
  8
0
100
AcDbBlockBegin
  2
_Dot
 70
     0
 10
0.0
 20
0.0
 30
0.0
  3
_Dot
  1

  0
LINE
  5
1EC3
330
1EB4
100
AcDbEntity
  8
0
  6
ByBlock
 62
     0
100
AcDbLine
 10
0.0
 20
0.0
 30
0.0
 11
-1.0
 21
-0.0000000000000284
 31
0.0
  0
LWPOLYLINE
  5
1EC4
330
1EB4
100
AcDbEntity
  8
0
  6
ByBlock
 62
     0
100
AcDbPolyline
 90
        2
 70
     1
 43
0.1666666666666666
 10
-0.0833333333333286
 20
-0.0000000000000284
 42
1.0
 10
0.0833333333333286
 20
-0.0000000000000284
 42
1.0
  0
ENDBLK
  5
1EB8
330
1EB4
100
AcDbEntity
  8
0
100
AcDbBlockEnd
  0
BLOCK
  5
22ED
330
22E5
100
AcDbEntity
  8
0
100
AcDbBlockBegin
  2
A$C5EBD6DA5
 70
     0
 10
0.0
 20
0.0
 30
0.0
  3
A$C5EBD6DA5
  1

  0
LWPOLYLINE
  5
22E6
330
22E5
100
AcDbEntity
  8
1
100
AcDbPolyline
 90
        2
 70
     0
 43
0.0
 10
8.000000000002728
 20
-181.5000000000009
 10
8.000000000000909
 20
181.5000000000009
  0
LINE
  5
22E7
330
22E5
100
AcDbEntity
  8
1
100
AcDbLine
 10
1.000000000000909
 20
182.5000000000009
 30
0.0
 11
7.000000000002728
 21
182.5000000000009
 31
0.0
  0
ARC
  5
22E8
330
22E5
100
AcDbEntity
  8
1
100
AcDbCircle
 10
1.000000000000909
 20
183.5000000000009
 30
0.0
 40
1.0
100
AcDbArc
 50
180.0
 51
270.0
  0
LINE
  5
22E9
330
22E5
100
AcDbEntity
  8
1
100
AcDbLine
 10
1.000000000000909
 20
-182.5000000000009
 30
0.0
 11
7.000000000002728
 21
-182.5000000000009
 31
0.0
  0
ARC
  5
22EA
330
22E5
100
AcDbEntity
  8
1
100
AcDbCircle
 10
1.000000000000909
 20
-183.5000000000009
 30
0.0
 40
1.0
100
AcDbArc
 50
90.0
 51
180.0
  0
ARC
  5
22EB
330
22E5
100
AcDbEntity
  8
1
100
AcDbCircle
 10
7.000000000000909
 20
-181.5000000000009
 30
0.0
 40
1.0
100
AcDbArc
 50
270.0
 51
0.0
  0
ARC
  5
22EC
330
22E5
100
AcDbEntity
  8
1
100
AcDbCircle
 10
7.000000000000909
 20
181.5000000000009
 30
0.0
 40
1.0
100
AcDbArc
 50
0.0
 51
90.0
  0
ENDBLK
  5
22EE
330
22E5
100
AcDbEntity
  8
0
100
AcDbBlockEnd
  0
BLOCK
  5
3F19
330
3F0F
100
AcDbEntity
  8
0
100
AcDbBlockBegin
  2
*D3
 70
     1
 10
0.0
 20
0.0
 30
0.0
  3
*D3
  1

  0
LINE
  5
49B7
330
3F0F
100
AcDbEntity
  8
SP
370
    -2
100
AcDbLine
 10
18322.76627709694
 20
4790.633820463165
 30
0.0
 11
18322.76627709694
 21
4853.89053619199
 31
0.0
  0
LINE
  5
49B8
330
3F0F
100
AcDbEntity
  8
SP
370
    -2
100
AcDbLine
 10
18058.53499546311
 20
4490.964871696695
 30
0.0
 11
18058.53499546311
 21
4853.89053619199
 31
0.0
  0
LINE
  5
49B9
330
3F0F
100
AcDbEntity
  8
SP
370
    -2
100
AcDbLine
 10
18285.26627709694
 20
4838.890536191989
 30
0.0
 11
18096.03499546311
 21
4838.890536191989
 31
0.0
  0
INSERT
  5
49BA
330
3F0F
100
AcDbEntity
  8
SP
370
    -2
100
AcDbBlockReference
  2
_OPEN
 10
18322.76627709694
 20
4838.890536191989
 30
0.0
 41
37.5
 42
37.5
 43
37.5
  0
INSERT
  5
49BB
330
3F0F
100
AcDbEntity
  8
SP
370
    -2
100
AcDbBlockReference
  2
_OPEN
 10
18058.53499546311
 20
4838.890536191989
 30
0.0
 41
37.5
 42
37.5
 43
37.5
 50
180.0
  0
MTEXT
  5
49BC
330
3F0F
100
AcDbEntity
  8
SP
100
AcDbMText
 10
18190.65063628003
 20
4876.39053619199
 30
0.0
 40
45.0
 41
0.0
 71
     5
 72
     1
  1
\A1;264
 73
     1
 44
1.0
1001
ACAD
1000
MTEXTBEGIN
1070
    73
1070
     1
1070
    44
1040
1.0
1070
    74
1070
     0
1000
MTEXTEND
  0
POINT
  5
49BD
330
3F0F
100
AcDbEntity
  8
Defpoints
 62
     0
100
AcDbPoint
 10
18322.76627709694
 20
4775.633820463164
 30
0.0
  0
POINT
  5
49BE
330
3F0F
100
AcDbEntity
  8
Defpoints
 62
     0
100
AcDbPoint
 10
18058.53499546311
 20
4475.964871696695
 30
0.0
  0
POINT
  5
49BF
330
3F0F
100
AcDbEntity
  8
Defpoints
 62
     0
100
AcDbPoint
 10
18058.53499546311
 20
4838.890536191989
 30
0.0
  0
ENDBLK
  5
3F1A
330
3F0F
100
AcDbEntity
  8
0
100
AcDbBlockEnd
  0
BLOCK
  5
3F31
330
3F27
100
AcDbEntity
  8
0
100
AcDbBlockBegin
  2
*D4
 70
     1
 10
0.0
 20
0.0
 30
0.0
  3
*D4
  1

  0
LINE
  5
49AE
330
3F27
100
AcDbEntity
  8
SP
370
    -2
100
AcDbLine
 10
18322.76627709694
 20
4790.633820463165
 30
0.0
 11
18322.76627709694
 21
4853.89053619199
 31
0.0
  0
LINE
  5
49AF
330
3F27
100
AcDbEntity
  8
SP
370
    -2
100
AcDbLine
 10
18572.76627709694
 20
4539.135294509086
 30
0.0
 11
18572.76627709694
 21
4853.89053619199
 31
0.0
  0
LINE
  5
49B0
330
3F27
100
AcDbEntity
  8
SP
370
    -2
100
AcDbLine
 10
18360.26627709694
 20
4838.890536191989
 30
0.0
 11
18535.26627709694
 21
4838.890536191989
 31
0.0
  0
INSERT
  5
49B1
330
3F27
100
AcDbEntity
  8
SP
370
    -2
100
AcDbBlockReference
  2
_OPEN
 10
18322.76627709694
 20
4838.890536191989
 30
0.0
 41
37.5
 42
37.5
 43
37.5
 50
180.0
  0
INSERT
  5
49B2
330
3F27
100
AcDbEntity
  8
SP
370
    -2
100
AcDbBlockReference
  2
_OPEN
 10
18572.76627709694
 20
4838.890536191989
 30
0.0
 41
37.5
 42
37.5
 43
37.5
  0
MTEXT
  5
49B3
330
3F27
100
AcDbEntity
  8
SP
100
AcDbMText
 10
18447.76627709694
 20
4876.39053619199
 30
0.0
 40
45.0
 41
0.0
 71
     5
 72
     1
  1
\A1;250
 73
     1
 44
1.0
1001
ACAD
1000
MTEXTBEGIN
1070
    73
1070
     1
1070
    44
1040
1.0
1070
    74
1070
     0
1000
MTEXTEND
  0
POINT
  5
49B4
330
3F27
100
AcDbEntity
  8
Defpoints
 62
     0
100
AcDbPoint
 10
18322.76627709694
 20
4775.633820463164
 30
0.0
  0
POINT
  5
49B5
330
3F27
100
AcDbEntity
  8
Defpoints
 62
     0
100
AcDbPoint
 10
18572.76627709694
 20
4524.135294509085
 30
0.0
  0
POINT
  5
49B6
330
3F27
100
AcDbEntity
  8
Defpoints
 62
     0
100
AcDbPoint
 10
18572.76627709694
 20
4838.890536191989
 30
0.0
  0
ENDBLK
  5
3F32
330
3F27
100
AcDbEntity
  8
0
100
AcDbBlockEnd
  0
BLOCK
  5
3F49
330
3F3F
100
AcDbEntity
  8
0
100
AcDbBlockBegin
  2
*D5
 70
     1
 10
0.0
 20
0.0
 30
0.0
  3
*D5
  1

  0
LINE
  5
49FF
330
3F3F
100
AcDbEntity
  8
SP
370
    -2
100
AcDbLine
 10
18642.70978694452
 20
4502.635294509082
 30
0.0
 11
18692.76627709695
 21
4502.635294509082
 31
0.0
  0
LINE
  5
4A00
330
3F3F
100
AcDbEntity
  8
SP
370
    -2
100
AcDbLine
 10
18587.76627709695
 20
4187.635294509084
 30
0.0
 11
18692.76627709695
 21
4187.635294509084
 31
0.0
  0
LINE
  5
4A01
330
3F3F
100
AcDbEntity
  8
SP
370
    -2
100
AcDbLine
 10
18677.76627709695
 20
4465.135294509082
 30
0.0
 11
18677.76627709695
 21
4225.135294509085
 31
0.0
  0
INSERT
  5
4A02
330
3F3F
100
AcDbEntity
  8
SP
370
    -2
100
AcDbBlockReference
  2
_OPEN
 10
18677.76627709695
 20
4502.635294509082
 30
0.0
 41
37.5
 42
37.5
 43
37.5
 50
90.0
  0
INSERT
  5
4A03
330
3F3F
100
AcDbEntity
  8
SP
370
    -2
100
AcDbBlockReference
  2
_OPEN
 10
18677.76627709695
 20
4187.635294509084
 30
0.0
 41
37.5
 42
37.5
 43
37.5
 50
270.0
  0
MTEXT
  5
4A04
330
3F3F
100
AcDbEntity
  8
SP
100
AcDbMText
 10
18640.26627709695
 20
4345.135294509087
 30
0.0
 40
45.0
 41
0.0
 71
     5
 72
     1
  1
\A1;315
 11
0.0000000000000001
 21
1.0
 31
0.0
 73
     1
 44
1.0
1001
ACAD
1000
MTEXTBEGIN
1070
    73
1070
     1
1070
    44
1040
1.0
1070
    74
1070
     0
1000
MTEXTEND
  0
POINT
  5
4A05
330
3F3F
100
AcDbEntity
  8
Defpoints
 62
     0
100
AcDbPoint
 10
18627.70978694451
 20
4502.635294509082
 30
0.0
  0
POINT
  5
4A06
330
3F3F
100
AcDbEntity
  8
Defpoints
 62
     0
100
AcDbPoint
 10
18572.76627709695
 20
4187.635294509084
 30
0.0
  0
POINT
  5
4A07
330
3F3F
100
AcDbEntity
  8
Defpoints
 62
     0
100
AcDbPoint
 10
18677.76627709695
 20
4187.635294509084
 30
0.0
  0
ENDBLK
  5
3F4A
330
3F3F
100
AcDbEntity
  8
0
100
AcDbBlockEnd
  0
BLOCK
  5
3F56
330
3F4C
100
AcDbEntity
  8
0
100
AcDbBlockBegin
  2
*D6
 70
     1
 10
0.0
 20
0.0
 30
0.0
  3
*D6
  1

  0
LINE
  5
4A08
330
3F4C
100
AcDbEntity
  8
SP
370
    -2
100
AcDbLine
 10
18587.76627709694
 20
4147.635294509082
 30
0.0
 11
18797.76627709694
 21
4147.635294509082
 31
0.0
  0
LINE
  5
4A09
330
3F4C
100
AcDbEntity
  8
SP
370
    -2
100
AcDbLine
 10
18642.70978694452
 20
4502.635294509082
 30
0.0
 11
18797.76627709694
 21
4502.635294509082
 31
0.0
  0
LINE
  5
4A0A
330
3F4C
100
AcDbEntity
  8
SP
370
    -2
100
AcDbLine
 10
18782.76627709694
 20
4185.135294509082
 30
0.0
 11
18782.76627709694
 21
4465.135294509082
 31
0.0
  0
INSERT
  5
4A0B
330
3F4C
100
AcDbEntity
  8
SP
370
    -2
100
AcDbBlockReference
  2
_OPEN
 10
18782.76627709694
 20
4147.635294509082
 30
0.0
 41
37.5
 42
37.5
 43
37.5
 50
270.0
  0
INSERT
  5
4A0C
330
3F4C
100
AcDbEntity
  8
SP
370
    -2
100
AcDbBlockReference
  2
_OPEN
 10
18782.76627709694
 20
4502.635294509082
 30
0.0
 41
37.5
 42
37.5
 43
37.5
 50
90.0
  0
MTEXT
  5
4A0D
330
3F4C
100
AcDbEntity
  8
SP
100
AcDbMText
 10
18745.26627709694
 20
4325.135294509085
 30
0.0
 40
45.0
 41
0.0
 71
     5
 72
     1
  1
\A1;355
 11
0.0000000000000001
 21
1.0
 31
0.0
 73
     1
 44
1.0
1001
ACAD
1000
MTEXTBEGIN
1070
    73
1070
     1
1070
    44
1040
1.0
1070
    74
1070
     0
1000
MTEXTEND
  0
POINT
  5
4A0E
330
3F4C
100
AcDbEntity
  8
Defpoints
 62
     0
100
AcDbPoint
 10
18572.76627709694
 20
4147.635294509082
 30
0.0
  0
POINT
  5
4A0F
330
3F4C
100
AcDbEntity
  8
Defpoints
 62
     0
100
AcDbPoint
 10
18627.70978694451
 20
4502.635294509082
 30
0.0
  0
POINT
  5
4A10
330
3F4C
100
AcDbEntity
  8
Defpoints
 62
     0
100
AcDbPoint
 10
18782.76627709694
 20
4502.635294509082
 30
0.0
  0
ENDBLK
  5
3F57
330
3F4C
100
AcDbEntity
  8
0
100
AcDbBlockEnd
  0
BLOCK
  5
3F65
330
3F59
100
AcDbEntity
  8
0
100
AcDbBlockBegin
  2
*D7
 70
     1
 10
0.0
 20
0.0
 30
0.0
  3
*D7
  1

  0
LINE
  5
49DB
330
3F59
100
AcDbEntity
  8
SP
370
    -2
100
AcDbLine
 10
18642.70978694452
 20
4502.635294509082
 30
0.0
 11
18797.76627709694
 21
4502.635294509082
 31
0.0
  0
LINE
  5
49DC
330
3F59
100
AcDbEntity
  8
SP
370
    -2
100
AcDbLine
 10
18314.91257323214
 20
4724.922514625554
 30
0.0
 11
18797.76627709694
 21
4724.922514625553
 31
0.0
  0
LINE
  5
49DD
330
3F59
100
AcDbEntity
  8
SP
370
    -2
100
AcDbLine
 10
18782.76627709694
 20
4540.135294509082
 30
0.0
 11
18782.76627709694
 21
4687.422514625553
 31
0.0
  0
INSERT
  5
49DE
330
3F59
100
AcDbEntity
  8
SP
370
    -2
100
AcDbBlockReference
  2
_OPEN
 10
18782.76627709694
 20
4502.635294509082
 30
0.0
 41
37.5
 42
37.5
 43
37.5
 50
270.0
  0
INSERT
  5
49DF
330
3F59
100
AcDbEntity
  8
SP
370
    -2
100
AcDbBlockReference
  2
_OPEN
 10
18782.76627709694
 20
4724.922514625553
 30
0.0
 41
37.5
 42
37.5
 43
37.5
 50
90.0
  0
MTEXT
  5
49E0
330
3F59
100
AcDbEntity
  8
SP
100
AcDbMText
 10
18745.26627709694
 20
4613.778904567321
 30
0.0
 40
45.0
 41
0.0
 71
     5
 72
     1
  1
\A1;222
 11
0.0000000000000001
 21
1.0
 31
0.0
 73
     1
 44
1.0
1001
ACAD
1000
MTEXTBEGIN
1070
    73
1070
     1
1070
    44
1040
1.0
1070
    74
1070
     0
1000
MTEXTEND
  0
POINT
  5
49E1
330
3F59
100
AcDbEntity
  8
Defpoints
 62
     0
100
AcDbPoint
 10
18627.70978694451
 20
4502.635294509082
 30
0.0
  0
POINT
  5
49E2
330
3F59
100
AcDbEntity
  8
Defpoints
 62
     0
100
AcDbPoint
 10
18299.91257323213
 20
4724.922514625554
 30
0.0
  0
POINT
  5
49E3
330
3F59
100
AcDbEntity
  8
Defpoints
 62
     0
100
AcDbPoint
 10
18782.76627709694
 20
4724.922514625553
 30
0.0
  0
ENDBLK
  5
3F66
330
3F59
100
AcDbEntity
  8
0
100
AcDbBlockEnd
  0
BLOCK
  5
3F70
330
3F67
100
AcDbEntity
  8
0
100
AcDbBlockBegin
  2
A$C2860434C
 70
     0
 10
0.0
 20
0.0
 30
0.0
  3
A$C2860434C
  1

  0
LINE
  5
3F68
330
3F67
100
AcDbEntity
  8
FUTO
100
AcDbLine
 10
46.80127011642617
 20
-0.0000088960860012
 30
0.0
 11
8.586023312103861
 21
70.14998454137458
 31
0.0
  0
LINE
  5
3F69
330
3F67
100
AcDbEntity
  8
FUTO
100
AcDbLine
 10
-0.0000161416137416
 20
53.3499845413753
 30
0.0
 11
1.599983858386622
 21
53.3499845413753
 31
0.0
  0
LINE
  5
3F6A
330
3F67
100
AcDbEntity
  8
FUTO
100
AcDbLine
 10
-0.0000161416137416
 20
53.3499845413753
 30
0.0
 11
-0.0000161416137416
 21
68.54998454137422
 31
0.0
  0
LINE
  5
3F6B
330
3F67
100
AcDbEntity
  8
FUTO
100
AcDbLine
 10
1.599983858386622
 20
53.3499845413753
 30
0.0
 11
1.599983858386622
 21
68.54998454137422
 31
0.0
  0
LINE
  5
3F6C
330
3F67
100
AcDbEntity
  8
FUTO
100
AcDbLine
 10
3.199983858386985
 20
70.14998454137458
 30
0.0
 11
91.76921462761674
 21
70.14998454137094
 31
0.0
  0
LINE
  5
3F6D
330
3F67
100
AcDbEntity
  8
FUTO
100
AcDbLine
 10
3.199983858386985
 20
71.74998454137313
 30
0.0
 11
92.79485565325741
 21
71.74998454137313
 31
0.0
  0
ARC
  5
3F6E
330
3F67
100
AcDbEntity
  8
FUTO
100
AcDbCircle
 10
3.199983858386985
 20
68.54998454137422
 30
0.0
 40
3.2
100
AcDbArc
 50
90.0
 51
180.0
  0
ARC
  5
3F6F
330
3F67
100
AcDbEntity
  8
FUTO
100
AcDbCircle
 10
3.199983858386985
 20
68.54998454137422
 30
0.0
 40
1.6
100
AcDbArc
 50
90.0
 51
180.0
  0
ENDBLK
  5
3F71
330
3F67
100
AcDbEntity
  8
0
100
AcDbBlockEnd
  0
BLOCK
  5
4700
330
46F6
100
AcDbEntity
  8
0
100
AcDbBlockBegin
  2
*D10
 70
     1
 10
0.0
 20
0.0
 30
0.0
  3
*D10
  1

  0
LINE
  5
6391
330
46F6
100
AcDbEntity
  8
SP
370
    -2
100
AcDbLine
 10
19660.61370464045
 20
4914.89786701067
 30
0.0
 11
19660.61370464045
 21
4949.922514625554
 31
0.0
  0
LINE
  5
6392
330
46F6
100
AcDbEntity
  8
SP
370
    -2
100
AcDbLine
 10
19781.61370464045
 20
4699.135294509079
 30
0.0
 11
19781.61370464045
 21
4949.922514625554
 31
0.0
  0
LINE
  5
6393
330
46F6
100
AcDbEntity
  8
SP
370
    -2
100
AcDbLine
 10
19698.11370464045
 20
4934.922514625554
 30
0.0
 11
19744.11370464045
 21
4934.922514625554
 31
0.0
  0
INSERT
  5
6394
330
46F6
100
AcDbEntity
  8
SP
370
    -2
100
AcDbBlockReference
  2
_OPEN
 10
19660.61370464045
 20
4934.922514625554
 30
0.0
 41
37.5
 42
37.5
 43
37.5
 50
180.0
  0
INSERT
  5
6395
330
46F6
100
AcDbEntity
  8
SP
370
    -2
100
AcDbBlockReference
  2
_OPEN
 10
19781.61370464045
 20
4934.922514625554
 30
0.0
 41
37.5
 42
37.5
 43
37.5
  0
MTEXT
  5
6396
330
46F6
100
AcDbEntity
  8
SP
100
AcDbMText
 10
19721.11370464045
 20
4972.422514625554
 30
0.0
 40
45.0
 41
0.0
 71
     5
 72
     1
  1
\A1;121
 73
     1
 44
1.0
1001
ACAD
1000
MTEXTBEGIN
1070
    73
1070
     1
1070
    44
1040
1.0
1070
    74
1070
     0
1000
MTEXTEND
  0
POINT
  5
6397
330
46F6
100
AcDbEntity
  8
Defpoints
 62
     0
100
AcDbPoint
 10
19660.61370464045
 20
4899.89786701067
 30
0.0
  0
POINT
  5
6398
330
46F6
100
AcDbEntity
  8
Defpoints
 62
     0
100
AcDbPoint
 10
19781.61370464045
 20
4684.135294509078
 30
0.0
  0
POINT
  5
6399
330
46F6
100
AcDbEntity
  8
Defpoints
 62
     0
100
AcDbPoint
 10
19781.61370464045
 20
4934.922514625554
 30
0.0
  0
ENDBLK
  5
4701
330
46F6
100
AcDbEntity
  8
0
100
AcDbBlockEnd
  0
BLOCK
  5
4724
330
471A
100
AcDbEntity
  8
0
100
AcDbBlockBegin
  2
*D11
 70
     1
 10
0.0
 20
0.0
 30
0.0
  3
*D11
  1

  0
LINE
  5
639A
330
471A
100
AcDbEntity
  8
SP
370
    -2
100
AcDbLine
 10
19796.61370464046
 20
4660.135294509081
 30
0.0
 11
19912.82829315223
 21
4660.135294509081
 31
0.0
  0
LINE
  5
639B
330
471A
100
AcDbEntity
  8
SP
370
    -2
100
AcDbLine
 10
19796.61370464046
 20
4345.135294509081
 30
0.0
 11
19912.82829315223
 21
4345.135294509081
 31
0.0
  0
LINE
  5
639C
330
471A
100
AcDbEntity
  8
SP
370
    -2
100
AcDbLine
 10
19897.82829315223
 20
4622.63529450908
 30
0.0
 11
19897.82829315223
 21
4382.635294509081
 31
0.0
  0
INSERT
  5
639D
330
471A
100
AcDbEntity
  8
SP
370
    -2
100
AcDbBlockReference
  2
_OPEN
 10
19897.82829315223
 20
4660.135294509081
 30
0.0
 41
37.5
 42
37.5
 43
37.5
 50
90.0
  0
INSERT
  5
639E
330
471A
100
AcDbEntity
  8
SP
370
    -2
100
AcDbBlockReference
  2
_OPEN
 10
19897.82829315223
 20
4345.135294509081
 30
0.0
 41
37.5
 42
37.5
 43
37.5
 50
270.0
  0
MTEXT
  5
639F
330
471A
100
AcDbEntity
  8
SP
100
AcDbMText
 10
19860.32829315223
 20
4502.635294509075
 30
0.0
 40
45.0
 41
0.0
 71
     5
 72
     1
  1
\A1;\U+03C6315
 11
0.0000000000000001
 21
1.0
 31
0.0
 73
     1
 44
1.0
1001
ACAD
1000
MTEXTBEGIN
1070
    73
1070
     1
1070
    44
1040
1.0
1070
    74
1070
     0
1000
MTEXTEND
  0
POINT
  5
63A0
330
471A
100
AcDbEntity
  8
Defpoints
 62
     0
100
AcDbPoint
 10
19781.61370464046
 20
4660.135294509081
 30
0.0
  0
POINT
  5
63A1
330
471A
100
AcDbEntity
  8
Defpoints
 62
     0
100
AcDbPoint
 10
19781.61370464046
 20
4345.135294509081
 30
0.0
  0
POINT
  5
63A2
330
471A
100
AcDbEntity
  8
Defpoints
 62
     0
100
AcDbPoint
 10
19897.82829315223
 20
4345.135294509081
 30
0.0
  0
ENDBLK
  5
4725
330
471A
100
AcDbEntity
  8
0
100
AcDbBlockEnd
  0
BLOCK
  5
4730
330
4726
100
AcDbEntity
  8
0
100
AcDbBlockBegin
  2
*D12
 70
     1
 10
0.0
 20
0.0
 30
0.0
  3
*D12
  1

  0
LINE
  5
63A3
330
4726
100
AcDbEntity
  8
SP
370
    -2
100
AcDbLine
 10
19548.61370464045
 20
4724.922514625554
 30
0.0
 11
19548.61370464045
 21
4844.922514625555
 31
0.0
  0
LINE
  5
63A4
330
4726
100
AcDbEntity
  8
SP
370
    -2
100
AcDbLine
 10
19772.61370464045
 20
4724.922514625554
 30
0.0
 11
19772.61370464045
 21
4844.922514625555
 31
0.0
  0
LINE
  5
63A5
330
4726
100
AcDbEntity
  8
SP
370
    -2
100
AcDbLine
 10
19586.11370464045
 20
4829.922514625554
 30
0.0
 11
19735.11370464045
 21
4829.922514625554
 31
0.0
  0
INSERT
  5
63A6
330
4726
100
AcDbEntity
  8
SP
370
    -2
100
AcDbBlockReference
  2
_OPEN
 10
19548.61370464045
 20
4829.922514625554
 30
0.0
 41
37.5
 42
37.5
 43
37.5
 50
180.0
  0
INSERT
  5
63A7
330
4726
100
AcDbEntity
  8
SP
370
    -2
100
AcDbBlockReference
  2
_OPEN
 10
19772.61370464045
 20
4829.922514625554
 30
0.0
 41
37.5
 42
37.5
 43
37.5
  0
MTEXT
  5
63A8
330
4726
100
AcDbEntity
  8
SP
100
AcDbMText
 10
19660.61370464045
 20
4867.422514625554
 30
0.0
 40
45.0
 41
0.0
 71
     5
 72
     1
  1
\A1;224
 73
     1
 44
1.0
1001
ACAD
1000
MTEXTBEGIN
1070
    73
1070
     1
1070
    44
1040
1.0
1070
    74
1070
     0
1000
MTEXTEND
  0
POINT
  5
63A9
330
4726
100
AcDbEntity
  8
Defpoints
 62
     0
100
AcDbPoint
 10
19548.61370464045
 20
4709.922514625555
 30
0.0
  0
POINT
  5
63AA
330
4726
100
AcDbEntity
  8
Defpoints
 62
     0
100
AcDbPoint
 10
19772.61370464045
 20
4709.922514625554
 30
0.0
  0
POINT
  5
63AB
330
4726
100
AcDbEntity
  8
Defpoints
 62
     0
100
AcDbPoint
 10
19772.61370464045
 20
4829.922514625554
 30
0.0
  0
ENDBLK
  5
4731
330
4726
100
AcDbEntity
  8
0
100
AcDbBlockEnd
  0
BLOCK
  5
4DE9
330
4DDD
100
AcDbEntity
  8
0
100
AcDbBlockBegin
  2
*D13
 70
     1
 10
0.0
 20
0.0
 30
0.0
  3
*D13
  1

  0
LINE
  5
4E03
330
4DDD
100
AcDbEntity
  8
SP
370
    -2
100
AcDbLine
 10
18587.76627709695
 20
5732.362935220167
 30
0.0
 11
18761.63897953312
 21
5732.362935220167
 31
0.0
  0
LINE
  5
4E04
330
4DDD
100
AcDbEntity
  8
SP
370
    -2
100
AcDbLine
 10
18635.38782536343
 20
5854.362935220169
 30
0.0
 11
18761.63897953312
 21
5854.362935220169
 31
0.0
  0
LINE
  5
4E05
330
4DDD
100
AcDbEntity
  8
SP
370
    -2
100
AcDbLine
 10
18746.63897953312
 20
5694.862935220167
 30
0.0
 11
18746.63897953312
 21
5657.362935220167
 31
0.0
  0
LINE
  5
4E06
330
4DDD
100
AcDbEntity
  8
SP
370
    -2
100
AcDbLine
 10
18746.63897953312
 20
5891.862935220169
 30
0.0
 11
18746.63897953312
 21
6064.362935220168
 31
0.0
  0
LINE
  5
4E07
330
4DDD
100
AcDbEntity
  8
SP
370
    -2
100
AcDbLine
 10
18746.63897953312
 20
5732.362935220167
 30
0.0
 11
18746.63897953312
 21
5854.362935220169
 31
0.0
  0
INSERT
  5
4E08
330
4DDD
100
AcDbEntity
  8
SP
370
    -2
100
AcDbBlockReference
  2
_OPEN
 10
18746.63897953312
 20
5732.362935220167
 30
0.0
 41
37.5
 42
37.5
 43
37.5
 50
90.0
  0
INSERT
  5
4E09
330
4DDD
100
AcDbEntity
  8
SP
370
    -2
100
AcDbBlockReference
  2
_OPEN
 10
18746.63897953312
 20
5854.362935220169
 30
0.0
 41
37.5
 42
37.5
 43
37.5
 50
270.0
  0
MTEXT
  5
4E0A
330
4DDD
100
AcDbEntity
  8
SP
100
AcDbMText
 10
18709.13897953312
 20
5996.862935220172
 30
0.0
 40
45.0
 41
0.0
 71
     5
 72
     1
  1
\A1;122
 11
0.0000000000000001
 21
1.0
 31
0.0
 73
     1
 44
1.0
1001
ACAD
1000
MTEXTBEGIN
1070
    73
1070
     1
1070
    44
1040
1.0
1070
    74
1070
     0
1000
MTEXTEND
  0
POINT
  5
4E0B
330
4DDD
100
AcDbEntity
  8
Defpoints
 62
     0
100
AcDbPoint
 10
18572.76627709694
 20
5732.362935220167
 30
0.0
  0
POINT
  5
4E0C
330
4DDD
100
AcDbEntity
  8
Defpoints
 62
     0
100
AcDbPoint
 10
18620.38782536343
 20
5854.362935220169
 30
0.0
  0
POINT
  5
4E0D
330
4DDD
100
AcDbEntity
  8
Defpoints
 62
     0
100
AcDbPoint
 10
18746.63897953312
 20
5854.362935220169
 30
0.0
  0
ENDBLK
  5
4DEA
330
4DDD
100
AcDbEntity
  8
0
100
AcDbBlockEnd
  0
BLOCK
  5
4DF5
330
4DEB
100
AcDbEntity
  8
0
100
AcDbBlockBegin
  2
*D14
 70
     1
 10
0.0
 20
0.0
 30
0.0
  3
*D14
  1

  0
LINE
  5
4E0E
330
4DEB
100
AcDbEntity
  8
SP
370
    -2
100
AcDbLine
 10
18587.76627709694
 20
5732.362935220167
 30
0.0
 11
18761.63897953312
 21
5732.362935220167
 31
0.0
  0
LINE
  5
4E0F
330
4DEB
100
AcDbEntity
  8
SP
370
    -2
100
AcDbLine
 10
18587.76627709694
 20
5422.362935220169
 30
0.0
 11
18761.63897953312
 21
5422.362935220169
 31
0.0
  0
LINE
  5
4E10
330
4DEB
100
AcDbEntity
  8
SP
370
    -2
100
AcDbLine
 10
18746.63897953312
 20
5694.862935220167
 30
0.0
 11
18746.63897953312
 21
5459.862935220169
 31
0.0
  0
INSERT
  5
4E11
330
4DEB
100
AcDbEntity
  8
SP
370
    -2
100
AcDbBlockReference
  2
_OPEN
 10
18746.63897953312
 20
5732.362935220167
 30
0.0
 41
37.5
 42
37.5
 43
37.5
 50
90.0
  0
INSERT
  5
4E12
330
4DEB
100
AcDbEntity
  8
SP
370
    -2
100
AcDbBlockReference
  2
_OPEN
 10
18746.63897953312
 20
5422.362935220169
 30
0.0
 41
37.5
 42
37.5
 43
37.5
 50
270.0
  0
MTEXT
  5
4E13
330
4DEB
100
AcDbEntity
  8
SP
100
AcDbMText
 10
18709.13897953312
 20
5577.362935220172
 30
0.0
 40
45.0
 41
0.0
 71
     5
 72
     1
  1
\A1;310
 11
0.0000000000000001
 21
1.0
 31
0.0
 73
     1
 44
1.0
1001
ACAD
1000
MTEXTBEGIN
1070
    73
1070
     1
1070
    44
1040
1.0
1070
    74
1070
     0
1000
MTEXTEND
  0
POINT
  5
4E14
330
4DEB
100
AcDbEntity
  8
Defpoints
 62
     0
100
AcDbPoint
 10
18572.76627709694
 20
5732.362935220167
 30
0.0
  0
POINT
  5
4E15
330
4DEB
100
AcDbEntity
  8
Defpoints
 62
     0
100
AcDbPoint
 10
18572.76627709694
 20
5422.362935220169
 30
0.0
  0
POINT
  5
4E16
330
4DEB
100
AcDbEntity
  8
Defpoints
 62
     0
100
AcDbPoint
 10
18746.63897953312
 20
5422.362935220169
 30
0.0
  0
ENDBLK
  5
4DF6
330
4DEB
100
AcDbEntity
  8
0
100
AcDbBlockEnd
  0
BLOCK
  5
4E01
330
4DF7
100
AcDbEntity
  8
0
100
AcDbBlockBegin
  2
*D15
 70
     1
 10
0.0
 20
0.0
 30
0.0
  3
*D15
  1

  0
LINE
  5
4E17
330
4DF7
100
AcDbEntity
  8
SP
370
    -2
100
AcDbLine
 10
18072.76627709694
 20
5407.362935220169
 30
0.0
 11
18072.76627709694
 21
5260.341501466711
 31
0.0
  0
LINE
  5
4E18
330
4DF7
100
AcDbEntity
  8
SP
370
    -2
100
AcDbLine
 10
18572.76627709694
 20
5407.362935220169
 30
0.0
 11
18572.76627709694
 21
5260.341501466711
 31
0.0
  0
LINE
  5
4E19
330
4DF7
100
AcDbEntity
  8
SP
370
    -2
100
AcDbLine
 10
18110.26627709694
 20
5275.34150146671
 30
0.0
 11
18535.26627709694
 21
5275.34150146671
 31
0.0
  0
INSERT
  5
4E1A
330
4DF7
100
AcDbEntity
  8
SP
370
    -2
100
AcDbBlockReference
  2
_OPEN
 10
18072.76627709694
 20
5275.34150146671
 30
0.0
 41
37.5
 42
37.5
 43
37.5
 50
180.0
  0
INSERT
  5
4E1B
330
4DF7
100
AcDbEntity
  8
SP
370
    -2
100
AcDbBlockReference
  2
_OPEN
 10
18572.76627709694
 20
5275.34150146671
 30
0.0
 41
37.5
 42
37.5
 43
37.5
  0
MTEXT
  5
4E1C
330
4DF7
100
AcDbEntity
  8
SP
100
AcDbMText
 10
18322.76627709694
 20
5312.84150146671
 30
0.0
 40
45.0
 41
0.0
 71
     5
 72
     1
  1
\A1;500
 73
     1
 44
1.0
1001
ACAD
1000
MTEXTBEGIN
1070
    73
1070
     1
1070
    44
1040
1.0
1070
    74
1070
     0
1000
MTEXTEND
  0
POINT
  5
4E1D
330
4DF7
100
AcDbEntity
  8
Defpoints
 62
     0
100
AcDbPoint
 10
18072.76627709694
 20
5422.362935220169
 30
0.0
  0
POINT
  5
4E1E
330
4DF7
100
AcDbEntity
  8
Defpoints
 62
     0
100
AcDbPoint
 10
18572.76627709694
 20
5422.362935220169
 30
0.0
  0
POINT
  5
4E1F
330
4DF7
100
AcDbEntity
  8
Defpoints
 62
     0
100
AcDbPoint
 10
18572.76627709694
 20
5275.34150146671
 30
0.0
  0
ENDBLK
  5
4E02
330
4DF7
100
AcDbEntity
  8
0
100
AcDbBlockEnd
  0
BLOCK
  5
5AD5
330
5AD4
100
AcDbEntity
  8
0
100
AcDbBlockBegin
  2
_None
 70
     0
 10
0.0
 20
0.0
 30
0.0
  3
_None
  1

  0
ENDBLK
  5
5AD6
330
5AD4
100
AcDbEntity
  8
0
100
AcDbBlockEnd
  0
BLOCK
  5
5E8F
330
5E85
100
AcDbEntity
  8
0
100
AcDbBlockBegin
  2
*D17
 70
     1
 10
0.0
 20
0.0
 30
0.0
  3
*D17
  1

  0
LINE
  5
623F
330
5E85
100
AcDbEntity
  8
SP
370
    -2
100
AcDbLine
 10
18322.76627709696
 20
3996.265404136125
 30
0.0
 11
18322.76627709696
 21
3926.635294509082
 31
0.0
  0
LINE
  5
6240
330
5E85
100
AcDbEntity
  8
SP
370
    -2
100
AcDbLine
 10
18572.76627709695
 20
4031.635294509082
 30
0.0
 11
18572.76627709695
 21
3926.635294509082
 31
0.0
  0
LINE
  5
6241
330
5E85
100
AcDbEntity
  8
SP
370
    -2
100
AcDbLine
 10
18360.26627709696
 20
3941.635294509082
 30
0.0
 11
18535.26627709695
 21
3941.635294509082
 31
0.0
  0
INSERT
  5
6242
330
5E85
100
AcDbEntity
  8
SP
370
    -2
100
AcDbBlockReference
  2
_OPEN
 10
18322.76627709696
 20
3941.635294509082
 30
0.0
 41
37.5
 42
37.5
 43
37.5
 50
180.0
  0
INSERT
  5
6243
330
5E85
100
AcDbEntity
  8
SP
370
    -2
100
AcDbBlockReference
  2
_OPEN
 10
18572.76627709695
 20
3941.635294509082
 30
0.0
 41
37.5
 42
37.5
 43
37.5
  0
MTEXT
  5
6244
330
5E85
100
AcDbEntity
  8
SP
100
AcDbMText
 10
18447.76627709695
 20
3979.135294509082
 30
0.0
 40
45.0
 41
0.0
 71
     5
 72
     1
  1
\A1;250
 73
     1
 44
1.0
1001
ACAD
1000
MTEXTBEGIN
1070
    73
1070
     1
1070
    44
1040
1.0
1070
    74
1070
     0
1000
MTEXTEND
  0
POINT
  5
6245
330
5E85
100
AcDbEntity
  8
Defpoints
 62
     0
100
AcDbPoint
 10
18322.76627709696
 20
4011.265404136124
 30
0.0
  0
POINT
  5
6246
330
5E85
100
AcDbEntity
  8
Defpoints
 62
     0
100
AcDbPoint
 10
18572.76627709695
 20
4046.635294509082
 30
0.0
  0
POINT
  5
6247
330
5E85
100
AcDbEntity
  8
Defpoints
 62
     0
100
AcDbPoint
 10
18572.76627709695
 20
3941.635294509082
 30
0.0
  0
ENDBLK
  5
5E90
330
5E85
100
AcDbEntity
  8
0
100
AcDbBlockEnd
  0
BLOCK
  5
5E9B
330
5E91
100
AcDbEntity
  8
0
100
AcDbBlockBegin
  2
*D18
 70
     1
 10
0.0
 20
0.0
 30
0.0
  3
*D18
  1

  0
LINE
  5
6224
330
5E91
100
AcDbEntity
  8
SP
370
    -2
100
AcDbLine
 10
18072.76627709696
 20
4031.635294509082
 30
0.0
 11
18072.76627709696
 21
3821.635294509082
 31
0.0
  0
LINE
  5
6225
330
5E91
100
AcDbEntity
  8
SP
370
    -2
100
AcDbLine
 10
18572.76627709695
 20
4031.635294509082
 30
0.0
 11
18572.76627709695
 21
3821.635294509082
 31
0.0
  0
LINE
  5
6226
330
5E91
100
AcDbEntity
  8
SP
370
    -2
100
AcDbLine
 10
18110.26627709696
 20
3836.635294509083
 30
0.0
 11
18535.26627709695
 21
3836.635294509083
 31
0.0
  0
INSERT
  5
6227
330
5E91
100
AcDbEntity
  8
SP
370
    -2
100
AcDbBlockReference
  2
_OPEN
 10
18072.76627709696
 20
3836.635294509083
 30
0.0
 41
37.5
 42
37.5
 43
37.5
 50
180.0
  0
INSERT
  5
6228
330
5E91
100
AcDbEntity
  8
SP
370
    -2
100
AcDbBlockReference
  2
_OPEN
 10
18572.76627709695
 20
3836.635294509083
 30
0.0
 41
37.5
 42
37.5
 43
37.5
  0
MTEXT
  5
6229
330
5E91
100
AcDbEntity
  8
SP
100
AcDbMText
 10
18322.76627709696
 20
3874.135294509083
 30
0.0
 40
45.0
 41
0.0
 71
     5
 72
     1
  1
\A1;500
 73
     1
 44
1.0
1001
ACAD
1000
MTEXTBEGIN
1070
    73
1070
     1
1070
    44
1040
1.0
1070
    74
1070
     0
1000
MTEXTEND
  0
POINT
  5
622A
330
5E91
100
AcDbEntity
  8
Defpoints
 62
     0
100
AcDbPoint
 10
18072.76627709696
 20
4046.635294509082
 30
0.0
  0
POINT
  5
622B
330
5E91
100
AcDbEntity
  8
Defpoints
 62
     0
100
AcDbPoint
 10
18572.76627709695
 20
4046.635294509082
 30
0.0
  0
POINT
  5
622C
330
5E91
100
AcDbEntity
  8
Defpoints
 62
     0
100
AcDbPoint
 10
18572.76627709695
 20
3836.635294509083
 30
0.0
  0
ENDBLK
  5
5E9C
330
5E91
100
AcDbEntity
  8
0
100
AcDbBlockEnd
  0
BLOCK
  5
5EA7
330
5E9D
100
AcDbEntity
  8
0
100
AcDbBlockBegin
  2
*D19
 70
     1
 10
0.0
 20
0.0
 30
0.0
  3
*D19
  1

  0
LINE
  5
621B
330
5E9D
100
AcDbEntity
  8
SP
370
    -2
100
AcDbLine
 10
18322.76627709696
 20
3996.265404136125
 30
0.0
 11
18322.76627709696
 21
3926.635294509082
 31
0.0
  0
LINE
  5
621C
330
5E9D
100
AcDbEntity
  8
SP
370
    -2
100
AcDbLine
 10
18072.76627709696
 20
4031.635294509082
 30
0.0
 11
18072.76627709696
 21
3926.635294509082
 31
0.0
  0
LINE
  5
621D
330
5E9D
100
AcDbEntity
  8
SP
370
    -2
100
AcDbLine
 10
18285.26627709696
 20
3941.635294509082
 30
0.0
 11
18110.26627709696
 21
3941.635294509082
 31
0.0
  0
INSERT
  5
621E
330
5E9D
100
AcDbEntity
  8
SP
370
    -2
100
AcDbBlockReference
  2
_OPEN
 10
18322.76627709696
 20
3941.635294509082
 30
0.0
 41
37.5
 42
37.5
 43
37.5
  0
INSERT
  5
621F
330
5E9D
100
AcDbEntity
  8
SP
370
    -2
100
AcDbBlockReference
  2
_OPEN
 10
18072.76627709696
 20
3941.635294509082
 30
0.0
 41
37.5
 42
37.5
 43
37.5
 50
180.0
  0
MTEXT
  5
6220
330
5E9D
100
AcDbEntity
  8
SP
100
AcDbMText
 10
18197.76627709696
 20
3979.135294509082
 30
0.0
 40
45.0
 41
0.0
 71
     5
 72
     1
  1
\A1;250
 73
     1
 44
1.0
1001
ACAD
1000
MTEXTBEGIN
1070
    73
1070
     1
1070
    44
1040
1.0
1070
    74
1070
     0
1000
MTEXTEND
  0
POINT
  5
6221
330
5E9D
100
AcDbEntity
  8
Defpoints
 62
     0
100
AcDbPoint
 10
18322.76627709696
 20
4011.265404136124
 30
0.0
  0
POINT
  5
6222
330
5E9D
100
AcDbEntity
  8
Defpoints
 62
     0
100
AcDbPoint
 10
18072.76627709696
 20
4046.635294509082
 30
0.0
  0
POINT
  5
6223
330
5E9D
100
AcDbEntity
  8
Defpoints
 62
     0
100
AcDbPoint
 10
18072.76627709696
 20
3941.635294509082
 30
0.0
  0
ENDBLK
  5
5EA8
330
5E9D
100
AcDbEntity
  8
0
100
AcDbBlockEnd
  0
BLOCK
  5
5EB5
330
5EA9
100
AcDbEntity
  8
0
100
AcDbBlockBegin
  2
*D20
 70
     1
 10
0.0
 20
0.0
 30
0.0
  3
*D20
  1

  0
LINE
  5
6234
330
5EA9
100
AcDbEntity
  8
SP
370
    -2
100
AcDbLine
 10
18587.76627709695
 20
4111.635294509082
 30
0.0
 11
18797.76627709694
 21
4111.635294509082
 31
0.0
  0
LINE
  5
6235
330
5EA9
100
AcDbEntity
  8
SP
370
    -2
100
AcDbLine
 10
18587.76627709695
 20
4046.635294509082
 30
0.0
 11
18797.76627709694
 21
4046.635294509082
 31
0.0
  0
LINE
  5
6236
330
5EA9
100
AcDbEntity
  8
SP
370
    -2
100
AcDbLine
 10
18782.76627709694
 20
4149.135294509082
 30
0.0
 11
18782.76627709694
 21
4186.635294509082
 31
0.0
  0
LINE
  5
6237
330
5EA9
100
AcDbEntity
  8
SP
370
    -2
100
AcDbLine
 10
18782.76627709694
 20
4009.135294509081
 30
0.0
 11
18782.76627709694
 21
3864.871539943882
 31
0.0
  0
LINE
  5
6238
330
5EA9
100
AcDbEntity
  8
SP
370
    -2
100
AcDbLine
 10
18782.76627709694
 20
4111.635294509082
 30
0.0
 11
18782.76627709694
 21
4046.635294509082
 31
0.0
  0
INSERT
  5
6239
330
5EA9
100
AcDbEntity
  8
SP
370
    -2
100
AcDbBlockReference
  2
_Dot
 10
18782.76627709694
 20
4111.635294509082
 30
0.0
 41
37.5
 42
37.5
 43
37.5
 50
270.0
  0
INSERT
  5
623A
330
5EA9
100
AcDbEntity
  8
SP
370
    -2
100
AcDbBlockReference
  2
_OPEN
 10
18782.76627709694
 20
4046.635294509082
 30
0.0
 41
37.5
 42
37.5
 43
37.5
 50
90.0
  0
MTEXT
  5
623B
330
5EA9
100
AcDbEntity
  8
SP
100
AcDbMText
 10
18745.26627709694
 20
3918.253417226484
 30
0.0
 40
45.0
 41
0.0
 71
     5
 72
     1
  1
\A1;65
 11
0.0000000000000001
 21
1.0
 31
0.0
 73
     1
 44
1.0
1001
ACAD
1000
MTEXTBEGIN
1070
    73
1070
     1
1070
    44
1040
1.0
1070
    74
1070
     0
1000
MTEXTEND
  0
POINT
  5
623C
330
5EA9
100
AcDbEntity
  8
Defpoints
 62
     0
100
AcDbPoint
 10
18572.76627709695
 20
4111.635294509082
 30
0.0
  0
POINT
  5
623D
330
5EA9
100
AcDbEntity
  8
Defpoints
 62
     0
100
AcDbPoint
 10
18572.76627709695
 20
4046.635294509082
 30
0.0
  0
POINT
  5
623E
330
5EA9
100
AcDbEntity
  8
Defpoints
 62
     0
100
AcDbPoint
 10
18782.76627709694
 20
4046.635294509082
 30
0.0
  0
ENDBLK
  5
5EB6
330
5EA9
100
AcDbEntity
  8
0
100
AcDbBlockEnd
  0
BLOCK
  5
5EC1
330
5EB7
100
AcDbEntity
  8
0
100
AcDbBlockBegin
  2
*D21
 70
     1
 10
0.0
 20
0.0
 30
0.0
  3
*D21
  1

  0
LINE
  5
622D
330
5EB7
100
AcDbEntity
  8
SP
370
    -2
100
AcDbLine
 10
18587.76627709695
 20
4147.635294509082
 30
0.0
 11
18797.76627709694
 21
4147.635294509082
 31
0.0
  0
LINE
  5
622E
330
5EB7
100
AcDbEntity
  8
SP
370
    -2
100
AcDbLine
 10
18587.76627709695
 20
4111.635294509082
 30
0.0
 11
18797.76627709694
 21
4111.635294509082
 31
0.0
  0
LINE
  5
622F
330
5EB7
100
AcDbEntity
  8
SP
370
    -2
100
AcDbLine
 10
18782.76627709694
 20
4147.635294509082
 30
0.0
 11
18782.76627709694
 21
4111.635294509082
 31
0.0
  0
MTEXT
  5
6230
330
5EB7
100
AcDbEntity
  8
SP
100
AcDbMText
 10
18831.67818873329
 20
4122.156269079558
 30
0.0
 40
45.0
 41
0.0
 71
     5
 72
     1
  1
\A1;（36）
 11
0.0000000000000001
 21
1.0
 31
0.0
 73
     1
 44
1.0
1001
ACAD
1000
MTEXTBEGIN
1070
    73
1070
     1
1070
    44
1040
1.0
1070
    74
1070
     0
1000
MTEXTEND
  0
POINT
  5
6231
330
5EB7
100
AcDbEntity
  8
Defpoints
 62
     0
100
AcDbPoint
 10
18572.76627709695
 20
4147.635294509082
 30
0.0
  0
POINT
  5
6232
330
5EB7
100
AcDbEntity
  8
Defpoints
 62
     0
100
AcDbPoint
 10
18572.76627709695
 20
4111.635294509082
 30
0.0
  0
POINT
  5
6233
330
5EB7
100
AcDbEntity
  8
Defpoints
 62
     0
100
AcDbPoint
 10
18782.76627709694
 20
4111.635294509082
 30
0.0
  0
ENDBLK
  5
5EC2
330
5EB7
100
AcDbEntity
  8
0
100
AcDbBlockEnd
  0
BLOCK
  5
60F6
330
60EC
100
AcDbEntity
  8
0
100
AcDbBlockBegin
  2
*D22
 70
     1
 10
0.0
 20
0.0
 30
0.0
  3
*D22
  1

  0
LINE
  5
6248
330
60EC
100
AcDbEntity
  8
SP
370
    -2
100
AcDbLine
 10
19228.61370464045
 20
4031.63529450908
 30
0.0
 11
19228.61370464045
 21
3926.635294509079
 31
0.0
  0
LINE
  5
6249
330
60EC
100
AcDbEntity
  8
SP
370
    -2
100
AcDbLine
 10
19538.61370464045
 20
4031.635294509079
 30
0.0
 11
19538.61370464045
 21
3926.635294509079
 31
0.0
  0
LINE
  5
624A
330
60EC
100
AcDbEntity
  8
SP
370
    -2
100
AcDbLine
 10
19266.11370464045
 20
3941.635294509079
 30
0.0
 11
19501.11370464045
 21
3941.635294509079
 31
0.0
  0
INSERT
  5
624B
330
60EC
100
AcDbEntity
  8
SP
370
    -2
100
AcDbBlockReference
  2
_OPEN
 10
19228.61370464045
 20
3941.635294509079
 30
0.0
 41
37.5
 42
37.5
 43
37.5
 50
180.0
  0
INSERT
  5
624C
330
60EC
100
AcDbEntity
  8
SP
370
    -2
100
AcDbBlockReference
  2
_OPEN
 10
19538.61370464045
 20
3941.635294509079
 30
0.0
 41
37.5
 42
37.5
 43
37.5
  0
MTEXT
  5
624D
330
60EC
100
AcDbEntity
  8
SP
100
AcDbMText
 10
19383.61370464045
 20
3979.135294509079
 30
0.0
 40
45.0
 41
0.0
 71
     5
 72
     1
  1
\A1;310
 73
     1
 44
1.0
1001
ACAD
1000
MTEXTBEGIN
1070
    73
1070
     1
1070
    44
1040
1.0
1070
    74
1070
     0
1000
MTEXTEND
  0
POINT
  5
624E
330
60EC
100
AcDbEntity
  8
Defpoints
 62
     0
100
AcDbPoint
 10
19228.61370464045
 20
4046.63529450908
 30
0.0
  0
POINT
  5
624F
330
60EC
100
AcDbEntity
  8
Defpoints
 62
     0
100
AcDbPoint
 10
19538.61370464045
 20
4046.635294509079
 30
0.0
  0
POINT
  5
6250
330
60EC
100
AcDbEntity
  8
Defpoints
 62
     0
100
AcDbPoint
 10
19538.61370464045
 20
3941.635294509079
 30
0.0
  0
ENDBLK
  5
60F7
330
60EC
100
AcDbEntity
  8
0
100
AcDbBlockEnd
  0
BLOCK
  5
63B6
330
63B5
100
AcDbEntity
  8
0
100
AcDbBlockBegin
  2
*D30
 70
     1
 10
0.0
 20
0.0
 30
0.0
  3
*D30
  1

  0
LINE
  5
63F7
330
63B5
100
AcDbEntity
  8
SP
370
    -2
100
AcDbLine
 10
19660.61370464045
 20
4914.89786701067
 30
0.0
 11
19660.61370464045
 21
4949.922514625554
 31
0.0
  0
LINE
  5
63F8
330
63B5
100
AcDbEntity
  8
SP
370
    -2
100
AcDbLine
 10
19239.61370464045
 20
4601.21619450908
 30
0.0
 11
19239.61370464045
 21
4949.922514625554
 31
0.0
  0
LINE
  5
63F9
330
63B5
100
AcDbEntity
  8
SP
370
    -2
100
AcDbLine
 10
19623.11370464045
 20
4934.922514625554
 30
0.0
 11
19277.11370464045
 21
4934.922514625554
 31
0.0
  0
INSERT
  5
63FA
330
63B5
100
AcDbEntity
  8
SP
370
    -2
100
AcDbBlockReference
  2
_OPEN
 10
19660.61370464045
 20
4934.922514625554
 30
0.0
 41
37.5
 42
37.5
 43
37.5
  0
INSERT
  5
63FB
330
63B5
100
AcDbEntity
  8
SP
370
    -2
100
AcDbBlockReference
  2
_OPEN
 10
19239.61370464045
 20
4934.922514625554
 30
0.0
 41
37.5
 42
37.5
 43
37.5
 50
180.0
  0
MTEXT
  5
63FC
330
63B5
100
AcDbEntity
  8
SP
100
AcDbMText
 10
19450.11370464045
 20
4984.208228911269
 30
0.0
 40
45.0
 41
0.0
 71
     5
 72
     1
  1
\A1;(420)
 73
     1
 44
1.0
1001
ACAD
1000
MTEXTBEGIN
1070
    73
1070
     1
1070
    44
1040
1.0
1070
    74
1070
     0
1000
MTEXTEND
  0
POINT
  5
63FD
330
63B5
100
AcDbEntity
  8
Defpoints
 62
     0
100
AcDbPoint
 10
19660.61370464045
 20
4899.89786701067
 30
0.0
  0
POINT
  5
63FE
330
63B5
100
AcDbEntity
  8
Defpoints
 62
     0
100
AcDbPoint
 10
19239.61370464045
 20
4586.21619450908
 30
0.0
  0
POINT
  5
63FF
330
63B5
100
AcDbEntity
  8
Defpoints
 62
     0
100
AcDbPoint
 10
19239.61370464045
 20
4934.922514625554
 30
0.0
  0
ENDBLK
  5
63B7
330
63B5
100
AcDbEntity
  8
0
100
AcDbBlockEnd
  0
BLOCK
  5
63C3
330
63C2
100
AcDbEntity
  8
0
100
AcDbBlockBegin
  2
*D31
 70
     1
 10
0.0
 20
0.0
 30
0.0
  3
*D31
  1

  0
LINE
  5
63E1
330
63C2
100
AcDbEntity
  8
SP
370
    -2
100
AcDbLine
 10
19538.61370464045
 20
4031.635294509079
 30
0.0
 11
19538.61370464045
 21
3926.635294509079
 31
0.0
  0
LINE
  5
63E2
330
63C2
100
AcDbEntity
  8
SP
370
    -2
100
AcDbLine
 10
19660.61370464045
 20
4083.209413630673
 30
0.0
 11
19660.61370464045
 21
3926.635294509079
 31
0.0
  0
LINE
  5
63E3
330
63C2
100
AcDbEntity
  8
SP
370
    -2
100
AcDbLine
 10
19501.11370464045
 20
3941.635294509079
 30
0.0
 11
19463.61370464045
 21
3941.635294509079
 31
0.0
  0
LINE
  5
63E4
330
63C2
100
AcDbEntity
  8
SP
370
    -2
100
AcDbLine
 10
19698.11370464045
 20
3941.635294509079
 30
0.0
 11
19735.61370464045
 21
3941.635294509079
 31
0.0
  0
MTEXT
  5
63E5
330
63C2
100
AcDbEntity
  8
SP
100
AcDbMText
 10
19784.17342591977
 20
3984.468739487617
 30
0.0
 40
45.0
 41
0.0
 71
     5
 72
     1
  1
\A1;122
 73
     1
 44
1.0
1001
ACAD
1000
MTEXTBEGIN
1070
    73
1070
     1
1070
    44
1040
1.0
1070
    74
1070
     0
1000
MTEXTEND
  0
LINE
  5
63E6
330
63C2
100
AcDbEntity
  8
SP
370
    -2
100
AcDbLine
 10
19538.61370464045
 20
3941.635294509079
 30
0.0
 11
19660.61370464045
 21
3941.635294509079
 31
0.0
  0
INSERT
  5
63E7
330
63C2
100
AcDbEntity
  8
SP
370
    -2
100
AcDbBlockReference
  2
_OPEN
 10
19538.61370464045
 20
3941.635294509079
 30
0.0
 41
37.5
 42
37.5
 43
37.5
  0
INSERT
  5
63E8
330
63C2
100
AcDbEntity
  8
SP
370
    -2
100
AcDbBlockReference
  2
_OPEN
 10
19660.61370464045
 20
3941.635294509079
 30
0.0
 41
37.5
 42
37.5
 43
37.5
 50
180.0
  0
POINT
  5
63E9
330
63C2
100
AcDbEntity
  8
Defpoints
 62
     0
100
AcDbPoint
 10
19538.61370464045
 20
4046.635294509079
 30
0.0
  0
POINT
  5
63EA
330
63C2
100
AcDbEntity
  8
Defpoints
 62
     0
100
AcDbPoint
 10
19660.61370464045
 20
4098.209413630673
 30
0.0
  0
POINT
  5
63EB
330
63C2
100
AcDbEntity
  8
Defpoints
 62
     0
100
AcDbPoint
 10
19660.61370464045
 20
3941.635294509079
 30
0.0
  0
ENDBLK
  5
63C4
330
63C2
100
AcDbEntity
  8
0
100
AcDbBlockEnd
  0
ENDSEC
  0
SECTION
  2
ENTITIES
  0
LINE
  5
2CF0
330
19
100
AcDbEntity
  8
4
100
AcDbLine
 10
17345.59771503509
 20
2822.809791742034
 30
0.0
 11
17345.59771503509
 21
7247.809791742034
 31
0.0
  0
LINE
  5
2CF1
330
19
100
AcDbEntity
  8
4
100
AcDbLine
 10
20495.59771503509
 20
7247.809791742034
 30
0.0
 11
20495.59771503509
 21
2822.809791742034
 31
0.0
  0
LINE
  5
2CF2
330
19
100
AcDbEntity
  8
4
100
AcDbLine
 10
20495.59771503509
 20
2822.809791742034
 30
0.0
 11
17345.59771503509
 21
2822.809791742034
 31
0.0
  0
TEXT
  5
2D01
330
19
100
AcDbEntity
  8
4
100
AcDbText
 10
18825.57945841331
 20
3298.549168161949
 30
0.0
 40
75.0
  1
MF＃2-7
100
AcDbText
  0
TEXT
  5
2D03
330
19
100
AcDbEntity
  8
4
100
AcDbText
 10
18812.11583326659
 20
3456.667445178387
 30
0.0
 40
75.0
  1
ミツヤ多翼送風機
100
AcDbText
  0
LINE
  5
2D04
330
19
100
AcDbEntity
  8
4
100
AcDbLine
 10
18020.59771503509
 20
3572.809791742034
 30
0.0
 11
19820.59771503509
 21
3572.809791742034
 31
0.0
  0
LINE
  5
2D05
330
19
100
AcDbEntity
  8
4
100
AcDbLine
 10
18020.59771503509
 20
3422.809791742034
 30
0.0
 11
19820.59771503509
 21
3422.809791742034
 31
0.0
  0
LINE
  5
2D06
330
19
100
AcDbEntity
  8
4
100
AcDbLine
 10
18020.59771503509
 20
3272.809791742034
 30
0.0
 11
19820.59771503509
 21
3272.809791742034
 31
0.0
  0
LINE
  5
2D09
330
19
100
AcDbEntity
  8
4
100
AcDbLine
 10
18020.59771503509
 20
3572.809791742034
 30
0.0
 11
18020.59771503509
 21
3272.809791742034
 31
0.0
  0
TEXT
  5
2D0A
330
19
100
AcDbEntity
  8
4
100
AcDbText
 10
18074.98487407229
 20
3305.27752684005
 30
0.0
 40
75.0
  1
機器型番
100
AcDbText
  0
TEXT
  5
2D0B
330
19
100
AcDbEntity
  8
4
100
AcDbText
 10
18078.35083630545
 20
3470.124330541953
 30
0.0
 40
75.0
  1
機器名称
100
AcDbText
  0
LINE
  5
2D0C
330
19
100
AcDbEntity
  8
4
100
AcDbLine
 10
18770.59771503509
 20
3572.809791742034
 30
0.0
 11
18770.59771503509
 21
3272.809791742034
 31
0.0
  0
LINE
  5
2D0D
330
19
100
AcDbEntity
  8
4
100
AcDbLine
 10
19820.59771503509
 20
3572.809791742034
 30
0.0
 11
19820.59771503509
 21
3272.809791742034
 31
0.0
  0
TEXT
  5
2D0E
330
19
100
AcDbEntity
  8
4
100
AcDbText
 10
17818.48108722505
 20
6396.289008061549
 30
0.0
 40
80.99999999999999
  1
左回転右横向
100
AcDbText
  0
LINE
  5
2D0F
330
19
100
AcDbEntity
  8
4
100
AcDbLine
 10
17345.59771503509
 20
7247.809791742034
 30
0.0
 11
20495.59771503509
 21
7247.809791742034
 31
0.0
  0
LINE
  5
2D10
330
19
100
AcDbEntity
  8
4
100
AcDbLine
 10
17720.59771503509
 20
6826.922923139242
 30
0.0
 11
20120.5977150351
 21
6826.922923139242
 31
0.0
  0
LINE
  5
2D11
330
19
100
AcDbEntity
  8
4
100
AcDbLine
 10
17720.59771503509
 20
6526.922923139242
 30
0.0
 11
20120.5977150351
 21
6526.922923139242
 31
0.0
  0
LINE
  5
2E4B
330
19
100
AcDbEntity
  8
4
100
AcDbLine
 10
17720.59771503509
 20
6826.922923139242
 30
0.0
 11
17720.59771503509
 21
6526.922923139242
 31
0.0
  0
LINE
  5
2F6C
330
19
100
AcDbEntity
  8
4
100
AcDbLine
 10
20120.5977150351
 20
6844.705166430135
 30
0.0
 11
19506.52384857489
 21
6844.705166430135
 31
0.0
  0
LINE
  5
2F6D
330
19
100
AcDbEntity
  8
4
100
AcDbLine
 10
19506.52384857489
 20
7002.788184066663
 30
0.0
 11
20120.5977150351
 21
7002.788184066663
 31
0.0
  0
TEXT
  5
2F6F
330
19
100
AcDbEntity
  8
4
100
AcDbText
 10
18077.69207095238
 20
6623.63125604098
 30
0.0
 40
108.0
  1
遠心式片吸込直動形多翼ファン
100
AcDbText
  0
LINE
  5
2F7D
330
19
100
AcDbEntity
  8
4
100
AcDbLine
 10
19506.52384857489
 20
6844.705166430135
 30
0.0
 11
19506.52384857489
 21
7002.788184066663
 31
0.0
  0
TEXT
  5
2F7E
330
19
100
AcDbEntity
  8
4
100
AcDbText
 10
19549.05205390902
 20
6881.901413984997
 30
0.0
 40
84.00000000000002
  1
No.
100
AcDbText
  0
LINE
  5
2F7F
330
19
100
AcDbEntity
  8
4
100
AcDbLine
 10
20120.5977150351
 20
6826.922923139242
 30
0.0
 11
20120.5977150351
 21
6526.922923139242
 31
0.0
  0
LINE
  5
2F80
330
19
100
AcDbEntity
  8
4
100
AcDbLine
 10
20120.5977150351
 20
7002.788184066663
 30
0.0
 11
20120.5977150351
 21
6844.705166430135
 31
0.0
  0
LINE
  5
2F81
330
19
100
AcDbEntity
  8
4
100
AcDbLine
 10
20495.59771503509
 20
7247.809791742034
 30
0.0
 11
20495.59771503509
 21
7247.809791742034
 31
0.0
  0
LINE
  5
39EE
330
19
100
AcDbEntity
  8
2
100
AcDbLine
 10
18322.76627709694
 20
4011.265404136124
 30
0.0
 11
18322.76627709694
 21
4775.633820463164
 31
0.0
  0
LWPOLYLINE
  5
39EF
330
19
100
AcDbEntity
  8
CT
100
AcDbPolyline
 90
        2
 70
     0
 43
0.0
 10
18577.82944031193
 20
4514.135294509086
 10
18565.56113002799
 20
4514.135294509085
  0
LWPOLYLINE
  5
39F0
330
19
100
AcDbEntity
  8
CT
100
AcDbPolyline
 90
        2
 70
     0
 43
0.0
 10
18577.82944031194
 20
4176.135294509085
 10
18565.561130028
 20
4176.135294509085
  0
LWPOLYLINE
  5
3A02
330
19
100
AcDbEntity
  8
1
100
AcDbPolyline
 90
        2
 70
     0
 43
0.0
 10
18117.76627709694
 20
4641.885099501154
 42
-0.1174780416237573
 10
18209.78801879642
 20
4707.63529450908
 42
-0.3153658436290411
  0
LWPOLYLINE
  5
3A03
330
19
100
AcDbEntity
  8
1
100
AcDbPolyline
 90
        3
 70
     0
 43
0.0
 10
18111.97369970403
 20
4291.485007046475
 42
-0.2162335382726867
 10
18053.89878728727
 20
4532.436131657055
 42
-0.1298839697351506
 10
18110.18382132425
 20
4648.404790019522
 42
-0.1298839697351506
  0
LWPOLYLINE
  5
3A04
330
19
100
AcDbEntity
  8
1
100
AcDbPolyline
 90
        3
 70
     0
 43
0.0
 10
18209.78801879641
 20
4707.63529450908
 42
-0.1343280102757561
 10
18337.53630237723
 20
4721.999138718286
 42
-0.3163019945347412
 10
18506.14346363936
 20
4559.004927557354
 42
-0.3153658436290411
  0
LWPOLYLINE
  5
3A05
330
19
100
AcDbEntity
  8
1
100
AcDbPolyline
 90
        3
 70
     0
 43
0.0
 10
18206.08786299715
 20
4716.925549998637
 42
-0.1343314877425494
 10
18339.0844060907
 20
4731.878581335279
 42
-0.3163064660587118
 10
18515.96419721488
 20
4560.889918814261
 42
-0.3163064660587118
  0
LINE
  5
3A07
330
19
100
AcDbEntity
  8
2
100
AcDbLine
 10
18627.70978694451
 20
4502.635294509082
 30
0.0
 11
18033.46425159329
 21
4502.635294509082
 31
0.0
  0
CIRCLE
  5
3A0A
330
19
100
AcDbEntity
  8
CT
100
AcDbCircle
 10
18322.76627709695
 20
4502.635294509082
 30
0.0
 40
169.0
  0
LWPOLYLINE
  5
3A0B
330
19
100
AcDbEntity
  8
1
100
AcDbPolyline
 90
        3
 70
     0
 43
0.0
 10
18552.76627709695
 20
4177.635294509084
 10
18348.25410035826
 20
4177.635294509079
 42
-0.2269714708976296
 10
18112.05555736152
 20
4291.381476624911
  0
LWPOLYLINE
  5
3A0C
330
19
100
AcDbEntity
  8
1
100
AcDbPolyline
 90
        3
 70
     0
 43
0.0
 10
18572.76627709695
 20
4187.635294509084
 10
18348.26627709695
 20
4187.635294509079
 42
-0.2269607506063405
 10
18119.85874657309
 20
4297.63529450908
 42
-0.129402372482195
  0
ARC
  5
3A0D
330
19
100
AcDbEntity
  8
1
100
AcDbCircle
 10
18322.76627709695
 20
4502.635294509082
 30
0.0
 40
100.8
100
AcDbArc
 50
285.4276999999997
 51
180.0
  0
ARC
  5
3A0E
330
19
100
AcDbEntity
  8
1
100
AcDbCircle
 10
18322.76627709695
 20
4502.635294509082
 30
0.0
 40
100.8
100
AcDbArc
 50
180.0
 51
254.2028999999989
  0
LINE
  5
3A0F
330
19
100
AcDbEntity
  8
CT
100
AcDbLine
 10
18276.82589659124
 20
4331.183460342776
 30
0.0
 11
18280.93533237629
 21
4346.520083483043
 31
0.0
  0
LINE
  5
3A11
330
19
100
AcDbEntity
  8
CT
100
AcDbLine
 10
18368.70665760263
 20
4331.183460342773
 30
0.0
 11
18364.59722181757
 21
4346.52008348304
 31
0.0
  0
LWPOLYLINE
  5
3A12
330
19
100
AcDbEntity
  8
1
100
AcDbPolyline
 90
        3
 70
     0
 43
0.0
 10
18119.85874657309
 20
4297.63529450908
 42
-0.2162148363065116
 10
18063.7160658203
 20
4530.533111317133
 42
-0.1298622998199493
 10
18117.76627709694
 20
4641.885099501155
 42
-0.3153658436290411
  0
LINE
  5
3A14
330
19
100
AcDbEntity
  8
1
100
AcDbLine
 10
18376.21667709695
 20
4417.184994509081
 30
0.0
 11
18382.76627709695
 21
4410.635294509082
 31
0.0
  0
CIRCLE
  5
3A17
330
19
100
AcDbEntity
  8
1
100
AcDbCircle
 10
18486.00774173979
 20
4458.89487588675
 30
0.0
 40
4.0
  0
LINE
  5
3A18
330
19
100
AcDbEntity
  8
CT
100
AcDbLine
 10
18494.21811126324
 20
4456.694914003377
 30
0.0
 11
18478.88148812298
 21
4460.804349788433
 31
0.0
  0
CIRCLE
  5
3A19
330
19
100
AcDbEntity
  8
1
100
AcDbCircle
 10
18442.26732311746
 20
4383.134248488551
 30
0.0
 40
4.0
  0
LINE
  5
3A1A
330
19
100
AcDbEntity
  8
CT
100
AcDbLine
 10
18448.27773075755
 20
4377.123840848464
 30
0.0
 11
18437.05054340233
 21
4388.351028203676
 31
0.0
  0
LINE
  5
3A1B
330
19
100
AcDbEntity
  8
1
100
AcDbLine
 10
18420.76627709695
 20
4414.635294509081
 30
0.0
 11
18384.76627709695
 21
4414.635294509081
 31
0.0
  0
LINE
  5
3A1C
330
19
100
AcDbEntity
  8
1
100
AcDbLine
 10
18422.76627709695
 20
4402.635294509082
 30
0.0
 11
18382.76627709695
 21
4402.635294509082
 31
0.0
  0
LINE
  5
3A1D
330
19
100
AcDbEntity
  8
1
100
AcDbLine
 10
18421.87407709695
 20
4414.303394509082
 30
0.0
 11
18405.47327709695
 21
4444.965394509082
 31
0.0
  0
LINE
  5
3A1E
330
19
100
AcDbEntity
  8
1
100
AcDbLine
 10
18422.76627709695
 20
4402.635294509082
 30
0.0
 11
18422.76627709695
 21
4412.635294509082
 31
0.0
  0
ARC
  5
3A1F
330
19
100
AcDbEntity
  8
1
100
AcDbCircle
 10
18420.76627709695
 20
4412.635294509082
 30
0.0
 40
2.0
100
AcDbArc
 50
0.000000000000007
 51
90.0
  0
LINE
  5
3A20
330
19
100
AcDbEntity
  8
1
100
AcDbLine
 10
18408.76627709695
 20
4414.635294509081
 30
0.0
 11
18408.76627709695
 21
4402.635294509082
 31
0.0
  0
LINE
  5
3A21
330
19
100
AcDbEntity
  8
1
100
AcDbLine
 10
18396.76627709695
 20
4402.635294509082
 30
0.0
 11
18396.76627709695
 21
4414.635294509081
 31
0.0
  0
LINE
  5
3A22
330
19
100
AcDbEntity
  8
1
100
AcDbLine
 10
18382.76627709695
 20
4402.635294509082
 30
0.0
 11
18382.76627709695
 21
4412.635294509082
 31
0.0
  0
ARC
  5
3A23
330
19
100
AcDbEntity
  8
1
100
AcDbCircle
 10
18384.76627709695
 20
4412.635294509082
 30
0.0
 40
2.0
100
AcDbArc
 50
90.0
 51
180.0
  0
ARC
  5
3A24
330
19
100
AcDbEntity
  8
1
100
AcDbCircle
 10
18391.32267709695
 20
4417.635294509081
 30
0.0
 40
3.0
100
AcDbArc
 50
225.0
 51
270.0
  0
LINE
  5
3A25
330
19
100
AcDbEntity
  8
1
100
AcDbLine
 10
18382.96877709695
 20
4421.746494509082
 30
0.0
 11
18389.20127709695
 21
4415.513994509081
 31
0.0
  0
LINE
  5
3A26
330
19
100
AcDbEntity
  8
CT
100
AcDbLine
 10
18402.76627709695
 20
4416.015794509081
 30
0.0
 11
18402.76627709695
 21
4398.668694509082
 31
0.0
  0
LINE
  5
3A27
330
19
100
AcDbEntity
  8
1
100
AcDbLine
 10
18224.76627709695
 20
4414.635294509081
 30
0.0
 11
18260.76627709695
 21
4414.635294509081
 31
0.0
  0
LINE
  5
3A28
330
19
100
AcDbEntity
  8
1
100
AcDbLine
 10
18222.76627709695
 20
4402.635294509082
 30
0.0
 11
18262.76627709695
 21
4402.635294509082
 31
0.0
  0
CIRCLE
  5
3A29
330
19
100
AcDbEntity
  8
1
100
AcDbCircle
 10
18279.02585847461
 20
4339.393829866234
 30
0.0
 40
4.0
  0
ARC
  5
3A2A
330
19
100
AcDbEntity
  8
1
100
AcDbCircle
 10
18254.20987709695
 20
4417.635294509081
 30
0.0
 40
3.0
100
AcDbArc
 50
270.0
 51
315.0
  0
LINE
  5
3A2B
330
19
100
AcDbEntity
  8
1
100
AcDbLine
 10
18262.18417709695
 20
4421.366994509081
 30
0.0
 11
18256.33127709695
 21
4415.513994509081
 31
0.0
  0
LINE
  5
3A2C
330
19
100
AcDbEntity
  8
1
100
AcDbLine
 10
18262.76627709695
 20
4402.635294509082
 30
0.0
 11
18262.76627709695
 21
4412.635294509082
 31
0.0
  0
ARC
  5
3A2D
330
19
100
AcDbEntity
  8
1
100
AcDbCircle
 10
18260.76627709695
 20
4412.635294509082
 30
0.0
 40
2.0
100
AcDbArc
 50
0.000000000000007
 51
90.0
  0
LINE
  5
3A2E
330
19
100
AcDbEntity
  8
1
100
AcDbLine
 10
18269.01967709695
 20
4416.888794509082
 30
0.0
 11
18262.76627709695
 21
4410.635294509082
 31
0.0
  0
LINE
  5
3A2F
330
19
100
AcDbEntity
  8
1
100
AcDbLine
 10
18223.85707709695
 20
4414.674794509082
 30
0.0
 11
18239.97577709695
 21
4444.809094509081
 31
0.0
  0
LINE
  5
3A30
330
19
100
AcDbEntity
  8
1
100
AcDbLine
 10
18248.76627709695
 20
4402.635294509082
 30
0.0
 11
18248.76627709695
 21
4414.635294509081
 31
0.0
  0
LINE
  5
3A31
330
19
100
AcDbEntity
  8
1
100
AcDbLine
 10
18222.76627709695
 20
4402.635294509082
 30
0.0
 11
18222.76627709695
 21
4412.635294509082
 31
0.0
  0
LINE
  5
3A32
330
19
100
AcDbEntity
  8
1
100
AcDbLine
 10
18236.76627709695
 20
4414.635294509081
 30
0.0
 11
18236.76627709695
 21
4402.635294509082
 31
0.0
  0
ARC
  5
3A33
330
19
100
AcDbEntity
  8
1
100
AcDbCircle
 10
18224.76627709695
 20
4412.635294509082
 30
0.0
 40
2.0
100
AcDbArc
 50
90.0
 51
180.0
  0
LINE
  5
3A34
330
19
100
AcDbEntity
  8
CT
100
AcDbLine
 10
18242.76627709695
 20
4416.015794509081
 30
0.0
 11
18242.76627709695
 21
4398.668694509082
 31
0.0
  0
CIRCLE
  5
3A35
330
19
100
AcDbEntity
  8
1
100
AcDbCircle
 10
18203.26523107641
 20
4383.134248488562
 30
0.0
 40
4.0
  0
LINE
  5
3A36
330
19
100
AcDbEntity
  8
CT
100
AcDbLine
 10
18197.25482343633
 20
4377.123840848477
 30
0.0
 11
18208.48201079154
 21
4388.351028203689
 31
0.0
  0
CIRCLE
  5
3A37
330
19
100
AcDbEntity
  8
1
100
AcDbCircle
 10
18366.50669571926
 20
4339.393829866231
 30
0.0
 40
4.0
  0
LINE
  5
3A38
330
19
100
AcDbEntity
  8
1
100
AcDbLine
 10
18295.14857709695
 20
4405.635294509082
 30
0.0
 11
18350.03567709695
 21
4405.635294509082
 31
0.0
  0
LINE
  5
3A39
330
19
100
AcDbEntity
  8
FUTO
100
AcDbLine
 10
18571.56627709695
 20
4166.135294509085
 30
0.0
 11
18571.56627709694
 21
4524.135294509084
 31
0.0
  0
LINE
  5
3A3A
330
19
100
AcDbEntity
  8
FUTO
100
AcDbLine
 10
18572.76627709694
 20
4524.135294509085
 30
0.0
 11
18572.76627709695
 21
4166.135294509086
 31
0.0
  0
LINE
  5
3A3B
330
19
100
AcDbEntity
  8
1
100
AcDbLine
 10
18552.76627709694
 20
4205.035294509086
 30
0.0
 11
18552.76627709694
 21
4486.235294509086
 31
0.0
  0
LINE
  5
3A3C
330
19
100
AcDbEntity
  8
FUTO
100
AcDbLine
 10
18572.76627709695
 20
4166.135294509086
 30
0.0
 11
18571.56627709695
 21
4166.135294509085
 31
0.0
  0
LINE
  5
3A3D
330
19
100
AcDbEntity
  8
FUTO
100
AcDbLine
 10
18552.76627709695
 20
4177.635294509084
 30
0.0
 11
18552.76627709695
 21
4187.635294509084
 31
0.0
  0
ARC
  5
3A3E
330
19
100
AcDbEntity
  8
1
100
AcDbCircle
 10
18567.76627709695
 20
4188.635294509085
 30
0.0
 40
1.0
100
AcDbArc
 50
270.0
 51
53.13010235419508
  0
LINE
  5
3A3F
330
19
100
AcDbEntity
  8
1
100
AcDbLine
 10
18568.46627709695
 20
4189.335294509085
 30
0.0
 11
18552.76627709694
 21
4205.035294509086
 31
0.0
  0
CIRCLE
  5
3A41
330
19
100
AcDbEntity
  8
1
100
AcDbCircle
 10
18486.00774173979
 20
4546.375713131399
 30
0.0
 40
4.0
  0
LINE
  5
3A42
330
19
100
AcDbEntity
  8
CT
100
AcDbLine
 10
18494.21811126325
 20
4548.575675014771
 30
0.0
 11
18478.88148812298
 21
4544.466239229715
 31
0.0
  0
POINT
  5
3A44
330
19
100
AcDbEntity
  8
1
100
AcDbPoint
 10
18572.76627709696
 20
4345.13529450908
 30
0.0
  0
POINT
  5
3A45
330
19
100
AcDbEntity
  8
1
100
AcDbPoint
 10
18572.76627709696
 20
4345.13529450908
 30
0.0
  0
CIRCLE
  5
3A46
330
19
100
AcDbEntity
  8
1
100
AcDbCircle
 10
18442.26732311748
 20
4622.136340529601
 30
0.0
 40
4.0
  0
LINE
  5
3A47
330
19
100
AcDbEntity
  8
CT
100
AcDbLine
 10
18448.27773075756
 20
4628.146748169687
 30
0.0
 11
18437.05054340235
 21
4616.919560814475
 31
0.0
  0
LWPOLYLINE
  5
3A48
330
19
100
AcDbEntity
  8
1
100
AcDbPolyline
 90
        2
 70
     0
 43
0.0
 10
18527.76627709694
 20
4535.189709801488
 42
-0.0941668855597806
 10
18515.85487278859
 20
4561.395461599989
 42
-0.1987366729981355
  0
LWPOLYLINE
  5
3A49
330
19
100
AcDbEntity
  8
1
100
AcDbPolyline
 90
        2
 70
     0
 43
0.0
 10
18527.76627709694
 20
4519.490386162657
 42
-0.1315967463597435
 10
18506.13873734004
 20
4559.029724517096
 42
-0.2200089805681688
  0
LWPOLYLINE
  5
3A4A
330
19
100
AcDbEntity
  8
FUTO
100
AcDbPolyline
 90
        2
 70
     0
 43
0.0
 10
18572.76627709694
 20
4524.135294509085
 10
18571.56627709694
 20
4524.135294509085
  0
ARC
  5
3A4B
330
19
100
AcDbEntity
  8
1
100
AcDbCircle
 10
18567.76627709694
 20
4502.635294509085
 30
0.0
 40
1.0
100
AcDbArc
 50
306.8698976458049
 51
90.0
  0
POINT
  5
3A4C
330
19
100
AcDbEntity
  8
1
100
AcDbPoint
 10
18572.76627709694
 20
4502.635294509085
 30
0.0
  0
LINE
  5
3A4D
330
19
100
AcDbEntity
  8
1
100
AcDbLine
 10
18552.76627709694
 20
4503.63529450909
 30
0.0
 11
18552.76627709694
 21
4506.955104635922
 31
0.0
  0
LINE
  5
3A4E
330
19
100
AcDbEntity
  8
1
100
AcDbLine
 10
18572.76627709694
 20
4503.635294509084
 30
0.0
 11
18551.76627709694
 21
4503.635294509084
 31
0.0
  0
LINE
  5
3A4F
330
19
100
AcDbEntity
  8
1
100
AcDbLine
 10
18568.46627709694
 20
4501.935294509087
 30
0.0
 11
18552.76627709694
 21
4486.235294509088
 31
0.0
  0
LWPOLYLINE
  5
3A50
330
19
100
AcDbEntity
  8
1
100
AcDbPolyline
 90
        3
 70
     0
 43
0.0
 10
18551.76627709694
 20
4503.635294509084
 42
-0.101266720201501
 10
18546.26686661018
 20
4504.760649492694
 42
-0.0681921917069782
 10
18527.76627709694
 20
4519.490386162657
 42
-0.2200089805681688
  0
ARC
  5
3A51
330
19
100
AcDbEntity
  8
1
100
AcDbCircle
 10
18542.76627709694
 20
4506.955104635916
 30
0.0
 40
10.0
100
AcDbArc
 50
0.000000000000007
 51
56.5581282105191
  0
LWPOLYLINE
  5
3A52
330
19
100
AcDbEntity
  8
1
100
AcDbPolyline
 90
        2
 70
     0
 43
0.0
 10
18548.27718410038
 20
4515.299558123077
 42
-0.0934525219043797
 10
18527.76627709694
 20
4535.189709801488
 42
-0.1987366729981355
  0
CIRCLE
  5
3A53
330
19
100
AcDbEntity
  8
1
100
AcDbCircle
 10
18279.02585847462
 20
4665.876759151934
 30
0.0
 40
4.0
  0
LINE
  5
3A54
330
19
100
AcDbEntity
  8
CT
100
AcDbLine
 10
18276.82589659125
 20
4674.087128675392
 30
0.0
 11
18280.93533237631
 21
4658.750505535125
 31
0.0
  0
CIRCLE
  5
3A55
330
19
100
AcDbEntity
  8
1
100
AcDbCircle
 10
18203.26523107642
 20
4622.136340529612
 30
0.0
 40
4.0
  0
LINE
  5
3A56
330
19
100
AcDbEntity
  8
CT
100
AcDbLine
 10
18197.25482343634
 20
4628.146748169698
 30
0.0
 11
18208.48201079155
 21
4616.919560814486
 31
0.0
  0
CIRCLE
  5
3A57
330
19
100
AcDbEntity
  8
1
100
AcDbCircle
 10
18366.50669571927
 20
4665.87675915193
 30
0.0
 40
4.0
  0
LINE
  5
3A58
330
19
100
AcDbEntity
  8
CT
100
AcDbLine
 10
18368.70665760265
 20
4674.087128675387
 30
0.0
 11
18364.59722181759
 21
4658.750505535119
 31
0.0
  0
LWPOLYLINE
  5
3A59
330
19
100
AcDbEntity
  8
1
100
AcDbPolyline
 90
        2
 70
     0
 43
0.0
 10
18110.22529349038
 20
4648.452714459845
 42
-0.1174780416237576
 10
18206.01841804639
 20
4716.897589591048
 42
-0.1174780416237576
  0
CIRCLE
  5
3A5C
330
19
100
AcDbEntity
  8
1
100
AcDbCircle
 10
18159.52481245409
 20
4458.894875886764
 30
0.0
 40
4.0
  0
LINE
  5
3A5D
330
19
100
AcDbEntity
  8
CT
100
AcDbLine
 10
18151.31444293063
 20
4456.694914003391
 30
0.0
 11
18166.6510660709
 21
4460.804349788448
 31
0.0
  0
CIRCLE
  5
3A5F
330
19
100
AcDbEntity
  8
1
100
AcDbCircle
 10
18159.52481245409
 20
4546.375713131416
 30
0.0
 40
4.0
  0
LINE
  5
3A60
330
19
100
AcDbEntity
  8
CT
100
AcDbLine
 10
18151.31444293064
 20
4548.575675014786
 30
0.0
 11
18166.6510660709
 21
4544.466239229732
 31
0.0
  0
DIMENSION
  5
3F0E
330
19
100
AcDbEntity
  8
SP
100
AcDbDimension
  2
*D3
 10
18058.53499546311
 20
4838.890536191989
 30
0.0
 11
18190.65063628003
 21
4876.39053619199
 31
0.0
 70
    32
 71
     5
 42
264.2312816338344
  3
GOD
100
AcDbAlignedDimension
 13
18322.76627709694
 23
4775.633820463164
 33
0.0
 14
18058.53499546311
 24
4475.964871696695
 34
0.0
100
AcDbRotatedDimension
1001
ACAD
1000
DSTYLE
1002
{
1070
   271
1070
     0
1002
}
  0
DIMENSION
  5
3F26
330
19
100
AcDbEntity
  8
SP
100
AcDbDimension
  2
*D4
 10
18572.76627709694
 20
4838.890536191989
 30
0.0
 11
18447.76627709694
 21
4876.39053619199
 31
0.0
 70
    32
 71
     5
 42
249.9999999999964
  3
GOD
100
AcDbAlignedDimension
 13
18322.76627709694
 23
4775.633820463164
 33
0.0
 14
18572.76627709694
 24
4524.135294509085
 34
0.0
100
AcDbRotatedDimension
  0
DIMENSION
  5
3F3E
330
19
100
AcDbEntity
  8
SP
100
AcDbDimension
  2
*D5
 10
18677.76627709695
 20
4187.635294509084
 30
0.0
 11
18640.26627709695
 21
4345.135294509087
 31
0.0
 70
    32
 71
     5
 42
314.9999999999973
  3
GOD
100
AcDbAlignedDimension
 13
18627.70978694451
 23
4502.635294509082
 33
0.0
 14
18572.76627709695
 24
4187.635294509084
 34
0.0
 50
90.0
100
AcDbRotatedDimension
  0
DIMENSION
  5
3F4B
330
19
100
AcDbEntity
  8
SP
100
AcDbDimension
  2
*D6
 10
18782.76627709694
 20
4502.635294509082
 30
0.0
 11
18745.26627709694
 21
4325.135294509085
 31
0.0
 70
    32
 71
     5
 42
355.0
  3
GOD
100
AcDbAlignedDimension
 13
18572.76627709694
 23
4147.635294509082
 33
0.0
 14
18627.70978694451
 24
4502.635294509082
 34
0.0
 50
90.0
100
AcDbRotatedDimension
  0
DIMENSION
  5
3F58
330
19
100
AcDbEntity
  8
SP
100
AcDbDimension
  2
*D7
 10
18782.76627709694
 20
4724.922514625553
 30
0.0
 11
18745.26627709694
 21
4613.778904567321
 31
0.0
 70
    32
 71
     5
 42
222.2872201164709
  3
GOD
100
AcDbAlignedDimension
 13
18627.70978694451
 23
4502.635294509082
 33
0.0
 14
18299.91257323213
 24
4724.922514625554
 34
0.0
 50
90.0
100
AcDbRotatedDimension
1001
ACAD
1000
DSTYLE
1002
{
1070
   271
1070
     0
1002
}
  0
LINE
  5
469C
330
19
100
AcDbEntity
  8
1
100
AcDbLine
 10
19772.61370464045
 20
4709.922514625554
 30
0.0
 11
19772.61370464045
 21
4523.813219867592
 31
0.0
  0
LINE
  5
469D
330
19
100
AcDbEntity
  8
1
100
AcDbLine
 10
19548.61370464045
 20
4709.922514625555
 30
0.0
 11
19548.61370464045
 21
4523.813219867591
 31
0.0
  0
LINE
  5
469E
330
19
100
AcDbEntity
  8
2
100
AcDbLine
 10
19660.61370464045
 20
4813.688195434025
 30
0.0
 11
19660.61370464045
 21
4098.209413630673
 31
0.0
1001
ACAD
1000
ASC_BOUNDS
1002
{
1070
    19
1005
0
1005
0
1002
}
  0
DIMENSION
  5
469F
330
19
100
AcDbEntity
  8
SP
100
AcDbDimension
  2
*D10
 10
19781.61370464045
 20
4934.922514625554
 30
0.0
 11
19721.11370464045
 21
4972.422514625554
 31
0.0
 70
    32
 71
     5
 42
121.0
  3
GOD
100
AcDbAlignedDimension
 13
19660.61370464045
 23
4899.89786701067
 33
0.0
 14
19781.61370464045
 24
4684.135294509078
 34
0.0
100
AcDbRotatedDimension
  0
LINE
  5
46A1
330
19
100
AcDbEntity
  8
1
100
AcDbLine
 10
19793.61370464045
 20
4191.135294509086
 30
0.0
 11
19793.61370464045
 21
4499.135294509086
 31
0.0
  0
LINE
  5
46A2
330
19
100
AcDbEntity
  8
1
100
AcDbLine
 10
19527.61370464045
 20
4191.135294509086
 30
0.0
 11
19527.61370464045
 21
4499.135294509086
 31
0.0
  0
LWPOLYLINE
  5
46A3
330
19
100
AcDbEntity
  8
1
100
AcDbPolyline
 90
        2
 70
     0
 43
0.0
 10
19535.41370464045
 20
4694.51095586662
 10
19535.41370464045
 20
4147.63529450908
  0
LWPOLYLINE
  5
46A5
330
19
100
AcDbEntity
  8
1
100
AcDbPolyline
 90
        3
 70
     0
 43
0.0
 10
19538.61370464045
 20
4697.95340534661
 10
19538.61370464045
 20
4502.635294509079
 10
19538.61370464045
 20
4147.63529450908
  0
LINE
  5
46A6
330
19
100
AcDbEntity
  8
FUTO
100
AcDbLine
 10
19358.41370464045
 20
4502.635294509079
 30
0.0
 11
19228.61370464045
 21
4150.83529450908
 31
0.0
  0
LINE
  5
46A7
330
19
100
AcDbEntity
  8
1
100
AcDbLine
 10
19538.61370464045
 20
4150.83529450908
 30
0.0
 11
19578.61370464045
 21
4150.83529450908
 31
0.0
  0
LINE
  5
46A8
330
19
100
AcDbEntity
  8
1
100
AcDbLine
 10
19228.61370464045
 20
4147.63529450908
 30
0.0
 11
19578.61370464045
 21
4147.63529450908
 31
0.0
  0
LINE
  5
46AA
330
19
100
AcDbEntity
  8
FUTO
100
AcDbLine
 10
19228.61370464045
 20
4150.83529450908
 30
0.0
 11
19535.41370464045
 21
4150.83529450908
 31
0.0
  0
LINE
  5
46AB
330
19
100
AcDbEntity
  8
FUTO
100
AcDbLine
 10
19228.61370464045
 20
4147.63529450908
 30
0.0
 11
19228.61370464045
 21
4150.83529450908
 31
0.0
  0
LWPOLYLINE
  5
46AC
330
19
100
AcDbEntity
  8
1
100
AcDbPolyline
 90
        2
 70
     0
 43
0.0
 10
19578.61370464045
 20
4150.83529450908
 10
19578.61370464045
 20
4147.635294509079
  0
LINE
  5
46AE
330
19
100
AcDbEntity
  8
FUTO
100
AcDbLine
 10
19552.61370464045
 20
4166.135294509086
 30
0.0
 11
19768.61370464045
 21
4166.135294509086
 31
0.0
  0
LINE
  5
46AF
330
19
100
AcDbEntity
  8
2
100
AcDbLine
 10
19811.62568877617
 20
4502.635294509079
 30
0.0
 11
19198.22558407387
 21
4502.635294509079
 31
0.0
  0
LINE
  5
46B0
330
19
100
AcDbEntity
  8
1
100
AcDbLine
 10
19239.61370464045
 20
4419.08239450908
 30
0.0
 11
19239.61370464045
 21
4586.21619450908
 31
0.0
  0
LINE
  5
46B1
330
19
100
AcDbEntity
  8
1
100
AcDbLine
 10
19329.61370464045
 20
4603.43529450908
 30
0.0
 11
19329.61370464045
 21
4452.635294509079
 31
0.0
  0
LINE
  5
46B2
330
19
100
AcDbEntity
  8
1
100
AcDbLine
 10
19289.61370464045
 20
4406.635294509078
 30
0.0
 11
19289.61370464045
 21
4601.935294509081
 31
0.0
  0
LINE
  5
46B3
330
19
100
AcDbEntity
  8
FUTO
100
AcDbLine
 10
19288.09058761648
 20
4311.773623687131
 30
0.0
 11
19240.49276382103
 21
4399.146787701621
 31
0.0
  0
LINE
  5
46B7
330
19
100
AcDbEntity
  8
1
100
AcDbLine
 10
19315.61370464045
 20
4443.635294509079
 30
0.0
 11
19329.61370464045
 21
4452.635294509079
 31
0.0
  0
LINE
  5
46B8
330
19
100
AcDbEntity
  8
1
100
AcDbLine
 10
19315.51420464045
 20
4417.635294509079
 30
0.0
 11
19327.0953947813
 21
4417.635294509079
 31
0.0
  0
LINE
  5
46B9
330
19
100
AcDbEntity
  8
1
100
AcDbLine
 10
19315.61370464045
 20
4405.635294509079
 30
0.0
 11
19290.61370464045
 21
4405.635294509079
 31
0.0
  0
ARC
  5
46BA
330
19
100
AcDbEntity
  8
1
100
AcDbCircle
 10
19290.61380464045
 20
4406.635294509078
 30
0.0
 40
1.000099999999999
100
AcDbArc
 50
180.0
 51
269.9965000000103
  0
LINE
  5
46BB
330
19
100
AcDbEntity
  8
1
100
AcDbLine
 10
19315.61370464045
 20
4405.635294509079
 30
0.0
 11
19315.61370464045
 21
4443.635294509079
 31
0.0
  0
ARC
  5
46BC
330
19
100
AcDbEntity
  8
1
100
AcDbCircle
 10
19241.41350464045
 20
4419.08219450908
 30
0.0
 40
1.7998
100
AcDbArc
 50
179.9961000000213
 51
257.5983000000071
  0
LINE
  5
46BD
330
19
100
AcDbEntity
  8
FUTO
100
AcDbLine
 10
19227.61370464045
 20
4373.946787701622
 30
0.0
 11
19230.01370464045
 21
4373.946787701622
 31
0.0
  0
ARC
  5
46BE
330
19
100
AcDbEntity
  8
FUTO
100
AcDbCircle
 10
19232.41370464045
 20
4396.74678770162
 30
0.0
 40
2.4
100
AcDbArc
 50
89.99999999999998
 51
180.0
  0
ARC
  5
46BF
330
19
100
AcDbEntity
  8
FUTO
100
AcDbCircle
 10
19232.41370464045
 20
4396.74678770162
 30
0.0
 40
4.8
100
AcDbArc
 50
89.99999999999998
 51
180.0
  0
LINE
  5
46C0
330
19
100
AcDbEntity
  8
FUTO
100
AcDbLine
 10
19230.01370464045
 20
4373.946787701622
 30
0.0
 11
19230.01370464045
 21
4396.74678770162
 31
0.0
  0
LINE
  5
46C1
330
19
100
AcDbEntity
  8
FUTO
100
AcDbLine
 10
19227.61370464045
 20
4373.946787701622
 30
0.0
 11
19227.61370464045
 21
4396.74678770162
 31
0.0
  0
LINE
  5
46C2
330
19
100
AcDbEntity
  8
FUTO
100
AcDbLine
 10
19232.41370464045
 20
4399.146787701621
 30
0.0
 11
19320.28329142801
 21
4399.146787701617
 31
0.0
  0
LINE
  5
46C3
330
19
100
AcDbEntity
  8
FUTO
100
AcDbLine
 10
19232.41370464045
 20
4401.546787701619
 30
0.0
 11
19321.16757311816
 21
4401.546787701619
 31
0.0
  0
LINE
  5
46C4
330
19
100
AcDbEntity
  8
1
100
AcDbLine
 10
19289.61370464045
 20
4406.635294509078
 30
0.0
 11
19241.02700464045
 21
4417.324394509079
 31
0.0
  0
LINE
  5
46C6
330
19
100
AcDbEntity
  8
1
100
AcDbLine
 10
19412.61370464045
 20
4602.635294509079
 30
0.0
 11
19337.27400464045
 21
4602.635294509079
 31
0.0
  0
LINE
  5
46C7
330
19
100
AcDbEntity
  8
1
100
AcDbLine
 10
19329.61370464045
 20
4603.43529450908
 30
0.0
 11
19291.11370464045
 21
4603.43529450908
 31
0.0
  0
ARC
  5
46C8
330
19
100
AcDbEntity
  8
1
100
AcDbCircle
 10
19291.11370464045
 20
4601.935294509081
 30
0.0
 40
1.5
100
AcDbArc
 50
89.99999999999998
 51
180.0
  0
LINE
  5
46C9
330
19
100
AcDbEntity
  8
1
100
AcDbLine
 10
19329.44540464045
 20
4589.07599450908
 30
0.0
 11
19337.27400464045
 21
4602.635294509079
 31
0.0
  0
ARC
  5
46CA
330
19
100
AcDbEntity
  8
1
100
AcDbCircle
 10
19241.41360464045
 20
4586.216294509079
 30
0.0
 40
1.7999
100
AcDbArc
 50
103.4933999999954
 51
180.0018999999831
  0
LINE
  5
46CB
330
19
100
AcDbEntity
  8
1
100
AcDbLine
 10
19289.61370464045
 20
4599.635294509079
 30
0.0
 11
19240.99360464045
 21
4587.96649450908
 31
0.0
  0
LINE
  5
46CD
330
19
100
AcDbEntity
  8
1
100
AcDbLine
 10
19412.61370464045
 20
4602.635294509079
 30
0.0
 11
19450.00878641198
 21
4602.635294509079
 31
0.0
  0
ARC
  5
46CE
330
19
100
AcDbEntity
  8
1
100
AcDbCircle
 10
19540.61370464045
 20
4684.135294509078
 30
0.0
 40
1.0
100
AcDbArc
 50
89.99999999999998
 51
180.0
  0
ARC
  5
46CF
330
19
100
AcDbEntity
  8
1
100
AcDbCircle
 10
19546.61370464045
 20
4686.135294509078
 30
0.0
 40
1.0
100
AcDbArc
 50
270.0
 51
0.0
  0
LINE
  5
46D0
330
19
100
AcDbEntity
  8
1
100
AcDbLine
 10
19546.61370464045
 20
4685.13529450908
 30
0.0
 11
19540.61370464045
 21
4685.13529450908
 31
0.0
  0
DIMENSION
  5
46D1
330
19
100
AcDbEntity
  8
SP
100
AcDbDimension
  2
*D11
 10
19897.82829315223
 20
4345.135294509081
 30
0.0
 11
19860.32829315223
 21
4502.635294509075
 31
0.0
 70
    32
 71
     5
 42
315.0
  3
GOD
100
AcDbAlignedDimension
 13
19781.61370464045
 23
4660.135294509079
 33
0.0
 14
19781.61370464045
 24
4345.13529450908
 34
0.0
 50
90.0
100
AcDbRotatedDimension
1001
ACAD
1000
DSTYLE
1002
{
1070
     3
1000
\U+03C6<>
1002
}
  0
ARC
  5
46DB
330
19
100
AcDbEntity
  8
FUTO
100
AcDbCircle
 10
19768.61370464045
 20
4191.135294509087
 30
0.0
 40
25.0
100
AcDbArc
 50
270.0
 51
359.9999999999979
  0
DIMENSION
  5
46E3
330
19
100
AcDbEntity
  8
SP
100
AcDbDimension
  2
*D12
 10
19772.61370464045
 20
4829.922514625554
 30
0.0
 11
19660.61370464045
 21
4867.422514625554
 31
0.0
 70
    32
 71
     5
 42
223.9999999999927
  3
GOD
100
AcDbAlignedDimension
 13
19548.61370464045
 23
4709.922514625555
 33
0.0
 14
19772.61370464045
 24
4709.922514625554
 34
0.0
100
AcDbRotatedDimension
  0
LINE
  5
46E4
330
19
100
AcDbEntity
  8
FUTO
100
AcDbLine
 10
19563.61370464045
 20
4724.922514625554
 30
0.0
 11
19757.61370464045
 21
4724.922514625554
 31
0.0
  0
LINE
  5
46E5
330
19
100
AcDbEntity
  8
FUTO
100
AcDbLine
 10
19552.61370464045
 20
4524.135294509085
 30
0.0
 11
19768.61370464045
 21
4524.135294509085
 31
0.0
  0
ARC
  5
46E7
330
19
100
AcDbEntity
  8
FUTO
100
AcDbCircle
 10
19552.61370464045
 20
4499.135294509086
 30
0.0
 40
25.0
100
AcDbArc
 50
90.0
 51
180.0
  0
ARC
  5
476B
330
19
100
AcDbEntity
  8
FUTO
100
AcDbCircle
 10
19563.61370464045
 20
4709.922514625555
 30
0.0
 40
15.0
100
AcDbArc
 50
90.0
 51
180.0000000000002
  0
ARC
  5
476C
330
19
100
AcDbEntity
  8
FUTO
100
AcDbCircle
 10
19757.61370464045
 20
4709.922514625554
 30
0.0
 40
15.0
100
AcDbArc
 50
0.0000000000010178
 51
89.99999999999971
  0
ARC
  5
483C
330
19
100
AcDbEntity
  8
FUTO
100
AcDbCircle
 10
19768.61370464045
 20
4499.135294509086
 30
0.0
 40
25.0
100
AcDbArc
 50
0.0
 51
90.0
  0
LINE
  5
483D
330
19
100
AcDbEntity
  8
FUTO
100
AcDbLine
 10
19562.61370464045
 20
4504.135294509085
 30
0.0
 11
19758.61370464045
 21
4504.135294509086
 31
0.0
  0
LINE
  5
483E
330
19
100
AcDbEntity
  8
FUTO
100
AcDbLine
 10
19562.61370464045
 20
4186.135294509085
 30
0.0
 11
19758.61370464045
 21
4186.135294509085
 31
0.0
  0
LINE
  5
483F
330
19
100
AcDbEntity
  8
1
100
AcDbLine
 10
19773.61370464045
 20
4201.135294509085
 30
0.0
 11
19773.61370464045
 21
4489.135294509086
 31
0.0
  0
LINE
  5
4840
330
19
100
AcDbEntity
  8
1
100
AcDbLine
 10
19547.61370464045
 20
4201.135294509085
 30
0.0
 11
19547.61370464045
 21
4489.135294509085
 31
0.0
  0
ARC
  5
4841
330
19
100
AcDbEntity
  8
FUTO
100
AcDbCircle
 10
19562.61370464045
 20
4201.135294509085
 30
0.0
 40
15.0
100
AcDbArc
 50
180.0
 51
270.0
  0
ARC
  5
4842
330
19
100
AcDbEntity
  8
FUTO
100
AcDbCircle
 10
19758.61370464045
 20
4201.135294509085
 30
0.0
 40
15.0
100
AcDbArc
 50
270.0
 51
0.0
  0
ARC
  5
4843
330
19
100
AcDbEntity
  8
FUTO
100
AcDbCircle
 10
19758.61370464045
 20
4489.135294509086
 30
0.0
 40
15.0
100
AcDbArc
 50
0.0
 51
90.0
  0
ARC
  5
4844
330
19
100
AcDbEntity
  8
FUTO
100
AcDbCircle
 10
19562.61370464045
 20
4489.135294509085
 30
0.0
 40
15.0
100
AcDbArc
 50
90.00000000000026
 51
180.0
  0
ARC
  5
4845
330
19
100
AcDbEntity
  8
FUTO
100
AcDbCircle
 10
19552.61370464045
 20
4191.135294509086
 30
0.0
 40
25.0
100
AcDbArc
 50
180.0
 51
270.0
  0
LINE
  5
4A2C
330
19
100
AcDbEntity
  8
HOSO
100
AcDbLine
 10
19552.00710292265
 20
4499.741896226883
 30
0.0
 11
19769.22030635825
 21
4190.528692791287
 31
0.0
  0
LINE
  5
4A2D
330
19
100
AcDbEntity
  8
HOSO
100
AcDbLine
 10
19769.22030635825
 20
4499.741896226884
 30
0.0
 11
19552.00710292265
 21
4190.528692791287
 31
0.0
  0
DIMENSION
  5
4D6D
330
19
100
AcDbEntity
  8
SP
100
AcDbDimension
  2
*D13
 10
18746.63897953312
 20
5854.362935220169
 30
0.0
 11
18709.13897953312
 21
5996.862935220172
 31
0.0
 70
    32
 71
     5
 42
122.0000000000018
  3
GOD
100
AcDbAlignedDimension
 13
18572.76627709694
 23
5732.362935220167
 33
0.0
 14
18620.38782536343
 24
5854.362935220169
 34
0.0
 50
90.0
100
AcDbRotatedDimension
  0
LINE
  5
4D6E
330
19
100
AcDbEntity
  8
1
100
AcDbLine
 10
18572.76627709694
 20
5987.362935220167
 30
0.0
 11
18572.76627709694
 21
5721.362935220168
 31
0.0
  0
LINE
  5
4D6F
330
19
100
AcDbEntity
  8
1
100
AcDbLine
 10
18552.76627709694
 20
5948.56293522017
 30
0.0
 11
18552.76627709694
 21
5760.162935220169
 31
0.0
  0
LINE
  5
4D70
330
19
100
AcDbEntity
  8
1
100
AcDbLine
 10
18571.56627709695
 20
5987.362935220168
 30
0.0
 11
18571.56627709695
 21
5721.362935220168
 31
0.0
  0
LINE
  5
4D71
330
19
100
AcDbEntity
  8
2
100
AcDbLine
 10
18322.76627709695
 20
5368.182908544904
 30
0.0
 11
18322.76627709694
 21
5995.364287666135
 31
0.0
  0
LINE
  5
4D72
330
19
100
AcDbEntity
  8
1
100
AcDbLine
 10
18058.76627709694
 20
5952.362935220168
 30
0.0
 11
18058.76627709695
 21
5756.362935220169
 31
0.0
  0
DIMENSION
  5
4D73
330
19
100
AcDbEntity
  8
SP
100
AcDbDimension
  2
*D15
 10
18572.76627709694
 20
5275.34150146671
 30
0.0
 11
18322.76627709694
 21
5312.84150146671
 31
0.0
 70
    32
 71
     5
 42
500.0
  3
GOD
100
AcDbAlignedDimension
 13
18072.76627709694
 23
5422.362935220169
 33
0.0
 14
18572.76627709694
 24
5422.362935220169
 34
0.0
100
AcDbRotatedDimension
  0
DIMENSION
  5
4D74
330
19
100
AcDbEntity
  8
SP
100
AcDbDimension
  2
*D14
 10
18746.63897953312
 20
5422.362935220169
 30
0.0
 11
18709.13897953312
 21
5577.362935220172
 31
0.0
 70
    32
 71
     5
 42
309.9999999999982
  3
GOD
100
AcDbAlignedDimension
 13
18572.76627709694
 23
5732.362935220167
 33
0.0
 14
18572.76627709694
 24
5422.362935220169
 34
0.0
 50
90.0
100
AcDbRotatedDimension
  0
LINE
  5
4D75
330
19
100
AcDbEntity
  8
1
100
AcDbLine
 10
18222.76627709694
 20
5532.02323522017
 30
0.0
 11
18222.76627709694
 21
5682.702635220169
 31
0.0
  0
LINE
  5
4D76
330
19
100
AcDbEntity
  8
1
100
AcDbLine
 10
18422.76627709694
 20
5682.702635220169
 30
0.0
 11
18422.76627709694
 21
5532.02323522017
 31
0.0
  0
LINE
  5
4D7D
330
19
100
AcDbEntity
  8
1
100
AcDbLine
 10
18406.31917709694
 20
5434.362935220168
 30
0.0
 11
18239.18537709694
 21
5434.362935220168
 31
0.0
  0
LINE
  5
4D7E
330
19
100
AcDbEntity
  8
1
100
AcDbLine
 10
18406.31917709694
 20
5434.362935220168
 30
0.0
 11
18239.18537709694
 21
5434.362935220168
 31
0.0
  0
LINE
  5
4D7F
330
19
100
AcDbEntity
  8
1
100
AcDbLine
 10
18418.76627709694
 20
5484.362935220168
 30
0.0
 11
18223.46627709694
 21
5484.362935220168
 31
0.0
  0
LINE
  5
4D80
330
19
100
AcDbEntity
  8
1
100
AcDbLine
 10
18221.96627709694
 20
5524.362935220168
 30
0.0
 11
18423.56627709694
 21
5524.362935220168
 31
0.0
  0
LINE
  5
4D81
330
19
100
AcDbEntity
  8
1
100
AcDbLine
 10
18225.76627709694
 20
5484.362935220168
 30
0.0
 11
18237.43507709694
 21
5435.742835220168
 31
0.0
  0
ARC
  5
4D86
330
19
100
AcDbEntity
  8
1
100
AcDbCircle
 10
18239.18527709694
 20
5436.162835220169
 30
0.0
 40
1.7999
100
AcDbArc
 50
193.4933999999977
 51
270.0018999999994
  0
LINE
  5
4D88
330
19
100
AcDbEntity
  8
1
100
AcDbLine
 10
18221.96627709694
 20
5524.362935220168
 30
0.0
 11
18221.96627709694
 21
5485.862935220168
 31
0.0
  0
ARC
  5
4D89
330
19
100
AcDbEntity
  8
1
100
AcDbCircle
 10
18223.46627709694
 20
5485.862935220168
 30
0.0
 40
1.5
100
AcDbArc
 50
180.0
 51
270.0
  0
LINE
  5
4D8A
330
19
100
AcDbEntity
  8
1
100
AcDbLine
 10
18236.32557709694
 20
5524.194635220169
 30
0.0
 11
18222.76627709694
 21
5532.02323522017
 31
0.0
  0
LINE
  5
4D8B
330
19
100
AcDbEntity
  8
1
100
AcDbLine
 10
18419.76627709694
 20
5484.362935220168
 30
0.0
 11
18408.09747709694
 21
5435.742835220168
 31
0.0
  0
ARC
  5
4D8D
330
19
100
AcDbEntity
  8
1
100
AcDbCircle
 10
18406.34727709694
 20
5436.162835220169
 30
0.0
 40
1.7999
100
AcDbArc
 50
269.9981000000006
 51
346.5066000000023
  0
LINE
  5
4D92
330
19
100
AcDbEntity
  8
1
100
AcDbLine
 10
18423.56627709694
 20
5524.362935220168
 30
0.0
 11
18423.56627709694
 21
5485.862935220168
 31
0.0
  0
ARC
  5
4D93
330
19
100
AcDbEntity
  8
1
100
AcDbCircle
 10
18422.06627709694
 20
5485.862935220168
 30
0.0
 40
1.5
100
AcDbArc
 50
270.0
 51
0.0
  0
LINE
  5
4D94
330
19
100
AcDbEntity
  8
1
100
AcDbLine
 10
18409.20697709694
 20
5524.194635220169
 30
0.0
 11
18422.76627709694
 21
5532.02323522017
 31
0.0
  0
LINE
  5
4D96
330
19
100
AcDbEntity
  8
1
100
AcDbLine
 10
18407.76627709694
 20
5691.362935220169
 30
0.0
 11
18237.76627709694
 21
5691.362935220169
 31
0.0
  0
LINE
  5
4D97
330
19
100
AcDbEntity
  8
1
100
AcDbLine
 10
18240.76627709694
 20
5712.090614653588
 30
0.0
 11
18404.76627709694
 21
5712.090614653588
 31
0.0
  0
LINE
  5
4D98
330
19
100
AcDbEntity
  8
1
100
AcDbLine
 10
18359.76627709694
 20
5718.090614653588
 30
0.0
 11
18285.76627709694
 21
5718.090614653588
 31
0.0
  0
LWPOLYLINE
  5
4D99
330
19
100
AcDbEntity
  8
1
100
AcDbPolyline
 90
        2
 70
     0
 43
0.0
 10
18302.43597431712
 20
5733.362935220169
 10
18141.26627709694
 20
5733.362935220169
  0
LINE
  5
4D9A
330
19
100
AcDbEntity
  8
1
100
AcDbLine
 10
18322.76627709695
 20
5741.362935220172
 30
0.0
 11
18073.76627709695
 21
5741.362935220169
 31
0.0
  0
LINE
  5
4D9B
330
19
100
AcDbEntity
  8
2
100
AcDbLine
 10
17997.40314825103
 20
5854.362935220169
 30
0.0
 11
18620.38782536343
 21
5854.362935220169
 31
0.0
1001
ACAD
1000
ASC_BOUNDS
1002
{
1070
    19
1005
0
1005
0
1002
}
  0
ARC
  5
4D9C
330
19
100
AcDbEntity
  8
1
100
AcDbCircle
 10
18073.76627709695
 20
5756.362935220169
 30
0.0
 40
15.0
100
AcDbArc
 50
180.0
 51
270.0
  0
LINE
  5
4DA1
330
19
100
AcDbEntity
  8
1
100
AcDbLine
 10
18237.76627709694
 20
5691.362935220169
 30
0.0
 11
18237.76627709694
 21
5709.090614653588
 31
0.0
  0
LINE
  5
4DA2
330
19
100
AcDbEntity
  8
1
100
AcDbLine
 10
18237.76627709694
 20
5694.362935220169
 30
0.0
 11
18237.76627709694
 21
5691.362935220169
 31
0.0
  0
LINE
  5
4DA3
330
19
100
AcDbEntity
  8
1
100
AcDbLine
 10
18222.76627709694
 20
5682.702635220169
 30
0.0
 11
18237.76627709694
 21
5691.362935220169
 31
0.0
  0
ARC
  5
4DA4
330
19
100
AcDbEntity
  8
1
100
AcDbCircle
 10
18285.76617709694
 20
5715.090614653588
 30
0.0
 40
2.999899999999999
100
AcDbArc
 50
89.99879999999965
 51
180.0011999999971
  0
LINE
  5
4DA5
330
19
100
AcDbEntity
  8
1
100
AcDbLine
 10
18282.76627709694
 20
5712.090614653588
 30
0.0
 11
18282.76627709694
 21
5715.090614653588
 31
0.0
  0
ARC
  5
4DA6
330
19
100
AcDbEntity
  8
1
100
AcDbCircle
 10
18240.76617709694
 20
5709.090614653588
 30
0.0
 40
2.999899999999999
100
AcDbArc
 50
89.99879999999965
 51
180.0011999999971
  0
ARC
  5
4DA7
330
19
100
AcDbEntity
  8
1
100
AcDbCircle
 10
18143.11169690896
 20
5774.936788372067
 30
0.0
 40
48.65638419258441
100
AcDbArc
 50
303.5000336652645
 51
316.3683487231641
  0
ARC
  5
4DA8
330
19
100
AcDbEntity
  8
1
100
AcDbCircle
 10
18142.26627709695
 20
5735.362935220169
 30
0.0
 40
1.0
100
AcDbArc
 50
180.0
 51
270.0
  0
ARC
  5
4DA9
330
19
100
AcDbEntity
  8
1
100
AcDbCircle
 10
18141.26627709694
 20
5734.362935220168
 30
0.0
 40
1.0
100
AcDbArc
 50
180.0
 51
270.0
  0
LINE
  5
4DAA
330
19
100
AcDbEntity
  8
1
100
AcDbLine
 10
18141.26627709694
 20
5741.362935220166
 30
0.0
 11
18141.26627709694
 21
5735.362935220167
 31
0.0
  0
LINE
  5
4DAB
330
19
100
AcDbEntity
  8
1
100
AcDbLine
 10
18140.26627709695
 20
5740.362935220169
 30
0.0
 11
18140.26627709695
 21
5734.362935220167
 31
0.0
  0
ARC
  5
4DAC
330
19
100
AcDbEntity
  8
1
100
AcDbCircle
 10
18139.26627709695
 20
5740.362935220169
 30
0.0
 40
1.0
100
AcDbArc
 50
0.0
 51
90.0
  0
LINE
  5
4DAD
330
19
100
AcDbEntity
  8
1
100
AcDbLine
 10
18142.26627709695
 20
5734.362935220167
 30
0.0
 11
18169.96697875638
 21
5734.362935220168
 31
0.0
  0
LINE
  5
4DAE
330
19
100
AcDbEntity
  8
1
100
AcDbLine
 10
18571.56627709695
 20
5741.362935220169
 30
0.0
 11
18552.76627709694
 21
5760.162935220169
 31
0.0
  0
LINE
  5
4DB0
330
19
100
AcDbEntity
  8
1
100
AcDbLine
 10
18503.26627709694
 20
5734.362935220168
 30
0.0
 11
18475.56557543751
 21
5734.362935220168
 31
0.0
  0
LINE
  5
4DB1
330
19
100
AcDbEntity
  8
1
100
AcDbLine
 10
18572.76627709694
 20
5741.362935220169
 30
0.0
 11
18322.76627709695
 21
5741.362935220169
 31
0.0
  0
LWPOLYLINE
  5
4DB2
330
19
100
AcDbEntity
  8
1
100
AcDbPolyline
 90
        3
 70
     0
 43
0.0
 10
18504.26627709694
 20
5733.362935220169
 10
18322.76627709694
 20
5733.362935220169
 10
18302.43597431712
 20
5733.362935220169
  0
LINE
  5
4DB3
330
19
100
AcDbEntity
  8
1
100
AcDbLine
 10
18337.36617709694
 20
5718.090614653588
 30
0.0
 11
18337.36617709694
 21
5741.362935220169
 31
0.0
  0
LINE
  5
4DB4
330
19
100
AcDbEntity
  8
1
100
AcDbLine
 10
18308.16627709694
 20
5718.090614653588
 30
0.0
 11
18308.16627709694
 21
5741.362935220172
 31
0.0
  0
LINE
  5
4DB5
330
19
100
AcDbEntity
  8
1
100
AcDbLine
 10
18407.76627709694
 20
5691.362935220169
 30
0.0
 11
18407.76627709694
 21
5709.090614653588
 31
0.0
  0
LINE
  5
4DB6
330
19
100
AcDbEntity
  8
1
100
AcDbLine
 10
18407.76627709694
 20
5694.362935220169
 30
0.0
 11
18407.76627709694
 21
5691.362935220169
 31
0.0
  0
LINE
  5
4DB7
330
19
100
AcDbEntity
  8
1
100
AcDbLine
 10
18422.76627709694
 20
5682.702635220169
 30
0.0
 11
18407.76627709694
 21
5691.362935220169
 31
0.0
  0
ARC
  5
4DB8
330
19
100
AcDbEntity
  8
1
100
AcDbCircle
 10
18502.42085728493
 20
5774.936788372067
 30
0.0
 40
48.65638419258441
100
AcDbArc
 50
223.6316512768359
 51
236.4999663347355
  0
ARC
  5
4DB9
330
19
100
AcDbEntity
  8
1
100
AcDbCircle
 10
18404.76637709694
 20
5709.090614653588
 30
0.0
 40
2.999899999999999
100
AcDbArc
 50
359.9988000000029
 51
90.00120000000034
  0
LINE
  5
4DBA
330
19
100
AcDbEntity
  8
1
100
AcDbLine
 10
18362.76627709694
 20
5712.090614653588
 30
0.0
 11
18362.76627709694
 21
5715.090614653588
 31
0.0
  0
ARC
  5
4DBB
330
19
100
AcDbEntity
  8
1
100
AcDbCircle
 10
18359.76627709694
 20
5715.090614653588
 30
0.0
 40
2.999899999999999
100
AcDbArc
 50
359.9988000000029
 51
90.00120000000034
  0
LINE
  5
4DBD
330
19
100
AcDbEntity
  8
1
100
AcDbLine
 10
18572.76627709694
 20
5721.362935220168
 30
0.0
 11
18571.56627709695
 21
5721.362935220168
 31
0.0
1001
ACAD
1000
ASC_BOUNDS
1002
{
1070
    19
1002
}
  0
ARC
  5
4DC1
330
19
100
AcDbEntity
  8
1
100
AcDbCircle
 10
18506.26627709694
 20
5740.362935220169
 30
0.0
 40
1.0
100
AcDbArc
 50
90.0
 51
180.0
  0
LINE
  5
4DC2
330
19
100
AcDbEntity
  8
1
100
AcDbLine
 10
18505.26627709694
 20
5740.362935220169
 30
0.0
 11
18505.26627709694
 21
5734.362935220168
 31
0.0
  0
LINE
  5
4DC3
330
19
100
AcDbEntity
  8
1
100
AcDbLine
 10
18504.26627709694
 20
5741.362935220169
 30
0.0
 11
18504.26627709694
 21
5735.362935220169
 31
0.0
  0
ARC
  5
4DC4
330
19
100
AcDbEntity
  8
1
100
AcDbCircle
 10
18504.26627709694
 20
5734.362935220168
 30
0.0
 40
1.0
100
AcDbArc
 50
270.0
 51
0.0
  0
ARC
  5
4DC5
330
19
100
AcDbEntity
  8
1
100
AcDbCircle
 10
18503.26627709694
 20
5735.362935220169
 30
0.0
 40
1.0
100
AcDbArc
 50
270.0
 51
0.0
  0
ARC
  5
4DC6
330
19
100
AcDbEntity
  8
1
100
AcDbCircle
 10
18504.26627709694
 20
5734.362935220168
 30
0.0
 40
1.0
100
AcDbArc
 50
270.0
 51
0.0
  0
LWPOLYLINE
  5
4DC7
330
19
100
AcDbEntity
  8
1
100
AcDbPolyline
 90
        2
 70
     0
 43
0.0
 10
18302.43597431712
 20
5975.362935220169
 10
18141.26627709694
 20
5975.362935220169
  0
LINE
  5
4DC8
330
19
100
AcDbEntity
  8
1
100
AcDbLine
 10
18322.76627709694
 20
5967.362935220167
 30
0.0
 11
18073.76627709694
 21
5967.362935220169
 31
0.0
  0
ARC
  5
4DC9
330
19
100
AcDbEntity
  8
1
100
AcDbCircle
 10
18073.76627709694
 20
5952.362935220168
 30
0.0
 40
15.0
100
AcDbArc
 50
90.0
 51
180.0
  0
LINE
  5
4DCA
330
19
100
AcDbEntity
  8
1
100
AcDbLine
 10
18142.26627709695
 20
5974.36293522017
 30
0.0
 11
18169.96697875638
 21
5974.362935220169
 31
0.0
  0
ARC
  5
4DCB
330
19
100
AcDbEntity
  8
1
100
AcDbCircle
 10
18139.26627709695
 20
5968.362935220169
 30
0.0
 40
1.0
100
AcDbArc
 50
270.0
 51
0.0
  0
LINE
  5
4DCC
330
19
100
AcDbEntity
  8
1
100
AcDbLine
 10
18140.26627709695
 20
5968.362935220169
 30
0.0
 11
18140.26627709695
 21
5974.36293522017
 31
0.0
  0
LINE
  5
4DCD
330
19
100
AcDbEntity
  8
1
100
AcDbLine
 10
18141.26627709694
 20
5967.362935220171
 30
0.0
 11
18141.26627709694
 21
5973.362935220171
 31
0.0
  0
ARC
  5
4DCE
330
19
100
AcDbEntity
  8
1
100
AcDbCircle
 10
18141.26627709694
 20
5974.362935220169
 30
0.0
 40
1.0
100
AcDbArc
 50
90.00000000000003
 51
180.0
  0
ARC
  5
4DCF
330
19
100
AcDbEntity
  8
1
100
AcDbCircle
 10
18142.26627709695
 20
5973.362935220169
 30
0.0
 40
1.0
100
AcDbArc
 50
90.00000000000003
 51
180.0
  0
ARC
  5
4DD0
330
19
100
AcDbEntity
  8
1
100
AcDbCircle
 10
18143.11169690896
 20
5933.789082068271
 30
0.0
 40
48.65638419258441
100
AcDbArc
 50
43.63165127683587
 51
56.49996633473549
  0
LWPOLYLINE
  5
4DD1
330
19
100
AcDbEntity
  8
1
100
AcDbPolyline
 90
        3
 70
     0
 43
0.0
 10
18504.26627709694
 20
5975.362935220169
 10
18322.76627709694
 20
5975.362935220169
 10
18302.43597431712
 20
5975.362935220169
  0
LINE
  5
4DD2
330
19
100
AcDbEntity
  8
1
100
AcDbLine
 10
18503.26627709694
 20
5974.362935220169
 30
0.0
 11
18475.56557543751
 21
5974.362935220169
 31
0.0
  0
LINE
  5
4DD3
330
19
100
AcDbEntity
  8
1
100
AcDbLine
 10
18572.76627709694
 20
5967.362935220169
 30
0.0
 11
18322.76627709694
 21
5967.362935220169
 31
0.0
  0
ARC
  5
4DD4
330
19
100
AcDbEntity
  8
1
100
AcDbCircle
 10
18502.42085728493
 20
5933.789082068271
 30
0.0
 40
48.65638419258441
100
AcDbArc
 50
123.5000336652645
 51
136.3683487231641
  0
ARC
  5
4DD5
330
19
100
AcDbEntity
  8
1
100
AcDbCircle
 10
18504.26627709694
 20
5974.362935220169
 30
0.0
 40
1.0
100
AcDbArc
 50
0.0
 51
90.00000000000003
  0
ARC
  5
4DD6
330
19
100
AcDbEntity
  8
1
100
AcDbCircle
 10
18503.26627709694
 20
5973.362935220169
 30
0.0
 40
1.0
100
AcDbArc
 50
0.0
 51
90.00000000000003
  0
ARC
  5
4DD7
330
19
100
AcDbEntity
  8
1
100
AcDbCircle
 10
18504.26627709694
 20
5974.362935220169
 30
0.0
 40
1.0
100
AcDbArc
 50
0.0
 51
90.00000000000003
  0
LINE
  5
4DD8
330
19
100
AcDbEntity
  8
1
100
AcDbLine
 10
18504.26627709694
 20
5967.362935220169
 30
0.0
 11
18504.26627709694
 21
5973.362935220169
 31
0.0
  0
LINE
  5
4DD9
330
19
100
AcDbEntity
  8
1
100
AcDbLine
 10
18505.26627709694
 20
5968.362935220169
 30
0.0
 11
18505.26627709694
 21
5974.362935220169
 31
0.0
  0
ARC
  5
4DDA
330
19
100
AcDbEntity
  8
1
100
AcDbCircle
 10
18506.26627709694
 20
5968.362935220169
 30
0.0
 40
1.0
100
AcDbArc
 50
180.0
 51
270.0
  0
LINE
  5
4DDB
330
19
100
AcDbEntity
  8
1
100
AcDbLine
 10
18572.76627709694
 20
5987.362935220168
 30
0.0
 11
18571.56627709695
 21
5987.362935220168
 31
0.0
1001
ACAD
1000
ASC_BOUNDS
1002
{
1070
    19
1002
}
  0
LINE
  5
4DDC
330
19
100
AcDbEntity
  8
1
100
AcDbLine
 10
18571.56627709695
 20
5967.362935220169
 30
0.0
 11
18552.76627709694
 21
5948.56293522017
 31
0.0
  0
LINE
  5
5842
330
19
100
AcDbEntity
  8
FUTO
100
AcDbLine
 10
18072.76627709696
 20
4147.635294509082
 30
0.0
 11
18572.76627709694
 21
4147.635294509082
 31
0.0
  0
LINE
  5
5843
330
19
100
AcDbEntity
  8
1
100
AcDbLine
 10
18072.76627709696
 20
4149.935294509081
 30
0.0
 11
18110.46627709696
 21
4149.935294509081
 31
0.0
  0
LINE
  5
5844
330
19
100
AcDbEntity
  8
1
100
AcDbLine
 10
18072.76627709696
 20
4149.935294509081
 30
0.0
 11
18072.76627709696
 21
4147.635294509082
 31
0.0
  0
LINE
  5
5845
330
19
100
AcDbEntity
  8
2
100
AcDbLine
 10
18090.76627709695
 20
4099.288408389977
 30
0.0
 11
18090.76627709695
 21
4161.139306172914
 31
0.0
  0
LINE
  5
5846
330
19
100
AcDbEntity
  8
1
100
AcDbLine
 10
18572.76627709694
 20
4149.935294509081
 30
0.0
 11
18535.06627709694
 21
4149.935294509081
 31
0.0
  0
LINE
  5
5847
330
19
100
AcDbEntity
  8
1
100
AcDbLine
 10
18572.76627709694
 20
4149.935294509081
 30
0.0
 11
18572.76627709694
 21
4147.635294509082
 31
0.0
  0
LINE
  5
5848
330
19
100
AcDbEntity
  8
2
100
AcDbLine
 10
18554.76627709695
 20
4099.288408389977
 30
0.0
 11
18554.76627709695
 21
4161.139306172914
 31
0.0
  0
LINE
  5
5849
330
19
100
AcDbEntity
  8
1
100
AcDbLine
 10
18535.06627709694
 20
4585.735294509082
 30
0.0
 11
18535.06627709694
 21
4149.93529450908
 31
0.0
  0
LINE
  5
584A
330
19
100
AcDbEntity
  8
1
100
AcDbLine
 10
18532.76627709694
 20
4587.557616667709
 30
0.0
 11
18532.76627709694
 21
4147.635294509082
 31
0.0
  0
LINE
  5
584B
330
19
100
AcDbEntity
  8
1
100
AcDbLine
 10
18492.76627709694
 20
4402.635294509082
 30
0.0
 11
18492.76627709694
 21
4202.635294509081
 31
0.0
  0
LINE
  5
584C
330
19
100
AcDbEntity
  8
1
100
AcDbLine
 10
18532.76627709694
 20
4202.635294509081
 30
0.0
 11
18492.76627709694
 21
4202.635294509081
 31
0.0
  0
LINE
  5
584D
330
19
100
AcDbEntity
  8
1
100
AcDbLine
 10
18112.76627709696
 20
4587.557616667709
 30
0.0
 11
18112.76627709696
 21
4147.635294509082
 31
0.0
  0
LINE
  5
584E
330
19
100
AcDbEntity
  8
1
100
AcDbLine
 10
18110.46627709696
 20
4585.735294509082
 30
0.0
 11
18110.46627709696
 21
4149.93529450908
 31
0.0
  0
LINE
  5
584F
330
19
100
AcDbEntity
  8
1
100
AcDbLine
 10
18152.76627709696
 20
4402.635294509082
 30
0.0
 11
18152.76627709696
 21
4202.635294509081
 31
0.0
  0
LINE
  5
5850
330
19
100
AcDbEntity
  8
1
100
AcDbLine
 10
18112.76627709696
 20
4202.635294509081
 30
0.0
 11
18152.76627709696
 21
4202.635294509081
 31
0.0
  0
LINE
  5
5851
330
19
100
AcDbEntity
  8
1
100
AcDbLine
 10
18112.76627709696
 20
4402.635294509082
 30
0.0
 11
18532.76627709694
 21
4402.635294509081
 31
0.0
  0
LINE
  5
5852
330
19
100
AcDbEntity
  8
1
100
AcDbLine
 10
18152.76627709696
 20
4362.635294509082
 30
0.0
 11
18322.76627709695
 21
4362.635294509082
 31
0.0
  0
LINE
  5
5853
330
19
100
AcDbEntity
  8
FUTO
100
AcDbLine
 10
18112.76627709696
 20
4402.635294509082
 30
0.0
 11
18152.76627709696
 21
4362.635294509082
 31
0.0
  0
LINE
  5
5854
330
19
100
AcDbEntity
  8
FUTO
100
AcDbLine
 10
18532.76627709694
 20
4402.635294509082
 30
0.0
 11
18492.76627709694
 21
4362.635294509082
 31
0.0
  0
LINE
  5
5855
330
19
100
AcDbEntity
  8
1
100
AcDbLine
 10
18492.76627709694
 20
4362.635294509082
 30
0.0
 11
18322.76627709695
 21
4362.635294509082
 31
0.0
  0
LINE
  5
5856
330
19
100
AcDbEntity
  8
1
100
AcDbLine
 10
18412.76627709694
 20
4707.635294509082
 30
0.0
 11
18535.06627709694
 21
4585.735294509082
 31
0.0
  0
LINE
  5
5857
330
19
100
AcDbEntity
  8
1
100
AcDbLine
 10
18232.76627709694
 20
4707.635294509082
 30
0.0
 11
18110.46627709696
 21
4585.735294509082
 31
0.0
  0
LINE
  5
5858
330
19
100
AcDbEntity
  8
1
100
AcDbLine
 10
18232.76627709694
 20
4707.635294509084
 30
0.0
 11
18412.76627709694
 21
4707.635294509082
 31
0.0
  0
LINE
  5
599C
330
19
100
AcDbEntity
  8
1
100
AcDbLine
 10
18072.76627709694
 20
5422.362935220169
 30
0.0
 11
18072.76627709694
 21
5732.36293522018
 31
0.0
  0
LINE
  5
599D
330
19
100
AcDbEntity
  8
1
100
AcDbLine
 10
18112.76627709694
 20
5422.362935220169
 30
0.0
 11
18112.76627709694
 21
5732.36293522018
 31
0.0
  0
LINE
  5
599E
330
19
100
AcDbEntity
  8
1
100
AcDbLine
 10
18112.76627709694
 20
5732.36293522018
 30
0.0
 11
18072.76627709694
 21
5732.36293522018
 31
0.0
  0
LINE
  5
599F
330
19
100
AcDbEntity
  8
CT
100
AcDbLine
 10
18075.0739889003
 20
5702.362935220168
 30
0.0
 11
18105.76627709694
 21
5702.362935220168
 31
0.0
  0
CIRCLE
  5
59A0
330
19
100
AcDbEntity
  8
1
100
AcDbCircle
 10
18090.76627709694
 20
5702.362935220168
 30
0.0
 40
6.0
  0
LINE
  5
59A1
330
19
100
AcDbEntity
  8
CT
100
AcDbLine
 10
18090.76627709694
 20
5718.497643102718
 30
0.0
 11
18090.76627709694
 21
5682.830563598277
 31
0.0
  0
LWPOLYLINE
  5
59A2
330
19
100
AcDbEntity
  8
1
100
AcDbPolyline
 90
        2
 70
     0
 43
0.0
 10
18112.76627709694
 20
5722.866971870885
 10
18308.16627709694
 20
5722.866971870885
  0
LWPOLYLINE
  5
59A3
330
19
100
AcDbEntity
  8
1
100
AcDbPolyline
 90
        2
 70
     0
 43
0.0
 10
18112.76627709694
 20
5470.762935220171
 10
18229.03027038367
 20
5470.762935220171
  0
LINE
  5
59A4
330
19
100
AcDbEntity
  8
CT
100
AcDbLine
 10
18090.76627709694
 20
5468.497643102718
 30
0.0
 11
18090.76627709694
 21
5432.830563598277
 31
0.0
  0
LINE
  5
59A5
330
19
100
AcDbEntity
  8
1
100
AcDbLine
 10
18072.76627709694
 20
5422.362935220169
 30
0.0
 11
18112.76627709694
 21
5422.362935220169
 31
0.0
  0
CIRCLE
  5
59A6
330
19
100
AcDbEntity
  8
1
100
AcDbCircle
 10
18090.76627709694
 20
5452.362935220168
 30
0.0
 40
6.0
  0
LINE
  5
59A7
330
19
100
AcDbEntity
  8
CT
100
AcDbLine
 10
18075.0739889003
 20
5452.362935220168
 30
0.0
 11
18105.76627709694
 21
5452.362935220168
 31
0.0
  0
LWPOLYLINE
  5
59A8
330
19
100
AcDbEntity
  8
1
100
AcDbPolyline
 90
        2
 70
     0
 43
0.0
 10
18416.50228381021
 20
5470.762935220171
 10
18532.76627709694
 20
5470.762935220168
  0
LINE
  5
59A9
330
19
100
AcDbEntity
  8
CT
100
AcDbLine
 10
18554.76627709694
 20
5468.497643102718
 30
0.0
 11
18554.76627709694
 21
5432.830563598277
 31
0.0
  0
LINE
  5
59AA
330
19
100
AcDbEntity
  8
1
100
AcDbLine
 10
18532.76627709694
 20
5422.362935220172
 30
0.0
 11
18572.76627709694
 21
5422.362935220169
 31
0.0
  0
LINE
  5
59AB
330
19
100
AcDbEntity
  8
CT
100
AcDbLine
 10
18570.45856529358
 20
5452.362935220168
 30
0.0
 11
18539.76627709694
 21
5452.362935220168
 31
0.0
  0
CIRCLE
  5
59AC
330
19
100
AcDbEntity
  8
1
100
AcDbCircle
 10
18554.76627709694
 20
5452.362935220168
 30
0.0
 40
6.0
  0
LINE
  5
59AD
330
19
100
AcDbEntity
  8
1
100
AcDbLine
 10
18572.76627709694
 20
5422.362935220169
 30
0.0
 11
18572.76627709694
 21
5732.362935220169
 31
0.0
  0
LINE
  5
59AE
330
19
100
AcDbEntity
  8
1
100
AcDbLine
 10
18532.76627709694
 20
5422.362935220169
 30
0.0
 11
18532.76627709694
 21
5732.362935220169
 31
0.0
  0
CIRCLE
  5
59AF
330
19
100
AcDbEntity
  8
1
100
AcDbCircle
 10
18554.76627709694
 20
5702.362935220168
 30
0.0
 40
6.0
  0
LINE
  5
59B0
330
19
100
AcDbEntity
  8
CT
100
AcDbLine
 10
18554.76627709694
 20
5718.497643102718
 30
0.0
 11
18554.76627709694
 21
5682.830563598277
 31
0.0
  0
LINE
  5
59B1
330
19
100
AcDbEntity
  8
FUTO
100
AcDbLine
 10
18532.76627709694
 20
5732.362935220169
 30
0.0
 11
18572.76627709694
 21
5732.362935220169
 31
0.0
  0
LWPOLYLINE
  5
59B2
330
19
100
AcDbEntity
  8
1
100
AcDbPolyline
 90
        2
 70
     0
 43
0.0
 10
18337.36617709694
 20
5722.866971870885
 10
18532.76627709694
 20
5722.866971870885
  0
LINE
  5
59B3
330
19
100
AcDbEntity
  8
CT
100
AcDbLine
 10
18570.45856529358
 20
5702.362935220168
 30
0.0
 11
18539.76627709694
 21
5702.362935220168
 31
0.0
  0
DIMENSION
  5
5E6E
330
19
100
AcDbEntity
  8
SP
100
AcDbDimension
  2
*D17
 10
18572.76627709695
 20
3941.635294509082
 30
0.0
 11
18447.76627709695
 21
3979.135294509082
 31
0.0
 70
    32
 71
     5
 42
249.9999999999927
  3
GOD
100
AcDbAlignedDimension
 13
18322.76627709696
 23
4011.265404136124
 33
0.0
 14
18572.76627709695
 24
4046.635294509082
 34
0.0
100
AcDbRotatedDimension
  0
LINE
  5
5E6F
330
19
100
AcDbEntity
  8
FUTO
100
AcDbLine
 10
18112.76627709696
 20
4111.635294509082
 30
0.0
 11
18532.76627709695
 21
4111.635294509082
 31
0.0
  0
LINE
  5
5E70
330
19
100
AcDbEntity
  8
FUTO
100
AcDbLine
 10
18112.76627709696
 20
4071.635294509081
 30
0.0
 11
18532.76627709695
 21
4071.635294509081
 31
0.0
  0
DIMENSION
  5
5E71
330
19
100
AcDbEntity
  8
SP
100
AcDbDimension
  2
*D18
 10
18572.76627709695
 20
3836.635294509083
 30
0.0
 11
18322.76627709696
 21
3874.135294509083
 31
0.0
 70
    32
 71
     5
 42
499.9999999999854
  3
GOD
100
AcDbAlignedDimension
 13
18072.76627709696
 23
4046.635294509082
 33
0.0
 14
18572.76627709695
 24
4046.635294509082
 34
0.0
100
AcDbRotatedDimension
  0
DIMENSION
  5
5E72
330
19
100
AcDbEntity
  8
SP
100
AcDbDimension
  2
*D19
 10
18072.76627709696
 20
3941.635294509082
 30
0.0
 11
18197.76627709696
 21
3979.135294509082
 31
0.0
 70
    32
 71
     5
 42
249.9999999999927
  3
GOD
100
AcDbAlignedDimension
 13
18322.76627709696
 23
4011.265404136124
 33
0.0
 14
18072.76627709696
 24
4046.635294509082
 34
0.0
100
AcDbRotatedDimension
  0
LINE
  5
5E73
330
19
100
AcDbEntity
  8
FUTO
100
AcDbLine
 10
18112.76627709696
 20
4111.635294509082
 30
0.0
 11
18112.76627709696
 21
4046.635294509082
 31
0.0
  0
LINE
  5
5E74
330
19
100
AcDbEntity
  8
FUTO
100
AcDbLine
 10
18109.56627709696
 20
4108.435294509082
 30
0.0
 11
18109.56627709696
 21
4049.835294509082
 31
0.0
  0
LINE
  5
5E75
330
19
100
AcDbEntity
  8
FUTO
100
AcDbLine
 10
18072.76627709696
 20
4111.635294509082
 30
0.0
 11
18072.76627709696
 21
4108.435294509082
 31
0.0
  0
LINE
  5
5E76
330
19
100
AcDbEntity
  8
FUTO
100
AcDbLine
 10
18072.76627709696
 20
4049.835294509083
 30
0.0
 11
18072.76627709696
 21
4046.635294509082
 31
0.0
  0
LINE
  5
5E77
330
19
100
AcDbEntity
  8
FUTO
100
AcDbLine
 10
18072.76627709696
 20
4111.635294509082
 30
0.0
 11
18112.76627709696
 21
4111.635294509082
 31
0.0
  0
LINE
  5
5E78
330
19
100
AcDbEntity
  8
FUTO
100
AcDbLine
 10
18072.76627709696
 20
4046.635294509082
 30
0.0
 11
18112.76627709696
 21
4046.635294509082
 31
0.0
  0
LINE
  5
5E79
330
19
100
AcDbEntity
  8
FUTO
100
AcDbLine
 10
18072.76627709696
 20
4108.435294509082
 30
0.0
 11
18109.56627709696
 21
4108.435294509082
 31
0.0
  0
LINE
  5
5E7A
330
19
100
AcDbEntity
  8
FUTO
100
AcDbLine
 10
18072.76627709696
 20
4049.835294509082
 30
0.0
 11
18109.56627709696
 21
4049.835294509082
 31
0.0
  0
LINE
  5
5E7B
330
19
100
AcDbEntity
  8
FUTO
100
AcDbLine
 10
18572.76627709695
 20
4049.835294509082
 30
0.0
 11
18535.96627709695
 21
4049.835294509082
 31
0.0
  0
LINE
  5
5E7C
330
19
100
AcDbEntity
  8
FUTO
100
AcDbLine
 10
18572.76627709695
 20
4108.435294509082
 30
0.0
 11
18535.96627709695
 21
4108.435294509082
 31
0.0
  0
LINE
  5
5E7D
330
19
100
AcDbEntity
  8
FUTO
100
AcDbLine
 10
18572.76627709695
 20
4046.635294509082
 30
0.0
 11
18532.76627709695
 21
4046.635294509082
 31
0.0
  0
LINE
  5
5E7E
330
19
100
AcDbEntity
  8
FUTO
100
AcDbLine
 10
18572.76627709695
 20
4111.635294509082
 30
0.0
 11
18532.76627709695
 21
4111.635294509082
 31
0.0
  0
LINE
  5
5E7F
330
19
100
AcDbEntity
  8
FUTO
100
AcDbLine
 10
18572.76627709695
 20
4049.835294509083
 30
0.0
 11
18572.76627709695
 21
4046.635294509082
 31
0.0
  0
LINE
  5
5E80
330
19
100
AcDbEntity
  8
FUTO
100
AcDbLine
 10
18572.76627709695
 20
4111.635294509082
 30
0.0
 11
18572.76627709695
 21
4108.435294509082
 31
0.0
  0
LINE
  5
5E81
330
19
100
AcDbEntity
  8
FUTO
100
AcDbLine
 10
18535.96627709695
 20
4108.435294509082
 30
0.0
 11
18535.96627709695
 21
4049.835294509082
 31
0.0
  0
LINE
  5
5E82
330
19
100
AcDbEntity
  8
FUTO
100
AcDbLine
 10
18532.76627709695
 20
4111.635294509082
 30
0.0
 11
18532.76627709695
 21
4046.635294509082
 31
0.0
  0
DIMENSION
  5
5E83
330
19
100
AcDbEntity
  8
SP
100
AcDbDimension
  2
*D20
 10
18782.76627709694
 20
4046.635294509082
 30
0.0
 11
18745.26627709694
 21
3918.253417226484
 31
0.0
 70
    32
 71
     5
 42
65.00000000000046
  3
GOD
100
AcDbAlignedDimension
 13
18572.76627709695
 23
4111.635294509082
 33
0.0
 14
18572.76627709695
 24
4046.635294509082
 34
0.0
 50
90.0
100
AcDbRotatedDimension
1001
ACAD
1000
DSTYLE
1002
{
1070
   343
1005
1EB4
1002
}
  0
DIMENSION
  5
5E84
330
19
100
AcDbEntity
  8
SP
100
AcDbDimension
  2
*D21
 10
18782.76627709694
 20
4111.635294509082
 30
0.0
 11
18831.67818873329
 21
4122.156269079558
 31
0.0
 70
   160
 71
     5
 42
36.0
  3
GOD
100
AcDbAlignedDimension
 13
18572.76627709695
 23
4147.635294509082
 33
0.0
 14
18572.76627709695
 24
4111.635294509082
 34
0.0
 50
90.0
100
AcDbRotatedDimension
1001
ACAD
1000
DSTYLE
1002
{
1070
   279
1070
     2
1070
   344
1005
5AD4
1070
   343
1005
5AD4
1070
     3
1000
（<>）
1002
}
  0
LINE
  5
60E4
330
19
100
AcDbEntity
  8
FUTO
100
AcDbLine
 10
19228.61370464045
 20
4111.63529450908
 30
0.0
 11
19538.61370464045
 21
4111.63529450908
 31
0.0
  0
LINE
  5
60E5
330
19
100
AcDbEntity
  8
FUTO
100
AcDbLine
 10
19228.61370464045
 20
4046.63529450908
 30
0.0
 11
19538.61370464045
 21
4046.635294509079
 31
0.0
  0
LINE
  5
60E6
330
19
100
AcDbEntity
  8
FUTO
100
AcDbLine
 10
19228.61370464045
 20
4108.435294509081
 30
0.0
 11
19538.61370464045
 21
4108.435294509081
 31
0.0
  0
LINE
  5
60E7
330
19
100
AcDbEntity
  8
FUTO
100
AcDbLine
 10
19228.61370464045
 20
4049.83529450908
 30
0.0
 11
19538.61370464045
 21
4049.835294509079
 31
0.0
  0
DIMENSION
  5
60E8
330
19
100
AcDbEntity
  8
SP
100
AcDbDimension
  2
*D22
 10
19538.61370464045
 20
3941.635294509079
 30
0.0
 11
19383.61370464045
 21
3979.135294509079
 31
0.0
 70
    32
 71
     5
 42
310.0
  3
GOD
100
AcDbAlignedDimension
 13
19228.61370464045
 23
4046.63529450908
 33
0.0
 14
19538.61370464045
 24
4046.635294509079
 34
0.0
100
AcDbRotatedDimension
  0
LINE
  5
60E9
330
19
100
AcDbEntity
  8
FUTO
100
AcDbLine
 10
19228.61370464045
 20
4111.63529450908
 30
0.0
 11
19228.61370464045
 21
4046.63529450908
 31
0.0
  0
LINE
  5
60EA
330
19
100
AcDbEntity
  8
FUTO
100
AcDbLine
 10
19538.61370464045
 20
4111.63529450908
 30
0.0
 11
19538.61370464045
 21
4046.63529450908
 31
0.0
  0
TEXT
  5
614D
330
19
100
AcDbEntity
  8
4
100
AcDbText
 10
19524.12014238469
 20
6397.953053740807
 30
0.0
 40
80.99999999999999
  1
縮尺：1/15
100
AcDbText
  0
TEXT
  5
614E
330
19
100
AcDbEntity
  8
4
100
AcDbText
 10
18533.95114513362
 20
6397.953053740807
 30
0.0
 40
80.99999999999999
  1
床置防振ベッド型
100
AcDbText
  0
LWPOLYLINE
  5
6202
330
19
100
AcDbEntity
  8
1
100
AcDbPolyline
 90
        3
 70
     0
 43
0.0
 10
19781.61370464045
 20
4684.135294509081
 10
19781.61370464045
 20
4502.635294509081
 10
19781.61370464045
 20
4321.135294509082
  0
LINE
  5
6203
330
19
100
AcDbEntity
  8
1
100
AcDbLine
 10
19774.61370464045
 20
4320.135294509083
 30
0.0
 11
19780.61370464045
 21
4320.135294509083
 31
0.0
  0
ARC
  5
6204
330
19
100
AcDbEntity
  8
1
100
AcDbCircle
 10
19774.61370464045
 20
4319.135294509082
 30
0.0
 40
1.0
100
AcDbArc
 50
90.0
 51
180.0
  0
ARC
  5
6205
330
19
100
AcDbEntity
  8
1
100
AcDbCircle
 10
19780.61370464045
 20
4321.135294509082
 30
0.0
 40
1.0
100
AcDbArc
 50
270.0
 51
0.0
  0
LINE
  5
6206
330
19
100
AcDbEntity
  8
FUTO
100
AcDbLine
 10
19781.61370464045
 20
4345.13529450908
 30
0.0
 11
19773.61370464045
 21
4345.13529450908
 31
0.0
  0
LINE
  5
6207
330
19
100
AcDbEntity
  8
FUTO
100
AcDbLine
 10
19781.61370464045
 20
4660.135294509079
 30
0.0
 11
19773.61370464045
 21
4660.135294509079
 31
0.0
  0
LINE
  5
6208
330
19
100
AcDbEntity
  8
1
100
AcDbLine
 10
19774.61370464045
 20
4685.13529450908
 30
0.0
 11
19780.61370464045
 21
4685.13529450908
 31
0.0
  0
ARC
  5
6209
330
19
100
AcDbEntity
  8
1
100
AcDbCircle
 10
19774.61370464045
 20
4686.13529450908
 30
0.0
 40
1.0
100
AcDbArc
 50
180.0
 51
270.0
  0
ARC
  5
620A
330
19
100
AcDbEntity
  8
1
100
AcDbCircle
 10
19780.61370464045
 20
4684.13529450908
 30
0.0
 40
1.0
100
AcDbArc
 50
0.0
 51
90.0
  0
LINE
  5
620B
330
19
100
AcDbEntity
  8
FUTO
100
AcDbLine
 10
19563.61370464045
 20
4725.922514625555
 30
0.0
 11
19757.61370464045
 21
4725.922514625554
 31
0.0
  0
LINE
  5
620C
330
19
100
AcDbEntity
  8
1
100
AcDbLine
 10
19547.61370464045
 20
4709.922514625555
 30
0.0
 11
19547.61370464045
 21
4523.813219867591
 31
0.0
  0
ARC
  5
620D
330
19
100
AcDbEntity
  8
FUTO
100
AcDbCircle
 10
19563.61370464045
 20
4709.922514625555
 30
0.0
 40
16.0
100
AcDbArc
 50
90.0
 51
180.0000000000002
  0
ARC
  5
620E
330
19
100
AcDbEntity
  8
FUTO
100
AcDbCircle
 10
19757.61370464045
 20
4709.922514625554
 30
0.0
 40
16.0
100
AcDbArc
 50
0.0000000000010178
 51
89.99999999999971
  0
LINE
  5
620F
330
19
100
AcDbEntity
  8
1
100
AcDbLine
 10
19773.61370464045
 20
4709.922514625554
 30
0.0
 11
19773.61370464045
 21
4523.813219867592
 31
0.0
  0
LINE
  5
638E
330
19
100
AcDbEntity
  8
1
100
AcDbLine
 10
19538.61370464045
 20
4697.95340534661
 30
0.0
 11
19357.0517214325
 21
4502.635294509079
 31
0.0
  0
LINE
  5
63B3
330
19
100
AcDbEntity
  8
1
100
AcDbLine
 10
19539.61370464045
 20
4684.135294509078
 30
0.0
 11
19539.61370464045
 21
4520.489451013149
 31
0.0
  0
DIMENSION
  5
63B4
330
19
100
AcDbEntity
  8
SP
100
AcDbDimension
  2
*D30
 10
19239.61370464045
 20
4934.922514625554
 30
0.0
 11
19450.11370464045
 21
4984.208228911269
 31
0.0
 70
    32
  1
(420)
 71
     5
 42
421.0
  3
GOD
100
AcDbAlignedDimension
 13
19660.61370464045
 23
4899.89786701067
 33
0.0
 14
19239.61370464045
 24
4586.21619450908
 34
0.0
100
AcDbRotatedDimension
1001
ACAD
1000
DSTYLE
1002
{
1070
   279
1070
     1
1002
}
  0
DIMENSION
  5
63C1
330
19
100
AcDbEntity
  8
SP
100
AcDbDimension
  2
*D31
 10
19660.61370464045
 20
3941.635294509079
 30
0.0
 11
19784.17342591977
 21
3946.968739487617
 31
0.0
 70
   160
 71
     5
 42
122.0
  3
GOD
100
AcDbAlignedDimension
 13
19538.61370464045
 23
4046.635294509079
 33
0.0
 14
19660.61370464045
 24
4098.209413630673
 34
0.0
100
AcDbRotatedDimension
1001
ACAD
1000
DSTYLE
1002
{
1070
   279
1070
     1
1002
}
  0
ENDSEC
  0
SECTION
  2
OBJECTS
  0
DICTIONARY
  5
C
330
0
100
AcDbDictionary
281
     1
  3
ACAD_CIP_PREVIOUS_PRODUCT_INFO
350
62B6
  3
ACAD_COLOR
350
6298
  3
ACAD_DETAILVIEWSTYLE
350
62B1
  3
ACAD_GROUP
350
D
  3
ACAD_LAYOUT
350
1E92
  3
ACAD_MATERIAL
350
6266
  3
ACAD_MLEADERSTYLE
350
62AD
  3
ACAD_MLINESTYLE
350
E
  3
ACAD_PLOTSETTINGS
350
1E93
  3
ACAD_PLOTSTYLENAME
350
1E90
  3
ACAD_SCALELIST
350
629B
  3
ACAD_SECTIONVIEWSTYLE
350
62AF
  3
ACAD_TABLESTYLE
350
6299
  3
ACAD_VISUALSTYLE
350
627F
  3
AcadDim
350
1EC5
  3
ACDB_RECOMPOSE_DATA
350
6463
  3
AcDbVariableDictionary
350
644D
  3
AcDsDecomposeData
350
646A
  3
DWGPROPS
350
6464
  0
DICTIONARY
  5
641B
330
2
100
AcDbDictionary
280
     1
281
     1
  3
ACAD_LAYERSTATES
360
641C
  0
DICTIONARY
  5
6400
330
F
100
AcDbDictionary
280
     1
281
     1
  3
ADSK_XREC_LAYER_RECONCILED
360
6401
  0
DICTIONARY
  5
6402
330
2F
100
AcDbDictionary
280
     1
281
     1
  3
ADSK_XREC_LAYER_RECONCILED
360
6403
  0
DICTIONARY
  5
6404
330
30
100
AcDbDictionary
280
     1
281
     1
  3
ADSK_XREC_LAYER_RECONCILED
360
6405
  0
DICTIONARY
  5
6406
330
32
100
AcDbDictionary
280
     1
281
     1
  3
ADSK_XREC_LAYER_RECONCILED
360
6407
  0
DICTIONARY
  5
6408
330
33
100
AcDbDictionary
280
     1
281
     1
  3
ADSK_XREC_LAYER_RECONCILED
360
6409
  0
DICTIONARY
  5
640A
330
34
100
AcDbDictionary
280
     1
281
     1
  3
ADSK_XREC_LAYER_RECONCILED
360
640B
  0
DICTIONARY
  5
640C
330
35
100
AcDbDictionary
280
     1
281
     1
  3
ADSK_XREC_LAYER_RECONCILED
360
640D
  0
DICTIONARY
  5
640E
330
36
100
AcDbDictionary
280
     1
281
     1
  3
ADSK_XREC_LAYER_RECONCILED
360
640F
  0
DICTIONARY
  5
6410
330
1EEE
100
AcDbDictionary
280
     1
281
     1
  3
ADSK_XREC_LAYER_RECONCILED
360
6411
  0
DICTIONARY
  5
6412
330
1EEF
100
AcDbDictionary
280
     1
281
     1
  3
ADSK_XREC_LAYER_RECONCILED
360
6413
  0
DICTIONARY
  5
6414
330
1EF0
100
AcDbDictionary
280
     1
281
     1
  3
ADSK_XREC_LAYER_RECONCILED
360
6415
  0
DICTIONARY
  5
6416
330
2188
100
AcDbDictionary
280
     1
281
     1
  3
ADSK_XREC_LAYER_RECONCILED
360
6417
  0
DICTIONARY
  5
638F
330
19
100
AcDbDictionary
280
     1
281
     1
  3
ACAD_SORTENTS
360
6390
  0
XRECORD
  5
62B6
102
{ACAD_REACTORS
330
C
102
}
330
C
100
AcDbXrecord
280
     1
300
ACDLT
300
2015
300
INVLTS_F_S
  0
DICTIONARY
  5
6298
102
{ACAD_REACTORS
330
C
102
}
330
C
100
AcDbDictionary
281
     1
  0
DICTIONARY
  5
62B1
102
{ACAD_REACTORS
330
C
102
}
330
C
100
AcDbDictionary
281
     1
  3
Metric50
350
62B2
  0
DICTIONARY
  5
D
102
{ACAD_REACTORS
330
C
102
}
330
C
100
AcDbDictionary
281
     1
  0
DICTIONARY
  5
1E92
102
{ACAD_REACTORS
330
C
102
}
330
C
100
AcDbDictionary
281
     1
  3
Model
350
1E94
  3
ﾚｲｱｳﾄ1
350
1E95
  0
DICTIONARY
  5
6266
102
{ACAD_REACTORS
330
C
102
}
330
C
100
AcDbDictionary
281
     1
  3
ByBlock
350
626F
  3
ByLayer
350
6267
  3
Global
350
6277
  0
DICTIONARY
  5
62AD
102
{ACAD_REACTORS
330
C
102
}
330
C
100
AcDbDictionary
281
     1
  3
Standard
350
62AE
  0
DICTIONARY
  5
E
102
{ACAD_REACTORS
330
C
102
}
330
C
100
AcDbDictionary
281
     1
  3
STANDARD
350
1C
  0
DICTIONARY
  5
1E93
102
{ACAD_REACTORS
330
C
102
}
330
C
100
AcDbDictionary
281
     1
  0
ACDBDICTIONARYWDFLT
  5
1E90
102
{ACAD_REACTORS
330
C
102
}
330
C
100
AcDbDictionary
281
     1
  3
Normal
350
1E91
100
AcDbDictionaryWithDefault
340
1E91
  0
DICTIONARY
  5
629B
102
{ACAD_REACTORS
330
C
102
}
330
C
100
AcDbDictionary
281
     1
  3
A0
350
629C
  3
A1
350
629D
  3
A2
350
629E
  3
A3
350
629F
  3
A4
350
62A0
  3
A5
350
62A1
  3
A6
350
62A2
  3
A7
350
62A3
  3
A8
350
62A4
  3
A9
350
62A5
  3
B0
350
62A6
  3
B1
350
62A7
  3
B2
350
62A8
  3
B3
350
62A9
  3
B4
350
62AA
  3
B5
350
62AB
  3
B6
350
62AC
  0
DICTIONARY
  5
62AF
102
{ACAD_REACTORS
330
C
102
}
330
C
100
AcDbDictionary
281
     1
  3
Metric50
350
62B0
  0
DICTIONARY
  5
6299
102
{ACAD_REACTORS
330
C
102
}
330
C
100
AcDbDictionary
281
     1
  3
Standard
350
629A
  0
DICTIONARY
  5
627F
102
{ACAD_REACTORS
330
C
102
}
330
C
100
AcDbDictionary
281
     1
  3
2dWireframe
350
6285
  3
Basic
350
6284
  3
Brighten
350
628B
  3
ColorChange
350
628F
  3
Conceptual
350
6288
  3
Dim
350
628A
  3
EdgeColorOff
350
6297
  3
Facepattern
350
628E
  3
Flat
350
6280
  3
FlatWithEdges
350
6281
  3
Gouraud
350
6282
  3
GouraudWithEdges
350
6283
  3
Hidden
350
6287
  3
JitterOff
350
6295
  3
Linepattern
350
628D
  3
OverhangOff
350
6296
  3
Realistic
350
6289
  3
Shaded
350
6294
  3
Shaded with edges
350
6293
  3
Shades of Gray
350
6290
  3
Sketchy
350
6291
  3
Thicken
350
628C
  3
Wireframe
350
6286
  3
X-Ray
350
6292
  0
XRECORD
  5
1EC5
102
{ACAD_REACTORS
330
C
102
}
330
C
100
AcDbXrecord
280
     1
 90
   990106
  3

 60
     0
 61
     0
 62
     4
 63
     4
 64
     1
 65
     0
 66
     1
 67
     3
 68
     1
 69
     0
 70
     0
 71
     0
 72
     0
 40
0.0
170
     1
340
0
  0
XRECORD
  5
6463
102
{ACAD_REACTORS
330
C
102
}
330
C
100
AcDbXrecord
280
     1
 90
        1
330
5E84
330
629A
  0
DICTIONARY
  5
644D
102
{ACAD_REACTORS
330
C
102
}
330
C
100
AcDbDictionary
281
     1
  3
CANNOSCALE
350
6453
  3
CMLEADERSTYLE
350
644F
  3
CTABLESTYLE
350
644E
  3
CVIEWDETAILSTYLE
350
6450
  3
CVIEWSECTIONSTYLE
350
6451
  3
DIMASSOC
350
645F
  3
INDEXCTL
350
645E
  3
LAYEREVAL
350
6455
  3
LAYERNOTIFY
350
6456
  3
LIGHTINGUNITS
350
6454
  3
MSLTSCALE
350
6452
  3
SORTENTS
350
645D
  3
XCLIPFRAME
350
6460
  0
DICTIONARY
  5
646A
102
{ACAD_REACTORS
330
C
102
}
330
C
100
AcDbDictionary
281
     1
  3
AcDsRecords
350
646C
  3
AcDsSchemas
350
646B
1001
ACAD
1070
     2
  0
XRECORD
  5
6464
102
{ACAD_REACTORS
330
C
102
}
330
C
100
AcDbXrecord
280
     1
  1
DWGPROPS COOKIE
  2

  3

  4

  6

  7

  8
toshiyuki.morita
  9

300
=
301
=
302
=
303
=
304
=
305
=
306
=
307
=
308
=
309
=
 40
0.4766009027777778
 41
2454939.604632489
 42
2459353.581326076
  1

 90
        0
  0
DICTIONARY
  5
641C
102
{ACAD_REACTORS
330
641B
102
}
330
641B
100
AcDbDictionary
281
     1
  0
XRECORD
  5
6401
102
{ACAD_REACTORS
330
6400
102
}
330
6400
100
AcDbXrecord
280
     1
290
     1
  0
XRECORD
  5
6403
102
{ACAD_REACTORS
330
6402
102
}
330
6402
100
AcDbXrecord
280
     1
290
     1
  0
XRECORD
  5
6405
102
{ACAD_REACTORS
330
6404
102
}
330
6404
100
AcDbXrecord
280
     1
290
     1
  0
XRECORD
  5
6407
102
{ACAD_REACTORS
330
6406
102
}
330
6406
100
AcDbXrecord
280
     1
290
     1
  0
XRECORD
  5
6409
102
{ACAD_REACTORS
330
6408
102
}
330
6408
100
AcDbXrecord
280
     1
290
     1
  0
XRECORD
  5
640B
102
{ACAD_REACTORS
330
640A
102
}
330
640A
100
AcDbXrecord
280
     1
290
     1
  0
XRECORD
  5
640D
102
{ACAD_REACTORS
330
640C
102
}
330
640C
100
AcDbXrecord
280
     1
290
     1
  0
XRECORD
  5
640F
102
{ACAD_REACTORS
330
640E
102
}
330
640E
100
AcDbXrecord
280
     1
290
     1
  0
XRECORD
  5
6411
102
{ACAD_REACTORS
330
6410
102
}
330
6410
100
AcDbXrecord
280
     1
290
     1
  0
XRECORD
  5
6413
102
{ACAD_REACTORS
330
6412
102
}
330
6412
100
AcDbXrecord
280
     1
290
     1
  0
XRECORD
  5
6415
102
{ACAD_REACTORS
330
6414
102
}
330
6414
100
AcDbXrecord
280
     1
290
     1
  0
XRECORD
  5
6417
102
{ACAD_REACTORS
330
6416
102
}
330
6416
100
AcDbXrecord
280
     1
290
     1
  0
SORTENTSTABLE
  5
6390
102
{ACAD_REACTORS
330
638F
102
}
330
638F
100
AcDbSortentsTable
330
19
331
4DC5
  5
4DC6
331
4DC1
  5
4DC2
331
60E5
  5
60E6
331
59A7
  5
59A8
331
4D8A
  5
4D8B
331
4DBD
  5
4DC1
331
59A3
  5
59A4
331
4D86
  5
4D88
331
620C
  5
620D
331
599F
  5
59A0
331
4DB9
  5
4DBA
331
6208
  5
6209
331
5E82
  5
5E83
331
46C7
  5
46C8
331
4DB5
  5
4DB6
331
4D7E
  5
4D7F
331
6204
  5
6205
331
5E7E
  5
5E7F
331
4DB1
  5
4DB2
331
4DAD
  5
4DAE
331
5E7A
  5
5E7B
331
4D76
  5
4D7D
331
4DA9
  5
4DAA
331
5E76
  5
5E77
331
5857
  5
5858
331
4D72
  5
4D73
331
5E72
  5
5E73
331
5853
  5
5854
331
4845
  5
4A2C
331
4841
  5
4842
331
483D
  5
483E
331
4DA5
  5
4DA6
331
4D6E
  5
4D6F
331
5E6E
  5
5E6F
331
584F
  5
5850
331
4DA1
  5
4DA2
331
584B
  5
584C
331
4DDC
  5
5842
331
4DD8
  5
4DD9
331
5847
  5
5848
331
4D99
  5
4D9A
331
5843
  5
5844
331
4DD4
  5
4DD5
331
4DD0
  5
4DD1
331
59B2
  5
59B3
331
4DCC
  5
4DCD
331
59AE
  5
59AF
331
4DC8
  5
4DC9
331
60E8
  5
60E9
331
59AA
  5
59AB
331
46CE
  5
46CF
331
46CA
  5
46CB
331
4DC4
  5
4DC5
331
4D8D
  5
4D92
331
60E4
  5
60E5
331
59A6
  5
59A7
331
4D89
  5
4D8A
331
620F
  5
62B8
331
59A2
  5
59A3
331
4DB8
  5
4DB9
331
620B
  5
620C
331
599E
  5
599F
331
4D81
  5
4D86
331
5E81
  5
5E82
331
46C6
  5
46C7
331
4DB4
  5
4DB5
331
6207
  5
6208
331
4D7D
  5
4D7E
331
6203
  5
6204
331
5E7D
  5
5E7E
331
4DB0
  5
4DB1
331
4DAC
  5
4DAD
331
5E79
  5
5E7A
331
4D75
  5
4D76
331
4DA8
  5
4DA9
331
5E75
  5
5E76
331
5856
  5
5857
331
4D71
  5
4D72
331
5E71
  5
5E72
331
5852
  5
5853
331
4844
  5
4845
331
4840
  5
4841
331
483C
  5
483D
331
46E5
  5
46E7
331
4DA4
  5
4DA5
331
4D6D
  5
4D6E
331
584E
  5
584F
331
4DDB
  5
4DDC
331
4D9C
  5
4DA1
331
584A
  5
584B
331
4A2D
  5
4D6D
331
5846
  5
5847
331
4D98
  5
4D99
331
5842
  5
5843
331
476C
  5
483C
331
46D1
  5
46DB
331
638E
  5
46C6
331
4DD7
  5
4DD8
331
4DD3
  5
4DD4
331
4DCF
  5
4DD0
331
4DCB
  5
4DCC
331
59B1
  5
59B2
331
4D94
  5
4D96
331
59AD
  5
59AE
331
59A9
  5
59AA
331
46CD
  5
46CE
331
46C9
  5
46CA
331
4DC7
  5
4DC8
331
60E7
  5
60E8
331
4DC3
  5
4DC4
331
59A5
  5
59A6
331
4D88
  5
4D89
331
620E
  5
620F
331
59A1
  5
59A2
331
4DBB
  5
4DBD
331
620A
  5
620B
331
5E84
  5
60E4
331
599D
  5
599E
331
4D80
  5
4D81
331
5E80
  5
5E81
331
4DB7
  5
4DB8
331
6206
  5
6207
331
4DB3
  5
4DB4
331
6202
  5
6203
331
5E7C
  5
5E7D
331
4DAB
  5
4DAC
331
614E
  5
6202
331
5E78
  5
5E79
331
4D74
  5
4D75
331
5E74
  5
5E75
331
5855
  5
5856
331
4D70
  5
4D71
331
5E70
  5
5E71
331
5851
  5
5852
331
4843
  5
4844
331
483F
  5
4840
331
46E4
  5
46E5
331
4DA7
  5
4DA8
331
4DA3
  5
4DA4
331
584D
  5
584E
331
4DDA
  5
4DDB
331
4D9B
  5
4D9C
331
5849
  5
584A
331
4A2C
  5
4A2D
331
5845
  5
5846
331
476B
  5
476C
331
46D0
  5
46D1
331
4DD6
  5
4DD7
331
4DD2
  5
4DD3
331
4DCE
  5
4DCF
331
4D97
  5
4D98
331
4DCA
  5
4DCB
331
59B0
  5
59B1
331
4D93
  5
4D94
331
60EA
  5
614D
331
59AC
  5
59AD
331
59A8
  5
59A9
331
46C8
  5
46C9
331
4DC6
  5
4DC7
331
4DC2
  5
4DC3
331
60E6
  5
60E7
331
4D8B
  5
4D8D
331
59A4
  5
59A5
331
620D
  5
620E
331
59A0
  5
59A1
331
4DBA
  5
4DBB
331
6209
  5
620A
331
5E83
  5
5E84
331
599C
  5
599D
331
4DB6
  5
4DB7
331
4D7F
  5
4D80
331
6205
  5
6206
331
5E7F
  5
5E80
331
4DB2
  5
4DB3
331
5E7B
  5
5E7C
331
4DAE
  5
4DB0
331
4DAA
  5
4DAB
331
614D
  5
614E
331
5E77
  5
5E78
331
5858
  5
599C
331
4D73
  5
4D74
331
5E73
  5
5E74
331
5854
  5
5855
331
5850
  5
5851
331
4842
  5
4843
331
483E
  5
483F
331
46E7
  5
476B
331
46E3
  5
46E4
331
4DA6
  5
4DA7
331
4D6F
  5
4D70
331
5E6F
  5
5E70
331
4DA2
  5
4DA3
331
584C
  5
584D
331
4DD9
  5
4DDA
331
5848
  5
5849
331
4D9A
  5
4D9B
331
5844
  5
5845
331
46DB
  5
46E3
331
4DD5
  5
4DD6
331
4DD1
  5
4DD2
331
4DCD
  5
4DCE
331
59B3
  5
5E6E
331
4D96
  5
4D97
331
4DC9
  5
4DCA
331
59AF
  5
59B0
331
4D92
  5
4D93
331
60E9
  5
60EA
331
59AB
  5
59AC
331
46CF
  5
46D0
331
46CB
  5
46CD
  0
ACDBDETAILVIEWSTYLE
  5
62B2
102
{ACAD_XDICTIONARY
360
644B
102
}
102
{ACAD_REACTORS
330
62B1
102
}
330
62B1
100
AcDbModelDocViewStyle
 70
     0
  3
Metric50
290
     0
100
AcDbDetailViewStyle
 70
     0
 71
     0
 90
        3
 71
     1
340
10
 40
5.0
340
0
 40
5.0
300

 40
0.0
280
     1
 71
     2
340
15
 90
       25
 71
     3
340
10
 40
5.0
 90
        0
 40
15.0
 90
        1
300
%<\AcVar ViewDetailId>% (%<\AcVar ViewScale \f "%sn">%)
 71
     4
340
15
 90
       25
340
15
 90
       25
280
     0
  0
LAYOUT
  5
1E94
102
{ACAD_XDICTIONARY
360
646D
102
}
102
{ACAD_REACTORS
330
1E92
102
}
330
1E92
100
AcDbPlotSettings
  1

  2
EPSON LP-9300
  4

  6

 40
0.0
 41
0.0
 42
0.0
 43
0.0
 44
0.0
 45
0.0
 46
0.0
 47
0.0
 48
0.0
 49
0.0
140
0.0
141
0.0
142
1.0
143
1.0
 70
  1712
 72
     0
 73
     0
 74
     0
  7
GOD2000TABLE.ctb
 75
     0
147
1.0
148
0.0
149
0.0
100
AcDbLayout
  1
Model
 70
     1
 71
     0
 10
0.0
 20
0.0
 11
12.0
 21
9.0
 12
0.0
 22
0.0
 32
0.0
 14
0.0
 24
0.0
 34
0.0
 15
0.0
 25
0.0
 35
0.0
146
0.0
 13
0.0
 23
0.0
 33
0.0
 16
1.0
 26
0.0
 36
0.0
 17
0.0
 27
1.0
 37
0.0
 76
     0
330
19
331
6264
  0
LAYOUT
  5
1E95
102
{ACAD_XDICTIONARY
360
646F
102
}
102
{ACAD_REACTORS
330
1E92
102
}
330
1E92
100
AcDbPlotSettings
  1

  2
EPSON LP-9300
  4

  6

 40
0.0
 41
0.0
 42
0.0
 43
0.0
 44
0.0
 45
0.0
 46
0.0
 47
0.0
 48
0.0
 49
0.0
140
0.0
141
0.0
142
1.0
143
1.0
 70
   688
 72
     0
 73
     0
 74
     5
  7
GOD2000TABLE.ctb
 75
    16
147
1.0
148
0.0
149
0.0
100
AcDbLayout
  1
ﾚｲｱｳﾄ1
 70
     0
 71
     1
 10
0.0
 20
0.0
 11
12.0
 21
9.0
 12
0.0
 22
0.0
 32
0.0
 14
1.000000000000000E+20
 24
1.000000000000000E+20
 34
1.000000000000000E+20
 15
-1.000000000000000E+20
 25
-1.000000000000000E+20
 35
-1.000000000000000E+20
146
0.0
 13
0.0
 23
0.0
 33
0.0
 16
1.0
 26
0.0
 36
0.0
 17
0.0
 27
1.0
 37
0.0
 76
     0
330
16
  0
MATERIAL
  5
626F
102
{ACAD_XDICTIONARY
360
6270
102
}
102
{ACAD_REACTORS
330
6266
102
}
330
6266
100
AcDbMaterial
  1
ByBlock
 72
     0
 43
0.0208333333333333
 43
0.0
 43
0.0
 43
0.0
 43
0.0
 43
0.0208333333333333
 43
0.0
 43
0.0
 43
0.0
 43
0.0
 43
1.0
 43
0.0
 43
0.0
 43
0.0
 43
0.0
 43
1.0
 77
     0
 47
0.0208333333333333
 47
0.0
 47
0.0
 47
0.0
 47
0.0
 47
0.0208333333333333
 47
0.0
 47
0.0
 47
0.0
 47
0.0
 47
1.0
 47
0.0
 47
0.0
 47
0.0
 47
0.0
 47
1.0
171
     0
 49
0.0208333333333333
 49
0.0
 49
0.0
 49
0.0
 49
0.0
 49
0.0208333333333333
 49
0.0
 49
0.0
 49
0.0
 49
0.0
 49
1.0
 49
0.0
 49
0.0
 49
0.0
 49
0.0
 49
1.0
175
     0
142
0.0208333333333333
142
0.0
142
0.0
142
0.0
142
0.0
142
0.0208333333333333
142
0.0
142
0.0
142
0.0
142
0.0
142
1.0
142
0.0
142
0.0
142
0.0
142
0.0
142
1.0
179
     0
144
0.0208333333333333
144
0.0
144
0.0
144
0.0
144
0.0
144
0.0208333333333333
144
0.0
144
0.0
144
0.0
144
0.0
144
1.0
144
0.0
144
0.0
144
0.0
144
0.0
144
1.0
147
0.0208333333333333
147
0.0
147
0.0
147
0.0
147
0.0
147
0.0208333333333333
147
0.0
147
0.0
147
0.0
147
0.0
147
1.0
147
0.0
147
0.0
147
0.0
147
0.0
147
1.0
  0
MATERIAL
  5
6267
102
{ACAD_XDICTIONARY
360
6268
102
}
102
{ACAD_REACTORS
330
6266
102
}
330
6266
100
AcDbMaterial
  1
ByLayer
 72
     0
 43
0.0208333333333333
 43
0.0
 43
0.0
 43
0.0
 43
0.0
 43
0.0208333333333333
 43
0.0
 43
0.0
 43
0.0
 43
0.0
 43
1.0
 43
0.0
 43
0.0
 43
0.0
 43
0.0
 43
1.0
 77
     0
 47
0.0208333333333333
 47
0.0
 47
0.0
 47
0.0
 47
0.0
 47
0.0208333333333333
 47
0.0
 47
0.0
 47
0.0
 47
0.0
 47
1.0
 47
0.0
 47
0.0
 47
0.0
 47
0.0
 47
1.0
171
     0
 49
0.0208333333333333
 49
0.0
 49
0.0
 49
0.0
 49
0.0
 49
0.0208333333333333
 49
0.0
 49
0.0
 49
0.0
 49
0.0
 49
1.0
 49
0.0
 49
0.0
 49
0.0
 49
0.0
 49
1.0
175
     0
142
0.0208333333333333
142
0.0
142
0.0
142
0.0
142
0.0
142
0.0208333333333333
142
0.0
142
0.0
142
0.0
142
0.0
142
1.0
142
0.0
142
0.0
142
0.0
142
0.0
142
1.0
179
     0
144
0.0208333333333333
144
0.0
144
0.0
144
0.0
144
0.0
144
0.0208333333333333
144
0.0
144
0.0
144
0.0
144
0.0
144
1.0
144
0.0
144
0.0
144
0.0
144
0.0
144
1.0
147
0.0208333333333333
147
0.0
147
0.0
147
0.0
147
0.0
147
0.0208333333333333
147
0.0
147
0.0
147
0.0
147
0.0
147
1.0
147
0.0
147
0.0
147
0.0
147
0.0
147
1.0
  0
MATERIAL
  5
6277
102
{ACAD_XDICTIONARY
360
6278
102
}
102
{ACAD_REACTORS
330
6266
102
}
330
6266
100
AcDbMaterial
  1
Global
 72
     0
 43
0.0208333333333333
 43
0.0
 43
0.0
 43
0.0
 43
0.0
 43
0.0208333333333333
 43
0.0
 43
0.0
 43
0.0
 43
0.0
 43
1.0
 43
0.0
 43
0.0
 43
0.0
 43
0.0
 43
1.0
 77
     0
 47
0.0208333333333333
 47
0.0
 47
0.0
 47
0.0
 47
0.0
 47
0.0208333333333333
 47
0.0
 47
0.0
 47
0.0
 47
0.0
 47
1.0
 47
0.0
 47
0.0
 47
0.0
 47
0.0
 47
1.0
171
     0
 49
0.0208333333333333
 49
0.0
 49
0.0
 49
0.0
 49
0.0
 49
0.0208333333333333
 49
0.0
 49
0.0
 49
0.0
 49
0.0
 49
1.0
 49
0.0
 49
0.0
 49
0.0
 49
0.0
 49
1.0
175
     0
142
0.0208333333333333
142
0.0
142
0.0
142
0.0
142
0.0
142
0.0208333333333333
142
0.0
142
0.0
142
0.0
142
0.0
142
1.0
142
0.0
142
0.0
142
0.0
142
0.0
142
1.0
179
     0
144
0.0208333333333333
144
0.0
144
0.0
144
0.0
144
0.0
144
0.0208333333333333
144
0.0
144
0.0
144
0.0
144
0.0
144
1.0
144
0.0
144
0.0
144
0.0
144
0.0
144
1.0
147
0.0208333333333333
147
0.0
147
0.0
147
0.0
147
0.0
147
0.0208333333333333
147
0.0
147
0.0
147
0.0
147
0.0
147
1.0
147
0.0
147
0.0
147
0.0
147
0.0
147
1.0
  0
MLEADERSTYLE
  5
62AE
102
{ACAD_XDICTIONARY
360
64A6
102
}
102
{ACAD_REACTORS
330
62AD
102
}
330
62AD
100
AcDbMLeaderStyle
170
     2
171
     1
172
     0
 90
        2
 40
0.0
 41
0.0
173
     1
 91
-1056964608
340
13
 92
       -2
290
     1
 42
2.0
291
     1
 43
0.36
  3
Standard
 44
4.0
300

342
10
174
     1
178
     6
175
     1
176
     0
 93
-1056964608
 45
4.0
292
     0
297
     0
 46
4.0
 94
-1056964608
 47
1.0
 49
1.0
140
1.0
293
     1
141
0.0
294
     1
177
     0
142
1.0
295
     0
296
     0
143
0.125
1001
ACAD_MLEADERVER
1070
     2
  0
MLINESTYLE
  5
1C
102
{ACAD_REACTORS
330
E
102
}
330
E
100
AcDbMlineStyle
  2
STANDARD
 70
     0
  3

 62
     0
 51
90.0
 52
90.0
 71
     2
 49
0.5
 62
   256
  6
BYLAYER
 49
-0.5
 62
   256
  6
BYLAYER
  0
ACDBPLACEHOLDER
  5
1E91
102
{ACAD_REACTORS
330
1E90
102
}
330
1E90
  0
SCALE
  5
629C
102
{ACAD_REACTORS
330
629B
102
}
330
629B
100
AcDbScale
 70
     0
300
1:1
140
1.0
141
1.0
290
     1
  0
SCALE
  5
629D
102
{ACAD_REACTORS
330
629B
102
}
330
629B
100
AcDbScale
 70
     0
300
1:2
140
1.0
141
2.0
290
     0
  0
SCALE
  5
629E
102
{ACAD_REACTORS
330
629B
102
}
330
629B
100
AcDbScale
 70
     0
300
1:4
140
1.0
141
4.0
290
     0
  0
SCALE
  5
629F
102
{ACAD_REACTORS
330
629B
102
}
330
629B
100
AcDbScale
 70
     0
300
1:5
140
1.0
141
5.0
290
     0
  0
SCALE
  5
62A0
102
{ACAD_REACTORS
330
629B
102
}
330
629B
100
AcDbScale
 70
     0
300
1:8
140
1.0
141
8.0
290
     0
  0
SCALE
  5
62A1
102
{ACAD_REACTORS
330
629B
102
}
330
629B
100
AcDbScale
 70
     0
300
1:10
140
1.0
141
10.0
290
     0
  0
SCALE
  5
62A2
102
{ACAD_REACTORS
330
629B
102
}
330
629B
100
AcDbScale
 70
     0
300
1:16
140
1.0
141
16.0
290
     0
  0
SCALE
  5
62A3
102
{ACAD_REACTORS
330
629B
102
}
330
629B
100
AcDbScale
 70
     0
300
1:20
140
1.0
141
20.0
290
     0
  0
SCALE
  5
62A4
102
{ACAD_REACTORS
330
629B
102
}
330
629B
100
AcDbScale
 70
     0
300
1:30
140
1.0
141
30.0
290
     0
  0
SCALE
  5
62A5
102
{ACAD_REACTORS
330
629B
102
}
330
629B
100
AcDbScale
 70
     0
300
1:40
140
1.0
141
40.0
290
     0
  0
SCALE
  5
62A6
102
{ACAD_REACTORS
330
629B
102
}
330
629B
100
AcDbScale
 70
     0
300
1:50
140
1.0
141
50.0
290
     0
  0
SCALE
  5
62A7
102
{ACAD_REACTORS
330
629B
102
}
330
629B
100
AcDbScale
 70
     0
300
1:100
140
1.0
141
100.0
290
     0
  0
SCALE
  5
62A8
102
{ACAD_REACTORS
330
629B
102
}
330
629B
100
AcDbScale
 70
     0
300
2:1
140
2.0
141
1.0
290
     0
  0
SCALE
  5
62A9
102
{ACAD_REACTORS
330
629B
102
}
330
629B
100
AcDbScale
 70
     0
300
4:1
140
4.0
141
1.0
290
     0
  0
SCALE
  5
62AA
102
{ACAD_REACTORS
330
629B
102
}
330
629B
100
AcDbScale
 70
     0
300
8:1
140
8.0
141
1.0
290
     0
  0
SCALE
  5
62AB
102
{ACAD_REACTORS
330
629B
102
}
330
629B
100
AcDbScale
 70
     0
300
10:1
140
10.0
141
1.0
290
     0
  0
SCALE
  5
62AC
102
{ACAD_REACTORS
330
629B
102
}
330
629B
100
AcDbScale
 70
     0
300
100:1
140
100.0
141
1.0
290
     0
  0
ACDBSECTIONVIEWSTYLE
  5
62B0
102
{ACAD_XDICTIONARY
360
6449
102
}
102
{ACAD_REACTORS
330
62AF
102
}
330
62AF
100
AcDbModelDocViewStyle
 70
     0
  3
Metric50
290
     0
100
AcDbSectionViewStyle
 70
     0
 71
     0
 90
      102
 71
     1
340
10
 40
5.0
340
0
340
0
 40
5.0
300
I, O, Q, S, X, Z
 40
10.0
 90
        0
 40
2.5
 90
        0
 71
     2
340
15
 90
       25
340
15
 90
       50
 40
5.0
 40
2.5
 40
5.0
 71
     3
340
10
 40
5.0
 90
        0
 40
15.0
 90
        1
300
%<\AcVar ViewSectionStartId>%-%<\AcVar ViewSectionEndId>% (%<\AcVar ViewScale \f "%sn">%)
 71
     4
300
ANSI31
 40
1.0
 90
        0
290
     0
290
     0
 90
        6
 40
0.0
 40
1.570796326794896
 40
0.2617993877991494
 40
1.308996938995747
 40
-0.2617993877991494
 40
1.832595714594046
  0
TABLESTYLE
  5
629A
102
{ACAD_XDICTIONARY
360
6461
102
}
102
{ACAD_REACTORS
330
6299
102
}
330
6299
100
AcDbTableStyle
  3
Standard
 70
     0
 71
     0
 40
1.5
 41
1.5
280
     0
281
     0
  7
STANDARD
140
4.5
170
     2
 62
     0
 63
     7
283
     0
274
    -2
284
     1
 64
     0
275
    -2
285
     1
 65
     0
276
    -2
286
     1
 66
     0
277
    -2
287
     1
 67
     0
278
    -2
288
     1
 68
     0
279
    -2
289
     1
 69
     0
  7
STANDARD
140
6.0
170
     5
 62
     0
 63
     7
283
     0
274
    -2
284
     1
 64
     0
275
    -2
285
     1
 65
     0
276
    -2
286
     1
 66
     0
277
    -2
287
     1
 67
     0
278
    -2
288
     1
 68
     0
279
    -2
289
     1
 69
     0
  7
STANDARD
140
4.5
170
     5
 62
     0
 63
     7
283
     0
274
    -2
284
     1
 64
     0
275
    -2
285
     1
 65
     0
276
    -2
286
     1
 66
     0
277
    -2
287
     1
 67
     0
278
    -2
288
     1
 68
     0
279
    -2
289
     1
 69
     0
  0
VISUALSTYLE
  5
6285
102
{ACAD_XDICTIONARY
360
647E
102
}
102
{ACAD_REACTORS
330
627F
102
}
330
627F
100
AcDbVisualStyle
  2
2dWireframe
 70
     4
 71
     0
 72
     2
 73
     0
 90
        0
 40
-0.6
 41
-30.0
 62
     5
 63
     7
 74
     1
 91
        4
 64
     7
 65
   257
 75
     1
175
     1
 42
1.0
 92
        0
 66
   257
 43
1.0
 76
     1
 77
     6
 78
     2
 67
     7
 79
     5
170
     0
171
     0
290
     0
174
     0
 93
        1
 44
0.0
173
     0
291
     0
 45
0.0
1001
ACAD
1000
AcDbSavedByObjectVersion
1070
     0
  0
VISUALSTYLE
  5
6284
102
{ACAD_XDICTIONARY
360
647C
102
}
102
{ACAD_REACTORS
330
627F
102
}
330
627F
100
AcDbVisualStyle
  2
Basic
 70
     7
 71
     1
 72
     0
 73
     1
 90
        0
 40
-0.6
 41
-30.0
 62
     5
 63
     7
 74
     0
 91
        4
 64
     7
 65
   257
 75
     1
175
     1
 42
1.0
 92
        8
 66
     7
 43
1.0
 76
     1
 77
     6
 78
     2
 67
     7
 79
     5
170
     0
171
     0
290
     0
174
     0
 93
        1
 44
0.0
173
     0
291
     1
 45
0.0
1001
ACAD
1000
AcDbSavedByObjectVersion
1070
     0
  0
VISUALSTYLE
  5
628B
102
{ACAD_XDICTIONARY
360
648A
102
}
102
{ACAD_REACTORS
330
627F
102
}
330
627F
100
AcDbVisualStyle
  2
Brighten
 70
    12
 71
     2
 72
     2
 73
     0
 90
        0
 40
-0.6
 41
-30.0
 62
     5
 63
     7
 74
     1
 91
        4
 64
     7
 65
   257
 75
     1
175
     1
 42
1.0
 92
        8
 66
     7
 43
1.0
 76
     1
 77
     6
 78
     2
 67
     7
 79
     5
170
     0
171
     0
290
     0
174
     0
 93
        1
 44
50.0
173
     0
291
     1
 45
0.0
1001
ACAD
1000
AcDbSavedByObjectVersion
1070
     0
  0
VISUALSTYLE
  5
628F
102
{ACAD_XDICTIONARY
360
6492
102
}
102
{ACAD_REACTORS
330
627F
102
}
330
627F
100
AcDbVisualStyle
  2
ColorChange
 70
    16
 71
     2
 72
     2
 73
     3
 90
        0
 40
-0.6
 41
-30.0
 62
     5
 63
     8
 74
     1
 91
        4
 64
     7
 65
   257
 75
     1
175
     1
 42
1.0
 92
        8
 66
     8
 43
1.0
 76
     1
 77
     6
 78
     2
 67
     7
 79
     5
170
     0
171
     0
290
     0
174
     0
 93
        1
 44
0.0
173
     0
291
     1
 45
0.0
1001
ACAD
1000
AcDbSavedByObjectVersion
1070
     0
  0
VISUALSTYLE
  5
6288
102
{ACAD_XDICTIONARY
360
6484
102
}
102
{ACAD_REACTORS
330
627F
102
}
330
627F
100
AcDbVisualStyle
  2
Conceptual
 70
     9
 71
     3
 72
     2
 73
     0
 90
        0
 40
-0.6
 41
-30.0
 62
     5
 63
     7
 74
     2
 91
        2
 64
     7
 65
   257
 75
     1
175
     1
 42
179.0
 92
        8
 66
     7
 43
1.0
 76
     1
 77
     6
 78
     2
 67
     7
 79
     3
170
     0
171
     0
290
     0
174
     0
 93
        1
 44
0.0
173
     0
291
     0
 45
0.0
1001
ACAD
1000
AcDbSavedByObjectVersion
1070
     0
  0
VISUALSTYLE
  5
628A
102
{ACAD_XDICTIONARY
360
6488
102
}
102
{ACAD_REACTORS
330
627F
102
}
330
627F
100
AcDbVisualStyle
  2
Dim
 70
    11
 71
     2
 72
     2
 73
     0
 90
        0
 40
-0.6
 41
-30.0
 62
     5
 63
     7
 74
     1
 91
        4
 64
     7
 65
   257
 75
     1
175
     1
 42
1.0
 92
        8
 66
     7
 43
1.0
 76
     1
 77
     6
 78
     2
 67
     7
 79
     5
170
     0
171
     0
290
     0
174
     0
 93
        1
 44
-50.0
173
     0
291
     1
 45
0.0
1001
ACAD
1000
AcDbSavedByObjectVersion
1070
     0
  0
VISUALSTYLE
  5
6297
102
{ACAD_XDICTIONARY
360
64A2
102
}
102
{ACAD_REACTORS
330
627F
102
}
330
627F
100
AcDbVisualStyle
  2
EdgeColorOff
 70
    22
 71
     2
 72
     2
 73
     0
 90
        0
 40
-0.6
 41
-30.0
 62
     5
 63
     7
 74
     1
 91
        4
 64
     7
 65
   257
 75
     1
175
     1
 42
1.0
 92
        8
 66
     7
 43
1.0
 76
     1
 77
     6
 78
     2
 67
     7
 79
     5
170
     0
171
     0
290
     0
174
     0
 93
        1
 44
0.0
173
     0
291
     1
 45
0.0
1001
ACAD
1000
AcDbSavedByObjectVersion
1070
     0
  0
VISUALSTYLE
  5
628E
102
{ACAD_XDICTIONARY
360
6490
102
}
102
{ACAD_REACTORS
330
627F
102
}
330
627F
100
AcDbVisualStyle
  2
Facepattern
 70
    15
 71
     2
 72
     2
 73
     0
 90
        0
 40
-0.6
 41
-30.0
 62
     5
 63
     7
 74
     1
 91
        4
 64
     7
 65
   257
 75
     1
175
     1
 42
1.0
 92
        8
 66
     7
 43
1.0
 76
     1
 77
     6
 78
     2
 67
     7
 79
     5
170
     0
171
     0
290
     0
174
     0
 93
        1
 44
0.0
173
     0
291
     1
 45
0.0
1001
ACAD
1000
AcDbSavedByObjectVersion
1070
     0
  0
VISUALSTYLE
  5
6280
102
{ACAD_XDICTIONARY
360
6474
102
}
102
{ACAD_REACTORS
330
627F
102
}
330
627F
100
AcDbVisualStyle
  2
Flat
 70
     0
 71
     2
 72
     1
 73
     1
 90
        2
 40
-0.6
 41
30.0
 62
     5
 63
     7
 74
     0
 91
        0
 64
     7
 65
   257
 75
     1
175
     1
 42
1.0
 92
        8
 66
     7
 43
1.0
 76
     1
 77
     6
 78
     2
 67
     7
 79
     5
170
     0
171
     0
290
     0
174
     0
 93
       13
 44
0.0
173
     0
291
     1
 45
0.0
1001
ACAD
1000
AcDbSavedByObjectVersion
1070
     0
  0
VISUALSTYLE
  5
6281
102
{ACAD_XDICTIONARY
360
6476
102
}
102
{ACAD_REACTORS
330
627F
102
}
330
627F
100
AcDbVisualStyle
  2
FlatWithEdges
 70
     1
 71
     2
 72
     1
 73
     1
 90
        2
 40
-0.6
 41
30.0
 62
     5
 63
     7
 74
     1
 91
        0
 64
     7
 65
   257
 75
     1
175
     1
 42
1.0
 92
        0
 66
   257
 43
1.0
 76
     1
 77
     6
 78
     2
 67
     7
 79
     5
170
     0
171
     0
290
     0
174
     0
 93
       13
 44
0.0
173
     0
291
     1
 45
0.0
1001
ACAD
1000
AcDbSavedByObjectVersion
1070
     0
  0
VISUALSTYLE
  5
6282
102
{ACAD_XDICTIONARY
360
6478
102
}
102
{ACAD_REACTORS
330
627F
102
}
330
627F
100
AcDbVisualStyle
  2
Gouraud
 70
     2
 71
     2
 72
     2
 73
     1
 90
        2
 40
-0.6
 41
30.0
 62
     5
 63
     7
 74
     0
 91
        0
 64
     7
 65
   257
 75
     1
175
     1
 42
1.0
 92
        0
 66
     7
 43
1.0
 76
     1
 77
     6
 78
     2
 67
     7
 79
     5
170
     0
171
     0
290
     0
174
     0
 93
       13
 44
0.0
173
     0
291
     1
 45
0.0
1001
ACAD
1000
AcDbSavedByObjectVersion
1070
     0
  0
VISUALSTYLE
  5
6283
102
{ACAD_XDICTIONARY
360
647A
102
}
102
{ACAD_REACTORS
330
627F
102
}
330
627F
100
AcDbVisualStyle
  2
GouraudWithEdges
 70
     3
 71
     2
 72
     2
 73
     1
 90
        2
 40
-0.6
 41
30.0
 62
     5
 63
     7
 74
     1
 91
        0
 64
     7
 65
   257
 75
     1
175
     1
 42
1.0
 92
        0
 66
   257
 43
1.0
 76
     1
 77
     6
 78
     2
 67
     7
 79
     5
170
     0
171
     0
290
     0
174
     0
 93
       13
 44
0.0
173
     0
291
     1
 45
0.0
1001
ACAD
1000
AcDbSavedByObjectVersion
1070
     0
  0
VISUALSTYLE
  5
6287
102
{ACAD_XDICTIONARY
360
6482
102
}
102
{ACAD_REACTORS
330
627F
102
}
330
627F
100
AcDbVisualStyle
  2
Hidden
 70
     6
 71
     1
 72
     2
 73
     2
 90
        0
 40
-0.6
 41
-30.0
 62
     5
 63
     7
 74
     2
 91
        2
 64
     7
 65
   257
 75
     2
175
     1
 42
40.0
 92
        0
 66
   257
 43
1.0
 76
     1
 77
     6
 78
     2
 67
     7
 79
     3
170
     0
171
     0
290
     0
174
     0
 93
        1
 44
0.0
173
     0
291
     0
 45
0.0
1001
ACAD
1000
AcDbSavedByObjectVersion
1070
     0
  0
VISUALSTYLE
  5
6295
102
{ACAD_XDICTIONARY
360
649E
102
}
102
{ACAD_REACTORS
330
627F
102
}
330
627F
100
AcDbVisualStyle
  2
JitterOff
 70
    20
 71
     2
 72
     2
 73
     0
 90
        0
 40
-0.6
 41
-30.0
 62
     5
 63
     7
 74
     1
 91
        4
 64
     7
 65
   257
 75
     1
175
     1
 42
1.0
 92
       10
 66
     7
 43
1.0
 76
     1
 77
     6
 78
     2
 67
     7
 79
     5
170
     0
171
     0
290
     0
174
     0
 93
        1
 44
0.0
173
     0
291
     1
 45
0.0
1001
ACAD
1000
AcDbSavedByObjectVersion
1070
     0
  0
VISUALSTYLE
  5
628D
102
{ACAD_XDICTIONARY
360
648E
102
}
102
{ACAD_REACTORS
330
627F
102
}
330
627F
100
AcDbVisualStyle
  2
Linepattern
 70
    14
 71
     2
 72
     2
 73
     0
 90
        0
 40
-0.6
 41
-30.0
 62
     5
 63
     7
 74
     1
 91
        4
 64
     7
 65
   257
 75
     7
175
     7
 42
1.0
 92
        8
 66
     7
 43
1.0
 76
     1
 77
     6
 78
     2
 67
     7
 79
     5
170
     0
171
     0
290
     0
174
     0
 93
        1
 44
0.0
173
     0
291
     1
 45
0.0
1001
ACAD
1000
AcDbSavedByObjectVersion
1070
     0
  0
VISUALSTYLE
  5
6296
102
{ACAD_XDICTIONARY
360
64A0
102
}
102
{ACAD_REACTORS
330
627F
102
}
330
627F
100
AcDbVisualStyle
  2
OverhangOff
 70
    21
 71
     2
 72
     2
 73
     0
 90
        0
 40
-0.6
 41
-30.0
 62
     5
 63
     7
 74
     1
 91
        4
 64
     7
 65
   257
 75
     1
175
     1
 42
1.0
 92
        9
 66
     7
 43
1.0
 76
     1
 77
     6
 78
     2
 67
     7
 79
     5
170
     0
171
     0
290
     0
174
     0
 93
        1
 44
0.0
173
     0
291
     1
 45
0.0
1001
ACAD
1000
AcDbSavedByObjectVersion
1070
     0
  0
VISUALSTYLE
  5
6289
102
{ACAD_XDICTIONARY
360
6486
102
}
102
{ACAD_REACTORS
330
627F
102
}
330
627F
100
AcDbVisualStyle
  2
Realistic
 70
     8
 71
     2
 72
     3
 73
     0
 90
        2
 40
-0.6
 41
30.0
 62
     5
 63
     7
 74
     0
 91
        0
 64
     7
 65
   257
 75
     1
175
     1
 42
1.0
 92
        8
 66
   257
 43
1.0
 76
     1
 77
     6
 78
     2
 67
     7
 79
     3
170
     0
171
     0
290
     0
174
     0
 93
       13
 44
0.0
173
     0
291
     0
 45
0.0
1001
ACAD
1000
AcDbSavedByObjectVersion
1070
     0
  0
VISUALSTYLE
  5
6294
102
{ACAD_XDICTIONARY
360
649C
102
}
102
{ACAD_REACTORS
330
627F
102
}
330
627F
100
AcDbVisualStyle
  2
Shaded
 70
    27
 71
     2
 72
     2
 73
     1
 90
        2
 40
-0.6
 41
30.0
 62
     5
 63
     7
 74
     0
 91
        4
 64
     7
 65
   257
 75
     1
175
     1
 42
1.0
 92
        8
 66
   257
 43
1.0
 76
     1
 77
     6
 78
     2
 67
     8
 79
     3
170
     0
171
     0
290
     0
174
     0
 93
        5
 44
0.0
173
     0
291
     0
 45
0.0
1001
ACAD
1000
AcDbSavedByObjectVersion
1070
     0
  0
VISUALSTYLE
  5
6293
102
{ACAD_XDICTIONARY
360
649A
102
}
102
{ACAD_REACTORS
330
627F
102
}
330
627F
100
AcDbVisualStyle
  2
Shaded with edges
 70
    26
 71
     2
 72
     2
 73
     1
 90
        2
 40
-0.6
 41
30.0
 62
     5
 63
     7
 74
     1
 91
        2
 64
     7
 65
   257
 75
     2
175
     1
 42
1.0
 92
        8
 66
   257
 43
1.0
 76
     1
 77
     6
 78
     2
 67
     7
 79
     3
170
     0
171
     0
290
     0
174
     0
 93
        5
 44
0.0
173
     0
291
     0
 45
0.0
1001
ACAD
1000
AcDbSavedByObjectVersion
1070
     0
  0
VISUALSTYLE
  5
6290
102
{ACAD_XDICTIONARY
360
6494
102
}
102
{ACAD_REACTORS
330
627F
102
}
330
627F
100
AcDbVisualStyle
  2
Shades of Gray
 70
    23
 71
     2
 72
     2
 73
     3
 90
        0
 40
-0.6
 41
-30.0
 62
     5
 63
     7
 74
     2
 91
        2
 64
     7
 65
     7
 75
     1
175
     1
 42
40.0
 92
        8
 66
     7
 43
1.0
 76
     1
 77
     6
 78
     2
 67
     7
 79
     3
170
     0
171
     0
290
     0
174
     0
 93
        1
 44
0.0
173
     0
291
     0
 45
0.0
1001
ACAD
1000
AcDbSavedByObjectVersion
1070
     0
  0
VISUALSTYLE
  5
6291
102
{ACAD_XDICTIONARY
360
6496
102
}
102
{ACAD_REACTORS
330
627F
102
}
330
627F
100
AcDbVisualStyle
  2
Sketchy
 70
    24
 71
     1
 72
     2
 73
     2
 90
        0
 40
-0.6
 41
-30.0
 62
     5
 63
     7
 74
     2
 91
        2
 64
     7
 65
     7
 75
     1
175
     1
 42
40.0
 92
       11
 66
     7
 43
1.0
 76
     1
 77
     6
 78
     2
 67
     7
 79
     6
170
     0
171
     0
290
     0
174
     0
 93
        1
 44
0.0
173
     0
291
     0
 45
0.0
1001
ACAD
1000
AcDbSavedByObjectVersion
1070
     0
  0
VISUALSTYLE
  5
628C
102
{ACAD_XDICTIONARY
360
648C
102
}
102
{ACAD_REACTORS
330
627F
102
}
330
627F
100
AcDbVisualStyle
  2
Thicken
 70
    13
 71
     2
 72
     2
 73
     0
 90
        0
 40
-0.6
 41
-30.0
 62
     5
 63
     7
 74
     1
 91
        4
 64
     7
 65
   257
 75
     1
175
     1
 42
1.0
 92
       12
 66
     7
 43
1.0
 76
     1
 77
     6
 78
     2
 67
     7
 79
     5
170
     0
171
     0
290
     0
174
     0
 93
        1
 44
0.0
173
     0
291
     1
 45
0.0
1001
ACAD
1000
AcDbSavedByObjectVersion
1070
     0
  0
VISUALSTYLE
  5
6286
102
{ACAD_XDICTIONARY
360
6480
102
}
102
{ACAD_REACTORS
330
627F
102
}
330
627F
100
AcDbVisualStyle
  2
Wireframe
 70
     5
 71
     0
 72
     2
 73
     0
 90
        0
 40
-0.6
 41
-30.0
 62
     5
 63
     7
 74
     1
 91
        4
 64
     7
 65
   257
 75
     1
175
     1
 42
1.0
 92
        0
 66
   257
 43
1.0
 76
     1
 77
     6
 78
     2
 67
     7
 79
     3
170
     0
171
     0
290
     0
174
     0
 93
        1
 44
0.0
173
     0
291
     0
 45
0.0
1001
ACAD
1000
AcDbSavedByObjectVersion
1070
     0
  0
VISUALSTYLE
  5
6292
102
{ACAD_XDICTIONARY
360
6498
102
}
102
{ACAD_REACTORS
330
627F
102
}
330
627F
100
AcDbVisualStyle
  2
X-Ray
 70
    25
 71
     2
 72
     2
 73
     1
 90
        1
 40
0.5
 41
-30.0
 62
     5
 63
     7
 74
     1
 91
        0
 64
     7
 65
   257
 75
     1
175
     1
 42
1.0
 92
        8
 66
     7
 43
1.0
 76
     1
 77
     6
 78
     2
 67
     7
 79
     3
170
     0
171
     0
290
     0
174
     0
 93
       13
 44
0.0
173
     0
291
     0
 45
0.0
1001
ACAD
1000
AcDbSavedByObjectVersion
1070
     0
  0
DICTIONARYVAR
  5
6453
102
{ACAD_REACTORS
330
644D
102
}
330
644D
100
DictionaryVariables
280
     0
  1
1:1
  0
DICTIONARYVAR
  5
644F
102
{ACAD_REACTORS
330
644D
102
}
330
644D
100
DictionaryVariables
280
     0
  1
STANDARD
  0
DICTIONARYVAR
  5
644E
102
{ACAD_REACTORS
330
644D
102
}
330
644D
100
DictionaryVariables
280
     0
  1
STANDARD
  0
DICTIONARYVAR
  5
6450
102
{ACAD_REACTORS
330
644D
102
}
330
644D
100
DictionaryVariables
280
     0
  1
Metric50
  0
DICTIONARYVAR
  5
6451
102
{ACAD_REACTORS
330
644D
102
}
330
644D
100
DictionaryVariables
280
     0
  1
Metric50
  0
DICTIONARYVAR
  5
645F
102
{ACAD_REACTORS
330
644D
102
}
330
644D
100
DictionaryVariables
280
     0
  1
1
  0
DICTIONARYVAR
  5
645E
102
{ACAD_REACTORS
330
644D
102
}
330
644D
100
DictionaryVariables
280
     0
  1
0
  0
DICTIONARYVAR
  5
6455
102
{ACAD_REACTORS
330
644D
102
}
330
644D
100
DictionaryVariables
280
     0
  1
1
  0
DICTIONARYVAR
  5
6456
102
{ACAD_REACTORS
330
644D
102
}
330
644D
100
DictionaryVariables
280
     0
  1
15
  0
DICTIONARYVAR
  5
6454
102
{ACAD_REACTORS
330
644D
102
}
330
644D
100
DictionaryVariables
280
     0
  1
0
  0
DICTIONARYVAR
  5
6452
102
{ACAD_REACTORS
330
644D
102
}
330
644D
100
DictionaryVariables
280
     0
  1
0
  0
DICTIONARYVAR
  5
645D
102
{ACAD_REACTORS
330
644D
102
}
330
644D
100
DictionaryVariables
280
     0
  1
127
  0
DICTIONARYVAR
  5
6460
102
{ACAD_REACTORS
330
644D
102
}
330
644D
100
DictionaryVariables
280
     0
  1
2
  0
DICTIONARY
  5
646C
102
{ACAD_REACTORS
330
646A
102
}
330
646A
100
AcDbDictionary
281
     1
  0
DICTIONARY
  5
646B
102
{ACAD_REACTORS
330
646A
102
}
330
646A
100
AcDbDictionary
281
     1
  3
140687754185424
350
6465
  3
140687754185440
350
6466
  3
140687754185456
350
6467
  3
140687754185472
350
6468
  3
140687754185488
350
6469
  0
DICTIONARY
  5
644B
330
62B2
100
AcDbDictionary
280
     1
281
     1
  3
ACAD_XREC_ROUNDTRIP
360
644C
  0
DICTIONARY
  5
646D
330
1E94
100
AcDbDictionary
280
     1
281
     1
  3
ACAD_XREC_ROUNDTRIP
360
646E
  0
DICTIONARY
  5
646F
330
1E95
100
AcDbDictionary
280
     1
281
     1
  3
ACAD_XREC_ROUNDTRIP
360
6470
  0
DICTIONARY
  5
6270
330
626F
100
AcDbDictionary
280
     1
281
     1
  3
ACAD_XREC_ROUNDTRIP
360
6472
  3
BUMPTILE
360
6272
  3
DIFFUSETILE
360
6271
  3
OPACITYTILE
360
6275
  3
REFLECTIONTILE
360
6274
  3
REFRACTIONTILE
360
6276
  3
SPECULARTILE
360
6273
  0
DICTIONARY
  5
6268
330
6267
100
AcDbDictionary
280
     1
281
     1
  3
ACAD_XREC_ROUNDTRIP
360
6471
  3
BUMPTILE
360
626A
  3
DIFFUSETILE
360
6269
  3
OPACITYTILE
360
626D
  3
REFLECTIONTILE
360
626C
  3
REFRACTIONTILE
360
626E
  3
SPECULARTILE
360
626B
  0
DICTIONARY
  5
6278
330
6277
100
AcDbDictionary
280
     1
281
     1
  3
ACAD_XREC_ROUNDTRIP
360
6473
  3
BUMPTILE
360
627A
  3
DIFFUSETILE
360
6279
  3
OPACITYTILE
360
627D
  3
REFLECTIONTILE
360
627C
  3
REFRACTIONTILE
360
627E
  3
SPECULARTILE
360
627B
  0
DICTIONARY
  5
64A6
330
62AE
100
AcDbDictionary
280
     1
281
     1
  3
ACAD_XREC_ROUNDTRIP
360
64A7
  0
DICTIONARY
  5
6449
330
62B0
100
AcDbDictionary
280
     1
281
     1
  3
ACAD_XREC_ROUNDTRIP
360
644A
  0
DICTIONARY
  5
6461
330
629A
100
AcDbDictionary
280
     1
281
     1
  3
ACAD_ROUNDTRIP_2008_TABLESTYLE_CELLSTYLEMAP
360
6462
  3
ACAD_XREC_ROUNDTRIP
360
64A4
  0
DICTIONARY
  5
647E
330
6285
100
AcDbDictionary
280
     1
281
     1
  3
ACAD_XREC_ROUNDTRIP
360
647F
  0
DICTIONARY
  5
647C
330
6284
100
AcDbDictionary
280
     1
281
     1
  3
ACAD_XREC_ROUNDTRIP
360
647D
  0
DICTIONARY
  5
648A
330
628B
100
AcDbDictionary
280
     1
281
     1
  3
ACAD_XREC_ROUNDTRIP
360
648B
  0
DICTIONARY
  5
6492
330
628F
100
AcDbDictionary
280
     1
281
     1
  3
ACAD_XREC_ROUNDTRIP
360
6493
  0
DICTIONARY
  5
6484
330
6288
100
AcDbDictionary
280
     1
281
     1
  3
ACAD_XREC_ROUNDTRIP
360
6485
  0
DICTIONARY
  5
6488
330
628A
100
AcDbDictionary
280
     1
281
     1
  3
ACAD_XREC_ROUNDTRIP
360
6489
  0
DICTIONARY
  5
64A2
330
6297
100
AcDbDictionary
280
     1
281
     1
  3
ACAD_XREC_ROUNDTRIP
360
64A3
  0
DICTIONARY
  5
6490
330
628E
100
AcDbDictionary
280
     1
281
     1
  3
ACAD_XREC_ROUNDTRIP
360
6491
  0
DICTIONARY
  5
6474
330
6280
100
AcDbDictionary
280
     1
281
     1
  3
ACAD_XREC_ROUNDTRIP
360
6475
  0
DICTIONARY
  5
6476
330
6281
100
AcDbDictionary
280
     1
281
     1
  3
ACAD_XREC_ROUNDTRIP
360
6477
  0
DICTIONARY
  5
6478
330
6282
100
AcDbDictionary
280
     1
281
     1
  3
ACAD_XREC_ROUNDTRIP
360
6479
  0
DICTIONARY
  5
647A
330
6283
100
AcDbDictionary
280
     1
281
     1
  3
ACAD_XREC_ROUNDTRIP
360
647B
  0
DICTIONARY
  5
6482
330
6287
100
AcDbDictionary
280
     1
281
     1
  3
ACAD_XREC_ROUNDTRIP
360
6483
  0
DICTIONARY
  5
649E
330
6295
100
AcDbDictionary
280
     1
281
     1
  3
ACAD_XREC_ROUNDTRIP
360
649F
  0
DICTIONARY
  5
648E
330
628D
100
AcDbDictionary
280
     1
281
     1
  3
ACAD_XREC_ROUNDTRIP
360
648F
  0
DICTIONARY
  5
64A0
330
6296
100
AcDbDictionary
280
     1
281
     1
  3
ACAD_XREC_ROUNDTRIP
360
64A1
  0
DICTIONARY
  5
6486
330
6289
100
AcDbDictionary
280
     1
281
     1
  3
ACAD_XREC_ROUNDTRIP
360
6487
  0
DICTIONARY
  5
649C
330
6294
100
AcDbDictionary
280
     1
281
     1
  3
ACAD_XREC_ROUNDTRIP
360
649D
  0
DICTIONARY
  5
649A
330
6293
100
AcDbDictionary
280
     1
281
     1
  3
ACAD_XREC_ROUNDTRIP
360
649B
  0
DICTIONARY
  5
6494
330
6290
100
AcDbDictionary
280
     1
281
     1
  3
ACAD_XREC_ROUNDTRIP
360
6495
  0
DICTIONARY
  5
6496
330
6291
100
AcDbDictionary
280
     1
281
     1
  3
ACAD_XREC_ROUNDTRIP
360
6497
  0
DICTIONARY
  5
648C
330
628C
100
AcDbDictionary
280
     1
281
     1
  3
ACAD_XREC_ROUNDTRIP
360
648D
  0
DICTIONARY
  5
6480
330
6286
100
AcDbDictionary
280
     1
281
     1
  3
ACAD_XREC_ROUNDTRIP
360
6481
  0
DICTIONARY
  5
6498
330
6292
100
AcDbDictionary
280
     1
281
     1
  3
ACAD_XREC_ROUNDTRIP
360
6499
  0
XRECORD
  5
6465
102
{ACAD_REACTORS
330
646B
102
}
330
646B
100
AcDbXrecord
280
     1
  1
AcDb_Thumbnail_Schema
102
{ATTRRECORD
341
6466
  2
AcDbDs::TreatedAsObjectData
280
     1
291
     1
102
ATTRRECORD}
102
{ATTRRECORD
341
6467
  2
AcDbDs::Legacy
280
     1
291
     1
102
ATTRRECORD}
  2
AcDbDs::ID
280
    10
 91
        8
102
{ATTRRECORD
341
6468
  2
AcDs:Indexable
280
     1
291
     1
102
ATTRRECORD}
102
{ATTRRECORD
341
6469
  2
AcDbDs::HandleAttribute
280
     7
282
     1
102
ATTRRECORD}
  2
Thumbnail_Data
280
    15
 91
        0
  0
XRECORD
  5
6466
102
{ACAD_REACTORS
330
646B
102
}
330
646B
100
AcDbXrecord
280
     1
  1
AcDbDs::TreatedAsObjectDataSchema
  2
AcDbDs::TreatedAsObjectData
280
     1
 91
        0
  0
XRECORD
  5
6467
102
{ACAD_REACTORS
330
646B
102
}
330
646B
100
AcDbXrecord
280
     1
  1
AcDbDs::LegacySchema
  2
AcDbDs::Legacy
280
     1
 91
        0
  0
XRECORD
  5
6468
102
{ACAD_REACTORS
330
646B
102
}
330
646B
100
AcDbXrecord
280
     1
  1
AcDbDs::IndexedPropertySchema
  2
AcDs:Indexable
280
     1
 91
        0
  0
XRECORD
  5
6469
102
{ACAD_REACTORS
330
646B
102
}
330
646B
100
AcDbXrecord
280
     1
  1
AcDbDs::HandleAttributeSchema
  2
AcDbDs::HandleAttribute
280
     7
 91
        1
284
     1
  0
XRECORD
  5
644C
102
{ACAD_REACTORS
330
644B
102
}
330
644B
100
AcDbXrecord
280
     1
102
DISPLAYNAME
  1
Metric50
102
FLAGS
 90
        0
  0
XRECORD
  5
646E
102
{ACAD_REACTORS
330
646D
102
}
330
646D
100
AcDbXrecord
280
     1
102
SHADEPLOT
 70
     0
102
SHADEPLOTRESLEVEL
 70
     2
102
SHADEPLOTCUSTOMDPI
 70
   300
  0
XRECORD
  5
6470
102
{ACAD_REACTORS
330
646F
102
}
330
646F
100
AcDbXrecord
280
     1
102
SHADEPLOT
 70
     0
102
SHADEPLOTRESLEVEL
 70
     2
102
SHADEPLOTCUSTOMDPI
 70
   300
  0
XRECORD
  5
6472
102
{ACAD_REACTORS
330
6270
102
}
330
6270
100
AcDbXrecord
280
     1
102
MATERIAL
148
0.0
149
0.0
149
0.0
 93
        0
 94
      127
282
     0
 72
     0
 77
     0
171
     0
175
     0
179
     0
273
     0
  0
XRECORD
  5
6272
102
{ACAD_REACTORS
330
6270
102
}
330
6270
100
AcDbXrecord
280
     1
270
     1
271
     1
  0
XRECORD
  5
6271
102
{ACAD_REACTORS
330
6270
102
}
330
6270
100
AcDbXrecord
280
     1
270
     1
271
     1
  0
XRECORD
  5
6275
102
{ACAD_REACTORS
330
6270
102
}
330
6270
100
AcDbXrecord
280
     1
270
     1
271
     1
  0
XRECORD
  5
6274
102
{ACAD_REACTORS
330
6270
102
}
330
6270
100
AcDbXrecord
280
     1
270
     1
271
     1
  0
XRECORD
  5
6276
102
{ACAD_REACTORS
330
6270
102
}
330
6270
100
AcDbXrecord
280
     1
270
     1
271
     1
  0
XRECORD
  5
6273
102
{ACAD_REACTORS
330
6270
102
}
330
6270
100
AcDbXrecord
280
     1
270
     1
271
     1
  0
XRECORD
  5
6471
102
{ACAD_REACTORS
330
6268
102
}
330
6268
100
AcDbXrecord
280
     1
102
MATERIAL
148
0.0
149
0.0
149
0.0
 93
        0
 94
      127
282
     0
 72
     0
 77
     0
171
     0
175
     0
179
     0
273
     0
  0
XRECORD
  5
626A
102
{ACAD_REACTORS
330
6268
102
}
330
6268
100
AcDbXrecord
280
     1
270
     1
271
     1
  0
XRECORD
  5
6269
102
{ACAD_REACTORS
330
6268
102
}
330
6268
100
AcDbXrecord
280
     1
270
     1
271
     1
  0
XRECORD
  5
626D
102
{ACAD_REACTORS
330
6268
102
}
330
6268
100
AcDbXrecord
280
     1
270
     1
271
     1
  0
XRECORD
  5
626C
102
{ACAD_REACTORS
330
6268
102
}
330
6268
100
AcDbXrecord
280
     1
270
     1
271
     1
  0
XRECORD
  5
626E
102
{ACAD_REACTORS
330
6268
102
}
330
6268
100
AcDbXrecord
280
     1
270
     1
271
     1
  0
XRECORD
  5
626B
102
{ACAD_REACTORS
330
6268
102
}
330
6268
100
AcDbXrecord
280
     1
270
     1
271
     1
  0
XRECORD
  5
6473
102
{ACAD_REACTORS
330
6278
102
}
330
6278
100
AcDbXrecord
280
     1
102
MATERIAL
148
0.0
149
0.0
149
0.0
 93
        0
 94
      127
282
     0
 72
     0
 77
     0
171
     0
175
     0
179
     0
273
     0
  0
XRECORD
  5
627A
102
{ACAD_REACTORS
330
6278
102
}
330
6278
100
AcDbXrecord
280
     1
270
     1
271
     1
  0
XRECORD
  5
6279
102
{ACAD_REACTORS
330
6278
102
}
330
6278
100
AcDbXrecord
280
     1
270
     1
271
     1
  0
XRECORD
  5
627D
102
{ACAD_REACTORS
330
6278
102
}
330
6278
100
AcDbXrecord
280
     1
270
     1
271
     1
  0
XRECORD
  5
627C
102
{ACAD_REACTORS
330
6278
102
}
330
6278
100
AcDbXrecord
280
     1
270
     1
271
     1
  0
XRECORD
  5
627E
102
{ACAD_REACTORS
330
6278
102
}
330
6278
100
AcDbXrecord
280
     1
270
     1
271
     1
  0
XRECORD
  5
627B
102
{ACAD_REACTORS
330
6278
102
}
330
6278
100
AcDbXrecord
280
     1
270
     1
271
     1
  0
XRECORD
  5
64A7
102
{ACAD_REACTORS
330
64A6
102
}
330
64A6
100
AcDbXrecord
280
     1
102
ACAD_ROUNDTRIP_2012_MLEADER_STYLE
298
     1
  0
XRECORD
  5
644A
102
{ACAD_REACTORS
330
6449
102
}
330
6449
100
AcDbXrecord
280
     1
102
DISPLAYNAME
  1
Metric50
102
FLAGS
 90
        0
  0
CELLSTYLEMAP
  5
6462
102
{ACAD_REACTORS
330
6461
102
}
330
6461
100
AcDbCellStyleMap
 90
        3
300
CELLSTYLE
  1
TABLEFORMAT_BEGIN
 90
        5
170
     1
 91
        0
 92
    32768
 62
   257
 93
        1
300
CONTENTFORMAT
  1
CONTENTFORMAT_BEGIN
 90
        0
 91
        0
 92
      512
 93
        0
300

 40
0.0
140
1.0
 94
        5
 62
     0
340
10
144
6.0
309
CONTENTFORMAT_END
171
     1
301
MARGIN
  1
CELLMARGIN_BEGIN
 40
1.5
 40
1.5
 40
1.5
 40
1.5
 40
4.5
 40
4.5
309
CELLMARGIN_END
 94
        6
 95
        1
302
GRIDFORMAT
  1
GRIDFORMAT_BEGIN
 90
        0
 91
        1
 62
     0
 92
       -2
340
0
 93
        0
 40
1.125
309
GRIDFORMAT_END
 95
        2
302
GRIDFORMAT
  1
GRIDFORMAT_BEGIN
 90
        0
 91
        1
 62
     0
 92
       -2
340
0
 93
        0
 40
1.125
309
GRIDFORMAT_END
 95
        4
302
GRIDFORMAT
  1
GRIDFORMAT_BEGIN
 90
        0
 91
        1
 62
     0
 92
       -2
340
0
 93
        0
 40
1.125
309
GRIDFORMAT_END
 95
        8
302
GRIDFORMAT
  1
GRIDFORMAT_BEGIN
 90
        0
 91
        1
 62
     0
 92
       -2
340
0
 93
        0
 40
1.125
309
GRIDFORMAT_END
 95
       16
302
GRIDFORMAT
  1
GRIDFORMAT_BEGIN
 90
        0
 91
        1
 62
     0
 92
       -2
340
0
 93
        0
 40
1.125
309
GRIDFORMAT_END
 95
       32
302
GRIDFORMAT
  1
GRIDFORMAT_BEGIN
 90
        0
 91
        1
 62
     0
 92
       -2
340
0
 93
        0
 40
1.125
309
GRIDFORMAT_END
309
TABLEFORMAT_END
  1
CELLSTYLE_BEGIN
 90
        1
 91
        1
300
_TITLE
309
CELLSTYLE_END
300
CELLSTYLE
  1
TABLEFORMAT_BEGIN
 90
        5
170
     1
 91
        0
 92
        0
 62
   257
 93
        1
300
CONTENTFORMAT
  1
CONTENTFORMAT_BEGIN
 90
        0
 91
        0
 92
      512
 93
        0
300

 40
0.0
140
1.0
 94
        5
 62
     0
340
10
144
4.5
309
CONTENTFORMAT_END
171
     1
301
MARGIN
  1
CELLMARGIN_BEGIN
 40
1.5
 40
1.5
 40
1.5
 40
1.5
 40
4.5
 40
4.5
309
CELLMARGIN_END
 94
        6
 95
        1
302
GRIDFORMAT
  1
GRIDFORMAT_BEGIN
 90
        0
 91
        1
 62
     0
 92
       -2
340
0
 93
        0
 40
1.125
309
GRIDFORMAT_END
 95
        2
302
GRIDFORMAT
  1
GRIDFORMAT_BEGIN
 90
        0
 91
        1
 62
     0
 92
       -2
340
0
 93
        0
 40
1.125
309
GRIDFORMAT_END
 95
        4
302
GRIDFORMAT
  1
GRIDFORMAT_BEGIN
 90
        0
 91
        1
 62
     0
 92
       -2
340
0
 93
        0
 40
1.125
309
GRIDFORMAT_END
 95
        8
302
GRIDFORMAT
  1
GRIDFORMAT_BEGIN
 90
        0
 91
        1
 62
     0
 92
       -2
340
0
 93
        0
 40
1.125
309
GRIDFORMAT_END
 95
       16
302
GRIDFORMAT
  1
GRIDFORMAT_BEGIN
 90
        0
 91
        1
 62
     0
 92
       -2
340
0
 93
        0
 40
1.125
309
GRIDFORMAT_END
 95
       32
302
GRIDFORMAT
  1
GRIDFORMAT_BEGIN
 90
        0
 91
        1
 62
     0
 92
       -2
340
0
 93
        0
 40
1.125
309
GRIDFORMAT_END
309
TABLEFORMAT_END
  1
CELLSTYLE_BEGIN
 90
        2
 91
        1
300
_HEADER
309
CELLSTYLE_END
300
CELLSTYLE
  1
TABLEFORMAT_BEGIN
 90
        5
170
     1
 91
        0
 92
        0
 62
   257
 93
        1
300
CONTENTFORMAT
  1
CONTENTFORMAT_BEGIN
 90
        0
 91
        0
 92
      512
 93
        0
300

 40
0.0
140
1.0
 94
        2
 62
     0
340
10
144
4.5
309
CONTENTFORMAT_END
171
     1
301
MARGIN
  1
CELLMARGIN_BEGIN
 40
1.5
 40
1.5
 40
1.5
 40
1.5
 40
4.5
 40
4.5
309
CELLMARGIN_END
 94
        6
 95
        1
302
GRIDFORMAT
  1
GRIDFORMAT_BEGIN
 90
        0
 91
        1
 62
     0
 92
       -2
340
0
 93
        0
 40
1.125
309
GRIDFORMAT_END
 95
        2
302
GRIDFORMAT
  1
GRIDFORMAT_BEGIN
 90
        0
 91
        1
 62
     0
 92
       -2
340
0
 93
        0
 40
1.125
309
GRIDFORMAT_END
 95
        4
302
GRIDFORMAT
  1
GRIDFORMAT_BEGIN
 90
        0
 91
        1
 62
     0
 92
       -2
340
0
 93
        0
 40
1.125
309
GRIDFORMAT_END
 95
        8
302
GRIDFORMAT
  1
GRIDFORMAT_BEGIN
 90
        0
 91
        1
 62
     0
 92
       -2
340
0
 93
        0
 40
1.125
309
GRIDFORMAT_END
 95
       16
302
GRIDFORMAT
  1
GRIDFORMAT_BEGIN
 90
        0
 91
        1
 62
     0
 92
       -2
340
0
 93
        0
 40
1.125
309
GRIDFORMAT_END
 95
       32
302
GRIDFORMAT
  1
GRIDFORMAT_BEGIN
 90
        0
 91
        1
 62
     0
 92
       -2
340
0
 93
        0
 40
1.125
309
GRIDFORMAT_END
309
TABLEFORMAT_END
  1
CELLSTYLE_BEGIN
 90
        3
 91
        2
300
_DATA
309
CELLSTYLE_END
  0
XRECORD
  5
64A4
102
{ACAD_REACTORS
330
6461
102
}
330
6461
100
AcDbXrecord
280
     1
102
ACAD_ROUNDTRIP_PRE2007_TABLESTYLE
 90
      512
 91
        0
  1

 92
      512
 93
        0
  2

 94
      512
 95
        0
  3

  0
XRECORD
  5
647F
102
{ACAD_REACTORS
330
647E
102
}
330
647E
100
AcDbXrecord
280
     1
102
RTVSPost2010Prop28
280
     1
102
RTVSPost2010PropOp28
 70
     1
102
RTVSPost2010Prop29
280
     1
102
RTVSPost2010PropOp29
 70
     1
102
RTVSPost2010Prop30
280
     0
102
RTVSPost2010PropOp30
 70
     1
102
RTVSPost2010Prop31
280
     0
102
RTVSPost2010PropOp31
 70
     1
102
RTVSPost2010Prop32
280
     0
102
RTVSPost2010PropOp32
 70
     1
102
RTVSPost2010Prop33
280
     0
102
RTVSPost2010PropOp33
 70
     1
102
RTVSPost2010Prop34
280
     0
102
RTVSPost2010PropOp34
 70
     1
102
RTVSPost2010Prop35
280
     0
102
RTVSPost2010PropOp35
 70
     1
102
RTVSPost2010Prop36
280
     0
102
RTVSPost2010PropOp36
 70
     1
102
RTVSPost2010Prop37
 90
       50
102
RTVSPost2010PropOp37
 70
     1
102
RTVSPost2010Prop38
140
0.0
102
RTVSPost2010PropOp38
 70
     1
102
RTVSPost2010Prop39
140
1.0
102
RTVSPost2010PropOp39
 70
     1
102
RTVSPost2010Prop40
 90
        0
102
RTVSPost2010PropOp40
 70
     1
102
RTVSPost2010Prop41ColorIndex
 90
       18
102
RTVSPost2010Prop41ColorRGB
 90
        0
102
RTVSPost2010PropOp41
 70
     1
102
RTVSPost2010Prop42
 90
       50
102
RTVSPost2010PropOp42
 70
     1
102
RTVSPost2010Prop43
 90
        3
102
RTVSPost2010PropOp43
 70
     1
102
RTVSPost2010Prop44ColorIndex
 90
        5
102
RTVSPost2010Prop44ColorRGB
 90
      255
102
RTVSPost2010PropOp44
 70
     1
102
RTVSPost2010Prop45
280
     0
102
RTVSPost2010PropOp45
 70
     1
102
RTVSPost2010Prop46
 90
       50
102
RTVSPost2010PropOp46
 70
     1
102
RTVSPost2010Prop47
 90
       50
102
RTVSPost2010PropOp47
 70
     1
102
RTVSPost2010Prop48
 90
       50
102
RTVSPost2010PropOp48
 70
     1
102
RTVSPost2010Prop49
280
     0
102
RTVSPost2010PropOp49
 70
     1
102
RTVSPost2010Prop50
 90
       50
102
RTVSPost2010PropOp50
 70
     1
102
RTVSPost2010Prop51ColorIndex
 90
      256
102
RTVSPost2010Prop51ColorRGB
 90
-16777216
102
RTVSPost2010PropOp51
 70
     0
102
RTVSPost2010Prop52
140
1.0
102
RTVSPost2010PropOp52
 70
     0
102
RTVSPost2010Prop53
 90
        2
102
RTVSPost2010PropOp53
 70
     1
102
RTVSPost2010Prop54
  1
strokes_ogs.tif
102
RTVSPost2010PropOp54
 70
     1
102
RTVSPost2010Prop55
280
     0
102
RTVSPost2010PropOp55
 70
     1
102
RTVSPost2010Prop56
140
1.0
102
RTVSPost2010PropOp56
 70
     1
102
RTVSPost2010Prop57
140
1.0
102
RTVSPost2010PropOp57
 70
     1
102
RTVSPropertyOp0
 70
     1
102
RTVSPropertyOp1
 70
     1
102
RTVSPropertyOp2
 70
     1
102
RTVSPropertyOp3
 70
     1
102
RTVSPropertyOp4
 70
     1
102
RTVSPropertyOp5
 70
     1
102
RTVSPropertyOp6
 70
     1
102
RTVSPropertyOp7
 70
     1
102
RTVSPropertyOp8
 70
     1
102
RTVSPropertyOp9
 70
     1
102
RTVSPropertyOp10
 70
     1
102
RTVSPropertyOp11
 70
     1
102
RTVSPropertyOp12
 70
     1
102
RTVSPropertyOp13
 70
     1
102
RTVSPropertyOp14
 70
     1
102
RTVSPropertyOp15
 70
     1
102
RTVSPropertyOp16
 70
     1
102
RTVSPropertyOp17
 70
     1
102
RTVSPropertyOp18
 70
     1
102
RTVSPropertyOp19
 70
     1
102
RTVSPropertyOp20
 70
     1
102
RTVSPropertyOp21
 70
     1
102
RTVSPropertyOp22
 70
     1
102
RTVSPropertyOp23
 70
     1
102
RTVSPropertyOp24
 70
     1
102
RTVSPropertyOp25
 70
     1
102
RTVSPropertyOp26
 70
     1
102
RTVSPropertyOp27
 70
     1
102
RTVSPropertyOp28
 70
     1
102
RTVSPropertyOp29
 70
     1
102
RTVSPropertyOp30
 70
     1
102
RTVSPropertyOp31
 70
     1
102
RTVSPropertyOp32
 70
     1
102
RTVSPropertyOp33
 70
     1
102
RTVSPropertyOp34
 70
     1
102
RTVSPropertyOp35
 70
     1
102
RTVSPropertyOp36
 70
     1
102
RTVSPropertyOp37
 70
     1
102
RTVSPropertyOp38
 70
     1
102
RTVSPropertyOp39
 70
     1
102
RTVSPropertyOp40
 70
     1
102
RTVSPropertyOp41
 70
     1
102
RTVSPropertyOp42
 70
     1
102
RTVSPropertyOp43
 70
     1
102
RTVSPropertyOp44
 70
     1
102
RTVSPropertyOp45
 70
     1
102
RTVSPropertyOp46
 70
     1
102
RTVSPropertyOp47
 70
     1
102
RTVSPropertyOp48
 70
     1
102
RTVSPropertyOp49
 70
     1
102
RTVSPropertyOp50
 70
     1
102
RTVSPropertyOp51
 70
     0
102
RTVSPropertyOp52
 70
     0
102
RTVSPropertyOp53
 70
     1
102
RTVSPropertyOp54
 70
     1
102
RTVSPropertyOp55
 70
     1
102
RTVSPropertyOp56
 70
     1
102
RTVSPropertyOp57
 70
     1
102
RTVSPropertyOp58
 70
     1
102
RTVSPropertyOp59
 70
     1
102
RTVSPropertyOp60
 70
     1
102
RTVSPropertyOp61
 70
     1
102
RTVSPropertyOp62
 70
     1
  0
XRECORD
  5
647D
102
{ACAD_REACTORS
330
647C
102
}
330
647C
100
AcDbXrecord
280
     1
102
RTVSPost2010Prop28
280
     0
102
RTVSPost2010PropOp28
 70
     1
102
RTVSPost2010Prop29
280
     1
102
RTVSPost2010PropOp29
 70
     1
102
RTVSPost2010Prop30
280
     1
102
RTVSPost2010PropOp30
 70
     1
102
RTVSPost2010Prop31
280
     0
102
RTVSPost2010PropOp31
 70
     1
102
RTVSPost2010Prop32
280
     0
102
RTVSPost2010PropOp32
 70
     1
102
RTVSPost2010Prop33
280
     0
102
RTVSPost2010PropOp33
 70
     1
102
RTVSPost2010Prop34
280
     0
102
RTVSPost2010PropOp34
 70
     1
102
RTVSPost2010Prop35
280
     0
102
RTVSPost2010PropOp35
 70
     1
102
RTVSPost2010Prop36
280
     0
102
RTVSPost2010PropOp36
 70
     1
102
RTVSPost2010Prop37
 90
       50
102
RTVSPost2010PropOp37
 70
     1
102
RTVSPost2010Prop38
140
0.0
102
RTVSPost2010PropOp38
 70
     1
102
RTVSPost2010Prop39
140
1.0
102
RTVSPost2010PropOp39
 70
     1
102
RTVSPost2010Prop40
 90
        0
102
RTVSPost2010PropOp40
 70
     1
102
RTVSPost2010Prop41ColorIndex
 90
       18
102
RTVSPost2010Prop41ColorRGB
 90
        0
102
RTVSPost2010PropOp41
 70
     1
102
RTVSPost2010Prop42
 90
       50
102
RTVSPost2010PropOp42
 70
     1
102
RTVSPost2010Prop43
 90
        3
102
RTVSPost2010PropOp43
 70
     1
102
RTVSPost2010Prop44ColorIndex
 90
        5
102
RTVSPost2010Prop44ColorRGB
 90
      255
102
RTVSPost2010PropOp44
 70
     1
102
RTVSPost2010Prop45
280
     0
102
RTVSPost2010PropOp45
 70
     1
102
RTVSPost2010Prop46
 90
       50
102
RTVSPost2010PropOp46
 70
     1
102
RTVSPost2010Prop47
 90
       50
102
RTVSPost2010PropOp47
 70
     1
102
RTVSPost2010Prop48
 90
       50
102
RTVSPost2010PropOp48
 70
     1
102
RTVSPost2010Prop49
280
     0
102
RTVSPost2010PropOp49
 70
     1
102
RTVSPost2010Prop50
 90
       50
102
RTVSPost2010PropOp50
 70
     1
102
RTVSPost2010Prop51ColorIndex
 90
      256
102
RTVSPost2010Prop51ColorRGB
 90
-16777216
102
RTVSPost2010PropOp51
 70
     0
102
RTVSPost2010Prop52
140
1.0
102
RTVSPost2010PropOp52
 70
     0
102
RTVSPost2010Prop53
 90
        2
102
RTVSPost2010PropOp53
 70
     1
102
RTVSPost2010Prop54
  1
strokes_ogs.tif
102
RTVSPost2010PropOp54
 70
     1
102
RTVSPost2010Prop55
280
     0
102
RTVSPost2010PropOp55
 70
     1
102
RTVSPost2010Prop56
140
1.0
102
RTVSPost2010PropOp56
 70
     1
102
RTVSPost2010Prop57
140
1.0
102
RTVSPost2010PropOp57
 70
     1
102
RTVSPropertyOp0
 70
     1
102
RTVSPropertyOp1
 70
     1
102
RTVSPropertyOp2
 70
     1
102
RTVSPropertyOp3
 70
     1
102
RTVSPropertyOp4
 70
     1
102
RTVSPropertyOp5
 70
     1
102
RTVSPropertyOp6
 70
     1
102
RTVSPropertyOp7
 70
     1
102
RTVSPropertyOp8
 70
     1
102
RTVSPropertyOp9
 70
     1
102
RTVSPropertyOp10
 70
     1
102
RTVSPropertyOp11
 70
     1
102
RTVSPropertyOp12
 70
     1
102
RTVSPropertyOp13
 70
     1
102
RTVSPropertyOp14
 70
     1
102
RTVSPropertyOp15
 70
     1
102
RTVSPropertyOp16
 70
     1
102
RTVSPropertyOp17
 70
     1
102
RTVSPropertyOp18
 70
     1
102
RTVSPropertyOp19
 70
     1
102
RTVSPropertyOp20
 70
     1
102
RTVSPropertyOp21
 70
     1
102
RTVSPropertyOp22
 70
     1
102
RTVSPropertyOp23
 70
     1
102
RTVSPropertyOp24
 70
     1
102
RTVSPropertyOp25
 70
     1
102
RTVSPropertyOp26
 70
     1
102
RTVSPropertyOp27
 70
     1
102
RTVSPropertyOp28
 70
     1
102
RTVSPropertyOp29
 70
     1
102
RTVSPropertyOp30
 70
     1
102
RTVSPropertyOp31
 70
     1
102
RTVSPropertyOp32
 70
     1
102
RTVSPropertyOp33
 70
     1
102
RTVSPropertyOp34
 70
     1
102
RTVSPropertyOp35
 70
     1
102
RTVSPropertyOp36
 70
     1
102
RTVSPropertyOp37
 70
     1
102
RTVSPropertyOp38
 70
     1
102
RTVSPropertyOp39
 70
     1
102
RTVSPropertyOp40
 70
     1
102
RTVSPropertyOp41
 70
     1
102
RTVSPropertyOp42
 70
     1
102
RTVSPropertyOp43
 70
     1
102
RTVSPropertyOp44
 70
     1
102
RTVSPropertyOp45
 70
     1
102
RTVSPropertyOp46
 70
     1
102
RTVSPropertyOp47
 70
     1
102
RTVSPropertyOp48
 70
     1
102
RTVSPropertyOp49
 70
     1
102
RTVSPropertyOp50
 70
     1
102
RTVSPropertyOp51
 70
     0
102
RTVSPropertyOp52
 70
     0
102
RTVSPropertyOp53
 70
     1
102
RTVSPropertyOp54
 70
     1
102
RTVSPropertyOp55
 70
     1
102
RTVSPropertyOp56
 70
     1
102
RTVSPropertyOp57
 70
     1
102
RTVSPropertyOp58
 70
     1
102
RTVSPropertyOp59
 70
     1
102
RTVSPropertyOp60
 70
     1
102
RTVSPropertyOp61
 70
     1
102
RTVSPropertyOp62
 70
     1
  0
XRECORD
  5
648B
102
{ACAD_REACTORS
330
648A
102
}
330
648A
100
AcDbXrecord
280
     1
102
RTVSPost2010Prop28
280
     0
102
RTVSPost2010PropOp28
 70
     1
102
RTVSPost2010Prop29
280
     1
102
RTVSPost2010PropOp29
 70
     1
102
RTVSPost2010Prop30
280
     1
102
RTVSPost2010PropOp30
 70
     1
102
RTVSPost2010Prop31
280
     0
102
RTVSPost2010PropOp31
 70
     1
102
RTVSPost2010Prop32
280
     0
102
RTVSPost2010PropOp32
 70
     1
102
RTVSPost2010Prop33
280
     0
102
RTVSPost2010PropOp33
 70
     1
102
RTVSPost2010Prop34
280
     0
102
RTVSPost2010PropOp34
 70
     1
102
RTVSPost2010Prop35
280
     0
102
RTVSPost2010PropOp35
 70
     1
102
RTVSPost2010Prop36
280
     0
102
RTVSPost2010PropOp36
 70
     1
102
RTVSPost2010Prop37
 90
       50
102
RTVSPost2010PropOp37
 70
     1
102
RTVSPost2010Prop38
140
0.0
102
RTVSPost2010PropOp38
 70
     1
102
RTVSPost2010Prop39
140
1.0
102
RTVSPost2010PropOp39
 70
     1
102
RTVSPost2010Prop40
 90
        0
102
RTVSPost2010PropOp40
 70
     1
102
RTVSPost2010Prop41ColorIndex
 90
       18
102
RTVSPost2010Prop41ColorRGB
 90
        0
102
RTVSPost2010PropOp41
 70
     1
102
RTVSPost2010Prop42
 90
       50
102
RTVSPost2010PropOp42
 70
     1
102
RTVSPost2010Prop43
 90
        3
102
RTVSPost2010PropOp43
 70
     1
102
RTVSPost2010Prop44ColorIndex
 90
        5
102
RTVSPost2010Prop44ColorRGB
 90
      255
102
RTVSPost2010PropOp44
 70
     1
102
RTVSPost2010Prop45
280
     0
102
RTVSPost2010PropOp45
 70
     1
102
RTVSPost2010Prop46
 90
       50
102
RTVSPost2010PropOp46
 70
     1
102
RTVSPost2010Prop47
 90
       50
102
RTVSPost2010PropOp47
 70
     1
102
RTVSPost2010Prop48
 90
       50
102
RTVSPost2010PropOp48
 70
     1
102
RTVSPost2010Prop49
280
     0
102
RTVSPost2010PropOp49
 70
     1
102
RTVSPost2010Prop50
 90
       50
102
RTVSPost2010PropOp50
 70
     1
102
RTVSPost2010Prop51ColorIndex
 90
      256
102
RTVSPost2010Prop51ColorRGB
 90
-16777216
102
RTVSPost2010PropOp51
 70
     0
102
RTVSPost2010Prop52
140
1.0
102
RTVSPost2010PropOp52
 70
     0
102
RTVSPost2010Prop53
 90
        2
102
RTVSPost2010PropOp53
 70
     1
102
RTVSPost2010Prop54
  1
strokes_ogs.tif
102
RTVSPost2010PropOp54
 70
     1
102
RTVSPost2010Prop55
280
     0
102
RTVSPost2010PropOp55
 70
     1
102
RTVSPost2010Prop56
140
1.0
102
RTVSPost2010PropOp56
 70
     1
102
RTVSPost2010Prop57
140
1.0
102
RTVSPost2010PropOp57
 70
     1
102
RTVSPropertyOp0
 70
     1
102
RTVSPropertyOp1
 70
     1
102
RTVSPropertyOp2
 70
     1
102
RTVSPropertyOp3
 70
     1
102
RTVSPropertyOp4
 70
     1
102
RTVSPropertyOp5
 70
     1
102
RTVSPropertyOp6
 70
     1
102
RTVSPropertyOp7
 70
     1
102
RTVSPropertyOp8
 70
     1
102
RTVSPropertyOp9
 70
     1
102
RTVSPropertyOp10
 70
     1
102
RTVSPropertyOp11
 70
     1
102
RTVSPropertyOp12
 70
     1
102
RTVSPropertyOp13
 70
     1
102
RTVSPropertyOp14
 70
     1
102
RTVSPropertyOp15
 70
     1
102
RTVSPropertyOp16
 70
     1
102
RTVSPropertyOp17
 70
     1
102
RTVSPropertyOp18
 70
     1
102
RTVSPropertyOp19
 70
     1
102
RTVSPropertyOp20
 70
     1
102
RTVSPropertyOp21
 70
     1
102
RTVSPropertyOp22
 70
     1
102
RTVSPropertyOp23
 70
     1
102
RTVSPropertyOp24
 70
     1
102
RTVSPropertyOp25
 70
     1
102
RTVSPropertyOp26
 70
     1
102
RTVSPropertyOp27
 70
     1
102
RTVSPropertyOp28
 70
     1
102
RTVSPropertyOp29
 70
     1
102
RTVSPropertyOp30
 70
     1
102
RTVSPropertyOp31
 70
     1
102
RTVSPropertyOp32
 70
     1
102
RTVSPropertyOp33
 70
     1
102
RTVSPropertyOp34
 70
     1
102
RTVSPropertyOp35
 70
     1
102
RTVSPropertyOp36
 70
     1
102
RTVSPropertyOp37
 70
     1
102
RTVSPropertyOp38
 70
     1
102
RTVSPropertyOp39
 70
     1
102
RTVSPropertyOp40
 70
     1
102
RTVSPropertyOp41
 70
     1
102
RTVSPropertyOp42
 70
     1
102
RTVSPropertyOp43
 70
     1
102
RTVSPropertyOp44
 70
     1
102
RTVSPropertyOp45
 70
     1
102
RTVSPropertyOp46
 70
     1
102
RTVSPropertyOp47
 70
     1
102
RTVSPropertyOp48
 70
     1
102
RTVSPropertyOp49
 70
     1
102
RTVSPropertyOp50
 70
     1
102
RTVSPropertyOp51
 70
     0
102
RTVSPropertyOp52
 70
     0
102
RTVSPropertyOp53
 70
     1
102
RTVSPropertyOp54
 70
     1
102
RTVSPropertyOp55
 70
     1
102
RTVSPropertyOp56
 70
     1
102
RTVSPropertyOp57
 70
     1
102
RTVSPropertyOp58
 70
     1
102
RTVSPropertyOp59
 70
     1
102
RTVSPropertyOp60
 70
     1
102
RTVSPropertyOp61
 70
     1
102
RTVSPropertyOp62
 70
     1
  0
XRECORD
  5
6493
102
{ACAD_REACTORS
330
6492
102
}
330
6492
100
AcDbXrecord
280
     1
102
RTVSPost2010Prop28
280
     0
102
RTVSPost2010PropOp28
 70
     1
102
RTVSPost2010Prop29
280
     1
102
RTVSPost2010PropOp29
 70
     1
102
RTVSPost2010Prop30
280
     1
102
RTVSPost2010PropOp30
 70
     1
102
RTVSPost2010Prop31
280
     0
102
RTVSPost2010PropOp31
 70
     1
102
RTVSPost2010Prop32
280
     0
102
RTVSPost2010PropOp32
 70
     1
102
RTVSPost2010Prop33
280
     0
102
RTVSPost2010PropOp33
 70
     1
102
RTVSPost2010Prop34
280
     0
102
RTVSPost2010PropOp34
 70
     1
102
RTVSPost2010Prop35
280
     0
102
RTVSPost2010PropOp35
 70
     1
102
RTVSPost2010Prop36
280
     0
102
RTVSPost2010PropOp36
 70
     1
102
RTVSPost2010Prop37
 90
       50
102
RTVSPost2010PropOp37
 70
     1
102
RTVSPost2010Prop38
140
0.0
102
RTVSPost2010PropOp38
 70
     1
102
RTVSPost2010Prop39
140
1.0
102
RTVSPost2010PropOp39
 70
     1
102
RTVSPost2010Prop40
 90
        0
102
RTVSPost2010PropOp40
 70
     1
102
RTVSPost2010Prop41ColorIndex
 90
       18
102
RTVSPost2010Prop41ColorRGB
 90
        0
102
RTVSPost2010PropOp41
 70
     1
102
RTVSPost2010Prop42
 90
       50
102
RTVSPost2010PropOp42
 70
     1
102
RTVSPost2010Prop43
 90
        3
102
RTVSPost2010PropOp43
 70
     1
102
RTVSPost2010Prop44ColorIndex
 90
        5
102
RTVSPost2010Prop44ColorRGB
 90
      255
102
RTVSPost2010PropOp44
 70
     1
102
RTVSPost2010Prop45
280
     0
102
RTVSPost2010PropOp45
 70
     1
102
RTVSPost2010Prop46
 90
       50
102
RTVSPost2010PropOp46
 70
     1
102
RTVSPost2010Prop47
 90
       50
102
RTVSPost2010PropOp47
 70
     1
102
RTVSPost2010Prop48
 90
       50
102
RTVSPost2010PropOp48
 70
     1
102
RTVSPost2010Prop49
280
     0
102
RTVSPost2010PropOp49
 70
     1
102
RTVSPost2010Prop50
 90
       50
102
RTVSPost2010PropOp50
 70
     1
102
RTVSPost2010Prop51ColorIndex
 90
      256
102
RTVSPost2010Prop51ColorRGB
 90
-16777216
102
RTVSPost2010PropOp51
 70
     0
102
RTVSPost2010Prop52
140
1.0
102
RTVSPost2010PropOp52
 70
     0
102
RTVSPost2010Prop53
 90
        2
102
RTVSPost2010PropOp53
 70
     1
102
RTVSPost2010Prop54
  1
strokes_ogs.tif
102
RTVSPost2010PropOp54
 70
     1
102
RTVSPost2010Prop55
280
     0
102
RTVSPost2010PropOp55
 70
     1
102
RTVSPost2010Prop56
140
1.0
102
RTVSPost2010PropOp56
 70
     1
102
RTVSPost2010Prop57
140
1.0
102
RTVSPost2010PropOp57
 70
     1
102
RTVSPropertyOp0
 70
     1
102
RTVSPropertyOp1
 70
     1
102
RTVSPropertyOp2
 70
     1
102
RTVSPropertyOp3
 70
     1
102
RTVSPropertyOp4
 70
     1
102
RTVSPropertyOp5
 70
     1
102
RTVSPropertyOp6
 70
     1
102
RTVSPropertyOp7
 70
     1
102
RTVSPropertyOp8
 70
     1
102
RTVSPropertyOp9
 70
     1
102
RTVSPropertyOp10
 70
     1
102
RTVSPropertyOp11
 70
     1
102
RTVSPropertyOp12
 70
     1
102
RTVSPropertyOp13
 70
     1
102
RTVSPropertyOp14
 70
     1
102
RTVSPropertyOp15
 70
     1
102
RTVSPropertyOp16
 70
     1
102
RTVSPropertyOp17
 70
     1
102
RTVSPropertyOp18
 70
     1
102
RTVSPropertyOp19
 70
     1
102
RTVSPropertyOp20
 70
     1
102
RTVSPropertyOp21
 70
     1
102
RTVSPropertyOp22
 70
     1
102
RTVSPropertyOp23
 70
     1
102
RTVSPropertyOp24
 70
     1
102
RTVSPropertyOp25
 70
     1
102
RTVSPropertyOp26
 70
     1
102
RTVSPropertyOp27
 70
     1
102
RTVSPropertyOp28
 70
     1
102
RTVSPropertyOp29
 70
     1
102
RTVSPropertyOp30
 70
     1
102
RTVSPropertyOp31
 70
     1
102
RTVSPropertyOp32
 70
     1
102
RTVSPropertyOp33
 70
     1
102
RTVSPropertyOp34
 70
     1
102
RTVSPropertyOp35
 70
     1
102
RTVSPropertyOp36
 70
     1
102
RTVSPropertyOp37
 70
     1
102
RTVSPropertyOp38
 70
     1
102
RTVSPropertyOp39
 70
     1
102
RTVSPropertyOp40
 70
     1
102
RTVSPropertyOp41
 70
     1
102
RTVSPropertyOp42
 70
     1
102
RTVSPropertyOp43
 70
     1
102
RTVSPropertyOp44
 70
     1
102
RTVSPropertyOp45
 70
     1
102
RTVSPropertyOp46
 70
     1
102
RTVSPropertyOp47
 70
     1
102
RTVSPropertyOp48
 70
     1
102
RTVSPropertyOp49
 70
     1
102
RTVSPropertyOp50
 70
     1
102
RTVSPropertyOp51
 70
     0
102
RTVSPropertyOp52
 70
     0
102
RTVSPropertyOp53
 70
     1
102
RTVSPropertyOp54
 70
     1
102
RTVSPropertyOp55
 70
     1
102
RTVSPropertyOp56
 70
     1
102
RTVSPropertyOp57
 70
     1
102
RTVSPropertyOp58
 70
     1
102
RTVSPropertyOp59
 70
     1
102
RTVSPropertyOp60
 70
     1
102
RTVSPropertyOp61
 70
     1
102
RTVSPropertyOp62
 70
     1
  0
XRECORD
  5
6485
102
{ACAD_REACTORS
330
6484
102
}
330
6484
100
AcDbXrecord
280
     1
102
RTVSPost2010Prop28
280
     0
102
RTVSPost2010PropOp28
 70
     1
102
RTVSPost2010Prop29
280
     1
102
RTVSPost2010PropOp29
 70
     1
102
RTVSPost2010Prop30
280
     1
102
RTVSPost2010PropOp30
 70
     1
102
RTVSPost2010Prop31
280
     0
102
RTVSPost2010PropOp31
 70
     1
102
RTVSPost2010Prop32
280
     0
102
RTVSPost2010PropOp32
 70
     1
102
RTVSPost2010Prop33
280
     0
102
RTVSPost2010PropOp33
 70
     1
102
RTVSPost2010Prop34
280
     0
102
RTVSPost2010PropOp34
 70
     1
102
RTVSPost2010Prop35
280
     0
102
RTVSPost2010PropOp35
 70
     1
102
RTVSPost2010Prop36
280
     0
102
RTVSPost2010PropOp36
 70
     1
102
RTVSPost2010Prop37
 90
       50
102
RTVSPost2010PropOp37
 70
     1
102
RTVSPost2010Prop38
140
0.0
102
RTVSPost2010PropOp38
 70
     1
102
RTVSPost2010Prop39
140
1.0
102
RTVSPost2010PropOp39
 70
     1
102
RTVSPost2010Prop40
 90
        0
102
RTVSPost2010PropOp40
 70
     1
102
RTVSPost2010Prop41ColorIndex
 90
       18
102
RTVSPost2010Prop41ColorRGB
 90
        0
102
RTVSPost2010PropOp41
 70
     1
102
RTVSPost2010Prop42
 90
       50
102
RTVSPost2010PropOp42
 70
     1
102
RTVSPost2010Prop43
 90
        3
102
RTVSPost2010PropOp43
 70
     1
102
RTVSPost2010Prop44ColorIndex
 90
        5
102
RTVSPost2010Prop44ColorRGB
 90
      255
102
RTVSPost2010PropOp44
 70
     1
102
RTVSPost2010Prop45
280
     0
102
RTVSPost2010PropOp45
 70
     1
102
RTVSPost2010Prop46
 90
       50
102
RTVSPost2010PropOp46
 70
     1
102
RTVSPost2010Prop47
 90
       50
102
RTVSPost2010PropOp47
 70
     1
102
RTVSPost2010Prop48
 90
       50
102
RTVSPost2010PropOp48
 70
     1
102
RTVSPost2010Prop49
280
     0
102
RTVSPost2010PropOp49
 70
     1
102
RTVSPost2010Prop50
 90
       50
102
RTVSPost2010PropOp50
 70
     1
102
RTVSPost2010Prop51ColorIndex
 90
      256
102
RTVSPost2010Prop51ColorRGB
 90
-16777216
102
RTVSPost2010PropOp51
 70
     0
102
RTVSPost2010Prop52
140
1.0
102
RTVSPost2010PropOp52
 70
     0
102
RTVSPost2010Prop53
 90
        2
102
RTVSPost2010PropOp53
 70
     1
102
RTVSPost2010Prop54
  1
strokes_ogs.tif
102
RTVSPost2010PropOp54
 70
     1
102
RTVSPost2010Prop55
280
     0
102
RTVSPost2010PropOp55
 70
     1
102
RTVSPost2010Prop56
140
1.0
102
RTVSPost2010PropOp56
 70
     1
102
RTVSPost2010Prop57
140
1.0
102
RTVSPost2010PropOp57
 70
     1
102
RTVSPropertyOp0
 70
     1
102
RTVSPropertyOp1
 70
     1
102
RTVSPropertyOp2
 70
     1
102
RTVSPropertyOp3
 70
     1
102
RTVSPropertyOp4
 70
     1
102
RTVSPropertyOp5
 70
     1
102
RTVSPropertyOp6
 70
     1
102
RTVSPropertyOp7
 70
     1
102
RTVSPropertyOp8
 70
     1
102
RTVSPropertyOp9
 70
     1
102
RTVSPropertyOp10
 70
     1
102
RTVSPropertyOp11
 70
     1
102
RTVSPropertyOp12
 70
     1
102
RTVSPropertyOp13
 70
     1
102
RTVSPropertyOp14
 70
     1
102
RTVSPropertyOp15
 70
     1
102
RTVSPropertyOp16
 70
     1
102
RTVSPropertyOp17
 70
     1
102
RTVSPropertyOp18
 70
     1
102
RTVSPropertyOp19
 70
     1
102
RTVSPropertyOp20
 70
     1
102
RTVSPropertyOp21
 70
     1
102
RTVSPropertyOp22
 70
     1
102
RTVSPropertyOp23
 70
     1
102
RTVSPropertyOp24
 70
     1
102
RTVSPropertyOp25
 70
     1
102
RTVSPropertyOp26
 70
     1
102
RTVSPropertyOp27
 70
     1
102
RTVSPropertyOp28
 70
     1
102
RTVSPropertyOp29
 70
     1
102
RTVSPropertyOp30
 70
     1
102
RTVSPropertyOp31
 70
     1
102
RTVSPropertyOp32
 70
     1
102
RTVSPropertyOp33
 70
     1
102
RTVSPropertyOp34
 70
     1
102
RTVSPropertyOp35
 70
     1
102
RTVSPropertyOp36
 70
     1
102
RTVSPropertyOp37
 70
     1
102
RTVSPropertyOp38
 70
     1
102
RTVSPropertyOp39
 70
     1
102
RTVSPropertyOp40
 70
     1
102
RTVSPropertyOp41
 70
     1
102
RTVSPropertyOp42
 70
     1
102
RTVSPropertyOp43
 70
     1
102
RTVSPropertyOp44
 70
     1
102
RTVSPropertyOp45
 70
     1
102
RTVSPropertyOp46
 70
     1
102
RTVSPropertyOp47
 70
     1
102
RTVSPropertyOp48
 70
     1
102
RTVSPropertyOp49
 70
     1
102
RTVSPropertyOp50
 70
     1
102
RTVSPropertyOp51
 70
     0
102
RTVSPropertyOp52
 70
     0
102
RTVSPropertyOp53
 70
     1
102
RTVSPropertyOp54
 70
     1
102
RTVSPropertyOp55
 70
     1
102
RTVSPropertyOp56
 70
     1
102
RTVSPropertyOp57
 70
     1
102
RTVSPropertyOp58
 70
     1
102
RTVSPropertyOp59
 70
     1
102
RTVSPropertyOp60
 70
     1
102
RTVSPropertyOp61
 70
     1
102
RTVSPropertyOp62
 70
     1
  0
XRECORD
  5
6489
102
{ACAD_REACTORS
330
6488
102
}
330
6488
100
AcDbXrecord
280
     1
102
RTVSPost2010Prop28
280
     0
102
RTVSPost2010PropOp28
 70
     1
102
RTVSPost2010Prop29
280
     1
102
RTVSPost2010PropOp29
 70
     1
102
RTVSPost2010Prop30
280
     1
102
RTVSPost2010PropOp30
 70
     1
102
RTVSPost2010Prop31
280
     0
102
RTVSPost2010PropOp31
 70
     1
102
RTVSPost2010Prop32
280
     0
102
RTVSPost2010PropOp32
 70
     1
102
RTVSPost2010Prop33
280
     0
102
RTVSPost2010PropOp33
 70
     1
102
RTVSPost2010Prop34
280
     0
102
RTVSPost2010PropOp34
 70
     1
102
RTVSPost2010Prop35
280
     0
102
RTVSPost2010PropOp35
 70
     1
102
RTVSPost2010Prop36
280
     0
102
RTVSPost2010PropOp36
 70
     1
102
RTVSPost2010Prop37
 90
       50
102
RTVSPost2010PropOp37
 70
     1
102
RTVSPost2010Prop38
140
0.0
102
RTVSPost2010PropOp38
 70
     1
102
RTVSPost2010Prop39
140
1.0
102
RTVSPost2010PropOp39
 70
     1
102
RTVSPost2010Prop40
 90
        0
102
RTVSPost2010PropOp40
 70
     1
102
RTVSPost2010Prop41ColorIndex
 90
       18
102
RTVSPost2010Prop41ColorRGB
 90
        0
102
RTVSPost2010PropOp41
 70
     1
102
RTVSPost2010Prop42
 90
       50
102
RTVSPost2010PropOp42
 70
     1
102
RTVSPost2010Prop43
 90
        3
102
RTVSPost2010PropOp43
 70
     1
102
RTVSPost2010Prop44ColorIndex
 90
        5
102
RTVSPost2010Prop44ColorRGB
 90
      255
102
RTVSPost2010PropOp44
 70
     1
102
RTVSPost2010Prop45
280
     0
102
RTVSPost2010PropOp45
 70
     1
102
RTVSPost2010Prop46
 90
       50
102
RTVSPost2010PropOp46
 70
     1
102
RTVSPost2010Prop47
 90
       50
102
RTVSPost2010PropOp47
 70
     1
102
RTVSPost2010Prop48
 90
       50
102
RTVSPost2010PropOp48
 70
     1
102
RTVSPost2010Prop49
280
     0
102
RTVSPost2010PropOp49
 70
     1
102
RTVSPost2010Prop50
 90
       50
102
RTVSPost2010PropOp50
 70
     1
102
RTVSPost2010Prop51ColorIndex
 90
      256
102
RTVSPost2010Prop51ColorRGB
 90
-16777216
102
RTVSPost2010PropOp51
 70
     0
102
RTVSPost2010Prop52
140
1.0
102
RTVSPost2010PropOp52
 70
     0
102
RTVSPost2010Prop53
 90
        2
102
RTVSPost2010PropOp53
 70
     1
102
RTVSPost2010Prop54
  1
strokes_ogs.tif
102
RTVSPost2010PropOp54
 70
     1
102
RTVSPost2010Prop55
280
     0
102
RTVSPost2010PropOp55
 70
     1
102
RTVSPost2010Prop56
140
1.0
102
RTVSPost2010PropOp56
 70
     1
102
RTVSPost2010Prop57
140
1.0
102
RTVSPost2010PropOp57
 70
     1
102
RTVSPropertyOp0
 70
     1
102
RTVSPropertyOp1
 70
     1
102
RTVSPropertyOp2
 70
     1
102
RTVSPropertyOp3
 70
     1
102
RTVSPropertyOp4
 70
     1
102
RTVSPropertyOp5
 70
     1
102
RTVSPropertyOp6
 70
     1
102
RTVSPropertyOp7
 70
     1
102
RTVSPropertyOp8
 70
     1
102
RTVSPropertyOp9
 70
     1
102
RTVSPropertyOp10
 70
     1
102
RTVSPropertyOp11
 70
     1
102
RTVSPropertyOp12
 70
     1
102
RTVSPropertyOp13
 70
     1
102
RTVSPropertyOp14
 70
     1
102
RTVSPropertyOp15
 70
     1
102
RTVSPropertyOp16
 70
     1
102
RTVSPropertyOp17
 70
     1
102
RTVSPropertyOp18
 70
     1
102
RTVSPropertyOp19
 70
     1
102
RTVSPropertyOp20
 70
     1
102
RTVSPropertyOp21
 70
     1
102
RTVSPropertyOp22
 70
     1
102
RTVSPropertyOp23
 70
     1
102
RTVSPropertyOp24
 70
     1
102
RTVSPropertyOp25
 70
     1
102
RTVSPropertyOp26
 70
     1
102
RTVSPropertyOp27
 70
     1
102
RTVSPropertyOp28
 70
     1
102
RTVSPropertyOp29
 70
     1
102
RTVSPropertyOp30
 70
     1
102
RTVSPropertyOp31
 70
     1
102
RTVSPropertyOp32
 70
     1
102
RTVSPropertyOp33
 70
     1
102
RTVSPropertyOp34
 70
     1
102
RTVSPropertyOp35
 70
     1
102
RTVSPropertyOp36
 70
     1
102
RTVSPropertyOp37
 70
     1
102
RTVSPropertyOp38
 70
     1
102
RTVSPropertyOp39
 70
     1
102
RTVSPropertyOp40
 70
     1
102
RTVSPropertyOp41
 70
     1
102
RTVSPropertyOp42
 70
     1
102
RTVSPropertyOp43
 70
     1
102
RTVSPropertyOp44
 70
     1
102
RTVSPropertyOp45
 70
     1
102
RTVSPropertyOp46
 70
     1
102
RTVSPropertyOp47
 70
     1
102
RTVSPropertyOp48
 70
     1
102
RTVSPropertyOp49
 70
     1
102
RTVSPropertyOp50
 70
     1
102
RTVSPropertyOp51
 70
     0
102
RTVSPropertyOp52
 70
     0
102
RTVSPropertyOp53
 70
     1
102
RTVSPropertyOp54
 70
     1
102
RTVSPropertyOp55
 70
     1
102
RTVSPropertyOp56
 70
     1
102
RTVSPropertyOp57
 70
     1
102
RTVSPropertyOp58
 70
     1
102
RTVSPropertyOp59
 70
     1
102
RTVSPropertyOp60
 70
     1
102
RTVSPropertyOp61
 70
     1
102
RTVSPropertyOp62
 70
     1
  0
XRECORD
  5
64A3
102
{ACAD_REACTORS
330
64A2
102
}
330
64A2
100
AcDbXrecord
280
     1
102
RTVSPost2010Prop28
280
     0
102
RTVSPost2010PropOp28
 70
     0
102
RTVSPost2010Prop29
280
     1
102
RTVSPost2010PropOp29
 70
     0
102
RTVSPost2010Prop30
280
     1
102
RTVSPost2010PropOp30
 70
     0
102
RTVSPost2010Prop31
280
     0
102
RTVSPost2010PropOp31
 70
     0
102
RTVSPost2010Prop32
280
     0
102
RTVSPost2010PropOp32
 70
     0
102
RTVSPost2010Prop33
280
     0
102
RTVSPost2010PropOp33
 70
     0
102
RTVSPost2010Prop34
280
     0
102
RTVSPost2010PropOp34
 70
     0
102
RTVSPost2010Prop35
280
     0
102
RTVSPost2010PropOp35
 70
     0
102
RTVSPost2010Prop36
280
     0
102
RTVSPost2010PropOp36
 70
     0
102
RTVSPost2010Prop37
 90
       50
102
RTVSPost2010PropOp37
 70
     0
102
RTVSPost2010Prop38
140
0.0
102
RTVSPost2010PropOp38
 70
     0
102
RTVSPost2010Prop39
140
1.0
102
RTVSPost2010PropOp39
 70
     0
102
RTVSPost2010Prop40
 90
        0
102
RTVSPost2010PropOp40
 70
     0
102
RTVSPost2010Prop41ColorIndex
 90
       18
102
RTVSPost2010Prop41ColorRGB
 90
        0
102
RTVSPost2010PropOp41
 70
     0
102
RTVSPost2010Prop42
 90
       50
102
RTVSPost2010PropOp42
 70
     0
102
RTVSPost2010Prop43
 90
        3
102
RTVSPost2010PropOp43
 70
     0
102
RTVSPost2010Prop44ColorIndex
 90
        5
102
RTVSPost2010Prop44ColorRGB
 90
      255
102
RTVSPost2010PropOp44
 70
     0
102
RTVSPost2010Prop45
280
     0
102
RTVSPost2010PropOp45
 70
     0
102
RTVSPost2010Prop46
 90
       50
102
RTVSPost2010PropOp46
 70
     0
102
RTVSPost2010Prop47
 90
       50
102
RTVSPost2010PropOp47
 70
     0
102
RTVSPost2010Prop48
 90
       50
102
RTVSPost2010PropOp48
 70
     0
102
RTVSPost2010Prop49
280
     0
102
RTVSPost2010PropOp49
 70
     0
102
RTVSPost2010Prop50
 90
       50
102
RTVSPost2010PropOp50
 70
     0
102
RTVSPost2010Prop51ColorIndex
 90
      256
102
RTVSPost2010Prop51ColorRGB
 90
-16777216
102
RTVSPost2010PropOp51
 70
     0
102
RTVSPost2010Prop52
140
1.0
102
RTVSPost2010PropOp52
 70
     0
102
RTVSPost2010Prop53
 90
        2
102
RTVSPost2010PropOp53
 70
     0
102
RTVSPost2010Prop54
  1
strokes_ogs.tif
102
RTVSPost2010PropOp54
 70
     0
102
RTVSPost2010Prop55
280
     0
102
RTVSPost2010PropOp55
 70
     0
102
RTVSPost2010Prop56
140
1.0
102
RTVSPost2010PropOp56
 70
     0
102
RTVSPost2010Prop57
140
1.0
102
RTVSPost2010PropOp57
 70
     0
102
RTVSPropertyOp0
 70
     0
102
RTVSPropertyOp1
 70
     0
102
RTVSPropertyOp2
 70
     0
102
RTVSPropertyOp3
 70
     0
102
RTVSPropertyOp4
 70
     0
102
RTVSPropertyOp5
 70
     0
102
RTVSPropertyOp6
 70
     0
102
RTVSPropertyOp7
 70
     0
102
RTVSPropertyOp8
 70
     0
102
RTVSPropertyOp9
 70
     0
102
RTVSPropertyOp10
 70
     0
102
RTVSPropertyOp11
 70
     0
102
RTVSPropertyOp12
 70
     0
102
RTVSPropertyOp13
 70
     0
102
RTVSPropertyOp14
 70
     2
102
RTVSPropertyOp15
 70
     0
102
RTVSPropertyOp16
 70
     0
102
RTVSPropertyOp17
 70
     0
102
RTVSPropertyOp18
 70
     0
102
RTVSPropertyOp19
 70
     0
102
RTVSPropertyOp20
 70
     0
102
RTVSPropertyOp21
 70
     0
102
RTVSPropertyOp22
 70
     0
102
RTVSPropertyOp23
 70
     0
102
RTVSPropertyOp24
 70
     0
102
RTVSPropertyOp25
 70
     0
102
RTVSPropertyOp26
 70
     0
102
RTVSPropertyOp27
 70
     0
102
RTVSPropertyOp28
 70
     0
102
RTVSPropertyOp29
 70
     0
102
RTVSPropertyOp30
 70
     0
102
RTVSPropertyOp31
 70
     0
102
RTVSPropertyOp32
 70
     0
102
RTVSPropertyOp33
 70
     0
102
RTVSPropertyOp34
 70
     0
102
RTVSPropertyOp35
 70
     0
102
RTVSPropertyOp36
 70
     0
102
RTVSPropertyOp37
 70
     0
102
RTVSPropertyOp38
 70
     0
102
RTVSPropertyOp39
 70
     0
102
RTVSPropertyOp40
 70
     0
102
RTVSPropertyOp41
 70
     0
102
RTVSPropertyOp42
 70
     0
102
RTVSPropertyOp43
 70
     0
102
RTVSPropertyOp44
 70
     0
102
RTVSPropertyOp45
 70
     0
102
RTVSPropertyOp46
 70
     0
102
RTVSPropertyOp47
 70
     0
102
RTVSPropertyOp48
 70
     0
102
RTVSPropertyOp49
 70
     0
102
RTVSPropertyOp50
 70
     0
102
RTVSPropertyOp51
 70
     0
102
RTVSPropertyOp52
 70
     0
102
RTVSPropertyOp53
 70
     0
102
RTVSPropertyOp54
 70
     0
102
RTVSPropertyOp55
 70
     0
102
RTVSPropertyOp56
 70
     0
102
RTVSPropertyOp57
 70
     0
102
RTVSPropertyOp58
 70
     1
102
RTVSPropertyOp59
 70
     1
102
RTVSPropertyOp60
 70
     1
102
RTVSPropertyOp61
 70
     1
102
RTVSPropertyOp62
 70
     1
  0
XRECORD
  5
6491
102
{ACAD_REACTORS
330
6490
102
}
330
6490
100
AcDbXrecord
280
     1
102
RTVSPost2010Prop28
280
     0
102
RTVSPost2010PropOp28
 70
     1
102
RTVSPost2010Prop29
280
     1
102
RTVSPost2010PropOp29
 70
     1
102
RTVSPost2010Prop30
280
     1
102
RTVSPost2010PropOp30
 70
     1
102
RTVSPost2010Prop31
280
     0
102
RTVSPost2010PropOp31
 70
     1
102
RTVSPost2010Prop32
280
     0
102
RTVSPost2010PropOp32
 70
     1
102
RTVSPost2010Prop33
280
     0
102
RTVSPost2010PropOp33
 70
     1
102
RTVSPost2010Prop34
280
     0
102
RTVSPost2010PropOp34
 70
     1
102
RTVSPost2010Prop35
280
     0
102
RTVSPost2010PropOp35
 70
     1
102
RTVSPost2010Prop36
280
     0
102
RTVSPost2010PropOp36
 70
     1
102
RTVSPost2010Prop37
 90
       50
102
RTVSPost2010PropOp37
 70
     1
102
RTVSPost2010Prop38
140
0.0
102
RTVSPost2010PropOp38
 70
     1
102
RTVSPost2010Prop39
140
1.0
102
RTVSPost2010PropOp39
 70
     1
102
RTVSPost2010Prop40
 90
        0
102
RTVSPost2010PropOp40
 70
     1
102
RTVSPost2010Prop41ColorIndex
 90
       18
102
RTVSPost2010Prop41ColorRGB
 90
        0
102
RTVSPost2010PropOp41
 70
     1
102
RTVSPost2010Prop42
 90
       50
102
RTVSPost2010PropOp42
 70
     1
102
RTVSPost2010Prop43
 90
        3
102
RTVSPost2010PropOp43
 70
     1
102
RTVSPost2010Prop44ColorIndex
 90
        5
102
RTVSPost2010Prop44ColorRGB
 90
      255
102
RTVSPost2010PropOp44
 70
     1
102
RTVSPost2010Prop45
280
     0
102
RTVSPost2010PropOp45
 70
     1
102
RTVSPost2010Prop46
 90
       50
102
RTVSPost2010PropOp46
 70
     1
102
RTVSPost2010Prop47
 90
       50
102
RTVSPost2010PropOp47
 70
     1
102
RTVSPost2010Prop48
 90
       50
102
RTVSPost2010PropOp48
 70
     1
102
RTVSPost2010Prop49
280
     0
102
RTVSPost2010PropOp49
 70
     1
102
RTVSPost2010Prop50
 90
       50
102
RTVSPost2010PropOp50
 70
     1
102
RTVSPost2010Prop51ColorIndex
 90
      256
102
RTVSPost2010Prop51ColorRGB
 90
-16777216
102
RTVSPost2010PropOp51
 70
     0
102
RTVSPost2010Prop52
140
1.0
102
RTVSPost2010PropOp52
 70
     0
102
RTVSPost2010Prop53
 90
        2
102
RTVSPost2010PropOp53
 70
     1
102
RTVSPost2010Prop54
  1
strokes_ogs.tif
102
RTVSPost2010PropOp54
 70
     1
102
RTVSPost2010Prop55
280
     0
102
RTVSPost2010PropOp55
 70
     1
102
RTVSPost2010Prop56
140
1.0
102
RTVSPost2010PropOp56
 70
     1
102
RTVSPost2010Prop57
140
1.0
102
RTVSPost2010PropOp57
 70
     1
102
RTVSPropertyOp0
 70
     1
102
RTVSPropertyOp1
 70
     1
102
RTVSPropertyOp2
 70
     1
102
RTVSPropertyOp3
 70
     1
102
RTVSPropertyOp4
 70
     1
102
RTVSPropertyOp5
 70
     1
102
RTVSPropertyOp6
 70
     1
102
RTVSPropertyOp7
 70
     1
102
RTVSPropertyOp8
 70
     1
102
RTVSPropertyOp9
 70
     1
102
RTVSPropertyOp10
 70
     1
102
RTVSPropertyOp11
 70
     1
102
RTVSPropertyOp12
 70
     1
102
RTVSPropertyOp13
 70
     1
102
RTVSPropertyOp14
 70
     1
102
RTVSPropertyOp15
 70
     1
102
RTVSPropertyOp16
 70
     1
102
RTVSPropertyOp17
 70
     1
102
RTVSPropertyOp18
 70
     1
102
RTVSPropertyOp19
 70
     1
102
RTVSPropertyOp20
 70
     1
102
RTVSPropertyOp21
 70
     1
102
RTVSPropertyOp22
 70
     1
102
RTVSPropertyOp23
 70
     1
102
RTVSPropertyOp24
 70
     1
102
RTVSPropertyOp25
 70
     1
102
RTVSPropertyOp26
 70
     1
102
RTVSPropertyOp27
 70
     1
102
RTVSPropertyOp28
 70
     1
102
RTVSPropertyOp29
 70
     1
102
RTVSPropertyOp30
 70
     1
102
RTVSPropertyOp31
 70
     1
102
RTVSPropertyOp32
 70
     1
102
RTVSPropertyOp33
 70
     1
102
RTVSPropertyOp34
 70
     1
102
RTVSPropertyOp35
 70
     1
102
RTVSPropertyOp36
 70
     1
102
RTVSPropertyOp37
 70
     1
102
RTVSPropertyOp38
 70
     1
102
RTVSPropertyOp39
 70
     1
102
RTVSPropertyOp40
 70
     1
102
RTVSPropertyOp41
 70
     1
102
RTVSPropertyOp42
 70
     1
102
RTVSPropertyOp43
 70
     1
102
RTVSPropertyOp44
 70
     1
102
RTVSPropertyOp45
 70
     1
102
RTVSPropertyOp46
 70
     1
102
RTVSPropertyOp47
 70
     1
102
RTVSPropertyOp48
 70
     1
102
RTVSPropertyOp49
 70
     1
102
RTVSPropertyOp50
 70
     1
102
RTVSPropertyOp51
 70
     0
102
RTVSPropertyOp52
 70
     0
102
RTVSPropertyOp53
 70
     1
102
RTVSPropertyOp54
 70
     1
102
RTVSPropertyOp55
 70
     1
102
RTVSPropertyOp56
 70
     1
102
RTVSPropertyOp57
 70
     1
102
RTVSPropertyOp58
 70
     1
102
RTVSPropertyOp59
 70
     1
102
RTVSPropertyOp60
 70
     1
102
RTVSPropertyOp61
 70
     1
102
RTVSPropertyOp62
 70
     1
  0
XRECORD
  5
6475
102
{ACAD_REACTORS
330
6474
102
}
330
6474
100
AcDbXrecord
280
     1
102
RTVSPost2010Prop28
280
     0
102
RTVSPost2010PropOp28
 70
     1
102
RTVSPost2010Prop29
280
     1
102
RTVSPost2010PropOp29
 70
     1
102
RTVSPost2010Prop30
280
     1
102
RTVSPost2010PropOp30
 70
     1
102
RTVSPost2010Prop31
280
     0
102
RTVSPost2010PropOp31
 70
     1
102
RTVSPost2010Prop32
280
     0
102
RTVSPost2010PropOp32
 70
     1
102
RTVSPost2010Prop33
280
     0
102
RTVSPost2010PropOp33
 70
     1
102
RTVSPost2010Prop34
280
     0
102
RTVSPost2010PropOp34
 70
     1
102
RTVSPost2010Prop35
280
     0
102
RTVSPost2010PropOp35
 70
     1
102
RTVSPost2010Prop36
280
     0
102
RTVSPost2010PropOp36
 70
     1
102
RTVSPost2010Prop37
 90
       50
102
RTVSPost2010PropOp37
 70
     1
102
RTVSPost2010Prop38
140
0.0
102
RTVSPost2010PropOp38
 70
     1
102
RTVSPost2010Prop39
140
1.0
102
RTVSPost2010PropOp39
 70
     1
102
RTVSPost2010Prop40
 90
        0
102
RTVSPost2010PropOp40
 70
     1
102
RTVSPost2010Prop41ColorIndex
 90
       18
102
RTVSPost2010Prop41ColorRGB
 90
        0
102
RTVSPost2010PropOp41
 70
     1
102
RTVSPost2010Prop42
 90
       50
102
RTVSPost2010PropOp42
 70
     1
102
RTVSPost2010Prop43
 90
        3
102
RTVSPost2010PropOp43
 70
     1
102
RTVSPost2010Prop44ColorIndex
 90
        5
102
RTVSPost2010Prop44ColorRGB
 90
      255
102
RTVSPost2010PropOp44
 70
     1
102
RTVSPost2010Prop45
280
     0
102
RTVSPost2010PropOp45
 70
     1
102
RTVSPost2010Prop46
 90
       50
102
RTVSPost2010PropOp46
 70
     1
102
RTVSPost2010Prop47
 90
       50
102
RTVSPost2010PropOp47
 70
     1
102
RTVSPost2010Prop48
 90
       50
102
RTVSPost2010PropOp48
 70
     1
102
RTVSPost2010Prop49
280
     0
102
RTVSPost2010PropOp49
 70
     1
102
RTVSPost2010Prop50
 90
       50
102
RTVSPost2010PropOp50
 70
     1
102
RTVSPost2010Prop51ColorIndex
 90
      256
102
RTVSPost2010Prop51ColorRGB
 90
-16777216
102
RTVSPost2010PropOp51
 70
     0
102
RTVSPost2010Prop52
140
1.0
102
RTVSPost2010PropOp52
 70
     0
102
RTVSPost2010Prop53
 90
        2
102
RTVSPost2010PropOp53
 70
     1
102
RTVSPost2010Prop54
  1
strokes_ogs.tif
102
RTVSPost2010PropOp54
 70
     1
102
RTVSPost2010Prop55
280
     0
102
RTVSPost2010PropOp55
 70
     1
102
RTVSPost2010Prop56
140
1.0
102
RTVSPost2010PropOp56
 70
     1
102
RTVSPost2010Prop57
140
1.0
102
RTVSPost2010PropOp57
 70
     1
102
RTVSPropertyOp0
 70
     1
102
RTVSPropertyOp1
 70
     1
102
RTVSPropertyOp2
 70
     1
102
RTVSPropertyOp3
 70
     1
102
RTVSPropertyOp4
 70
     1
102
RTVSPropertyOp5
 70
     1
102
RTVSPropertyOp6
 70
     1
102
RTVSPropertyOp7
 70
     1
102
RTVSPropertyOp8
 70
     1
102
RTVSPropertyOp9
 70
     1
102
RTVSPropertyOp10
 70
     1
102
RTVSPropertyOp11
 70
     1
102
RTVSPropertyOp12
 70
     1
102
RTVSPropertyOp13
 70
     1
102
RTVSPropertyOp14
 70
     1
102
RTVSPropertyOp15
 70
     1
102
RTVSPropertyOp16
 70
     1
102
RTVSPropertyOp17
 70
     1
102
RTVSPropertyOp18
 70
     1
102
RTVSPropertyOp19
 70
     1
102
RTVSPropertyOp20
 70
     1
102
RTVSPropertyOp21
 70
     1
102
RTVSPropertyOp22
 70
     1
102
RTVSPropertyOp23
 70
     1
102
RTVSPropertyOp24
 70
     1
102
RTVSPropertyOp25
 70
     1
102
RTVSPropertyOp26
 70
     1
102
RTVSPropertyOp27
 70
     1
102
RTVSPropertyOp28
 70
     1
102
RTVSPropertyOp29
 70
     1
102
RTVSPropertyOp30
 70
     1
102
RTVSPropertyOp31
 70
     1
102
RTVSPropertyOp32
 70
     1
102
RTVSPropertyOp33
 70
     1
102
RTVSPropertyOp34
 70
     1
102
RTVSPropertyOp35
 70
     1
102
RTVSPropertyOp36
 70
     1
102
RTVSPropertyOp37
 70
     1
102
RTVSPropertyOp38
 70
     1
102
RTVSPropertyOp39
 70
     1
102
RTVSPropertyOp40
 70
     1
102
RTVSPropertyOp41
 70
     1
102
RTVSPropertyOp42
 70
     1
102
RTVSPropertyOp43
 70
     1
102
RTVSPropertyOp44
 70
     1
102
RTVSPropertyOp45
 70
     1
102
RTVSPropertyOp46
 70
     1
102
RTVSPropertyOp47
 70
     1
102
RTVSPropertyOp48
 70
     1
102
RTVSPropertyOp49
 70
     1
102
RTVSPropertyOp50
 70
     1
102
RTVSPropertyOp51
 70
     0
102
RTVSPropertyOp52
 70
     0
102
RTVSPropertyOp53
 70
     1
102
RTVSPropertyOp54
 70
     1
102
RTVSPropertyOp55
 70
     1
102
RTVSPropertyOp56
 70
     1
102
RTVSPropertyOp57
 70
     1
102
RTVSPropertyOp58
 70
     1
102
RTVSPropertyOp59
 70
     1
102
RTVSPropertyOp60
 70
     1
102
RTVSPropertyOp61
 70
     1
102
RTVSPropertyOp62
 70
     1
  0
XRECORD
  5
6477
102
{ACAD_REACTORS
330
6476
102
}
330
6476
100
AcDbXrecord
280
     1
102
RTVSPost2010Prop28
280
     0
102
RTVSPost2010PropOp28
 70
     1
102
RTVSPost2010Prop29
280
     1
102
RTVSPost2010PropOp29
 70
     1
102
RTVSPost2010Prop30
280
     1
102
RTVSPost2010PropOp30
 70
     1
102
RTVSPost2010Prop31
280
     0
102
RTVSPost2010PropOp31
 70
     1
102
RTVSPost2010Prop32
280
     0
102
RTVSPost2010PropOp32
 70
     1
102
RTVSPost2010Prop33
280
     0
102
RTVSPost2010PropOp33
 70
     1
102
RTVSPost2010Prop34
280
     0
102
RTVSPost2010PropOp34
 70
     1
102
RTVSPost2010Prop35
280
     0
102
RTVSPost2010PropOp35
 70
     1
102
RTVSPost2010Prop36
280
     0
102
RTVSPost2010PropOp36
 70
     1
102
RTVSPost2010Prop37
 90
       50
102
RTVSPost2010PropOp37
 70
     1
102
RTVSPost2010Prop38
140
0.0
102
RTVSPost2010PropOp38
 70
     1
102
RTVSPost2010Prop39
140
1.0
102
RTVSPost2010PropOp39
 70
     1
102
RTVSPost2010Prop40
 90
        0
102
RTVSPost2010PropOp40
 70
     1
102
RTVSPost2010Prop41ColorIndex
 90
       18
102
RTVSPost2010Prop41ColorRGB
 90
        0
102
RTVSPost2010PropOp41
 70
     1
102
RTVSPost2010Prop42
 90
       50
102
RTVSPost2010PropOp42
 70
     1
102
RTVSPost2010Prop43
 90
        3
102
RTVSPost2010PropOp43
 70
     1
102
RTVSPost2010Prop44ColorIndex
 90
        5
102
RTVSPost2010Prop44ColorRGB
 90
      255
102
RTVSPost2010PropOp44
 70
     1
102
RTVSPost2010Prop45
280
     0
102
RTVSPost2010PropOp45
 70
     1
102
RTVSPost2010Prop46
 90
       50
102
RTVSPost2010PropOp46
 70
     1
102
RTVSPost2010Prop47
 90
       50
102
RTVSPost2010PropOp47
 70
     1
102
RTVSPost2010Prop48
 90
       50
102
RTVSPost2010PropOp48
 70
     1
102
RTVSPost2010Prop49
280
     0
102
RTVSPost2010PropOp49
 70
     1
102
RTVSPost2010Prop50
 90
       50
102
RTVSPost2010PropOp50
 70
     1
102
RTVSPost2010Prop51ColorIndex
 90
      256
102
RTVSPost2010Prop51ColorRGB
 90
-16777216
102
RTVSPost2010PropOp51
 70
     0
102
RTVSPost2010Prop52
140
1.0
102
RTVSPost2010PropOp52
 70
     0
102
RTVSPost2010Prop53
 90
        2
102
RTVSPost2010PropOp53
 70
     1
102
RTVSPost2010Prop54
  1
strokes_ogs.tif
102
RTVSPost2010PropOp54
 70
     1
102
RTVSPost2010Prop55
280
     0
102
RTVSPost2010PropOp55
 70
     1
102
RTVSPost2010Prop56
140
1.0
102
RTVSPost2010PropOp56
 70
     1
102
RTVSPost2010Prop57
140
1.0
102
RTVSPost2010PropOp57
 70
     1
102
RTVSPropertyOp0
 70
     1
102
RTVSPropertyOp1
 70
     1
102
RTVSPropertyOp2
 70
     1
102
RTVSPropertyOp3
 70
     1
102
RTVSPropertyOp4
 70
     1
102
RTVSPropertyOp5
 70
     1
102
RTVSPropertyOp6
 70
     1
102
RTVSPropertyOp7
 70
     1
102
RTVSPropertyOp8
 70
     1
102
RTVSPropertyOp9
 70
     1
102
RTVSPropertyOp10
 70
     1
102
RTVSPropertyOp11
 70
     1
102
RTVSPropertyOp12
 70
     1
102
RTVSPropertyOp13
 70
     1
102
RTVSPropertyOp14
 70
     1
102
RTVSPropertyOp15
 70
     1
102
RTVSPropertyOp16
 70
     1
102
RTVSPropertyOp17
 70
     1
102
RTVSPropertyOp18
 70
     1
102
RTVSPropertyOp19
 70
     1
102
RTVSPropertyOp20
 70
     1
102
RTVSPropertyOp21
 70
     1
102
RTVSPropertyOp22
 70
     1
102
RTVSPropertyOp23
 70
     1
102
RTVSPropertyOp24
 70
     1
102
RTVSPropertyOp25
 70
     1
102
RTVSPropertyOp26
 70
     1
102
RTVSPropertyOp27
 70
     1
102
RTVSPropertyOp28
 70
     1
102
RTVSPropertyOp29
 70
     1
102
RTVSPropertyOp30
 70
     1
102
RTVSPropertyOp31
 70
     1
102
RTVSPropertyOp32
 70
     1
102
RTVSPropertyOp33
 70
     1
102
RTVSPropertyOp34
 70
     1
102
RTVSPropertyOp35
 70
     1
102
RTVSPropertyOp36
 70
     1
102
RTVSPropertyOp37
 70
     1
102
RTVSPropertyOp38
 70
     1
102
RTVSPropertyOp39
 70
     1
102
RTVSPropertyOp40
 70
     1
102
RTVSPropertyOp41
 70
     1
102
RTVSPropertyOp42
 70
     1
102
RTVSPropertyOp43
 70
     1
102
RTVSPropertyOp44
 70
     1
102
RTVSPropertyOp45
 70
     1
102
RTVSPropertyOp46
 70
     1
102
RTVSPropertyOp47
 70
     1
102
RTVSPropertyOp48
 70
     1
102
RTVSPropertyOp49
 70
     1
102
RTVSPropertyOp50
 70
     1
102
RTVSPropertyOp51
 70
     0
102
RTVSPropertyOp52
 70
     0
102
RTVSPropertyOp53
 70
     1
102
RTVSPropertyOp54
 70
     1
102
RTVSPropertyOp55
 70
     1
102
RTVSPropertyOp56
 70
     1
102
RTVSPropertyOp57
 70
     1
102
RTVSPropertyOp58
 70
     1
102
RTVSPropertyOp59
 70
     1
102
RTVSPropertyOp60
 70
     1
102
RTVSPropertyOp61
 70
     1
102
RTVSPropertyOp62
 70
     1
  0
XRECORD
  5
6479
102
{ACAD_REACTORS
330
6478
102
}
330
6478
100
AcDbXrecord
280
     1
102
RTVSPost2010Prop28
280
     0
102
RTVSPost2010PropOp28
 70
     1
102
RTVSPost2010Prop29
280
     1
102
RTVSPost2010PropOp29
 70
     1
102
RTVSPost2010Prop30
280
     1
102
RTVSPost2010PropOp30
 70
     1
102
RTVSPost2010Prop31
280
     0
102
RTVSPost2010PropOp31
 70
     1
102
RTVSPost2010Prop32
280
     0
102
RTVSPost2010PropOp32
 70
     1
102
RTVSPost2010Prop33
280
     0
102
RTVSPost2010PropOp33
 70
     1
102
RTVSPost2010Prop34
280
     0
102
RTVSPost2010PropOp34
 70
     1
102
RTVSPost2010Prop35
280
     0
102
RTVSPost2010PropOp35
 70
     1
102
RTVSPost2010Prop36
280
     0
102
RTVSPost2010PropOp36
 70
     1
102
RTVSPost2010Prop37
 90
       50
102
RTVSPost2010PropOp37
 70
     1
102
RTVSPost2010Prop38
140
0.0
102
RTVSPost2010PropOp38
 70
     1
102
RTVSPost2010Prop39
140
1.0
102
RTVSPost2010PropOp39
 70
     1
102
RTVSPost2010Prop40
 90
        0
102
RTVSPost2010PropOp40
 70
     1
102
RTVSPost2010Prop41ColorIndex
 90
       18
102
RTVSPost2010Prop41ColorRGB
 90
        0
102
RTVSPost2010PropOp41
 70
     1
102
RTVSPost2010Prop42
 90
       50
102
RTVSPost2010PropOp42
 70
     1
102
RTVSPost2010Prop43
 90
        3
102
RTVSPost2010PropOp43
 70
     1
102
RTVSPost2010Prop44ColorIndex
 90
        5
102
RTVSPost2010Prop44ColorRGB
 90
      255
102
RTVSPost2010PropOp44
 70
     1
102
RTVSPost2010Prop45
280
     0
102
RTVSPost2010PropOp45
 70
     1
102
RTVSPost2010Prop46
 90
       50
102
RTVSPost2010PropOp46
 70
     1
102
RTVSPost2010Prop47
 90
       50
102
RTVSPost2010PropOp47
 70
     1
102
RTVSPost2010Prop48
 90
       50
102
RTVSPost2010PropOp48
 70
     1
102
RTVSPost2010Prop49
280
     0
102
RTVSPost2010PropOp49
 70
     1
102
RTVSPost2010Prop50
 90
       50
102
RTVSPost2010PropOp50
 70
     1
102
RTVSPost2010Prop51ColorIndex
 90
      256
102
RTVSPost2010Prop51ColorRGB
 90
-16777216
102
RTVSPost2010PropOp51
 70
     0
102
RTVSPost2010Prop52
140
1.0
102
RTVSPost2010PropOp52
 70
     0
102
RTVSPost2010Prop53
 90
        2
102
RTVSPost2010PropOp53
 70
     1
102
RTVSPost2010Prop54
  1
strokes_ogs.tif
102
RTVSPost2010PropOp54
 70
     1
102
RTVSPost2010Prop55
280
     0
102
RTVSPost2010PropOp55
 70
     1
102
RTVSPost2010Prop56
140
1.0
102
RTVSPost2010PropOp56
 70
     1
102
RTVSPost2010Prop57
140
1.0
102
RTVSPost2010PropOp57
 70
     1
102
RTVSPropertyOp0
 70
     1
102
RTVSPropertyOp1
 70
     1
102
RTVSPropertyOp2
 70
     1
102
RTVSPropertyOp3
 70
     1
102
RTVSPropertyOp4
 70
     1
102
RTVSPropertyOp5
 70
     1
102
RTVSPropertyOp6
 70
     1
102
RTVSPropertyOp7
 70
     1
102
RTVSPropertyOp8
 70
     1
102
RTVSPropertyOp9
 70
     1
102
RTVSPropertyOp10
 70
     1
102
RTVSPropertyOp11
 70
     1
102
RTVSPropertyOp12
 70
     1
102
RTVSPropertyOp13
 70
     1
102
RTVSPropertyOp14
 70
     1
102
RTVSPropertyOp15
 70
     1
102
RTVSPropertyOp16
 70
     1
102
RTVSPropertyOp17
 70
     1
102
RTVSPropertyOp18
 70
     1
102
RTVSPropertyOp19
 70
     1
102
RTVSPropertyOp20
 70
     1
102
RTVSPropertyOp21
 70
     1
102
RTVSPropertyOp22
 70
     1
102
RTVSPropertyOp23
 70
     1
102
RTVSPropertyOp24
 70
     1
102
RTVSPropertyOp25
 70
     1
102
RTVSPropertyOp26
 70
     1
102
RTVSPropertyOp27
 70
     1
102
RTVSPropertyOp28
 70
     1
102
RTVSPropertyOp29
 70
     1
102
RTVSPropertyOp30
 70
     1
102
RTVSPropertyOp31
 70
     1
102
RTVSPropertyOp32
 70
     1
102
RTVSPropertyOp33
 70
     1
102
RTVSPropertyOp34
 70
     1
102
RTVSPropertyOp35
 70
     1
102
RTVSPropertyOp36
 70
     1
102
RTVSPropertyOp37
 70
     1
102
RTVSPropertyOp38
 70
     1
102
RTVSPropertyOp39
 70
     1
102
RTVSPropertyOp40
 70
     1
102
RTVSPropertyOp41
 70
     1
102
RTVSPropertyOp42
 70
     1
102
RTVSPropertyOp43
 70
     1
102
RTVSPropertyOp44
 70
     1
102
RTVSPropertyOp45
 70
     1
102
RTVSPropertyOp46
 70
     1
102
RTVSPropertyOp47
 70
     1
102
RTVSPropertyOp48
 70
     1
102
RTVSPropertyOp49
 70
     1
102
RTVSPropertyOp50
 70
     1
102
RTVSPropertyOp51
 70
     0
102
RTVSPropertyOp52
 70
     0
102
RTVSPropertyOp53
 70
     1
102
RTVSPropertyOp54
 70
     1
102
RTVSPropertyOp55
 70
     1
102
RTVSPropertyOp56
 70
     1
102
RTVSPropertyOp57
 70
     1
102
RTVSPropertyOp58
 70
     1
102
RTVSPropertyOp59
 70
     1
102
RTVSPropertyOp60
 70
     1
102
RTVSPropertyOp61
 70
     1
102
RTVSPropertyOp62
 70
     1
  0
XRECORD
  5
647B
102
{ACAD_REACTORS
330
647A
102
}
330
647A
100
AcDbXrecord
280
     1
102
RTVSPost2010Prop28
280
     0
102
RTVSPost2010PropOp28
 70
     1
102
RTVSPost2010Prop29
280
     1
102
RTVSPost2010PropOp29
 70
     1
102
RTVSPost2010Prop30
280
     1
102
RTVSPost2010PropOp30
 70
     1
102
RTVSPost2010Prop31
280
     0
102
RTVSPost2010PropOp31
 70
     1
102
RTVSPost2010Prop32
280
     0
102
RTVSPost2010PropOp32
 70
     1
102
RTVSPost2010Prop33
280
     0
102
RTVSPost2010PropOp33
 70
     1
102
RTVSPost2010Prop34
280
     0
102
RTVSPost2010PropOp34
 70
     1
102
RTVSPost2010Prop35
280
     0
102
RTVSPost2010PropOp35
 70
     1
102
RTVSPost2010Prop36
280
     0
102
RTVSPost2010PropOp36
 70
     1
102
RTVSPost2010Prop37
 90
       50
102
RTVSPost2010PropOp37
 70
     1
102
RTVSPost2010Prop38
140
0.0
102
RTVSPost2010PropOp38
 70
     1
102
RTVSPost2010Prop39
140
1.0
102
RTVSPost2010PropOp39
 70
     1
102
RTVSPost2010Prop40
 90
        0
102
RTVSPost2010PropOp40
 70
     1
102
RTVSPost2010Prop41ColorIndex
 90
       18
102
RTVSPost2010Prop41ColorRGB
 90
        0
102
RTVSPost2010PropOp41
 70
     1
102
RTVSPost2010Prop42
 90
       50
102
RTVSPost2010PropOp42
 70
     1
102
RTVSPost2010Prop43
 90
        3
102
RTVSPost2010PropOp43
 70
     1
102
RTVSPost2010Prop44ColorIndex
 90
        5
102
RTVSPost2010Prop44ColorRGB
 90
      255
102
RTVSPost2010PropOp44
 70
     1
102
RTVSPost2010Prop45
280
     0
102
RTVSPost2010PropOp45
 70
     1
102
RTVSPost2010Prop46
 90
       50
102
RTVSPost2010PropOp46
 70
     1
102
RTVSPost2010Prop47
 90
       50
102
RTVSPost2010PropOp47
 70
     1
102
RTVSPost2010Prop48
 90
       50
102
RTVSPost2010PropOp48
 70
     1
102
RTVSPost2010Prop49
280
     0
102
RTVSPost2010PropOp49
 70
     1
102
RTVSPost2010Prop50
 90
       50
102
RTVSPost2010PropOp50
 70
     1
102
RTVSPost2010Prop51ColorIndex
 90
      256
102
RTVSPost2010Prop51ColorRGB
 90
-16777216
102
RTVSPost2010PropOp51
 70
     0
102
RTVSPost2010Prop52
140
1.0
102
RTVSPost2010PropOp52
 70
     0
102
RTVSPost2010Prop53
 90
        2
102
RTVSPost2010PropOp53
 70
     1
102
RTVSPost2010Prop54
  1
strokes_ogs.tif
102
RTVSPost2010PropOp54
 70
     1
102
RTVSPost2010Prop55
280
     0
102
RTVSPost2010PropOp55
 70
     1
102
RTVSPost2010Prop56
140
1.0
102
RTVSPost2010PropOp56
 70
     1
102
RTVSPost2010Prop57
140
1.0
102
RTVSPost2010PropOp57
 70
     1
102
RTVSPropertyOp0
 70
     1
102
RTVSPropertyOp1
 70
     1
102
RTVSPropertyOp2
 70
     1
102
RTVSPropertyOp3
 70
     1
102
RTVSPropertyOp4
 70
     1
102
RTVSPropertyOp5
 70
     1
102
RTVSPropertyOp6
 70
     1
102
RTVSPropertyOp7
 70
     1
102
RTVSPropertyOp8
 70
     1
102
RTVSPropertyOp9
 70
     1
102
RTVSPropertyOp10
 70
     1
102
RTVSPropertyOp11
 70
     1
102
RTVSPropertyOp12
 70
     1
102
RTVSPropertyOp13
 70
     1
102
RTVSPropertyOp14
 70
     1
102
RTVSPropertyOp15
 70
     1
102
RTVSPropertyOp16
 70
     1
102
RTVSPropertyOp17
 70
     1
102
RTVSPropertyOp18
 70
     1
102
RTVSPropertyOp19
 70
     1
102
RTVSPropertyOp20
 70
     1
102
RTVSPropertyOp21
 70
     1
102
RTVSPropertyOp22
 70
     1
102
RTVSPropertyOp23
 70
     1
102
RTVSPropertyOp24
 70
     1
102
RTVSPropertyOp25
 70
     1
102
RTVSPropertyOp26
 70
     1
102
RTVSPropertyOp27
 70
     1
102
RTVSPropertyOp28
 70
     1
102
RTVSPropertyOp29
 70
     1
102
RTVSPropertyOp30
 70
     1
102
RTVSPropertyOp31
 70
     1
102
RTVSPropertyOp32
 70
     1
102
RTVSPropertyOp33
 70
     1
102
RTVSPropertyOp34
 70
     1
102
RTVSPropertyOp35
 70
     1
102
RTVSPropertyOp36
 70
     1
102
RTVSPropertyOp37
 70
     1
102
RTVSPropertyOp38
 70
     1
102
RTVSPropertyOp39
 70
     1
102
RTVSPropertyOp40
 70
     1
102
RTVSPropertyOp41
 70
     1
102
RTVSPropertyOp42
 70
     1
102
RTVSPropertyOp43
 70
     1
102
RTVSPropertyOp44
 70
     1
102
RTVSPropertyOp45
 70
     1
102
RTVSPropertyOp46
 70
     1
102
RTVSPropertyOp47
 70
     1
102
RTVSPropertyOp48
 70
     1
102
RTVSPropertyOp49
 70
     1
102
RTVSPropertyOp50
 70
     1
102
RTVSPropertyOp51
 70
     0
102
RTVSPropertyOp52
 70
     0
102
RTVSPropertyOp53
 70
     1
102
RTVSPropertyOp54
 70
     1
102
RTVSPropertyOp55
 70
     1
102
RTVSPropertyOp56
 70
     1
102
RTVSPropertyOp57
 70
     1
102
RTVSPropertyOp58
 70
     1
102
RTVSPropertyOp59
 70
     1
102
RTVSPropertyOp60
 70
     1
102
RTVSPropertyOp61
 70
     1
102
RTVSPropertyOp62
 70
     1
  0
XRECORD
  5
6483
102
{ACAD_REACTORS
330
6482
102
}
330
6482
100
AcDbXrecord
280
     1
102
RTVSPost2010Prop28
280
     0
102
RTVSPost2010PropOp28
 70
     1
102
RTVSPost2010Prop29
280
     1
102
RTVSPost2010PropOp29
 70
     1
102
RTVSPost2010Prop30
280
     1
102
RTVSPost2010PropOp30
 70
     1
102
RTVSPost2010Prop31
280
     0
102
RTVSPost2010PropOp31
 70
     1
102
RTVSPost2010Prop32
280
     0
102
RTVSPost2010PropOp32
 70
     1
102
RTVSPost2010Prop33
280
     0
102
RTVSPost2010PropOp33
 70
     1
102
RTVSPost2010Prop34
280
     0
102
RTVSPost2010PropOp34
 70
     1
102
RTVSPost2010Prop35
280
     0
102
RTVSPost2010PropOp35
 70
     1
102
RTVSPost2010Prop36
280
     0
102
RTVSPost2010PropOp36
 70
     1
102
RTVSPost2010Prop37
 90
       50
102
RTVSPost2010PropOp37
 70
     1
102
RTVSPost2010Prop38
140
0.0
102
RTVSPost2010PropOp38
 70
     1
102
RTVSPost2010Prop39
140
1.0
102
RTVSPost2010PropOp39
 70
     1
102
RTVSPost2010Prop40
 90
        0
102
RTVSPost2010PropOp40
 70
     1
102
RTVSPost2010Prop41ColorIndex
 90
       18
102
RTVSPost2010Prop41ColorRGB
 90
        0
102
RTVSPost2010PropOp41
 70
     1
102
RTVSPost2010Prop42
 90
       50
102
RTVSPost2010PropOp42
 70
     1
102
RTVSPost2010Prop43
 90
        3
102
RTVSPost2010PropOp43
 70
     1
102
RTVSPost2010Prop44ColorIndex
 90
        5
102
RTVSPost2010Prop44ColorRGB
 90
      255
102
RTVSPost2010PropOp44
 70
     1
102
RTVSPost2010Prop45
280
     0
102
RTVSPost2010PropOp45
 70
     1
102
RTVSPost2010Prop46
 90
       50
102
RTVSPost2010PropOp46
 70
     1
102
RTVSPost2010Prop47
 90
       50
102
RTVSPost2010PropOp47
 70
     1
102
RTVSPost2010Prop48
 90
       50
102
RTVSPost2010PropOp48
 70
     1
102
RTVSPost2010Prop49
280
     0
102
RTVSPost2010PropOp49
 70
     1
102
RTVSPost2010Prop50
 90
       50
102
RTVSPost2010PropOp50
 70
     1
102
RTVSPost2010Prop51ColorIndex
 90
      256
102
RTVSPost2010Prop51ColorRGB
 90
-16777216
102
RTVSPost2010PropOp51
 70
     0
102
RTVSPost2010Prop52
140
1.0
102
RTVSPost2010PropOp52
 70
     0
102
RTVSPost2010Prop53
 90
        2
102
RTVSPost2010PropOp53
 70
     1
102
RTVSPost2010Prop54
  1
strokes_ogs.tif
102
RTVSPost2010PropOp54
 70
     1
102
RTVSPost2010Prop55
280
     0
102
RTVSPost2010PropOp55
 70
     1
102
RTVSPost2010Prop56
140
1.0
102
RTVSPost2010PropOp56
 70
     1
102
RTVSPost2010Prop57
140
1.0
102
RTVSPost2010PropOp57
 70
     1
102
RTVSPropertyOp0
 70
     1
102
RTVSPropertyOp1
 70
     1
102
RTVSPropertyOp2
 70
     1
102
RTVSPropertyOp3
 70
     1
102
RTVSPropertyOp4
 70
     1
102
RTVSPropertyOp5
 70
     1
102
RTVSPropertyOp6
 70
     1
102
RTVSPropertyOp7
 70
     1
102
RTVSPropertyOp8
 70
     1
102
RTVSPropertyOp9
 70
     1
102
RTVSPropertyOp10
 70
     1
102
RTVSPropertyOp11
 70
     1
102
RTVSPropertyOp12
 70
     1
102
RTVSPropertyOp13
 70
     1
102
RTVSPropertyOp14
 70
     1
102
RTVSPropertyOp15
 70
     1
102
RTVSPropertyOp16
 70
     1
102
RTVSPropertyOp17
 70
     1
102
RTVSPropertyOp18
 70
     1
102
RTVSPropertyOp19
 70
     1
102
RTVSPropertyOp20
 70
     1
102
RTVSPropertyOp21
 70
     1
102
RTVSPropertyOp22
 70
     1
102
RTVSPropertyOp23
 70
     1
102
RTVSPropertyOp24
 70
     1
102
RTVSPropertyOp25
 70
     1
102
RTVSPropertyOp26
 70
     1
102
RTVSPropertyOp27
 70
     1
102
RTVSPropertyOp28
 70
     1
102
RTVSPropertyOp29
 70
     1
102
RTVSPropertyOp30
 70
     1
102
RTVSPropertyOp31
 70
     1
102
RTVSPropertyOp32
 70
     1
102
RTVSPropertyOp33
 70
     1
102
RTVSPropertyOp34
 70
     1
102
RTVSPropertyOp35
 70
     1
102
RTVSPropertyOp36
 70
     1
102
RTVSPropertyOp37
 70
     1
102
RTVSPropertyOp38
 70
     1
102
RTVSPropertyOp39
 70
     1
102
RTVSPropertyOp40
 70
     1
102
RTVSPropertyOp41
 70
     1
102
RTVSPropertyOp42
 70
     1
102
RTVSPropertyOp43
 70
     1
102
RTVSPropertyOp44
 70
     1
102
RTVSPropertyOp45
 70
     1
102
RTVSPropertyOp46
 70
     1
102
RTVSPropertyOp47
 70
     1
102
RTVSPropertyOp48
 70
     1
102
RTVSPropertyOp49
 70
     1
102
RTVSPropertyOp50
 70
     1
102
RTVSPropertyOp51
 70
     0
102
RTVSPropertyOp52
 70
     0
102
RTVSPropertyOp53
 70
     1
102
RTVSPropertyOp54
 70
     1
102
RTVSPropertyOp55
 70
     1
102
RTVSPropertyOp56
 70
     1
102
RTVSPropertyOp57
 70
     1
102
RTVSPropertyOp58
 70
     1
102
RTVSPropertyOp59
 70
     1
102
RTVSPropertyOp60
 70
     1
102
RTVSPropertyOp61
 70
     1
102
RTVSPropertyOp62
 70
     1
  0
XRECORD
  5
649F
102
{ACAD_REACTORS
330
649E
102
}
330
649E
100
AcDbXrecord
280
     1
102
RTVSPost2010Prop28
280
     0
102
RTVSPost2010PropOp28
 70
     0
102
RTVSPost2010Prop29
280
     1
102
RTVSPost2010PropOp29
 70
     0
102
RTVSPost2010Prop30
280
     1
102
RTVSPost2010PropOp30
 70
     0
102
RTVSPost2010Prop31
280
     0
102
RTVSPost2010PropOp31
 70
     0
102
RTVSPost2010Prop32
280
     0
102
RTVSPost2010PropOp32
 70
     0
102
RTVSPost2010Prop33
280
     0
102
RTVSPost2010PropOp33
 70
     0
102
RTVSPost2010Prop34
280
     0
102
RTVSPost2010PropOp34
 70
     0
102
RTVSPost2010Prop35
280
     0
102
RTVSPost2010PropOp35
 70
     0
102
RTVSPost2010Prop36
280
     0
102
RTVSPost2010PropOp36
 70
     0
102
RTVSPost2010Prop37
 90
       50
102
RTVSPost2010PropOp37
 70
     0
102
RTVSPost2010Prop38
140
0.0
102
RTVSPost2010PropOp38
 70
     0
102
RTVSPost2010Prop39
140
1.0
102
RTVSPost2010PropOp39
 70
     0
102
RTVSPost2010Prop40
 90
        0
102
RTVSPost2010PropOp40
 70
     0
102
RTVSPost2010Prop41ColorIndex
 90
       18
102
RTVSPost2010Prop41ColorRGB
 90
        0
102
RTVSPost2010PropOp41
 70
     0
102
RTVSPost2010Prop42
 90
       50
102
RTVSPost2010PropOp42
 70
     0
102
RTVSPost2010Prop43
 90
        3
102
RTVSPost2010PropOp43
 70
     0
102
RTVSPost2010Prop44ColorIndex
 90
        5
102
RTVSPost2010Prop44ColorRGB
 90
      255
102
RTVSPost2010PropOp44
 70
     0
102
RTVSPost2010Prop45
280
     0
102
RTVSPost2010PropOp45
 70
     0
102
RTVSPost2010Prop46
 90
       50
102
RTVSPost2010PropOp46
 70
     0
102
RTVSPost2010Prop47
 90
       50
102
RTVSPost2010PropOp47
 70
     0
102
RTVSPost2010Prop48
 90
       50
102
RTVSPost2010PropOp48
 70
     0
102
RTVSPost2010Prop49
280
     0
102
RTVSPost2010PropOp49
 70
     0
102
RTVSPost2010Prop50
 90
       50
102
RTVSPost2010PropOp50
 70
     0
102
RTVSPost2010Prop51ColorIndex
 90
      256
102
RTVSPost2010Prop51ColorRGB
 90
-16777216
102
RTVSPost2010PropOp51
 70
     0
102
RTVSPost2010Prop52
140
1.0
102
RTVSPost2010PropOp52
 70
     0
102
RTVSPost2010Prop53
 90
        2
102
RTVSPost2010PropOp53
 70
     0
102
RTVSPost2010Prop54
  1
strokes_ogs.tif
102
RTVSPost2010PropOp54
 70
     0
102
RTVSPost2010Prop55
280
     0
102
RTVSPost2010PropOp55
 70
     0
102
RTVSPost2010Prop56
140
1.0
102
RTVSPost2010PropOp56
 70
     0
102
RTVSPost2010Prop57
140
1.0
102
RTVSPost2010PropOp57
 70
     0
102
RTVSPropertyOp0
 70
     0
102
RTVSPropertyOp1
 70
     0
102
RTVSPropertyOp2
 70
     0
102
RTVSPropertyOp3
 70
     0
102
RTVSPropertyOp4
 70
     0
102
RTVSPropertyOp5
 70
     0
102
RTVSPropertyOp6
 70
     0
102
RTVSPropertyOp7
 70
     0
102
RTVSPropertyOp8
 70
     0
102
RTVSPropertyOp9
 70
     0
102
RTVSPropertyOp10
 70
     0
102
RTVSPropertyOp11
 70
     0
102
RTVSPropertyOp12
 70
     0
102
RTVSPropertyOp13
 70
     0
102
RTVSPropertyOp14
 70
     2
102
RTVSPropertyOp15
 70
     0
102
RTVSPropertyOp16
 70
     0
102
RTVSPropertyOp17
 70
     0
102
RTVSPropertyOp18
 70
     0
102
RTVSPropertyOp19
 70
     0
102
RTVSPropertyOp20
 70
     0
102
RTVSPropertyOp21
 70
     0
102
RTVSPropertyOp22
 70
     0
102
RTVSPropertyOp23
 70
     0
102
RTVSPropertyOp24
 70
     0
102
RTVSPropertyOp25
 70
     0
102
RTVSPropertyOp26
 70
     0
102
RTVSPropertyOp27
 70
     0
102
RTVSPropertyOp28
 70
     0
102
RTVSPropertyOp29
 70
     0
102
RTVSPropertyOp30
 70
     0
102
RTVSPropertyOp31
 70
     0
102
RTVSPropertyOp32
 70
     0
102
RTVSPropertyOp33
 70
     0
102
RTVSPropertyOp34
 70
     0
102
RTVSPropertyOp35
 70
     0
102
RTVSPropertyOp36
 70
     0
102
RTVSPropertyOp37
 70
     0
102
RTVSPropertyOp38
 70
     0
102
RTVSPropertyOp39
 70
     0
102
RTVSPropertyOp40
 70
     0
102
RTVSPropertyOp41
 70
     0
102
RTVSPropertyOp42
 70
     0
102
RTVSPropertyOp43
 70
     0
102
RTVSPropertyOp44
 70
     0
102
RTVSPropertyOp45
 70
     0
102
RTVSPropertyOp46
 70
     0
102
RTVSPropertyOp47
 70
     0
102
RTVSPropertyOp48
 70
     0
102
RTVSPropertyOp49
 70
     0
102
RTVSPropertyOp50
 70
     0
102
RTVSPropertyOp51
 70
     0
102
RTVSPropertyOp52
 70
     0
102
RTVSPropertyOp53
 70
     0
102
RTVSPropertyOp54
 70
     0
102
RTVSPropertyOp55
 70
     0
102
RTVSPropertyOp56
 70
     0
102
RTVSPropertyOp57
 70
     0
102
RTVSPropertyOp58
 70
     1
102
RTVSPropertyOp59
 70
     1
102
RTVSPropertyOp60
 70
     1
102
RTVSPropertyOp61
 70
     1
102
RTVSPropertyOp62
 70
     1
  0
XRECORD
  5
648F
102
{ACAD_REACTORS
330
648E
102
}
330
648E
100
AcDbXrecord
280
     1
102
RTVSPost2010Prop28
280
     0
102
RTVSPost2010PropOp28
 70
     1
102
RTVSPost2010Prop29
280
     1
102
RTVSPost2010PropOp29
 70
     1
102
RTVSPost2010Prop30
280
     1
102
RTVSPost2010PropOp30
 70
     1
102
RTVSPost2010Prop31
280
     0
102
RTVSPost2010PropOp31
 70
     1
102
RTVSPost2010Prop32
280
     0
102
RTVSPost2010PropOp32
 70
     1
102
RTVSPost2010Prop33
280
     0
102
RTVSPost2010PropOp33
 70
     1
102
RTVSPost2010Prop34
280
     0
102
RTVSPost2010PropOp34
 70
     1
102
RTVSPost2010Prop35
280
     0
102
RTVSPost2010PropOp35
 70
     1
102
RTVSPost2010Prop36
280
     0
102
RTVSPost2010PropOp36
 70
     1
102
RTVSPost2010Prop37
 90
       50
102
RTVSPost2010PropOp37
 70
     1
102
RTVSPost2010Prop38
140
0.0
102
RTVSPost2010PropOp38
 70
     1
102
RTVSPost2010Prop39
140
1.0
102
RTVSPost2010PropOp39
 70
     1
102
RTVSPost2010Prop40
 90
        0
102
RTVSPost2010PropOp40
 70
     1
102
RTVSPost2010Prop41ColorIndex
 90
       18
102
RTVSPost2010Prop41ColorRGB
 90
        0
102
RTVSPost2010PropOp41
 70
     1
102
RTVSPost2010Prop42
 90
       50
102
RTVSPost2010PropOp42
 70
     1
102
RTVSPost2010Prop43
 90
        3
102
RTVSPost2010PropOp43
 70
     1
102
RTVSPost2010Prop44ColorIndex
 90
        5
102
RTVSPost2010Prop44ColorRGB
 90
      255
102
RTVSPost2010PropOp44
 70
     1
102
RTVSPost2010Prop45
280
     0
102
RTVSPost2010PropOp45
 70
     1
102
RTVSPost2010Prop46
 90
       50
102
RTVSPost2010PropOp46
 70
     1
102
RTVSPost2010Prop47
 90
       50
102
RTVSPost2010PropOp47
 70
     1
102
RTVSPost2010Prop48
 90
       50
102
RTVSPost2010PropOp48
 70
     1
102
RTVSPost2010Prop49
280
     0
102
RTVSPost2010PropOp49
 70
     1
102
RTVSPost2010Prop50
 90
       50
102
RTVSPost2010PropOp50
 70
     1
102
RTVSPost2010Prop51ColorIndex
 90
      256
102
RTVSPost2010Prop51ColorRGB
 90
-16777216
102
RTVSPost2010PropOp51
 70
     0
102
RTVSPost2010Prop52
140
1.0
102
RTVSPost2010PropOp52
 70
     0
102
RTVSPost2010Prop53
 90
        2
102
RTVSPost2010PropOp53
 70
     1
102
RTVSPost2010Prop54
  1
strokes_ogs.tif
102
RTVSPost2010PropOp54
 70
     1
102
RTVSPost2010Prop55
280
     0
102
RTVSPost2010PropOp55
 70
     1
102
RTVSPost2010Prop56
140
1.0
102
RTVSPost2010PropOp56
 70
     1
102
RTVSPost2010Prop57
140
1.0
102
RTVSPost2010PropOp57
 70
     1
102
RTVSPropertyOp0
 70
     1
102
RTVSPropertyOp1
 70
     1
102
RTVSPropertyOp2
 70
     1
102
RTVSPropertyOp3
 70
     1
102
RTVSPropertyOp4
 70
     1
102
RTVSPropertyOp5
 70
     1
102
RTVSPropertyOp6
 70
     1
102
RTVSPropertyOp7
 70
     1
102
RTVSPropertyOp8
 70
     1
102
RTVSPropertyOp9
 70
     1
102
RTVSPropertyOp10
 70
     1
102
RTVSPropertyOp11
 70
     1
102
RTVSPropertyOp12
 70
     1
102
RTVSPropertyOp13
 70
     1
102
RTVSPropertyOp14
 70
     1
102
RTVSPropertyOp15
 70
     1
102
RTVSPropertyOp16
 70
     1
102
RTVSPropertyOp17
 70
     1
102
RTVSPropertyOp18
 70
     1
102
RTVSPropertyOp19
 70
     1
102
RTVSPropertyOp20
 70
     1
102
RTVSPropertyOp21
 70
     1
102
RTVSPropertyOp22
 70
     1
102
RTVSPropertyOp23
 70
     1
102
RTVSPropertyOp24
 70
     1
102
RTVSPropertyOp25
 70
     1
102
RTVSPropertyOp26
 70
     1
102
RTVSPropertyOp27
 70
     1
102
RTVSPropertyOp28
 70
     1
102
RTVSPropertyOp29
 70
     1
102
RTVSPropertyOp30
 70
     1
102
RTVSPropertyOp31
 70
     1
102
RTVSPropertyOp32
 70
     1
102
RTVSPropertyOp33
 70
     1
102
RTVSPropertyOp34
 70
     1
102
RTVSPropertyOp35
 70
     1
102
RTVSPropertyOp36
 70
     1
102
RTVSPropertyOp37
 70
     1
102
RTVSPropertyOp38
 70
     1
102
RTVSPropertyOp39
 70
     1
102
RTVSPropertyOp40
 70
     1
102
RTVSPropertyOp41
 70
     1
102
RTVSPropertyOp42
 70
     1
102
RTVSPropertyOp43
 70
     1
102
RTVSPropertyOp44
 70
     1
102
RTVSPropertyOp45
 70
     1
102
RTVSPropertyOp46
 70
     1
102
RTVSPropertyOp47
 70
     1
102
RTVSPropertyOp48
 70
     1
102
RTVSPropertyOp49
 70
     1
102
RTVSPropertyOp50
 70
     1
102
RTVSPropertyOp51
 70
     0
102
RTVSPropertyOp52
 70
     0
102
RTVSPropertyOp53
 70
     1
102
RTVSPropertyOp54
 70
     1
102
RTVSPropertyOp55
 70
     1
102
RTVSPropertyOp56
 70
     1
102
RTVSPropertyOp57
 70
     1
102
RTVSPropertyOp58
 70
     1
102
RTVSPropertyOp59
 70
     1
102
RTVSPropertyOp60
 70
     1
102
RTVSPropertyOp61
 70
     1
102
RTVSPropertyOp62
 70
     1
  0
XRECORD
  5
64A1
102
{ACAD_REACTORS
330
64A0
102
}
330
64A0
100
AcDbXrecord
280
     1
102
RTVSPost2010Prop28
280
     0
102
RTVSPost2010PropOp28
 70
     0
102
RTVSPost2010Prop29
280
     1
102
RTVSPost2010PropOp29
 70
     0
102
RTVSPost2010Prop30
280
     1
102
RTVSPost2010PropOp30
 70
     0
102
RTVSPost2010Prop31
280
     0
102
RTVSPost2010PropOp31
 70
     0
102
RTVSPost2010Prop32
280
     0
102
RTVSPost2010PropOp32
 70
     0
102
RTVSPost2010Prop33
280
     0
102
RTVSPost2010PropOp33
 70
     0
102
RTVSPost2010Prop34
280
     0
102
RTVSPost2010PropOp34
 70
     0
102
RTVSPost2010Prop35
280
     0
102
RTVSPost2010PropOp35
 70
     0
102
RTVSPost2010Prop36
280
     0
102
RTVSPost2010PropOp36
 70
     0
102
RTVSPost2010Prop37
 90
       50
102
RTVSPost2010PropOp37
 70
     0
102
RTVSPost2010Prop38
140
0.0
102
RTVSPost2010PropOp38
 70
     0
102
RTVSPost2010Prop39
140
1.0
102
RTVSPost2010PropOp39
 70
     0
102
RTVSPost2010Prop40
 90
        0
102
RTVSPost2010PropOp40
 70
     0
102
RTVSPost2010Prop41ColorIndex
 90
       18
102
RTVSPost2010Prop41ColorRGB
 90
        0
102
RTVSPost2010PropOp41
 70
     0
102
RTVSPost2010Prop42
 90
       50
102
RTVSPost2010PropOp42
 70
     0
102
RTVSPost2010Prop43
 90
        3
102
RTVSPost2010PropOp43
 70
     0
102
RTVSPost2010Prop44ColorIndex
 90
        5
102
RTVSPost2010Prop44ColorRGB
 90
      255
102
RTVSPost2010PropOp44
 70
     0
102
RTVSPost2010Prop45
280
     0
102
RTVSPost2010PropOp45
 70
     0
102
RTVSPost2010Prop46
 90
       50
102
RTVSPost2010PropOp46
 70
     0
102
RTVSPost2010Prop47
 90
       50
102
RTVSPost2010PropOp47
 70
     0
102
RTVSPost2010Prop48
 90
       50
102
RTVSPost2010PropOp48
 70
     0
102
RTVSPost2010Prop49
280
     0
102
RTVSPost2010PropOp49
 70
     0
102
RTVSPost2010Prop50
 90
       50
102
RTVSPost2010PropOp50
 70
     0
102
RTVSPost2010Prop51ColorIndex
 90
      256
102
RTVSPost2010Prop51ColorRGB
 90
-16777216
102
RTVSPost2010PropOp51
 70
     0
102
RTVSPost2010Prop52
140
1.0
102
RTVSPost2010PropOp52
 70
     0
102
RTVSPost2010Prop53
 90
        2
102
RTVSPost2010PropOp53
 70
     0
102
RTVSPost2010Prop54
  1
strokes_ogs.tif
102
RTVSPost2010PropOp54
 70
     0
102
RTVSPost2010Prop55
280
     0
102
RTVSPost2010PropOp55
 70
     0
102
RTVSPost2010Prop56
140
1.0
102
RTVSPost2010PropOp56
 70
     0
102
RTVSPost2010Prop57
140
1.0
102
RTVSPost2010PropOp57
 70
     0
102
RTVSPropertyOp0
 70
     0
102
RTVSPropertyOp1
 70
     0
102
RTVSPropertyOp2
 70
     0
102
RTVSPropertyOp3
 70
     0
102
RTVSPropertyOp4
 70
     0
102
RTVSPropertyOp5
 70
     0
102
RTVSPropertyOp6
 70
     0
102
RTVSPropertyOp7
 70
     0
102
RTVSPropertyOp8
 70
     0
102
RTVSPropertyOp9
 70
     0
102
RTVSPropertyOp10
 70
     0
102
RTVSPropertyOp11
 70
     0
102
RTVSPropertyOp12
 70
     0
102
RTVSPropertyOp13
 70
     0
102
RTVSPropertyOp14
 70
     2
102
RTVSPropertyOp15
 70
     0
102
RTVSPropertyOp16
 70
     0
102
RTVSPropertyOp17
 70
     0
102
RTVSPropertyOp18
 70
     0
102
RTVSPropertyOp19
 70
     0
102
RTVSPropertyOp20
 70
     0
102
RTVSPropertyOp21
 70
     0
102
RTVSPropertyOp22
 70
     0
102
RTVSPropertyOp23
 70
     0
102
RTVSPropertyOp24
 70
     0
102
RTVSPropertyOp25
 70
     0
102
RTVSPropertyOp26
 70
     0
102
RTVSPropertyOp27
 70
     0
102
RTVSPropertyOp28
 70
     0
102
RTVSPropertyOp29
 70
     0
102
RTVSPropertyOp30
 70
     0
102
RTVSPropertyOp31
 70
     0
102
RTVSPropertyOp32
 70
     0
102
RTVSPropertyOp33
 70
     0
102
RTVSPropertyOp34
 70
     0
102
RTVSPropertyOp35
 70
     0
102
RTVSPropertyOp36
 70
     0
102
RTVSPropertyOp37
 70
     0
102
RTVSPropertyOp38
 70
     0
102
RTVSPropertyOp39
 70
     0
102
RTVSPropertyOp40
 70
     0
102
RTVSPropertyOp41
 70
     0
102
RTVSPropertyOp42
 70
     0
102
RTVSPropertyOp43
 70
     0
102
RTVSPropertyOp44
 70
     0
102
RTVSPropertyOp45
 70
     0
102
RTVSPropertyOp46
 70
     0
102
RTVSPropertyOp47
 70
     0
102
RTVSPropertyOp48
 70
     0
102
RTVSPropertyOp49
 70
     0
102
RTVSPropertyOp50
 70
     0
102
RTVSPropertyOp51
 70
     0
102
RTVSPropertyOp52
 70
     0
102
RTVSPropertyOp53
 70
     0
102
RTVSPropertyOp54
 70
     0
102
RTVSPropertyOp55
 70
     0
102
RTVSPropertyOp56
 70
     0
102
RTVSPropertyOp57
 70
     0
102
RTVSPropertyOp58
 70
     1
102
RTVSPropertyOp59
 70
     1
102
RTVSPropertyOp60
 70
     1
102
RTVSPropertyOp61
 70
     1
102
RTVSPropertyOp62
 70
     1
  0
XRECORD
  5
6487
102
{ACAD_REACTORS
330
6486
102
}
330
6486
100
AcDbXrecord
280
     1
102
RTVSPost2010Prop28
280
     0
102
RTVSPost2010PropOp28
 70
     1
102
RTVSPost2010Prop29
280
     1
102
RTVSPost2010PropOp29
 70
     1
102
RTVSPost2010Prop30
280
     1
102
RTVSPost2010PropOp30
 70
     1
102
RTVSPost2010Prop31
280
     0
102
RTVSPost2010PropOp31
 70
     1
102
RTVSPost2010Prop32
280
     0
102
RTVSPost2010PropOp32
 70
     1
102
RTVSPost2010Prop33
280
     0
102
RTVSPost2010PropOp33
 70
     1
102
RTVSPost2010Prop34
280
     0
102
RTVSPost2010PropOp34
 70
     1
102
RTVSPost2010Prop35
280
     0
102
RTVSPost2010PropOp35
 70
     1
102
RTVSPost2010Prop36
280
     0
102
RTVSPost2010PropOp36
 70
     1
102
RTVSPost2010Prop37
 90
       50
102
RTVSPost2010PropOp37
 70
     1
102
RTVSPost2010Prop38
140
0.0
102
RTVSPost2010PropOp38
 70
     1
102
RTVSPost2010Prop39
140
1.0
102
RTVSPost2010PropOp39
 70
     1
102
RTVSPost2010Prop40
 90
        0
102
RTVSPost2010PropOp40
 70
     1
102
RTVSPost2010Prop41ColorIndex
 90
       18
102
RTVSPost2010Prop41ColorRGB
 90
        0
102
RTVSPost2010PropOp41
 70
     1
102
RTVSPost2010Prop42
 90
       50
102
RTVSPost2010PropOp42
 70
     1
102
RTVSPost2010Prop43
 90
        3
102
RTVSPost2010PropOp43
 70
     1
102
RTVSPost2010Prop44ColorIndex
 90
        5
102
RTVSPost2010Prop44ColorRGB
 90
      255
102
RTVSPost2010PropOp44
 70
     1
102
RTVSPost2010Prop45
280
     0
102
RTVSPost2010PropOp45
 70
     1
102
RTVSPost2010Prop46
 90
       50
102
RTVSPost2010PropOp46
 70
     1
102
RTVSPost2010Prop47
 90
       50
102
RTVSPost2010PropOp47
 70
     1
102
RTVSPost2010Prop48
 90
       50
102
RTVSPost2010PropOp48
 70
     1
102
RTVSPost2010Prop49
280
     0
102
RTVSPost2010PropOp49
 70
     1
102
RTVSPost2010Prop50
 90
       50
102
RTVSPost2010PropOp50
 70
     1
102
RTVSPost2010Prop51ColorIndex
 90
      256
102
RTVSPost2010Prop51ColorRGB
 90
-16777216
102
RTVSPost2010PropOp51
 70
     0
102
RTVSPost2010Prop52
140
1.0
102
RTVSPost2010PropOp52
 70
     0
102
RTVSPost2010Prop53
 90
        2
102
RTVSPost2010PropOp53
 70
     1
102
RTVSPost2010Prop54
  1
strokes_ogs.tif
102
RTVSPost2010PropOp54
 70
     1
102
RTVSPost2010Prop55
280
     0
102
RTVSPost2010PropOp55
 70
     1
102
RTVSPost2010Prop56
140
1.0
102
RTVSPost2010PropOp56
 70
     1
102
RTVSPost2010Prop57
140
1.0
102
RTVSPost2010PropOp57
 70
     1
102
RTVSPropertyOp0
 70
     1
102
RTVSPropertyOp1
 70
     1
102
RTVSPropertyOp2
 70
     1
102
RTVSPropertyOp3
 70
     1
102
RTVSPropertyOp4
 70
     1
102
RTVSPropertyOp5
 70
     1
102
RTVSPropertyOp6
 70
     1
102
RTVSPropertyOp7
 70
     1
102
RTVSPropertyOp8
 70
     1
102
RTVSPropertyOp9
 70
     1
102
RTVSPropertyOp10
 70
     1
102
RTVSPropertyOp11
 70
     1
102
RTVSPropertyOp12
 70
     1
102
RTVSPropertyOp13
 70
     1
102
RTVSPropertyOp14
 70
     1
102
RTVSPropertyOp15
 70
     1
102
RTVSPropertyOp16
 70
     1
102
RTVSPropertyOp17
 70
     1
102
RTVSPropertyOp18
 70
     1
102
RTVSPropertyOp19
 70
     1
102
RTVSPropertyOp20
 70
     1
102
RTVSPropertyOp21
 70
     1
102
RTVSPropertyOp22
 70
     1
102
RTVSPropertyOp23
 70
     1
102
RTVSPropertyOp24
 70
     1
102
RTVSPropertyOp25
 70
     1
102
RTVSPropertyOp26
 70
     1
102
RTVSPropertyOp27
 70
     1
102
RTVSPropertyOp28
 70
     1
102
RTVSPropertyOp29
 70
     1
102
RTVSPropertyOp30
 70
     1
102
RTVSPropertyOp31
 70
     1
102
RTVSPropertyOp32
 70
     1
102
RTVSPropertyOp33
 70
     1
102
RTVSPropertyOp34
 70
     1
102
RTVSPropertyOp35
 70
     1
102
RTVSPropertyOp36
 70
     1
102
RTVSPropertyOp37
 70
     1
102
RTVSPropertyOp38
 70
     1
102
RTVSPropertyOp39
 70
     1
102
RTVSPropertyOp40
 70
     1
102
RTVSPropertyOp41
 70
     1
102
RTVSPropertyOp42
 70
     1
102
RTVSPropertyOp43
 70
     1
102
RTVSPropertyOp44
 70
     1
102
RTVSPropertyOp45
 70
     1
102
RTVSPropertyOp46
 70
     1
102
RTVSPropertyOp47
 70
     1
102
RTVSPropertyOp48
 70
     1
102
RTVSPropertyOp49
 70
     1
102
RTVSPropertyOp50
 70
     1
102
RTVSPropertyOp51
 70
     0
102
RTVSPropertyOp52
 70
     0
102
RTVSPropertyOp53
 70
     1
102
RTVSPropertyOp54
 70
     1
102
RTVSPropertyOp55
 70
     1
102
RTVSPropertyOp56
 70
     1
102
RTVSPropertyOp57
 70
     1
102
RTVSPropertyOp58
 70
     1
102
RTVSPropertyOp59
 70
     1
102
RTVSPropertyOp60
 70
     1
102
RTVSPropertyOp61
 70
     1
102
RTVSPropertyOp62
 70
     1
  0
XRECORD
  5
649D
102
{ACAD_REACTORS
330
649C
102
}
330
649C
100
AcDbXrecord
280
     1
102
RTVSPost2010Prop28
280
     0
102
RTVSPost2010PropOp28
 70
     1
102
RTVSPost2010Prop29
280
     1
102
RTVSPost2010PropOp29
 70
     1
102
RTVSPost2010Prop30
280
     1
102
RTVSPost2010PropOp30
 70
     1
102
RTVSPost2010Prop31
280
     0
102
RTVSPost2010PropOp31
 70
     1
102
RTVSPost2010Prop32
280
     0
102
RTVSPost2010PropOp32
 70
     1
102
RTVSPost2010Prop33
280
     0
102
RTVSPost2010PropOp33
 70
     1
102
RTVSPost2010Prop34
280
     0
102
RTVSPost2010PropOp34
 70
     1
102
RTVSPost2010Prop35
280
     0
102
RTVSPost2010PropOp35
 70
     1
102
RTVSPost2010Prop36
280
     0
102
RTVSPost2010PropOp36
 70
     1
102
RTVSPost2010Prop37
 90
       50
102
RTVSPost2010PropOp37
 70
     1
102
RTVSPost2010Prop38
140
0.0
102
RTVSPost2010PropOp38
 70
     1
102
RTVSPost2010Prop39
140
1.0
102
RTVSPost2010PropOp39
 70
     1
102
RTVSPost2010Prop40
 90
        0
102
RTVSPost2010PropOp40
 70
     1
102
RTVSPost2010Prop41ColorIndex
 90
       18
102
RTVSPost2010Prop41ColorRGB
 90
        0
102
RTVSPost2010PropOp41
 70
     1
102
RTVSPost2010Prop42
 90
       50
102
RTVSPost2010PropOp42
 70
     1
102
RTVSPost2010Prop43
 90
        3
102
RTVSPost2010PropOp43
 70
     1
102
RTVSPost2010Prop44ColorIndex
 90
        5
102
RTVSPost2010Prop44ColorRGB
 90
      255
102
RTVSPost2010PropOp44
 70
     1
102
RTVSPost2010Prop45
280
     0
102
RTVSPost2010PropOp45
 70
     1
102
RTVSPost2010Prop46
 90
       50
102
RTVSPost2010PropOp46
 70
     1
102
RTVSPost2010Prop47
 90
       50
102
RTVSPost2010PropOp47
 70
     1
102
RTVSPost2010Prop48
 90
       50
102
RTVSPost2010PropOp48
 70
     1
102
RTVSPost2010Prop49
280
     0
102
RTVSPost2010PropOp49
 70
     1
102
RTVSPost2010Prop50
 90
       50
102
RTVSPost2010PropOp50
 70
     1
102
RTVSPost2010Prop51ColorIndex
 90
      256
102
RTVSPost2010Prop51ColorRGB
 90
-16777216
102
RTVSPost2010PropOp51
 70
     0
102
RTVSPost2010Prop52
140
1.0
102
RTVSPost2010PropOp52
 70
     0
102
RTVSPost2010Prop53
 90
        2
102
RTVSPost2010PropOp53
 70
     1
102
RTVSPost2010Prop54
  1
strokes_ogs.tif
102
RTVSPost2010PropOp54
 70
     1
102
RTVSPost2010Prop55
280
     0
102
RTVSPost2010PropOp55
 70
     1
102
RTVSPost2010Prop56
140
1.0
102
RTVSPost2010PropOp56
 70
     1
102
RTVSPost2010Prop57
140
1.0
102
RTVSPost2010PropOp57
 70
     1
102
RTVSPropertyOp0
 70
     1
102
RTVSPropertyOp1
 70
     1
102
RTVSPropertyOp2
 70
     1
102
RTVSPropertyOp3
 70
     1
102
RTVSPropertyOp4
 70
     1
102
RTVSPropertyOp5
 70
     1
102
RTVSPropertyOp6
 70
     1
102
RTVSPropertyOp7
 70
     1
102
RTVSPropertyOp8
 70
     1
102
RTVSPropertyOp9
 70
     1
102
RTVSPropertyOp10
 70
     1
102
RTVSPropertyOp11
 70
     1
102
RTVSPropertyOp12
 70
     1
102
RTVSPropertyOp13
 70
     1
102
RTVSPropertyOp14
 70
     1
102
RTVSPropertyOp15
 70
     1
102
RTVSPropertyOp16
 70
     1
102
RTVSPropertyOp17
 70
     1
102
RTVSPropertyOp18
 70
     1
102
RTVSPropertyOp19
 70
     1
102
RTVSPropertyOp20
 70
     1
102
RTVSPropertyOp21
 70
     1
102
RTVSPropertyOp22
 70
     1
102
RTVSPropertyOp23
 70
     1
102
RTVSPropertyOp24
 70
     1
102
RTVSPropertyOp25
 70
     1
102
RTVSPropertyOp26
 70
     1
102
RTVSPropertyOp27
 70
     1
102
RTVSPropertyOp28
 70
     1
102
RTVSPropertyOp29
 70
     1
102
RTVSPropertyOp30
 70
     1
102
RTVSPropertyOp31
 70
     1
102
RTVSPropertyOp32
 70
     1
102
RTVSPropertyOp33
 70
     1
102
RTVSPropertyOp34
 70
     1
102
RTVSPropertyOp35
 70
     1
102
RTVSPropertyOp36
 70
     1
102
RTVSPropertyOp37
 70
     1
102
RTVSPropertyOp38
 70
     1
102
RTVSPropertyOp39
 70
     1
102
RTVSPropertyOp40
 70
     1
102
RTVSPropertyOp41
 70
     1
102
RTVSPropertyOp42
 70
     1
102
RTVSPropertyOp43
 70
     1
102
RTVSPropertyOp44
 70
     1
102
RTVSPropertyOp45
 70
     1
102
RTVSPropertyOp46
 70
     1
102
RTVSPropertyOp47
 70
     1
102
RTVSPropertyOp48
 70
     1
102
RTVSPropertyOp49
 70
     1
102
RTVSPropertyOp50
 70
     1
102
RTVSPropertyOp51
 70
     0
102
RTVSPropertyOp52
 70
     0
102
RTVSPropertyOp53
 70
     1
102
RTVSPropertyOp54
 70
     1
102
RTVSPropertyOp55
 70
     1
102
RTVSPropertyOp56
 70
     1
102
RTVSPropertyOp57
 70
     1
102
RTVSPropertyOp58
 70
     1
102
RTVSPropertyOp59
 70
     1
102
RTVSPropertyOp60
 70
     1
102
RTVSPropertyOp61
 70
     1
102
RTVSPropertyOp62
 70
     1
  0
XRECORD
  5
649B
102
{ACAD_REACTORS
330
649A
102
}
330
649A
100
AcDbXrecord
280
     1
102
RTVSPost2010Prop28
280
     0
102
RTVSPost2010PropOp28
 70
     1
102
RTVSPost2010Prop29
280
     1
102
RTVSPost2010PropOp29
 70
     1
102
RTVSPost2010Prop30
280
     1
102
RTVSPost2010PropOp30
 70
     1
102
RTVSPost2010Prop31
280
     0
102
RTVSPost2010PropOp31
 70
     1
102
RTVSPost2010Prop32
280
     0
102
RTVSPost2010PropOp32
 70
     1
102
RTVSPost2010Prop33
280
     0
102
RTVSPost2010PropOp33
 70
     1
102
RTVSPost2010Prop34
280
     0
102
RTVSPost2010PropOp34
 70
     1
102
RTVSPost2010Prop35
280
     0
102
RTVSPost2010PropOp35
 70
     1
102
RTVSPost2010Prop36
280
     0
102
RTVSPost2010PropOp36
 70
     1
102
RTVSPost2010Prop37
 90
       50
102
RTVSPost2010PropOp37
 70
     1
102
RTVSPost2010Prop38
140
0.0
102
RTVSPost2010PropOp38
 70
     1
102
RTVSPost2010Prop39
140
1.0
102
RTVSPost2010PropOp39
 70
     1
102
RTVSPost2010Prop40
 90
        0
102
RTVSPost2010PropOp40
 70
     1
102
RTVSPost2010Prop41ColorIndex
 90
       18
102
RTVSPost2010Prop41ColorRGB
 90
        0
102
RTVSPost2010PropOp41
 70
     1
102
RTVSPost2010Prop42
 90
       50
102
RTVSPost2010PropOp42
 70
     1
102
RTVSPost2010Prop43
 90
        3
102
RTVSPost2010PropOp43
 70
     1
102
RTVSPost2010Prop44ColorIndex
 90
        5
102
RTVSPost2010Prop44ColorRGB
 90
      255
102
RTVSPost2010PropOp44
 70
     1
102
RTVSPost2010Prop45
280
     0
102
RTVSPost2010PropOp45
 70
     1
102
RTVSPost2010Prop46
 90
       50
102
RTVSPost2010PropOp46
 70
     1
102
RTVSPost2010Prop47
 90
       50
102
RTVSPost2010PropOp47
 70
     1
102
RTVSPost2010Prop48
 90
       50
102
RTVSPost2010PropOp48
 70
     1
102
RTVSPost2010Prop49
280
     0
102
RTVSPost2010PropOp49
 70
     1
102
RTVSPost2010Prop50
 90
       50
102
RTVSPost2010PropOp50
 70
     1
102
RTVSPost2010Prop51ColorIndex
 90
      256
102
RTVSPost2010Prop51ColorRGB
 90
-16777216
102
RTVSPost2010PropOp51
 70
     0
102
RTVSPost2010Prop52
140
1.0
102
RTVSPost2010PropOp52
 70
     0
102
RTVSPost2010Prop53
 90
        2
102
RTVSPost2010PropOp53
 70
     1
102
RTVSPost2010Prop54
  1
strokes_ogs.tif
102
RTVSPost2010PropOp54
 70
     1
102
RTVSPost2010Prop55
280
     0
102
RTVSPost2010PropOp55
 70
     1
102
RTVSPost2010Prop56
140
1.0
102
RTVSPost2010PropOp56
 70
     1
102
RTVSPost2010Prop57
140
1.0
102
RTVSPost2010PropOp57
 70
     1
102
RTVSPropertyOp0
 70
     1
102
RTVSPropertyOp1
 70
     1
102
RTVSPropertyOp2
 70
     1
102
RTVSPropertyOp3
 70
     1
102
RTVSPropertyOp4
 70
     1
102
RTVSPropertyOp5
 70
     1
102
RTVSPropertyOp6
 70
     1
102
RTVSPropertyOp7
 70
     1
102
RTVSPropertyOp8
 70
     1
102
RTVSPropertyOp9
 70
     1
102
RTVSPropertyOp10
 70
     1
102
RTVSPropertyOp11
 70
     1
102
RTVSPropertyOp12
 70
     1
102
RTVSPropertyOp13
 70
     1
102
RTVSPropertyOp14
 70
     1
102
RTVSPropertyOp15
 70
     1
102
RTVSPropertyOp16
 70
     1
102
RTVSPropertyOp17
 70
     1
102
RTVSPropertyOp18
 70
     1
102
RTVSPropertyOp19
 70
     1
102
RTVSPropertyOp20
 70
     1
102
RTVSPropertyOp21
 70
     1
102
RTVSPropertyOp22
 70
     1
102
RTVSPropertyOp23
 70
     1
102
RTVSPropertyOp24
 70
     1
102
RTVSPropertyOp25
 70
     1
102
RTVSPropertyOp26
 70
     1
102
RTVSPropertyOp27
 70
     1
102
RTVSPropertyOp28
 70
     1
102
RTVSPropertyOp29
 70
     1
102
RTVSPropertyOp30
 70
     1
102
RTVSPropertyOp31
 70
     1
102
RTVSPropertyOp32
 70
     1
102
RTVSPropertyOp33
 70
     1
102
RTVSPropertyOp34
 70
     1
102
RTVSPropertyOp35
 70
     1
102
RTVSPropertyOp36
 70
     1
102
RTVSPropertyOp37
 70
     1
102
RTVSPropertyOp38
 70
     1
102
RTVSPropertyOp39
 70
     1
102
RTVSPropertyOp40
 70
     1
102
RTVSPropertyOp41
 70
     1
102
RTVSPropertyOp42
 70
     1
102
RTVSPropertyOp43
 70
     1
102
RTVSPropertyOp44
 70
     1
102
RTVSPropertyOp45
 70
     1
102
RTVSPropertyOp46
 70
     1
102
RTVSPropertyOp47
 70
     1
102
RTVSPropertyOp48
 70
     1
102
RTVSPropertyOp49
 70
     1
102
RTVSPropertyOp50
 70
     1
102
RTVSPropertyOp51
 70
     0
102
RTVSPropertyOp52
 70
     0
102
RTVSPropertyOp53
 70
     1
102
RTVSPropertyOp54
 70
     1
102
RTVSPropertyOp55
 70
     1
102
RTVSPropertyOp56
 70
     1
102
RTVSPropertyOp57
 70
     1
102
RTVSPropertyOp58
 70
     1
102
RTVSPropertyOp59
 70
     1
102
RTVSPropertyOp60
 70
     1
102
RTVSPropertyOp61
 70
     1
102
RTVSPropertyOp62
 70
     1
  0
XRECORD
  5
6495
102
{ACAD_REACTORS
330
6494
102
}
330
6494
100
AcDbXrecord
280
     1
102
RTVSPost2010Prop28
280
     0
102
RTVSPost2010PropOp28
 70
     1
102
RTVSPost2010Prop29
280
     1
102
RTVSPost2010PropOp29
 70
     1
102
RTVSPost2010Prop30
280
     1
102
RTVSPost2010PropOp30
 70
     1
102
RTVSPost2010Prop31
280
     0
102
RTVSPost2010PropOp31
 70
     1
102
RTVSPost2010Prop32
280
     0
102
RTVSPost2010PropOp32
 70
     1
102
RTVSPost2010Prop33
280
     0
102
RTVSPost2010PropOp33
 70
     1
102
RTVSPost2010Prop34
280
     0
102
RTVSPost2010PropOp34
 70
     1
102
RTVSPost2010Prop35
280
     0
102
RTVSPost2010PropOp35
 70
     1
102
RTVSPost2010Prop36
280
     0
102
RTVSPost2010PropOp36
 70
     1
102
RTVSPost2010Prop37
 90
       50
102
RTVSPost2010PropOp37
 70
     1
102
RTVSPost2010Prop38
140
0.0
102
RTVSPost2010PropOp38
 70
     1
102
RTVSPost2010Prop39
140
1.0
102
RTVSPost2010PropOp39
 70
     1
102
RTVSPost2010Prop40
 90
        0
102
RTVSPost2010PropOp40
 70
     1
102
RTVSPost2010Prop41ColorIndex
 90
       18
102
RTVSPost2010Prop41ColorRGB
 90
        0
102
RTVSPost2010PropOp41
 70
     1
102
RTVSPost2010Prop42
 90
       50
102
RTVSPost2010PropOp42
 70
     1
102
RTVSPost2010Prop43
 90
        3
102
RTVSPost2010PropOp43
 70
     1
102
RTVSPost2010Prop44ColorIndex
 90
        5
102
RTVSPost2010Prop44ColorRGB
 90
      255
102
RTVSPost2010PropOp44
 70
     1
102
RTVSPost2010Prop45
280
     0
102
RTVSPost2010PropOp45
 70
     1
102
RTVSPost2010Prop46
 90
       50
102
RTVSPost2010PropOp46
 70
     1
102
RTVSPost2010Prop47
 90
       50
102
RTVSPost2010PropOp47
 70
     1
102
RTVSPost2010Prop48
 90
       50
102
RTVSPost2010PropOp48
 70
     1
102
RTVSPost2010Prop49
280
     0
102
RTVSPost2010PropOp49
 70
     1
102
RTVSPost2010Prop50
 90
       50
102
RTVSPost2010PropOp50
 70
     1
102
RTVSPost2010Prop51ColorIndex
 90
      256
102
RTVSPost2010Prop51ColorRGB
 90
-16777216
102
RTVSPost2010PropOp51
 70
     0
102
RTVSPost2010Prop52
140
1.0
102
RTVSPost2010PropOp52
 70
     0
102
RTVSPost2010Prop53
 90
        2
102
RTVSPost2010PropOp53
 70
     1
102
RTVSPost2010Prop54
  1
strokes_ogs.tif
102
RTVSPost2010PropOp54
 70
     1
102
RTVSPost2010Prop55
280
     0
102
RTVSPost2010PropOp55
 70
     1
102
RTVSPost2010Prop56
140
1.0
102
RTVSPost2010PropOp56
 70
     1
102
RTVSPost2010Prop57
140
1.0
102
RTVSPost2010PropOp57
 70
     1
102
RTVSPropertyOp0
 70
     1
102
RTVSPropertyOp1
 70
     1
102
RTVSPropertyOp2
 70
     1
102
RTVSPropertyOp3
 70
     1
102
RTVSPropertyOp4
 70
     1
102
RTVSPropertyOp5
 70
     1
102
RTVSPropertyOp6
 70
     1
102
RTVSPropertyOp7
 70
     1
102
RTVSPropertyOp8
 70
     1
102
RTVSPropertyOp9
 70
     1
102
RTVSPropertyOp10
 70
     1
102
RTVSPropertyOp11
 70
     1
102
RTVSPropertyOp12
 70
     1
102
RTVSPropertyOp13
 70
     1
102
RTVSPropertyOp14
 70
     1
102
RTVSPropertyOp15
 70
     1
102
RTVSPropertyOp16
 70
     1
102
RTVSPropertyOp17
 70
     1
102
RTVSPropertyOp18
 70
     1
102
RTVSPropertyOp19
 70
     1
102
RTVSPropertyOp20
 70
     1
102
RTVSPropertyOp21
 70
     1
102
RTVSPropertyOp22
 70
     1
102
RTVSPropertyOp23
 70
     1
102
RTVSPropertyOp24
 70
     1
102
RTVSPropertyOp25
 70
     1
102
RTVSPropertyOp26
 70
     1
102
RTVSPropertyOp27
 70
     1
102
RTVSPropertyOp28
 70
     1
102
RTVSPropertyOp29
 70
     1
102
RTVSPropertyOp30
 70
     1
102
RTVSPropertyOp31
 70
     1
102
RTVSPropertyOp32
 70
     1
102
RTVSPropertyOp33
 70
     1
102
RTVSPropertyOp34
 70
     1
102
RTVSPropertyOp35
 70
     1
102
RTVSPropertyOp36
 70
     1
102
RTVSPropertyOp37
 70
     1
102
RTVSPropertyOp38
 70
     1
102
RTVSPropertyOp39
 70
     1
102
RTVSPropertyOp40
 70
     1
102
RTVSPropertyOp41
 70
     1
102
RTVSPropertyOp42
 70
     1
102
RTVSPropertyOp43
 70
     1
102
RTVSPropertyOp44
 70
     1
102
RTVSPropertyOp45
 70
     1
102
RTVSPropertyOp46
 70
     1
102
RTVSPropertyOp47
 70
     1
102
RTVSPropertyOp48
 70
     1
102
RTVSPropertyOp49
 70
     1
102
RTVSPropertyOp50
 70
     1
102
RTVSPropertyOp51
 70
     0
102
RTVSPropertyOp52
 70
     0
102
RTVSPropertyOp53
 70
     1
102
RTVSPropertyOp54
 70
     1
102
RTVSPropertyOp55
 70
     1
102
RTVSPropertyOp56
 70
     1
102
RTVSPropertyOp57
 70
     1
102
RTVSPropertyOp58
 70
     1
102
RTVSPropertyOp59
 70
     1
102
RTVSPropertyOp60
 70
     1
102
RTVSPropertyOp61
 70
     1
102
RTVSPropertyOp62
 70
     1
  0
XRECORD
  5
6497
102
{ACAD_REACTORS
330
6496
102
}
330
6496
100
AcDbXrecord
280
     1
102
RTVSPost2010Prop28
280
     0
102
RTVSPost2010PropOp28
 70
     1
102
RTVSPost2010Prop29
280
     1
102
RTVSPost2010PropOp29
 70
     1
102
RTVSPost2010Prop30
280
     1
102
RTVSPost2010PropOp30
 70
     1
102
RTVSPost2010Prop31
280
     0
102
RTVSPost2010PropOp31
 70
     1
102
RTVSPost2010Prop32
280
     0
102
RTVSPost2010PropOp32
 70
     1
102
RTVSPost2010Prop33
280
     0
102
RTVSPost2010PropOp33
 70
     1
102
RTVSPost2010Prop34
280
     0
102
RTVSPost2010PropOp34
 70
     1
102
RTVSPost2010Prop35
280
     0
102
RTVSPost2010PropOp35
 70
     1
102
RTVSPost2010Prop36
280
     0
102
RTVSPost2010PropOp36
 70
     1
102
RTVSPost2010Prop37
 90
       50
102
RTVSPost2010PropOp37
 70
     1
102
RTVSPost2010Prop38
140
0.0
102
RTVSPost2010PropOp38
 70
     1
102
RTVSPost2010Prop39
140
1.0
102
RTVSPost2010PropOp39
 70
     1
102
RTVSPost2010Prop40
 90
        0
102
RTVSPost2010PropOp40
 70
     1
102
RTVSPost2010Prop41ColorIndex
 90
       18
102
RTVSPost2010Prop41ColorRGB
 90
        0
102
RTVSPost2010PropOp41
 70
     1
102
RTVSPost2010Prop42
 90
       50
102
RTVSPost2010PropOp42
 70
     1
102
RTVSPost2010Prop43
 90
        3
102
RTVSPost2010PropOp43
 70
     1
102
RTVSPost2010Prop44ColorIndex
 90
        5
102
RTVSPost2010Prop44ColorRGB
 90
      255
102
RTVSPost2010PropOp44
 70
     1
102
RTVSPost2010Prop45
280
     0
102
RTVSPost2010PropOp45
 70
     1
102
RTVSPost2010Prop46
 90
       50
102
RTVSPost2010PropOp46
 70
     1
102
RTVSPost2010Prop47
 90
       50
102
RTVSPost2010PropOp47
 70
     1
102
RTVSPost2010Prop48
 90
       50
102
RTVSPost2010PropOp48
 70
     1
102
RTVSPost2010Prop49
280
     0
102
RTVSPost2010PropOp49
 70
     1
102
RTVSPost2010Prop50
 90
       50
102
RTVSPost2010PropOp50
 70
     1
102
RTVSPost2010Prop51ColorIndex
 90
      256
102
RTVSPost2010Prop51ColorRGB
 90
-16777216
102
RTVSPost2010PropOp51
 70
     0
102
RTVSPost2010Prop52
140
1.0
102
RTVSPost2010PropOp52
 70
     0
102
RTVSPost2010Prop53
 90
        2
102
RTVSPost2010PropOp53
 70
     1
102
RTVSPost2010Prop54
  1
strokes_ogs.tif
102
RTVSPost2010PropOp54
 70
     1
102
RTVSPost2010Prop55
280
     0
102
RTVSPost2010PropOp55
 70
     1
102
RTVSPost2010Prop56
140
1.0
102
RTVSPost2010PropOp56
 70
     1
102
RTVSPost2010Prop57
140
1.0
102
RTVSPost2010PropOp57
 70
     1
102
RTVSPropertyOp0
 70
     1
102
RTVSPropertyOp1
 70
     1
102
RTVSPropertyOp2
 70
     1
102
RTVSPropertyOp3
 70
     1
102
RTVSPropertyOp4
 70
     1
102
RTVSPropertyOp5
 70
     1
102
RTVSPropertyOp6
 70
     1
102
RTVSPropertyOp7
 70
     1
102
RTVSPropertyOp8
 70
     1
102
RTVSPropertyOp9
 70
     1
102
RTVSPropertyOp10
 70
     1
102
RTVSPropertyOp11
 70
     1
102
RTVSPropertyOp12
 70
     1
102
RTVSPropertyOp13
 70
     1
102
RTVSPropertyOp14
 70
     1
102
RTVSPropertyOp15
 70
     1
102
RTVSPropertyOp16
 70
     1
102
RTVSPropertyOp17
 70
     1
102
RTVSPropertyOp18
 70
     1
102
RTVSPropertyOp19
 70
     1
102
RTVSPropertyOp20
 70
     1
102
RTVSPropertyOp21
 70
     1
102
RTVSPropertyOp22
 70
     1
102
RTVSPropertyOp23
 70
     1
102
RTVSPropertyOp24
 70
     1
102
RTVSPropertyOp25
 70
     1
102
RTVSPropertyOp26
 70
     1
102
RTVSPropertyOp27
 70
     1
102
RTVSPropertyOp28
 70
     1
102
RTVSPropertyOp29
 70
     1
102
RTVSPropertyOp30
 70
     1
102
RTVSPropertyOp31
 70
     1
102
RTVSPropertyOp32
 70
     1
102
RTVSPropertyOp33
 70
     1
102
RTVSPropertyOp34
 70
     1
102
RTVSPropertyOp35
 70
     1
102
RTVSPropertyOp36
 70
     1
102
RTVSPropertyOp37
 70
     1
102
RTVSPropertyOp38
 70
     1
102
RTVSPropertyOp39
 70
     1
102
RTVSPropertyOp40
 70
     1
102
RTVSPropertyOp41
 70
     1
102
RTVSPropertyOp42
 70
     1
102
RTVSPropertyOp43
 70
     1
102
RTVSPropertyOp44
 70
     1
102
RTVSPropertyOp45
 70
     1
102
RTVSPropertyOp46
 70
     1
102
RTVSPropertyOp47
 70
     1
102
RTVSPropertyOp48
 70
     1
102
RTVSPropertyOp49
 70
     1
102
RTVSPropertyOp50
 70
     1
102
RTVSPropertyOp51
 70
     0
102
RTVSPropertyOp52
 70
     0
102
RTVSPropertyOp53
 70
     1
102
RTVSPropertyOp54
 70
     1
102
RTVSPropertyOp55
 70
     1
102
RTVSPropertyOp56
 70
     1
102
RTVSPropertyOp57
 70
     1
102
RTVSPropertyOp58
 70
     1
102
RTVSPropertyOp59
 70
     1
102
RTVSPropertyOp60
 70
     1
102
RTVSPropertyOp61
 70
     1
102
RTVSPropertyOp62
 70
     1
  0
XRECORD
  5
648D
102
{ACAD_REACTORS
330
648C
102
}
330
648C
100
AcDbXrecord
280
     1
102
RTVSPost2010Prop28
280
     0
102
RTVSPost2010PropOp28
 70
     1
102
RTVSPost2010Prop29
280
     1
102
RTVSPost2010PropOp29
 70
     1
102
RTVSPost2010Prop30
280
     1
102
RTVSPost2010PropOp30
 70
     1
102
RTVSPost2010Prop31
280
     0
102
RTVSPost2010PropOp31
 70
     1
102
RTVSPost2010Prop32
280
     0
102
RTVSPost2010PropOp32
 70
     1
102
RTVSPost2010Prop33
280
     0
102
RTVSPost2010PropOp33
 70
     1
102
RTVSPost2010Prop34
280
     0
102
RTVSPost2010PropOp34
 70
     1
102
RTVSPost2010Prop35
280
     0
102
RTVSPost2010PropOp35
 70
     1
102
RTVSPost2010Prop36
280
     0
102
RTVSPost2010PropOp36
 70
     1
102
RTVSPost2010Prop37
 90
       50
102
RTVSPost2010PropOp37
 70
     1
102
RTVSPost2010Prop38
140
0.0
102
RTVSPost2010PropOp38
 70
     1
102
RTVSPost2010Prop39
140
1.0
102
RTVSPost2010PropOp39
 70
     1
102
RTVSPost2010Prop40
 90
        0
102
RTVSPost2010PropOp40
 70
     1
102
RTVSPost2010Prop41ColorIndex
 90
       18
102
RTVSPost2010Prop41ColorRGB
 90
        0
102
RTVSPost2010PropOp41
 70
     1
102
RTVSPost2010Prop42
 90
       50
102
RTVSPost2010PropOp42
 70
     1
102
RTVSPost2010Prop43
 90
        3
102
RTVSPost2010PropOp43
 70
     1
102
RTVSPost2010Prop44ColorIndex
 90
        5
102
RTVSPost2010Prop44ColorRGB
 90
      255
102
RTVSPost2010PropOp44
 70
     1
102
RTVSPost2010Prop45
280
     0
102
RTVSPost2010PropOp45
 70
     1
102
RTVSPost2010Prop46
 90
       50
102
RTVSPost2010PropOp46
 70
     1
102
RTVSPost2010Prop47
 90
       50
102
RTVSPost2010PropOp47
 70
     1
102
RTVSPost2010Prop48
 90
       50
102
RTVSPost2010PropOp48
 70
     1
102
RTVSPost2010Prop49
280
     0
102
RTVSPost2010PropOp49
 70
     1
102
RTVSPost2010Prop50
 90
       50
102
RTVSPost2010PropOp50
 70
     1
102
RTVSPost2010Prop51ColorIndex
 90
      256
102
RTVSPost2010Prop51ColorRGB
 90
-16777216
102
RTVSPost2010PropOp51
 70
     0
102
RTVSPost2010Prop52
140
1.0
102
RTVSPost2010PropOp52
 70
     0
102
RTVSPost2010Prop53
 90
        2
102
RTVSPost2010PropOp53
 70
     1
102
RTVSPost2010Prop54
  1
strokes_ogs.tif
102
RTVSPost2010PropOp54
 70
     1
102
RTVSPost2010Prop55
280
     0
102
RTVSPost2010PropOp55
 70
     1
102
RTVSPost2010Prop56
140
1.0
102
RTVSPost2010PropOp56
 70
     1
102
RTVSPost2010Prop57
140
1.0
102
RTVSPost2010PropOp57
 70
     1
102
RTVSPropertyOp0
 70
     1
102
RTVSPropertyOp1
 70
     1
102
RTVSPropertyOp2
 70
     1
102
RTVSPropertyOp3
 70
     1
102
RTVSPropertyOp4
 70
     1
102
RTVSPropertyOp5
 70
     1
102
RTVSPropertyOp6
 70
     1
102
RTVSPropertyOp7
 70
     1
102
RTVSPropertyOp8
 70
     1
102
RTVSPropertyOp9
 70
     1
102
RTVSPropertyOp10
 70
     1
102
RTVSPropertyOp11
 70
     1
102
RTVSPropertyOp12
 70
     1
102
RTVSPropertyOp13
 70
     1
102
RTVSPropertyOp14
 70
     1
102
RTVSPropertyOp15
 70
     1
102
RTVSPropertyOp16
 70
     1
102
RTVSPropertyOp17
 70
     1
102
RTVSPropertyOp18
 70
     1
102
RTVSPropertyOp19
 70
     1
102
RTVSPropertyOp20
 70
     1
102
RTVSPropertyOp21
 70
     1
102
RTVSPropertyOp22
 70
     1
102
RTVSPropertyOp23
 70
     1
102
RTVSPropertyOp24
 70
     1
102
RTVSPropertyOp25
 70
     1
102
RTVSPropertyOp26
 70
     1
102
RTVSPropertyOp27
 70
     1
102
RTVSPropertyOp28
 70
     1
102
RTVSPropertyOp29
 70
     1
102
RTVSPropertyOp30
 70
     1
102
RTVSPropertyOp31
 70
     1
102
RTVSPropertyOp32
 70
     1
102
RTVSPropertyOp33
 70
     1
102
RTVSPropertyOp34
 70
     1
102
RTVSPropertyOp35
 70
     1
102
RTVSPropertyOp36
 70
     1
102
RTVSPropertyOp37
 70
     1
102
RTVSPropertyOp38
 70
     1
102
RTVSPropertyOp39
 70
     1
102
RTVSPropertyOp40
 70
     1
102
RTVSPropertyOp41
 70
     1
102
RTVSPropertyOp42
 70
     1
102
RTVSPropertyOp43
 70
     1
102
RTVSPropertyOp44
 70
     1
102
RTVSPropertyOp45
 70
     1
102
RTVSPropertyOp46
 70
     1
102
RTVSPropertyOp47
 70
     1
102
RTVSPropertyOp48
 70
     1
102
RTVSPropertyOp49
 70
     1
102
RTVSPropertyOp50
 70
     1
102
RTVSPropertyOp51
 70
     0
102
RTVSPropertyOp52
 70
     0
102
RTVSPropertyOp53
 70
     1
102
RTVSPropertyOp54
 70
     1
102
RTVSPropertyOp55
 70
     1
102
RTVSPropertyOp56
 70
     1
102
RTVSPropertyOp57
 70
     1
102
RTVSPropertyOp58
 70
     1
102
RTVSPropertyOp59
 70
     1
102
RTVSPropertyOp60
 70
     1
102
RTVSPropertyOp61
 70
     1
102
RTVSPropertyOp62
 70
     1
  0
XRECORD
  5
6481
102
{ACAD_REACTORS
330
6480
102
}
330
6480
100
AcDbXrecord
280
     1
102
RTVSPost2010Prop28
280
     0
102
RTVSPost2010PropOp28
 70
     1
102
RTVSPost2010Prop29
280
     1
102
RTVSPost2010PropOp29
 70
     1
102
RTVSPost2010Prop30
280
     1
102
RTVSPost2010PropOp30
 70
     1
102
RTVSPost2010Prop31
280
     0
102
RTVSPost2010PropOp31
 70
     1
102
RTVSPost2010Prop32
280
     0
102
RTVSPost2010PropOp32
 70
     1
102
RTVSPost2010Prop33
280
     0
102
RTVSPost2010PropOp33
 70
     1
102
RTVSPost2010Prop34
280
     0
102
RTVSPost2010PropOp34
 70
     1
102
RTVSPost2010Prop35
280
     0
102
RTVSPost2010PropOp35
 70
     1
102
RTVSPost2010Prop36
280
     0
102
RTVSPost2010PropOp36
 70
     1
102
RTVSPost2010Prop37
 90
       50
102
RTVSPost2010PropOp37
 70
     1
102
RTVSPost2010Prop38
140
0.0
102
RTVSPost2010PropOp38
 70
     1
102
RTVSPost2010Prop39
140
1.0
102
RTVSPost2010PropOp39
 70
     1
102
RTVSPost2010Prop40
 90
        0
102
RTVSPost2010PropOp40
 70
     1
102
RTVSPost2010Prop41ColorIndex
 90
       18
102
RTVSPost2010Prop41ColorRGB
 90
        0
102
RTVSPost2010PropOp41
 70
     1
102
RTVSPost2010Prop42
 90
       50
102
RTVSPost2010PropOp42
 70
     1
102
RTVSPost2010Prop43
 90
        3
102
RTVSPost2010PropOp43
 70
     1
102
RTVSPost2010Prop44ColorIndex
 90
        5
102
RTVSPost2010Prop44ColorRGB
 90
      255
102
RTVSPost2010PropOp44
 70
     1
102
RTVSPost2010Prop45
280
     0
102
RTVSPost2010PropOp45
 70
     1
102
RTVSPost2010Prop46
 90
       50
102
RTVSPost2010PropOp46
 70
     1
102
RTVSPost2010Prop47
 90
       50
102
RTVSPost2010PropOp47
 70
     1
102
RTVSPost2010Prop48
 90
       50
102
RTVSPost2010PropOp48
 70
     1
102
RTVSPost2010Prop49
280
     0
102
RTVSPost2010PropOp49
 70
     1
102
RTVSPost2010Prop50
 90
       50
102
RTVSPost2010PropOp50
 70
     1
102
RTVSPost2010Prop51ColorIndex
 90
      256
102
RTVSPost2010Prop51ColorRGB
 90
-16777216
102
RTVSPost2010PropOp51
 70
     0
102
RTVSPost2010Prop52
140
1.0
102
RTVSPost2010PropOp52
 70
     0
102
RTVSPost2010Prop53
 90
        2
102
RTVSPost2010PropOp53
 70
     1
102
RTVSPost2010Prop54
  1
strokes_ogs.tif
102
RTVSPost2010PropOp54
 70
     1
102
RTVSPost2010Prop55
280
     0
102
RTVSPost2010PropOp55
 70
     1
102
RTVSPost2010Prop56
140
1.0
102
RTVSPost2010PropOp56
 70
     1
102
RTVSPost2010Prop57
140
1.0
102
RTVSPost2010PropOp57
 70
     1
102
RTVSPropertyOp0
 70
     1
102
RTVSPropertyOp1
 70
     1
102
RTVSPropertyOp2
 70
     1
102
RTVSPropertyOp3
 70
     1
102
RTVSPropertyOp4
 70
     1
102
RTVSPropertyOp5
 70
     1
102
RTVSPropertyOp6
 70
     1
102
RTVSPropertyOp7
 70
     1
102
RTVSPropertyOp8
 70
     1
102
RTVSPropertyOp9
 70
     1
102
RTVSPropertyOp10
 70
     1
102
RTVSPropertyOp11
 70
     1
102
RTVSPropertyOp12
 70
     1
102
RTVSPropertyOp13
 70
     1
102
RTVSPropertyOp14
 70
     1
102
RTVSPropertyOp15
 70
     1
102
RTVSPropertyOp16
 70
     1
102
RTVSPropertyOp17
 70
     1
102
RTVSPropertyOp18
 70
     1
102
RTVSPropertyOp19
 70
     1
102
RTVSPropertyOp20
 70
     1
102
RTVSPropertyOp21
 70
     1
102
RTVSPropertyOp22
 70
     1
102
RTVSPropertyOp23
 70
     1
102
RTVSPropertyOp24
 70
     1
102
RTVSPropertyOp25
 70
     1
102
RTVSPropertyOp26
 70
     1
102
RTVSPropertyOp27
 70
     1
102
RTVSPropertyOp28
 70
     1
102
RTVSPropertyOp29
 70
     1
102
RTVSPropertyOp30
 70
     1
102
RTVSPropertyOp31
 70
     1
102
RTVSPropertyOp32
 70
     1
102
RTVSPropertyOp33
 70
     1
102
RTVSPropertyOp34
 70
     1
102
RTVSPropertyOp35
 70
     1
102
RTVSPropertyOp36
 70
     1
102
RTVSPropertyOp37
 70
     1
102
RTVSPropertyOp38
 70
     1
102
RTVSPropertyOp39
 70
     1
102
RTVSPropertyOp40
 70
     1
102
RTVSPropertyOp41
 70
     1
102
RTVSPropertyOp42
 70
     1
102
RTVSPropertyOp43
 70
     1
102
RTVSPropertyOp44
 70
     1
102
RTVSPropertyOp45
 70
     1
102
RTVSPropertyOp46
 70
     1
102
RTVSPropertyOp47
 70
     1
102
RTVSPropertyOp48
 70
     1
102
RTVSPropertyOp49
 70
     1
102
RTVSPropertyOp50
 70
     1
102
RTVSPropertyOp51
 70
     0
102
RTVSPropertyOp52
 70
     0
102
RTVSPropertyOp53
 70
     1
102
RTVSPropertyOp54
 70
     1
102
RTVSPropertyOp55
 70
     1
102
RTVSPropertyOp56
 70
     1
102
RTVSPropertyOp57
 70
     1
102
RTVSPropertyOp58
 70
     1
102
RTVSPropertyOp59
 70
     1
102
RTVSPropertyOp60
 70
     1
102
RTVSPropertyOp61
 70
     1
102
RTVSPropertyOp62
 70
     1
  0
XRECORD
  5
6499
102
{ACAD_REACTORS
330
6498
102
}
330
6498
100
AcDbXrecord
280
     1
102
RTVSPost2010Prop28
280
     0
102
RTVSPost2010PropOp28
 70
     1
102
RTVSPost2010Prop29
280
     1
102
RTVSPost2010PropOp29
 70
     1
102
RTVSPost2010Prop30
280
     1
102
RTVSPost2010PropOp30
 70
     1
102
RTVSPost2010Prop31
280
     0
102
RTVSPost2010PropOp31
 70
     1
102
RTVSPost2010Prop32
280
     0
102
RTVSPost2010PropOp32
 70
     1
102
RTVSPost2010Prop33
280
     0
102
RTVSPost2010PropOp33
 70
     1
102
RTVSPost2010Prop34
280
     0
102
RTVSPost2010PropOp34
 70
     1
102
RTVSPost2010Prop35
280
     0
102
RTVSPost2010PropOp35
 70
     1
102
RTVSPost2010Prop36
280
     0
102
RTVSPost2010PropOp36
 70
     1
102
RTVSPost2010Prop37
 90
       50
102
RTVSPost2010PropOp37
 70
     1
102
RTVSPost2010Prop38
140
0.0
102
RTVSPost2010PropOp38
 70
     1
102
RTVSPost2010Prop39
140
1.0
102
RTVSPost2010PropOp39
 70
     1
102
RTVSPost2010Prop40
 90
        0
102
RTVSPost2010PropOp40
 70
     1
102
RTVSPost2010Prop41ColorIndex
 90
       18
102
RTVSPost2010Prop41ColorRGB
 90
        0
102
RTVSPost2010PropOp41
 70
     1
102
RTVSPost2010Prop42
 90
       50
102
RTVSPost2010PropOp42
 70
     1
102
RTVSPost2010Prop43
 90
        3
102
RTVSPost2010PropOp43
 70
     1
102
RTVSPost2010Prop44ColorIndex
 90
        5
102
RTVSPost2010Prop44ColorRGB
 90
      255
102
RTVSPost2010PropOp44
 70
     1
102
RTVSPost2010Prop45
280
     0
102
RTVSPost2010PropOp45
 70
     1
102
RTVSPost2010Prop46
 90
       50
102
RTVSPost2010PropOp46
 70
     1
102
RTVSPost2010Prop47
 90
       50
102
RTVSPost2010PropOp47
 70
     1
102
RTVSPost2010Prop48
 90
       50
102
RTVSPost2010PropOp48
 70
     1
102
RTVSPost2010Prop49
280
     0
102
RTVSPost2010PropOp49
 70
     1
102
RTVSPost2010Prop50
 90
       50
102
RTVSPost2010PropOp50
 70
     1
102
RTVSPost2010Prop51ColorIndex
 90
      256
102
RTVSPost2010Prop51ColorRGB
 90
-16777216
102
RTVSPost2010PropOp51
 70
     0
102
RTVSPost2010Prop52
140
1.0
102
RTVSPost2010PropOp52
 70
     0
102
RTVSPost2010Prop53
 90
        2
102
RTVSPost2010PropOp53
 70
     1
102
RTVSPost2010Prop54
  1
strokes_ogs.tif
102
RTVSPost2010PropOp54
 70
     1
102
RTVSPost2010Prop55
280
     0
102
RTVSPost2010PropOp55
 70
     1
102
RTVSPost2010Prop56
140
1.0
102
RTVSPost2010PropOp56
 70
     1
102
RTVSPost2010Prop57
140
1.0
102
RTVSPost2010PropOp57
 70
     1
102
RTVSPropertyOp0
 70
     1
102
RTVSPropertyOp1
 70
     1
102
RTVSPropertyOp2
 70
     1
102
RTVSPropertyOp3
 70
     1
102
RTVSPropertyOp4
 70
     1
102
RTVSPropertyOp5
 70
     1
102
RTVSPropertyOp6
 70
     1
102
RTVSPropertyOp7
 70
     1
102
RTVSPropertyOp8
 70
     1
102
RTVSPropertyOp9
 70
     1
102
RTVSPropertyOp10
 70
     1
102
RTVSPropertyOp11
 70
     1
102
RTVSPropertyOp12
 70
     1
102
RTVSPropertyOp13
 70
     1
102
RTVSPropertyOp14
 70
     1
102
RTVSPropertyOp15
 70
     1
102
RTVSPropertyOp16
 70
     1
102
RTVSPropertyOp17
 70
     1
102
RTVSPropertyOp18
 70
     1
102
RTVSPropertyOp19
 70
     1
102
RTVSPropertyOp20
 70
     1
102
RTVSPropertyOp21
 70
     1
102
RTVSPropertyOp22
 70
     1
102
RTVSPropertyOp23
 70
     1
102
RTVSPropertyOp24
 70
     1
102
RTVSPropertyOp25
 70
     1
102
RTVSPropertyOp26
 70
     1
102
RTVSPropertyOp27
 70
     1
102
RTVSPropertyOp28
 70
     1
102
RTVSPropertyOp29
 70
     1
102
RTVSPropertyOp30
 70
     1
102
RTVSPropertyOp31
 70
     1
102
RTVSPropertyOp32
 70
     1
102
RTVSPropertyOp33
 70
     1
102
RTVSPropertyOp34
 70
     1
102
RTVSPropertyOp35
 70
     1
102
RTVSPropertyOp36
 70
     1
102
RTVSPropertyOp37
 70
     1
102
RTVSPropertyOp38
 70
     1
102
RTVSPropertyOp39
 70
     1
102
RTVSPropertyOp40
 70
     1
102
RTVSPropertyOp41
 70
     1
102
RTVSPropertyOp42
 70
     1
102
RTVSPropertyOp43
 70
     1
102
RTVSPropertyOp44
 70
     1
102
RTVSPropertyOp45
 70
     1
102
RTVSPropertyOp46
 70
     1
102
RTVSPropertyOp47
 70
     1
102
RTVSPropertyOp48
 70
     1
102
RTVSPropertyOp49
 70
     1
102
RTVSPropertyOp50
 70
     1
102
RTVSPropertyOp51
 70
     0
102
RTVSPropertyOp52
 70
     0
102
RTVSPropertyOp53
 70
     1
102
RTVSPropertyOp54
 70
     1
102
RTVSPropertyOp55
 70
     1
102
RTVSPropertyOp56
 70
     1
102
RTVSPropertyOp57
 70
     1
102
RTVSPropertyOp58
 70
     1
102
RTVSPropertyOp59
 70
     1
102
RTVSPropertyOp60
 70
     1
102
RTVSPropertyOp61
 70
     1
102
RTVSPropertyOp62
 70
     1
  0
ENDSEC
  0
EOF
