  0
SECTION
  2
HEADER
  9
$ACADVER
  1
AC1015
  9
$ACADMAINTVER
 70
    20
  9
$DWGCODEPAGE
  3
ANSI_932
  9
$INSBASE
 10
0.0
 20
0.0
 30
0.0
  9
$EXTMIN
 10
13845.59771503509
 20
2822.809791742034
 30
0.0
  9
$EXTMAX
 10
16995.59771503509
 20
7247.809791742034
 30
0.0
  9
$LIMMIN
 10
0.0
 20
0.0
  9
$LIMMAX
 10
297.0
 20
210.0
  9
$ORTHOMODE
 70
     1
  9
$REGENMODE
 70
     1
  9
$FILLMODE
 70
     1
  9
$QTEXTMODE
 70
     0
  9
$MIRRTEXT
 70
     0
  9
$LTSCALE
 40
75.0
  9
$ATTMODE
 70
     1
  9
$TEXTSIZE
 40
3.5
  9
$TRACEWID
 40
0.05
  9
$TEXTSTYLE
  7
STANDARD
  9
$CLAYER
  8
SP
  9
$CELTYPE
  6
BYLAYER
  9
$CECOLOR
 62
   256
  9
$CELTSCALE
 40
1.0
  9
$DISPSILH
 70
     0
  9
$DIMSCALE
 40
15.0
  9
$DIMASZ
 40
2.5
  9
$DIMEXO
 40
1.0
  9
$DIMDLI
 40
7.0
  9
$DIMRND
 40
0.0
  9
$DIMDLE
 40
0.0
  9
$DIMEXE
 40
1.0
  9
$DIMTP
 40
0.0
  9
$DIMTM
 40
0.0
  9
$DIMTXT
 40
3.0
  9
$DIMCEN
 40
0.0
  9
$DIMTSZ
 40
0.0
  9
$DIMTOL
 70
     0
  9
$DIMLIM
 70
     0
  9
$DIMTIH
 70
     0
  9
$DIMTOH
 70
     0
  9
$DIMSE1
 70
     0
  9
$DIMSE2
 70
     0
  9
$DIMTAD
 70
     1
  9
$DIMZIN
 70
     8
  9
$DIMBLK
  1

  9
$DIMASO
 70
     1
  9
$DIMSHO
 70
     1
  9
$DIMPOST
  1

  9
$DIMAPOST
  1

  9
$DIMALT
 70
     0
  9
$DIMALTD
 70
     2
  9
$DIMALTF
 40
0.03937
  9
$DIMLFAC
 40
1.0
  9
$DIMTOFL
 70
     1
  9
$DIMTVP
 40
0.0
  9
$DIMTIX
 70
     0
  9
$DIMSOXD
 70
     0
  9
$DIMSAH
 70
     1
  9
$DIMBLK1
  1
OPEN
  9
$DIMBLK2
  1
OPEN
  9
$DIMSTYLE
  2
GOD
  9
$DIMCLRD
 70
   256
  9
$DIMCLRE
 70
   256
  9
$DIMCLRT
 70
   256
  9
$DIMTFAC
 40
1.0
  9
$DIMGAP
 40
1.0
  9
$DIMJUST
 70
     0
  9
$DIMSD1
 70
     0
  9
$DIMSD2
 70
     0
  9
$DIMTOLJ
 70
     1
  9
$DIMTZIN
 70
     8
  9
$DIMALTZ
 70
     0
  9
$DIMALTTZ
 70
     0
  9
$DIMUPT
 70
     0
  9
$DIMDEC
 70
     2
  9
$DIMTDEC
 70
     2
  9
$DIMALTU
 70
     2
  9
$DIMALTTD
 70
     2
  9
$DIMTXSTY
  7
STANDARD
  9
$DIMAUNIT
 70
     0
  9
$DIMADEC
 70
     0
  9
$DIMALTRND
 40
0.0
  9
$DIMAZIN
 70
     0
  9
$DIMDSEP
 70
    46
  9
$DIMATFIT
 70
     0
  9
$DIMFRAC
 70
     0
  9
$DIMLDRBLK
  1
OPEN
  9
$DIMLUNIT
 70
     2
  9
$DIMLWD
 70
    -2
  9
$DIMLWE
 70
    -2
  9
$DIMTMOVE
 70
     0
  9
$LUNITS
 70
     2
  9
$LUPREC
 70
     3
  9
$SKETCHINC
 40
0.1
  9
$FILLETRAD
 40
0.0
  9
$AUNITS
 70
     0
  9
$AUPREC
 70
     2
  9
$MENU
  1
acad
  9
$ELEVATION
 40
0.0
  9
$PELEVATION
 40
0.0
  9
$THICKNESS
 40
0.0
  9
$LIMCHECK
 70
     0
  9
$CHAMFERA
 40
0.0
  9
$CHAMFERB
 40
0.0
  9
$CHAMFERC
 40
20.0
  9
$CHAMFERD
 40
0.0
  9
$SKPOLY
 70
     0
  9
$TDCREATE
 40
2454939.604632489
  9
$TDUCREATE
 40
2454939.229632489
  9
$TDUPDATE
 40
2459353.581444757
  9
$TDUUPDATE
 40
2459353.206444757
  9
$TDINDWG
 40
0.4773662847
  9
$TDUSRTIMER
 40
0.4773662847
  9
$USRTIMER
 70
     1
  9
$ANGBASE
 50
0.0
  9
$ANGDIR
 70
     0
  9
$PDMODE
 70
     0
  9
$PDSIZE
 40
1.0
  9
$PLINEWID
 40
0.0
  9
$SPLFRAME
 70
     0
  9
$SPLINETYPE
 70
     6
  9
$SPLINESEGS
 70
     8
  9
$HANDSEED
  5
647F
  9
$SURFTAB1
 70
     6
  9
$SURFTAB2
 70
     6
  9
$SURFTYPE
 70
     6
  9
$SURFU
 70
     6
  9
$SURFV
 70
     6
  9
$UCSBASE
  2

  9
$UCSNAME
  2

  9
$UCSORG
 10
0.0
 20
0.0
 30
0.0
  9
$UCSXDIR
 10
1.0
 20
0.0
 30
0.0
  9
$UCSYDIR
 10
0.0
 20
1.0
 30
0.0
  9
$UCSORTHOREF
  2

  9
$UCSORTHOVIEW
 70
     0
  9
$UCSORGTOP
 10
0.0
 20
0.0
 30
0.0
  9
$UCSORGBOTTOM
 10
0.0
 20
0.0
 30
0.0
  9
$UCSORGLEFT
 10
0.0
 20
0.0
 30
0.0
  9
$UCSORGRIGHT
 10
0.0
 20
0.0
 30
0.0
  9
$UCSORGFRONT
 10
0.0
 20
0.0
 30
0.0
  9
$UCSORGBACK
 10
0.0
 20
0.0
 30
0.0
  9
$PUCSBASE
  2

  9
$PUCSNAME
  2

  9
$PUCSORG
 10
0.0
 20
0.0
 30
0.0
  9
$PUCSXDIR
 10
1.0
 20
0.0
 30
0.0
  9
$PUCSYDIR
 10
0.0
 20
1.0
 30
0.0
  9
$PUCSORTHOREF
  2

  9
$PUCSORTHOVIEW
 70
     0
  9
$PUCSORGTOP
 10
0.0
 20
0.0
 30
0.0
  9
$PUCSORGBOTTOM
 10
0.0
 20
0.0
 30
0.0
  9
$PUCSORGLEFT
 10
0.0
 20
0.0
 30
0.0
  9
$PUCSORGRIGHT
 10
0.0
 20
0.0
 30
0.0
  9
$PUCSORGFRONT
 10
0.0
 20
0.0
 30
0.0
  9
$PUCSORGBACK
 10
0.0
 20
0.0
 30
0.0
  9
$USERI1
 70
     0
  9
$USERI2
 70
     0
  9
$USERI3
 70
     0
  9
$USERI4
 70
     0
  9
$USERI5
 70
     0
  9
$USERR1
 40
0.0
  9
$USERR2
 40
0.0
  9
$USERR3
 40
0.0
  9
$USERR4
 40
0.0
  9
$USERR5
 40
0.0
  9
$WORLDVIEW
 70
     1
  9
$SHADEDGE
 70
     3
  9
$SHADEDIF
 70
    70
  9
$TILEMODE
 70
     1
  9
$MAXACTVP
 70
    16
  9
$PINSBASE
 10
0.0
 20
0.0
 30
0.0
  9
$PLIMCHECK
 70
     0
  9
$PEXTMIN
 10
1.000000000000000E+20
 20
1.000000000000000E+20
 30
1.000000000000000E+20
  9
$PEXTMAX
 10
-1.000000000000000E+20
 20
-1.000000000000000E+20
 30
-1.000000000000000E+20
  9
$PLIMMIN
 10
0.0
 20
0.0
  9
$PLIMMAX
 10
12.0
 20
9.0
  9
$UNITMODE
 70
     0
  9
$VISRETAIN
 70
     0
  9
$PLINEGEN
 70
     0
  9
$PSLTSCALE
 70
     0
  9
$TREEDEPTH
 70
  3020
  9
$CMLSTYLE
  2
STANDARD
  9
$CMLJUST
 70
     0
  9
$CMLSCALE
 40
20.0
  9
$PROXYGRAPHICS
 70
     1
  9
$MEASUREMENT
 70
     1
  9
$CELWEIGHT
370
    -1
  9
$ENDCAPS
280
     0
  9
$JOINSTYLE
280
     0
  9
$LWDISPLAY
290
     0
  9
$INSUNITS
 70
     0
  9
$HYPERLINKBASE
  1

  9
$STYLESHEET
  1

  9
$XEDIT
290
     1
  9
$CEPSNTYPE
380
     0
  9
$PSTYLEMODE
290
     1
  9
$FINGERPRINTGUID
  2
{A0F129D1-2BC8-11D4-BF85-004026350B0A}
  9
$VERSIONGUID
  2
{55A48602-9032-CB47-90B4-AFDE5DD3E039}
  9
$EXTNAMES
290
     1
  9
$PSVPSCALE
 40
0.0
  9
$OLESTARTUP
290
     0
  0
ENDSEC
  0
SECTION
  2
CLASSES
  0
CLASS
  1
ACDBDICTIONARYWDFLT
  2
AcDbDictionaryWithDefault
  3
ObjectDBX Classes
 90
        0
280
     0
281
     0
  0
CLASS
  1
ACDBPLACEHOLDER
  2
AcDbPlaceHolder
  3
ObjectDBX Classes
 90
        0
280
     0
281
     0
  0
CLASS
  1
LAYOUT
  2
AcDbLayout
  3
ObjectDBX Classes
 90
        0
280
     0
281
     0
  0
CLASS
  1
MATERIAL
  2
AcDbMaterial
  3
ObjectDBX Classes
 90
     1153
280
     0
281
     0
  0
CLASS
  1
VISUALSTYLE
  2
AcDbVisualStyle
  3
ObjectDBX Classes
 90
     4095
280
     0
281
     0
  0
CLASS
  1
TABLESTYLE
  2
AcDbTableStyle
  3
ObjectDBX Classes
 90
     4095
280
     0
281
     0
  0
CLASS
  1
SCALE
  2
AcDbScale
  3
ObjectDBX Classes
 90
     1153
280
     0
281
     0
  0
CLASS
  1
MLEADERSTYLE
  2
AcDbMLeaderStyle
  3
ACDB_MLEADERSTYLE_CLASS
 90
     4095
280
     0
281
     0
  0
CLASS
  1
ACDBSECTIONVIEWSTYLE
  2
AcDbSectionViewStyle
  3
ObjectDBX Classes
 90
     1025
280
     0
281
     0
  0
CLASS
  1
ACDBDETAILVIEWSTYLE
  2
AcDbDetailViewStyle
  3
ObjectDBX Classes
 90
     1025
280
     0
281
     0
  0
CLASS
  1
DICTIONARYVAR
  2
AcDbDictionaryVar
  3
ObjectDBX Classes
 90
        0
280
     0
281
     0
  0
CLASS
  1
CELLSTYLEMAP
  2
AcDbCellStyleMap
  3
ObjectDBX Classes
 90
     1152
280
     0
281
     0
  0
ENDSEC
  0
SECTION
  2
TABLES
  0
TABLE
  2
VPORT
  5
8
330
0
100
AcDbSymbolTable
 70
     1
  0
VPORT
  5
6266
330
8
100
AcDbSymbolTableRecord
100
AcDbViewportTableRecord
  2
*Active
 70
     0
 10
0.0
 20
0.0
 11
1.0
 21
1.0
 12
15420.67306595806
 22
5347.715623947273
 13
0.0
 23
0.0
 14
5.0
 24
5.0
 15
0.0
 25
0.0
 16
0.0
 26
0.0
 36
1.0
 17
0.0
 27
0.0
 37
0.0
 40
5088.957713247484
 41
2.146341463414634
 42
50.0
 43
0.0
 44
0.0
 50
0.0
 51
0.0
 71
     0
 72
   100
 73
     1
 74
     0
 75
     0
 76
     0
 77
     0
 78
     0
281
     0
 65
     1
110
0.0
120
0.0
130
0.0
111
1.0
121
0.0
131
0.0
112
0.0
122
1.0
132
0.0
 79
     0
146
0.0
1001
ACAD_NAV_VCDISPLAY
1070
     3
  0
ENDTAB
  0
TABLE
  2
LTYPE
  5
5
330
0
100
AcDbSymbolTable
 70
     4
  0
LTYPE
  5
13
330
5
100
AcDbSymbolTableRecord
100
AcDbLinetypeTableRecord
  2
BYBLOCK
 70
     0
  3

 72
    65
 73
     0
 40
0.0
  0
LTYPE
  5
14
330
5
100
AcDbSymbolTableRecord
100
AcDbLinetypeTableRecord
  2
BYLAYER
 70
     0
  3

 72
    65
 73
     0
 40
0.0
  0
LTYPE
  5
15
330
5
100
AcDbSymbolTableRecord
100
AcDbLinetypeTableRecord
  2
CONTINUOUS
 70
     0
  3
Solid line
 72
    65
 73
     0
 40
0.0
  0
LTYPE
  5
1F
330
5
100
AcDbSymbolTableRecord
100
AcDbLinetypeTableRecord
  2
CENTER
 70
     0
  3
____ _ ____ _ ____ _ ____ _ ____ _ ____ _ ____ 
 72
    65
 73
     4
 40
2.0
 49
1.25
 74
     0
 49
-0.25
 74
     0
 49
0.25
 74
     0
 49
-0.25
 74
     0
  0
LTYPE
  5
20
330
5
100
AcDbSymbolTableRecord
100
AcDbLinetypeTableRecord
  2
HIDDEN
 70
     0
  3
__ __ __ __ __ __ __ __ __ __ __ __ __ __ __ __
 72
    65
 73
     2
 40
0.375
 49
0.25
 74
     0
 49
-0.125
 74
     0
  0
LTYPE
  5
21
330
5
100
AcDbSymbolTableRecord
100
AcDbLinetypeTableRecord
  2
PHANTOM
 70
     0
  3
______  __  __  ______  __  __  ______  __  __ 
 72
    65
 73
     6
 40
2.5
 49
1.25
 74
     0
 49
-0.25
 74
     0
 49
0.25
 74
     0
 49
-0.25
 74
     0
 49
0.25
 74
     0
 49
-0.25
 74
     0
  0
ENDTAB
  0
TABLE
  2
LAYER
  5
2
102
{ACAD_XDICTIONARY
360
63F2
102
}
330
0
100
AcDbSymbolTable
 70
    13
  0
LAYER
  5
F
102
{ACAD_XDICTIONARY
360
63D7
102
}
330
2
100
AcDbSymbolTableRecord
100
AcDbLayerTableRecord
  2
0
 70
     0
 62
     7
  6
CONTINUOUS
370
    -3
390
1E91
  0
LAYER
  5
2F
102
{ACAD_XDICTIONARY
360
63D9
102
}
330
2
100
AcDbSymbolTableRecord
100
AcDbLayerTableRecord
  2
CT
 70
     0
 62
     3
  6
CENTER
370
    -3
390
1E91
  0
LAYER
  5
30
102
{ACAD_XDICTIONARY
360
63DB
102
}
330
2
100
AcDbSymbolTableRecord
100
AcDbLayerTableRecord
  2
FUTO
 70
     0
 62
     4
  6
CONTINUOUS
370
    -3
390
1E91
  0
LAYER
  5
32
102
{ACAD_XDICTIONARY
360
63DD
102
}
330
2
100
AcDbSymbolTableRecord
100
AcDbLayerTableRecord
  2
HOSO
 70
     0
 62
     7
  6
CONTINUOUS
370
    -3
390
1E91
  0
LAYER
  5
33
102
{ACAD_XDICTIONARY
360
63DF
102
}
330
2
100
AcDbSymbolTableRecord
100
AcDbLayerTableRecord
  2
KL
 70
     0
 62
     7
  6
HIDDEN
370
    -3
390
1E91
  0
LAYER
  5
34
102
{ACAD_XDICTIONARY
360
63E1
102
}
330
2
100
AcDbSymbolTableRecord
100
AcDbLayerTableRecord
  2
MOJI
 70
     0
 62
     3
  6
CONTINUOUS
370
    -3
390
1E91
  0
LAYER
  5
35
102
{ACAD_XDICTIONARY
360
63E3
102
}
330
2
100
AcDbSymbolTableRecord
100
AcDbLayerTableRecord
  2
SL
 70
     0
 62
     1
  6
PHANTOM
370
    -3
390
1E91
  0
LAYER
  5
36
102
{ACAD_XDICTIONARY
360
63E5
102
}
330
2
100
AcDbSymbolTableRecord
100
AcDbLayerTableRecord
  2
SP
 70
     0
 62
     2
  6
CONTINUOUS
370
    -3
390
1E91
  0
LAYER
  5
1E9B
330
2
100
AcDbSymbolTableRecord
100
AcDbLayerTableRecord
  2
Defpoints
 70
     0
 62
     7
  6
CONTINUOUS
290
     0
370
    -3
390
1E91
  0
LAYER
  5
1EEE
102
{ACAD_XDICTIONARY
360
63E7
102
}
330
2
100
AcDbSymbolTableRecord
100
AcDbLayerTableRecord
  2
3
 70
     0
 62
    -2
  6
CONTINUOUS
370
    -3
390
1E91
  0
LAYER
  5
1EEF
102
{ACAD_XDICTIONARY
360
63E9
102
}
330
2
100
AcDbSymbolTableRecord
100
AcDbLayerTableRecord
  2
2
 70
     0
 62
     3
  6
CENTER
370
    -3
390
1E91
  0
LAYER
  5
1EF0
102
{ACAD_XDICTIONARY
360
63EB
102
}
330
2
100
AcDbSymbolTableRecord
100
AcDbLayerTableRecord
  2
1
 70
     0
 62
     4
  6
CONTINUOUS
370
    -3
390
1E91
  0
LAYER
  5
2188
102
{ACAD_XDICTIONARY
360
63ED
102
}
330
2
100
AcDbSymbolTableRecord
100
AcDbLayerTableRecord
  2
4
 70
     0
 62
     7
  6
CONTINUOUS
370
    -3
390
1E91
  0
ENDTAB
  0
TABLE
  2
STYLE
  5
3
330
0
100
AcDbSymbolTable
 70
     1
  0
STYLE
  5
10
330
3
100
AcDbSymbolTableRecord
100
AcDbTextStyleTableRecord
  2
STANDARD
 70
     0
 40
0.0
 41
1.0
 50
15.0
 71
     0
 42
3.5
  3
C:\Program Files\AutoCAD LT\simplex.shx
  4
C:\Program Files\AutoCAD LT\extfont.shx
  0
ENDTAB
  0
TABLE
  2
VIEW
  5
6
330
0
100
AcDbSymbolTable
 70
     0
  0
ENDTAB
  0
TABLE
  2
UCS
  5
7
330
0
100
AcDbSymbolTable
 70
     0
  0
ENDTAB
  0
TABLE
  2
APPID
  5
9
330
0
100
AcDbSymbolTable
 70
     5
  0
APPID
  5
11
330
9
100
AcDbSymbolTableRecord
100
AcDbRegAppTableRecord
  2
ACAD
 70
     0
  0
APPID
  5
6383
330
9
100
AcDbSymbolTableRecord
100
AcDbRegAppTableRecord
  2
ACAD_EXEMPT_FROM_CAD_STANDARDS
 70
     0
  0
APPID
  5
63C3
330
9
100
AcDbSymbolTableRecord
100
AcDbRegAppTableRecord
  2
AcadAnnoMonitorAlertIconDisabled
 70
     0
  0
APPID
  5
63F8
330
9
100
AcDbSymbolTableRecord
100
AcDbRegAppTableRecord
  2
ACAD_NAV_VCDISPLAY
 70
     0
  0
APPID
  5
647C
330
9
100
AcDbSymbolTableRecord
100
AcDbRegAppTableRecord
  2
ACAD_MLEADERVER
 70
     0
  0
ENDTAB
  0
TABLE
  2
DIMSTYLE
  5
A
330
0
100
AcDbSymbolTable
 70
     3
100
AcDbDimStyleTable
 71
     2
340
1E99
340
1D
  0
DIMSTYLE
105
1D
330
A
100
AcDbSymbolTableRecord
100
AcDbDimStyleTableRecord
  2
STANDARD
 70
     0
340
10
  0
DIMSTYLE
105
1E99
102
{ACAD_REACTORS
330
40F7
330
40EB
330
40E3
330
40E2
330
4490
330
448E
330
4CAC
330
4CE5
330
4CA3
330
5D91
330
5D94
330
5D95
330
5F10
330
5F0F
330
6092
330
638B
330
6398
102
}
330
A
100
AcDbSymbolTableRecord
100
AcDbDimStyleTableRecord
  2
GOD
 70
     0
 40
15.0
 41
2.5
 42
1.0
 43
7.0
 44
1.0
 73
     0
 74
     0
 77
     1
 78
     8
140
3.0
141
0.0
143
0.03937
147
1.0
172
     1
173
     1
176
   256
177
   256
178
   256
271
     2
272
     2
284
     8
289
     0
340
10
341
1E7F
343
1E7F
344
1E7F
  0
DIMSTYLE
105
1EF1
330
A
100
AcDbSymbolTableRecord
100
AcDbDimStyleTableRecord
  2
IGA
 70
     0
 40
2.0
 41
2.0
 42
0.5
 43
10.0
 44
1.0
 47
1.0
 48
1.0
 73
     0
 74
     0
 77
     1
 78
     8
140
3.0
141
0.0
143
0.03937
146
10.0
147
1.0
173
     1
271
     1
272
     0
279
     2
284
     8
340
10
341
1E7F
343
1E7F
344
1E7F
  0
ENDTAB
  0
TABLE
  2
BLOCK_RECORD
  5
1
330
0
100
AcDbSymbolTable
 70
    29
  0
BLOCK_RECORD
  5
19
330
1
100
AcDbSymbolTableRecord
100
AcDbBlockTableRecord
  2
*MODEL_SPACE
340
1E94
  0
BLOCK_RECORD
  5
16
330
1
100
AcDbSymbolTableRecord
100
AcDbBlockTableRecord
  2
*PAPER_SPACE
340
1E95
  0
BLOCK_RECORD
  5
1E7F
330
1
100
AcDbSymbolTableRecord
100
AcDbBlockTableRecord
  2
_OPEN
340
0
102
{BLKREFS
331
422C
331
422D
331
4235
331
4236
331
4250
331
4251
331
4262
331
4263
331
6374
331
6375
331
637D
331
637E
331
63BE
331
63BF
331
63D1
331
63D2
331
621E
331
621F
331
6227
331
6228
331
6233
331
6242
331
6243
331
6254
331
6255
331
4D54
331
4D55
331
4D5D
331
4D5E
331
4D66
331
4D67
102
}
  0
BLOCK_RECORD
  5
1EB4
330
1
100
AcDbSymbolTableRecord
100
AcDbBlockTableRecord
  2
_Dot
340
0
102
{BLKREFS
331
6232
102
}
  0
BLOCK_RECORD
  5
22E5
330
1
100
AcDbSymbolTableRecord
100
AcDbBlockTableRecord
  2
A$C5EBD6DA5
340
0
  0
BLOCK_RECORD
  5
3F67
330
1
100
AcDbSymbolTableRecord
100
AcDbBlockTableRecord
  2
A$C2860434C
340
0
  0
BLOCK_RECORD
  5
4157
330
1
100
AcDbSymbolTableRecord
100
AcDbBlockTableRecord
  2
*D4
340
0
  0
BLOCK_RECORD
  5
4163
330
1
100
AcDbSymbolTableRecord
100
AcDbBlockTableRecord
  2
*D5
340
0
  0
BLOCK_RECORD
  5
4193
330
1
100
AcDbSymbolTableRecord
100
AcDbBlockTableRecord
  2
*D6
340
0
  0
BLOCK_RECORD
  5
419F
330
1
100
AcDbSymbolTableRecord
100
AcDbBlockTableRecord
  2
*D7
340
0
  0
BLOCK_RECORD
  5
44DA
330
1
100
AcDbSymbolTableRecord
100
AcDbBlockTableRecord
  2
*D8
340
0
  0
BLOCK_RECORD
  5
44E6
330
1
100
AcDbSymbolTableRecord
100
AcDbBlockTableRecord
  2
*D9
340
0
  0
BLOCK_RECORD
  5
4D0B
330
1
100
AcDbSymbolTableRecord
100
AcDbBlockTableRecord
  2
*D11
340
0
  0
BLOCK_RECORD
  5
4D17
330
1
100
AcDbSymbolTableRecord
100
AcDbBlockTableRecord
  2
*D12
340
0
  0
BLOCK_RECORD
  5
4D23
330
1
100
AcDbSymbolTableRecord
100
AcDbBlockTableRecord
  2
*D13
340
0
  0
BLOCK_RECORD
  5
5AD4
330
1
100
AcDbSymbolTableRecord
100
AcDbBlockTableRecord
  2
_None
340
0
  0
BLOCK_RECORD
  5
5DA8
330
1
100
AcDbSymbolTableRecord
100
AcDbBlockTableRecord
  2
*D15
340
0
  0
BLOCK_RECORD
  5
5DB4
330
1
100
AcDbSymbolTableRecord
100
AcDbBlockTableRecord
  2
*D16
340
0
  0
BLOCK_RECORD
  5
5DC0
330
1
100
AcDbSymbolTableRecord
100
AcDbBlockTableRecord
  2
*D17
340
0
  0
BLOCK_RECORD
  5
5F11
330
1
100
AcDbSymbolTableRecord
100
AcDbBlockTableRecord
  2
*D18
340
0
  0
BLOCK_RECORD
  5
5F1F
330
1
100
AcDbSymbolTableRecord
100
AcDbBlockTableRecord
  2
*D19
340
0
  0
BLOCK_RECORD
  5
6096
330
1
100
AcDbSymbolTableRecord
100
AcDbBlockTableRecord
  2
*D20
340
0
  0
BLOCK_RECORD
  5
638C
330
1
100
AcDbSymbolTableRecord
100
AcDbBlockTableRecord
  2
*D27
340
0
  0
BLOCK_RECORD
  5
6399
330
1
100
AcDbSymbolTableRecord
100
AcDbBlockTableRecord
  2
*D28
340
0
  0
ENDTAB
  0
ENDSEC
  0
SECTION
  2
BLOCKS
  0
BLOCK
  5
1A
330
19
100
AcDbEntity
  8
0
100
AcDbBlockBegin
  2
*MODEL_SPACE
 70
     0
 10
0.0
 20
0.0
 30
0.0
  3
*MODEL_SPACE
  1

  0
ENDBLK
  5
1B
330
19
100
AcDbEntity
  8
0
100
AcDbBlockEnd
  0
BLOCK
  5
17
330
16
100
AcDbEntity
 67
     1
  8
0
100
AcDbBlockBegin
  2
*PAPER_SPACE
 70
     0
 10
0.0
 20
0.0
 30
0.0
  3
*PAPER_SPACE
  1

  0
ENDBLK
  5
18
330
16
100
AcDbEntity
 67
     1
  8
0
100
AcDbBlockEnd
  0
BLOCK
  5
1E80
330
1E7F
100
AcDbEntity
  8
0
100
AcDbBlockBegin
  2
_OPEN
 70
     0
 10
0.0
 20
0.0
 30
0.0
  3
_OPEN
  1

  0
LINE
  5
1E81
330
1E7F
100
AcDbEntity
  8
0
  6
ByBlock
 62
     0
100
AcDbLine
 10
-1.0
 20
0.1666666666666666
 30
0.0
 11
0.0
 21
0.0
 31
0.0
  0
LINE
  5
1E82
330
1E7F
100
AcDbEntity
  8
0
  6
ByBlock
 62
     0
100
AcDbLine
 10
0.0
 20
0.0
 30
0.0
 11
-1.0
 21
-0.1666666666666666
 31
0.0
  0
LINE
  5
1E83
330
1E7F
100
AcDbEntity
  8
0
  6
ByBlock
 62
     0
100
AcDbLine
 10
0.0
 20
0.0
 30
0.0
 11
-1.0
 21
0.0
 31
0.0
  0
ENDBLK
  5
1E84
330
1E7F
100
AcDbEntity
  8
0
100
AcDbBlockEnd
  0
BLOCK
  5
1EB7
330
1EB4
100
AcDbEntity
  8
0
100
AcDbBlockBegin
  2
_Dot
 70
     0
 10
0.0
 20
0.0
 30
0.0
  3
_Dot
  1

  0
LINE
  5
1EC3
330
1EB4
100
AcDbEntity
  8
0
  6
ByBlock
 62
     0
100
AcDbLine
 10
0.0
 20
0.0
 30
0.0
 11
-1.0
 21
-0.0000000000000284
 31
0.0
  0
LWPOLYLINE
  5
1EC4
330
1EB4
100
AcDbEntity
  8
0
  6
ByBlock
 62
     0
100
AcDbPolyline
 90
        2
 70
     1
 43
0.1666666666666666
 10
-0.0833333333333286
 20
-0.0000000000000284
 42
1.0
 10
0.0833333333333286
 20
-0.0000000000000284
 42
1.0
  0
ENDBLK
  5
1EB8
330
1EB4
100
AcDbEntity
  8
0
100
AcDbBlockEnd
  0
BLOCK
  5
22ED
330
22E5
100
AcDbEntity
  8
0
100
AcDbBlockBegin
  2
A$C5EBD6DA5
 70
     0
 10
0.0
 20
0.0
 30
0.0
  3
A$C5EBD6DA5
  1

  0
LWPOLYLINE
  5
22E6
330
22E5
100
AcDbEntity
  8
1
100
AcDbPolyline
 90
        2
 70
     0
 43
0.0
 10
8.000000000002728
 20
-181.5000000000009
 10
8.000000000000909
 20
181.5000000000009
  0
LINE
  5
22E7
330
22E5
100
AcDbEntity
  8
1
100
AcDbLine
 10
1.000000000000909
 20
182.5000000000009
 30
0.0
 11
7.000000000002728
 21
182.5000000000009
 31
0.0
  0
ARC
  5
22E8
330
22E5
100
AcDbEntity
  8
1
100
AcDbCircle
 10
1.000000000000909
 20
183.5000000000009
 30
0.0
 40
1.0
100
AcDbArc
 50
180.0
 51
270.0
  0
LINE
  5
22E9
330
22E5
100
AcDbEntity
  8
1
100
AcDbLine
 10
1.000000000000909
 20
-182.5000000000009
 30
0.0
 11
7.000000000002728
 21
-182.5000000000009
 31
0.0
  0
ARC
  5
22EA
330
22E5
100
AcDbEntity
  8
1
100
AcDbCircle
 10
1.000000000000909
 20
-183.5000000000009
 30
0.0
 40
1.0
100
AcDbArc
 50
90.0
 51
180.0
  0
ARC
  5
22EB
330
22E5
100
AcDbEntity
  8
1
100
AcDbCircle
 10
7.000000000000909
 20
-181.5000000000009
 30
0.0
 40
1.0
100
AcDbArc
 50
270.0
 51
0.0
  0
ARC
  5
22EC
330
22E5
100
AcDbEntity
  8
1
100
AcDbCircle
 10
7.000000000000909
 20
181.5000000000009
 30
0.0
 40
1.0
100
AcDbArc
 50
0.0
 51
90.0
  0
ENDBLK
  5
22EE
330
22E5
100
AcDbEntity
  8
0
100
AcDbBlockEnd
  0
BLOCK
  5
3F70
330
3F67
100
AcDbEntity
  8
0
100
AcDbBlockBegin
  2
A$C2860434C
 70
     0
 10
0.0
 20
0.0
 30
0.0
  3
A$C2860434C
  1

  0
LINE
  5
3F68
330
3F67
100
AcDbEntity
  8
FUTO
100
AcDbLine
 10
46.80127011642617
 20
-0.0000088960860012
 30
0.0
 11
8.586023312103861
 21
70.14998454137458
 31
0.0
  0
LINE
  5
3F69
330
3F67
100
AcDbEntity
  8
FUTO
100
AcDbLine
 10
-0.0000161416137416
 20
53.3499845413753
 30
0.0
 11
1.599983858386622
 21
53.3499845413753
 31
0.0
  0
LINE
  5
3F6A
330
3F67
100
AcDbEntity
  8
FUTO
100
AcDbLine
 10
-0.0000161416137416
 20
53.3499845413753
 30
0.0
 11
-0.0000161416137416
 21
68.54998454137422
 31
0.0
  0
LINE
  5
3F6B
330
3F67
100
AcDbEntity
  8
FUTO
100
AcDbLine
 10
1.599983858386622
 20
53.3499845413753
 30
0.0
 11
1.599983858386622
 21
68.54998454137422
 31
0.0
  0
LINE
  5
3F6C
330
3F67
100
AcDbEntity
  8
FUTO
100
AcDbLine
 10
3.199983858386985
 20
70.14998454137458
 30
0.0
 11
91.76921462761674
 21
70.14998454137094
 31
0.0
  0
LINE
  5
3F6D
330
3F67
100
AcDbEntity
  8
FUTO
100
AcDbLine
 10
3.199983858386985
 20
71.74998454137313
 30
0.0
 11
92.79485565325741
 21
71.74998454137313
 31
0.0
  0
ARC
  5
3F6E
330
3F67
100
AcDbEntity
  8
FUTO
100
AcDbCircle
 10
3.199983858386985
 20
68.54998454137422
 30
0.0
 40
3.2
100
AcDbArc
 50
90.0
 51
180.0
  0
ARC
  5
3F6F
330
3F67
100
AcDbEntity
  8
FUTO
100
AcDbCircle
 10
3.199983858386985
 20
68.54998454137422
 30
0.0
 40
1.6
100
AcDbArc
 50
90.0
 51
180.0
  0
ENDBLK
  5
3F71
330
3F67
100
AcDbEntity
  8
0
100
AcDbBlockEnd
  0
BLOCK
  5
4161
330
4157
100
AcDbEntity
  8
0
100
AcDbBlockBegin
  2
*D4
 70
     1
 10
0.0
 20
0.0
 30
0.0
  3
*D4
  1

  0
LINE
  5
425F
330
4157
100
AcDbEntity
  8
SP
370
    -2
100
AcDbLine
 10
14623.49800636368
 20
4502.635294509082
 30
0.0
 11
14557.80003186733
 21
4502.635294509082
 31
0.0
  0
LINE
  5
4260
330
4157
100
AcDbEntity
  8
SP
370
    -2
100
AcDbLine
 10
14891.30003186733
 20
4752.635294509075
 30
0.0
 11
14557.80003186733
 21
4752.635294509075
 31
0.0
  0
LINE
  5
4261
330
4157
100
AcDbEntity
  8
SP
370
    -2
100
AcDbLine
 10
14572.80003186733
 20
4540.135294509082
 30
0.0
 11
14572.80003186733
 21
4715.135294509075
 31
0.0
  0
INSERT
  5
4262
330
4157
100
AcDbEntity
  8
SP
370
    -2
100
AcDbBlockReference
  2
_OPEN
 10
14572.80003186733
 20
4502.635294509082
 30
0.0
 41
37.5
 42
37.5
 43
37.5
 50
270.0
  0
INSERT
  5
4263
330
4157
100
AcDbEntity
  8
SP
370
    -2
100
AcDbBlockReference
  2
_OPEN
 10
14572.80003186733
 20
4752.635294509075
 30
0.0
 41
37.5
 42
37.5
 43
37.5
 50
90.0
  0
MTEXT
  5
4264
330
4157
100
AcDbEntity
  8
SP
100
AcDbMText
 10
14535.30003186733
 20
4627.635294509081
 30
0.0
 40
45.0
 41
0.0
 71
     5
 72
     1
  1
\A1;250
 11
0.0000000000000001
 21
1.0
 31
0.0
 73
     1
 44
1.0
1001
ACAD
1000
MTEXTBEGIN
1070
    73
1070
     1
1070
    44
1040
1.0
1070
    74
1070
     0
1000
MTEXTEND
  0
POINT
  5
4265
330
4157
100
AcDbEntity
  8
Defpoints
 62
     0
100
AcDbPoint
 10
14638.49800636368
 20
4502.635294509082
 30
0.0
  0
POINT
  5
4266
330
4157
100
AcDbEntity
  8
Defpoints
 62
     0
100
AcDbPoint
 10
14906.30003186733
 20
4752.635294509075
 30
0.0
  0
POINT
  5
4267
330
4157
100
AcDbEntity
  8
Defpoints
 62
     0
100
AcDbPoint
 10
14572.80003186733
 20
4752.635294509075
 30
0.0
  0
ENDBLK
  5
4162
330
4157
100
AcDbEntity
  8
0
100
AcDbBlockEnd
  0
BLOCK
  5
416D
330
4163
100
AcDbEntity
  8
0
100
AcDbBlockBegin
  2
*D5
 70
     1
 10
0.0
 20
0.0
 30
0.0
  3
*D5
  1

  0
LINE
  5
424D
330
4163
100
AcDbEntity
  8
SP
370
    -2
100
AcDbLine
 10
14662.80003186733
 20
4147.635294509082
 30
0.0
 11
14557.80003186734
 21
4147.635294509082
 31
0.0
  0
LINE
  5
424E
330
4163
100
AcDbEntity
  8
SP
370
    -2
100
AcDbLine
 10
14623.49800636368
 20
4502.635294509082
 30
0.0
 11
14557.80003186734
 21
4502.635294509082
 31
0.0
  0
LINE
  5
424F
330
4163
100
AcDbEntity
  8
SP
370
    -2
100
AcDbLine
 10
14572.80003186734
 20
4185.135294509082
 30
0.0
 11
14572.80003186734
 21
4465.135294509082
 31
0.0
  0
INSERT
  5
4250
330
4163
100
AcDbEntity
  8
SP
370
    -2
100
AcDbBlockReference
  2
_OPEN
 10
14572.80003186734
 20
4147.635294509082
 30
0.0
 41
37.5
 42
37.5
 43
37.5
 50
270.0
  0
INSERT
  5
4251
330
4163
100
AcDbEntity
  8
SP
370
    -2
100
AcDbBlockReference
  2
_OPEN
 10
14572.80003186734
 20
4502.635294509082
 30
0.0
 41
37.5
 42
37.5
 43
37.5
 50
90.0
  0
MTEXT
  5
4252
330
4163
100
AcDbEntity
  8
SP
100
AcDbMText
 10
14535.30003186734
 20
4325.135294509085
 30
0.0
 40
45.0
 41
0.0
 71
     5
 72
     1
  1
\A1;355
 11
0.0000000000000001
 21
1.0
 31
0.0
 73
     1
 44
1.0
1001
ACAD
1000
MTEXTBEGIN
1070
    73
1070
     1
1070
    44
1040
1.0
1070
    74
1070
     0
1000
MTEXTEND
  0
POINT
  5
4253
330
4163
100
AcDbEntity
  8
Defpoints
 62
     0
100
AcDbPoint
 10
14677.80003186733
 20
4147.635294509082
 30
0.0
  0
POINT
  5
4254
330
4163
100
AcDbEntity
  8
Defpoints
 62
     0
100
AcDbPoint
 10
14638.49800636368
 20
4502.635294509082
 30
0.0
  0
POINT
  5
4255
330
4163
100
AcDbEntity
  8
Defpoints
 62
     0
100
AcDbPoint
 10
14572.80003186734
 20
4502.635294509082
 30
0.0
  0
ENDBLK
  5
416E
330
4163
100
AcDbEntity
  8
0
100
AcDbBlockEnd
  0
BLOCK
  5
419D
330
4193
100
AcDbEntity
  8
0
100
AcDbBlockBegin
  2
*D6
 70
     1
 10
0.0
 20
0.0
 30
0.0
  3
*D6
  1

  0
LINE
  5
4232
330
4193
100
AcDbEntity
  8
SP
370
    -2
100
AcDbLine
 10
15242.80003186733
 20
4767.635294509086
 30
0.0
 11
15242.80003186733
 21
4872.635294509076
 31
0.0
  0
LINE
  5
4233
330
4193
100
AcDbEntity
  8
SP
370
    -2
100
AcDbLine
 10
14927.80003186734
 20
4790.633820463165
 30
0.0
 11
14927.80003186734
 21
4872.635294509076
 31
0.0
  0
LINE
  5
4234
330
4193
100
AcDbEntity
  8
SP
370
    -2
100
AcDbLine
 10
15205.30003186733
 20
4857.635294509076
 30
0.0
 11
14965.30003186734
 21
4857.635294509076
 31
0.0
  0
INSERT
  5
4235
330
4193
100
AcDbEntity
  8
SP
370
    -2
100
AcDbBlockReference
  2
_OPEN
 10
15242.80003186733
 20
4857.635294509076
 30
0.0
 41
37.5
 42
37.5
 43
37.5
  0
INSERT
  5
4236
330
4193
100
AcDbEntity
  8
SP
370
    -2
100
AcDbBlockReference
  2
_OPEN
 10
14927.80003186734
 20
4857.635294509076
 30
0.0
 41
37.5
 42
37.5
 43
37.5
 50
180.0
  0
MTEXT
  5
4237
330
4193
100
AcDbEntity
  8
SP
100
AcDbMText
 10
15085.30003186733
 20
4895.135294509076
 30
0.0
 40
45.0
 41
0.0
 71
     5
 72
     1
  1
\A1;315
 73
     1
 44
1.0
1001
ACAD
1000
MTEXTBEGIN
1070
    73
1070
     1
1070
    44
1040
1.0
1070
    74
1070
     0
1000
MTEXTEND
  0
POINT
  5
4238
330
4193
100
AcDbEntity
  8
Defpoints
 62
     0
100
AcDbPoint
 10
15242.80003186733
 20
4752.635294509087
 30
0.0
  0
POINT
  5
4239
330
4193
100
AcDbEntity
  8
Defpoints
 62
     0
100
AcDbPoint
 10
14927.80003186734
 20
4775.633820463164
 30
0.0
  0
POINT
  5
423A
330
4193
100
AcDbEntity
  8
Defpoints
 62
     0
100
AcDbPoint
 10
14927.80003186734
 20
4857.635294509076
 30
0.0
  0
ENDBLK
  5
419E
330
4193
100
AcDbEntity
  8
0
100
AcDbBlockEnd
  0
BLOCK
  5
41A9
330
419F
100
AcDbEntity
  8
0
100
AcDbBlockBegin
  2
*D7
 70
     1
 10
0.0
 20
0.0
 30
0.0
  3
*D7
  1

  0
LINE
  5
4229
330
419F
100
AcDbEntity
  8
SP
370
    -2
100
AcDbLine
 10
14927.80003186734
 20
4790.633820463165
 30
0.0
 11
14927.80003186734
 21
4872.635294509077
 31
0.0
  0
LINE
  5
422A
330
419F
100
AcDbEntity
  8
SP
370
    -2
100
AcDbLine
 10
14705.51281175086
 20
4494.781590644274
 30
0.0
 11
14705.51281175086
 21
4872.635294509077
 31
0.0
  0
LINE
  5
422B
330
419F
100
AcDbEntity
  8
SP
370
    -2
100
AcDbLine
 10
14890.30003186734
 20
4857.635294509076
 30
0.0
 11
14743.01281175086
 21
4857.635294509076
 31
0.0
  0
INSERT
  5
422C
330
419F
100
AcDbEntity
  8
SP
370
    -2
100
AcDbBlockReference
  2
_OPEN
 10
14927.80003186734
 20
4857.635294509076
 30
0.0
 41
37.5
 42
37.5
 43
37.5
  0
INSERT
  5
422D
330
419F
100
AcDbEntity
  8
SP
370
    -2
100
AcDbBlockReference
  2
_OPEN
 10
14705.51281175086
 20
4857.635294509076
 30
0.0
 41
37.5
 42
37.5
 43
37.5
 50
180.0
  0
MTEXT
  5
422E
330
419F
100
AcDbEntity
  8
SP
100
AcDbMText
 10
14816.6564218091
 20
4895.135294509077
 30
0.0
 40
45.0
 41
0.0
 71
     5
 72
     1
  1
\A1;222
 73
     1
 44
1.0
1001
ACAD
1000
MTEXTBEGIN
1070
    73
1070
     1
1070
    44
1040
1.0
1070
    74
1070
     0
1000
MTEXTEND
  0
POINT
  5
422F
330
419F
100
AcDbEntity
  8
Defpoints
 62
     0
100
AcDbPoint
 10
14927.80003186734
 20
4775.633820463164
 30
0.0
  0
POINT
  5
4230
330
419F
100
AcDbEntity
  8
Defpoints
 62
     0
100
AcDbPoint
 10
14705.51281175086
 20
4479.781590644273
 30
0.0
  0
POINT
  5
4231
330
419F
100
AcDbEntity
  8
Defpoints
 62
     0
100
AcDbPoint
 10
14705.51281175086
 20
4857.635294509076
 30
0.0
  0
ENDBLK
  5
41AA
330
419F
100
AcDbEntity
  8
0
100
AcDbBlockEnd
  0
BLOCK
  5
44E4
330
44DA
100
AcDbEntity
  8
0
100
AcDbBlockBegin
  2
*D8
 70
     1
 10
0.0
 20
0.0
 30
0.0
  3
*D8
  1

  0
LINE
  5
637A
330
44DA
100
AcDbEntity
  8
SP
370
    -2
100
AcDbLine
 10
16066.37511013998
 20
4767.635294509084
 30
0.0
 11
16066.37511013998
 21
4872.75139915572
 31
0.0
  0
LINE
  5
637B
330
44DA
100
AcDbEntity
  8
SP
370
    -2
100
AcDbLine
 10
16290.37511013998
 20
4767.635294509084
 30
0.0
 11
16290.37511013998
 21
4872.75139915572
 31
0.0
  0
LINE
  5
637C
330
44DA
100
AcDbEntity
  8
SP
370
    -2
100
AcDbLine
 10
16103.87511013998
 20
4857.751399155721
 30
0.0
 11
16252.87511013998
 21
4857.751399155721
 31
0.0
  0
INSERT
  5
637D
330
44DA
100
AcDbEntity
  8
SP
370
    -2
100
AcDbBlockReference
  2
_OPEN
 10
16066.37511013998
 20
4857.751399155721
 30
0.0
 41
37.5
 42
37.5
 43
37.5
 50
180.0
  0
INSERT
  5
637E
330
44DA
100
AcDbEntity
  8
SP
370
    -2
100
AcDbBlockReference
  2
_OPEN
 10
16290.37511013998
 20
4857.751399155721
 30
0.0
 41
37.5
 42
37.5
 43
37.5
  0
MTEXT
  5
637F
330
44DA
100
AcDbEntity
  8
SP
100
AcDbMText
 10
16178.37511013998
 20
4895.251399155721
 30
0.0
 40
45.0
 41
0.0
 71
     5
 72
     1
  1
\A1;224
 73
     1
 44
1.0
1001
ACAD
1000
MTEXTBEGIN
1070
    73
1070
     1
1070
    44
1040
1.0
1070
    74
1070
     0
1000
MTEXTEND
  0
POINT
  5
6380
330
44DA
100
AcDbEntity
  8
Defpoints
 62
     0
100
AcDbPoint
 10
16066.37511013998
 20
4752.635294509084
 30
0.0
  0
POINT
  5
6381
330
44DA
100
AcDbEntity
  8
Defpoints
 62
     0
100
AcDbPoint
 10
16290.37511013998
 20
4752.635294509084
 30
0.0
  0
POINT
  5
6382
330
44DA
100
AcDbEntity
  8
Defpoints
 62
     0
100
AcDbPoint
 10
16290.37511013998
 20
4857.751399155721
 30
0.0
  0
ENDBLK
  5
44E5
330
44DA
100
AcDbEntity
  8
0
100
AcDbBlockEnd
  0
BLOCK
  5
44F0
330
44E6
100
AcDbEntity
  8
0
100
AcDbBlockBegin
  2
*D9
 70
     1
 10
0.0
 20
0.0
 30
0.0
  3
*D9
  1

  0
LINE
  5
6371
330
44E6
100
AcDbEntity
  8
SP
370
    -2
100
AcDbLine
 10
16178.37511013998
 20
4932.751399155721
 30
0.0
 11
16178.37511013998
 21
4977.635294509084
 31
0.0
  0
LINE
  5
6372
330
44E6
100
AcDbEntity
  8
SP
370
    -2
100
AcDbLine
 10
16299.37511013998
 20
4699.13529450908
 30
0.0
 11
16299.37511013998
 21
4977.635294509084
 31
0.0
  0
LINE
  5
6373
330
44E6
100
AcDbEntity
  8
SP
370
    -2
100
AcDbLine
 10
16215.87511013998
 20
4962.635294509084
 30
0.0
 11
16261.87511013998
 21
4962.635294509084
 31
0.0
  0
INSERT
  5
6374
330
44E6
100
AcDbEntity
  8
SP
370
    -2
100
AcDbBlockReference
  2
_OPEN
 10
16178.37511013998
 20
4962.635294509084
 30
0.0
 41
37.5
 42
37.5
 43
37.5
 50
180.0
  0
INSERT
  5
6375
330
44E6
100
AcDbEntity
  8
SP
370
    -2
100
AcDbBlockReference
  2
_OPEN
 10
16299.37511013998
 20
4962.635294509084
 30
0.0
 41
37.5
 42
37.5
 43
37.5
  0
MTEXT
  5
6376
330
44E6
100
AcDbEntity
  8
SP
100
AcDbMText
 10
16238.87511013998
 20
5000.135294509084
 30
0.0
 40
45.0
 41
0.0
 71
     5
 72
     1
  1
\A1;121
 73
     1
 44
1.0
1001
ACAD
1000
MTEXTBEGIN
1070
    73
1070
     1
1070
    44
1040
1.0
1070
    74
1070
     0
1000
MTEXTEND
  0
POINT
  5
6377
330
44E6
100
AcDbEntity
  8
Defpoints
 62
     0
100
AcDbPoint
 10
16178.37511013998
 20
4917.75139915572
 30
0.0
  0
POINT
  5
6378
330
44E6
100
AcDbEntity
  8
Defpoints
 62
     0
100
AcDbPoint
 10
16299.37511013998
 20
4684.13529450908
 30
0.0
  0
POINT
  5
6379
330
44E6
100
AcDbEntity
  8
Defpoints
 62
     0
100
AcDbPoint
 10
16299.37511013998
 20
4962.635294509084
 30
0.0
  0
ENDBLK
  5
44F1
330
44E6
100
AcDbEntity
  8
0
100
AcDbBlockEnd
  0
BLOCK
  5
4D15
330
4D0B
100
AcDbEntity
  8
0
100
AcDbBlockBegin
  2
*D11
 70
     1
 10
0.0
 20
0.0
 30
0.0
  3
*D11
  1

  0
LINE
  5
4D5A
330
4D0B
100
AcDbEntity
  8
SP
370
    -2
100
AcDbLine
 10
15177.80003186734
 20
5407.362935220169
 30
0.0
 11
15177.80003186734
 21
5301.28545370638
 31
0.0
  0
LINE
  5
4D5B
330
4D0B
100
AcDbEntity
  8
SP
370
    -2
100
AcDbLine
 10
14677.80003186734
 20
5407.362935220169
 30
0.0
 11
14677.80003186734
 21
5301.28545370638
 31
0.0
  0
LINE
  5
4D5C
330
4D0B
100
AcDbEntity
  8
SP
370
    -2
100
AcDbLine
 10
15140.30003186734
 20
5316.285453706379
 30
0.0
 11
14715.30003186734
 21
5316.285453706379
 31
0.0
  0
INSERT
  5
4D5D
330
4D0B
100
AcDbEntity
  8
SP
370
    -2
100
AcDbBlockReference
  2
_OPEN
 10
15177.80003186734
 20
5316.285453706379
 30
0.0
 41
37.5
 42
37.5
 43
37.5
  0
INSERT
  5
4D5E
330
4D0B
100
AcDbEntity
  8
SP
370
    -2
100
AcDbBlockReference
  2
_OPEN
 10
14677.80003186734
 20
5316.285453706379
 30
0.0
 41
37.5
 42
37.5
 43
37.5
 50
180.0
  0
MTEXT
  5
4D5F
330
4D0B
100
AcDbEntity
  8
SP
100
AcDbMText
 10
14927.80003186734
 20
5353.785453706379
 30
0.0
 40
45.0
 41
0.0
 71
     5
 72
     1
  1
\A1;500
 73
     1
 44
1.0
1001
ACAD
1000
MTEXTBEGIN
1070
    73
1070
     1
1070
    44
1040
1.0
1070
    74
1070
     0
1000
MTEXTEND
  0
POINT
  5
4D60
330
4D0B
100
AcDbEntity
  8
Defpoints
 62
     0
100
AcDbPoint
 10
15177.80003186734
 20
5422.362935220169
 30
0.0
  0
POINT
  5
4D61
330
4D0B
100
AcDbEntity
  8
Defpoints
 62
     0
100
AcDbPoint
 10
14677.80003186734
 20
5422.362935220169
 30
0.0
  0
POINT
  5
4D62
330
4D0B
100
AcDbEntity
  8
Defpoints
 62
     0
100
AcDbPoint
 10
14677.80003186734
 20
5316.285453706379
 30
0.0
  0
ENDBLK
  5
4D16
330
4D0B
100
AcDbEntity
  8
0
100
AcDbBlockEnd
  0
BLOCK
  5
4D21
330
4D17
100
AcDbEntity
  8
0
100
AcDbBlockBegin
  2
*D12
 70
     1
 10
0.0
 20
0.0
 30
0.0
  3
*D12
  1

  0
LINE
  5
4D63
330
4D17
100
AcDbEntity
  8
SP
370
    -2
100
AcDbLine
 10
14662.80003186734
 20
5732.362935220167
 30
0.0
 11
14538.48209998095
 21
5732.362935220167
 31
0.0
  0
LINE
  5
4D64
330
4D17
100
AcDbEntity
  8
SP
370
    -2
100
AcDbLine
 10
14662.80003186734
 20
5422.362935220169
 30
0.0
 11
14538.48209998095
 21
5422.362935220169
 31
0.0
  0
LINE
  5
4D65
330
4D17
100
AcDbEntity
  8
SP
370
    -2
100
AcDbLine
 10
14553.48209998095
 20
5694.862935220167
 30
0.0
 11
14553.48209998095
 21
5459.862935220169
 31
0.0
  0
INSERT
  5
4D66
330
4D17
100
AcDbEntity
  8
SP
370
    -2
100
AcDbBlockReference
  2
_OPEN
 10
14553.48209998095
 20
5732.362935220167
 30
0.0
 41
37.5
 42
37.5
 43
37.5
 50
90.0
  0
INSERT
  5
4D67
330
4D17
100
AcDbEntity
  8
SP
370
    -2
100
AcDbBlockReference
  2
_OPEN
 10
14553.48209998095
 20
5422.362935220169
 30
0.0
 41
37.5
 42
37.5
 43
37.5
 50
270.0
  0
MTEXT
  5
4D68
330
4D17
100
AcDbEntity
  8
SP
100
AcDbMText
 10
14515.98209998095
 20
5577.362935220171
 30
0.0
 40
45.0
 41
0.0
 71
     5
 72
     1
  1
\A1;310
 11
0.0000000000000001
 21
1.0
 31
0.0
 73
     1
 44
1.0
1001
ACAD
1000
MTEXTBEGIN
1070
    73
1070
     1
1070
    44
1040
1.0
1070
    74
1070
     0
1000
MTEXTEND
  0
POINT
  5
4D69
330
4D17
100
AcDbEntity
  8
Defpoints
 62
     0
100
AcDbPoint
 10
14677.80003186734
 20
5732.362935220167
 30
0.0
  0
POINT
  5
4D6A
330
4D17
100
AcDbEntity
  8
Defpoints
 62
     0
100
AcDbPoint
 10
14677.80003186734
 20
5422.362935220169
 30
0.0
  0
POINT
  5
4D6B
330
4D17
100
AcDbEntity
  8
Defpoints
 62
     0
100
AcDbPoint
 10
14553.48209998095
 20
5422.362935220169
 30
0.0
  0
ENDBLK
  5
4D22
330
4D17
100
AcDbEntity
  8
0
100
AcDbBlockEnd
  0
BLOCK
  5
4D2F
330
4D23
100
AcDbEntity
  8
0
100
AcDbBlockBegin
  2
*D13
 70
     1
 10
0.0
 20
0.0
 30
0.0
  3
*D13
  1

  0
LINE
  5
4D4F
330
4D23
100
AcDbEntity
  8
SP
370
    -2
100
AcDbLine
 10
14662.80003186733
 20
5732.362935220169
 30
0.0
 11
14538.48209998095
 21
5732.362935220169
 31
0.0
  0
LINE
  5
4D50
330
4D23
100
AcDbEntity
  8
SP
370
    -2
100
AcDbLine
 10
14666.71647291018
 20
5854.362935220169
 30
0.0
 11
14538.48209998095
 21
5854.362935220169
 31
0.0
  0
LINE
  5
4D51
330
4D23
100
AcDbEntity
  8
SP
370
    -2
100
AcDbLine
 10
14553.48209998095
 20
5694.862935220169
 30
0.0
 11
14553.48209998095
 21
5657.362935220169
 31
0.0
  0
LINE
  5
4D52
330
4D23
100
AcDbEntity
  8
SP
370
    -2
100
AcDbLine
 10
14553.48209998095
 20
5891.862935220169
 30
0.0
 11
14553.48209998095
 21
6064.362935220168
 31
0.0
  0
LINE
  5
4D53
330
4D23
100
AcDbEntity
  8
SP
370
    -2
100
AcDbLine
 10
14553.48209998095
 20
5732.362935220169
 30
0.0
 11
14553.48209998095
 21
5854.362935220169
 31
0.0
  0
INSERT
  5
4D54
330
4D23
100
AcDbEntity
  8
SP
370
    -2
100
AcDbBlockReference
  2
_OPEN
 10
14553.48209998095
 20
5732.362935220169
 30
0.0
 41
37.5
 42
37.5
 43
37.5
 50
90.0
  0
INSERT
  5
4D55
330
4D23
100
AcDbEntity
  8
SP
370
    -2
100
AcDbBlockReference
  2
_OPEN
 10
14553.48209998095
 20
5854.362935220169
 30
0.0
 41
37.5
 42
37.5
 43
37.5
 50
270.0
  0
MTEXT
  5
4D56
330
4D23
100
AcDbEntity
  8
SP
100
AcDbMText
 10
14515.98209998095
 20
5996.862935220171
 30
0.0
 40
45.0
 41
0.0
 71
     5
 72
     1
  1
\A1;122
 11
0.0000000000000001
 21
1.0
 31
0.0
 73
     1
 44
1.0
1001
ACAD
1000
MTEXTBEGIN
1070
    73
1070
     1
1070
    44
1040
1.0
1070
    74
1070
     0
1000
MTEXTEND
  0
POINT
  5
4D57
330
4D23
100
AcDbEntity
  8
Defpoints
 62
     0
100
AcDbPoint
 10
14677.80003186733
 20
5732.362935220169
 30
0.0
  0
POINT
  5
4D58
330
4D23
100
AcDbEntity
  8
Defpoints
 62
     0
100
AcDbPoint
 10
14681.71647291018
 20
5854.362935220169
 30
0.0
  0
POINT
  5
4D59
330
4D23
100
AcDbEntity
  8
Defpoints
 62
     0
100
AcDbPoint
 10
14553.48209998095
 20
5854.362935220169
 30
0.0
  0
ENDBLK
  5
4D30
330
4D23
100
AcDbEntity
  8
0
100
AcDbBlockEnd
  0
BLOCK
  5
5AD5
330
5AD4
100
AcDbEntity
  8
0
100
AcDbBlockBegin
  2
_None
 70
     0
 10
0.0
 20
0.0
 30
0.0
  3
_None
  1

  0
ENDBLK
  5
5AD6
330
5AD4
100
AcDbEntity
  8
0
100
AcDbBlockEnd
  0
BLOCK
  5
5DB2
330
5DA8
100
AcDbEntity
  8
0
100
AcDbBlockBegin
  2
*D15
 70
     1
 10
0.0
 20
0.0
 30
0.0
  3
*D15
  1

  0
LINE
  5
6224
330
5DA8
100
AcDbEntity
  8
SP
370
    -2
100
AcDbLine
 10
14927.80003186735
 20
3996.265404136125
 30
0.0
 11
14927.80003186735
 21
3926.635294509082
 31
0.0
  0
LINE
  5
6225
330
5DA8
100
AcDbEntity
  8
SP
370
    -2
100
AcDbLine
 10
15177.80003186735
 20
4031.635294509082
 30
0.0
 11
15177.80003186735
 21
3926.635294509082
 31
0.0
  0
LINE
  5
6226
330
5DA8
100
AcDbEntity
  8
SP
370
    -2
100
AcDbLine
 10
14965.30003186735
 20
3941.635294509082
 30
0.0
 11
15140.30003186735
 21
3941.635294509082
 31
0.0
  0
INSERT
  5
6227
330
5DA8
100
AcDbEntity
  8
SP
370
    -2
100
AcDbBlockReference
  2
_OPEN
 10
14927.80003186735
 20
3941.635294509082
 30
0.0
 41
37.5
 42
37.5
 43
37.5
 50
180.0
  0
INSERT
  5
6228
330
5DA8
100
AcDbEntity
  8
SP
370
    -2
100
AcDbBlockReference
  2
_OPEN
 10
15177.80003186735
 20
3941.635294509082
 30
0.0
 41
37.5
 42
37.5
 43
37.5
  0
MTEXT
  5
6229
330
5DA8
100
AcDbEntity
  8
SP
100
AcDbMText
 10
15052.80003186735
 20
3979.135294509082
 30
0.0
 40
45.0
 41
0.0
 71
     5
 72
     1
  1
\A1;250
 73
     1
 44
1.0
1001
ACAD
1000
MTEXTBEGIN
1070
    73
1070
     1
1070
    44
1040
1.0
1070
    74
1070
     0
1000
MTEXTEND
  0
POINT
  5
622A
330
5DA8
100
AcDbEntity
  8
Defpoints
 62
     0
100
AcDbPoint
 10
14927.80003186735
 20
4011.265404136124
 30
0.0
  0
POINT
  5
622B
330
5DA8
100
AcDbEntity
  8
Defpoints
 62
     0
100
AcDbPoint
 10
15177.80003186735
 20
4046.635294509082
 30
0.0
  0
POINT
  5
622C
330
5DA8
100
AcDbEntity
  8
Defpoints
 62
     0
100
AcDbPoint
 10
15177.80003186735
 20
3941.635294509082
 30
0.0
  0
ENDBLK
  5
5DB3
330
5DA8
100
AcDbEntity
  8
0
100
AcDbBlockEnd
  0
BLOCK
  5
5DBE
330
5DB4
100
AcDbEntity
  8
0
100
AcDbBlockBegin
  2
*D16
 70
     1
 10
0.0
 20
0.0
 30
0.0
  3
*D16
  1

  0
LINE
  5
621B
330
5DB4
100
AcDbEntity
  8
SP
370
    -2
100
AcDbLine
 10
14677.80003186736
 20
4031.635294509082
 30
0.0
 11
14677.80003186736
 21
3821.635294509082
 31
0.0
  0
LINE
  5
621C
330
5DB4
100
AcDbEntity
  8
SP
370
    -2
100
AcDbLine
 10
15177.80003186735
 20
4031.635294509082
 30
0.0
 11
15177.80003186735
 21
3821.635294509082
 31
0.0
  0
LINE
  5
621D
330
5DB4
100
AcDbEntity
  8
SP
370
    -2
100
AcDbLine
 10
14715.30003186736
 20
3836.635294509083
 30
0.0
 11
15140.30003186735
 21
3836.635294509083
 31
0.0
  0
INSERT
  5
621E
330
5DB4
100
AcDbEntity
  8
SP
370
    -2
100
AcDbBlockReference
  2
_OPEN
 10
14677.80003186736
 20
3836.635294509083
 30
0.0
 41
37.5
 42
37.5
 43
37.5
 50
180.0
  0
INSERT
  5
621F
330
5DB4
100
AcDbEntity
  8
SP
370
    -2
100
AcDbBlockReference
  2
_OPEN
 10
15177.80003186735
 20
3836.635294509083
 30
0.0
 41
37.5
 42
37.5
 43
37.5
  0
MTEXT
  5
6220
330
5DB4
100
AcDbEntity
  8
SP
100
AcDbMText
 10
14927.80003186735
 20
3874.135294509083
 30
0.0
 40
45.0
 41
0.0
 71
     5
 72
     1
  1
\A1;500
 73
     1
 44
1.0
1001
ACAD
1000
MTEXTBEGIN
1070
    73
1070
     1
1070
    44
1040
1.0
1070
    74
1070
     0
1000
MTEXTEND
  0
POINT
  5
6221
330
5DB4
100
AcDbEntity
  8
Defpoints
 62
     0
100
AcDbPoint
 10
14677.80003186736
 20
4046.635294509082
 30
0.0
  0
POINT
  5
6222
330
5DB4
100
AcDbEntity
  8
Defpoints
 62
     0
100
AcDbPoint
 10
15177.80003186735
 20
4046.635294509082
 30
0.0
  0
POINT
  5
6223
330
5DB4
100
AcDbEntity
  8
Defpoints
 62
     0
100
AcDbPoint
 10
15177.80003186735
 20
3836.635294509083
 30
0.0
  0
ENDBLK
  5
5DBF
330
5DB4
100
AcDbEntity
  8
0
100
AcDbBlockEnd
  0
BLOCK
  5
5DCA
330
5DC0
100
AcDbEntity
  8
0
100
AcDbBlockBegin
  2
*D17
 70
     1
 10
0.0
 20
0.0
 30
0.0
  3
*D17
  1

  0
LINE
  5
623F
330
5DC0
100
AcDbEntity
  8
SP
370
    -2
100
AcDbLine
 10
14927.80003186735
 20
3996.265404136125
 30
0.0
 11
14927.80003186735
 21
3926.635294509082
 31
0.0
  0
LINE
  5
6240
330
5DC0
100
AcDbEntity
  8
SP
370
    -2
100
AcDbLine
 10
14677.80003186736
 20
4031.635294509082
 30
0.0
 11
14677.80003186736
 21
3926.635294509082
 31
0.0
  0
LINE
  5
6241
330
5DC0
100
AcDbEntity
  8
SP
370
    -2
100
AcDbLine
 10
14890.30003186735
 20
3941.635294509082
 30
0.0
 11
14715.30003186736
 21
3941.635294509082
 31
0.0
  0
INSERT
  5
6242
330
5DC0
100
AcDbEntity
  8
SP
370
    -2
100
AcDbBlockReference
  2
_OPEN
 10
14927.80003186735
 20
3941.635294509082
 30
0.0
 41
37.5
 42
37.5
 43
37.5
  0
INSERT
  5
6243
330
5DC0
100
AcDbEntity
  8
SP
370
    -2
100
AcDbBlockReference
  2
_OPEN
 10
14677.80003186736
 20
3941.635294509082
 30
0.0
 41
37.5
 42
37.5
 43
37.5
 50
180.0
  0
MTEXT
  5
6244
330
5DC0
100
AcDbEntity
  8
SP
100
AcDbMText
 10
14802.80003186736
 20
3979.135294509082
 30
0.0
 40
45.0
 41
0.0
 71
     5
 72
     1
  1
\A1;250
 73
     1
 44
1.0
1001
ACAD
1000
MTEXTBEGIN
1070
    73
1070
     1
1070
    44
1040
1.0
1070
    74
1070
     0
1000
MTEXTEND
  0
POINT
  5
6245
330
5DC0
100
AcDbEntity
  8
Defpoints
 62
     0
100
AcDbPoint
 10
14927.80003186735
 20
4011.265404136124
 30
0.0
  0
POINT
  5
6246
330
5DC0
100
AcDbEntity
  8
Defpoints
 62
     0
100
AcDbPoint
 10
14677.80003186736
 20
4046.635294509082
 30
0.0
  0
POINT
  5
6247
330
5DC0
100
AcDbEntity
  8
Defpoints
 62
     0
100
AcDbPoint
 10
14677.80003186736
 20
3941.635294509082
 30
0.0
  0
ENDBLK
  5
5DCB
330
5DC0
100
AcDbEntity
  8
0
100
AcDbBlockEnd
  0
BLOCK
  5
5F1D
330
5F11
100
AcDbEntity
  8
0
100
AcDbBlockBegin
  2
*D18
 70
     1
 10
0.0
 20
0.0
 30
0.0
  3
*D18
  1

  0
LINE
  5
622D
330
5F11
100
AcDbEntity
  8
SP
370
    -2
100
AcDbLine
 10
14662.80003186733
 20
4111.635294509082
 30
0.0
 11
14557.80003186733
 21
4111.635294509082
 31
0.0
  0
LINE
  5
622E
330
5F11
100
AcDbEntity
  8
SP
370
    -2
100
AcDbLine
 10
14662.80003186733
 20
4046.635294509082
 30
0.0
 11
14557.80003186733
 21
4046.635294509082
 31
0.0
  0
LINE
  5
622F
330
5F11
100
AcDbEntity
  8
SP
370
    -2
100
AcDbLine
 10
14572.80003186733
 20
4149.135294509082
 30
0.0
 11
14572.80003186733
 21
4186.635294509082
 31
0.0
  0
LINE
  5
6230
330
5F11
100
AcDbEntity
  8
SP
370
    -2
100
AcDbLine
 10
14572.80003186733
 20
4009.135294509081
 30
0.0
 11
14572.80003186733
 21
3864.871539943882
 31
0.0
  0
LINE
  5
6231
330
5F11
100
AcDbEntity
  8
SP
370
    -2
100
AcDbLine
 10
14572.80003186733
 20
4111.635294509082
 30
0.0
 11
14572.80003186733
 21
4046.635294509082
 31
0.0
  0
INSERT
  5
6232
330
5F11
100
AcDbEntity
  8
SP
370
    -2
100
AcDbBlockReference
  2
_Dot
 10
14572.80003186733
 20
4111.635294509082
 30
0.0
 41
37.5
 42
37.5
 43
37.5
 50
270.0
  0
INSERT
  5
6233
330
5F11
100
AcDbEntity
  8
SP
370
    -2
100
AcDbBlockReference
  2
_OPEN
 10
14572.80003186733
 20
4046.635294509082
 30
0.0
 41
37.5
 42
37.5
 43
37.5
 50
90.0
  0
MTEXT
  5
6234
330
5F11
100
AcDbEntity
  8
SP
100
AcDbMText
 10
14535.30003186733
 20
3918.253417226484
 30
0.0
 40
45.0
 41
0.0
 71
     5
 72
     1
  1
\A1;65
 11
0.0000000000000001
 21
1.0
 31
0.0
 73
     1
 44
1.0
1001
ACAD
1000
MTEXTBEGIN
1070
    73
1070
     1
1070
    44
1040
1.0
1070
    74
1070
     0
1000
MTEXTEND
  0
POINT
  5
6235
330
5F11
100
AcDbEntity
  8
Defpoints
 62
     0
100
AcDbPoint
 10
14677.80003186733
 20
4111.635294509082
 30
0.0
  0
POINT
  5
6236
330
5F11
100
AcDbEntity
  8
Defpoints
 62
     0
100
AcDbPoint
 10
14677.80003186733
 20
4046.635294509082
 30
0.0
  0
POINT
  5
6237
330
5F11
100
AcDbEntity
  8
Defpoints
 62
     0
100
AcDbPoint
 10
14572.80003186733
 20
4046.635294509082
 30
0.0
  0
ENDBLK
  5
5F1E
330
5F11
100
AcDbEntity
  8
0
100
AcDbBlockEnd
  0
BLOCK
  5
5F29
330
5F1F
100
AcDbEntity
  8
0
100
AcDbBlockBegin
  2
*D19
 70
     1
 10
0.0
 20
0.0
 30
0.0
  3
*D19
  1

  0
LINE
  5
6238
330
5F1F
100
AcDbEntity
  8
SP
370
    -2
100
AcDbLine
 10
14662.80003186733
 20
4147.635294509082
 30
0.0
 11
14557.80003186733
 21
4147.635294509082
 31
0.0
  0
LINE
  5
6239
330
5F1F
100
AcDbEntity
  8
SP
370
    -2
100
AcDbLine
 10
14662.80003186733
 20
4111.635294509082
 30
0.0
 11
14557.80003186733
 21
4111.635294509082
 31
0.0
  0
LINE
  5
623A
330
5F1F
100
AcDbEntity
  8
SP
370
    -2
100
AcDbLine
 10
14572.80003186733
 20
4147.635294509082
 30
0.0
 11
14572.80003186733
 21
4111.635294509082
 31
0.0
  0
MTEXT
  5
623B
330
5F1F
100
AcDbEntity
  8
SP
100
AcDbMText
 10
14521.8364904144
 20
4122.156269079558
 30
0.0
 40
45.0
 41
0.0
 71
     5
 72
     1
  1
\A1;（36）
 11
0.0000000000000001
 21
1.0
 31
0.0
 73
     1
 44
1.0
1001
ACAD
1000
MTEXTBEGIN
1070
    73
1070
     1
1070
    44
1040
1.0
1070
    74
1070
     0
1000
MTEXTEND
  0
POINT
  5
623C
330
5F1F
100
AcDbEntity
  8
Defpoints
 62
     0
100
AcDbPoint
 10
14677.80003186733
 20
4147.635294509082
 30
0.0
  0
POINT
  5
623D
330
5F1F
100
AcDbEntity
  8
Defpoints
 62
     0
100
AcDbPoint
 10
14677.80003186733
 20
4111.635294509082
 30
0.0
  0
POINT
  5
623E
330
5F1F
100
AcDbEntity
  8
Defpoints
 62
     0
100
AcDbPoint
 10
14572.80003186733
 20
4111.635294509082
 30
0.0
  0
ENDBLK
  5
5F2A
330
5F1F
100
AcDbEntity
  8
0
100
AcDbBlockEnd
  0
BLOCK
  5
60A0
330
6096
100
AcDbEntity
  8
0
100
AcDbBlockBegin
  2
*D20
 70
     1
 10
0.0
 20
0.0
 30
0.0
  3
*D20
  1

  0
LINE
  5
6251
330
6096
100
AcDbEntity
  8
SP
370
    -2
100
AcDbLine
 10
15746.37511013998
 20
4031.635294509083
 30
0.0
 11
15746.37511013998
 21
3926.635294509082
 31
0.0
  0
LINE
  5
6252
330
6096
100
AcDbEntity
  8
SP
370
    -2
100
AcDbLine
 10
16056.37511013998
 20
4031.635294509082
 30
0.0
 11
16056.37511013998
 21
3926.635294509082
 31
0.0
  0
LINE
  5
6253
330
6096
100
AcDbEntity
  8
SP
370
    -2
100
AcDbLine
 10
15783.87511013998
 20
3941.635294509082
 30
0.0
 11
16018.87511013998
 21
3941.635294509082
 31
0.0
  0
INSERT
  5
6254
330
6096
100
AcDbEntity
  8
SP
370
    -2
100
AcDbBlockReference
  2
_OPEN
 10
15746.37511013998
 20
3941.635294509082
 30
0.0
 41
37.5
 42
37.5
 43
37.5
 50
180.0
  0
INSERT
  5
6255
330
6096
100
AcDbEntity
  8
SP
370
    -2
100
AcDbBlockReference
  2
_OPEN
 10
16056.37511013998
 20
3941.635294509082
 30
0.0
 41
37.5
 42
37.5
 43
37.5
  0
MTEXT
  5
6256
330
6096
100
AcDbEntity
  8
SP
100
AcDbMText
 10
15901.37511013998
 20
3979.135294509081
 30
0.0
 40
45.0
 41
0.0
 71
     5
 72
     1
  1
\A1;310
 73
     1
 44
1.0
1001
ACAD
1000
MTEXTBEGIN
1070
    73
1070
     1
1070
    44
1040
1.0
1070
    74
1070
     0
1000
MTEXTEND
  0
POINT
  5
6257
330
6096
100
AcDbEntity
  8
Defpoints
 62
     0
100
AcDbPoint
 10
15746.37511013998
 20
4046.635294509083
 30
0.0
  0
POINT
  5
6258
330
6096
100
AcDbEntity
  8
Defpoints
 62
     0
100
AcDbPoint
 10
16056.37511013998
 20
4046.635294509083
 30
0.0
  0
POINT
  5
6259
330
6096
100
AcDbEntity
  8
Defpoints
 62
     0
100
AcDbPoint
 10
16056.37511013998
 20
3941.635294509082
 30
0.0
  0
ENDBLK
  5
60A1
330
6096
100
AcDbEntity
  8
0
100
AcDbBlockEnd
  0
BLOCK
  5
638D
330
638C
100
AcDbEntity
  8
0
100
AcDbBlockBegin
  2
*D27
 70
     1
 10
0.0
 20
0.0
 30
0.0
  3
*D27
  1

  0
LINE
  5
63CE
330
638C
100
AcDbEntity
  8
SP
370
    -2
100
AcDbLine
 10
16178.37511013998
 20
4932.751399155721
 30
0.0
 11
16178.37511013998
 21
4977.635294509084
 31
0.0
  0
LINE
  5
63CF
330
638C
100
AcDbEntity
  8
SP
370
    -2
100
AcDbLine
 10
15757.37511013998
 20
4601.216194509083
 30
0.0
 11
15757.37511013998
 21
4977.635294509084
 31
0.0
  0
LINE
  5
63D0
330
638C
100
AcDbEntity
  8
SP
370
    -2
100
AcDbLine
 10
16140.87511013998
 20
4962.635294509084
 30
0.0
 11
15794.87511013998
 21
4962.635294509084
 31
0.0
  0
INSERT
  5
63D1
330
638C
100
AcDbEntity
  8
SP
370
    -2
100
AcDbBlockReference
  2
_OPEN
 10
16178.37511013998
 20
4962.635294509084
 30
0.0
 41
37.5
 42
37.5
 43
37.5
  0
INSERT
  5
63D2
330
638C
100
AcDbEntity
  8
SP
370
    -2
100
AcDbBlockReference
  2
_OPEN
 10
15757.37511013998
 20
4962.635294509084
 30
0.0
 41
37.5
 42
37.5
 43
37.5
 50
180.0
  0
MTEXT
  5
63D3
330
638C
100
AcDbEntity
  8
SP
100
AcDbMText
 10
15967.87511013998
 20
5011.921008794798
 30
0.0
 40
45.0
 41
0.0
 71
     5
 72
     1
  1
\A1;(420)
 73
     1
 44
1.0
1001
ACAD
1000
MTEXTBEGIN
1070
    73
1070
     1
1070
    44
1040
1.0
1070
    74
1070
     0
1000
MTEXTEND
  0
POINT
  5
63D4
330
638C
100
AcDbEntity
  8
Defpoints
 62
     0
100
AcDbPoint
 10
16178.37511013998
 20
4917.75139915572
 30
0.0
  0
POINT
  5
63D5
330
638C
100
AcDbEntity
  8
Defpoints
 62
     0
100
AcDbPoint
 10
15757.37511013998
 20
4586.216194509083
 30
0.0
  0
POINT
  5
63D6
330
638C
100
AcDbEntity
  8
Defpoints
 62
     0
100
AcDbPoint
 10
15757.37511013998
 20
4962.635294509084
 30
0.0
  0
ENDBLK
  5
638E
330
638C
100
AcDbEntity
  8
0
100
AcDbBlockEnd
  0
BLOCK
  5
639A
330
6399
100
AcDbEntity
  8
0
100
AcDbBlockBegin
  2
*D28
 70
     1
 10
0.0
 20
0.0
 30
0.0
  3
*D28
  1

  0
LINE
  5
63B8
330
6399
100
AcDbEntity
  8
SP
370
    -2
100
AcDbLine
 10
16056.37511013998
 20
4031.635294509082
 30
0.0
 11
16056.37511013998
 21
3926.635294509082
 31
0.0
  0
LINE
  5
63B9
330
6399
100
AcDbEntity
  8
SP
370
    -2
100
AcDbLine
 10
16178.37511013998
 20
4180.689360228545
 30
0.0
 11
16178.37511013998
 21
3926.635294509082
 31
0.0
  0
LINE
  5
63BA
330
6399
100
AcDbEntity
  8
SP
370
    -2
100
AcDbLine
 10
16018.87511013998
 20
3941.635294509082
 30
0.0
 11
15981.37511013998
 21
3941.635294509082
 31
0.0
  0
LINE
  5
63BB
330
6399
100
AcDbEntity
  8
SP
370
    -2
100
AcDbLine
 10
16215.87511013998
 20
3941.635294509082
 30
0.0
 11
16253.37511013998
 21
3941.635294509082
 31
0.0
  0
MTEXT
  5
63BC
330
6399
100
AcDbEntity
  8
SP
100
AcDbMText
 10
16300.17091844433
 20
3973.882041036011
 30
0.0
 40
45.0
 41
0.0
 71
     5
 72
     1
  1
\A1;122
 73
     1
 44
1.0
1001
ACAD
1000
MTEXTBEGIN
1070
    73
1070
     1
1070
    44
1040
1.0
1070
    74
1070
     0
1000
MTEXTEND
  0
LINE
  5
63BD
330
6399
100
AcDbEntity
  8
SP
370
    -2
100
AcDbLine
 10
16056.37511013998
 20
3941.635294509082
 30
0.0
 11
16178.37511013998
 21
3941.635294509082
 31
0.0
  0
INSERT
  5
63BE
330
6399
100
AcDbEntity
  8
SP
370
    -2
100
AcDbBlockReference
  2
_OPEN
 10
16056.37511013998
 20
3941.635294509082
 30
0.0
 41
37.5
 42
37.5
 43
37.5
  0
INSERT
  5
63BF
330
6399
100
AcDbEntity
  8
SP
370
    -2
100
AcDbBlockReference
  2
_OPEN
 10
16178.37511013998
 20
3941.635294509082
 30
0.0
 41
37.5
 42
37.5
 43
37.5
 50
180.0
  0
POINT
  5
63C0
330
6399
100
AcDbEntity
  8
Defpoints
 62
     0
100
AcDbPoint
 10
16056.37511013998
 20
4046.635294509083
 30
0.0
  0
POINT
  5
63C1
330
6399
100
AcDbEntity
  8
Defpoints
 62
     0
100
AcDbPoint
 10
16178.37511013998
 20
4195.689360228545
 30
0.0
  0
POINT
  5
63C2
330
6399
100
AcDbEntity
  8
Defpoints
 62
     0
100
AcDbPoint
 10
16178.37511013998
 20
3941.635294509082
 30
0.0
  0
ENDBLK
  5
639B
330
6399
100
AcDbEntity
  8
0
100
AcDbBlockEnd
  0
ENDSEC
  0
SECTION
  2
ENTITIES
  0
LINE
  5
2CEE
330
19
100
AcDbEntity
  8
4
100
AcDbLine
 10
13845.59771503509
 20
2822.809791742034
 30
0.0
 11
13845.59771503509
 21
7247.809791742034
 31
0.0
  0
LINE
  5
2CEF
330
19
100
AcDbEntity
  8
4
100
AcDbLine
 10
16995.59771503509
 20
7247.809791742034
 30
0.0
 11
16995.59771503509
 21
2822.809791742034
 31
0.0
  0
TEXT
  5
2CF3
330
19
100
AcDbEntity
  8
4
100
AcDbText
 10
15312.11583326659
 20
3456.667445178387
 30
0.0
 40
75.0
  1
ミツヤ多翼送風機
100
AcDbText
  0
LINE
  5
2CF6
330
19
100
AcDbEntity
  8
4
100
AcDbLine
 10
14520.59771503509
 20
3272.809791742034
 30
0.0
 11
16320.59771503509
 21
3272.809791742034
 31
0.0
  0
LINE
  5
2CF7
330
19
100
AcDbEntity
  8
4
100
AcDbLine
 10
14520.59771503509
 20
3422.809791742034
 30
0.0
 11
16320.59771503509
 21
3422.809791742034
 31
0.0
  0
LINE
  5
2CF8
330
19
100
AcDbEntity
  8
4
100
AcDbLine
 10
14520.59771503509
 20
3572.809791742034
 30
0.0
 11
16320.59771503509
 21
3572.809791742034
 31
0.0
  0
LINE
  5
2CF9
330
19
100
AcDbEntity
  8
4
100
AcDbLine
 10
16995.59771503509
 20
2822.809791742034
 30
0.0
 11
13845.59771503509
 21
2822.809791742034
 31
0.0
  0
TEXT
  5
2CFA
330
19
100
AcDbEntity
  8
4
100
AcDbText
 10
14578.35083630544
 20
3470.124330541953
 30
0.0
 40
75.0
  1
機器名称
100
AcDbText
  0
TEXT
  5
2CFB
330
19
100
AcDbEntity
  8
4
100
AcDbText
 10
14574.98487407229
 20
3305.27752684005
 30
0.0
 40
75.0
  1
機器型番
100
AcDbText
  0
LINE
  5
2CFD
330
19
100
AcDbEntity
  8
4
100
AcDbLine
 10
14520.59771503509
 20
3572.809791742034
 30
0.0
 11
14520.59771503509
 21
3272.809791742034
 31
0.0
  0
TEXT
  5
2CFE
330
19
100
AcDbEntity
  8
4
100
AcDbText
 10
15325.57945841331
 20
3298.549168161949
 30
0.0
 40
75.0
  1
MF＃2-7
100
AcDbText
  0
LINE
  5
2CFF
330
19
100
AcDbEntity
  8
4
100
AcDbLine
 10
15270.59771503509
 20
3572.809791742034
 30
0.0
 11
15270.59771503509
 21
3272.809791742034
 31
0.0
  0
LINE
  5
2D00
330
19
100
AcDbEntity
  8
4
100
AcDbLine
 10
16320.59771503509
 20
3572.809791742034
 30
0.0
 11
16320.59771503509
 21
3272.809791742034
 31
0.0
  0
TEXT
  5
2E31
330
19
100
AcDbEntity
  8
4
100
AcDbText
 10
14577.69207095238
 20
6623.63125604098
 30
0.0
 40
108.0
  1
遠心式片吸込直動形多翼ファン
100
AcDbText
  0
LINE
  5
2E32
330
19
100
AcDbEntity
  8
4
100
AcDbLine
 10
14220.59771503509
 20
6526.922923139242
 30
0.0
 11
16620.59771503509
 21
6526.922923139242
 31
0.0
  0
LINE
  5
2E33
330
19
100
AcDbEntity
  8
4
100
AcDbLine
 10
14220.59771503509
 20
6826.922923139242
 30
0.0
 11
16620.59771503509
 21
6826.922923139242
 31
0.0
  0
LINE
  5
2E34
330
19
100
AcDbEntity
  8
4
100
AcDbLine
 10
13845.59771503509
 20
7247.809791742034
 30
0.0
 11
16995.59771503509
 21
7247.809791742034
 31
0.0
  0
TEXT
  5
2E37
330
19
100
AcDbEntity
  8
4
100
AcDbText
 10
14318.48108722505
 20
6396.289008061549
 30
0.0
 40
80.99999999999999
  1
左回転上向
100
AcDbText
  0
LINE
  5
2E3C
330
19
100
AcDbEntity
  8
4
100
AcDbLine
 10
14220.59771503509
 20
6826.922923139242
 30
0.0
 11
14220.59771503509
 21
6526.922923139242
 31
0.0
  0
LINE
  5
2E45
330
19
100
AcDbEntity
  8
4
100
AcDbLine
 10
16006.52384857489
 20
7002.788184066663
 30
0.0
 11
16620.59771503509
 21
7002.788184066663
 31
0.0
  0
LINE
  5
2E46
330
19
100
AcDbEntity
  8
4
100
AcDbLine
 10
16620.59771503509
 20
6844.705166430135
 30
0.0
 11
16006.52384857489
 21
6844.705166430135
 31
0.0
  0
TEXT
  5
2E47
330
19
100
AcDbEntity
  8
4
100
AcDbText
 10
16049.05205390903
 20
6881.901413984997
 30
0.0
 40
84.00000000000002
  1
No.
100
AcDbText
  0
LINE
  5
2E48
330
19
100
AcDbEntity
  8
4
100
AcDbLine
 10
16006.52384857489
 20
6844.705166430135
 30
0.0
 11
16006.52384857489
 21
7002.788184066663
 31
0.0
  0
LINE
  5
2E49
330
19
100
AcDbEntity
  8
4
100
AcDbLine
 10
16620.59771503509
 20
6826.922923139242
 30
0.0
 11
16620.59771503509
 21
6526.922923139242
 31
0.0
  0
LINE
  5
2E4A
330
19
100
AcDbEntity
  8
4
100
AcDbLine
 10
16620.59771503509
 20
7002.788184066663
 30
0.0
 11
16620.59771503509
 21
6844.705166430135
 31
0.0
  0
LINE
  5
2E4C
330
19
100
AcDbEntity
  8
4
100
AcDbLine
 10
16995.59771503509
 20
7247.809791742034
 30
0.0
 11
16995.59771503509
 21
7247.809791742034
 31
0.0
  0
DIMENSION
  5
40E2
330
19
100
AcDbEntity
  8
SP
100
AcDbDimension
  2
*D7
 10
14705.51281175086
 20
4857.635294509076
 30
0.0
 11
14816.6564218091
 21
4895.135294509077
 31
0.0
 70
    32
 71
     5
 42
222.2872201164755
  3
GOD
100
AcDbAlignedDimension
 13
14927.80003186734
 23
4775.633820463164
 33
0.0
 14
14705.51281175086
 24
4479.781590644273
 34
0.0
 50
180.0
100
AcDbRotatedDimension
1001
ACAD
1000
DSTYLE
1002
{
1070
   271
1070
     0
1002
}
  0
DIMENSION
  5
40E3
330
19
100
AcDbEntity
  8
SP
100
AcDbDimension
  2
*D6
 10
14927.80003186734
 20
4857.635294509076
 30
0.0
 11
15085.30003186733
 21
4895.135294509076
 31
0.0
 70
    32
 71
     5
 42
314.9999999999945
  3
GOD
100
AcDbAlignedDimension
 13
15242.80003186733
 23
4752.635294509087
 33
0.0
 14
14927.80003186734
 24
4775.633820463164
 34
0.0
 50
180.0
100
AcDbRotatedDimension
  0
LINE
  5
40E4
330
19
100
AcDbEntity
  8
2
100
AcDbLine
 10
14927.80003186734
 20
4011.265404136124
 30
0.0
 11
14927.80003186734
 21
4775.633820463164
 31
0.0
  0
LWPOLYLINE
  5
40E5
330
19
100
AcDbEntity
  8
CT
100
AcDbPolyline
 90
        2
 70
     0
 43
0.0
 10
14916.30003186733
 20
4757.698457724074
 10
14916.30003186733
 20
4745.430147440128
  0
LWPOLYLINE
  5
40E6
330
19
100
AcDbEntity
  8
CT
100
AcDbPolyline
 90
        2
 70
     0
 43
0.0
 10
15254.30003186733
 20
4757.698457724083
 10
15254.30003186733
 20
4745.430147440138
  0
DIMENSION
  5
40EB
330
19
100
AcDbEntity
  8
SP
100
AcDbDimension
  2
*D5
 10
14572.80003186734
 20
4502.635294509082
 30
0.0
 11
14535.30003186734
 21
4325.135294509085
 31
0.0
 70
    32
 71
     5
 42
355.0
  3
GOD
100
AcDbAlignedDimension
 13
14677.80003186733
 23
4147.635294509082
 33
0.0
 14
14638.49800636368
 24
4502.635294509082
 34
0.0
 50
90.0
100
AcDbRotatedDimension
  0
DIMENSION
  5
40F7
330
19
100
AcDbEntity
  8
SP
100
AcDbDimension
  2
*D4
 10
14572.80003186733
 20
4752.635294509075
 30
0.0
 11
14535.30003186733
 21
4627.635294509081
 31
0.0
 70
    32
 71
     5
 42
249.9999999999936
  3
GOD
100
AcDbAlignedDimension
 13
14638.49800636368
 23
4502.635294509082
 33
0.0
 14
14906.30003186733
 24
4752.635294509075
 34
0.0
 50
90.0
100
AcDbRotatedDimension
  0
LWPOLYLINE
  5
40F8
330
19
100
AcDbEntity
  8
1
100
AcDbPolyline
 90
        2
 70
     0
 43
0.0
 10
14788.55022687526
 20
4297.635294509074
 42
-0.1174780416237573
 10
14722.80003186734
 20
4389.657036208552
 42
-0.3153658436290411
  0
LWPOLYLINE
  5
40F9
330
19
100
AcDbEntity
  8
1
100
AcDbPolyline
 90
        3
 70
     0
 43
0.0
 10
15138.95031932994
 20
4291.84271711617
 42
-0.2162335382726867
 10
14897.99919471936
 20
4233.767804699402
 42
-0.1298839697351506
 10
14782.0305363569
 20
4290.052838736391
 42
-0.1298839697351506
  0
LWPOLYLINE
  5
40FA
330
19
100
AcDbEntity
  8
1
100
AcDbPolyline
 90
        3
 70
     0
 43
0.0
 10
14722.80003186734
 20
4389.657036208551
 42
-0.1343280102757561
 10
14708.43618765813
 20
4517.40531978937
 42
-0.3163019945347412
 10
14871.43039881907
 20
4686.012481051496
 42
-0.3153658436290411
  0
LWPOLYLINE
  5
40FB
330
19
100
AcDbEntity
  8
1
100
AcDbPolyline
 90
        3
 70
     0
 43
0.0
 10
14713.50977637778
 20
4385.956880409293
 42
-0.1343314877425494
 10
14698.55674504114
 20
4518.953423502833
 42
-0.3163064660587118
 10
14869.54540756216
 20
4695.833214627018
 42
-0.3163064660587118
  0
LINE
  5
40FD
330
19
100
AcDbEntity
  8
2
100
AcDbLine
 10
15286.41264429078
 20
4502.635294509082
 30
0.0
 11
14638.49800636368
 21
4502.635294509082
 31
0.0
  0
CIRCLE
  5
4100
330
19
100
AcDbEntity
  8
CT
100
AcDbCircle
 10
14927.80003186735
 20
4502.635294509082
 30
0.0
 40
169.0
  0
LWPOLYLINE
  5
4101
330
19
100
AcDbEntity
  8
1
100
AcDbPolyline
 90
        3
 70
     0
 43
0.0
 10
15252.80003186733
 20
4732.635294509086
 10
15252.80003186734
 20
4528.123117770398
 42
-0.2269714708976296
 10
15139.05384975151
 20
4291.924574773659
  0
LWPOLYLINE
  5
4102
330
19
100
AcDbEntity
  8
1
100
AcDbPolyline
 90
        3
 70
     0
 43
0.0
 10
15242.80003186733
 20
4752.635294509087
 10
15242.80003186734
 20
4528.135294509087
 42
-0.2269607506063405
 10
15132.80003186734
 20
4299.727763985234
 42
-0.129402372482195
  0
ARC
  5
4103
330
19
100
AcDbEntity
  8
1
100
AcDbCircle
 10
14927.80003186735
 20
4502.635294509082
 30
0.0
 40
100.8
100
AcDbArc
 50
285.4276999999997
 51
180.0
  0
ARC
  5
4104
330
19
100
AcDbEntity
  8
1
100
AcDbCircle
 10
14927.80003186735
 20
4502.635294509082
 30
0.0
 40
100.8
100
AcDbArc
 50
180.0
 51
254.2028999999989
  0
LINE
  5
4105
330
19
100
AcDbEntity
  8
CT
100
AcDbLine
 10
14881.85965136163
 20
4331.183460342776
 30
0.0
 11
14885.96908714669
 21
4346.520083483043
 31
0.0
  0
LINE
  5
4107
330
19
100
AcDbEntity
  8
CT
100
AcDbLine
 10
14973.74041237303
 20
4331.183460342773
 30
0.0
 11
14969.63097658797
 21
4346.52008348304
 31
0.0
  0
LWPOLYLINE
  5
4108
330
19
100
AcDbEntity
  8
1
100
AcDbPolyline
 90
        3
 70
     0
 43
0.0
 10
15132.80003186734
 20
4299.727763985234
 42
-0.2162148363065116
 10
14899.90221505928
 20
4243.585083232438
 42
-0.1298622998199493
 10
14788.55022687526
 20
4297.635294509073
 42
-0.3153658436290411
  0
LINE
  5
410A
330
19
100
AcDbEntity
  8
1
100
AcDbLine
 10
14981.25043186734
 20
4417.184994509081
 30
0.0
 11
14987.80003186735
 21
4410.635294509082
 31
0.0
  0
CIRCLE
  5
410D
330
19
100
AcDbEntity
  8
1
100
AcDbCircle
 10
15091.04149651018
 20
4458.89487588675
 30
0.0
 40
4.0
  0
LINE
  5
410E
330
19
100
AcDbEntity
  8
CT
100
AcDbLine
 10
15099.25186603364
 20
4456.694914003377
 30
0.0
 11
15083.91524289337
 21
4460.804349788433
 31
0.0
  0
CIRCLE
  5
410F
330
19
100
AcDbEntity
  8
1
100
AcDbCircle
 10
15047.30107788786
 20
4383.134248488551
 30
0.0
 40
4.0
  0
LINE
  5
4110
330
19
100
AcDbEntity
  8
CT
100
AcDbLine
 10
15053.31148552794
 20
4377.123840848464
 30
0.0
 11
15042.08429817273
 21
4388.351028203676
 31
0.0
  0
LINE
  5
4111
330
19
100
AcDbEntity
  8
1
100
AcDbLine
 10
15025.80003186735
 20
4414.635294509081
 30
0.0
 11
14989.80003186735
 21
4414.635294509081
 31
0.0
  0
LINE
  5
4112
330
19
100
AcDbEntity
  8
1
100
AcDbLine
 10
15027.80003186735
 20
4402.635294509082
 30
0.0
 11
14987.80003186735
 21
4402.635294509082
 31
0.0
  0
LINE
  5
4113
330
19
100
AcDbEntity
  8
1
100
AcDbLine
 10
15026.90783186734
 20
4414.303394509082
 30
0.0
 11
15010.50703186734
 21
4444.965394509082
 31
0.0
  0
LINE
  5
4114
330
19
100
AcDbEntity
  8
1
100
AcDbLine
 10
15027.80003186735
 20
4402.635294509082
 30
0.0
 11
15027.80003186735
 21
4412.635294509082
 31
0.0
  0
ARC
  5
4115
330
19
100
AcDbEntity
  8
1
100
AcDbCircle
 10
15025.80003186735
 20
4412.635294509082
 30
0.0
 40
2.0
100
AcDbArc
 50
0.000000000000007
 51
90.0
  0
LINE
  5
4116
330
19
100
AcDbEntity
  8
1
100
AcDbLine
 10
15013.80003186735
 20
4414.635294509081
 30
0.0
 11
15013.80003186735
 21
4402.635294509082
 31
0.0
  0
LINE
  5
4117
330
19
100
AcDbEntity
  8
1
100
AcDbLine
 10
15001.80003186734
 20
4402.635294509082
 30
0.0
 11
15001.80003186734
 21
4414.635294509081
 31
0.0
  0
LINE
  5
4118
330
19
100
AcDbEntity
  8
1
100
AcDbLine
 10
14987.80003186735
 20
4402.635294509082
 30
0.0
 11
14987.80003186735
 21
4412.635294509082
 31
0.0
  0
ARC
  5
4119
330
19
100
AcDbEntity
  8
1
100
AcDbCircle
 10
14989.80003186735
 20
4412.635294509082
 30
0.0
 40
2.0
100
AcDbArc
 50
90.0
 51
180.0
  0
ARC
  5
411A
330
19
100
AcDbEntity
  8
1
100
AcDbCircle
 10
14996.35643186735
 20
4417.635294509081
 30
0.0
 40
3.0
100
AcDbArc
 50
225.0
 51
270.0
  0
LINE
  5
411B
330
19
100
AcDbEntity
  8
1
100
AcDbLine
 10
14988.00253186734
 20
4421.746494509082
 30
0.0
 11
14994.23503186734
 21
4415.513994509081
 31
0.0
  0
LINE
  5
411C
330
19
100
AcDbEntity
  8
CT
100
AcDbLine
 10
15007.80003186735
 20
4416.015794509081
 30
0.0
 11
15007.80003186735
 21
4398.668694509082
 31
0.0
  0
LINE
  5
411D
330
19
100
AcDbEntity
  8
1
100
AcDbLine
 10
14829.80003186735
 20
4414.635294509081
 30
0.0
 11
14865.80003186735
 21
4414.635294509081
 31
0.0
  0
LINE
  5
411E
330
19
100
AcDbEntity
  8
1
100
AcDbLine
 10
14827.80003186735
 20
4402.635294509082
 30
0.0
 11
14867.80003186735
 21
4402.635294509082
 31
0.0
  0
CIRCLE
  5
411F
330
19
100
AcDbEntity
  8
1
100
AcDbCircle
 10
14884.059613245
 20
4339.393829866234
 30
0.0
 40
4.0
  0
ARC
  5
4120
330
19
100
AcDbEntity
  8
1
100
AcDbCircle
 10
14859.24363186734
 20
4417.635294509081
 30
0.0
 40
3.0
100
AcDbArc
 50
270.0
 51
315.0
  0
LINE
  5
4121
330
19
100
AcDbEntity
  8
1
100
AcDbLine
 10
14867.21793186735
 20
4421.366994509081
 30
0.0
 11
14861.36503186734
 21
4415.513994509081
 31
0.0
  0
LINE
  5
4122
330
19
100
AcDbEntity
  8
1
100
AcDbLine
 10
14867.80003186735
 20
4402.635294509082
 30
0.0
 11
14867.80003186735
 21
4412.635294509082
 31
0.0
  0
ARC
  5
4123
330
19
100
AcDbEntity
  8
1
100
AcDbCircle
 10
14865.80003186735
 20
4412.635294509082
 30
0.0
 40
2.0
100
AcDbArc
 50
0.000000000000007
 51
90.0
  0
LINE
  5
4124
330
19
100
AcDbEntity
  8
1
100
AcDbLine
 10
14874.05343186734
 20
4416.888794509082
 30
0.0
 11
14867.80003186735
 21
4410.635294509082
 31
0.0
  0
LINE
  5
4125
330
19
100
AcDbEntity
  8
1
100
AcDbLine
 10
14828.89083186734
 20
4414.674794509082
 30
0.0
 11
14845.00953186735
 21
4444.809094509081
 31
0.0
  0
LINE
  5
4126
330
19
100
AcDbEntity
  8
1
100
AcDbLine
 10
14853.80003186735
 20
4402.635294509082
 30
0.0
 11
14853.80003186735
 21
4414.635294509081
 31
0.0
  0
LINE
  5
4127
330
19
100
AcDbEntity
  8
1
100
AcDbLine
 10
14827.80003186735
 20
4402.635294509082
 30
0.0
 11
14827.80003186735
 21
4412.635294509082
 31
0.0
  0
LINE
  5
4128
330
19
100
AcDbEntity
  8
1
100
AcDbLine
 10
14841.80003186735
 20
4414.635294509081
 30
0.0
 11
14841.80003186735
 21
4402.635294509082
 31
0.0
  0
ARC
  5
4129
330
19
100
AcDbEntity
  8
1
100
AcDbCircle
 10
14829.80003186735
 20
4412.635294509082
 30
0.0
 40
2.0
100
AcDbArc
 50
90.0
 51
180.0
  0
LINE
  5
412A
330
19
100
AcDbEntity
  8
CT
100
AcDbLine
 10
14847.80003186735
 20
4416.015794509081
 30
0.0
 11
14847.80003186735
 21
4398.668694509082
 31
0.0
  0
CIRCLE
  5
412B
330
19
100
AcDbEntity
  8
1
100
AcDbCircle
 10
14808.29898584681
 20
4383.134248488562
 30
0.0
 40
4.0
  0
LINE
  5
412C
330
19
100
AcDbEntity
  8
CT
100
AcDbLine
 10
14802.28857820672
 20
4377.123840848477
 30
0.0
 11
14813.51576556193
 21
4388.351028203689
 31
0.0
  0
CIRCLE
  5
412D
330
19
100
AcDbEntity
  8
1
100
AcDbCircle
 10
14971.54045048965
 20
4339.393829866231
 30
0.0
 40
4.0
  0
LINE
  5
412E
330
19
100
AcDbEntity
  8
1
100
AcDbLine
 10
14900.18233186734
 20
4405.635294509082
 30
0.0
 11
14955.06943186734
 21
4405.635294509082
 31
0.0
  0
LINE
  5
412F
330
19
100
AcDbEntity
  8
FUTO
100
AcDbLine
 10
15264.30003186733
 20
4751.435294509086
 30
0.0
 11
14906.30003186733
 21
4751.435294509075
 31
0.0
  0
LINE
  5
4130
330
19
100
AcDbEntity
  8
FUTO
100
AcDbLine
 10
14906.30003186733
 20
4752.635294509075
 30
0.0
 11
15264.30003186733
 21
4752.635294509087
 31
0.0
  0
LINE
  5
4131
330
19
100
AcDbEntity
  8
1
100
AcDbLine
 10
15225.40003186733
 20
4732.635294509084
 30
0.0
 11
14944.20003186733
 21
4732.635294509077
 31
0.0
  0
LINE
  5
4132
330
19
100
AcDbEntity
  8
FUTO
100
AcDbLine
 10
15264.30003186733
 20
4752.635294509087
 30
0.0
 11
15264.30003186733
 21
4751.435294509086
 31
0.0
  0
LINE
  5
4133
330
19
100
AcDbEntity
  8
FUTO
100
AcDbLine
 10
15252.80003186733
 20
4732.635294509086
 30
0.0
 11
15242.80003186734
 21
4732.635294509086
 31
0.0
  0
ARC
  5
4134
330
19
100
AcDbEntity
  8
1
100
AcDbCircle
 10
15241.80003186733
 20
4747.635294509087
 30
0.0
 40
1.0
100
AcDbArc
 50
0.000000000000007
 51
143.130102354195
  0
LINE
  5
4135
330
19
100
AcDbEntity
  8
1
100
AcDbLine
 10
15241.10003186733
 20
4748.335294509085
 30
0.0
 11
15225.40003186733
 21
4732.635294509084
 31
0.0
  0
CIRCLE
  5
4137
330
19
100
AcDbEntity
  8
1
100
AcDbCircle
 10
15091.04149651019
 20
4546.375713131399
 30
0.0
 40
4.0
  0
LINE
  5
4138
330
19
100
AcDbEntity
  8
CT
100
AcDbLine
 10
15099.25186603365
 20
4548.575675014771
 30
0.0
 11
15083.91524289338
 21
4544.466239229715
 31
0.0
  0
POINT
  5
413A
330
19
100
AcDbEntity
  8
1
100
AcDbPoint
 10
15085.30003186734
 20
4752.635294509093
 30
0.0
  0
POINT
  5
413B
330
19
100
AcDbEntity
  8
1
100
AcDbPoint
 10
15085.30003186734
 20
4752.635294509093
 30
0.0
  0
CIRCLE
  5
413C
330
19
100
AcDbEntity
  8
1
100
AcDbCircle
 10
15047.30107788787
 20
4622.136340529601
 30
0.0
 40
4.0
  0
LINE
  5
413D
330
19
100
AcDbEntity
  8
CT
100
AcDbLine
 10
15053.31148552795
 20
4628.146748169687
 30
0.0
 11
15042.08429817274
 21
4616.919560814475
 31
0.0
  0
LWPOLYLINE
  5
413E
330
19
100
AcDbEntity
  8
1
100
AcDbPolyline
 90
        2
 70
     0
 43
0.0
 10
14895.24561657493
 20
4707.635294509077
 42
-0.0941668855597806
 10
14869.03986477643
 20
4695.72389020073
 42
-0.1987366729981355
  0
LWPOLYLINE
  5
413F
330
19
100
AcDbEntity
  8
1
100
AcDbPolyline
 90
        2
 70
     0
 43
0.0
 10
14910.94494021376
 20
4707.635294509077
 42
-0.1315967463597435
 10
14871.40560185932
 20
4686.007754752177
 42
-0.2200089805681688
  0
LWPOLYLINE
  5
4140
330
19
100
AcDbEntity
  8
FUTO
100
AcDbPolyline
 90
        2
 70
     0
 43
0.0
 10
14906.30003186733
 20
4752.635294509075
 10
14906.30003186733
 20
4751.435294509075
  0
ARC
  5
4141
330
19
100
AcDbEntity
  8
1
100
AcDbCircle
 10
14927.80003186733
 20
4747.635294509079
 30
0.0
 40
1.0
100
AcDbArc
 50
36.86989764580494
 51
180.0
  0
POINT
  5
4142
330
19
100
AcDbEntity
  8
1
100
AcDbPoint
 10
14927.80003186733
 20
4752.635294509075
 30
0.0
  0
LINE
  5
4143
330
19
100
AcDbEntity
  8
1
100
AcDbLine
 10
14926.80003186733
 20
4732.635294509076
 30
0.0
 11
14923.4802217405
 21
4732.635294509074
 31
0.0
  0
LINE
  5
4144
330
19
100
AcDbEntity
  8
1
100
AcDbLine
 10
14926.80003186733
 20
4752.635294509078
 30
0.0
 11
14926.80003186733
 21
4731.635294509078
 31
0.0
  0
LINE
  5
4145
330
19
100
AcDbEntity
  8
1
100
AcDbLine
 10
14928.50003186733
 20
4748.335294509076
 30
0.0
 11
14944.20003186733
 21
4732.635294509077
 31
0.0
  0
LWPOLYLINE
  5
4146
330
19
100
AcDbEntity
  8
1
100
AcDbPolyline
 90
        3
 70
     0
 43
0.0
 10
14926.80003186733
 20
4731.635294509078
 42
-0.101266720201501
 10
14925.67467688372
 20
4726.135884022314
 42
-0.0681921917069782
 10
14910.94494021376
 20
4707.635294509077
 42
-0.2200089805681688
  0
ARC
  5
4147
330
19
100
AcDbEntity
  8
1
100
AcDbCircle
 10
14923.4802217405
 20
4722.635294509078
 30
0.0
 40
10.0
100
AcDbArc
 50
90.0
 51
146.5581282105191
  0
LWPOLYLINE
  5
4148
330
19
100
AcDbEntity
  8
1
100
AcDbPolyline
 90
        2
 70
     0
 43
0.0
 10
14915.13576825334
 20
4728.146201512522
 42
-0.0934525219043797
 10
14895.24561657493
 20
4707.635294509077
 42
-0.1987366729981355
  0
CIRCLE
  5
4149
330
19
100
AcDbEntity
  8
1
100
AcDbCircle
 10
14884.05961324502
 20
4665.876759151934
 30
0.0
 40
4.0
  0
LINE
  5
414A
330
19
100
AcDbEntity
  8
CT
100
AcDbLine
 10
14881.85965136165
 20
4674.087128675392
 30
0.0
 11
14885.9690871467
 21
4658.750505535125
 31
0.0
  0
CIRCLE
  5
414B
330
19
100
AcDbEntity
  8
1
100
AcDbCircle
 10
14808.29898584682
 20
4622.136340529612
 30
0.0
 40
4.0
  0
LINE
  5
414C
330
19
100
AcDbEntity
  8
CT
100
AcDbLine
 10
14802.28857820673
 20
4628.146748169698
 30
0.0
 11
14813.51576556194
 21
4616.919560814486
 31
0.0
  0
CIRCLE
  5
414D
330
19
100
AcDbEntity
  8
1
100
AcDbCircle
 10
14971.54045048967
 20
4665.87675915193
 30
0.0
 40
4.0
  0
LINE
  5
414E
330
19
100
AcDbEntity
  8
CT
100
AcDbLine
 10
14973.74041237304
 20
4674.087128675387
 30
0.0
 11
14969.63097658799
 21
4658.750505535119
 31
0.0
  0
LWPOLYLINE
  5
414F
330
19
100
AcDbEntity
  8
1
100
AcDbPolyline
 90
        2
 70
     0
 43
0.0
 10
14781.98261191657
 20
4290.094310902517
 42
-0.1174780416237576
 10
14713.53773678537
 20
4385.88743545853
 42
-0.1174780416237576
  0
CIRCLE
  5
4152
330
19
100
AcDbEntity
  8
1
100
AcDbCircle
 10
14764.55856722449
 20
4458.894875886764
 30
0.0
 40
4.0
  0
LINE
  5
4153
330
19
100
AcDbEntity
  8
CT
100
AcDbLine
 10
14756.34819770103
 20
4456.694914003391
 30
0.0
 11
14771.68482084129
 21
4460.804349788448
 31
0.0
  0
CIRCLE
  5
4155
330
19
100
AcDbEntity
  8
1
100
AcDbCircle
 10
14764.55856722449
 20
4546.375713131416
 30
0.0
 40
4.0
  0
LINE
  5
4156
330
19
100
AcDbEntity
  8
CT
100
AcDbLine
 10
14756.34819770103
 20
4548.575675014786
 30
0.0
 11
14771.6848208413
 21
4544.466239229732
 31
0.0
  0
DIMENSION
  5
448E
330
19
100
AcDbEntity
  8
SP
100
AcDbDimension
  2
*D9
 10
16299.37511013998
 20
4962.635294509084
 30
0.0
 11
16238.87511013998
 21
5000.135294509084
 31
0.0
 70
    32
 71
     5
 42
121.0
  3
GOD
100
AcDbAlignedDimension
 13
16178.37511013998
 23
4917.75139915572
 33
0.0
 14
16299.37511013998
 24
4684.13529450908
 34
0.0
100
AcDbRotatedDimension
  0
LINE
  5
448F
330
19
100
AcDbEntity
  8
2
100
AcDbLine
 10
16178.37511013998
 20
4839.821085121053
 30
0.0
 11
16178.37511013998
 21
4195.689360228545
 31
0.0
1001
ACAD
1000
ASC_BOUNDS
1002
{
1070
    19
1005
0
1005
0
1002
}
  0
DIMENSION
  5
4490
330
19
100
AcDbEntity
  8
SP
100
AcDbDimension
  2
*D8
 10
16290.37511013998
 20
4857.751399155721
 30
0.0
 11
16178.37511013998
 21
4895.251399155721
 31
0.0
 70
    32
 71
     5
 42
224.0
  3
GOD
100
AcDbAlignedDimension
 13
16066.37511013998
 23
4752.635294509084
 33
0.0
 14
16290.37511013998
 24
4752.635294509084
 34
0.0
100
AcDbRotatedDimension
  0
LINE
  5
4492
330
19
100
AcDbEntity
  8
FUTO
100
AcDbLine
 10
15876.17511013998
 20
4502.635294509082
 30
0.0
 11
15746.37511013998
 21
4150.835294509082
 31
0.0
  0
LINE
  5
4493
330
19
100
AcDbEntity
  8
FUTO
100
AcDbLine
 10
15746.37511013998
 20
4150.835294509082
 30
0.0
 11
16053.17511013998
 21
4150.835294509082
 31
0.0
  0
LINE
  5
4494
330
19
100
AcDbEntity
  8
1
100
AcDbLine
 10
15746.37511013998
 20
4147.635294509083
 30
0.0
 11
16096.37511013998
 21
4147.635294509083
 31
0.0
  0
LINE
  5
4495
330
19
100
AcDbEntity
  8
1
100
AcDbLine
 10
15930.37511013998
 20
4602.635294509082
 30
0.0
 11
15855.03541013998
 21
4602.635294509082
 31
0.0
  0
LINE
  5
4496
330
19
100
AcDbEntity
  8
2
100
AcDbLine
 10
16343.247130187
 20
4502.63529450908
 30
0.0
 11
15715.9869895734
 21
4502.63529450908
 31
0.0
  0
LINE
  5
4497
330
19
100
AcDbEntity
  8
FUTO
100
AcDbLine
 10
15746.37511013998
 20
4147.635294509083
 30
0.0
 11
15746.37511013998
 21
4150.835294509082
 31
0.0
  0
LINE
  5
4498
330
19
100
AcDbEntity
  8
1
100
AcDbLine
 10
15757.37511013998
 20
4419.082394509082
 30
0.0
 11
15757.37511013998
 21
4586.216194509083
 31
0.0
  0
LINE
  5
4499
330
19
100
AcDbEntity
  8
1
100
AcDbLine
 10
15847.37511013998
 20
4603.435294509083
 30
0.0
 11
15847.37511013998
 21
4452.635294509081
 31
0.0
  0
LINE
  5
449A
330
19
100
AcDbEntity
  8
1
100
AcDbLine
 10
15807.37511013998
 20
4406.635294509082
 30
0.0
 11
15807.37511013998
 21
4601.935294509083
 31
0.0
  0
LINE
  5
449B
330
19
100
AcDbEntity
  8
FUTO
100
AcDbLine
 10
15805.85199311601
 20
4311.773623687134
 30
0.0
 11
15758.25416932056
 21
4399.146787701623
 31
0.0
  0
LINE
  5
449C
330
19
100
AcDbEntity
  8
1
100
AcDbLine
 10
15833.37511013998
 20
4443.635294509082
 30
0.0
 11
15847.37511013998
 21
4452.635294509081
 31
0.0
  0
LINE
  5
449D
330
19
100
AcDbEntity
  8
1
100
AcDbLine
 10
15833.27561013998
 20
4417.635294509081
 30
0.0
 11
15844.85680028083
 21
4417.635294509081
 31
0.0
  0
LINE
  5
449E
330
19
100
AcDbEntity
  8
1
100
AcDbLine
 10
15833.37511013998
 20
4405.635294509082
 30
0.0
 11
15808.37511013998
 21
4405.635294509082
 31
0.0
  0
ARC
  5
449F
330
19
100
AcDbEntity
  8
1
100
AcDbCircle
 10
15808.37521013998
 20
4406.635294509082
 30
0.0
 40
1.000099999999999
100
AcDbArc
 50
180.0
 51
269.9965000000103
  0
LINE
  5
44A0
330
19
100
AcDbEntity
  8
1
100
AcDbLine
 10
15833.37511013998
 20
4405.635294509082
 30
0.0
 11
15833.37511013998
 21
4443.635294509082
 31
0.0
  0
ARC
  5
44A1
330
19
100
AcDbEntity
  8
1
100
AcDbCircle
 10
15759.17491013998
 20
4419.082194509083
 30
0.0
 40
1.7998
100
AcDbArc
 50
179.9961000000213
 51
257.5983000000071
  0
LINE
  5
44A2
330
19
100
AcDbEntity
  8
FUTO
100
AcDbLine
 10
15745.37511013998
 20
4373.946787701625
 30
0.0
 11
15747.77511013998
 21
4373.946787701625
 31
0.0
  0
ARC
  5
44A3
330
19
100
AcDbEntity
  8
FUTO
100
AcDbCircle
 10
15750.17511013998
 20
4396.746787701623
 30
0.0
 40
2.4
100
AcDbArc
 50
89.99999999999998
 51
180.0
  0
ARC
  5
44A4
330
19
100
AcDbEntity
  8
FUTO
100
AcDbCircle
 10
15750.17511013998
 20
4396.746787701623
 30
0.0
 40
4.8
100
AcDbArc
 50
89.99999999999998
 51
180.0
  0
LINE
  5
44A5
330
19
100
AcDbEntity
  8
FUTO
100
AcDbLine
 10
15747.77511013998
 20
4373.946787701625
 30
0.0
 11
15747.77511013998
 21
4396.746787701623
 31
0.0
  0
LINE
  5
44A6
330
19
100
AcDbEntity
  8
FUTO
100
AcDbLine
 10
15745.37511013998
 20
4373.946787701625
 30
0.0
 11
15745.37511013998
 21
4396.746787701623
 31
0.0
  0
LINE
  5
44A7
330
19
100
AcDbEntity
  8
FUTO
100
AcDbLine
 10
15750.17511013998
 20
4399.146787701623
 30
0.0
 11
15838.04469692754
 21
4399.14678770162
 31
0.0
  0
LINE
  5
44A8
330
19
100
AcDbEntity
  8
FUTO
100
AcDbLine
 10
15750.17511013998
 20
4401.546787701621
 30
0.0
 11
15838.92897861768
 21
4401.546787701621
 31
0.0
  0
LINE
  5
44A9
330
19
100
AcDbEntity
  8
1
100
AcDbLine
 10
15807.37511013998
 20
4406.635294509082
 30
0.0
 11
15758.78841013998
 21
4417.324394509082
 31
0.0
  0
LINE
  5
44AA
330
19
100
AcDbEntity
  8
1
100
AcDbLine
 10
15847.37511013998
 20
4603.435294509083
 30
0.0
 11
15808.87511013998
 21
4603.435294509083
 31
0.0
  0
ARC
  5
44AB
330
19
100
AcDbEntity
  8
1
100
AcDbCircle
 10
15808.87511013998
 20
4601.935294509083
 30
0.0
 40
1.5
100
AcDbArc
 50
89.99999999999998
 51
180.0
  0
LINE
  5
44AC
330
19
100
AcDbEntity
  8
1
100
AcDbLine
 10
15847.20681013998
 20
4589.075994509083
 30
0.0
 11
15855.03541013998
 21
4602.635294509082
 31
0.0
  0
ARC
  5
44AD
330
19
100
AcDbEntity
  8
1
100
AcDbCircle
 10
15759.17501013998
 20
4586.216294509082
 30
0.0
 40
1.7999
100
AcDbArc
 50
103.4933999999954
 51
180.0018999999831
  0
LINE
  5
44AE
330
19
100
AcDbEntity
  8
1
100
AcDbLine
 10
15807.37511013998
 20
4599.635294509082
 30
0.0
 11
15758.75501013998
 21
4587.966494509083
 31
0.0
  0
LWPOLYLINE
  5
44AF
330
19
100
AcDbEntity
  8
1
100
AcDbPolyline
 90
        2
 70
     0
 43
0.0
 10
16053.17511013998
 20
4694.510955866618
 10
16053.17511013998
 20
4147.635294509083
  0
LWPOLYLINE
  5
44B0
330
19
100
AcDbEntity
  8
1
100
AcDbPolyline
 90
        3
 70
     0
 43
0.0
 10
16056.37511013998
 20
4697.953405346608
 10
16056.37511013998
 20
4502.635294509082
 10
16056.37511013998
 20
4147.635294509083
  0
LINE
  5
44B2
330
19
100
AcDbEntity
  8
1
100
AcDbLine
 10
16056.37511013998
 20
4150.835294509082
 30
0.0
 11
16096.37511013998
 21
4150.835294509082
 31
0.0
  0
LWPOLYLINE
  5
44B3
330
19
100
AcDbEntity
  8
1
100
AcDbPolyline
 90
        2
 70
     0
 43
0.0
 10
16096.37511013998
 20
4150.835294509082
 10
16096.37511013998
 20
4147.635294509082
  0
LINE
  5
44B7
330
19
100
AcDbEntity
  8
1
100
AcDbLine
 10
16080.37511013998
 20
4238.404012875247
 30
0.0
 11
16276.37511013998
 21
4238.404012875247
 31
0.0
  0
LINE
  5
44B9
330
19
100
AcDbEntity
  8
1
100
AcDbLine
 10
16065.37511013998
 20
4320.135294509082
 30
0.0
 11
16058.37511013998
 21
4320.135294509082
 31
0.0
  0
ARC
  5
44BA
330
19
100
AcDbEntity
  8
1
100
AcDbCircle
 10
16058.37511013998
 20
4321.135294509081
 30
0.0
 40
1.0
100
AcDbArc
 50
180.0
 51
270.0
  0
LINE
  5
44C3
330
19
100
AcDbEntity
  8
1
100
AcDbLine
 10
16291.37511013998
 20
4751.435294509084
 30
0.0
 11
16272.57511013998
 21
4732.635294509083
 31
0.0
  0
LINE
  5
44C4
330
19
100
AcDbEntity
  8
1
100
AcDbLine
 10
16045.37511013998
 20
4752.635294509084
 30
0.0
 11
16311.37511013998
 21
4752.635294509084
 31
0.0
  0
LINE
  5
44C5
330
19
100
AcDbEntity
  8
1
100
AcDbLine
 10
16045.37511013998
 20
4751.435294509084
 30
0.0
 11
16311.37511013998
 21
4751.435294509084
 31
0.0
  0
LINE
  5
44C6
330
19
100
AcDbEntity
  8
1
100
AcDbLine
 10
16056.37511013998
 20
4697.953405346608
 30
0.0
 11
15874.81312693203
 21
4502.635294509082
 31
0.0
  0
LINE
  5
44C7
330
19
100
AcDbEntity
  8
1
100
AcDbLine
 10
16066.37511013998
 20
4752.635294509084
 30
0.0
 11
16066.37511013998
 21
4253.404012875248
 31
0.0
  0
LINE
  5
44C8
330
19
100
AcDbEntity
  8
1
100
AcDbLine
 10
16065.37511013998
 20
4752.635294509084
 30
0.0
 11
16065.37511013998
 21
4253.404012875248
 31
0.0
  0
LINE
  5
44C9
330
19
100
AcDbEntity
  8
1
100
AcDbLine
 10
15930.37511013998
 20
4602.635294509082
 30
0.0
 11
15967.77019191151
 21
4602.635294509082
 31
0.0
  0
LINE
  5
44CA
330
19
100
AcDbEntity
  8
1
100
AcDbLine
 10
16065.37511013998
 20
4751.435294509084
 30
0.0
 11
16084.17511013998
 21
4732.635294509083
 31
0.0
  0
ARC
  5
44CB
330
19
100
AcDbEntity
  8
1
100
AcDbCircle
 10
16058.37511013998
 20
4684.135294509081
 30
0.0
 40
1.0
100
AcDbArc
 50
89.99999999999998
 51
180.0
  0
ARC
  5
44CC
330
19
100
AcDbEntity
  8
1
100
AcDbCircle
 10
16064.37511013998
 20
4686.135294509081
 30
0.0
 40
1.0
100
AcDbArc
 50
270.0
 51
0.0
  0
LINE
  5
44CD
330
19
100
AcDbEntity
  8
1
100
AcDbLine
 10
16064.37511013998
 20
4685.135294509082
 30
0.0
 11
16058.37511013998
 21
4685.135294509082
 31
0.0
  0
LINE
  5
44CE
330
19
100
AcDbEntity
  8
1
100
AcDbLine
 10
16045.37511013998
 20
4752.635294509084
 30
0.0
 11
16045.37511013998
 21
4751.435294509084
 31
0.0
1001
ACAD
1000
ASC_BOUNDS
1002
{
1070
    19
1002
}
  0
LINE
  5
44CF
330
19
100
AcDbEntity
  8
1
100
AcDbLine
 10
16084.17511013998
 20
4732.635294509083
 30
0.0
 11
16272.57511013998
 21
4732.635294509083
 31
0.0
  0
LINE
  5
44D0
330
19
100
AcDbEntity
  8
1
100
AcDbLine
 10
16290.37511013998
 20
4752.635294509084
 30
0.0
 11
16290.37511013998
 21
4253.404012875248
 31
0.0
  0
LINE
  5
44D1
330
19
100
AcDbEntity
  8
1
100
AcDbLine
 10
16291.37511013998
 20
4752.635294509084
 30
0.0
 11
16291.37511013998
 21
4253.404012875248
 31
0.0
  0
LINE
  5
44D9
330
19
100
AcDbEntity
  8
1
100
AcDbLine
 10
16311.37511013998
 20
4752.635294509084
 30
0.0
 11
16311.37511013998
 21
4751.435294509084
 31
0.0
1001
ACAD
1000
ASC_BOUNDS
1002
{
1070
    19
1002
}
  0
ARC
  5
4690
330
19
100
AcDbEntity
  8
1
100
AcDbCircle
 10
16276.37511013998
 20
4253.404012875248
 30
0.0
 40
15.0
100
AcDbArc
 50
270.0000000000002
 51
0.0000000000004962
  0
ARC
  5
4691
330
19
100
AcDbEntity
  8
1
100
AcDbCircle
 10
16080.37511013998
 20
4253.404012875248
 30
0.0
 40
15.0
100
AcDbArc
 50
179.9999999999995
 51
270.0
  0
DIMENSION
  5
4CA3
330
19
100
AcDbEntity
  8
SP
100
AcDbDimension
  2
*D13
 10
14553.48209998095
 20
5854.362935220169
 30
0.0
 11
14515.98209998095
 21
5996.862935220171
 31
0.0
 70
    32
 71
     5
 42
122.0
  3
GOD
100
AcDbAlignedDimension
 13
14677.80003186733
 23
5732.362935220169
 33
0.0
 14
14681.71647291018
 24
5854.362935220169
 34
0.0
 50
90.0
100
AcDbRotatedDimension
  0
LINE
  5
4CA4
330
19
100
AcDbEntity
  8
2
100
AcDbLine
 10
14927.80003186734
 20
5393.259398171078
 30
0.0
 11
14927.80003186734
 21
6048.10375393326
 31
0.0
  0
LINE
  5
4CA5
330
19
100
AcDbEntity
  8
HOSO
100
AcDbLine
 10
15239.90663358513
 20
5745.75633350237
 30
0.0
 11
14930.69343014953
 21
5962.969536937967
 31
0.0
  0
LINE
  5
4CA6
330
19
100
AcDbEntity
  8
HOSO
100
AcDbLine
 10
15239.90663358513
 20
5962.969536937967
 30
0.0
 11
14930.69343014953
 21
5745.75633350237
 31
0.0
  0
LINE
  5
4CA7
330
19
100
AcDbEntity
  8
FUTO
100
AcDbLine
 10
14926.30003186733
 20
5952.362935220168
 30
0.0
 11
14926.30003186733
 21
5756.362935220169
 31
0.0
  0
LINE
  5
4CA8
330
19
100
AcDbEntity
  8
FUTO
100
AcDbLine
 10
15244.30003186733
 20
5756.362935220169
 30
0.0
 11
15244.30003186733
 21
5952.362935220168
 31
0.0
  0
LINE
  5
4CA9
330
19
100
AcDbEntity
  8
FUTO
100
AcDbLine
 10
15264.30003186733
 20
5746.362935220169
 30
0.0
 11
15264.30003186733
 21
5962.362935220169
 31
0.0
  0
LINE
  5
4CAA
330
19
100
AcDbEntity
  8
FUTO
100
AcDbLine
 10
14906.30003186733
 20
5962.362935220169
 30
0.0
 11
14906.30003186733
 21
5746.362935220169
 31
0.0
  0
LINE
  5
4CAB
330
19
100
AcDbEntity
  8
1
100
AcDbLine
 10
14704.80003186734
 20
5756.362935220169
 30
0.0
 11
14704.80003186734
 21
5952.362935220168
 31
0.0
  0
DIMENSION
  5
4CAC
330
19
100
AcDbEntity
  8
SP
100
AcDbDimension
  2
*D11
 10
14677.80003186734
 20
5316.285453706379
 30
0.0
 11
14927.80003186734
 21
5353.785453706379
 31
0.0
 70
    32
 71
     5
 42
500.0
  3
GOD
100
AcDbAlignedDimension
 13
15177.80003186734
 23
5422.362935220169
 33
0.0
 14
14677.80003186734
 24
5422.362935220169
 34
0.0
 50
180.0
100
AcDbRotatedDimension
  0
LINE
  5
4CAF
330
19
100
AcDbEntity
  8
1
100
AcDbLine
 10
14906.67267143401
 20
5741.362935220171
 30
0.0
 11
14719.80003186734
 21
5741.362935220169
 31
0.0
  0
LINE
  5
4CB0
330
19
100
AcDbEntity
  8
2
100
AcDbLine
 10
15284.28490655211
 20
5854.362935220169
 30
0.0
 11
14681.71647291018
 21
5854.362935220169
 31
0.0
1001
ACAD
1000
ASC_BOUNDS
1002
{
1070
    19
1005
0
1005
0
1002
}
  0
LINE
  5
4CB1
330
19
100
AcDbEntity
  8
1
100
AcDbLine
 10
15027.80003186734
 20
5532.02323522017
 30
0.0
 11
15027.80003186734
 21
5682.702635220169
 31
0.0
  0
LINE
  5
4CB2
330
19
100
AcDbEntity
  8
1
100
AcDbLine
 10
14827.80003186734
 20
5682.702635220169
 30
0.0
 11
14827.80003186734
 21
5532.02323522017
 31
0.0
  0
LINE
  5
4CB6
330
19
100
AcDbEntity
  8
1
100
AcDbLine
 10
14830.80003186734
 20
5484.362935220168
 30
0.0
 11
14842.46883186734
 21
5435.742835220168
 31
0.0
  0
LINE
  5
4CB7
330
19
100
AcDbEntity
  8
1
100
AcDbLine
 10
15024.80003186734
 20
5484.362935220168
 30
0.0
 11
15013.13123186734
 21
5435.742835220168
 31
0.0
  0
LINE
  5
4CB9
330
19
100
AcDbEntity
  8
1
100
AcDbLine
 10
14844.24713186734
 20
5434.362935220168
 30
0.0
 11
15011.38093186733
 21
5434.362935220168
 31
0.0
  0
LINE
  5
4CBA
330
19
100
AcDbEntity
  8
1
100
AcDbLine
 10
14844.24713186734
 20
5434.362935220168
 30
0.0
 11
15011.38093186734
 21
5434.362935220168
 31
0.0
  0
ARC
  5
4CBB
330
19
100
AcDbEntity
  8
1
100
AcDbCircle
 10
15011.38103186734
 20
5436.162835220169
 30
0.0
 40
1.7999
100
AcDbArc
 50
269.9981000000006
 51
346.5066000000023
  0
ARC
  5
4CBF
330
19
100
AcDbEntity
  8
1
100
AcDbCircle
 10
14844.21903186734
 20
5436.162835220169
 30
0.0
 40
1.7999
100
AcDbArc
 50
193.4933999999977
 51
270.0018999999994
  0
LINE
  5
4CC0
330
19
100
AcDbEntity
  8
1
100
AcDbLine
 10
15028.60003186734
 20
5524.362935220168
 30
0.0
 11
14827.00003186734
 21
5524.362935220168
 31
0.0
  0
LINE
  5
4CC1
330
19
100
AcDbEntity
  8
1
100
AcDbLine
 10
14831.80003186734
 20
5484.362935220168
 30
0.0
 11
15027.10003186734
 21
5484.362935220168
 31
0.0
  0
LINE
  5
4CC2
330
19
100
AcDbEntity
  8
1
100
AcDbLine
 10
15014.24073186734
 20
5524.194635220169
 30
0.0
 11
15027.80003186734
 21
5532.02323522017
 31
0.0
  0
ARC
  5
4CC3
330
19
100
AcDbEntity
  8
1
100
AcDbCircle
 10
15027.10003186734
 20
5485.862935220168
 30
0.0
 40
1.5
100
AcDbArc
 50
270.0
 51
0.000000000000007
  0
LINE
  5
4CC4
330
19
100
AcDbEntity
  8
1
100
AcDbLine
 10
15028.60003186734
 20
5524.362935220168
 30
0.0
 11
15028.60003186734
 21
5485.862935220168
 31
0.0
  0
LINE
  5
4CC6
330
19
100
AcDbEntity
  8
1
100
AcDbLine
 10
14841.35933186734
 20
5524.194635220169
 30
0.0
 11
14827.80003186734
 21
5532.02323522017
 31
0.0
  0
ARC
  5
4CC7
330
19
100
AcDbEntity
  8
1
100
AcDbCircle
 10
14828.50003186734
 20
5485.862935220168
 30
0.0
 40
1.5
100
AcDbArc
 50
180.0
 51
270.0
  0
LINE
  5
4CC8
330
19
100
AcDbEntity
  8
1
100
AcDbLine
 10
14827.00003186734
 20
5524.362935220168
 30
0.0
 11
14827.00003186734
 21
5485.862935220168
 31
0.0
  0
LINE
  5
4CC9
330
19
100
AcDbEntity
  8
FUTO
100
AcDbLine
 10
15229.30003186733
 20
5741.362935220169
 30
0.0
 11
14941.30003186733
 21
5741.362935220169
 31
0.0
1001
ACAD
1000
ASC_BOUNDS
1002
{
1070
    19
1005
0
1005
0
1002
}
  0
LINE
  5
4CCA
330
19
100
AcDbEntity
  8
FUTO
100
AcDbLine
 10
15239.30003186733
 20
5721.362935220168
 30
0.0
 11
14931.30003186733
 21
5721.362935220168
 31
0.0
1001
ACAD
1000
ASC_BOUNDS
1002
{
1070
    19
1005
0
1005
0
1002
}
  0
ARC
  5
4CCB
330
19
100
AcDbEntity
  8
FUTO
100
AcDbCircle
 10
15229.30003186733
 20
5756.362935220169
 30
0.0
 40
15.0
100
AcDbArc
 50
270.0
 51
0.0000000000001342
  0
ARC
  5
4CCC
330
19
100
AcDbEntity
  8
FUTO
100
AcDbCircle
 10
15239.30003186733
 20
5746.36293522017
 30
0.0
 40
25.0
100
AcDbArc
 50
270.000000000001
 51
359.9999999999979
  0
ARC
  5
4CCD
330
19
100
AcDbEntity
  8
FUTO
100
AcDbCircle
 10
14941.30003186733
 20
5756.362935220169
 30
0.0
 40
15.0
100
AcDbArc
 50
180.0
 51
270.0
  0
LINE
  5
4CCE
330
19
100
AcDbEntity
  8
1
100
AcDbLine
 10
15009.80003186734
 20
5712.090614653588
 30
0.0
 11
14845.80003186734
 21
5712.090614653588
 31
0.0
  0
LINE
  5
4CCF
330
19
100
AcDbEntity
  8
1
100
AcDbLine
 10
14842.80003186734
 20
5691.362935220169
 30
0.0
 11
15012.80003186734
 21
5691.362935220169
 31
0.0
  0
ARC
  5
4CD1
330
19
100
AcDbEntity
  8
1
100
AcDbCircle
 10
15009.80013186734
 20
5709.090614653588
 30
0.0
 40
2.999899999999999
100
AcDbArc
 50
359.9988000000029
 51
90.00120000000034
  0
LINE
  5
4CD2
330
19
100
AcDbEntity
  8
1
100
AcDbLine
 10
15027.80003186734
 20
5682.702635220169
 30
0.0
 11
15012.80003186734
 21
5691.362935220169
 31
0.0
  0
LINE
  5
4CD3
330
19
100
AcDbEntity
  8
1
100
AcDbLine
 10
15012.80003186734
 20
5694.362935220169
 30
0.0
 11
15012.80003186734
 21
5691.362935220169
 31
0.0
  0
LINE
  5
4CD4
330
19
100
AcDbEntity
  8
1
100
AcDbLine
 10
15012.80003186734
 20
5691.362935220169
 30
0.0
 11
15012.80003186734
 21
5709.090614653588
 31
0.0
  0
LINE
  5
4CD9
330
19
100
AcDbEntity
  8
1
100
AcDbLine
 10
14942.40003186734
 20
5718.090614653588
 30
0.0
 11
14942.40003186734
 21
5741.362935220172
 31
0.0
  0
LINE
  5
4CDA
330
19
100
AcDbEntity
  8
1
100
AcDbLine
 10
14913.20013186734
 20
5718.090614653588
 30
0.0
 11
14913.20013186734
 21
5741.362935220169
 31
0.0
  0
ARC
  5
4CDB
330
19
100
AcDbEntity
  8
1
100
AcDbCircle
 10
14890.80003186734
 20
5715.090614653588
 30
0.0
 40
2.999899999999999
100
AcDbArc
 50
89.99879999999967
 51
180.0011999999971
  0
LINE
  5
4CDC
330
19
100
AcDbEntity
  8
1
100
AcDbLine
 10
14887.80003186734
 20
5712.090614653588
 30
0.0
 11
14887.80003186734
 21
5715.090614653588
 31
0.0
  0
ARC
  5
4CDD
330
19
100
AcDbEntity
  8
1
100
AcDbCircle
 10
14845.79993186734
 20
5709.090614653588
 30
0.0
 40
2.999899999999999
100
AcDbArc
 50
89.99879999999967
 51
180.0011999999971
  0
LINE
  5
4CDE
330
19
100
AcDbEntity
  8
1
100
AcDbLine
 10
14827.80003186734
 20
5682.702635220169
 30
0.0
 11
14842.80003186734
 21
5691.362935220169
 31
0.0
  0
LINE
  5
4CDF
330
19
100
AcDbEntity
  8
1
100
AcDbLine
 10
14842.80003186734
 20
5694.362935220169
 30
0.0
 11
14842.80003186734
 21
5691.362935220169
 31
0.0
  0
LINE
  5
4CE0
330
19
100
AcDbEntity
  8
1
100
AcDbLine
 10
14842.80003186734
 20
5691.362935220169
 30
0.0
 11
14842.80003186734
 21
5709.090614653588
 31
0.0
  0
LINE
  5
4CE1
330
19
100
AcDbEntity
  8
1
100
AcDbLine
 10
14967.80003186734
 20
5712.090614653588
 30
0.0
 11
14967.80003186734
 21
5715.090614653588
 31
0.0
  0
ARC
  5
4CE2
330
19
100
AcDbEntity
  8
1
100
AcDbCircle
 10
14964.80013186734
 20
5715.090614653588
 30
0.0
 40
2.999899999999999
100
AcDbArc
 50
359.9988000000029
 51
90.00120000000034
  0
LINE
  5
4CE3
330
19
100
AcDbEntity
  8
1
100
AcDbLine
 10
14890.80003186734
 20
5718.090614653588
 30
0.0
 11
14964.80003186734
 21
5718.090614653588
 31
0.0
  0
ARC
  5
4CE4
330
19
100
AcDbEntity
  8
FUTO
100
AcDbCircle
 10
14931.30003186733
 20
5746.362935220169
 30
0.0
 40
25.0
100
AcDbArc
 50
180.0
 51
270.0
  0
DIMENSION
  5
4CE5
330
19
100
AcDbEntity
  8
SP
100
AcDbDimension
  2
*D12
 10
14553.48209998095
 20
5422.362935220169
 30
0.0
 11
14515.98209998095
 21
5577.362935220171
 31
0.0
 70
    32
 71
     5
 42
309.9999999999982
  3
GOD
100
AcDbAlignedDimension
 13
14677.80003186734
 23
5732.362935220167
 33
0.0
 14
14677.80003186734
 24
5422.362935220169
 34
0.0
 50
90.0
100
AcDbRotatedDimension
  0
ARC
  5
4CED
330
19
100
AcDbEntity
  8
1
100
AcDbCircle
 10
14719.80003186734
 20
5756.362935220169
 30
0.0
 40
15.0
100
AcDbArc
 50
180.0
 51
270.0
  0
ARC
  5
4CF2
330
19
100
AcDbEntity
  8
1
100
AcDbCircle
 10
14748.14545167935
 20
5933.789082068271
 30
0.0
 40
48.65638419258441
100
AcDbArc
 50
43.63165127683589
 51
56.49996633473549
  0
LWPOLYLINE
  5
4CF3
330
19
100
AcDbEntity
  8
1
100
AcDbPolyline
 90
        3
 70
     0
 43
0.0
 10
14746.30003186734
 20
5975.362935220169
 10
14927.80003186734
 20
5975.362935220169
 10
14948.13033464716
 20
5975.362935220169
  0
LINE
  5
4CF4
330
19
100
AcDbEntity
  8
1
100
AcDbLine
 10
14906.30003186749
 20
5967.362935220165
 30
0.0
 11
14719.80003186734
 21
5967.362935220169
 31
0.0
  0
LINE
  5
4CF5
330
19
100
AcDbEntity
  8
FUTO
100
AcDbLine
 10
15229.30003186733
 20
5967.362935220169
 30
0.0
 11
14941.30003186733
 21
5967.362935220169
 31
0.0
1001
ACAD
1000
ASC_BOUNDS
1002
{
1070
    19
1005
0
1005
0
1002
}
  0
LINE
  5
4CF6
330
19
100
AcDbEntity
  8
FUTO
100
AcDbLine
 10
15239.30003186733
 20
5987.362935220168
 30
0.0
 11
14931.30003186733
 21
5987.362935220168
 31
0.0
1001
ACAD
1000
ASC_BOUNDS
1002
{
1070
    19
1005
0
1005
0
1002
}
  0
ARC
  5
4CF7
330
19
100
AcDbEntity
  8
FUTO
100
AcDbCircle
 10
15229.30003186733
 20
5952.362935220168
 30
0.0
 40
15.0
100
AcDbArc
 50
0.000000000000007
 51
90.0
  0
ARC
  5
4CF8
330
19
100
AcDbEntity
  8
FUTO
100
AcDbCircle
 10
15239.30003186733
 20
5962.362935220166
 30
0.0
 40
25.0
100
AcDbArc
 50
0.0000000000041799
 51
89.99999999999896
  0
LWPOLYLINE
  5
4CF9
330
19
100
AcDbEntity
  8
1
100
AcDbPolyline
 90
        2
 70
     0
 43
0.0
 10
14948.13033464716
 20
5975.362935220169
 10
15109.30003186734
 20
5975.362935220169
  0
ARC
  5
4CFA
330
19
100
AcDbEntity
  8
1
100
AcDbCircle
 10
15107.45461205533
 20
5933.789082068271
 30
0.0
 40
48.65638419258441
100
AcDbArc
 50
123.5000336652645
 51
136.3683487231641
  0
ARC
  5
4CFB
330
19
100
AcDbEntity
  8
1
100
AcDbCircle
 10
15108.30003186734
 20
5973.362935220169
 30
0.0
 40
1.0
100
AcDbArc
 50
0.000000000000007
 51
89.99999999999998
  0
ARC
  5
4CFC
330
19
100
AcDbEntity
  8
1
100
AcDbCircle
 10
15109.30003186734
 20
5974.362935220169
 30
0.0
 40
1.0
100
AcDbArc
 50
0.000000000000007
 51
89.99999999999998
  0
LINE
  5
4CFD
330
19
100
AcDbEntity
  8
1
100
AcDbLine
 10
15109.30003186734
 20
5967.362935220171
 30
0.0
 11
15109.30003186734
 21
5973.362935220171
 31
0.0
  0
LINE
  5
4CFE
330
19
100
AcDbEntity
  8
1
100
AcDbLine
 10
15110.30003186734
 20
5968.362935220169
 30
0.0
 11
15110.30003186734
 21
5974.36293522017
 31
0.0
  0
ARC
  5
4CFF
330
19
100
AcDbEntity
  8
1
100
AcDbCircle
 10
15111.30003186734
 20
5968.362935220169
 30
0.0
 40
1.0
100
AcDbArc
 50
180.0
 51
270.0
  0
LINE
  5
4D00
330
19
100
AcDbEntity
  8
1
100
AcDbLine
 10
15108.30003186734
 20
5974.36293522017
 30
0.0
 11
15080.59933020791
 21
5974.362935220169
 31
0.0
  0
ARC
  5
4D01
330
19
100
AcDbEntity
  8
FUTO
100
AcDbCircle
 10
14941.30003186733
 20
5952.362935220168
 30
0.0
 40
15.0
100
AcDbArc
 50
90.0
 51
180.0
  0
ARC
  5
4D02
330
19
100
AcDbEntity
  8
FUTO
100
AcDbCircle
 10
14931.30003186733
 20
5962.36293522017
 30
0.0
 40
25.0
100
AcDbArc
 50
89.99999999999586
 51
180.0000000000021
  0
ARC
  5
4D03
330
19
100
AcDbEntity
  8
1
100
AcDbCircle
 10
14744.30003186734
 20
5968.362935220169
 30
0.0
 40
1.0
100
AcDbArc
 50
270.0
 51
0.000000000000007
  0
LINE
  5
4D04
330
19
100
AcDbEntity
  8
1
100
AcDbLine
 10
14745.30003186734
 20
5968.362935220169
 30
0.0
 11
14745.30003186734
 21
5974.362935220169
 31
0.0
  0
LINE
  5
4D05
330
19
100
AcDbEntity
  8
1
100
AcDbLine
 10
14746.30003186734
 20
5967.362935220169
 30
0.0
 11
14746.30003186734
 21
5973.362935220169
 31
0.0
  0
ARC
  5
4D06
330
19
100
AcDbEntity
  8
1
100
AcDbCircle
 10
14746.30003186734
 20
5974.362935220169
 30
0.0
 40
1.0
100
AcDbArc
 50
89.99999999999998
 51
180.0
  0
ARC
  5
4D07
330
19
100
AcDbEntity
  8
1
100
AcDbCircle
 10
14747.30003186734
 20
5973.362935220169
 30
0.0
 40
1.0
100
AcDbArc
 50
89.99999999999998
 51
180.0
  0
ARC
  5
4D08
330
19
100
AcDbEntity
  8
1
100
AcDbCircle
 10
14746.30003186734
 20
5974.362935220169
 30
0.0
 40
1.0
100
AcDbArc
 50
89.99999999999998
 51
180.0
  0
LINE
  5
4D09
330
19
100
AcDbEntity
  8
1
100
AcDbLine
 10
14747.30003186734
 20
5974.362935220169
 30
0.0
 11
14775.00073352677
 21
5974.362935220169
 31
0.0
  0
ARC
  5
4D0A
330
19
100
AcDbEntity
  8
1
100
AcDbCircle
 10
14719.80003186734
 20
5952.362935220168
 30
0.0
 40
15.0
100
AcDbArc
 50
90.0
 51
180.0
  0
LINE
  5
57A7
330
19
100
AcDbEntity
  8
FUTO
100
AcDbLine
 10
14677.80003186735
 20
4147.635294509082
 30
0.0
 11
15177.80003186734
 21
4147.635294509082
 31
0.0
  0
LINE
  5
57A8
330
19
100
AcDbEntity
  8
1
100
AcDbLine
 10
14677.80003186735
 20
4149.935294509081
 30
0.0
 11
14715.50003186736
 21
4149.935294509081
 31
0.0
  0
LINE
  5
57A9
330
19
100
AcDbEntity
  8
1
100
AcDbLine
 10
14677.80003186735
 20
4149.935294509081
 30
0.0
 11
14677.80003186735
 21
4147.635294509082
 31
0.0
  0
LINE
  5
57AA
330
19
100
AcDbEntity
  8
2
100
AcDbLine
 10
14695.80003186734
 20
4099.288408389977
 30
0.0
 11
14695.80003186734
 21
4161.139306172914
 31
0.0
  0
LINE
  5
57AB
330
19
100
AcDbEntity
  8
1
100
AcDbLine
 10
15177.80003186734
 20
4149.935294509081
 30
0.0
 11
15140.10003186733
 21
4149.935294509081
 31
0.0
  0
LINE
  5
57AC
330
19
100
AcDbEntity
  8
1
100
AcDbLine
 10
15177.80003186734
 20
4149.935294509081
 30
0.0
 11
15177.80003186734
 21
4147.635294509082
 31
0.0
  0
LINE
  5
57AD
330
19
100
AcDbEntity
  8
2
100
AcDbLine
 10
15159.80003186735
 20
4099.288408389977
 30
0.0
 11
15159.80003186735
 21
4161.139306172914
 31
0.0
  0
LINE
  5
57AE
330
19
100
AcDbEntity
  8
1
100
AcDbLine
 10
15140.10003186733
 20
4585.735294509082
 30
0.0
 11
15140.10003186733
 21
4149.93529450908
 31
0.0
  0
LINE
  5
57AF
330
19
100
AcDbEntity
  8
1
100
AcDbLine
 10
15137.80003186733
 20
4587.557616667709
 30
0.0
 11
15137.80003186734
 21
4147.635294509082
 31
0.0
  0
LINE
  5
57B0
330
19
100
AcDbEntity
  8
1
100
AcDbLine
 10
15097.80003186734
 20
4402.635294509082
 30
0.0
 11
15097.80003186734
 21
4202.635294509081
 31
0.0
  0
LINE
  5
57B1
330
19
100
AcDbEntity
  8
1
100
AcDbLine
 10
15137.80003186734
 20
4202.635294509081
 30
0.0
 11
15097.80003186734
 21
4202.635294509081
 31
0.0
  0
LINE
  5
57B2
330
19
100
AcDbEntity
  8
1
100
AcDbLine
 10
14717.80003186736
 20
4587.557616667709
 30
0.0
 11
14717.80003186735
 21
4147.635294509082
 31
0.0
  0
LINE
  5
57B3
330
19
100
AcDbEntity
  8
1
100
AcDbLine
 10
14715.50003186736
 20
4585.735294509082
 30
0.0
 11
14715.50003186736
 21
4149.93529450908
 31
0.0
  0
LINE
  5
57B4
330
19
100
AcDbEntity
  8
1
100
AcDbLine
 10
14757.80003186735
 20
4402.635294509082
 30
0.0
 11
14757.80003186735
 21
4202.635294509081
 31
0.0
  0
LINE
  5
57B5
330
19
100
AcDbEntity
  8
1
100
AcDbLine
 10
14717.80003186735
 20
4202.635294509081
 30
0.0
 11
14757.80003186735
 21
4202.635294509081
 31
0.0
  0
LINE
  5
57B6
330
19
100
AcDbEntity
  8
1
100
AcDbLine
 10
14717.80003186735
 20
4402.635294509082
 30
0.0
 11
15137.80003186734
 21
4402.635294509081
 31
0.0
  0
LINE
  5
57B7
330
19
100
AcDbEntity
  8
1
100
AcDbLine
 10
14757.80003186735
 20
4362.635294509082
 30
0.0
 11
14927.80003186735
 21
4362.635294509082
 31
0.0
  0
LINE
  5
57B8
330
19
100
AcDbEntity
  8
FUTO
100
AcDbLine
 10
14717.80003186735
 20
4402.635294509082
 30
0.0
 11
14757.80003186735
 21
4362.635294509082
 31
0.0
  0
LINE
  5
57B9
330
19
100
AcDbEntity
  8
FUTO
100
AcDbLine
 10
15137.80003186734
 20
4402.635294509082
 30
0.0
 11
15097.80003186734
 21
4362.635294509082
 31
0.0
  0
LINE
  5
57BA
330
19
100
AcDbEntity
  8
1
100
AcDbLine
 10
15097.80003186734
 20
4362.635294509082
 30
0.0
 11
14927.80003186735
 21
4362.635294509082
 31
0.0
  0
LINE
  5
57BB
330
19
100
AcDbEntity
  8
1
100
AcDbLine
 10
15017.80003186734
 20
4707.635294509082
 30
0.0
 11
15140.10003186733
 21
4585.735294509082
 31
0.0
  0
LINE
  5
57BC
330
19
100
AcDbEntity
  8
1
100
AcDbLine
 10
14837.80003186734
 20
4707.635294509082
 30
0.0
 11
14715.50003186736
 21
4585.735294509082
 31
0.0
  0
LINE
  5
57BD
330
19
100
AcDbEntity
  8
1
100
AcDbLine
 10
14837.80003186734
 20
4707.635294509084
 30
0.0
 11
15017.80003186734
 21
4707.635294509082
 31
0.0
  0
LINE
  5
5968
330
19
100
AcDbEntity
  8
1
100
AcDbLine
 10
14677.80003186734
 20
5422.362935220169
 30
0.0
 11
14677.80003186734
 21
5732.36293522018
 31
0.0
  0
LINE
  5
5969
330
19
100
AcDbEntity
  8
1
100
AcDbLine
 10
14717.80003186734
 20
5422.362935220169
 30
0.0
 11
14717.80003186734
 21
5732.36293522018
 31
0.0
  0
LINE
  5
596A
330
19
100
AcDbEntity
  8
1
100
AcDbLine
 10
14717.80003186734
 20
5732.36293522018
 30
0.0
 11
14677.80003186734
 21
5732.36293522018
 31
0.0
  0
LINE
  5
596B
330
19
100
AcDbEntity
  8
CT
100
AcDbLine
 10
14680.1077436707
 20
5702.362935220168
 30
0.0
 11
14710.80003186734
 21
5702.362935220168
 31
0.0
  0
CIRCLE
  5
596C
330
19
100
AcDbEntity
  8
1
100
AcDbCircle
 10
14695.80003186734
 20
5702.362935220168
 30
0.0
 40
6.0
  0
LINE
  5
596D
330
19
100
AcDbEntity
  8
CT
100
AcDbLine
 10
14695.80003186734
 20
5718.497643102718
 30
0.0
 11
14695.80003186734
 21
5682.830563598277
 31
0.0
  0
LWPOLYLINE
  5
596E
330
19
100
AcDbEntity
  8
1
100
AcDbPolyline
 90
        2
 70
     0
 43
0.0
 10
14717.80003186734
 20
5722.866971870885
 10
14913.20003186734
 20
5722.866971870885
  0
LWPOLYLINE
  5
596F
330
19
100
AcDbEntity
  8
1
100
AcDbPolyline
 90
        2
 70
     0
 43
0.0
 10
14717.80003186734
 20
5470.762935220171
 10
14834.06402515406
 20
5470.762935220171
  0
LINE
  5
5970
330
19
100
AcDbEntity
  8
CT
100
AcDbLine
 10
14695.80003186734
 20
5468.497643102718
 30
0.0
 11
14695.80003186734
 21
5432.830563598277
 31
0.0
  0
LINE
  5
5971
330
19
100
AcDbEntity
  8
1
100
AcDbLine
 10
14677.80003186734
 20
5422.362935220169
 30
0.0
 11
14717.80003186734
 21
5422.362935220169
 31
0.0
  0
CIRCLE
  5
5972
330
19
100
AcDbEntity
  8
1
100
AcDbCircle
 10
14695.80003186734
 20
5452.362935220168
 30
0.0
 40
6.0
  0
LINE
  5
5973
330
19
100
AcDbEntity
  8
CT
100
AcDbLine
 10
14680.1077436707
 20
5452.362935220168
 30
0.0
 11
14710.80003186734
 21
5452.362935220168
 31
0.0
  0
LWPOLYLINE
  5
5974
330
19
100
AcDbEntity
  8
1
100
AcDbPolyline
 90
        2
 70
     0
 43
0.0
 10
15021.53603858061
 20
5470.762935220171
 10
15137.80003186734
 20
5470.762935220168
  0
LINE
  5
5975
330
19
100
AcDbEntity
  8
CT
100
AcDbLine
 10
15159.80003186734
 20
5468.497643102718
 30
0.0
 11
15159.80003186734
 21
5432.830563598277
 31
0.0
  0
LINE
  5
5976
330
19
100
AcDbEntity
  8
1
100
AcDbLine
 10
15137.80003186734
 20
5422.362935220172
 30
0.0
 11
15177.80003186734
 21
5422.362935220169
 31
0.0
  0
LINE
  5
5977
330
19
100
AcDbEntity
  8
CT
100
AcDbLine
 10
15175.49232006398
 20
5452.362935220168
 30
0.0
 11
15144.80003186734
 21
5452.362935220168
 31
0.0
  0
CIRCLE
  5
5978
330
19
100
AcDbEntity
  8
1
100
AcDbCircle
 10
15159.80003186734
 20
5452.362935220168
 30
0.0
 40
6.0
  0
LINE
  5
5979
330
19
100
AcDbEntity
  8
1
100
AcDbLine
 10
15177.80003186734
 20
5422.362935220169
 30
0.0
 11
15177.80003186734
 21
5732.362935220169
 31
0.0
  0
LINE
  5
597A
330
19
100
AcDbEntity
  8
1
100
AcDbLine
 10
15137.80003186734
 20
5422.362935220169
 30
0.0
 11
15137.80003186734
 21
5732.362935220169
 31
0.0
  0
CIRCLE
  5
597B
330
19
100
AcDbEntity
  8
1
100
AcDbCircle
 10
15159.80003186734
 20
5702.362935220168
 30
0.0
 40
6.0
  0
LINE
  5
597C
330
19
100
AcDbEntity
  8
CT
100
AcDbLine
 10
15159.80003186734
 20
5718.497643102718
 30
0.0
 11
15159.80003186734
 21
5682.830563598277
 31
0.0
  0
LINE
  5
597D
330
19
100
AcDbEntity
  8
FUTO
100
AcDbLine
 10
15137.80003186734
 20
5732.362935220169
 30
0.0
 11
15177.80003186734
 21
5732.362935220169
 31
0.0
  0
LWPOLYLINE
  5
597E
330
19
100
AcDbEntity
  8
1
100
AcDbPolyline
 90
        2
 70
     0
 43
0.0
 10
14942.39993186734
 20
5722.866971870885
 10
15137.80003186734
 20
5722.866971870885
  0
LINE
  5
597F
330
19
100
AcDbEntity
  8
CT
100
AcDbLine
 10
15175.49232006398
 20
5702.362935220168
 30
0.0
 11
15144.80003186734
 21
5702.362935220168
 31
0.0
  0
DIMENSION
  5
5D91
330
19
100
AcDbEntity
  8
SP
100
AcDbDimension
  2
*D15
 10
15177.80003186735
 20
3941.635294509082
 30
0.0
 11
15052.80003186735
 21
3979.135294509082
 31
0.0
 70
    32
 71
     5
 42
249.9999999999927
  3
GOD
100
AcDbAlignedDimension
 13
14927.80003186735
 23
4011.265404136124
 33
0.0
 14
15177.80003186735
 24
4046.635294509082
 34
0.0
100
AcDbRotatedDimension
  0
LINE
  5
5D92
330
19
100
AcDbEntity
  8
FUTO
100
AcDbLine
 10
14717.80003186736
 20
4111.635294509082
 30
0.0
 11
15137.80003186735
 21
4111.635294509082
 31
0.0
  0
LINE
  5
5D93
330
19
100
AcDbEntity
  8
FUTO
100
AcDbLine
 10
14717.80003186736
 20
4071.635294509081
 30
0.0
 11
15137.80003186735
 21
4071.635294509081
 31
0.0
  0
DIMENSION
  5
5D94
330
19
100
AcDbEntity
  8
SP
100
AcDbDimension
  2
*D16
 10
15177.80003186735
 20
3836.635294509083
 30
0.0
 11
14927.80003186735
 21
3874.135294509083
 31
0.0
 70
    32
 71
     5
 42
499.9999999999854
  3
GOD
100
AcDbAlignedDimension
 13
14677.80003186736
 23
4046.635294509082
 33
0.0
 14
15177.80003186735
 24
4046.635294509082
 34
0.0
100
AcDbRotatedDimension
  0
DIMENSION
  5
5D95
330
19
100
AcDbEntity
  8
SP
100
AcDbDimension
  2
*D17
 10
14677.80003186736
 20
3941.635294509082
 30
0.0
 11
14802.80003186736
 21
3979.135294509082
 31
0.0
 70
    32
 71
     5
 42
249.9999999999927
  3
GOD
100
AcDbAlignedDimension
 13
14927.80003186735
 23
4011.265404136124
 33
0.0
 14
14677.80003186736
 24
4046.635294509082
 34
0.0
100
AcDbRotatedDimension
  0
LINE
  5
5D96
330
19
100
AcDbEntity
  8
FUTO
100
AcDbLine
 10
14717.80003186736
 20
4111.635294509082
 30
0.0
 11
14717.80003186736
 21
4046.635294509082
 31
0.0
  0
LINE
  5
5D97
330
19
100
AcDbEntity
  8
FUTO
100
AcDbLine
 10
14714.60003186736
 20
4108.435294509082
 30
0.0
 11
14714.60003186736
 21
4049.835294509082
 31
0.0
  0
LINE
  5
5D98
330
19
100
AcDbEntity
  8
FUTO
100
AcDbLine
 10
14677.80003186736
 20
4111.635294509082
 30
0.0
 11
14677.80003186736
 21
4108.435294509082
 31
0.0
  0
LINE
  5
5D99
330
19
100
AcDbEntity
  8
FUTO
100
AcDbLine
 10
14677.80003186736
 20
4049.835294509083
 30
0.0
 11
14677.80003186736
 21
4046.635294509082
 31
0.0
  0
LINE
  5
5D9A
330
19
100
AcDbEntity
  8
FUTO
100
AcDbLine
 10
14677.80003186736
 20
4111.635294509082
 30
0.0
 11
14717.80003186736
 21
4111.635294509082
 31
0.0
  0
LINE
  5
5D9B
330
19
100
AcDbEntity
  8
FUTO
100
AcDbLine
 10
14677.80003186736
 20
4046.635294509082
 30
0.0
 11
14717.80003186736
 21
4046.635294509082
 31
0.0
  0
LINE
  5
5D9C
330
19
100
AcDbEntity
  8
FUTO
100
AcDbLine
 10
14677.80003186736
 20
4108.435294509082
 30
0.0
 11
14714.60003186736
 21
4108.435294509082
 31
0.0
  0
LINE
  5
5D9D
330
19
100
AcDbEntity
  8
FUTO
100
AcDbLine
 10
14677.80003186736
 20
4049.835294509082
 30
0.0
 11
14714.60003186736
 21
4049.835294509082
 31
0.0
  0
LINE
  5
5D9E
330
19
100
AcDbEntity
  8
FUTO
100
AcDbLine
 10
15177.80003186735
 20
4049.835294509082
 30
0.0
 11
15141.00003186735
 21
4049.835294509082
 31
0.0
  0
LINE
  5
5D9F
330
19
100
AcDbEntity
  8
FUTO
100
AcDbLine
 10
15177.80003186735
 20
4108.435294509082
 30
0.0
 11
15141.00003186735
 21
4108.435294509082
 31
0.0
  0
LINE
  5
5DA0
330
19
100
AcDbEntity
  8
FUTO
100
AcDbLine
 10
15177.80003186735
 20
4046.635294509082
 30
0.0
 11
15137.80003186735
 21
4046.635294509082
 31
0.0
  0
LINE
  5
5DA1
330
19
100
AcDbEntity
  8
FUTO
100
AcDbLine
 10
15177.80003186735
 20
4111.635294509082
 30
0.0
 11
15137.80003186735
 21
4111.635294509082
 31
0.0
  0
LINE
  5
5DA2
330
19
100
AcDbEntity
  8
FUTO
100
AcDbLine
 10
15177.80003186735
 20
4049.835294509083
 30
0.0
 11
15177.80003186735
 21
4046.635294509082
 31
0.0
  0
LINE
  5
5DA3
330
19
100
AcDbEntity
  8
FUTO
100
AcDbLine
 10
15177.80003186735
 20
4111.635294509082
 30
0.0
 11
15177.80003186735
 21
4108.435294509082
 31
0.0
  0
LINE
  5
5DA4
330
19
100
AcDbEntity
  8
FUTO
100
AcDbLine
 10
15141.00003186735
 20
4108.435294509082
 30
0.0
 11
15141.00003186735
 21
4049.835294509082
 31
0.0
  0
LINE
  5
5DA5
330
19
100
AcDbEntity
  8
FUTO
100
AcDbLine
 10
15137.80003186735
 20
4111.635294509082
 30
0.0
 11
15137.80003186735
 21
4046.635294509082
 31
0.0
  0
DIMENSION
  5
5F0F
330
19
100
AcDbEntity
  8
SP
100
AcDbDimension
  2
*D19
 10
14572.80003186733
 20
4111.635294509082
 30
0.0
 11
14521.8364904144
 21
4122.156269079558
 31
0.0
 70
   160
 71
     5
 42
36.0
  3
GOD
100
AcDbAlignedDimension
 13
14677.80003186733
 23
4147.635294509082
 33
0.0
 14
14677.80003186733
 24
4111.635294509082
 34
0.0
 50
90.0
100
AcDbRotatedDimension
1001
ACAD
1000
DSTYLE
1002
{
1070
   279
1070
     2
1070
   344
1005
5AD4
1070
   343
1005
5AD4
1070
     3
1000
（<>）
1002
}
  0
DIMENSION
  5
5F10
330
19
100
AcDbEntity
  8
SP
100
AcDbDimension
  2
*D18
 10
14572.80003186733
 20
4046.635294509082
 30
0.0
 11
14535.30003186733
 21
3918.253417226484
 31
0.0
 70
    32
 71
     5
 42
65.00000000000046
  3
GOD
100
AcDbAlignedDimension
 13
14677.80003186733
 23
4111.635294509082
 33
0.0
 14
14677.80003186733
 24
4046.635294509082
 34
0.0
 50
90.0
100
AcDbRotatedDimension
1001
ACAD
1000
DSTYLE
1002
{
1070
   343
1005
1EB4
1002
}
  0
LINE
  5
608E
330
19
100
AcDbEntity
  8
FUTO
100
AcDbLine
 10
15746.37511013998
 20
4111.635294509083
 30
0.0
 11
16056.37511013998
 21
4111.635294509083
 31
0.0
  0
LINE
  5
608F
330
19
100
AcDbEntity
  8
FUTO
100
AcDbLine
 10
15746.37511013998
 20
4046.635294509083
 30
0.0
 11
16056.37511013998
 21
4046.635294509083
 31
0.0
  0
LINE
  5
6090
330
19
100
AcDbEntity
  8
FUTO
100
AcDbLine
 10
15746.37511013998
 20
4108.435294509083
 30
0.0
 11
16056.37511013998
 21
4108.435294509083
 31
0.0
  0
LINE
  5
6091
330
19
100
AcDbEntity
  8
FUTO
100
AcDbLine
 10
15746.37511013998
 20
4049.835294509082
 30
0.0
 11
16056.37511013998
 21
4049.835294509082
 31
0.0
  0
DIMENSION
  5
6092
330
19
100
AcDbEntity
  8
SP
100
AcDbDimension
  2
*D20
 10
16056.37511013998
 20
3941.635294509082
 30
0.0
 11
15901.37511013998
 21
3979.135294509081
 31
0.0
 70
    32
 71
     5
 42
310.0
  3
GOD
100
AcDbAlignedDimension
 13
15746.37511013998
 23
4046.635294509083
 33
0.0
 14
16056.37511013998
 24
4046.635294509083
 34
0.0
100
AcDbRotatedDimension
  0
LINE
  5
6093
330
19
100
AcDbEntity
  8
FUTO
100
AcDbLine
 10
15746.37511013998
 20
4111.635294509083
 30
0.0
 11
15746.37511013998
 21
4046.635294509083
 31
0.0
  0
LINE
  5
6094
330
19
100
AcDbEntity
  8
FUTO
100
AcDbLine
 10
16056.37511013998
 20
4111.635294509083
 30
0.0
 11
16056.37511013998
 21
4046.635294509083
 31
0.0
  0
TEXT
  5
614B
330
19
100
AcDbEntity
  8
4
100
AcDbText
 10
15033.95114513362
 20
6397.953053740807
 30
0.0
 40
80.99999999999999
  1
床置防振ベッド型
100
AcDbText
  0
TEXT
  5
614C
330
19
100
AcDbEntity
  8
4
100
AcDbText
 10
16024.12014238469
 20
6397.953053740807
 30
0.0
 40
80.99999999999999
  1
縮尺：1/15
100
AcDbText
  0
LWPOLYLINE
  5
61E9
330
19
100
AcDbEntity
  8
1
100
AcDbPolyline
 90
        3
 70
     0
 43
0.0
 10
16299.37511013998
 20
4684.135294509082
 10
16299.37511013998
 20
4502.635294509082
 10
16299.37511013998
 20
4321.135294509082
  0
LINE
  5
61EA
330
19
100
AcDbEntity
  8
1
100
AcDbLine
 10
16292.37511013998
 20
4320.135294509084
 30
0.0
 11
16298.37511013998
 21
4320.135294509084
 31
0.0
  0
ARC
  5
61EB
330
19
100
AcDbEntity
  8
1
100
AcDbCircle
 10
16292.37511013998
 20
4319.135294509083
 30
0.0
 40
1.0
100
AcDbArc
 50
90.0
 51
180.0
  0
ARC
  5
61EC
330
19
100
AcDbEntity
  8
1
100
AcDbCircle
 10
16298.37511013998
 20
4321.135294509082
 30
0.0
 40
1.0
100
AcDbArc
 50
270.0
 51
0.0
  0
LINE
  5
61ED
330
19
100
AcDbEntity
  8
FUTO
100
AcDbLine
 10
16299.37511013998
 20
4345.13529450908
 30
0.0
 11
16291.37511013998
 21
4345.13529450908
 31
0.0
  0
LINE
  5
61EE
330
19
100
AcDbEntity
  8
FUTO
100
AcDbLine
 10
16299.37511013998
 20
4660.13529450908
 30
0.0
 11
16291.37511013998
 21
4660.13529450908
 31
0.0
  0
LINE
  5
61EF
330
19
100
AcDbEntity
  8
1
100
AcDbLine
 10
16292.37511013998
 20
4685.135294509082
 30
0.0
 11
16298.37511013998
 21
4685.135294509082
 31
0.0
  0
ARC
  5
61F0
330
19
100
AcDbEntity
  8
1
100
AcDbCircle
 10
16292.37511013998
 20
4686.135294509081
 30
0.0
 40
1.0
100
AcDbArc
 50
180.0
 51
270.0
  0
ARC
  5
61F1
330
19
100
AcDbEntity
  8
1
100
AcDbCircle
 10
16298.37511013998
 20
4684.135294509081
 30
0.0
 40
1.0
100
AcDbArc
 50
0.0
 51
90.0
  0
LINE
  5
61F2
330
19
100
AcDbEntity
  8
1
100
AcDbLine
 10
16080.37511013998
 20
4239.404012875247
 30
0.0
 11
16276.37511013998
 21
4239.404012875247
 31
0.0
  0
ARC
  5
61F3
330
19
100
AcDbEntity
  8
1
100
AcDbCircle
 10
16080.37511013998
 20
4253.404012875248
 30
0.0
 40
14.0
100
AcDbArc
 50
179.9999999999995
 51
270.0
  0
ARC
  5
61F4
330
19
100
AcDbEntity
  8
1
100
AcDbCircle
 10
16276.37511013998
 20
4253.404012875248
 30
0.0
 40
14.0
100
AcDbArc
 50
270.0000000000002
 51
0.0000000000004962
  0
LINE
  5
638A
330
19
100
AcDbEntity
  8
1
100
AcDbLine
 10
16057.37511013998
 20
4684.135294509081
 30
0.0
 11
16057.37511013998
 21
4321.135294509081
 31
0.0
  0
DIMENSION
  5
638B
330
19
100
AcDbEntity
  8
SP
100
AcDbDimension
  2
*D27
 10
15757.37511013998
 20
4962.635294509084
 30
0.0
 11
15967.87511013998
 21
5011.921008794798
 31
0.0
 70
    32
  1
(420)
 71
     5
 42
421.0
  3
GOD
100
AcDbAlignedDimension
 13
16178.37511013998
 23
4917.75139915572
 33
0.0
 14
15757.37511013998
 24
4586.216194509083
 34
0.0
100
AcDbRotatedDimension
1001
ACAD
1000
DSTYLE
1002
{
1070
   279
1070
     1
1002
}
  0
DIMENSION
  5
6398
330
19
100
AcDbEntity
  8
SP
100
AcDbDimension
  2
*D28
 10
16178.37511013998
 20
3941.635294509082
 30
0.0
 11
16300.17091844433
 21
3936.382041036011
 31
0.0
 70
   160
 71
     5
 42
121.9999999999981
  3
GOD
100
AcDbAlignedDimension
 13
16056.37511013998
 23
4046.635294509083
 33
0.0
 14
16178.37511013998
 24
4195.689360228545
 34
0.0
100
AcDbRotatedDimension
1001
ACAD
1000
DSTYLE
1002
{
1070
   279
1070
     1
1002
}
  0
ENDSEC
  0
SECTION
  2
OBJECTS
  0
DICTIONARY
  5
C
330
0
100
AcDbDictionary
281
     1
  3
ACAD_CIP_PREVIOUS_PRODUCT_INFO
350
62B8
  3
ACAD_COLOR
350
629A
  3
ACAD_DETAILVIEWSTYLE
350
62B3
  3
ACAD_GROUP
350
D
  3
ACAD_LAYOUT
350
1E92
  3
ACAD_MATERIAL
350
6268
  3
ACAD_MLEADERSTYLE
350
62AF
  3
ACAD_MLINESTYLE
350
E
  3
ACAD_PLOTSETTINGS
350
1E93
  3
ACAD_PLOTSTYLENAME
350
1E90
  3
ACAD_SCALELIST
350
629D
  3
ACAD_SECTIONVIEWSTYLE
350
62B1
  3
ACAD_TABLESTYLE
350
629B
  3
ACAD_VISUALSTYLE
350
6281
  3
AcadDim
350
1EC5
  3
ACDB_RECOMPOSE_DATA
350
643A
  3
AcDbVariableDictionary
350
6424
  3
AcDsDecomposeData
350
6441
  3
DWGPROPS
350
643B
  0
DICTIONARY
  5
63F2
330
2
100
AcDbDictionary
280
     1
281
     1
  3
ACAD_LAYERSTATES
360
63F3
  0
DICTIONARY
  5
63D7
330
F
100
AcDbDictionary
280
     1
281
     1
  3
ADSK_XREC_LAYER_RECONCILED
360
63D8
  0
DICTIONARY
  5
63D9
330
2F
100
AcDbDictionary
280
     1
281
     1
  3
ADSK_XREC_LAYER_RECONCILED
360
63DA
  0
DICTIONARY
  5
63DB
330
30
100
AcDbDictionary
280
     1
281
     1
  3
ADSK_XREC_LAYER_RECONCILED
360
63DC
  0
DICTIONARY
  5
63DD
330
32
100
AcDbDictionary
280
     1
281
     1
  3
ADSK_XREC_LAYER_RECONCILED
360
63DE
  0
DICTIONARY
  5
63DF
330
33
100
AcDbDictionary
280
     1
281
     1
  3
ADSK_XREC_LAYER_RECONCILED
360
63E0
  0
DICTIONARY
  5
63E1
330
34
100
AcDbDictionary
280
     1
281
     1
  3
ADSK_XREC_LAYER_RECONCILED
360
63E2
  0
DICTIONARY
  5
63E3
330
35
100
AcDbDictionary
280
     1
281
     1
  3
ADSK_XREC_LAYER_RECONCILED
360
63E4
  0
DICTIONARY
  5
63E5
330
36
100
AcDbDictionary
280
     1
281
     1
  3
ADSK_XREC_LAYER_RECONCILED
360
63E6
  0
DICTIONARY
  5
63E7
330
1EEE
100
AcDbDictionary
280
     1
281
     1
  3
ADSK_XREC_LAYER_RECONCILED
360
63E8
  0
DICTIONARY
  5
63E9
330
1EEF
100
AcDbDictionary
280
     1
281
     1
  3
ADSK_XREC_LAYER_RECONCILED
360
63EA
  0
DICTIONARY
  5
63EB
330
1EF0
100
AcDbDictionary
280
     1
281
     1
  3
ADSK_XREC_LAYER_RECONCILED
360
63EC
  0
DICTIONARY
  5
63ED
330
2188
100
AcDbDictionary
280
     1
281
     1
  3
ADSK_XREC_LAYER_RECONCILED
360
63EE
  0
XRECORD
  5
62B8
102
{ACAD_REACTORS
330
C
102
}
330
C
100
AcDbXrecord
280
     1
300
ACDLT
300
2015
300
INVLTS_F_S
  0
DICTIONARY
  5
629A
102
{ACAD_REACTORS
330
C
102
}
330
C
100
AcDbDictionary
281
     1
  0
DICTIONARY
  5
62B3
102
{ACAD_REACTORS
330
C
102
}
330
C
100
AcDbDictionary
281
     1
  3
Metric50
350
62B4
  0
DICTIONARY
  5
D
102
{ACAD_REACTORS
330
C
102
}
330
C
100
AcDbDictionary
281
     1
  0
DICTIONARY
  5
1E92
102
{ACAD_REACTORS
330
C
102
}
330
C
100
AcDbDictionary
281
     1
  3
Model
350
1E94
  3
ﾚｲｱｳﾄ1
350
1E95
  0
DICTIONARY
  5
6268
102
{ACAD_REACTORS
330
C
102
}
330
C
100
AcDbDictionary
281
     1
  3
ByBlock
350
6271
  3
ByLayer
350
6269
  3
Global
350
6279
  0
DICTIONARY
  5
62AF
102
{ACAD_REACTORS
330
C
102
}
330
C
100
AcDbDictionary
281
     1
  3
Standard
350
62B0
  0
DICTIONARY
  5
E
102
{ACAD_REACTORS
330
C
102
}
330
C
100
AcDbDictionary
281
     1
  3
STANDARD
350
1C
  0
DICTIONARY
  5
1E93
102
{ACAD_REACTORS
330
C
102
}
330
C
100
AcDbDictionary
281
     1
  0
ACDBDICTIONARYWDFLT
  5
1E90
102
{ACAD_REACTORS
330
C
102
}
330
C
100
AcDbDictionary
281
     1
  3
Normal
350
1E91
100
AcDbDictionaryWithDefault
340
1E91
  0
DICTIONARY
  5
629D
102
{ACAD_REACTORS
330
C
102
}
330
C
100
AcDbDictionary
281
     1
  3
A0
350
629E
  3
A1
350
629F
  3
A2
350
62A0
  3
A3
350
62A1
  3
A4
350
62A2
  3
A5
350
62A3
  3
A6
350
62A4
  3
A7
350
62A5
  3
A8
350
62A6
  3
A9
350
62A7
  3
B0
350
62A8
  3
B1
350
62A9
  3
B2
350
62AA
  3
B3
350
62AB
  3
B4
350
62AC
  3
B5
350
62AD
  3
B6
350
62AE
  0
DICTIONARY
  5
62B1
102
{ACAD_REACTORS
330
C
102
}
330
C
100
AcDbDictionary
281
     1
  3
Metric50
350
62B2
  0
DICTIONARY
  5
629B
102
{ACAD_REACTORS
330
C
102
}
330
C
100
AcDbDictionary
281
     1
  3
Standard
350
629C
  0
DICTIONARY
  5
6281
102
{ACAD_REACTORS
330
C
102
}
330
C
100
AcDbDictionary
281
     1
  3
2dWireframe
350
6287
  3
Basic
350
6286
  3
Brighten
350
628D
  3
ColorChange
350
6291
  3
Conceptual
350
628A
  3
Dim
350
628C
  3
EdgeColorOff
350
6299
  3
Facepattern
350
6290
  3
Flat
350
6282
  3
FlatWithEdges
350
6283
  3
Gouraud
350
6284
  3
GouraudWithEdges
350
6285
  3
Hidden
350
6289
  3
JitterOff
350
6297
  3
Linepattern
350
628F
  3
OverhangOff
350
6298
  3
Realistic
350
628B
  3
Shaded
350
6296
  3
Shaded with edges
350
6295
  3
Shades of Gray
350
6292
  3
Sketchy
350
6293
  3
Thicken
350
628E
  3
Wireframe
350
6288
  3
X-Ray
350
6294
  0
XRECORD
  5
1EC5
102
{ACAD_REACTORS
330
C
102
}
330
C
100
AcDbXrecord
280
     1
 90
   990106
  3

 60
     0
 61
     0
 62
     4
 63
     4
 64
     1
 65
     0
 66
     1
 67
     3
 68
     1
 69
     0
 70
     0
 71
     0
 72
     0
 40
0.0
170
     1
340
0
  0
XRECORD
  5
643A
102
{ACAD_REACTORS
330
C
102
}
330
C
100
AcDbXrecord
280
     1
 90
        1
330
5F0F
330
629C
  0
DICTIONARY
  5
6424
102
{ACAD_REACTORS
330
C
102
}
330
C
100
AcDbDictionary
281
     1
  3
CANNOSCALE
350
642A
  3
CMLEADERSTYLE
350
6426
  3
CTABLESTYLE
350
6425
  3
CVIEWDETAILSTYLE
350
6427
  3
CVIEWSECTIONSTYLE
350
6428
  3
DIMASSOC
350
6436
  3
INDEXCTL
350
6435
  3
LAYEREVAL
350
642C
  3
LAYERNOTIFY
350
642D
  3
LIGHTINGUNITS
350
642B
  3
MSLTSCALE
350
6429
  3
SORTENTS
350
6434
  3
XCLIPFRAME
350
6437
  0
DICTIONARY
  5
6441
102
{ACAD_REACTORS
330
C
102
}
330
C
100
AcDbDictionary
281
     1
  3
AcDsRecords
350
6443
  3
AcDsSchemas
350
6442
1001
ACAD
1070
     2
  0
XRECORD
  5
643B
102
{ACAD_REACTORS
330
C
102
}
330
C
100
AcDbXrecord
280
     1
  1
DWGPROPS COOKIE
  2

  3

  4

  6

  7

  8
toshiyuki.morita
  9

300
=
301
=
302
=
303
=
304
=
305
=
306
=
307
=
308
=
309
=
 40
0.4773653472222223
 41
2454939.604632489
 42
2459353.581444757
  1

 90
        0
  0
DICTIONARY
  5
63F3
102
{ACAD_REACTORS
330
63F2
102
}
330
63F2
100
AcDbDictionary
281
     1
  0
XRECORD
  5
63D8
102
{ACAD_REACTORS
330
63D7
102
}
330
63D7
100
AcDbXrecord
280
     1
290
     1
  0
XRECORD
  5
63DA
102
{ACAD_REACTORS
330
63D9
102
}
330
63D9
100
AcDbXrecord
280
     1
290
     1
  0
XRECORD
  5
63DC
102
{ACAD_REACTORS
330
63DB
102
}
330
63DB
100
AcDbXrecord
280
     1
290
     1
  0
XRECORD
  5
63DE
102
{ACAD_REACTORS
330
63DD
102
}
330
63DD
100
AcDbXrecord
280
     1
290
     1
  0
XRECORD
  5
63E0
102
{ACAD_REACTORS
330
63DF
102
}
330
63DF
100
AcDbXrecord
280
     1
290
     1
  0
XRECORD
  5
63E2
102
{ACAD_REACTORS
330
63E1
102
}
330
63E1
100
AcDbXrecord
280
     1
290
     1
  0
XRECORD
  5
63E4
102
{ACAD_REACTORS
330
63E3
102
}
330
63E3
100
AcDbXrecord
280
     1
290
     1
  0
XRECORD
  5
63E6
102
{ACAD_REACTORS
330
63E5
102
}
330
63E5
100
AcDbXrecord
280
     1
290
     1
  0
XRECORD
  5
63E8
102
{ACAD_REACTORS
330
63E7
102
}
330
63E7
100
AcDbXrecord
280
     1
290
     1
  0
XRECORD
  5
63EA
102
{ACAD_REACTORS
330
63E9
102
}
330
63E9
100
AcDbXrecord
280
     1
290
     1
  0
XRECORD
  5
63EC
102
{ACAD_REACTORS
330
63EB
102
}
330
63EB
100
AcDbXrecord
280
     1
290
     1
  0
XRECORD
  5
63EE
102
{ACAD_REACTORS
330
63ED
102
}
330
63ED
100
AcDbXrecord
280
     1
290
     1
  0
ACDBDETAILVIEWSTYLE
  5
62B4
102
{ACAD_XDICTIONARY
360
6422
102
}
102
{ACAD_REACTORS
330
62B3
102
}
330
62B3
100
AcDbModelDocViewStyle
 70
     0
  3
Metric50
290
     0
100
AcDbDetailViewStyle
 70
     0
 71
     0
 90
        3
 71
     1
340
10
 40
5.0
340
0
 40
5.0
300

 40
0.0
280
     1
 71
     2
340
15
 90
       25
 71
     3
340
10
 40
5.0
 90
        0
 40
15.0
 90
        1
300
%<\AcVar ViewDetailId>% (%<\AcVar ViewScale \f "%sn">%)
 71
     4
340
15
 90
       25
340
15
 90
       25
280
     0
  0
LAYOUT
  5
1E94
102
{ACAD_XDICTIONARY
360
6444
102
}
102
{ACAD_REACTORS
330
1E92
102
}
330
1E92
100
AcDbPlotSettings
  1

  2
EPSON LP-9300
  4

  6

 40
0.0
 41
0.0
 42
0.0
 43
0.0
 44
0.0
 45
0.0
 46
0.0
 47
0.0
 48
0.0
 49
0.0
140
0.0
141
0.0
142
1.0
143
1.0
 70
  1712
 72
     0
 73
     0
 74
     0
  7
GOD2000TABLE.ctb
 75
     0
147
1.0
148
0.0
149
0.0
100
AcDbLayout
  1
Model
 70
     1
 71
     0
 10
0.0
 20
0.0
 11
12.0
 21
9.0
 12
0.0
 22
0.0
 32
0.0
 14
0.0
 24
0.0
 34
0.0
 15
0.0
 25
0.0
 35
0.0
146
0.0
 13
0.0
 23
0.0
 33
0.0
 16
1.0
 26
0.0
 36
0.0
 17
0.0
 27
1.0
 37
0.0
 76
     0
330
19
331
6266
  0
LAYOUT
  5
1E95
102
{ACAD_XDICTIONARY
360
6446
102
}
102
{ACAD_REACTORS
330
1E92
102
}
330
1E92
100
AcDbPlotSettings
  1

  2
EPSON LP-9300
  4

  6

 40
0.0
 41
0.0
 42
0.0
 43
0.0
 44
0.0
 45
0.0
 46
0.0
 47
0.0
 48
0.0
 49
0.0
140
0.0
141
0.0
142
1.0
143
1.0
 70
   688
 72
     0
 73
     0
 74
     5
  7
GOD2000TABLE.ctb
 75
    16
147
1.0
148
0.0
149
0.0
100
AcDbLayout
  1
ﾚｲｱｳﾄ1
 70
     0
 71
     1
 10
0.0
 20
0.0
 11
12.0
 21
9.0
 12
0.0
 22
0.0
 32
0.0
 14
1.000000000000000E+20
 24
1.000000000000000E+20
 34
1.000000000000000E+20
 15
-1.000000000000000E+20
 25
-1.000000000000000E+20
 35
-1.000000000000000E+20
146
0.0
 13
0.0
 23
0.0
 33
0.0
 16
1.0
 26
0.0
 36
0.0
 17
0.0
 27
1.0
 37
0.0
 76
     0
330
16
  0
MATERIAL
  5
6271
102
{ACAD_XDICTIONARY
360
6272
102
}
102
{ACAD_REACTORS
330
6268
102
}
330
6268
100
AcDbMaterial
  1
ByBlock
 72
     0
 43
0.0208333333333333
 43
0.0
 43
0.0
 43
0.0
 43
0.0
 43
0.0208333333333333
 43
0.0
 43
0.0
 43
0.0
 43
0.0
 43
1.0
 43
0.0
 43
0.0
 43
0.0
 43
0.0
 43
1.0
 77
     0
 47
0.0208333333333333
 47
0.0
 47
0.0
 47
0.0
 47
0.0
 47
0.0208333333333333
 47
0.0
 47
0.0
 47
0.0
 47
0.0
 47
1.0
 47
0.0
 47
0.0
 47
0.0
 47
0.0
 47
1.0
171
     0
 49
0.0208333333333333
 49
0.0
 49
0.0
 49
0.0
 49
0.0
 49
0.0208333333333333
 49
0.0
 49
0.0
 49
0.0
 49
0.0
 49
1.0
 49
0.0
 49
0.0
 49
0.0
 49
0.0
 49
1.0
175
     0
142
0.0208333333333333
142
0.0
142
0.0
142
0.0
142
0.0
142
0.0208333333333333
142
0.0
142
0.0
142
0.0
142
0.0
142
1.0
142
0.0
142
0.0
142
0.0
142
0.0
142
1.0
179
     0
144
0.0208333333333333
144
0.0
144
0.0
144
0.0
144
0.0
144
0.0208333333333333
144
0.0
144
0.0
144
0.0
144
0.0
144
1.0
144
0.0
144
0.0
144
0.0
144
0.0
144
1.0
147
0.0208333333333333
147
0.0
147
0.0
147
0.0
147
0.0
147
0.0208333333333333
147
0.0
147
0.0
147
0.0
147
0.0
147
1.0
147
0.0
147
0.0
147
0.0
147
0.0
147
1.0
  0
MATERIAL
  5
6269
102
{ACAD_XDICTIONARY
360
626A
102
}
102
{ACAD_REACTORS
330
6268
102
}
330
6268
100
AcDbMaterial
  1
ByLayer
 72
     0
 43
0.0208333333333333
 43
0.0
 43
0.0
 43
0.0
 43
0.0
 43
0.0208333333333333
 43
0.0
 43
0.0
 43
0.0
 43
0.0
 43
1.0
 43
0.0
 43
0.0
 43
0.0
 43
0.0
 43
1.0
 77
     0
 47
0.0208333333333333
 47
0.0
 47
0.0
 47
0.0
 47
0.0
 47
0.0208333333333333
 47
0.0
 47
0.0
 47
0.0
 47
0.0
 47
1.0
 47
0.0
 47
0.0
 47
0.0
 47
0.0
 47
1.0
171
     0
 49
0.0208333333333333
 49
0.0
 49
0.0
 49
0.0
 49
0.0
 49
0.0208333333333333
 49
0.0
 49
0.0
 49
0.0
 49
0.0
 49
1.0
 49
0.0
 49
0.0
 49
0.0
 49
0.0
 49
1.0
175
     0
142
0.0208333333333333
142
0.0
142
0.0
142
0.0
142
0.0
142
0.0208333333333333
142
0.0
142
0.0
142
0.0
142
0.0
142
1.0
142
0.0
142
0.0
142
0.0
142
0.0
142
1.0
179
     0
144
0.0208333333333333
144
0.0
144
0.0
144
0.0
144
0.0
144
0.0208333333333333
144
0.0
144
0.0
144
0.0
144
0.0
144
1.0
144
0.0
144
0.0
144
0.0
144
0.0
144
1.0
147
0.0208333333333333
147
0.0
147
0.0
147
0.0
147
0.0
147
0.0208333333333333
147
0.0
147
0.0
147
0.0
147
0.0
147
1.0
147
0.0
147
0.0
147
0.0
147
0.0
147
1.0
  0
MATERIAL
  5
6279
102
{ACAD_XDICTIONARY
360
627A
102
}
102
{ACAD_REACTORS
330
6268
102
}
330
6268
100
AcDbMaterial
  1
Global
 72
     0
 43
0.0208333333333333
 43
0.0
 43
0.0
 43
0.0
 43
0.0
 43
0.0208333333333333
 43
0.0
 43
0.0
 43
0.0
 43
0.0
 43
1.0
 43
0.0
 43
0.0
 43
0.0
 43
0.0
 43
1.0
 77
     0
 47
0.0208333333333333
 47
0.0
 47
0.0
 47
0.0
 47
0.0
 47
0.0208333333333333
 47
0.0
 47
0.0
 47
0.0
 47
0.0
 47
1.0
 47
0.0
 47
0.0
 47
0.0
 47
0.0
 47
1.0
171
     0
 49
0.0208333333333333
 49
0.0
 49
0.0
 49
0.0
 49
0.0
 49
0.0208333333333333
 49
0.0
 49
0.0
 49
0.0
 49
0.0
 49
1.0
 49
0.0
 49
0.0
 49
0.0
 49
0.0
 49
1.0
175
     0
142
0.0208333333333333
142
0.0
142
0.0
142
0.0
142
0.0
142
0.0208333333333333
142
0.0
142
0.0
142
0.0
142
0.0
142
1.0
142
0.0
142
0.0
142
0.0
142
0.0
142
1.0
179
     0
144
0.0208333333333333
144
0.0
144
0.0
144
0.0
144
0.0
144
0.0208333333333333
144
0.0
144
0.0
144
0.0
144
0.0
144
1.0
144
0.0
144
0.0
144
0.0
144
0.0
144
1.0
147
0.0208333333333333
147
0.0
147
0.0
147
0.0
147
0.0
147
0.0208333333333333
147
0.0
147
0.0
147
0.0
147
0.0
147
1.0
147
0.0
147
0.0
147
0.0
147
0.0
147
1.0
  0
MLEADERSTYLE
  5
62B0
102
{ACAD_XDICTIONARY
360
647D
102
}
102
{ACAD_REACTORS
330
62AF
102
}
330
62AF
100
AcDbMLeaderStyle
170
     2
171
     1
172
     0
 90
        2
 40
0.0
 41
0.0
173
     1
 91
-1056964608
340
13
 92
       -2
290
     1
 42
2.0
291
     1
 43
0.36
  3
Standard
 44
4.0
300

342
10
174
     1
178
     6
175
     1
176
     0
 93
-1056964608
 45
4.0
292
     0
297
     0
 46
4.0
 94
-1056964608
 47
1.0
 49
1.0
140
1.0
293
     1
141
0.0
294
     1
177
     0
142
1.0
295
     0
296
     0
143
0.125
1001
ACAD_MLEADERVER
1070
     2
  0
MLINESTYLE
  5
1C
102
{ACAD_REACTORS
330
E
102
}
330
E
100
AcDbMlineStyle
  2
STANDARD
 70
     0
  3

 62
     0
 51
90.0
 52
90.0
 71
     2
 49
0.5
 62
   256
  6
BYLAYER
 49
-0.5
 62
   256
  6
BYLAYER
  0
ACDBPLACEHOLDER
  5
1E91
102
{ACAD_REACTORS
330
1E90
102
}
330
1E90
  0
SCALE
  5
629E
102
{ACAD_REACTORS
330
629D
102
}
330
629D
100
AcDbScale
 70
     0
300
1:1
140
1.0
141
1.0
290
     1
  0
SCALE
  5
629F
102
{ACAD_REACTORS
330
629D
102
}
330
629D
100
AcDbScale
 70
     0
300
1:2
140
1.0
141
2.0
290
     0
  0
SCALE
  5
62A0
102
{ACAD_REACTORS
330
629D
102
}
330
629D
100
AcDbScale
 70
     0
300
1:4
140
1.0
141
4.0
290
     0
  0
SCALE
  5
62A1
102
{ACAD_REACTORS
330
629D
102
}
330
629D
100
AcDbScale
 70
     0
300
1:5
140
1.0
141
5.0
290
     0
  0
SCALE
  5
62A2
102
{ACAD_REACTORS
330
629D
102
}
330
629D
100
AcDbScale
 70
     0
300
1:8
140
1.0
141
8.0
290
     0
  0
SCALE
  5
62A3
102
{ACAD_REACTORS
330
629D
102
}
330
629D
100
AcDbScale
 70
     0
300
1:10
140
1.0
141
10.0
290
     0
  0
SCALE
  5
62A4
102
{ACAD_REACTORS
330
629D
102
}
330
629D
100
AcDbScale
 70
     0
300
1:16
140
1.0
141
16.0
290
     0
  0
SCALE
  5
62A5
102
{ACAD_REACTORS
330
629D
102
}
330
629D
100
AcDbScale
 70
     0
300
1:20
140
1.0
141
20.0
290
     0
  0
SCALE
  5
62A6
102
{ACAD_REACTORS
330
629D
102
}
330
629D
100
AcDbScale
 70
     0
300
1:30
140
1.0
141
30.0
290
     0
  0
SCALE
  5
62A7
102
{ACAD_REACTORS
330
629D
102
}
330
629D
100
AcDbScale
 70
     0
300
1:40
140
1.0
141
40.0
290
     0
  0
SCALE
  5
62A8
102
{ACAD_REACTORS
330
629D
102
}
330
629D
100
AcDbScale
 70
     0
300
1:50
140
1.0
141
50.0
290
     0
  0
SCALE
  5
62A9
102
{ACAD_REACTORS
330
629D
102
}
330
629D
100
AcDbScale
 70
     0
300
1:100
140
1.0
141
100.0
290
     0
  0
SCALE
  5
62AA
102
{ACAD_REACTORS
330
629D
102
}
330
629D
100
AcDbScale
 70
     0
300
2:1
140
2.0
141
1.0
290
     0
  0
SCALE
  5
62AB
102
{ACAD_REACTORS
330
629D
102
}
330
629D
100
AcDbScale
 70
     0
300
4:1
140
4.0
141
1.0
290
     0
  0
SCALE
  5
62AC
102
{ACAD_REACTORS
330
629D
102
}
330
629D
100
AcDbScale
 70
     0
300
8:1
140
8.0
141
1.0
290
     0
  0
SCALE
  5
62AD
102
{ACAD_REACTORS
330
629D
102
}
330
629D
100
AcDbScale
 70
     0
300
10:1
140
10.0
141
1.0
290
     0
  0
SCALE
  5
62AE
102
{ACAD_REACTORS
330
629D
102
}
330
629D
100
AcDbScale
 70
     0
300
100:1
140
100.0
141
1.0
290
     0
  0
ACDBSECTIONVIEWSTYLE
  5
62B2
102
{ACAD_XDICTIONARY
360
6420
102
}
102
{ACAD_REACTORS
330
62B1
102
}
330
62B1
100
AcDbModelDocViewStyle
 70
     0
  3
Metric50
290
     0
100
AcDbSectionViewStyle
 70
     0
 71
     0
 90
      102
 71
     1
340
10
 40
5.0
340
0
340
0
 40
5.0
300
I, O, Q, S, X, Z
 40
10.0
 90
        0
 40
2.5
 90
        0
 71
     2
340
15
 90
       25
340
15
 90
       50
 40
5.0
 40
2.5
 40
5.0
 71
     3
340
10
 40
5.0
 90
        0
 40
15.0
 90
        1
300
%<\AcVar ViewSectionStartId>%-%<\AcVar ViewSectionEndId>% (%<\AcVar ViewScale \f "%sn">%)
 71
     4
300
ANSI31
 40
1.0
 90
        0
290
     0
290
     0
 90
        6
 40
0.0
 40
1.570796326794896
 40
0.2617993877991494
 40
1.308996938995747
 40
-0.2617993877991494
 40
1.832595714594046
  0
TABLESTYLE
  5
629C
102
{ACAD_XDICTIONARY
360
6438
102
}
102
{ACAD_REACTORS
330
629B
102
}
330
629B
100
AcDbTableStyle
  3
Standard
 70
     0
 71
     0
 40
1.5
 41
1.5
280
     0
281
     0
  7
STANDARD
140
4.5
170
     2
 62
     0
 63
     7
283
     0
274
    -2
284
     1
 64
     0
275
    -2
285
     1
 65
     0
276
    -2
286
     1
 66
     0
277
    -2
287
     1
 67
     0
278
    -2
288
     1
 68
     0
279
    -2
289
     1
 69
     0
  7
STANDARD
140
6.0
170
     5
 62
     0
 63
     7
283
     0
274
    -2
284
     1
 64
     0
275
    -2
285
     1
 65
     0
276
    -2
286
     1
 66
     0
277
    -2
287
     1
 67
     0
278
    -2
288
     1
 68
     0
279
    -2
289
     1
 69
     0
  7
STANDARD
140
4.5
170
     5
 62
     0
 63
     7
283
     0
274
    -2
284
     1
 64
     0
275
    -2
285
     1
 65
     0
276
    -2
286
     1
 66
     0
277
    -2
287
     1
 67
     0
278
    -2
288
     1
 68
     0
279
    -2
289
     1
 69
     0
  0
VISUALSTYLE
  5
6287
102
{ACAD_XDICTIONARY
360
6455
102
}
102
{ACAD_REACTORS
330
6281
102
}
330
6281
100
AcDbVisualStyle
  2
2dWireframe
 70
     4
 71
     0
 72
     2
 73
     0
 90
        0
 40
-0.6
 41
-30.0
 62
     5
 63
     7
 74
     1
 91
        4
 64
     7
 65
   257
 75
     1
175
     1
 42
1.0
 92
        0
 66
   257
 43
1.0
 76
     1
 77
     6
 78
     2
 67
     7
 79
     5
170
     0
171
     0
290
     0
174
     0
 93
        1
 44
0.0
173
     0
291
     0
 45
0.0
1001
ACAD
1000
AcDbSavedByObjectVersion
1070
     0
  0
VISUALSTYLE
  5
6286
102
{ACAD_XDICTIONARY
360
6453
102
}
102
{ACAD_REACTORS
330
6281
102
}
330
6281
100
AcDbVisualStyle
  2
Basic
 70
     7
 71
     1
 72
     0
 73
     1
 90
        0
 40
-0.6
 41
-30.0
 62
     5
 63
     7
 74
     0
 91
        4
 64
     7
 65
   257
 75
     1
175
     1
 42
1.0
 92
        8
 66
     7
 43
1.0
 76
     1
 77
     6
 78
     2
 67
     7
 79
     5
170
     0
171
     0
290
     0
174
     0
 93
        1
 44
0.0
173
     0
291
     1
 45
0.0
1001
ACAD
1000
AcDbSavedByObjectVersion
1070
     0
  0
VISUALSTYLE
  5
628D
102
{ACAD_XDICTIONARY
360
6461
102
}
102
{ACAD_REACTORS
330
6281
102
}
330
6281
100
AcDbVisualStyle
  2
Brighten
 70
    12
 71
     2
 72
     2
 73
     0
 90
        0
 40
-0.6
 41
-30.0
 62
     5
 63
     7
 74
     1
 91
        4
 64
     7
 65
   257
 75
     1
175
     1
 42
1.0
 92
        8
 66
     7
 43
1.0
 76
     1
 77
     6
 78
     2
 67
     7
 79
     5
170
     0
171
     0
290
     0
174
     0
 93
        1
 44
50.0
173
     0
291
     1
 45
0.0
1001
ACAD
1000
AcDbSavedByObjectVersion
1070
     0
  0
VISUALSTYLE
  5
6291
102
{ACAD_XDICTIONARY
360
6469
102
}
102
{ACAD_REACTORS
330
6281
102
}
330
6281
100
AcDbVisualStyle
  2
ColorChange
 70
    16
 71
     2
 72
     2
 73
     3
 90
        0
 40
-0.6
 41
-30.0
 62
     5
 63
     8
 74
     1
 91
        4
 64
     7
 65
   257
 75
     1
175
     1
 42
1.0
 92
        8
 66
     8
 43
1.0
 76
     1
 77
     6
 78
     2
 67
     7
 79
     5
170
     0
171
     0
290
     0
174
     0
 93
        1
 44
0.0
173
     0
291
     1
 45
0.0
1001
ACAD
1000
AcDbSavedByObjectVersion
1070
     0
  0
VISUALSTYLE
  5
628A
102
{ACAD_XDICTIONARY
360
645B
102
}
102
{ACAD_REACTORS
330
6281
102
}
330
6281
100
AcDbVisualStyle
  2
Conceptual
 70
     9
 71
     3
 72
     2
 73
     0
 90
        0
 40
-0.6
 41
-30.0
 62
     5
 63
     7
 74
     2
 91
        2
 64
     7
 65
   257
 75
     1
175
     1
 42
179.0
 92
        8
 66
     7
 43
1.0
 76
     1
 77
     6
 78
     2
 67
     7
 79
     3
170
     0
171
     0
290
     0
174
     0
 93
        1
 44
0.0
173
     0
291
     0
 45
0.0
1001
ACAD
1000
AcDbSavedByObjectVersion
1070
     0
  0
VISUALSTYLE
  5
628C
102
{ACAD_XDICTIONARY
360
645F
102
}
102
{ACAD_REACTORS
330
6281
102
}
330
6281
100
AcDbVisualStyle
  2
Dim
 70
    11
 71
     2
 72
     2
 73
     0
 90
        0
 40
-0.6
 41
-30.0
 62
     5
 63
     7
 74
     1
 91
        4
 64
     7
 65
   257
 75
     1
175
     1
 42
1.0
 92
        8
 66
     7
 43
1.0
 76
     1
 77
     6
 78
     2
 67
     7
 79
     5
170
     0
171
     0
290
     0
174
     0
 93
        1
 44
-50.0
173
     0
291
     1
 45
0.0
1001
ACAD
1000
AcDbSavedByObjectVersion
1070
     0
  0
VISUALSTYLE
  5
6299
102
{ACAD_XDICTIONARY
360
6479
102
}
102
{ACAD_REACTORS
330
6281
102
}
330
6281
100
AcDbVisualStyle
  2
EdgeColorOff
 70
    22
 71
     2
 72
     2
 73
     0
 90
        0
 40
-0.6
 41
-30.0
 62
     5
 63
     7
 74
     1
 91
        4
 64
     7
 65
   257
 75
     1
175
     1
 42
1.0
 92
        8
 66
     7
 43
1.0
 76
     1
 77
     6
 78
     2
 67
     7
 79
     5
170
     0
171
     0
290
     0
174
     0
 93
        1
 44
0.0
173
     0
291
     1
 45
0.0
1001
ACAD
1000
AcDbSavedByObjectVersion
1070
     0
  0
VISUALSTYLE
  5
6290
102
{ACAD_XDICTIONARY
360
6467
102
}
102
{ACAD_REACTORS
330
6281
102
}
330
6281
100
AcDbVisualStyle
  2
Facepattern
 70
    15
 71
     2
 72
     2
 73
     0
 90
        0
 40
-0.6
 41
-30.0
 62
     5
 63
     7
 74
     1
 91
        4
 64
     7
 65
   257
 75
     1
175
     1
 42
1.0
 92
        8
 66
     7
 43
1.0
 76
     1
 77
     6
 78
     2
 67
     7
 79
     5
170
     0
171
     0
290
     0
174
     0
 93
        1
 44
0.0
173
     0
291
     1
 45
0.0
1001
ACAD
1000
AcDbSavedByObjectVersion
1070
     0
  0
VISUALSTYLE
  5
6282
102
{ACAD_XDICTIONARY
360
644B
102
}
102
{ACAD_REACTORS
330
6281
102
}
330
6281
100
AcDbVisualStyle
  2
Flat
 70
     0
 71
     2
 72
     1
 73
     1
 90
        2
 40
-0.6
 41
30.0
 62
     5
 63
     7
 74
     0
 91
        0
 64
     7
 65
   257
 75
     1
175
     1
 42
1.0
 92
        8
 66
     7
 43
1.0
 76
     1
 77
     6
 78
     2
 67
     7
 79
     5
170
     0
171
     0
290
     0
174
     0
 93
       13
 44
0.0
173
     0
291
     1
 45
0.0
1001
ACAD
1000
AcDbSavedByObjectVersion
1070
     0
  0
VISUALSTYLE
  5
6283
102
{ACAD_XDICTIONARY
360
644D
102
}
102
{ACAD_REACTORS
330
6281
102
}
330
6281
100
AcDbVisualStyle
  2
FlatWithEdges
 70
     1
 71
     2
 72
     1
 73
     1
 90
        2
 40
-0.6
 41
30.0
 62
     5
 63
     7
 74
     1
 91
        0
 64
     7
 65
   257
 75
     1
175
     1
 42
1.0
 92
        0
 66
   257
 43
1.0
 76
     1
 77
     6
 78
     2
 67
     7
 79
     5
170
     0
171
     0
290
     0
174
     0
 93
       13
 44
0.0
173
     0
291
     1
 45
0.0
1001
ACAD
1000
AcDbSavedByObjectVersion
1070
     0
  0
VISUALSTYLE
  5
6284
102
{ACAD_XDICTIONARY
360
644F
102
}
102
{ACAD_REACTORS
330
6281
102
}
330
6281
100
AcDbVisualStyle
  2
Gouraud
 70
     2
 71
     2
 72
     2
 73
     1
 90
        2
 40
-0.6
 41
30.0
 62
     5
 63
     7
 74
     0
 91
        0
 64
     7
 65
   257
 75
     1
175
     1
 42
1.0
 92
        0
 66
     7
 43
1.0
 76
     1
 77
     6
 78
     2
 67
     7
 79
     5
170
     0
171
     0
290
     0
174
     0
 93
       13
 44
0.0
173
     0
291
     1
 45
0.0
1001
ACAD
1000
AcDbSavedByObjectVersion
1070
     0
  0
VISUALSTYLE
  5
6285
102
{ACAD_XDICTIONARY
360
6451
102
}
102
{ACAD_REACTORS
330
6281
102
}
330
6281
100
AcDbVisualStyle
  2
GouraudWithEdges
 70
     3
 71
     2
 72
     2
 73
     1
 90
        2
 40
-0.6
 41
30.0
 62
     5
 63
     7
 74
     1
 91
        0
 64
     7
 65
   257
 75
     1
175
     1
 42
1.0
 92
        0
 66
   257
 43
1.0
 76
     1
 77
     6
 78
     2
 67
     7
 79
     5
170
     0
171
     0
290
     0
174
     0
 93
       13
 44
0.0
173
     0
291
     1
 45
0.0
1001
ACAD
1000
AcDbSavedByObjectVersion
1070
     0
  0
VISUALSTYLE
  5
6289
102
{ACAD_XDICTIONARY
360
6459
102
}
102
{ACAD_REACTORS
330
6281
102
}
330
6281
100
AcDbVisualStyle
  2
Hidden
 70
     6
 71
     1
 72
     2
 73
     2
 90
        0
 40
-0.6
 41
-30.0
 62
     5
 63
     7
 74
     2
 91
        2
 64
     7
 65
   257
 75
     2
175
     1
 42
40.0
 92
        0
 66
   257
 43
1.0
 76
     1
 77
     6
 78
     2
 67
     7
 79
     3
170
     0
171
     0
290
     0
174
     0
 93
        1
 44
0.0
173
     0
291
     0
 45
0.0
1001
ACAD
1000
AcDbSavedByObjectVersion
1070
     0
  0
VISUALSTYLE
  5
6297
102
{ACAD_XDICTIONARY
360
6475
102
}
102
{ACAD_REACTORS
330
6281
102
}
330
6281
100
AcDbVisualStyle
  2
JitterOff
 70
    20
 71
     2
 72
     2
 73
     0
 90
        0
 40
-0.6
 41
-30.0
 62
     5
 63
     7
 74
     1
 91
        4
 64
     7
 65
   257
 75
     1
175
     1
 42
1.0
 92
       10
 66
     7
 43
1.0
 76
     1
 77
     6
 78
     2
 67
     7
 79
     5
170
     0
171
     0
290
     0
174
     0
 93
        1
 44
0.0
173
     0
291
     1
 45
0.0
1001
ACAD
1000
AcDbSavedByObjectVersion
1070
     0
  0
VISUALSTYLE
  5
628F
102
{ACAD_XDICTIONARY
360
6465
102
}
102
{ACAD_REACTORS
330
6281
102
}
330
6281
100
AcDbVisualStyle
  2
Linepattern
 70
    14
 71
     2
 72
     2
 73
     0
 90
        0
 40
-0.6
 41
-30.0
 62
     5
 63
     7
 74
     1
 91
        4
 64
     7
 65
   257
 75
     7
175
     7
 42
1.0
 92
        8
 66
     7
 43
1.0
 76
     1
 77
     6
 78
     2
 67
     7
 79
     5
170
     0
171
     0
290
     0
174
     0
 93
        1
 44
0.0
173
     0
291
     1
 45
0.0
1001
ACAD
1000
AcDbSavedByObjectVersion
1070
     0
  0
VISUALSTYLE
  5
6298
102
{ACAD_XDICTIONARY
360
6477
102
}
102
{ACAD_REACTORS
330
6281
102
}
330
6281
100
AcDbVisualStyle
  2
OverhangOff
 70
    21
 71
     2
 72
     2
 73
     0
 90
        0
 40
-0.6
 41
-30.0
 62
     5
 63
     7
 74
     1
 91
        4
 64
     7
 65
   257
 75
     1
175
     1
 42
1.0
 92
        9
 66
     7
 43
1.0
 76
     1
 77
     6
 78
     2
 67
     7
 79
     5
170
     0
171
     0
290
     0
174
     0
 93
        1
 44
0.0
173
     0
291
     1
 45
0.0
1001
ACAD
1000
AcDbSavedByObjectVersion
1070
     0
  0
VISUALSTYLE
  5
628B
102
{ACAD_XDICTIONARY
360
645D
102
}
102
{ACAD_REACTORS
330
6281
102
}
330
6281
100
AcDbVisualStyle
  2
Realistic
 70
     8
 71
     2
 72
     3
 73
     0
 90
        2
 40
-0.6
 41
30.0
 62
     5
 63
     7
 74
     0
 91
        0
 64
     7
 65
   257
 75
     1
175
     1
 42
1.0
 92
        8
 66
   257
 43
1.0
 76
     1
 77
     6
 78
     2
 67
     7
 79
     3
170
     0
171
     0
290
     0
174
     0
 93
       13
 44
0.0
173
     0
291
     0
 45
0.0
1001
ACAD
1000
AcDbSavedByObjectVersion
1070
     0
  0
VISUALSTYLE
  5
6296
102
{ACAD_XDICTIONARY
360
6473
102
}
102
{ACAD_REACTORS
330
6281
102
}
330
6281
100
AcDbVisualStyle
  2
Shaded
 70
    27
 71
     2
 72
     2
 73
     1
 90
        2
 40
-0.6
 41
30.0
 62
     5
 63
     7
 74
     0
 91
        4
 64
     7
 65
   257
 75
     1
175
     1
 42
1.0
 92
        8
 66
   257
 43
1.0
 76
     1
 77
     6
 78
     2
 67
     8
 79
     3
170
     0
171
     0
290
     0
174
     0
 93
        5
 44
0.0
173
     0
291
     0
 45
0.0
1001
ACAD
1000
AcDbSavedByObjectVersion
1070
     0
  0
VISUALSTYLE
  5
6295
102
{ACAD_XDICTIONARY
360
6471
102
}
102
{ACAD_REACTORS
330
6281
102
}
330
6281
100
AcDbVisualStyle
  2
Shaded with edges
 70
    26
 71
     2
 72
     2
 73
     1
 90
        2
 40
-0.6
 41
30.0
 62
     5
 63
     7
 74
     1
 91
        2
 64
     7
 65
   257
 75
     2
175
     1
 42
1.0
 92
        8
 66
   257
 43
1.0
 76
     1
 77
     6
 78
     2
 67
     7
 79
     3
170
     0
171
     0
290
     0
174
     0
 93
        5
 44
0.0
173
     0
291
     0
 45
0.0
1001
ACAD
1000
AcDbSavedByObjectVersion
1070
     0
  0
VISUALSTYLE
  5
6292
102
{ACAD_XDICTIONARY
360
646B
102
}
102
{ACAD_REACTORS
330
6281
102
}
330
6281
100
AcDbVisualStyle
  2
Shades of Gray
 70
    23
 71
     2
 72
     2
 73
     3
 90
        0
 40
-0.6
 41
-30.0
 62
     5
 63
     7
 74
     2
 91
        2
 64
     7
 65
     7
 75
     1
175
     1
 42
40.0
 92
        8
 66
     7
 43
1.0
 76
     1
 77
     6
 78
     2
 67
     7
 79
     3
170
     0
171
     0
290
     0
174
     0
 93
        1
 44
0.0
173
     0
291
     0
 45
0.0
1001
ACAD
1000
AcDbSavedByObjectVersion
1070
     0
  0
VISUALSTYLE
  5
6293
102
{ACAD_XDICTIONARY
360
646D
102
}
102
{ACAD_REACTORS
330
6281
102
}
330
6281
100
AcDbVisualStyle
  2
Sketchy
 70
    24
 71
     1
 72
     2
 73
     2
 90
        0
 40
-0.6
 41
-30.0
 62
     5
 63
     7
 74
     2
 91
        2
 64
     7
 65
     7
 75
     1
175
     1
 42
40.0
 92
       11
 66
     7
 43
1.0
 76
     1
 77
     6
 78
     2
 67
     7
 79
     6
170
     0
171
     0
290
     0
174
     0
 93
        1
 44
0.0
173
     0
291
     0
 45
0.0
1001
ACAD
1000
AcDbSavedByObjectVersion
1070
     0
  0
VISUALSTYLE
  5
628E
102
{ACAD_XDICTIONARY
360
6463
102
}
102
{ACAD_REACTORS
330
6281
102
}
330
6281
100
AcDbVisualStyle
  2
Thicken
 70
    13
 71
     2
 72
     2
 73
     0
 90
        0
 40
-0.6
 41
-30.0
 62
     5
 63
     7
 74
     1
 91
        4
 64
     7
 65
   257
 75
     1
175
     1
 42
1.0
 92
       12
 66
     7
 43
1.0
 76
     1
 77
     6
 78
     2
 67
     7
 79
     5
170
     0
171
     0
290
     0
174
     0
 93
        1
 44
0.0
173
     0
291
     1
 45
0.0
1001
ACAD
1000
AcDbSavedByObjectVersion
1070
     0
  0
VISUALSTYLE
  5
6288
102
{ACAD_XDICTIONARY
360
6457
102
}
102
{ACAD_REACTORS
330
6281
102
}
330
6281
100
AcDbVisualStyle
  2
Wireframe
 70
     5
 71
     0
 72
     2
 73
     0
 90
        0
 40
-0.6
 41
-30.0
 62
     5
 63
     7
 74
     1
 91
        4
 64
     7
 65
   257
 75
     1
175
     1
 42
1.0
 92
        0
 66
   257
 43
1.0
 76
     1
 77
     6
 78
     2
 67
     7
 79
     3
170
     0
171
     0
290
     0
174
     0
 93
        1
 44
0.0
173
     0
291
     0
 45
0.0
1001
ACAD
1000
AcDbSavedByObjectVersion
1070
     0
  0
VISUALSTYLE
  5
6294
102
{ACAD_XDICTIONARY
360
646F
102
}
102
{ACAD_REACTORS
330
6281
102
}
330
6281
100
AcDbVisualStyle
  2
X-Ray
 70
    25
 71
     2
 72
     2
 73
     1
 90
        1
 40
0.5
 41
-30.0
 62
     5
 63
     7
 74
     1
 91
        0
 64
     7
 65
   257
 75
     1
175
     1
 42
1.0
 92
        8
 66
     7
 43
1.0
 76
     1
 77
     6
 78
     2
 67
     7
 79
     3
170
     0
171
     0
290
     0
174
     0
 93
       13
 44
0.0
173
     0
291
     0
 45
0.0
1001
ACAD
1000
AcDbSavedByObjectVersion
1070
     0
  0
DICTIONARYVAR
  5
642A
102
{ACAD_REACTORS
330
6424
102
}
330
6424
100
DictionaryVariables
280
     0
  1
1:1
  0
DICTIONARYVAR
  5
6426
102
{ACAD_REACTORS
330
6424
102
}
330
6424
100
DictionaryVariables
280
     0
  1
STANDARD
  0
DICTIONARYVAR
  5
6425
102
{ACAD_REACTORS
330
6424
102
}
330
6424
100
DictionaryVariables
280
     0
  1
STANDARD
  0
DICTIONARYVAR
  5
6427
102
{ACAD_REACTORS
330
6424
102
}
330
6424
100
DictionaryVariables
280
     0
  1
Metric50
  0
DICTIONARYVAR
  5
6428
102
{ACAD_REACTORS
330
6424
102
}
330
6424
100
DictionaryVariables
280
     0
  1
Metric50
  0
DICTIONARYVAR
  5
6436
102
{ACAD_REACTORS
330
6424
102
}
330
6424
100
DictionaryVariables
280
     0
  1
1
  0
DICTIONARYVAR
  5
6435
102
{ACAD_REACTORS
330
6424
102
}
330
6424
100
DictionaryVariables
280
     0
  1
0
  0
DICTIONARYVAR
  5
642C
102
{ACAD_REACTORS
330
6424
102
}
330
6424
100
DictionaryVariables
280
     0
  1
1
  0
DICTIONARYVAR
  5
642D
102
{ACAD_REACTORS
330
6424
102
}
330
6424
100
DictionaryVariables
280
     0
  1
15
  0
DICTIONARYVAR
  5
642B
102
{ACAD_REACTORS
330
6424
102
}
330
6424
100
DictionaryVariables
280
     0
  1
0
  0
DICTIONARYVAR
  5
6429
102
{ACAD_REACTORS
330
6424
102
}
330
6424
100
DictionaryVariables
280
     0
  1
0
  0
DICTIONARYVAR
  5
6434
102
{ACAD_REACTORS
330
6424
102
}
330
6424
100
DictionaryVariables
280
     0
  1
127
  0
DICTIONARYVAR
  5
6437
102
{ACAD_REACTORS
330
6424
102
}
330
6424
100
DictionaryVariables
280
     0
  1
2
  0
DICTIONARY
  5
6443
102
{ACAD_REACTORS
330
6441
102
}
330
6441
100
AcDbDictionary
281
     1
  0
DICTIONARY
  5
6442
102
{ACAD_REACTORS
330
6441
102
}
330
6441
100
AcDbDictionary
281
     1
  3
140687754122560
350
643C
  3
140687754122576
350
643D
  3
140687754122592
350
643E
  3
140687754122608
350
643F
  3
140687754122624
350
6440
  0
DICTIONARY
  5
6422
330
62B4
100
AcDbDictionary
280
     1
281
     1
  3
ACAD_XREC_ROUNDTRIP
360
6423
  0
DICTIONARY
  5
6444
330
1E94
100
AcDbDictionary
280
     1
281
     1
  3
ACAD_XREC_ROUNDTRIP
360
6445
  0
DICTIONARY
  5
6446
330
1E95
100
AcDbDictionary
280
     1
281
     1
  3
ACAD_XREC_ROUNDTRIP
360
6447
  0
DICTIONARY
  5
6272
330
6271
100
AcDbDictionary
280
     1
281
     1
  3
ACAD_XREC_ROUNDTRIP
360
6449
  3
BUMPTILE
360
6274
  3
DIFFUSETILE
360
6273
  3
OPACITYTILE
360
6277
  3
REFLECTIONTILE
360
6276
  3
REFRACTIONTILE
360
6278
  3
SPECULARTILE
360
6275
  0
DICTIONARY
  5
626A
330
6269
100
AcDbDictionary
280
     1
281
     1
  3
ACAD_XREC_ROUNDTRIP
360
6448
  3
BUMPTILE
360
626C
  3
DIFFUSETILE
360
626B
  3
OPACITYTILE
360
626F
  3
REFLECTIONTILE
360
626E
  3
REFRACTIONTILE
360
6270
  3
SPECULARTILE
360
626D
  0
DICTIONARY
  5
627A
330
6279
100
AcDbDictionary
280
     1
281
     1
  3
ACAD_XREC_ROUNDTRIP
360
644A
  3
BUMPTILE
360
627C
  3
DIFFUSETILE
360
627B
  3
OPACITYTILE
360
627F
  3
REFLECTIONTILE
360
627E
  3
REFRACTIONTILE
360
6280
  3
SPECULARTILE
360
627D
  0
DICTIONARY
  5
647D
330
62B0
100
AcDbDictionary
280
     1
281
     1
  3
ACAD_XREC_ROUNDTRIP
360
647E
  0
DICTIONARY
  5
6420
330
62B2
100
AcDbDictionary
280
     1
281
     1
  3
ACAD_XREC_ROUNDTRIP
360
6421
  0
DICTIONARY
  5
6438
330
629C
100
AcDbDictionary
280
     1
281
     1
  3
ACAD_ROUNDTRIP_2008_TABLESTYLE_CELLSTYLEMAP
360
6439
  3
ACAD_XREC_ROUNDTRIP
360
647B
  0
DICTIONARY
  5
6455
330
6287
100
AcDbDictionary
280
     1
281
     1
  3
ACAD_XREC_ROUNDTRIP
360
6456
  0
DICTIONARY
  5
6453
330
6286
100
AcDbDictionary
280
     1
281
     1
  3
ACAD_XREC_ROUNDTRIP
360
6454
  0
DICTIONARY
  5
6461
330
628D
100
AcDbDictionary
280
     1
281
     1
  3
ACAD_XREC_ROUNDTRIP
360
6462
  0
DICTIONARY
  5
6469
330
6291
100
AcDbDictionary
280
     1
281
     1
  3
ACAD_XREC_ROUNDTRIP
360
646A
  0
DICTIONARY
  5
645B
330
628A
100
AcDbDictionary
280
     1
281
     1
  3
ACAD_XREC_ROUNDTRIP
360
645C
  0
DICTIONARY
  5
645F
330
628C
100
AcDbDictionary
280
     1
281
     1
  3
ACAD_XREC_ROUNDTRIP
360
6460
  0
DICTIONARY
  5
6479
330
6299
100
AcDbDictionary
280
     1
281
     1
  3
ACAD_XREC_ROUNDTRIP
360
647A
  0
DICTIONARY
  5
6467
330
6290
100
AcDbDictionary
280
     1
281
     1
  3
ACAD_XREC_ROUNDTRIP
360
6468
  0
DICTIONARY
  5
644B
330
6282
100
AcDbDictionary
280
     1
281
     1
  3
ACAD_XREC_ROUNDTRIP
360
644C
  0
DICTIONARY
  5
644D
330
6283
100
AcDbDictionary
280
     1
281
     1
  3
ACAD_XREC_ROUNDTRIP
360
644E
  0
DICTIONARY
  5
644F
330
6284
100
AcDbDictionary
280
     1
281
     1
  3
ACAD_XREC_ROUNDTRIP
360
6450
  0
DICTIONARY
  5
6451
330
6285
100
AcDbDictionary
280
     1
281
     1
  3
ACAD_XREC_ROUNDTRIP
360
6452
  0
DICTIONARY
  5
6459
330
6289
100
AcDbDictionary
280
     1
281
     1
  3
ACAD_XREC_ROUNDTRIP
360
645A
  0
DICTIONARY
  5
6475
330
6297
100
AcDbDictionary
280
     1
281
     1
  3
ACAD_XREC_ROUNDTRIP
360
6476
  0
DICTIONARY
  5
6465
330
628F
100
AcDbDictionary
280
     1
281
     1
  3
ACAD_XREC_ROUNDTRIP
360
6466
  0
DICTIONARY
  5
6477
330
6298
100
AcDbDictionary
280
     1
281
     1
  3
ACAD_XREC_ROUNDTRIP
360
6478
  0
DICTIONARY
  5
645D
330
628B
100
AcDbDictionary
280
     1
281
     1
  3
ACAD_XREC_ROUNDTRIP
360
645E
  0
DICTIONARY
  5
6473
330
6296
100
AcDbDictionary
280
     1
281
     1
  3
ACAD_XREC_ROUNDTRIP
360
6474
  0
DICTIONARY
  5
6471
330
6295
100
AcDbDictionary
280
     1
281
     1
  3
ACAD_XREC_ROUNDTRIP
360
6472
  0
DICTIONARY
  5
646B
330
6292
100
AcDbDictionary
280
     1
281
     1
  3
ACAD_XREC_ROUNDTRIP
360
646C
  0
DICTIONARY
  5
646D
330
6293
100
AcDbDictionary
280
     1
281
     1
  3
ACAD_XREC_ROUNDTRIP
360
646E
  0
DICTIONARY
  5
6463
330
628E
100
AcDbDictionary
280
     1
281
     1
  3
ACAD_XREC_ROUNDTRIP
360
6464
  0
DICTIONARY
  5
6457
330
6288
100
AcDbDictionary
280
     1
281
     1
  3
ACAD_XREC_ROUNDTRIP
360
6458
  0
DICTIONARY
  5
646F
330
6294
100
AcDbDictionary
280
     1
281
     1
  3
ACAD_XREC_ROUNDTRIP
360
6470
  0
XRECORD
  5
643C
102
{ACAD_REACTORS
330
6442
102
}
330
6442
100
AcDbXrecord
280
     1
  1
AcDb_Thumbnail_Schema
102
{ATTRRECORD
341
643D
  2
AcDbDs::TreatedAsObjectData
280
     1
291
     1
102
ATTRRECORD}
102
{ATTRRECORD
341
643E
  2
AcDbDs::Legacy
280
     1
291
     1
102
ATTRRECORD}
  2
AcDbDs::ID
280
    10
 91
        8
102
{ATTRRECORD
341
643F
  2
AcDs:Indexable
280
     1
291
     1
102
ATTRRECORD}
102
{ATTRRECORD
341
6440
  2
AcDbDs::HandleAttribute
280
     7
282
     1
102
ATTRRECORD}
  2
Thumbnail_Data
280
    15
 91
        0
  0
XRECORD
  5
643D
102
{ACAD_REACTORS
330
6442
102
}
330
6442
100
AcDbXrecord
280
     1
  1
AcDbDs::TreatedAsObjectDataSchema
  2
AcDbDs::TreatedAsObjectData
280
     1
 91
        0
  0
XRECORD
  5
643E
102
{ACAD_REACTORS
330
6442
102
}
330
6442
100
AcDbXrecord
280
     1
  1
AcDbDs::LegacySchema
  2
AcDbDs::Legacy
280
     1
 91
        0
  0
XRECORD
  5
643F
102
{ACAD_REACTORS
330
6442
102
}
330
6442
100
AcDbXrecord
280
     1
  1
AcDbDs::IndexedPropertySchema
  2
AcDs:Indexable
280
     1
 91
        0
  0
XRECORD
  5
6440
102
{ACAD_REACTORS
330
6442
102
}
330
6442
100
AcDbXrecord
280
     1
  1
AcDbDs::HandleAttributeSchema
  2
AcDbDs::HandleAttribute
280
     7
 91
        1
284
     1
  0
XRECORD
  5
6423
102
{ACAD_REACTORS
330
6422
102
}
330
6422
100
AcDbXrecord
280
     1
102
DISPLAYNAME
  1
Metric50
102
FLAGS
 90
        0
  0
XRECORD
  5
6445
102
{ACAD_REACTORS
330
6444
102
}
330
6444
100
AcDbXrecord
280
     1
102
SHADEPLOT
 70
     0
102
SHADEPLOTRESLEVEL
 70
     2
102
SHADEPLOTCUSTOMDPI
 70
   300
  0
XRECORD
  5
6447
102
{ACAD_REACTORS
330
6446
102
}
330
6446
100
AcDbXrecord
280
     1
102
SHADEPLOT
 70
     0
102
SHADEPLOTRESLEVEL
 70
     2
102
SHADEPLOTCUSTOMDPI
 70
   300
  0
XRECORD
  5
6449
102
{ACAD_REACTORS
330
6272
102
}
330
6272
100
AcDbXrecord
280
     1
102
MATERIAL
148
0.0
149
0.0
149
0.0
 93
        0
 94
      127
282
     0
 72
     0
 77
     0
171
     0
175
     0
179
     0
273
     0
  0
XRECORD
  5
6274
102
{ACAD_REACTORS
330
6272
102
}
330
6272
100
AcDbXrecord
280
     1
270
     1
271
     1
  0
XRECORD
  5
6273
102
{ACAD_REACTORS
330
6272
102
}
330
6272
100
AcDbXrecord
280
     1
270
     1
271
     1
  0
XRECORD
  5
6277
102
{ACAD_REACTORS
330
6272
102
}
330
6272
100
AcDbXrecord
280
     1
270
     1
271
     1
  0
XRECORD
  5
6276
102
{ACAD_REACTORS
330
6272
102
}
330
6272
100
AcDbXrecord
280
     1
270
     1
271
     1
  0
XRECORD
  5
6278
102
{ACAD_REACTORS
330
6272
102
}
330
6272
100
AcDbXrecord
280
     1
270
     1
271
     1
  0
XRECORD
  5
6275
102
{ACAD_REACTORS
330
6272
102
}
330
6272
100
AcDbXrecord
280
     1
270
     1
271
     1
  0
XRECORD
  5
6448
102
{ACAD_REACTORS
330
626A
102
}
330
626A
100
AcDbXrecord
280
     1
102
MATERIAL
148
0.0
149
0.0
149
0.0
 93
        0
 94
      127
282
     0
 72
     0
 77
     0
171
     0
175
     0
179
     0
273
     0
  0
XRECORD
  5
626C
102
{ACAD_REACTORS
330
626A
102
}
330
626A
100
AcDbXrecord
280
     1
270
     1
271
     1
  0
XRECORD
  5
626B
102
{ACAD_REACTORS
330
626A
102
}
330
626A
100
AcDbXrecord
280
     1
270
     1
271
     1
  0
XRECORD
  5
626F
102
{ACAD_REACTORS
330
626A
102
}
330
626A
100
AcDbXrecord
280
     1
270
     1
271
     1
  0
XRECORD
  5
626E
102
{ACAD_REACTORS
330
626A
102
}
330
626A
100
AcDbXrecord
280
     1
270
     1
271
     1
  0
XRECORD
  5
6270
102
{ACAD_REACTORS
330
626A
102
}
330
626A
100
AcDbXrecord
280
     1
270
     1
271
     1
  0
XRECORD
  5
626D
102
{ACAD_REACTORS
330
626A
102
}
330
626A
100
AcDbXrecord
280
     1
270
     1
271
     1
  0
XRECORD
  5
644A
102
{ACAD_REACTORS
330
627A
102
}
330
627A
100
AcDbXrecord
280
     1
102
MATERIAL
148
0.0
149
0.0
149
0.0
 93
        0
 94
      127
282
     0
 72
     0
 77
     0
171
     0
175
     0
179
     0
273
     0
  0
XRECORD
  5
627C
102
{ACAD_REACTORS
330
627A
102
}
330
627A
100
AcDbXrecord
280
     1
270
     1
271
     1
  0
XRECORD
  5
627B
102
{ACAD_REACTORS
330
627A
102
}
330
627A
100
AcDbXrecord
280
     1
270
     1
271
     1
  0
XRECORD
  5
627F
102
{ACAD_REACTORS
330
627A
102
}
330
627A
100
AcDbXrecord
280
     1
270
     1
271
     1
  0
XRECORD
  5
627E
102
{ACAD_REACTORS
330
627A
102
}
330
627A
100
AcDbXrecord
280
     1
270
     1
271
     1
  0
XRECORD
  5
6280
102
{ACAD_REACTORS
330
627A
102
}
330
627A
100
AcDbXrecord
280
     1
270
     1
271
     1
  0
XRECORD
  5
627D
102
{ACAD_REACTORS
330
627A
102
}
330
627A
100
AcDbXrecord
280
     1
270
     1
271
     1
  0
XRECORD
  5
647E
102
{ACAD_REACTORS
330
647D
102
}
330
647D
100
AcDbXrecord
280
     1
102
ACAD_ROUNDTRIP_2012_MLEADER_STYLE
298
     1
  0
XRECORD
  5
6421
102
{ACAD_REACTORS
330
6420
102
}
330
6420
100
AcDbXrecord
280
     1
102
DISPLAYNAME
  1
Metric50
102
FLAGS
 90
        0
  0
CELLSTYLEMAP
  5
6439
102
{ACAD_REACTORS
330
6438
102
}
330
6438
100
AcDbCellStyleMap
 90
        3
300
CELLSTYLE
  1
TABLEFORMAT_BEGIN
 90
        5
170
     1
 91
        0
 92
    32768
 62
   257
 93
        1
300
CONTENTFORMAT
  1
CONTENTFORMAT_BEGIN
 90
        0
 91
        0
 92
      512
 93
        0
300

 40
0.0
140
1.0
 94
        5
 62
     0
340
10
144
6.0
309
CONTENTFORMAT_END
171
     1
301
MARGIN
  1
CELLMARGIN_BEGIN
 40
1.5
 40
1.5
 40
1.5
 40
1.5
 40
4.5
 40
4.5
309
CELLMARGIN_END
 94
        6
 95
        1
302
GRIDFORMAT
  1
GRIDFORMAT_BEGIN
 90
        0
 91
        1
 62
     0
 92
       -2
340
0
 93
        0
 40
1.125
309
GRIDFORMAT_END
 95
        2
302
GRIDFORMAT
  1
GRIDFORMAT_BEGIN
 90
        0
 91
        1
 62
     0
 92
       -2
340
0
 93
        0
 40
1.125
309
GRIDFORMAT_END
 95
        4
302
GRIDFORMAT
  1
GRIDFORMAT_BEGIN
 90
        0
 91
        1
 62
     0
 92
       -2
340
0
 93
        0
 40
1.125
309
GRIDFORMAT_END
 95
        8
302
GRIDFORMAT
  1
GRIDFORMAT_BEGIN
 90
        0
 91
        1
 62
     0
 92
       -2
340
0
 93
        0
 40
1.125
309
GRIDFORMAT_END
 95
       16
302
GRIDFORMAT
  1
GRIDFORMAT_BEGIN
 90
        0
 91
        1
 62
     0
 92
       -2
340
0
 93
        0
 40
1.125
309
GRIDFORMAT_END
 95
       32
302
GRIDFORMAT
  1
GRIDFORMAT_BEGIN
 90
        0
 91
        1
 62
     0
 92
       -2
340
0
 93
        0
 40
1.125
309
GRIDFORMAT_END
309
TABLEFORMAT_END
  1
CELLSTYLE_BEGIN
 90
        1
 91
        1
300
_TITLE
309
CELLSTYLE_END
300
CELLSTYLE
  1
TABLEFORMAT_BEGIN
 90
        5
170
     1
 91
        0
 92
        0
 62
   257
 93
        1
300
CONTENTFORMAT
  1
CONTENTFORMAT_BEGIN
 90
        0
 91
        0
 92
      512
 93
        0
300

 40
0.0
140
1.0
 94
        5
 62
     0
340
10
144
4.5
309
CONTENTFORMAT_END
171
     1
301
MARGIN
  1
CELLMARGIN_BEGIN
 40
1.5
 40
1.5
 40
1.5
 40
1.5
 40
4.5
 40
4.5
309
CELLMARGIN_END
 94
        6
 95
        1
302
GRIDFORMAT
  1
GRIDFORMAT_BEGIN
 90
        0
 91
        1
 62
     0
 92
       -2
340
0
 93
        0
 40
1.125
309
GRIDFORMAT_END
 95
        2
302
GRIDFORMAT
  1
GRIDFORMAT_BEGIN
 90
        0
 91
        1
 62
     0
 92
       -2
340
0
 93
        0
 40
1.125
309
GRIDFORMAT_END
 95
        4
302
GRIDFORMAT
  1
GRIDFORMAT_BEGIN
 90
        0
 91
        1
 62
     0
 92
       -2
340
0
 93
        0
 40
1.125
309
GRIDFORMAT_END
 95
        8
302
GRIDFORMAT
  1
GRIDFORMAT_BEGIN
 90
        0
 91
        1
 62
     0
 92
       -2
340
0
 93
        0
 40
1.125
309
GRIDFORMAT_END
 95
       16
302
GRIDFORMAT
  1
GRIDFORMAT_BEGIN
 90
        0
 91
        1
 62
     0
 92
       -2
340
0
 93
        0
 40
1.125
309
GRIDFORMAT_END
 95
       32
302
GRIDFORMAT
  1
GRIDFORMAT_BEGIN
 90
        0
 91
        1
 62
     0
 92
       -2
340
0
 93
        0
 40
1.125
309
GRIDFORMAT_END
309
TABLEFORMAT_END
  1
CELLSTYLE_BEGIN
 90
        2
 91
        1
300
_HEADER
309
CELLSTYLE_END
300
CELLSTYLE
  1
TABLEFORMAT_BEGIN
 90
        5
170
     1
 91
        0
 92
        0
 62
   257
 93
        1
300
CONTENTFORMAT
  1
CONTENTFORMAT_BEGIN
 90
        0
 91
        0
 92
      512
 93
        0
300

 40
0.0
140
1.0
 94
        2
 62
     0
340
10
144
4.5
309
CONTENTFORMAT_END
171
     1
301
MARGIN
  1
CELLMARGIN_BEGIN
 40
1.5
 40
1.5
 40
1.5
 40
1.5
 40
4.5
 40
4.5
309
CELLMARGIN_END
 94
        6
 95
        1
302
GRIDFORMAT
  1
GRIDFORMAT_BEGIN
 90
        0
 91
        1
 62
     0
 92
       -2
340
0
 93
        0
 40
1.125
309
GRIDFORMAT_END
 95
        2
302
GRIDFORMAT
  1
GRIDFORMAT_BEGIN
 90
        0
 91
        1
 62
     0
 92
       -2
340
0
 93
        0
 40
1.125
309
GRIDFORMAT_END
 95
        4
302
GRIDFORMAT
  1
GRIDFORMAT_BEGIN
 90
        0
 91
        1
 62
     0
 92
       -2
340
0
 93
        0
 40
1.125
309
GRIDFORMAT_END
 95
        8
302
GRIDFORMAT
  1
GRIDFORMAT_BEGIN
 90
        0
 91
        1
 62
     0
 92
       -2
340
0
 93
        0
 40
1.125
309
GRIDFORMAT_END
 95
       16
302
GRIDFORMAT
  1
GRIDFORMAT_BEGIN
 90
        0
 91
        1
 62
     0
 92
       -2
340
0
 93
        0
 40
1.125
309
GRIDFORMAT_END
 95
       32
302
GRIDFORMAT
  1
GRIDFORMAT_BEGIN
 90
        0
 91
        1
 62
     0
 92
       -2
340
0
 93
        0
 40
1.125
309
GRIDFORMAT_END
309
TABLEFORMAT_END
  1
CELLSTYLE_BEGIN
 90
        3
 91
        2
300
_DATA
309
CELLSTYLE_END
  0
XRECORD
  5
647B
102
{ACAD_REACTORS
330
6438
102
}
330
6438
100
AcDbXrecord
280
     1
102
ACAD_ROUNDTRIP_PRE2007_TABLESTYLE
 90
      512
 91
        0
  1

 92
      512
 93
        0
  2

 94
      512
 95
        0
  3

  0
XRECORD
  5
6456
102
{ACAD_REACTORS
330
6455
102
}
330
6455
100
AcDbXrecord
280
     1
102
RTVSPost2010Prop28
280
     1
102
RTVSPost2010PropOp28
 70
     1
102
RTVSPost2010Prop29
280
     1
102
RTVSPost2010PropOp29
 70
     1
102
RTVSPost2010Prop30
280
     0
102
RTVSPost2010PropOp30
 70
     1
102
RTVSPost2010Prop31
280
     0
102
RTVSPost2010PropOp31
 70
     1
102
RTVSPost2010Prop32
280
     0
102
RTVSPost2010PropOp32
 70
     1
102
RTVSPost2010Prop33
280
     0
102
RTVSPost2010PropOp33
 70
     1
102
RTVSPost2010Prop34
280
     0
102
RTVSPost2010PropOp34
 70
     1
102
RTVSPost2010Prop35
280
     0
102
RTVSPost2010PropOp35
 70
     1
102
RTVSPost2010Prop36
280
     0
102
RTVSPost2010PropOp36
 70
     1
102
RTVSPost2010Prop37
 90
       50
102
RTVSPost2010PropOp37
 70
     1
102
RTVSPost2010Prop38
140
0.0
102
RTVSPost2010PropOp38
 70
     1
102
RTVSPost2010Prop39
140
1.0
102
RTVSPost2010PropOp39
 70
     1
102
RTVSPost2010Prop40
 90
        0
102
RTVSPost2010PropOp40
 70
     1
102
RTVSPost2010Prop41ColorIndex
 90
       18
102
RTVSPost2010Prop41ColorRGB
 90
        0
102
RTVSPost2010PropOp41
 70
     1
102
RTVSPost2010Prop42
 90
       50
102
RTVSPost2010PropOp42
 70
     1
102
RTVSPost2010Prop43
 90
        3
102
RTVSPost2010PropOp43
 70
     1
102
RTVSPost2010Prop44ColorIndex
 90
        5
102
RTVSPost2010Prop44ColorRGB
 90
      255
102
RTVSPost2010PropOp44
 70
     1
102
RTVSPost2010Prop45
280
     0
102
RTVSPost2010PropOp45
 70
     1
102
RTVSPost2010Prop46
 90
       50
102
RTVSPost2010PropOp46
 70
     1
102
RTVSPost2010Prop47
 90
       50
102
RTVSPost2010PropOp47
 70
     1
102
RTVSPost2010Prop48
 90
       50
102
RTVSPost2010PropOp48
 70
     1
102
RTVSPost2010Prop49
280
     0
102
RTVSPost2010PropOp49
 70
     1
102
RTVSPost2010Prop50
 90
       50
102
RTVSPost2010PropOp50
 70
     1
102
RTVSPost2010Prop51ColorIndex
 90
      256
102
RTVSPost2010Prop51ColorRGB
 90
-16777216
102
RTVSPost2010PropOp51
 70
     0
102
RTVSPost2010Prop52
140
1.0
102
RTVSPost2010PropOp52
 70
     0
102
RTVSPost2010Prop53
 90
        2
102
RTVSPost2010PropOp53
 70
     1
102
RTVSPost2010Prop54
  1
strokes_ogs.tif
102
RTVSPost2010PropOp54
 70
     1
102
RTVSPost2010Prop55
280
     0
102
RTVSPost2010PropOp55
 70
     1
102
RTVSPost2010Prop56
140
1.0
102
RTVSPost2010PropOp56
 70
     1
102
RTVSPost2010Prop57
140
1.0
102
RTVSPost2010PropOp57
 70
     1
102
RTVSPropertyOp0
 70
     1
102
RTVSPropertyOp1
 70
     1
102
RTVSPropertyOp2
 70
     1
102
RTVSPropertyOp3
 70
     1
102
RTVSPropertyOp4
 70
     1
102
RTVSPropertyOp5
 70
     1
102
RTVSPropertyOp6
 70
     1
102
RTVSPropertyOp7
 70
     1
102
RTVSPropertyOp8
 70
     1
102
RTVSPropertyOp9
 70
     1
102
RTVSPropertyOp10
 70
     1
102
RTVSPropertyOp11
 70
     1
102
RTVSPropertyOp12
 70
     1
102
RTVSPropertyOp13
 70
     1
102
RTVSPropertyOp14
 70
     1
102
RTVSPropertyOp15
 70
     1
102
RTVSPropertyOp16
 70
     1
102
RTVSPropertyOp17
 70
     1
102
RTVSPropertyOp18
 70
     1
102
RTVSPropertyOp19
 70
     1
102
RTVSPropertyOp20
 70
     1
102
RTVSPropertyOp21
 70
     1
102
RTVSPropertyOp22
 70
     1
102
RTVSPropertyOp23
 70
     1
102
RTVSPropertyOp24
 70
     1
102
RTVSPropertyOp25
 70
     1
102
RTVSPropertyOp26
 70
     1
102
RTVSPropertyOp27
 70
     1
102
RTVSPropertyOp28
 70
     1
102
RTVSPropertyOp29
 70
     1
102
RTVSPropertyOp30
 70
     1
102
RTVSPropertyOp31
 70
     1
102
RTVSPropertyOp32
 70
     1
102
RTVSPropertyOp33
 70
     1
102
RTVSPropertyOp34
 70
     1
102
RTVSPropertyOp35
 70
     1
102
RTVSPropertyOp36
 70
     1
102
RTVSPropertyOp37
 70
     1
102
RTVSPropertyOp38
 70
     1
102
RTVSPropertyOp39
 70
     1
102
RTVSPropertyOp40
 70
     1
102
RTVSPropertyOp41
 70
     1
102
RTVSPropertyOp42
 70
     1
102
RTVSPropertyOp43
 70
     1
102
RTVSPropertyOp44
 70
     1
102
RTVSPropertyOp45
 70
     1
102
RTVSPropertyOp46
 70
     1
102
RTVSPropertyOp47
 70
     1
102
RTVSPropertyOp48
 70
     1
102
RTVSPropertyOp49
 70
     1
102
RTVSPropertyOp50
 70
     1
102
RTVSPropertyOp51
 70
     0
102
RTVSPropertyOp52
 70
     0
102
RTVSPropertyOp53
 70
     1
102
RTVSPropertyOp54
 70
     1
102
RTVSPropertyOp55
 70
     1
102
RTVSPropertyOp56
 70
     1
102
RTVSPropertyOp57
 70
     1
102
RTVSPropertyOp58
 70
     1
102
RTVSPropertyOp59
 70
     1
102
RTVSPropertyOp60
 70
     1
102
RTVSPropertyOp61
 70
     1
102
RTVSPropertyOp62
 70
     1
  0
XRECORD
  5
6454
102
{ACAD_REACTORS
330
6453
102
}
330
6453
100
AcDbXrecord
280
     1
102
RTVSPost2010Prop28
280
     0
102
RTVSPost2010PropOp28
 70
     1
102
RTVSPost2010Prop29
280
     1
102
RTVSPost2010PropOp29
 70
     1
102
RTVSPost2010Prop30
280
     1
102
RTVSPost2010PropOp30
 70
     1
102
RTVSPost2010Prop31
280
     0
102
RTVSPost2010PropOp31
 70
     1
102
RTVSPost2010Prop32
280
     0
102
RTVSPost2010PropOp32
 70
     1
102
RTVSPost2010Prop33
280
     0
102
RTVSPost2010PropOp33
 70
     1
102
RTVSPost2010Prop34
280
     0
102
RTVSPost2010PropOp34
 70
     1
102
RTVSPost2010Prop35
280
     0
102
RTVSPost2010PropOp35
 70
     1
102
RTVSPost2010Prop36
280
     0
102
RTVSPost2010PropOp36
 70
     1
102
RTVSPost2010Prop37
 90
       50
102
RTVSPost2010PropOp37
 70
     1
102
RTVSPost2010Prop38
140
0.0
102
RTVSPost2010PropOp38
 70
     1
102
RTVSPost2010Prop39
140
1.0
102
RTVSPost2010PropOp39
 70
     1
102
RTVSPost2010Prop40
 90
        0
102
RTVSPost2010PropOp40
 70
     1
102
RTVSPost2010Prop41ColorIndex
 90
       18
102
RTVSPost2010Prop41ColorRGB
 90
        0
102
RTVSPost2010PropOp41
 70
     1
102
RTVSPost2010Prop42
 90
       50
102
RTVSPost2010PropOp42
 70
     1
102
RTVSPost2010Prop43
 90
        3
102
RTVSPost2010PropOp43
 70
     1
102
RTVSPost2010Prop44ColorIndex
 90
        5
102
RTVSPost2010Prop44ColorRGB
 90
      255
102
RTVSPost2010PropOp44
 70
     1
102
RTVSPost2010Prop45
280
     0
102
RTVSPost2010PropOp45
 70
     1
102
RTVSPost2010Prop46
 90
       50
102
RTVSPost2010PropOp46
 70
     1
102
RTVSPost2010Prop47
 90
       50
102
RTVSPost2010PropOp47
 70
     1
102
RTVSPost2010Prop48
 90
       50
102
RTVSPost2010PropOp48
 70
     1
102
RTVSPost2010Prop49
280
     0
102
RTVSPost2010PropOp49
 70
     1
102
RTVSPost2010Prop50
 90
       50
102
RTVSPost2010PropOp50
 70
     1
102
RTVSPost2010Prop51ColorIndex
 90
      256
102
RTVSPost2010Prop51ColorRGB
 90
-16777216
102
RTVSPost2010PropOp51
 70
     0
102
RTVSPost2010Prop52
140
1.0
102
RTVSPost2010PropOp52
 70
     0
102
RTVSPost2010Prop53
 90
        2
102
RTVSPost2010PropOp53
 70
     1
102
RTVSPost2010Prop54
  1
strokes_ogs.tif
102
RTVSPost2010PropOp54
 70
     1
102
RTVSPost2010Prop55
280
     0
102
RTVSPost2010PropOp55
 70
     1
102
RTVSPost2010Prop56
140
1.0
102
RTVSPost2010PropOp56
 70
     1
102
RTVSPost2010Prop57
140
1.0
102
RTVSPost2010PropOp57
 70
     1
102
RTVSPropertyOp0
 70
     1
102
RTVSPropertyOp1
 70
     1
102
RTVSPropertyOp2
 70
     1
102
RTVSPropertyOp3
 70
     1
102
RTVSPropertyOp4
 70
     1
102
RTVSPropertyOp5
 70
     1
102
RTVSPropertyOp6
 70
     1
102
RTVSPropertyOp7
 70
     1
102
RTVSPropertyOp8
 70
     1
102
RTVSPropertyOp9
 70
     1
102
RTVSPropertyOp10
 70
     1
102
RTVSPropertyOp11
 70
     1
102
RTVSPropertyOp12
 70
     1
102
RTVSPropertyOp13
 70
     1
102
RTVSPropertyOp14
 70
     1
102
RTVSPropertyOp15
 70
     1
102
RTVSPropertyOp16
 70
     1
102
RTVSPropertyOp17
 70
     1
102
RTVSPropertyOp18
 70
     1
102
RTVSPropertyOp19
 70
     1
102
RTVSPropertyOp20
 70
     1
102
RTVSPropertyOp21
 70
     1
102
RTVSPropertyOp22
 70
     1
102
RTVSPropertyOp23
 70
     1
102
RTVSPropertyOp24
 70
     1
102
RTVSPropertyOp25
 70
     1
102
RTVSPropertyOp26
 70
     1
102
RTVSPropertyOp27
 70
     1
102
RTVSPropertyOp28
 70
     1
102
RTVSPropertyOp29
 70
     1
102
RTVSPropertyOp30
 70
     1
102
RTVSPropertyOp31
 70
     1
102
RTVSPropertyOp32
 70
     1
102
RTVSPropertyOp33
 70
     1
102
RTVSPropertyOp34
 70
     1
102
RTVSPropertyOp35
 70
     1
102
RTVSPropertyOp36
 70
     1
102
RTVSPropertyOp37
 70
     1
102
RTVSPropertyOp38
 70
     1
102
RTVSPropertyOp39
 70
     1
102
RTVSPropertyOp40
 70
     1
102
RTVSPropertyOp41
 70
     1
102
RTVSPropertyOp42
 70
     1
102
RTVSPropertyOp43
 70
     1
102
RTVSPropertyOp44
 70
     1
102
RTVSPropertyOp45
 70
     1
102
RTVSPropertyOp46
 70
     1
102
RTVSPropertyOp47
 70
     1
102
RTVSPropertyOp48
 70
     1
102
RTVSPropertyOp49
 70
     1
102
RTVSPropertyOp50
 70
     1
102
RTVSPropertyOp51
 70
     0
102
RTVSPropertyOp52
 70
     0
102
RTVSPropertyOp53
 70
     1
102
RTVSPropertyOp54
 70
     1
102
RTVSPropertyOp55
 70
     1
102
RTVSPropertyOp56
 70
     1
102
RTVSPropertyOp57
 70
     1
102
RTVSPropertyOp58
 70
     1
102
RTVSPropertyOp59
 70
     1
102
RTVSPropertyOp60
 70
     1
102
RTVSPropertyOp61
 70
     1
102
RTVSPropertyOp62
 70
     1
  0
XRECORD
  5
6462
102
{ACAD_REACTORS
330
6461
102
}
330
6461
100
AcDbXrecord
280
     1
102
RTVSPost2010Prop28
280
     0
102
RTVSPost2010PropOp28
 70
     1
102
RTVSPost2010Prop29
280
     1
102
RTVSPost2010PropOp29
 70
     1
102
RTVSPost2010Prop30
280
     1
102
RTVSPost2010PropOp30
 70
     1
102
RTVSPost2010Prop31
280
     0
102
RTVSPost2010PropOp31
 70
     1
102
RTVSPost2010Prop32
280
     0
102
RTVSPost2010PropOp32
 70
     1
102
RTVSPost2010Prop33
280
     0
102
RTVSPost2010PropOp33
 70
     1
102
RTVSPost2010Prop34
280
     0
102
RTVSPost2010PropOp34
 70
     1
102
RTVSPost2010Prop35
280
     0
102
RTVSPost2010PropOp35
 70
     1
102
RTVSPost2010Prop36
280
     0
102
RTVSPost2010PropOp36
 70
     1
102
RTVSPost2010Prop37
 90
       50
102
RTVSPost2010PropOp37
 70
     1
102
RTVSPost2010Prop38
140
0.0
102
RTVSPost2010PropOp38
 70
     1
102
RTVSPost2010Prop39
140
1.0
102
RTVSPost2010PropOp39
 70
     1
102
RTVSPost2010Prop40
 90
        0
102
RTVSPost2010PropOp40
 70
     1
102
RTVSPost2010Prop41ColorIndex
 90
       18
102
RTVSPost2010Prop41ColorRGB
 90
        0
102
RTVSPost2010PropOp41
 70
     1
102
RTVSPost2010Prop42
 90
       50
102
RTVSPost2010PropOp42
 70
     1
102
RTVSPost2010Prop43
 90
        3
102
RTVSPost2010PropOp43
 70
     1
102
RTVSPost2010Prop44ColorIndex
 90
        5
102
RTVSPost2010Prop44ColorRGB
 90
      255
102
RTVSPost2010PropOp44
 70
     1
102
RTVSPost2010Prop45
280
     0
102
RTVSPost2010PropOp45
 70
     1
102
RTVSPost2010Prop46
 90
       50
102
RTVSPost2010PropOp46
 70
     1
102
RTVSPost2010Prop47
 90
       50
102
RTVSPost2010PropOp47
 70
     1
102
RTVSPost2010Prop48
 90
       50
102
RTVSPost2010PropOp48
 70
     1
102
RTVSPost2010Prop49
280
     0
102
RTVSPost2010PropOp49
 70
     1
102
RTVSPost2010Prop50
 90
       50
102
RTVSPost2010PropOp50
 70
     1
102
RTVSPost2010Prop51ColorIndex
 90
      256
102
RTVSPost2010Prop51ColorRGB
 90
-16777216
102
RTVSPost2010PropOp51
 70
     0
102
RTVSPost2010Prop52
140
1.0
102
RTVSPost2010PropOp52
 70
     0
102
RTVSPost2010Prop53
 90
        2
102
RTVSPost2010PropOp53
 70
     1
102
RTVSPost2010Prop54
  1
strokes_ogs.tif
102
RTVSPost2010PropOp54
 70
     1
102
RTVSPost2010Prop55
280
     0
102
RTVSPost2010PropOp55
 70
     1
102
RTVSPost2010Prop56
140
1.0
102
RTVSPost2010PropOp56
 70
     1
102
RTVSPost2010Prop57
140
1.0
102
RTVSPost2010PropOp57
 70
     1
102
RTVSPropertyOp0
 70
     1
102
RTVSPropertyOp1
 70
     1
102
RTVSPropertyOp2
 70
     1
102
RTVSPropertyOp3
 70
     1
102
RTVSPropertyOp4
 70
     1
102
RTVSPropertyOp5
 70
     1
102
RTVSPropertyOp6
 70
     1
102
RTVSPropertyOp7
 70
     1
102
RTVSPropertyOp8
 70
     1
102
RTVSPropertyOp9
 70
     1
102
RTVSPropertyOp10
 70
     1
102
RTVSPropertyOp11
 70
     1
102
RTVSPropertyOp12
 70
     1
102
RTVSPropertyOp13
 70
     1
102
RTVSPropertyOp14
 70
     1
102
RTVSPropertyOp15
 70
     1
102
RTVSPropertyOp16
 70
     1
102
RTVSPropertyOp17
 70
     1
102
RTVSPropertyOp18
 70
     1
102
RTVSPropertyOp19
 70
     1
102
RTVSPropertyOp20
 70
     1
102
RTVSPropertyOp21
 70
     1
102
RTVSPropertyOp22
 70
     1
102
RTVSPropertyOp23
 70
     1
102
RTVSPropertyOp24
 70
     1
102
RTVSPropertyOp25
 70
     1
102
RTVSPropertyOp26
 70
     1
102
RTVSPropertyOp27
 70
     1
102
RTVSPropertyOp28
 70
     1
102
RTVSPropertyOp29
 70
     1
102
RTVSPropertyOp30
 70
     1
102
RTVSPropertyOp31
 70
     1
102
RTVSPropertyOp32
 70
     1
102
RTVSPropertyOp33
 70
     1
102
RTVSPropertyOp34
 70
     1
102
RTVSPropertyOp35
 70
     1
102
RTVSPropertyOp36
 70
     1
102
RTVSPropertyOp37
 70
     1
102
RTVSPropertyOp38
 70
     1
102
RTVSPropertyOp39
 70
     1
102
RTVSPropertyOp40
 70
     1
102
RTVSPropertyOp41
 70
     1
102
RTVSPropertyOp42
 70
     1
102
RTVSPropertyOp43
 70
     1
102
RTVSPropertyOp44
 70
     1
102
RTVSPropertyOp45
 70
     1
102
RTVSPropertyOp46
 70
     1
102
RTVSPropertyOp47
 70
     1
102
RTVSPropertyOp48
 70
     1
102
RTVSPropertyOp49
 70
     1
102
RTVSPropertyOp50
 70
     1
102
RTVSPropertyOp51
 70
     0
102
RTVSPropertyOp52
 70
     0
102
RTVSPropertyOp53
 70
     1
102
RTVSPropertyOp54
 70
     1
102
RTVSPropertyOp55
 70
     1
102
RTVSPropertyOp56
 70
     1
102
RTVSPropertyOp57
 70
     1
102
RTVSPropertyOp58
 70
     1
102
RTVSPropertyOp59
 70
     1
102
RTVSPropertyOp60
 70
     1
102
RTVSPropertyOp61
 70
     1
102
RTVSPropertyOp62
 70
     1
  0
XRECORD
  5
646A
102
{ACAD_REACTORS
330
6469
102
}
330
6469
100
AcDbXrecord
280
     1
102
RTVSPost2010Prop28
280
     0
102
RTVSPost2010PropOp28
 70
     1
102
RTVSPost2010Prop29
280
     1
102
RTVSPost2010PropOp29
 70
     1
102
RTVSPost2010Prop30
280
     1
102
RTVSPost2010PropOp30
 70
     1
102
RTVSPost2010Prop31
280
     0
102
RTVSPost2010PropOp31
 70
     1
102
RTVSPost2010Prop32
280
     0
102
RTVSPost2010PropOp32
 70
     1
102
RTVSPost2010Prop33
280
     0
102
RTVSPost2010PropOp33
 70
     1
102
RTVSPost2010Prop34
280
     0
102
RTVSPost2010PropOp34
 70
     1
102
RTVSPost2010Prop35
280
     0
102
RTVSPost2010PropOp35
 70
     1
102
RTVSPost2010Prop36
280
     0
102
RTVSPost2010PropOp36
 70
     1
102
RTVSPost2010Prop37
 90
       50
102
RTVSPost2010PropOp37
 70
     1
102
RTVSPost2010Prop38
140
0.0
102
RTVSPost2010PropOp38
 70
     1
102
RTVSPost2010Prop39
140
1.0
102
RTVSPost2010PropOp39
 70
     1
102
RTVSPost2010Prop40
 90
        0
102
RTVSPost2010PropOp40
 70
     1
102
RTVSPost2010Prop41ColorIndex
 90
       18
102
RTVSPost2010Prop41ColorRGB
 90
        0
102
RTVSPost2010PropOp41
 70
     1
102
RTVSPost2010Prop42
 90
       50
102
RTVSPost2010PropOp42
 70
     1
102
RTVSPost2010Prop43
 90
        3
102
RTVSPost2010PropOp43
 70
     1
102
RTVSPost2010Prop44ColorIndex
 90
        5
102
RTVSPost2010Prop44ColorRGB
 90
      255
102
RTVSPost2010PropOp44
 70
     1
102
RTVSPost2010Prop45
280
     0
102
RTVSPost2010PropOp45
 70
     1
102
RTVSPost2010Prop46
 90
       50
102
RTVSPost2010PropOp46
 70
     1
102
RTVSPost2010Prop47
 90
       50
102
RTVSPost2010PropOp47
 70
     1
102
RTVSPost2010Prop48
 90
       50
102
RTVSPost2010PropOp48
 70
     1
102
RTVSPost2010Prop49
280
     0
102
RTVSPost2010PropOp49
 70
     1
102
RTVSPost2010Prop50
 90
       50
102
RTVSPost2010PropOp50
 70
     1
102
RTVSPost2010Prop51ColorIndex
 90
      256
102
RTVSPost2010Prop51ColorRGB
 90
-16777216
102
RTVSPost2010PropOp51
 70
     0
102
RTVSPost2010Prop52
140
1.0
102
RTVSPost2010PropOp52
 70
     0
102
RTVSPost2010Prop53
 90
        2
102
RTVSPost2010PropOp53
 70
     1
102
RTVSPost2010Prop54
  1
strokes_ogs.tif
102
RTVSPost2010PropOp54
 70
     1
102
RTVSPost2010Prop55
280
     0
102
RTVSPost2010PropOp55
 70
     1
102
RTVSPost2010Prop56
140
1.0
102
RTVSPost2010PropOp56
 70
     1
102
RTVSPost2010Prop57
140
1.0
102
RTVSPost2010PropOp57
 70
     1
102
RTVSPropertyOp0
 70
     1
102
RTVSPropertyOp1
 70
     1
102
RTVSPropertyOp2
 70
     1
102
RTVSPropertyOp3
 70
     1
102
RTVSPropertyOp4
 70
     1
102
RTVSPropertyOp5
 70
     1
102
RTVSPropertyOp6
 70
     1
102
RTVSPropertyOp7
 70
     1
102
RTVSPropertyOp8
 70
     1
102
RTVSPropertyOp9
 70
     1
102
RTVSPropertyOp10
 70
     1
102
RTVSPropertyOp11
 70
     1
102
RTVSPropertyOp12
 70
     1
102
RTVSPropertyOp13
 70
     1
102
RTVSPropertyOp14
 70
     1
102
RTVSPropertyOp15
 70
     1
102
RTVSPropertyOp16
 70
     1
102
RTVSPropertyOp17
 70
     1
102
RTVSPropertyOp18
 70
     1
102
RTVSPropertyOp19
 70
     1
102
RTVSPropertyOp20
 70
     1
102
RTVSPropertyOp21
 70
     1
102
RTVSPropertyOp22
 70
     1
102
RTVSPropertyOp23
 70
     1
102
RTVSPropertyOp24
 70
     1
102
RTVSPropertyOp25
 70
     1
102
RTVSPropertyOp26
 70
     1
102
RTVSPropertyOp27
 70
     1
102
RTVSPropertyOp28
 70
     1
102
RTVSPropertyOp29
 70
     1
102
RTVSPropertyOp30
 70
     1
102
RTVSPropertyOp31
 70
     1
102
RTVSPropertyOp32
 70
     1
102
RTVSPropertyOp33
 70
     1
102
RTVSPropertyOp34
 70
     1
102
RTVSPropertyOp35
 70
     1
102
RTVSPropertyOp36
 70
     1
102
RTVSPropertyOp37
 70
     1
102
RTVSPropertyOp38
 70
     1
102
RTVSPropertyOp39
 70
     1
102
RTVSPropertyOp40
 70
     1
102
RTVSPropertyOp41
 70
     1
102
RTVSPropertyOp42
 70
     1
102
RTVSPropertyOp43
 70
     1
102
RTVSPropertyOp44
 70
     1
102
RTVSPropertyOp45
 70
     1
102
RTVSPropertyOp46
 70
     1
102
RTVSPropertyOp47
 70
     1
102
RTVSPropertyOp48
 70
     1
102
RTVSPropertyOp49
 70
     1
102
RTVSPropertyOp50
 70
     1
102
RTVSPropertyOp51
 70
     0
102
RTVSPropertyOp52
 70
     0
102
RTVSPropertyOp53
 70
     1
102
RTVSPropertyOp54
 70
     1
102
RTVSPropertyOp55
 70
     1
102
RTVSPropertyOp56
 70
     1
102
RTVSPropertyOp57
 70
     1
102
RTVSPropertyOp58
 70
     1
102
RTVSPropertyOp59
 70
     1
102
RTVSPropertyOp60
 70
     1
102
RTVSPropertyOp61
 70
     1
102
RTVSPropertyOp62
 70
     1
  0
XRECORD
  5
645C
102
{ACAD_REACTORS
330
645B
102
}
330
645B
100
AcDbXrecord
280
     1
102
RTVSPost2010Prop28
280
     0
102
RTVSPost2010PropOp28
 70
     1
102
RTVSPost2010Prop29
280
     1
102
RTVSPost2010PropOp29
 70
     1
102
RTVSPost2010Prop30
280
     1
102
RTVSPost2010PropOp30
 70
     1
102
RTVSPost2010Prop31
280
     0
102
RTVSPost2010PropOp31
 70
     1
102
RTVSPost2010Prop32
280
     0
102
RTVSPost2010PropOp32
 70
     1
102
RTVSPost2010Prop33
280
     0
102
RTVSPost2010PropOp33
 70
     1
102
RTVSPost2010Prop34
280
     0
102
RTVSPost2010PropOp34
 70
     1
102
RTVSPost2010Prop35
280
     0
102
RTVSPost2010PropOp35
 70
     1
102
RTVSPost2010Prop36
280
     0
102
RTVSPost2010PropOp36
 70
     1
102
RTVSPost2010Prop37
 90
       50
102
RTVSPost2010PropOp37
 70
     1
102
RTVSPost2010Prop38
140
0.0
102
RTVSPost2010PropOp38
 70
     1
102
RTVSPost2010Prop39
140
1.0
102
RTVSPost2010PropOp39
 70
     1
102
RTVSPost2010Prop40
 90
        0
102
RTVSPost2010PropOp40
 70
     1
102
RTVSPost2010Prop41ColorIndex
 90
       18
102
RTVSPost2010Prop41ColorRGB
 90
        0
102
RTVSPost2010PropOp41
 70
     1
102
RTVSPost2010Prop42
 90
       50
102
RTVSPost2010PropOp42
 70
     1
102
RTVSPost2010Prop43
 90
        3
102
RTVSPost2010PropOp43
 70
     1
102
RTVSPost2010Prop44ColorIndex
 90
        5
102
RTVSPost2010Prop44ColorRGB
 90
      255
102
RTVSPost2010PropOp44
 70
     1
102
RTVSPost2010Prop45
280
     0
102
RTVSPost2010PropOp45
 70
     1
102
RTVSPost2010Prop46
 90
       50
102
RTVSPost2010PropOp46
 70
     1
102
RTVSPost2010Prop47
 90
       50
102
RTVSPost2010PropOp47
 70
     1
102
RTVSPost2010Prop48
 90
       50
102
RTVSPost2010PropOp48
 70
     1
102
RTVSPost2010Prop49
280
     0
102
RTVSPost2010PropOp49
 70
     1
102
RTVSPost2010Prop50
 90
       50
102
RTVSPost2010PropOp50
 70
     1
102
RTVSPost2010Prop51ColorIndex
 90
      256
102
RTVSPost2010Prop51ColorRGB
 90
-16777216
102
RTVSPost2010PropOp51
 70
     0
102
RTVSPost2010Prop52
140
1.0
102
RTVSPost2010PropOp52
 70
     0
102
RTVSPost2010Prop53
 90
        2
102
RTVSPost2010PropOp53
 70
     1
102
RTVSPost2010Prop54
  1
strokes_ogs.tif
102
RTVSPost2010PropOp54
 70
     1
102
RTVSPost2010Prop55
280
     0
102
RTVSPost2010PropOp55
 70
     1
102
RTVSPost2010Prop56
140
1.0
102
RTVSPost2010PropOp56
 70
     1
102
RTVSPost2010Prop57
140
1.0
102
RTVSPost2010PropOp57
 70
     1
102
RTVSPropertyOp0
 70
     1
102
RTVSPropertyOp1
 70
     1
102
RTVSPropertyOp2
 70
     1
102
RTVSPropertyOp3
 70
     1
102
RTVSPropertyOp4
 70
     1
102
RTVSPropertyOp5
 70
     1
102
RTVSPropertyOp6
 70
     1
102
RTVSPropertyOp7
 70
     1
102
RTVSPropertyOp8
 70
     1
102
RTVSPropertyOp9
 70
     1
102
RTVSPropertyOp10
 70
     1
102
RTVSPropertyOp11
 70
     1
102
RTVSPropertyOp12
 70
     1
102
RTVSPropertyOp13
 70
     1
102
RTVSPropertyOp14
 70
     1
102
RTVSPropertyOp15
 70
     1
102
RTVSPropertyOp16
 70
     1
102
RTVSPropertyOp17
 70
     1
102
RTVSPropertyOp18
 70
     1
102
RTVSPropertyOp19
 70
     1
102
RTVSPropertyOp20
 70
     1
102
RTVSPropertyOp21
 70
     1
102
RTVSPropertyOp22
 70
     1
102
RTVSPropertyOp23
 70
     1
102
RTVSPropertyOp24
 70
     1
102
RTVSPropertyOp25
 70
     1
102
RTVSPropertyOp26
 70
     1
102
RTVSPropertyOp27
 70
     1
102
RTVSPropertyOp28
 70
     1
102
RTVSPropertyOp29
 70
     1
102
RTVSPropertyOp30
 70
     1
102
RTVSPropertyOp31
 70
     1
102
RTVSPropertyOp32
 70
     1
102
RTVSPropertyOp33
 70
     1
102
RTVSPropertyOp34
 70
     1
102
RTVSPropertyOp35
 70
     1
102
RTVSPropertyOp36
 70
     1
102
RTVSPropertyOp37
 70
     1
102
RTVSPropertyOp38
 70
     1
102
RTVSPropertyOp39
 70
     1
102
RTVSPropertyOp40
 70
     1
102
RTVSPropertyOp41
 70
     1
102
RTVSPropertyOp42
 70
     1
102
RTVSPropertyOp43
 70
     1
102
RTVSPropertyOp44
 70
     1
102
RTVSPropertyOp45
 70
     1
102
RTVSPropertyOp46
 70
     1
102
RTVSPropertyOp47
 70
     1
102
RTVSPropertyOp48
 70
     1
102
RTVSPropertyOp49
 70
     1
102
RTVSPropertyOp50
 70
     1
102
RTVSPropertyOp51
 70
     0
102
RTVSPropertyOp52
 70
     0
102
RTVSPropertyOp53
 70
     1
102
RTVSPropertyOp54
 70
     1
102
RTVSPropertyOp55
 70
     1
102
RTVSPropertyOp56
 70
     1
102
RTVSPropertyOp57
 70
     1
102
RTVSPropertyOp58
 70
     1
102
RTVSPropertyOp59
 70
     1
102
RTVSPropertyOp60
 70
     1
102
RTVSPropertyOp61
 70
     1
102
RTVSPropertyOp62
 70
     1
  0
XRECORD
  5
6460
102
{ACAD_REACTORS
330
645F
102
}
330
645F
100
AcDbXrecord
280
     1
102
RTVSPost2010Prop28
280
     0
102
RTVSPost2010PropOp28
 70
     1
102
RTVSPost2010Prop29
280
     1
102
RTVSPost2010PropOp29
 70
     1
102
RTVSPost2010Prop30
280
     1
102
RTVSPost2010PropOp30
 70
     1
102
RTVSPost2010Prop31
280
     0
102
RTVSPost2010PropOp31
 70
     1
102
RTVSPost2010Prop32
280
     0
102
RTVSPost2010PropOp32
 70
     1
102
RTVSPost2010Prop33
280
     0
102
RTVSPost2010PropOp33
 70
     1
102
RTVSPost2010Prop34
280
     0
102
RTVSPost2010PropOp34
 70
     1
102
RTVSPost2010Prop35
280
     0
102
RTVSPost2010PropOp35
 70
     1
102
RTVSPost2010Prop36
280
     0
102
RTVSPost2010PropOp36
 70
     1
102
RTVSPost2010Prop37
 90
       50
102
RTVSPost2010PropOp37
 70
     1
102
RTVSPost2010Prop38
140
0.0
102
RTVSPost2010PropOp38
 70
     1
102
RTVSPost2010Prop39
140
1.0
102
RTVSPost2010PropOp39
 70
     1
102
RTVSPost2010Prop40
 90
        0
102
RTVSPost2010PropOp40
 70
     1
102
RTVSPost2010Prop41ColorIndex
 90
       18
102
RTVSPost2010Prop41ColorRGB
 90
        0
102
RTVSPost2010PropOp41
 70
     1
102
RTVSPost2010Prop42
 90
       50
102
RTVSPost2010PropOp42
 70
     1
102
RTVSPost2010Prop43
 90
        3
102
RTVSPost2010PropOp43
 70
     1
102
RTVSPost2010Prop44ColorIndex
 90
        5
102
RTVSPost2010Prop44ColorRGB
 90
      255
102
RTVSPost2010PropOp44
 70
     1
102
RTVSPost2010Prop45
280
     0
102
RTVSPost2010PropOp45
 70
     1
102
RTVSPost2010Prop46
 90
       50
102
RTVSPost2010PropOp46
 70
     1
102
RTVSPost2010Prop47
 90
       50
102
RTVSPost2010PropOp47
 70
     1
102
RTVSPost2010Prop48
 90
       50
102
RTVSPost2010PropOp48
 70
     1
102
RTVSPost2010Prop49
280
     0
102
RTVSPost2010PropOp49
 70
     1
102
RTVSPost2010Prop50
 90
       50
102
RTVSPost2010PropOp50
 70
     1
102
RTVSPost2010Prop51ColorIndex
 90
      256
102
RTVSPost2010Prop51ColorRGB
 90
-16777216
102
RTVSPost2010PropOp51
 70
     0
102
RTVSPost2010Prop52
140
1.0
102
RTVSPost2010PropOp52
 70
     0
102
RTVSPost2010Prop53
 90
        2
102
RTVSPost2010PropOp53
 70
     1
102
RTVSPost2010Prop54
  1
strokes_ogs.tif
102
RTVSPost2010PropOp54
 70
     1
102
RTVSPost2010Prop55
280
     0
102
RTVSPost2010PropOp55
 70
     1
102
RTVSPost2010Prop56
140
1.0
102
RTVSPost2010PropOp56
 70
     1
102
RTVSPost2010Prop57
140
1.0
102
RTVSPost2010PropOp57
 70
     1
102
RTVSPropertyOp0
 70
     1
102
RTVSPropertyOp1
 70
     1
102
RTVSPropertyOp2
 70
     1
102
RTVSPropertyOp3
 70
     1
102
RTVSPropertyOp4
 70
     1
102
RTVSPropertyOp5
 70
     1
102
RTVSPropertyOp6
 70
     1
102
RTVSPropertyOp7
 70
     1
102
RTVSPropertyOp8
 70
     1
102
RTVSPropertyOp9
 70
     1
102
RTVSPropertyOp10
 70
     1
102
RTVSPropertyOp11
 70
     1
102
RTVSPropertyOp12
 70
     1
102
RTVSPropertyOp13
 70
     1
102
RTVSPropertyOp14
 70
     1
102
RTVSPropertyOp15
 70
     1
102
RTVSPropertyOp16
 70
     1
102
RTVSPropertyOp17
 70
     1
102
RTVSPropertyOp18
 70
     1
102
RTVSPropertyOp19
 70
     1
102
RTVSPropertyOp20
 70
     1
102
RTVSPropertyOp21
 70
     1
102
RTVSPropertyOp22
 70
     1
102
RTVSPropertyOp23
 70
     1
102
RTVSPropertyOp24
 70
     1
102
RTVSPropertyOp25
 70
     1
102
RTVSPropertyOp26
 70
     1
102
RTVSPropertyOp27
 70
     1
102
RTVSPropertyOp28
 70
     1
102
RTVSPropertyOp29
 70
     1
102
RTVSPropertyOp30
 70
     1
102
RTVSPropertyOp31
 70
     1
102
RTVSPropertyOp32
 70
     1
102
RTVSPropertyOp33
 70
     1
102
RTVSPropertyOp34
 70
     1
102
RTVSPropertyOp35
 70
     1
102
RTVSPropertyOp36
 70
     1
102
RTVSPropertyOp37
 70
     1
102
RTVSPropertyOp38
 70
     1
102
RTVSPropertyOp39
 70
     1
102
RTVSPropertyOp40
 70
     1
102
RTVSPropertyOp41
 70
     1
102
RTVSPropertyOp42
 70
     1
102
RTVSPropertyOp43
 70
     1
102
RTVSPropertyOp44
 70
     1
102
RTVSPropertyOp45
 70
     1
102
RTVSPropertyOp46
 70
     1
102
RTVSPropertyOp47
 70
     1
102
RTVSPropertyOp48
 70
     1
102
RTVSPropertyOp49
 70
     1
102
RTVSPropertyOp50
 70
     1
102
RTVSPropertyOp51
 70
     0
102
RTVSPropertyOp52
 70
     0
102
RTVSPropertyOp53
 70
     1
102
RTVSPropertyOp54
 70
     1
102
RTVSPropertyOp55
 70
     1
102
RTVSPropertyOp56
 70
     1
102
RTVSPropertyOp57
 70
     1
102
RTVSPropertyOp58
 70
     1
102
RTVSPropertyOp59
 70
     1
102
RTVSPropertyOp60
 70
     1
102
RTVSPropertyOp61
 70
     1
102
RTVSPropertyOp62
 70
     1
  0
XRECORD
  5
647A
102
{ACAD_REACTORS
330
6479
102
}
330
6479
100
AcDbXrecord
280
     1
102
RTVSPost2010Prop28
280
     0
102
RTVSPost2010PropOp28
 70
     0
102
RTVSPost2010Prop29
280
     1
102
RTVSPost2010PropOp29
 70
     0
102
RTVSPost2010Prop30
280
     1
102
RTVSPost2010PropOp30
 70
     0
102
RTVSPost2010Prop31
280
     0
102
RTVSPost2010PropOp31
 70
     0
102
RTVSPost2010Prop32
280
     0
102
RTVSPost2010PropOp32
 70
     0
102
RTVSPost2010Prop33
280
     0
102
RTVSPost2010PropOp33
 70
     0
102
RTVSPost2010Prop34
280
     0
102
RTVSPost2010PropOp34
 70
     0
102
RTVSPost2010Prop35
280
     0
102
RTVSPost2010PropOp35
 70
     0
102
RTVSPost2010Prop36
280
     0
102
RTVSPost2010PropOp36
 70
     0
102
RTVSPost2010Prop37
 90
       50
102
RTVSPost2010PropOp37
 70
     0
102
RTVSPost2010Prop38
140
0.0
102
RTVSPost2010PropOp38
 70
     0
102
RTVSPost2010Prop39
140
1.0
102
RTVSPost2010PropOp39
 70
     0
102
RTVSPost2010Prop40
 90
        0
102
RTVSPost2010PropOp40
 70
     0
102
RTVSPost2010Prop41ColorIndex
 90
       18
102
RTVSPost2010Prop41ColorRGB
 90
        0
102
RTVSPost2010PropOp41
 70
     0
102
RTVSPost2010Prop42
 90
       50
102
RTVSPost2010PropOp42
 70
     0
102
RTVSPost2010Prop43
 90
        3
102
RTVSPost2010PropOp43
 70
     0
102
RTVSPost2010Prop44ColorIndex
 90
        5
102
RTVSPost2010Prop44ColorRGB
 90
      255
102
RTVSPost2010PropOp44
 70
     0
102
RTVSPost2010Prop45
280
     0
102
RTVSPost2010PropOp45
 70
     0
102
RTVSPost2010Prop46
 90
       50
102
RTVSPost2010PropOp46
 70
     0
102
RTVSPost2010Prop47
 90
       50
102
RTVSPost2010PropOp47
 70
     0
102
RTVSPost2010Prop48
 90
       50
102
RTVSPost2010PropOp48
 70
     0
102
RTVSPost2010Prop49
280
     0
102
RTVSPost2010PropOp49
 70
     0
102
RTVSPost2010Prop50
 90
       50
102
RTVSPost2010PropOp50
 70
     0
102
RTVSPost2010Prop51ColorIndex
 90
      256
102
RTVSPost2010Prop51ColorRGB
 90
-16777216
102
RTVSPost2010PropOp51
 70
     0
102
RTVSPost2010Prop52
140
1.0
102
RTVSPost2010PropOp52
 70
     0
102
RTVSPost2010Prop53
 90
        2
102
RTVSPost2010PropOp53
 70
     0
102
RTVSPost2010Prop54
  1
strokes_ogs.tif
102
RTVSPost2010PropOp54
 70
     0
102
RTVSPost2010Prop55
280
     0
102
RTVSPost2010PropOp55
 70
     0
102
RTVSPost2010Prop56
140
1.0
102
RTVSPost2010PropOp56
 70
     0
102
RTVSPost2010Prop57
140
1.0
102
RTVSPost2010PropOp57
 70
     0
102
RTVSPropertyOp0
 70
     0
102
RTVSPropertyOp1
 70
     0
102
RTVSPropertyOp2
 70
     0
102
RTVSPropertyOp3
 70
     0
102
RTVSPropertyOp4
 70
     0
102
RTVSPropertyOp5
 70
     0
102
RTVSPropertyOp6
 70
     0
102
RTVSPropertyOp7
 70
     0
102
RTVSPropertyOp8
 70
     0
102
RTVSPropertyOp9
 70
     0
102
RTVSPropertyOp10
 70
     0
102
RTVSPropertyOp11
 70
     0
102
RTVSPropertyOp12
 70
     0
102
RTVSPropertyOp13
 70
     0
102
RTVSPropertyOp14
 70
     2
102
RTVSPropertyOp15
 70
     0
102
RTVSPropertyOp16
 70
     0
102
RTVSPropertyOp17
 70
     0
102
RTVSPropertyOp18
 70
     0
102
RTVSPropertyOp19
 70
     0
102
RTVSPropertyOp20
 70
     0
102
RTVSPropertyOp21
 70
     0
102
RTVSPropertyOp22
 70
     0
102
RTVSPropertyOp23
 70
     0
102
RTVSPropertyOp24
 70
     0
102
RTVSPropertyOp25
 70
     0
102
RTVSPropertyOp26
 70
     0
102
RTVSPropertyOp27
 70
     0
102
RTVSPropertyOp28
 70
     0
102
RTVSPropertyOp29
 70
     0
102
RTVSPropertyOp30
 70
     0
102
RTVSPropertyOp31
 70
     0
102
RTVSPropertyOp32
 70
     0
102
RTVSPropertyOp33
 70
     0
102
RTVSPropertyOp34
 70
     0
102
RTVSPropertyOp35
 70
     0
102
RTVSPropertyOp36
 70
     0
102
RTVSPropertyOp37
 70
     0
102
RTVSPropertyOp38
 70
     0
102
RTVSPropertyOp39
 70
     0
102
RTVSPropertyOp40
 70
     0
102
RTVSPropertyOp41
 70
     0
102
RTVSPropertyOp42
 70
     0
102
RTVSPropertyOp43
 70
     0
102
RTVSPropertyOp44
 70
     0
102
RTVSPropertyOp45
 70
     0
102
RTVSPropertyOp46
 70
     0
102
RTVSPropertyOp47
 70
     0
102
RTVSPropertyOp48
 70
     0
102
RTVSPropertyOp49
 70
     0
102
RTVSPropertyOp50
 70
     0
102
RTVSPropertyOp51
 70
     0
102
RTVSPropertyOp52
 70
     0
102
RTVSPropertyOp53
 70
     0
102
RTVSPropertyOp54
 70
     0
102
RTVSPropertyOp55
 70
     0
102
RTVSPropertyOp56
 70
     0
102
RTVSPropertyOp57
 70
     0
102
RTVSPropertyOp58
 70
     1
102
RTVSPropertyOp59
 70
     1
102
RTVSPropertyOp60
 70
     1
102
RTVSPropertyOp61
 70
     1
102
RTVSPropertyOp62
 70
     1
  0
XRECORD
  5
6468
102
{ACAD_REACTORS
330
6467
102
}
330
6467
100
AcDbXrecord
280
     1
102
RTVSPost2010Prop28
280
     0
102
RTVSPost2010PropOp28
 70
     1
102
RTVSPost2010Prop29
280
     1
102
RTVSPost2010PropOp29
 70
     1
102
RTVSPost2010Prop30
280
     1
102
RTVSPost2010PropOp30
 70
     1
102
RTVSPost2010Prop31
280
     0
102
RTVSPost2010PropOp31
 70
     1
102
RTVSPost2010Prop32
280
     0
102
RTVSPost2010PropOp32
 70
     1
102
RTVSPost2010Prop33
280
     0
102
RTVSPost2010PropOp33
 70
     1
102
RTVSPost2010Prop34
280
     0
102
RTVSPost2010PropOp34
 70
     1
102
RTVSPost2010Prop35
280
     0
102
RTVSPost2010PropOp35
 70
     1
102
RTVSPost2010Prop36
280
     0
102
RTVSPost2010PropOp36
 70
     1
102
RTVSPost2010Prop37
 90
       50
102
RTVSPost2010PropOp37
 70
     1
102
RTVSPost2010Prop38
140
0.0
102
RTVSPost2010PropOp38
 70
     1
102
RTVSPost2010Prop39
140
1.0
102
RTVSPost2010PropOp39
 70
     1
102
RTVSPost2010Prop40
 90
        0
102
RTVSPost2010PropOp40
 70
     1
102
RTVSPost2010Prop41ColorIndex
 90
       18
102
RTVSPost2010Prop41ColorRGB
 90
        0
102
RTVSPost2010PropOp41
 70
     1
102
RTVSPost2010Prop42
 90
       50
102
RTVSPost2010PropOp42
 70
     1
102
RTVSPost2010Prop43
 90
        3
102
RTVSPost2010PropOp43
 70
     1
102
RTVSPost2010Prop44ColorIndex
 90
        5
102
RTVSPost2010Prop44ColorRGB
 90
      255
102
RTVSPost2010PropOp44
 70
     1
102
RTVSPost2010Prop45
280
     0
102
RTVSPost2010PropOp45
 70
     1
102
RTVSPost2010Prop46
 90
       50
102
RTVSPost2010PropOp46
 70
     1
102
RTVSPost2010Prop47
 90
       50
102
RTVSPost2010PropOp47
 70
     1
102
RTVSPost2010Prop48
 90
       50
102
RTVSPost2010PropOp48
 70
     1
102
RTVSPost2010Prop49
280
     0
102
RTVSPost2010PropOp49
 70
     1
102
RTVSPost2010Prop50
 90
       50
102
RTVSPost2010PropOp50
 70
     1
102
RTVSPost2010Prop51ColorIndex
 90
      256
102
RTVSPost2010Prop51ColorRGB
 90
-16777216
102
RTVSPost2010PropOp51
 70
     0
102
RTVSPost2010Prop52
140
1.0
102
RTVSPost2010PropOp52
 70
     0
102
RTVSPost2010Prop53
 90
        2
102
RTVSPost2010PropOp53
 70
     1
102
RTVSPost2010Prop54
  1
strokes_ogs.tif
102
RTVSPost2010PropOp54
 70
     1
102
RTVSPost2010Prop55
280
     0
102
RTVSPost2010PropOp55
 70
     1
102
RTVSPost2010Prop56
140
1.0
102
RTVSPost2010PropOp56
 70
     1
102
RTVSPost2010Prop57
140
1.0
102
RTVSPost2010PropOp57
 70
     1
102
RTVSPropertyOp0
 70
     1
102
RTVSPropertyOp1
 70
     1
102
RTVSPropertyOp2
 70
     1
102
RTVSPropertyOp3
 70
     1
102
RTVSPropertyOp4
 70
     1
102
RTVSPropertyOp5
 70
     1
102
RTVSPropertyOp6
 70
     1
102
RTVSPropertyOp7
 70
     1
102
RTVSPropertyOp8
 70
     1
102
RTVSPropertyOp9
 70
     1
102
RTVSPropertyOp10
 70
     1
102
RTVSPropertyOp11
 70
     1
102
RTVSPropertyOp12
 70
     1
102
RTVSPropertyOp13
 70
     1
102
RTVSPropertyOp14
 70
     1
102
RTVSPropertyOp15
 70
     1
102
RTVSPropertyOp16
 70
     1
102
RTVSPropertyOp17
 70
     1
102
RTVSPropertyOp18
 70
     1
102
RTVSPropertyOp19
 70
     1
102
RTVSPropertyOp20
 70
     1
102
RTVSPropertyOp21
 70
     1
102
RTVSPropertyOp22
 70
     1
102
RTVSPropertyOp23
 70
     1
102
RTVSPropertyOp24
 70
     1
102
RTVSPropertyOp25
 70
     1
102
RTVSPropertyOp26
 70
     1
102
RTVSPropertyOp27
 70
     1
102
RTVSPropertyOp28
 70
     1
102
RTVSPropertyOp29
 70
     1
102
RTVSPropertyOp30
 70
     1
102
RTVSPropertyOp31
 70
     1
102
RTVSPropertyOp32
 70
     1
102
RTVSPropertyOp33
 70
     1
102
RTVSPropertyOp34
 70
     1
102
RTVSPropertyOp35
 70
     1
102
RTVSPropertyOp36
 70
     1
102
RTVSPropertyOp37
 70
     1
102
RTVSPropertyOp38
 70
     1
102
RTVSPropertyOp39
 70
     1
102
RTVSPropertyOp40
 70
     1
102
RTVSPropertyOp41
 70
     1
102
RTVSPropertyOp42
 70
     1
102
RTVSPropertyOp43
 70
     1
102
RTVSPropertyOp44
 70
     1
102
RTVSPropertyOp45
 70
     1
102
RTVSPropertyOp46
 70
     1
102
RTVSPropertyOp47
 70
     1
102
RTVSPropertyOp48
 70
     1
102
RTVSPropertyOp49
 70
     1
102
RTVSPropertyOp50
 70
     1
102
RTVSPropertyOp51
 70
     0
102
RTVSPropertyOp52
 70
     0
102
RTVSPropertyOp53
 70
     1
102
RTVSPropertyOp54
 70
     1
102
RTVSPropertyOp55
 70
     1
102
RTVSPropertyOp56
 70
     1
102
RTVSPropertyOp57
 70
     1
102
RTVSPropertyOp58
 70
     1
102
RTVSPropertyOp59
 70
     1
102
RTVSPropertyOp60
 70
     1
102
RTVSPropertyOp61
 70
     1
102
RTVSPropertyOp62
 70
     1
  0
XRECORD
  5
644C
102
{ACAD_REACTORS
330
644B
102
}
330
644B
100
AcDbXrecord
280
     1
102
RTVSPost2010Prop28
280
     0
102
RTVSPost2010PropOp28
 70
     1
102
RTVSPost2010Prop29
280
     1
102
RTVSPost2010PropOp29
 70
     1
102
RTVSPost2010Prop30
280
     1
102
RTVSPost2010PropOp30
 70
     1
102
RTVSPost2010Prop31
280
     0
102
RTVSPost2010PropOp31
 70
     1
102
RTVSPost2010Prop32
280
     0
102
RTVSPost2010PropOp32
 70
     1
102
RTVSPost2010Prop33
280
     0
102
RTVSPost2010PropOp33
 70
     1
102
RTVSPost2010Prop34
280
     0
102
RTVSPost2010PropOp34
 70
     1
102
RTVSPost2010Prop35
280
     0
102
RTVSPost2010PropOp35
 70
     1
102
RTVSPost2010Prop36
280
     0
102
RTVSPost2010PropOp36
 70
     1
102
RTVSPost2010Prop37
 90
       50
102
RTVSPost2010PropOp37
 70
     1
102
RTVSPost2010Prop38
140
0.0
102
RTVSPost2010PropOp38
 70
     1
102
RTVSPost2010Prop39
140
1.0
102
RTVSPost2010PropOp39
 70
     1
102
RTVSPost2010Prop40
 90
        0
102
RTVSPost2010PropOp40
 70
     1
102
RTVSPost2010Prop41ColorIndex
 90
       18
102
RTVSPost2010Prop41ColorRGB
 90
        0
102
RTVSPost2010PropOp41
 70
     1
102
RTVSPost2010Prop42
 90
       50
102
RTVSPost2010PropOp42
 70
     1
102
RTVSPost2010Prop43
 90
        3
102
RTVSPost2010PropOp43
 70
     1
102
RTVSPost2010Prop44ColorIndex
 90
        5
102
RTVSPost2010Prop44ColorRGB
 90
      255
102
RTVSPost2010PropOp44
 70
     1
102
RTVSPost2010Prop45
280
     0
102
RTVSPost2010PropOp45
 70
     1
102
RTVSPost2010Prop46
 90
       50
102
RTVSPost2010PropOp46
 70
     1
102
RTVSPost2010Prop47
 90
       50
102
RTVSPost2010PropOp47
 70
     1
102
RTVSPost2010Prop48
 90
       50
102
RTVSPost2010PropOp48
 70
     1
102
RTVSPost2010Prop49
280
     0
102
RTVSPost2010PropOp49
 70
     1
102
RTVSPost2010Prop50
 90
       50
102
RTVSPost2010PropOp50
 70
     1
102
RTVSPost2010Prop51ColorIndex
 90
      256
102
RTVSPost2010Prop51ColorRGB
 90
-16777216
102
RTVSPost2010PropOp51
 70
     0
102
RTVSPost2010Prop52
140
1.0
102
RTVSPost2010PropOp52
 70
     0
102
RTVSPost2010Prop53
 90
        2
102
RTVSPost2010PropOp53
 70
     1
102
RTVSPost2010Prop54
  1
strokes_ogs.tif
102
RTVSPost2010PropOp54
 70
     1
102
RTVSPost2010Prop55
280
     0
102
RTVSPost2010PropOp55
 70
     1
102
RTVSPost2010Prop56
140
1.0
102
RTVSPost2010PropOp56
 70
     1
102
RTVSPost2010Prop57
140
1.0
102
RTVSPost2010PropOp57
 70
     1
102
RTVSPropertyOp0
 70
     1
102
RTVSPropertyOp1
 70
     1
102
RTVSPropertyOp2
 70
     1
102
RTVSPropertyOp3
 70
     1
102
RTVSPropertyOp4
 70
     1
102
RTVSPropertyOp5
 70
     1
102
RTVSPropertyOp6
 70
     1
102
RTVSPropertyOp7
 70
     1
102
RTVSPropertyOp8
 70
     1
102
RTVSPropertyOp9
 70
     1
102
RTVSPropertyOp10
 70
     1
102
RTVSPropertyOp11
 70
     1
102
RTVSPropertyOp12
 70
     1
102
RTVSPropertyOp13
 70
     1
102
RTVSPropertyOp14
 70
     1
102
RTVSPropertyOp15
 70
     1
102
RTVSPropertyOp16
 70
     1
102
RTVSPropertyOp17
 70
     1
102
RTVSPropertyOp18
 70
     1
102
RTVSPropertyOp19
 70
     1
102
RTVSPropertyOp20
 70
     1
102
RTVSPropertyOp21
 70
     1
102
RTVSPropertyOp22
 70
     1
102
RTVSPropertyOp23
 70
     1
102
RTVSPropertyOp24
 70
     1
102
RTVSPropertyOp25
 70
     1
102
RTVSPropertyOp26
 70
     1
102
RTVSPropertyOp27
 70
     1
102
RTVSPropertyOp28
 70
     1
102
RTVSPropertyOp29
 70
     1
102
RTVSPropertyOp30
 70
     1
102
RTVSPropertyOp31
 70
     1
102
RTVSPropertyOp32
 70
     1
102
RTVSPropertyOp33
 70
     1
102
RTVSPropertyOp34
 70
     1
102
RTVSPropertyOp35
 70
     1
102
RTVSPropertyOp36
 70
     1
102
RTVSPropertyOp37
 70
     1
102
RTVSPropertyOp38
 70
     1
102
RTVSPropertyOp39
 70
     1
102
RTVSPropertyOp40
 70
     1
102
RTVSPropertyOp41
 70
     1
102
RTVSPropertyOp42
 70
     1
102
RTVSPropertyOp43
 70
     1
102
RTVSPropertyOp44
 70
     1
102
RTVSPropertyOp45
 70
     1
102
RTVSPropertyOp46
 70
     1
102
RTVSPropertyOp47
 70
     1
102
RTVSPropertyOp48
 70
     1
102
RTVSPropertyOp49
 70
     1
102
RTVSPropertyOp50
 70
     1
102
RTVSPropertyOp51
 70
     0
102
RTVSPropertyOp52
 70
     0
102
RTVSPropertyOp53
 70
     1
102
RTVSPropertyOp54
 70
     1
102
RTVSPropertyOp55
 70
     1
102
RTVSPropertyOp56
 70
     1
102
RTVSPropertyOp57
 70
     1
102
RTVSPropertyOp58
 70
     1
102
RTVSPropertyOp59
 70
     1
102
RTVSPropertyOp60
 70
     1
102
RTVSPropertyOp61
 70
     1
102
RTVSPropertyOp62
 70
     1
  0
XRECORD
  5
644E
102
{ACAD_REACTORS
330
644D
102
}
330
644D
100
AcDbXrecord
280
     1
102
RTVSPost2010Prop28
280
     0
102
RTVSPost2010PropOp28
 70
     1
102
RTVSPost2010Prop29
280
     1
102
RTVSPost2010PropOp29
 70
     1
102
RTVSPost2010Prop30
280
     1
102
RTVSPost2010PropOp30
 70
     1
102
RTVSPost2010Prop31
280
     0
102
RTVSPost2010PropOp31
 70
     1
102
RTVSPost2010Prop32
280
     0
102
RTVSPost2010PropOp32
 70
     1
102
RTVSPost2010Prop33
280
     0
102
RTVSPost2010PropOp33
 70
     1
102
RTVSPost2010Prop34
280
     0
102
RTVSPost2010PropOp34
 70
     1
102
RTVSPost2010Prop35
280
     0
102
RTVSPost2010PropOp35
 70
     1
102
RTVSPost2010Prop36
280
     0
102
RTVSPost2010PropOp36
 70
     1
102
RTVSPost2010Prop37
 90
       50
102
RTVSPost2010PropOp37
 70
     1
102
RTVSPost2010Prop38
140
0.0
102
RTVSPost2010PropOp38
 70
     1
102
RTVSPost2010Prop39
140
1.0
102
RTVSPost2010PropOp39
 70
     1
102
RTVSPost2010Prop40
 90
        0
102
RTVSPost2010PropOp40
 70
     1
102
RTVSPost2010Prop41ColorIndex
 90
       18
102
RTVSPost2010Prop41ColorRGB
 90
        0
102
RTVSPost2010PropOp41
 70
     1
102
RTVSPost2010Prop42
 90
       50
102
RTVSPost2010PropOp42
 70
     1
102
RTVSPost2010Prop43
 90
        3
102
RTVSPost2010PropOp43
 70
     1
102
RTVSPost2010Prop44ColorIndex
 90
        5
102
RTVSPost2010Prop44ColorRGB
 90
      255
102
RTVSPost2010PropOp44
 70
     1
102
RTVSPost2010Prop45
280
     0
102
RTVSPost2010PropOp45
 70
     1
102
RTVSPost2010Prop46
 90
       50
102
RTVSPost2010PropOp46
 70
     1
102
RTVSPost2010Prop47
 90
       50
102
RTVSPost2010PropOp47
 70
     1
102
RTVSPost2010Prop48
 90
       50
102
RTVSPost2010PropOp48
 70
     1
102
RTVSPost2010Prop49
280
     0
102
RTVSPost2010PropOp49
 70
     1
102
RTVSPost2010Prop50
 90
       50
102
RTVSPost2010PropOp50
 70
     1
102
RTVSPost2010Prop51ColorIndex
 90
      256
102
RTVSPost2010Prop51ColorRGB
 90
-16777216
102
RTVSPost2010PropOp51
 70
     0
102
RTVSPost2010Prop52
140
1.0
102
RTVSPost2010PropOp52
 70
     0
102
RTVSPost2010Prop53
 90
        2
102
RTVSPost2010PropOp53
 70
     1
102
RTVSPost2010Prop54
  1
strokes_ogs.tif
102
RTVSPost2010PropOp54
 70
     1
102
RTVSPost2010Prop55
280
     0
102
RTVSPost2010PropOp55
 70
     1
102
RTVSPost2010Prop56
140
1.0
102
RTVSPost2010PropOp56
 70
     1
102
RTVSPost2010Prop57
140
1.0
102
RTVSPost2010PropOp57
 70
     1
102
RTVSPropertyOp0
 70
     1
102
RTVSPropertyOp1
 70
     1
102
RTVSPropertyOp2
 70
     1
102
RTVSPropertyOp3
 70
     1
102
RTVSPropertyOp4
 70
     1
102
RTVSPropertyOp5
 70
     1
102
RTVSPropertyOp6
 70
     1
102
RTVSPropertyOp7
 70
     1
102
RTVSPropertyOp8
 70
     1
102
RTVSPropertyOp9
 70
     1
102
RTVSPropertyOp10
 70
     1
102
RTVSPropertyOp11
 70
     1
102
RTVSPropertyOp12
 70
     1
102
RTVSPropertyOp13
 70
     1
102
RTVSPropertyOp14
 70
     1
102
RTVSPropertyOp15
 70
     1
102
RTVSPropertyOp16
 70
     1
102
RTVSPropertyOp17
 70
     1
102
RTVSPropertyOp18
 70
     1
102
RTVSPropertyOp19
 70
     1
102
RTVSPropertyOp20
 70
     1
102
RTVSPropertyOp21
 70
     1
102
RTVSPropertyOp22
 70
     1
102
RTVSPropertyOp23
 70
     1
102
RTVSPropertyOp24
 70
     1
102
RTVSPropertyOp25
 70
     1
102
RTVSPropertyOp26
 70
     1
102
RTVSPropertyOp27
 70
     1
102
RTVSPropertyOp28
 70
     1
102
RTVSPropertyOp29
 70
     1
102
RTVSPropertyOp30
 70
     1
102
RTVSPropertyOp31
 70
     1
102
RTVSPropertyOp32
 70
     1
102
RTVSPropertyOp33
 70
     1
102
RTVSPropertyOp34
 70
     1
102
RTVSPropertyOp35
 70
     1
102
RTVSPropertyOp36
 70
     1
102
RTVSPropertyOp37
 70
     1
102
RTVSPropertyOp38
 70
     1
102
RTVSPropertyOp39
 70
     1
102
RTVSPropertyOp40
 70
     1
102
RTVSPropertyOp41
 70
     1
102
RTVSPropertyOp42
 70
     1
102
RTVSPropertyOp43
 70
     1
102
RTVSPropertyOp44
 70
     1
102
RTVSPropertyOp45
 70
     1
102
RTVSPropertyOp46
 70
     1
102
RTVSPropertyOp47
 70
     1
102
RTVSPropertyOp48
 70
     1
102
RTVSPropertyOp49
 70
     1
102
RTVSPropertyOp50
 70
     1
102
RTVSPropertyOp51
 70
     0
102
RTVSPropertyOp52
 70
     0
102
RTVSPropertyOp53
 70
     1
102
RTVSPropertyOp54
 70
     1
102
RTVSPropertyOp55
 70
     1
102
RTVSPropertyOp56
 70
     1
102
RTVSPropertyOp57
 70
     1
102
RTVSPropertyOp58
 70
     1
102
RTVSPropertyOp59
 70
     1
102
RTVSPropertyOp60
 70
     1
102
RTVSPropertyOp61
 70
     1
102
RTVSPropertyOp62
 70
     1
  0
XRECORD
  5
6450
102
{ACAD_REACTORS
330
644F
102
}
330
644F
100
AcDbXrecord
280
     1
102
RTVSPost2010Prop28
280
     0
102
RTVSPost2010PropOp28
 70
     1
102
RTVSPost2010Prop29
280
     1
102
RTVSPost2010PropOp29
 70
     1
102
RTVSPost2010Prop30
280
     1
102
RTVSPost2010PropOp30
 70
     1
102
RTVSPost2010Prop31
280
     0
102
RTVSPost2010PropOp31
 70
     1
102
RTVSPost2010Prop32
280
     0
102
RTVSPost2010PropOp32
 70
     1
102
RTVSPost2010Prop33
280
     0
102
RTVSPost2010PropOp33
 70
     1
102
RTVSPost2010Prop34
280
     0
102
RTVSPost2010PropOp34
 70
     1
102
RTVSPost2010Prop35
280
     0
102
RTVSPost2010PropOp35
 70
     1
102
RTVSPost2010Prop36
280
     0
102
RTVSPost2010PropOp36
 70
     1
102
RTVSPost2010Prop37
 90
       50
102
RTVSPost2010PropOp37
 70
     1
102
RTVSPost2010Prop38
140
0.0
102
RTVSPost2010PropOp38
 70
     1
102
RTVSPost2010Prop39
140
1.0
102
RTVSPost2010PropOp39
 70
     1
102
RTVSPost2010Prop40
 90
        0
102
RTVSPost2010PropOp40
 70
     1
102
RTVSPost2010Prop41ColorIndex
 90
       18
102
RTVSPost2010Prop41ColorRGB
 90
        0
102
RTVSPost2010PropOp41
 70
     1
102
RTVSPost2010Prop42
 90
       50
102
RTVSPost2010PropOp42
 70
     1
102
RTVSPost2010Prop43
 90
        3
102
RTVSPost2010PropOp43
 70
     1
102
RTVSPost2010Prop44ColorIndex
 90
        5
102
RTVSPost2010Prop44ColorRGB
 90
      255
102
RTVSPost2010PropOp44
 70
     1
102
RTVSPost2010Prop45
280
     0
102
RTVSPost2010PropOp45
 70
     1
102
RTVSPost2010Prop46
 90
       50
102
RTVSPost2010PropOp46
 70
     1
102
RTVSPost2010Prop47
 90
       50
102
RTVSPost2010PropOp47
 70
     1
102
RTVSPost2010Prop48
 90
       50
102
RTVSPost2010PropOp48
 70
     1
102
RTVSPost2010Prop49
280
     0
102
RTVSPost2010PropOp49
 70
     1
102
RTVSPost2010Prop50
 90
       50
102
RTVSPost2010PropOp50
 70
     1
102
RTVSPost2010Prop51ColorIndex
 90
      256
102
RTVSPost2010Prop51ColorRGB
 90
-16777216
102
RTVSPost2010PropOp51
 70
     0
102
RTVSPost2010Prop52
140
1.0
102
RTVSPost2010PropOp52
 70
     0
102
RTVSPost2010Prop53
 90
        2
102
RTVSPost2010PropOp53
 70
     1
102
RTVSPost2010Prop54
  1
strokes_ogs.tif
102
RTVSPost2010PropOp54
 70
     1
102
RTVSPost2010Prop55
280
     0
102
RTVSPost2010PropOp55
 70
     1
102
RTVSPost2010Prop56
140
1.0
102
RTVSPost2010PropOp56
 70
     1
102
RTVSPost2010Prop57
140
1.0
102
RTVSPost2010PropOp57
 70
     1
102
RTVSPropertyOp0
 70
     1
102
RTVSPropertyOp1
 70
     1
102
RTVSPropertyOp2
 70
     1
102
RTVSPropertyOp3
 70
     1
102
RTVSPropertyOp4
 70
     1
102
RTVSPropertyOp5
 70
     1
102
RTVSPropertyOp6
 70
     1
102
RTVSPropertyOp7
 70
     1
102
RTVSPropertyOp8
 70
     1
102
RTVSPropertyOp9
 70
     1
102
RTVSPropertyOp10
 70
     1
102
RTVSPropertyOp11
 70
     1
102
RTVSPropertyOp12
 70
     1
102
RTVSPropertyOp13
 70
     1
102
RTVSPropertyOp14
 70
     1
102
RTVSPropertyOp15
 70
     1
102
RTVSPropertyOp16
 70
     1
102
RTVSPropertyOp17
 70
     1
102
RTVSPropertyOp18
 70
     1
102
RTVSPropertyOp19
 70
     1
102
RTVSPropertyOp20
 70
     1
102
RTVSPropertyOp21
 70
     1
102
RTVSPropertyOp22
 70
     1
102
RTVSPropertyOp23
 70
     1
102
RTVSPropertyOp24
 70
     1
102
RTVSPropertyOp25
 70
     1
102
RTVSPropertyOp26
 70
     1
102
RTVSPropertyOp27
 70
     1
102
RTVSPropertyOp28
 70
     1
102
RTVSPropertyOp29
 70
     1
102
RTVSPropertyOp30
 70
     1
102
RTVSPropertyOp31
 70
     1
102
RTVSPropertyOp32
 70
     1
102
RTVSPropertyOp33
 70
     1
102
RTVSPropertyOp34
 70
     1
102
RTVSPropertyOp35
 70
     1
102
RTVSPropertyOp36
 70
     1
102
RTVSPropertyOp37
 70
     1
102
RTVSPropertyOp38
 70
     1
102
RTVSPropertyOp39
 70
     1
102
RTVSPropertyOp40
 70
     1
102
RTVSPropertyOp41
 70
     1
102
RTVSPropertyOp42
 70
     1
102
RTVSPropertyOp43
 70
     1
102
RTVSPropertyOp44
 70
     1
102
RTVSPropertyOp45
 70
     1
102
RTVSPropertyOp46
 70
     1
102
RTVSPropertyOp47
 70
     1
102
RTVSPropertyOp48
 70
     1
102
RTVSPropertyOp49
 70
     1
102
RTVSPropertyOp50
 70
     1
102
RTVSPropertyOp51
 70
     0
102
RTVSPropertyOp52
 70
     0
102
RTVSPropertyOp53
 70
     1
102
RTVSPropertyOp54
 70
     1
102
RTVSPropertyOp55
 70
     1
102
RTVSPropertyOp56
 70
     1
102
RTVSPropertyOp57
 70
     1
102
RTVSPropertyOp58
 70
     1
102
RTVSPropertyOp59
 70
     1
102
RTVSPropertyOp60
 70
     1
102
RTVSPropertyOp61
 70
     1
102
RTVSPropertyOp62
 70
     1
  0
XRECORD
  5
6452
102
{ACAD_REACTORS
330
6451
102
}
330
6451
100
AcDbXrecord
280
     1
102
RTVSPost2010Prop28
280
     0
102
RTVSPost2010PropOp28
 70
     1
102
RTVSPost2010Prop29
280
     1
102
RTVSPost2010PropOp29
 70
     1
102
RTVSPost2010Prop30
280
     1
102
RTVSPost2010PropOp30
 70
     1
102
RTVSPost2010Prop31
280
     0
102
RTVSPost2010PropOp31
 70
     1
102
RTVSPost2010Prop32
280
     0
102
RTVSPost2010PropOp32
 70
     1
102
RTVSPost2010Prop33
280
     0
102
RTVSPost2010PropOp33
 70
     1
102
RTVSPost2010Prop34
280
     0
102
RTVSPost2010PropOp34
 70
     1
102
RTVSPost2010Prop35
280
     0
102
RTVSPost2010PropOp35
 70
     1
102
RTVSPost2010Prop36
280
     0
102
RTVSPost2010PropOp36
 70
     1
102
RTVSPost2010Prop37
 90
       50
102
RTVSPost2010PropOp37
 70
     1
102
RTVSPost2010Prop38
140
0.0
102
RTVSPost2010PropOp38
 70
     1
102
RTVSPost2010Prop39
140
1.0
102
RTVSPost2010PropOp39
 70
     1
102
RTVSPost2010Prop40
 90
        0
102
RTVSPost2010PropOp40
 70
     1
102
RTVSPost2010Prop41ColorIndex
 90
       18
102
RTVSPost2010Prop41ColorRGB
 90
        0
102
RTVSPost2010PropOp41
 70
     1
102
RTVSPost2010Prop42
 90
       50
102
RTVSPost2010PropOp42
 70
     1
102
RTVSPost2010Prop43
 90
        3
102
RTVSPost2010PropOp43
 70
     1
102
RTVSPost2010Prop44ColorIndex
 90
        5
102
RTVSPost2010Prop44ColorRGB
 90
      255
102
RTVSPost2010PropOp44
 70
     1
102
RTVSPost2010Prop45
280
     0
102
RTVSPost2010PropOp45
 70
     1
102
RTVSPost2010Prop46
 90
       50
102
RTVSPost2010PropOp46
 70
     1
102
RTVSPost2010Prop47
 90
       50
102
RTVSPost2010PropOp47
 70
     1
102
RTVSPost2010Prop48
 90
       50
102
RTVSPost2010PropOp48
 70
     1
102
RTVSPost2010Prop49
280
     0
102
RTVSPost2010PropOp49
 70
     1
102
RTVSPost2010Prop50
 90
       50
102
RTVSPost2010PropOp50
 70
     1
102
RTVSPost2010Prop51ColorIndex
 90
      256
102
RTVSPost2010Prop51ColorRGB
 90
-16777216
102
RTVSPost2010PropOp51
 70
     0
102
RTVSPost2010Prop52
140
1.0
102
RTVSPost2010PropOp52
 70
     0
102
RTVSPost2010Prop53
 90
        2
102
RTVSPost2010PropOp53
 70
     1
102
RTVSPost2010Prop54
  1
strokes_ogs.tif
102
RTVSPost2010PropOp54
 70
     1
102
RTVSPost2010Prop55
280
     0
102
RTVSPost2010PropOp55
 70
     1
102
RTVSPost2010Prop56
140
1.0
102
RTVSPost2010PropOp56
 70
     1
102
RTVSPost2010Prop57
140
1.0
102
RTVSPost2010PropOp57
 70
     1
102
RTVSPropertyOp0
 70
     1
102
RTVSPropertyOp1
 70
     1
102
RTVSPropertyOp2
 70
     1
102
RTVSPropertyOp3
 70
     1
102
RTVSPropertyOp4
 70
     1
102
RTVSPropertyOp5
 70
     1
102
RTVSPropertyOp6
 70
     1
102
RTVSPropertyOp7
 70
     1
102
RTVSPropertyOp8
 70
     1
102
RTVSPropertyOp9
 70
     1
102
RTVSPropertyOp10
 70
     1
102
RTVSPropertyOp11
 70
     1
102
RTVSPropertyOp12
 70
     1
102
RTVSPropertyOp13
 70
     1
102
RTVSPropertyOp14
 70
     1
102
RTVSPropertyOp15
 70
     1
102
RTVSPropertyOp16
 70
     1
102
RTVSPropertyOp17
 70
     1
102
RTVSPropertyOp18
 70
     1
102
RTVSPropertyOp19
 70
     1
102
RTVSPropertyOp20
 70
     1
102
RTVSPropertyOp21
 70
     1
102
RTVSPropertyOp22
 70
     1
102
RTVSPropertyOp23
 70
     1
102
RTVSPropertyOp24
 70
     1
102
RTVSPropertyOp25
 70
     1
102
RTVSPropertyOp26
 70
     1
102
RTVSPropertyOp27
 70
     1
102
RTVSPropertyOp28
 70
     1
102
RTVSPropertyOp29
 70
     1
102
RTVSPropertyOp30
 70
     1
102
RTVSPropertyOp31
 70
     1
102
RTVSPropertyOp32
 70
     1
102
RTVSPropertyOp33
 70
     1
102
RTVSPropertyOp34
 70
     1
102
RTVSPropertyOp35
 70
     1
102
RTVSPropertyOp36
 70
     1
102
RTVSPropertyOp37
 70
     1
102
RTVSPropertyOp38
 70
     1
102
RTVSPropertyOp39
 70
     1
102
RTVSPropertyOp40
 70
     1
102
RTVSPropertyOp41
 70
     1
102
RTVSPropertyOp42
 70
     1
102
RTVSPropertyOp43
 70
     1
102
RTVSPropertyOp44
 70
     1
102
RTVSPropertyOp45
 70
     1
102
RTVSPropertyOp46
 70
     1
102
RTVSPropertyOp47
 70
     1
102
RTVSPropertyOp48
 70
     1
102
RTVSPropertyOp49
 70
     1
102
RTVSPropertyOp50
 70
     1
102
RTVSPropertyOp51
 70
     0
102
RTVSPropertyOp52
 70
     0
102
RTVSPropertyOp53
 70
     1
102
RTVSPropertyOp54
 70
     1
102
RTVSPropertyOp55
 70
     1
102
RTVSPropertyOp56
 70
     1
102
RTVSPropertyOp57
 70
     1
102
RTVSPropertyOp58
 70
     1
102
RTVSPropertyOp59
 70
     1
102
RTVSPropertyOp60
 70
     1
102
RTVSPropertyOp61
 70
     1
102
RTVSPropertyOp62
 70
     1
  0
XRECORD
  5
645A
102
{ACAD_REACTORS
330
6459
102
}
330
6459
100
AcDbXrecord
280
     1
102
RTVSPost2010Prop28
280
     0
102
RTVSPost2010PropOp28
 70
     1
102
RTVSPost2010Prop29
280
     1
102
RTVSPost2010PropOp29
 70
     1
102
RTVSPost2010Prop30
280
     1
102
RTVSPost2010PropOp30
 70
     1
102
RTVSPost2010Prop31
280
     0
102
RTVSPost2010PropOp31
 70
     1
102
RTVSPost2010Prop32
280
     0
102
RTVSPost2010PropOp32
 70
     1
102
RTVSPost2010Prop33
280
     0
102
RTVSPost2010PropOp33
 70
     1
102
RTVSPost2010Prop34
280
     0
102
RTVSPost2010PropOp34
 70
     1
102
RTVSPost2010Prop35
280
     0
102
RTVSPost2010PropOp35
 70
     1
102
RTVSPost2010Prop36
280
     0
102
RTVSPost2010PropOp36
 70
     1
102
RTVSPost2010Prop37
 90
       50
102
RTVSPost2010PropOp37
 70
     1
102
RTVSPost2010Prop38
140
0.0
102
RTVSPost2010PropOp38
 70
     1
102
RTVSPost2010Prop39
140
1.0
102
RTVSPost2010PropOp39
 70
     1
102
RTVSPost2010Prop40
 90
        0
102
RTVSPost2010PropOp40
 70
     1
102
RTVSPost2010Prop41ColorIndex
 90
       18
102
RTVSPost2010Prop41ColorRGB
 90
        0
102
RTVSPost2010PropOp41
 70
     1
102
RTVSPost2010Prop42
 90
       50
102
RTVSPost2010PropOp42
 70
     1
102
RTVSPost2010Prop43
 90
        3
102
RTVSPost2010PropOp43
 70
     1
102
RTVSPost2010Prop44ColorIndex
 90
        5
102
RTVSPost2010Prop44ColorRGB
 90
      255
102
RTVSPost2010PropOp44
 70
     1
102
RTVSPost2010Prop45
280
     0
102
RTVSPost2010PropOp45
 70
     1
102
RTVSPost2010Prop46
 90
       50
102
RTVSPost2010PropOp46
 70
     1
102
RTVSPost2010Prop47
 90
       50
102
RTVSPost2010PropOp47
 70
     1
102
RTVSPost2010Prop48
 90
       50
102
RTVSPost2010PropOp48
 70
     1
102
RTVSPost2010Prop49
280
     0
102
RTVSPost2010PropOp49
 70
     1
102
RTVSPost2010Prop50
 90
       50
102
RTVSPost2010PropOp50
 70
     1
102
RTVSPost2010Prop51ColorIndex
 90
      256
102
RTVSPost2010Prop51ColorRGB
 90
-16777216
102
RTVSPost2010PropOp51
 70
     0
102
RTVSPost2010Prop52
140
1.0
102
RTVSPost2010PropOp52
 70
     0
102
RTVSPost2010Prop53
 90
        2
102
RTVSPost2010PropOp53
 70
     1
102
RTVSPost2010Prop54
  1
strokes_ogs.tif
102
RTVSPost2010PropOp54
 70
     1
102
RTVSPost2010Prop55
280
     0
102
RTVSPost2010PropOp55
 70
     1
102
RTVSPost2010Prop56
140
1.0
102
RTVSPost2010PropOp56
 70
     1
102
RTVSPost2010Prop57
140
1.0
102
RTVSPost2010PropOp57
 70
     1
102
RTVSPropertyOp0
 70
     1
102
RTVSPropertyOp1
 70
     1
102
RTVSPropertyOp2
 70
     1
102
RTVSPropertyOp3
 70
     1
102
RTVSPropertyOp4
 70
     1
102
RTVSPropertyOp5
 70
     1
102
RTVSPropertyOp6
 70
     1
102
RTVSPropertyOp7
 70
     1
102
RTVSPropertyOp8
 70
     1
102
RTVSPropertyOp9
 70
     1
102
RTVSPropertyOp10
 70
     1
102
RTVSPropertyOp11
 70
     1
102
RTVSPropertyOp12
 70
     1
102
RTVSPropertyOp13
 70
     1
102
RTVSPropertyOp14
 70
     1
102
RTVSPropertyOp15
 70
     1
102
RTVSPropertyOp16
 70
     1
102
RTVSPropertyOp17
 70
     1
102
RTVSPropertyOp18
 70
     1
102
RTVSPropertyOp19
 70
     1
102
RTVSPropertyOp20
 70
     1
102
RTVSPropertyOp21
 70
     1
102
RTVSPropertyOp22
 70
     1
102
RTVSPropertyOp23
 70
     1
102
RTVSPropertyOp24
 70
     1
102
RTVSPropertyOp25
 70
     1
102
RTVSPropertyOp26
 70
     1
102
RTVSPropertyOp27
 70
     1
102
RTVSPropertyOp28
 70
     1
102
RTVSPropertyOp29
 70
     1
102
RTVSPropertyOp30
 70
     1
102
RTVSPropertyOp31
 70
     1
102
RTVSPropertyOp32
 70
     1
102
RTVSPropertyOp33
 70
     1
102
RTVSPropertyOp34
 70
     1
102
RTVSPropertyOp35
 70
     1
102
RTVSPropertyOp36
 70
     1
102
RTVSPropertyOp37
 70
     1
102
RTVSPropertyOp38
 70
     1
102
RTVSPropertyOp39
 70
     1
102
RTVSPropertyOp40
 70
     1
102
RTVSPropertyOp41
 70
     1
102
RTVSPropertyOp42
 70
     1
102
RTVSPropertyOp43
 70
     1
102
RTVSPropertyOp44
 70
     1
102
RTVSPropertyOp45
 70
     1
102
RTVSPropertyOp46
 70
     1
102
RTVSPropertyOp47
 70
     1
102
RTVSPropertyOp48
 70
     1
102
RTVSPropertyOp49
 70
     1
102
RTVSPropertyOp50
 70
     1
102
RTVSPropertyOp51
 70
     0
102
RTVSPropertyOp52
 70
     0
102
RTVSPropertyOp53
 70
     1
102
RTVSPropertyOp54
 70
     1
102
RTVSPropertyOp55
 70
     1
102
RTVSPropertyOp56
 70
     1
102
RTVSPropertyOp57
 70
     1
102
RTVSPropertyOp58
 70
     1
102
RTVSPropertyOp59
 70
     1
102
RTVSPropertyOp60
 70
     1
102
RTVSPropertyOp61
 70
     1
102
RTVSPropertyOp62
 70
     1
  0
XRECORD
  5
6476
102
{ACAD_REACTORS
330
6475
102
}
330
6475
100
AcDbXrecord
280
     1
102
RTVSPost2010Prop28
280
     0
102
RTVSPost2010PropOp28
 70
     0
102
RTVSPost2010Prop29
280
     1
102
RTVSPost2010PropOp29
 70
     0
102
RTVSPost2010Prop30
280
     1
102
RTVSPost2010PropOp30
 70
     0
102
RTVSPost2010Prop31
280
     0
102
RTVSPost2010PropOp31
 70
     0
102
RTVSPost2010Prop32
280
     0
102
RTVSPost2010PropOp32
 70
     0
102
RTVSPost2010Prop33
280
     0
102
RTVSPost2010PropOp33
 70
     0
102
RTVSPost2010Prop34
280
     0
102
RTVSPost2010PropOp34
 70
     0
102
RTVSPost2010Prop35
280
     0
102
RTVSPost2010PropOp35
 70
     0
102
RTVSPost2010Prop36
280
     0
102
RTVSPost2010PropOp36
 70
     0
102
RTVSPost2010Prop37
 90
       50
102
RTVSPost2010PropOp37
 70
     0
102
RTVSPost2010Prop38
140
0.0
102
RTVSPost2010PropOp38
 70
     0
102
RTVSPost2010Prop39
140
1.0
102
RTVSPost2010PropOp39
 70
     0
102
RTVSPost2010Prop40
 90
        0
102
RTVSPost2010PropOp40
 70
     0
102
RTVSPost2010Prop41ColorIndex
 90
       18
102
RTVSPost2010Prop41ColorRGB
 90
        0
102
RTVSPost2010PropOp41
 70
     0
102
RTVSPost2010Prop42
 90
       50
102
RTVSPost2010PropOp42
 70
     0
102
RTVSPost2010Prop43
 90
        3
102
RTVSPost2010PropOp43
 70
     0
102
RTVSPost2010Prop44ColorIndex
 90
        5
102
RTVSPost2010Prop44ColorRGB
 90
      255
102
RTVSPost2010PropOp44
 70
     0
102
RTVSPost2010Prop45
280
     0
102
RTVSPost2010PropOp45
 70
     0
102
RTVSPost2010Prop46
 90
       50
102
RTVSPost2010PropOp46
 70
     0
102
RTVSPost2010Prop47
 90
       50
102
RTVSPost2010PropOp47
 70
     0
102
RTVSPost2010Prop48
 90
       50
102
RTVSPost2010PropOp48
 70
     0
102
RTVSPost2010Prop49
280
     0
102
RTVSPost2010PropOp49
 70
     0
102
RTVSPost2010Prop50
 90
       50
102
RTVSPost2010PropOp50
 70
     0
102
RTVSPost2010Prop51ColorIndex
 90
      256
102
RTVSPost2010Prop51ColorRGB
 90
-16777216
102
RTVSPost2010PropOp51
 70
     0
102
RTVSPost2010Prop52
140
1.0
102
RTVSPost2010PropOp52
 70
     0
102
RTVSPost2010Prop53
 90
        2
102
RTVSPost2010PropOp53
 70
     0
102
RTVSPost2010Prop54
  1
strokes_ogs.tif
102
RTVSPost2010PropOp54
 70
     0
102
RTVSPost2010Prop55
280
     0
102
RTVSPost2010PropOp55
 70
     0
102
RTVSPost2010Prop56
140
1.0
102
RTVSPost2010PropOp56
 70
     0
102
RTVSPost2010Prop57
140
1.0
102
RTVSPost2010PropOp57
 70
     0
102
RTVSPropertyOp0
 70
     0
102
RTVSPropertyOp1
 70
     0
102
RTVSPropertyOp2
 70
     0
102
RTVSPropertyOp3
 70
     0
102
RTVSPropertyOp4
 70
     0
102
RTVSPropertyOp5
 70
     0
102
RTVSPropertyOp6
 70
     0
102
RTVSPropertyOp7
 70
     0
102
RTVSPropertyOp8
 70
     0
102
RTVSPropertyOp9
 70
     0
102
RTVSPropertyOp10
 70
     0
102
RTVSPropertyOp11
 70
     0
102
RTVSPropertyOp12
 70
     0
102
RTVSPropertyOp13
 70
     0
102
RTVSPropertyOp14
 70
     2
102
RTVSPropertyOp15
 70
     0
102
RTVSPropertyOp16
 70
     0
102
RTVSPropertyOp17
 70
     0
102
RTVSPropertyOp18
 70
     0
102
RTVSPropertyOp19
 70
     0
102
RTVSPropertyOp20
 70
     0
102
RTVSPropertyOp21
 70
     0
102
RTVSPropertyOp22
 70
     0
102
RTVSPropertyOp23
 70
     0
102
RTVSPropertyOp24
 70
     0
102
RTVSPropertyOp25
 70
     0
102
RTVSPropertyOp26
 70
     0
102
RTVSPropertyOp27
 70
     0
102
RTVSPropertyOp28
 70
     0
102
RTVSPropertyOp29
 70
     0
102
RTVSPropertyOp30
 70
     0
102
RTVSPropertyOp31
 70
     0
102
RTVSPropertyOp32
 70
     0
102
RTVSPropertyOp33
 70
     0
102
RTVSPropertyOp34
 70
     0
102
RTVSPropertyOp35
 70
     0
102
RTVSPropertyOp36
 70
     0
102
RTVSPropertyOp37
 70
     0
102
RTVSPropertyOp38
 70
     0
102
RTVSPropertyOp39
 70
     0
102
RTVSPropertyOp40
 70
     0
102
RTVSPropertyOp41
 70
     0
102
RTVSPropertyOp42
 70
     0
102
RTVSPropertyOp43
 70
     0
102
RTVSPropertyOp44
 70
     0
102
RTVSPropertyOp45
 70
     0
102
RTVSPropertyOp46
 70
     0
102
RTVSPropertyOp47
 70
     0
102
RTVSPropertyOp48
 70
     0
102
RTVSPropertyOp49
 70
     0
102
RTVSPropertyOp50
 70
     0
102
RTVSPropertyOp51
 70
     0
102
RTVSPropertyOp52
 70
     0
102
RTVSPropertyOp53
 70
     0
102
RTVSPropertyOp54
 70
     0
102
RTVSPropertyOp55
 70
     0
102
RTVSPropertyOp56
 70
     0
102
RTVSPropertyOp57
 70
     0
102
RTVSPropertyOp58
 70
     1
102
RTVSPropertyOp59
 70
     1
102
RTVSPropertyOp60
 70
     1
102
RTVSPropertyOp61
 70
     1
102
RTVSPropertyOp62
 70
     1
  0
XRECORD
  5
6466
102
{ACAD_REACTORS
330
6465
102
}
330
6465
100
AcDbXrecord
280
     1
102
RTVSPost2010Prop28
280
     0
102
RTVSPost2010PropOp28
 70
     1
102
RTVSPost2010Prop29
280
     1
102
RTVSPost2010PropOp29
 70
     1
102
RTVSPost2010Prop30
280
     1
102
RTVSPost2010PropOp30
 70
     1
102
RTVSPost2010Prop31
280
     0
102
RTVSPost2010PropOp31
 70
     1
102
RTVSPost2010Prop32
280
     0
102
RTVSPost2010PropOp32
 70
     1
102
RTVSPost2010Prop33
280
     0
102
RTVSPost2010PropOp33
 70
     1
102
RTVSPost2010Prop34
280
     0
102
RTVSPost2010PropOp34
 70
     1
102
RTVSPost2010Prop35
280
     0
102
RTVSPost2010PropOp35
 70
     1
102
RTVSPost2010Prop36
280
     0
102
RTVSPost2010PropOp36
 70
     1
102
RTVSPost2010Prop37
 90
       50
102
RTVSPost2010PropOp37
 70
     1
102
RTVSPost2010Prop38
140
0.0
102
RTVSPost2010PropOp38
 70
     1
102
RTVSPost2010Prop39
140
1.0
102
RTVSPost2010PropOp39
 70
     1
102
RTVSPost2010Prop40
 90
        0
102
RTVSPost2010PropOp40
 70
     1
102
RTVSPost2010Prop41ColorIndex
 90
       18
102
RTVSPost2010Prop41ColorRGB
 90
        0
102
RTVSPost2010PropOp41
 70
     1
102
RTVSPost2010Prop42
 90
       50
102
RTVSPost2010PropOp42
 70
     1
102
RTVSPost2010Prop43
 90
        3
102
RTVSPost2010PropOp43
 70
     1
102
RTVSPost2010Prop44ColorIndex
 90
        5
102
RTVSPost2010Prop44ColorRGB
 90
      255
102
RTVSPost2010PropOp44
 70
     1
102
RTVSPost2010Prop45
280
     0
102
RTVSPost2010PropOp45
 70
     1
102
RTVSPost2010Prop46
 90
       50
102
RTVSPost2010PropOp46
 70
     1
102
RTVSPost2010Prop47
 90
       50
102
RTVSPost2010PropOp47
 70
     1
102
RTVSPost2010Prop48
 90
       50
102
RTVSPost2010PropOp48
 70
     1
102
RTVSPost2010Prop49
280
     0
102
RTVSPost2010PropOp49
 70
     1
102
RTVSPost2010Prop50
 90
       50
102
RTVSPost2010PropOp50
 70
     1
102
RTVSPost2010Prop51ColorIndex
 90
      256
102
RTVSPost2010Prop51ColorRGB
 90
-16777216
102
RTVSPost2010PropOp51
 70
     0
102
RTVSPost2010Prop52
140
1.0
102
RTVSPost2010PropOp52
 70
     0
102
RTVSPost2010Prop53
 90
        2
102
RTVSPost2010PropOp53
 70
     1
102
RTVSPost2010Prop54
  1
strokes_ogs.tif
102
RTVSPost2010PropOp54
 70
     1
102
RTVSPost2010Prop55
280
     0
102
RTVSPost2010PropOp55
 70
     1
102
RTVSPost2010Prop56
140
1.0
102
RTVSPost2010PropOp56
 70
     1
102
RTVSPost2010Prop57
140
1.0
102
RTVSPost2010PropOp57
 70
     1
102
RTVSPropertyOp0
 70
     1
102
RTVSPropertyOp1
 70
     1
102
RTVSPropertyOp2
 70
     1
102
RTVSPropertyOp3
 70
     1
102
RTVSPropertyOp4
 70
     1
102
RTVSPropertyOp5
 70
     1
102
RTVSPropertyOp6
 70
     1
102
RTVSPropertyOp7
 70
     1
102
RTVSPropertyOp8
 70
     1
102
RTVSPropertyOp9
 70
     1
102
RTVSPropertyOp10
 70
     1
102
RTVSPropertyOp11
 70
     1
102
RTVSPropertyOp12
 70
     1
102
RTVSPropertyOp13
 70
     1
102
RTVSPropertyOp14
 70
     1
102
RTVSPropertyOp15
 70
     1
102
RTVSPropertyOp16
 70
     1
102
RTVSPropertyOp17
 70
     1
102
RTVSPropertyOp18
 70
     1
102
RTVSPropertyOp19
 70
     1
102
RTVSPropertyOp20
 70
     1
102
RTVSPropertyOp21
 70
     1
102
RTVSPropertyOp22
 70
     1
102
RTVSPropertyOp23
 70
     1
102
RTVSPropertyOp24
 70
     1
102
RTVSPropertyOp25
 70
     1
102
RTVSPropertyOp26
 70
     1
102
RTVSPropertyOp27
 70
     1
102
RTVSPropertyOp28
 70
     1
102
RTVSPropertyOp29
 70
     1
102
RTVSPropertyOp30
 70
     1
102
RTVSPropertyOp31
 70
     1
102
RTVSPropertyOp32
 70
     1
102
RTVSPropertyOp33
 70
     1
102
RTVSPropertyOp34
 70
     1
102
RTVSPropertyOp35
 70
     1
102
RTVSPropertyOp36
 70
     1
102
RTVSPropertyOp37
 70
     1
102
RTVSPropertyOp38
 70
     1
102
RTVSPropertyOp39
 70
     1
102
RTVSPropertyOp40
 70
     1
102
RTVSPropertyOp41
 70
     1
102
RTVSPropertyOp42
 70
     1
102
RTVSPropertyOp43
 70
     1
102
RTVSPropertyOp44
 70
     1
102
RTVSPropertyOp45
 70
     1
102
RTVSPropertyOp46
 70
     1
102
RTVSPropertyOp47
 70
     1
102
RTVSPropertyOp48
 70
     1
102
RTVSPropertyOp49
 70
     1
102
RTVSPropertyOp50
 70
     1
102
RTVSPropertyOp51
 70
     0
102
RTVSPropertyOp52
 70
     0
102
RTVSPropertyOp53
 70
     1
102
RTVSPropertyOp54
 70
     1
102
RTVSPropertyOp55
 70
     1
102
RTVSPropertyOp56
 70
     1
102
RTVSPropertyOp57
 70
     1
102
RTVSPropertyOp58
 70
     1
102
RTVSPropertyOp59
 70
     1
102
RTVSPropertyOp60
 70
     1
102
RTVSPropertyOp61
 70
     1
102
RTVSPropertyOp62
 70
     1
  0
XRECORD
  5
6478
102
{ACAD_REACTORS
330
6477
102
}
330
6477
100
AcDbXrecord
280
     1
102
RTVSPost2010Prop28
280
     0
102
RTVSPost2010PropOp28
 70
     0
102
RTVSPost2010Prop29
280
     1
102
RTVSPost2010PropOp29
 70
     0
102
RTVSPost2010Prop30
280
     1
102
RTVSPost2010PropOp30
 70
     0
102
RTVSPost2010Prop31
280
     0
102
RTVSPost2010PropOp31
 70
     0
102
RTVSPost2010Prop32
280
     0
102
RTVSPost2010PropOp32
 70
     0
102
RTVSPost2010Prop33
280
     0
102
RTVSPost2010PropOp33
 70
     0
102
RTVSPost2010Prop34
280
     0
102
RTVSPost2010PropOp34
 70
     0
102
RTVSPost2010Prop35
280
     0
102
RTVSPost2010PropOp35
 70
     0
102
RTVSPost2010Prop36
280
     0
102
RTVSPost2010PropOp36
 70
     0
102
RTVSPost2010Prop37
 90
       50
102
RTVSPost2010PropOp37
 70
     0
102
RTVSPost2010Prop38
140
0.0
102
RTVSPost2010PropOp38
 70
     0
102
RTVSPost2010Prop39
140
1.0
102
RTVSPost2010PropOp39
 70
     0
102
RTVSPost2010Prop40
 90
        0
102
RTVSPost2010PropOp40
 70
     0
102
RTVSPost2010Prop41ColorIndex
 90
       18
102
RTVSPost2010Prop41ColorRGB
 90
        0
102
RTVSPost2010PropOp41
 70
     0
102
RTVSPost2010Prop42
 90
       50
102
RTVSPost2010PropOp42
 70
     0
102
RTVSPost2010Prop43
 90
        3
102
RTVSPost2010PropOp43
 70
     0
102
RTVSPost2010Prop44ColorIndex
 90
        5
102
RTVSPost2010Prop44ColorRGB
 90
      255
102
RTVSPost2010PropOp44
 70
     0
102
RTVSPost2010Prop45
280
     0
102
RTVSPost2010PropOp45
 70
     0
102
RTVSPost2010Prop46
 90
       50
102
RTVSPost2010PropOp46
 70
     0
102
RTVSPost2010Prop47
 90
       50
102
RTVSPost2010PropOp47
 70
     0
102
RTVSPost2010Prop48
 90
       50
102
RTVSPost2010PropOp48
 70
     0
102
RTVSPost2010Prop49
280
     0
102
RTVSPost2010PropOp49
 70
     0
102
RTVSPost2010Prop50
 90
       50
102
RTVSPost2010PropOp50
 70
     0
102
RTVSPost2010Prop51ColorIndex
 90
      256
102
RTVSPost2010Prop51ColorRGB
 90
-16777216
102
RTVSPost2010PropOp51
 70
     0
102
RTVSPost2010Prop52
140
1.0
102
RTVSPost2010PropOp52
 70
     0
102
RTVSPost2010Prop53
 90
        2
102
RTVSPost2010PropOp53
 70
     0
102
RTVSPost2010Prop54
  1
strokes_ogs.tif
102
RTVSPost2010PropOp54
 70
     0
102
RTVSPost2010Prop55
280
     0
102
RTVSPost2010PropOp55
 70
     0
102
RTVSPost2010Prop56
140
1.0
102
RTVSPost2010PropOp56
 70
     0
102
RTVSPost2010Prop57
140
1.0
102
RTVSPost2010PropOp57
 70
     0
102
RTVSPropertyOp0
 70
     0
102
RTVSPropertyOp1
 70
     0
102
RTVSPropertyOp2
 70
     0
102
RTVSPropertyOp3
 70
     0
102
RTVSPropertyOp4
 70
     0
102
RTVSPropertyOp5
 70
     0
102
RTVSPropertyOp6
 70
     0
102
RTVSPropertyOp7
 70
     0
102
RTVSPropertyOp8
 70
     0
102
RTVSPropertyOp9
 70
     0
102
RTVSPropertyOp10
 70
     0
102
RTVSPropertyOp11
 70
     0
102
RTVSPropertyOp12
 70
     0
102
RTVSPropertyOp13
 70
     0
102
RTVSPropertyOp14
 70
     2
102
RTVSPropertyOp15
 70
     0
102
RTVSPropertyOp16
 70
     0
102
RTVSPropertyOp17
 70
     0
102
RTVSPropertyOp18
 70
     0
102
RTVSPropertyOp19
 70
     0
102
RTVSPropertyOp20
 70
     0
102
RTVSPropertyOp21
 70
     0
102
RTVSPropertyOp22
 70
     0
102
RTVSPropertyOp23
 70
     0
102
RTVSPropertyOp24
 70
     0
102
RTVSPropertyOp25
 70
     0
102
RTVSPropertyOp26
 70
     0
102
RTVSPropertyOp27
 70
     0
102
RTVSPropertyOp28
 70
     0
102
RTVSPropertyOp29
 70
     0
102
RTVSPropertyOp30
 70
     0
102
RTVSPropertyOp31
 70
     0
102
RTVSPropertyOp32
 70
     0
102
RTVSPropertyOp33
 70
     0
102
RTVSPropertyOp34
 70
     0
102
RTVSPropertyOp35
 70
     0
102
RTVSPropertyOp36
 70
     0
102
RTVSPropertyOp37
 70
     0
102
RTVSPropertyOp38
 70
     0
102
RTVSPropertyOp39
 70
     0
102
RTVSPropertyOp40
 70
     0
102
RTVSPropertyOp41
 70
     0
102
RTVSPropertyOp42
 70
     0
102
RTVSPropertyOp43
 70
     0
102
RTVSPropertyOp44
 70
     0
102
RTVSPropertyOp45
 70
     0
102
RTVSPropertyOp46
 70
     0
102
RTVSPropertyOp47
 70
     0
102
RTVSPropertyOp48
 70
     0
102
RTVSPropertyOp49
 70
     0
102
RTVSPropertyOp50
 70
     0
102
RTVSPropertyOp51
 70
     0
102
RTVSPropertyOp52
 70
     0
102
RTVSPropertyOp53
 70
     0
102
RTVSPropertyOp54
 70
     0
102
RTVSPropertyOp55
 70
     0
102
RTVSPropertyOp56
 70
     0
102
RTVSPropertyOp57
 70
     0
102
RTVSPropertyOp58
 70
     1
102
RTVSPropertyOp59
 70
     1
102
RTVSPropertyOp60
 70
     1
102
RTVSPropertyOp61
 70
     1
102
RTVSPropertyOp62
 70
     1
  0
XRECORD
  5
645E
102
{ACAD_REACTORS
330
645D
102
}
330
645D
100
AcDbXrecord
280
     1
102
RTVSPost2010Prop28
280
     0
102
RTVSPost2010PropOp28
 70
     1
102
RTVSPost2010Prop29
280
     1
102
RTVSPost2010PropOp29
 70
     1
102
RTVSPost2010Prop30
280
     1
102
RTVSPost2010PropOp30
 70
     1
102
RTVSPost2010Prop31
280
     0
102
RTVSPost2010PropOp31
 70
     1
102
RTVSPost2010Prop32
280
     0
102
RTVSPost2010PropOp32
 70
     1
102
RTVSPost2010Prop33
280
     0
102
RTVSPost2010PropOp33
 70
     1
102
RTVSPost2010Prop34
280
     0
102
RTVSPost2010PropOp34
 70
     1
102
RTVSPost2010Prop35
280
     0
102
RTVSPost2010PropOp35
 70
     1
102
RTVSPost2010Prop36
280
     0
102
RTVSPost2010PropOp36
 70
     1
102
RTVSPost2010Prop37
 90
       50
102
RTVSPost2010PropOp37
 70
     1
102
RTVSPost2010Prop38
140
0.0
102
RTVSPost2010PropOp38
 70
     1
102
RTVSPost2010Prop39
140
1.0
102
RTVSPost2010PropOp39
 70
     1
102
RTVSPost2010Prop40
 90
        0
102
RTVSPost2010PropOp40
 70
     1
102
RTVSPost2010Prop41ColorIndex
 90
       18
102
RTVSPost2010Prop41ColorRGB
 90
        0
102
RTVSPost2010PropOp41
 70
     1
102
RTVSPost2010Prop42
 90
       50
102
RTVSPost2010PropOp42
 70
     1
102
RTVSPost2010Prop43
 90
        3
102
RTVSPost2010PropOp43
 70
     1
102
RTVSPost2010Prop44ColorIndex
 90
        5
102
RTVSPost2010Prop44ColorRGB
 90
      255
102
RTVSPost2010PropOp44
 70
     1
102
RTVSPost2010Prop45
280
     0
102
RTVSPost2010PropOp45
 70
     1
102
RTVSPost2010Prop46
 90
       50
102
RTVSPost2010PropOp46
 70
     1
102
RTVSPost2010Prop47
 90
       50
102
RTVSPost2010PropOp47
 70
     1
102
RTVSPost2010Prop48
 90
       50
102
RTVSPost2010PropOp48
 70
     1
102
RTVSPost2010Prop49
280
     0
102
RTVSPost2010PropOp49
 70
     1
102
RTVSPost2010Prop50
 90
       50
102
RTVSPost2010PropOp50
 70
     1
102
RTVSPost2010Prop51ColorIndex
 90
      256
102
RTVSPost2010Prop51ColorRGB
 90
-16777216
102
RTVSPost2010PropOp51
 70
     0
102
RTVSPost2010Prop52
140
1.0
102
RTVSPost2010PropOp52
 70
     0
102
RTVSPost2010Prop53
 90
        2
102
RTVSPost2010PropOp53
 70
     1
102
RTVSPost2010Prop54
  1
strokes_ogs.tif
102
RTVSPost2010PropOp54
 70
     1
102
RTVSPost2010Prop55
280
     0
102
RTVSPost2010PropOp55
 70
     1
102
RTVSPost2010Prop56
140
1.0
102
RTVSPost2010PropOp56
 70
     1
102
RTVSPost2010Prop57
140
1.0
102
RTVSPost2010PropOp57
 70
     1
102
RTVSPropertyOp0
 70
     1
102
RTVSPropertyOp1
 70
     1
102
RTVSPropertyOp2
 70
     1
102
RTVSPropertyOp3
 70
     1
102
RTVSPropertyOp4
 70
     1
102
RTVSPropertyOp5
 70
     1
102
RTVSPropertyOp6
 70
     1
102
RTVSPropertyOp7
 70
     1
102
RTVSPropertyOp8
 70
     1
102
RTVSPropertyOp9
 70
     1
102
RTVSPropertyOp10
 70
     1
102
RTVSPropertyOp11
 70
     1
102
RTVSPropertyOp12
 70
     1
102
RTVSPropertyOp13
 70
     1
102
RTVSPropertyOp14
 70
     1
102
RTVSPropertyOp15
 70
     1
102
RTVSPropertyOp16
 70
     1
102
RTVSPropertyOp17
 70
     1
102
RTVSPropertyOp18
 70
     1
102
RTVSPropertyOp19
 70
     1
102
RTVSPropertyOp20
 70
     1
102
RTVSPropertyOp21
 70
     1
102
RTVSPropertyOp22
 70
     1
102
RTVSPropertyOp23
 70
     1
102
RTVSPropertyOp24
 70
     1
102
RTVSPropertyOp25
 70
     1
102
RTVSPropertyOp26
 70
     1
102
RTVSPropertyOp27
 70
     1
102
RTVSPropertyOp28
 70
     1
102
RTVSPropertyOp29
 70
     1
102
RTVSPropertyOp30
 70
     1
102
RTVSPropertyOp31
 70
     1
102
RTVSPropertyOp32
 70
     1
102
RTVSPropertyOp33
 70
     1
102
RTVSPropertyOp34
 70
     1
102
RTVSPropertyOp35
 70
     1
102
RTVSPropertyOp36
 70
     1
102
RTVSPropertyOp37
 70
     1
102
RTVSPropertyOp38
 70
     1
102
RTVSPropertyOp39
 70
     1
102
RTVSPropertyOp40
 70
     1
102
RTVSPropertyOp41
 70
     1
102
RTVSPropertyOp42
 70
     1
102
RTVSPropertyOp43
 70
     1
102
RTVSPropertyOp44
 70
     1
102
RTVSPropertyOp45
 70
     1
102
RTVSPropertyOp46
 70
     1
102
RTVSPropertyOp47
 70
     1
102
RTVSPropertyOp48
 70
     1
102
RTVSPropertyOp49
 70
     1
102
RTVSPropertyOp50
 70
     1
102
RTVSPropertyOp51
 70
     0
102
RTVSPropertyOp52
 70
     0
102
RTVSPropertyOp53
 70
     1
102
RTVSPropertyOp54
 70
     1
102
RTVSPropertyOp55
 70
     1
102
RTVSPropertyOp56
 70
     1
102
RTVSPropertyOp57
 70
     1
102
RTVSPropertyOp58
 70
     1
102
RTVSPropertyOp59
 70
     1
102
RTVSPropertyOp60
 70
     1
102
RTVSPropertyOp61
 70
     1
102
RTVSPropertyOp62
 70
     1
  0
XRECORD
  5
6474
102
{ACAD_REACTORS
330
6473
102
}
330
6473
100
AcDbXrecord
280
     1
102
RTVSPost2010Prop28
280
     0
102
RTVSPost2010PropOp28
 70
     1
102
RTVSPost2010Prop29
280
     1
102
RTVSPost2010PropOp29
 70
     1
102
RTVSPost2010Prop30
280
     1
102
RTVSPost2010PropOp30
 70
     1
102
RTVSPost2010Prop31
280
     0
102
RTVSPost2010PropOp31
 70
     1
102
RTVSPost2010Prop32
280
     0
102
RTVSPost2010PropOp32
 70
     1
102
RTVSPost2010Prop33
280
     0
102
RTVSPost2010PropOp33
 70
     1
102
RTVSPost2010Prop34
280
     0
102
RTVSPost2010PropOp34
 70
     1
102
RTVSPost2010Prop35
280
     0
102
RTVSPost2010PropOp35
 70
     1
102
RTVSPost2010Prop36
280
     0
102
RTVSPost2010PropOp36
 70
     1
102
RTVSPost2010Prop37
 90
       50
102
RTVSPost2010PropOp37
 70
     1
102
RTVSPost2010Prop38
140
0.0
102
RTVSPost2010PropOp38
 70
     1
102
RTVSPost2010Prop39
140
1.0
102
RTVSPost2010PropOp39
 70
     1
102
RTVSPost2010Prop40
 90
        0
102
RTVSPost2010PropOp40
 70
     1
102
RTVSPost2010Prop41ColorIndex
 90
       18
102
RTVSPost2010Prop41ColorRGB
 90
        0
102
RTVSPost2010PropOp41
 70
     1
102
RTVSPost2010Prop42
 90
       50
102
RTVSPost2010PropOp42
 70
     1
102
RTVSPost2010Prop43
 90
        3
102
RTVSPost2010PropOp43
 70
     1
102
RTVSPost2010Prop44ColorIndex
 90
        5
102
RTVSPost2010Prop44ColorRGB
 90
      255
102
RTVSPost2010PropOp44
 70
     1
102
RTVSPost2010Prop45
280
     0
102
RTVSPost2010PropOp45
 70
     1
102
RTVSPost2010Prop46
 90
       50
102
RTVSPost2010PropOp46
 70
     1
102
RTVSPost2010Prop47
 90
       50
102
RTVSPost2010PropOp47
 70
     1
102
RTVSPost2010Prop48
 90
       50
102
RTVSPost2010PropOp48
 70
     1
102
RTVSPost2010Prop49
280
     0
102
RTVSPost2010PropOp49
 70
     1
102
RTVSPost2010Prop50
 90
       50
102
RTVSPost2010PropOp50
 70
     1
102
RTVSPost2010Prop51ColorIndex
 90
      256
102
RTVSPost2010Prop51ColorRGB
 90
-16777216
102
RTVSPost2010PropOp51
 70
     0
102
RTVSPost2010Prop52
140
1.0
102
RTVSPost2010PropOp52
 70
     0
102
RTVSPost2010Prop53
 90
        2
102
RTVSPost2010PropOp53
 70
     1
102
RTVSPost2010Prop54
  1
strokes_ogs.tif
102
RTVSPost2010PropOp54
 70
     1
102
RTVSPost2010Prop55
280
     0
102
RTVSPost2010PropOp55
 70
     1
102
RTVSPost2010Prop56
140
1.0
102
RTVSPost2010PropOp56
 70
     1
102
RTVSPost2010Prop57
140
1.0
102
RTVSPost2010PropOp57
 70
     1
102
RTVSPropertyOp0
 70
     1
102
RTVSPropertyOp1
 70
     1
102
RTVSPropertyOp2
 70
     1
102
RTVSPropertyOp3
 70
     1
102
RTVSPropertyOp4
 70
     1
102
RTVSPropertyOp5
 70
     1
102
RTVSPropertyOp6
 70
     1
102
RTVSPropertyOp7
 70
     1
102
RTVSPropertyOp8
 70
     1
102
RTVSPropertyOp9
 70
     1
102
RTVSPropertyOp10
 70
     1
102
RTVSPropertyOp11
 70
     1
102
RTVSPropertyOp12
 70
     1
102
RTVSPropertyOp13
 70
     1
102
RTVSPropertyOp14
 70
     1
102
RTVSPropertyOp15
 70
     1
102
RTVSPropertyOp16
 70
     1
102
RTVSPropertyOp17
 70
     1
102
RTVSPropertyOp18
 70
     1
102
RTVSPropertyOp19
 70
     1
102
RTVSPropertyOp20
 70
     1
102
RTVSPropertyOp21
 70
     1
102
RTVSPropertyOp22
 70
     1
102
RTVSPropertyOp23
 70
     1
102
RTVSPropertyOp24
 70
     1
102
RTVSPropertyOp25
 70
     1
102
RTVSPropertyOp26
 70
     1
102
RTVSPropertyOp27
 70
     1
102
RTVSPropertyOp28
 70
     1
102
RTVSPropertyOp29
 70
     1
102
RTVSPropertyOp30
 70
     1
102
RTVSPropertyOp31
 70
     1
102
RTVSPropertyOp32
 70
     1
102
RTVSPropertyOp33
 70
     1
102
RTVSPropertyOp34
 70
     1
102
RTVSPropertyOp35
 70
     1
102
RTVSPropertyOp36
 70
     1
102
RTVSPropertyOp37
 70
     1
102
RTVSPropertyOp38
 70
     1
102
RTVSPropertyOp39
 70
     1
102
RTVSPropertyOp40
 70
     1
102
RTVSPropertyOp41
 70
     1
102
RTVSPropertyOp42
 70
     1
102
RTVSPropertyOp43
 70
     1
102
RTVSPropertyOp44
 70
     1
102
RTVSPropertyOp45
 70
     1
102
RTVSPropertyOp46
 70
     1
102
RTVSPropertyOp47
 70
     1
102
RTVSPropertyOp48
 70
     1
102
RTVSPropertyOp49
 70
     1
102
RTVSPropertyOp50
 70
     1
102
RTVSPropertyOp51
 70
     0
102
RTVSPropertyOp52
 70
     0
102
RTVSPropertyOp53
 70
     1
102
RTVSPropertyOp54
 70
     1
102
RTVSPropertyOp55
 70
     1
102
RTVSPropertyOp56
 70
     1
102
RTVSPropertyOp57
 70
     1
102
RTVSPropertyOp58
 70
     1
102
RTVSPropertyOp59
 70
     1
102
RTVSPropertyOp60
 70
     1
102
RTVSPropertyOp61
 70
     1
102
RTVSPropertyOp62
 70
     1
  0
XRECORD
  5
6472
102
{ACAD_REACTORS
330
6471
102
}
330
6471
100
AcDbXrecord
280
     1
102
RTVSPost2010Prop28
280
     0
102
RTVSPost2010PropOp28
 70
     1
102
RTVSPost2010Prop29
280
     1
102
RTVSPost2010PropOp29
 70
     1
102
RTVSPost2010Prop30
280
     1
102
RTVSPost2010PropOp30
 70
     1
102
RTVSPost2010Prop31
280
     0
102
RTVSPost2010PropOp31
 70
     1
102
RTVSPost2010Prop32
280
     0
102
RTVSPost2010PropOp32
 70
     1
102
RTVSPost2010Prop33
280
     0
102
RTVSPost2010PropOp33
 70
     1
102
RTVSPost2010Prop34
280
     0
102
RTVSPost2010PropOp34
 70
     1
102
RTVSPost2010Prop35
280
     0
102
RTVSPost2010PropOp35
 70
     1
102
RTVSPost2010Prop36
280
     0
102
RTVSPost2010PropOp36
 70
     1
102
RTVSPost2010Prop37
 90
       50
102
RTVSPost2010PropOp37
 70
     1
102
RTVSPost2010Prop38
140
0.0
102
RTVSPost2010PropOp38
 70
     1
102
RTVSPost2010Prop39
140
1.0
102
RTVSPost2010PropOp39
 70
     1
102
RTVSPost2010Prop40
 90
        0
102
RTVSPost2010PropOp40
 70
     1
102
RTVSPost2010Prop41ColorIndex
 90
       18
102
RTVSPost2010Prop41ColorRGB
 90
        0
102
RTVSPost2010PropOp41
 70
     1
102
RTVSPost2010Prop42
 90
       50
102
RTVSPost2010PropOp42
 70
     1
102
RTVSPost2010Prop43
 90
        3
102
RTVSPost2010PropOp43
 70
     1
102
RTVSPost2010Prop44ColorIndex
 90
        5
102
RTVSPost2010Prop44ColorRGB
 90
      255
102
RTVSPost2010PropOp44
 70
     1
102
RTVSPost2010Prop45
280
     0
102
RTVSPost2010PropOp45
 70
     1
102
RTVSPost2010Prop46
 90
       50
102
RTVSPost2010PropOp46
 70
     1
102
RTVSPost2010Prop47
 90
       50
102
RTVSPost2010PropOp47
 70
     1
102
RTVSPost2010Prop48
 90
       50
102
RTVSPost2010PropOp48
 70
     1
102
RTVSPost2010Prop49
280
     0
102
RTVSPost2010PropOp49
 70
     1
102
RTVSPost2010Prop50
 90
       50
102
RTVSPost2010PropOp50
 70
     1
102
RTVSPost2010Prop51ColorIndex
 90
      256
102
RTVSPost2010Prop51ColorRGB
 90
-16777216
102
RTVSPost2010PropOp51
 70
     0
102
RTVSPost2010Prop52
140
1.0
102
RTVSPost2010PropOp52
 70
     0
102
RTVSPost2010Prop53
 90
        2
102
RTVSPost2010PropOp53
 70
     1
102
RTVSPost2010Prop54
  1
strokes_ogs.tif
102
RTVSPost2010PropOp54
 70
     1
102
RTVSPost2010Prop55
280
     0
102
RTVSPost2010PropOp55
 70
     1
102
RTVSPost2010Prop56
140
1.0
102
RTVSPost2010PropOp56
 70
     1
102
RTVSPost2010Prop57
140
1.0
102
RTVSPost2010PropOp57
 70
     1
102
RTVSPropertyOp0
 70
     1
102
RTVSPropertyOp1
 70
     1
102
RTVSPropertyOp2
 70
     1
102
RTVSPropertyOp3
 70
     1
102
RTVSPropertyOp4
 70
     1
102
RTVSPropertyOp5
 70
     1
102
RTVSPropertyOp6
 70
     1
102
RTVSPropertyOp7
 70
     1
102
RTVSPropertyOp8
 70
     1
102
RTVSPropertyOp9
 70
     1
102
RTVSPropertyOp10
 70
     1
102
RTVSPropertyOp11
 70
     1
102
RTVSPropertyOp12
 70
     1
102
RTVSPropertyOp13
 70
     1
102
RTVSPropertyOp14
 70
     1
102
RTVSPropertyOp15
 70
     1
102
RTVSPropertyOp16
 70
     1
102
RTVSPropertyOp17
 70
     1
102
RTVSPropertyOp18
 70
     1
102
RTVSPropertyOp19
 70
     1
102
RTVSPropertyOp20
 70
     1
102
RTVSPropertyOp21
 70
     1
102
RTVSPropertyOp22
 70
     1
102
RTVSPropertyOp23
 70
     1
102
RTVSPropertyOp24
 70
     1
102
RTVSPropertyOp25
 70
     1
102
RTVSPropertyOp26
 70
     1
102
RTVSPropertyOp27
 70
     1
102
RTVSPropertyOp28
 70
     1
102
RTVSPropertyOp29
 70
     1
102
RTVSPropertyOp30
 70
     1
102
RTVSPropertyOp31
 70
     1
102
RTVSPropertyOp32
 70
     1
102
RTVSPropertyOp33
 70
     1
102
RTVSPropertyOp34
 70
     1
102
RTVSPropertyOp35
 70
     1
102
RTVSPropertyOp36
 70
     1
102
RTVSPropertyOp37
 70
     1
102
RTVSPropertyOp38
 70
     1
102
RTVSPropertyOp39
 70
     1
102
RTVSPropertyOp40
 70
     1
102
RTVSPropertyOp41
 70
     1
102
RTVSPropertyOp42
 70
     1
102
RTVSPropertyOp43
 70
     1
102
RTVSPropertyOp44
 70
     1
102
RTVSPropertyOp45
 70
     1
102
RTVSPropertyOp46
 70
     1
102
RTVSPropertyOp47
 70
     1
102
RTVSPropertyOp48
 70
     1
102
RTVSPropertyOp49
 70
     1
102
RTVSPropertyOp50
 70
     1
102
RTVSPropertyOp51
 70
     0
102
RTVSPropertyOp52
 70
     0
102
RTVSPropertyOp53
 70
     1
102
RTVSPropertyOp54
 70
     1
102
RTVSPropertyOp55
 70
     1
102
RTVSPropertyOp56
 70
     1
102
RTVSPropertyOp57
 70
     1
102
RTVSPropertyOp58
 70
     1
102
RTVSPropertyOp59
 70
     1
102
RTVSPropertyOp60
 70
     1
102
RTVSPropertyOp61
 70
     1
102
RTVSPropertyOp62
 70
     1
  0
XRECORD
  5
646C
102
{ACAD_REACTORS
330
646B
102
}
330
646B
100
AcDbXrecord
280
     1
102
RTVSPost2010Prop28
280
     0
102
RTVSPost2010PropOp28
 70
     1
102
RTVSPost2010Prop29
280
     1
102
RTVSPost2010PropOp29
 70
     1
102
RTVSPost2010Prop30
280
     1
102
RTVSPost2010PropOp30
 70
     1
102
RTVSPost2010Prop31
280
     0
102
RTVSPost2010PropOp31
 70
     1
102
RTVSPost2010Prop32
280
     0
102
RTVSPost2010PropOp32
 70
     1
102
RTVSPost2010Prop33
280
     0
102
RTVSPost2010PropOp33
 70
     1
102
RTVSPost2010Prop34
280
     0
102
RTVSPost2010PropOp34
 70
     1
102
RTVSPost2010Prop35
280
     0
102
RTVSPost2010PropOp35
 70
     1
102
RTVSPost2010Prop36
280
     0
102
RTVSPost2010PropOp36
 70
     1
102
RTVSPost2010Prop37
 90
       50
102
RTVSPost2010PropOp37
 70
     1
102
RTVSPost2010Prop38
140
0.0
102
RTVSPost2010PropOp38
 70
     1
102
RTVSPost2010Prop39
140
1.0
102
RTVSPost2010PropOp39
 70
     1
102
RTVSPost2010Prop40
 90
        0
102
RTVSPost2010PropOp40
 70
     1
102
RTVSPost2010Prop41ColorIndex
 90
       18
102
RTVSPost2010Prop41ColorRGB
 90
        0
102
RTVSPost2010PropOp41
 70
     1
102
RTVSPost2010Prop42
 90
       50
102
RTVSPost2010PropOp42
 70
     1
102
RTVSPost2010Prop43
 90
        3
102
RTVSPost2010PropOp43
 70
     1
102
RTVSPost2010Prop44ColorIndex
 90
        5
102
RTVSPost2010Prop44ColorRGB
 90
      255
102
RTVSPost2010PropOp44
 70
     1
102
RTVSPost2010Prop45
280
     0
102
RTVSPost2010PropOp45
 70
     1
102
RTVSPost2010Prop46
 90
       50
102
RTVSPost2010PropOp46
 70
     1
102
RTVSPost2010Prop47
 90
       50
102
RTVSPost2010PropOp47
 70
     1
102
RTVSPost2010Prop48
 90
       50
102
RTVSPost2010PropOp48
 70
     1
102
RTVSPost2010Prop49
280
     0
102
RTVSPost2010PropOp49
 70
     1
102
RTVSPost2010Prop50
 90
       50
102
RTVSPost2010PropOp50
 70
     1
102
RTVSPost2010Prop51ColorIndex
 90
      256
102
RTVSPost2010Prop51ColorRGB
 90
-16777216
102
RTVSPost2010PropOp51
 70
     0
102
RTVSPost2010Prop52
140
1.0
102
RTVSPost2010PropOp52
 70
     0
102
RTVSPost2010Prop53
 90
        2
102
RTVSPost2010PropOp53
 70
     1
102
RTVSPost2010Prop54
  1
strokes_ogs.tif
102
RTVSPost2010PropOp54
 70
     1
102
RTVSPost2010Prop55
280
     0
102
RTVSPost2010PropOp55
 70
     1
102
RTVSPost2010Prop56
140
1.0
102
RTVSPost2010PropOp56
 70
     1
102
RTVSPost2010Prop57
140
1.0
102
RTVSPost2010PropOp57
 70
     1
102
RTVSPropertyOp0
 70
     1
102
RTVSPropertyOp1
 70
     1
102
RTVSPropertyOp2
 70
     1
102
RTVSPropertyOp3
 70
     1
102
RTVSPropertyOp4
 70
     1
102
RTVSPropertyOp5
 70
     1
102
RTVSPropertyOp6
 70
     1
102
RTVSPropertyOp7
 70
     1
102
RTVSPropertyOp8
 70
     1
102
RTVSPropertyOp9
 70
     1
102
RTVSPropertyOp10
 70
     1
102
RTVSPropertyOp11
 70
     1
102
RTVSPropertyOp12
 70
     1
102
RTVSPropertyOp13
 70
     1
102
RTVSPropertyOp14
 70
     1
102
RTVSPropertyOp15
 70
     1
102
RTVSPropertyOp16
 70
     1
102
RTVSPropertyOp17
 70
     1
102
RTVSPropertyOp18
 70
     1
102
RTVSPropertyOp19
 70
     1
102
RTVSPropertyOp20
 70
     1
102
RTVSPropertyOp21
 70
     1
102
RTVSPropertyOp22
 70
     1
102
RTVSPropertyOp23
 70
     1
102
RTVSPropertyOp24
 70
     1
102
RTVSPropertyOp25
 70
     1
102
RTVSPropertyOp26
 70
     1
102
RTVSPropertyOp27
 70
     1
102
RTVSPropertyOp28
 70
     1
102
RTVSPropertyOp29
 70
     1
102
RTVSPropertyOp30
 70
     1
102
RTVSPropertyOp31
 70
     1
102
RTVSPropertyOp32
 70
     1
102
RTVSPropertyOp33
 70
     1
102
RTVSPropertyOp34
 70
     1
102
RTVSPropertyOp35
 70
     1
102
RTVSPropertyOp36
 70
     1
102
RTVSPropertyOp37
 70
     1
102
RTVSPropertyOp38
 70
     1
102
RTVSPropertyOp39
 70
     1
102
RTVSPropertyOp40
 70
     1
102
RTVSPropertyOp41
 70
     1
102
RTVSPropertyOp42
 70
     1
102
RTVSPropertyOp43
 70
     1
102
RTVSPropertyOp44
 70
     1
102
RTVSPropertyOp45
 70
     1
102
RTVSPropertyOp46
 70
     1
102
RTVSPropertyOp47
 70
     1
102
RTVSPropertyOp48
 70
     1
102
RTVSPropertyOp49
 70
     1
102
RTVSPropertyOp50
 70
     1
102
RTVSPropertyOp51
 70
     0
102
RTVSPropertyOp52
 70
     0
102
RTVSPropertyOp53
 70
     1
102
RTVSPropertyOp54
 70
     1
102
RTVSPropertyOp55
 70
     1
102
RTVSPropertyOp56
 70
     1
102
RTVSPropertyOp57
 70
     1
102
RTVSPropertyOp58
 70
     1
102
RTVSPropertyOp59
 70
     1
102
RTVSPropertyOp60
 70
     1
102
RTVSPropertyOp61
 70
     1
102
RTVSPropertyOp62
 70
     1
  0
XRECORD
  5
646E
102
{ACAD_REACTORS
330
646D
102
}
330
646D
100
AcDbXrecord
280
     1
102
RTVSPost2010Prop28
280
     0
102
RTVSPost2010PropOp28
 70
     1
102
RTVSPost2010Prop29
280
     1
102
RTVSPost2010PropOp29
 70
     1
102
RTVSPost2010Prop30
280
     1
102
RTVSPost2010PropOp30
 70
     1
102
RTVSPost2010Prop31
280
     0
102
RTVSPost2010PropOp31
 70
     1
102
RTVSPost2010Prop32
280
     0
102
RTVSPost2010PropOp32
 70
     1
102
RTVSPost2010Prop33
280
     0
102
RTVSPost2010PropOp33
 70
     1
102
RTVSPost2010Prop34
280
     0
102
RTVSPost2010PropOp34
 70
     1
102
RTVSPost2010Prop35
280
     0
102
RTVSPost2010PropOp35
 70
     1
102
RTVSPost2010Prop36
280
     0
102
RTVSPost2010PropOp36
 70
     1
102
RTVSPost2010Prop37
 90
       50
102
RTVSPost2010PropOp37
 70
     1
102
RTVSPost2010Prop38
140
0.0
102
RTVSPost2010PropOp38
 70
     1
102
RTVSPost2010Prop39
140
1.0
102
RTVSPost2010PropOp39
 70
     1
102
RTVSPost2010Prop40
 90
        0
102
RTVSPost2010PropOp40
 70
     1
102
RTVSPost2010Prop41ColorIndex
 90
       18
102
RTVSPost2010Prop41ColorRGB
 90
        0
102
RTVSPost2010PropOp41
 70
     1
102
RTVSPost2010Prop42
 90
       50
102
RTVSPost2010PropOp42
 70
     1
102
RTVSPost2010Prop43
 90
        3
102
RTVSPost2010PropOp43
 70
     1
102
RTVSPost2010Prop44ColorIndex
 90
        5
102
RTVSPost2010Prop44ColorRGB
 90
      255
102
RTVSPost2010PropOp44
 70
     1
102
RTVSPost2010Prop45
280
     0
102
RTVSPost2010PropOp45
 70
     1
102
RTVSPost2010Prop46
 90
       50
102
RTVSPost2010PropOp46
 70
     1
102
RTVSPost2010Prop47
 90
       50
102
RTVSPost2010PropOp47
 70
     1
102
RTVSPost2010Prop48
 90
       50
102
RTVSPost2010PropOp48
 70
     1
102
RTVSPost2010Prop49
280
     0
102
RTVSPost2010PropOp49
 70
     1
102
RTVSPost2010Prop50
 90
       50
102
RTVSPost2010PropOp50
 70
     1
102
RTVSPost2010Prop51ColorIndex
 90
      256
102
RTVSPost2010Prop51ColorRGB
 90
-16777216
102
RTVSPost2010PropOp51
 70
     0
102
RTVSPost2010Prop52
140
1.0
102
RTVSPost2010PropOp52
 70
     0
102
RTVSPost2010Prop53
 90
        2
102
RTVSPost2010PropOp53
 70
     1
102
RTVSPost2010Prop54
  1
strokes_ogs.tif
102
RTVSPost2010PropOp54
 70
     1
102
RTVSPost2010Prop55
280
     0
102
RTVSPost2010PropOp55
 70
     1
102
RTVSPost2010Prop56
140
1.0
102
RTVSPost2010PropOp56
 70
     1
102
RTVSPost2010Prop57
140
1.0
102
RTVSPost2010PropOp57
 70
     1
102
RTVSPropertyOp0
 70
     1
102
RTVSPropertyOp1
 70
     1
102
RTVSPropertyOp2
 70
     1
102
RTVSPropertyOp3
 70
     1
102
RTVSPropertyOp4
 70
     1
102
RTVSPropertyOp5
 70
     1
102
RTVSPropertyOp6
 70
     1
102
RTVSPropertyOp7
 70
     1
102
RTVSPropertyOp8
 70
     1
102
RTVSPropertyOp9
 70
     1
102
RTVSPropertyOp10
 70
     1
102
RTVSPropertyOp11
 70
     1
102
RTVSPropertyOp12
 70
     1
102
RTVSPropertyOp13
 70
     1
102
RTVSPropertyOp14
 70
     1
102
RTVSPropertyOp15
 70
     1
102
RTVSPropertyOp16
 70
     1
102
RTVSPropertyOp17
 70
     1
102
RTVSPropertyOp18
 70
     1
102
RTVSPropertyOp19
 70
     1
102
RTVSPropertyOp20
 70
     1
102
RTVSPropertyOp21
 70
     1
102
RTVSPropertyOp22
 70
     1
102
RTVSPropertyOp23
 70
     1
102
RTVSPropertyOp24
 70
     1
102
RTVSPropertyOp25
 70
     1
102
RTVSPropertyOp26
 70
     1
102
RTVSPropertyOp27
 70
     1
102
RTVSPropertyOp28
 70
     1
102
RTVSPropertyOp29
 70
     1
102
RTVSPropertyOp30
 70
     1
102
RTVSPropertyOp31
 70
     1
102
RTVSPropertyOp32
 70
     1
102
RTVSPropertyOp33
 70
     1
102
RTVSPropertyOp34
 70
     1
102
RTVSPropertyOp35
 70
     1
102
RTVSPropertyOp36
 70
     1
102
RTVSPropertyOp37
 70
     1
102
RTVSPropertyOp38
 70
     1
102
RTVSPropertyOp39
 70
     1
102
RTVSPropertyOp40
 70
     1
102
RTVSPropertyOp41
 70
     1
102
RTVSPropertyOp42
 70
     1
102
RTVSPropertyOp43
 70
     1
102
RTVSPropertyOp44
 70
     1
102
RTVSPropertyOp45
 70
     1
102
RTVSPropertyOp46
 70
     1
102
RTVSPropertyOp47
 70
     1
102
RTVSPropertyOp48
 70
     1
102
RTVSPropertyOp49
 70
     1
102
RTVSPropertyOp50
 70
     1
102
RTVSPropertyOp51
 70
     0
102
RTVSPropertyOp52
 70
     0
102
RTVSPropertyOp53
 70
     1
102
RTVSPropertyOp54
 70
     1
102
RTVSPropertyOp55
 70
     1
102
RTVSPropertyOp56
 70
     1
102
RTVSPropertyOp57
 70
     1
102
RTVSPropertyOp58
 70
     1
102
RTVSPropertyOp59
 70
     1
102
RTVSPropertyOp60
 70
     1
102
RTVSPropertyOp61
 70
     1
102
RTVSPropertyOp62
 70
     1
  0
XRECORD
  5
6464
102
{ACAD_REACTORS
330
6463
102
}
330
6463
100
AcDbXrecord
280
     1
102
RTVSPost2010Prop28
280
     0
102
RTVSPost2010PropOp28
 70
     1
102
RTVSPost2010Prop29
280
     1
102
RTVSPost2010PropOp29
 70
     1
102
RTVSPost2010Prop30
280
     1
102
RTVSPost2010PropOp30
 70
     1
102
RTVSPost2010Prop31
280
     0
102
RTVSPost2010PropOp31
 70
     1
102
RTVSPost2010Prop32
280
     0
102
RTVSPost2010PropOp32
 70
     1
102
RTVSPost2010Prop33
280
     0
102
RTVSPost2010PropOp33
 70
     1
102
RTVSPost2010Prop34
280
     0
102
RTVSPost2010PropOp34
 70
     1
102
RTVSPost2010Prop35
280
     0
102
RTVSPost2010PropOp35
 70
     1
102
RTVSPost2010Prop36
280
     0
102
RTVSPost2010PropOp36
 70
     1
102
RTVSPost2010Prop37
 90
       50
102
RTVSPost2010PropOp37
 70
     1
102
RTVSPost2010Prop38
140
0.0
102
RTVSPost2010PropOp38
 70
     1
102
RTVSPost2010Prop39
140
1.0
102
RTVSPost2010PropOp39
 70
     1
102
RTVSPost2010Prop40
 90
        0
102
RTVSPost2010PropOp40
 70
     1
102
RTVSPost2010Prop41ColorIndex
 90
       18
102
RTVSPost2010Prop41ColorRGB
 90
        0
102
RTVSPost2010PropOp41
 70
     1
102
RTVSPost2010Prop42
 90
       50
102
RTVSPost2010PropOp42
 70
     1
102
RTVSPost2010Prop43
 90
        3
102
RTVSPost2010PropOp43
 70
     1
102
RTVSPost2010Prop44ColorIndex
 90
        5
102
RTVSPost2010Prop44ColorRGB
 90
      255
102
RTVSPost2010PropOp44
 70
     1
102
RTVSPost2010Prop45
280
     0
102
RTVSPost2010PropOp45
 70
     1
102
RTVSPost2010Prop46
 90
       50
102
RTVSPost2010PropOp46
 70
     1
102
RTVSPost2010Prop47
 90
       50
102
RTVSPost2010PropOp47
 70
     1
102
RTVSPost2010Prop48
 90
       50
102
RTVSPost2010PropOp48
 70
     1
102
RTVSPost2010Prop49
280
     0
102
RTVSPost2010PropOp49
 70
     1
102
RTVSPost2010Prop50
 90
       50
102
RTVSPost2010PropOp50
 70
     1
102
RTVSPost2010Prop51ColorIndex
 90
      256
102
RTVSPost2010Prop51ColorRGB
 90
-16777216
102
RTVSPost2010PropOp51
 70
     0
102
RTVSPost2010Prop52
140
1.0
102
RTVSPost2010PropOp52
 70
     0
102
RTVSPost2010Prop53
 90
        2
102
RTVSPost2010PropOp53
 70
     1
102
RTVSPost2010Prop54
  1
strokes_ogs.tif
102
RTVSPost2010PropOp54
 70
     1
102
RTVSPost2010Prop55
280
     0
102
RTVSPost2010PropOp55
 70
     1
102
RTVSPost2010Prop56
140
1.0
102
RTVSPost2010PropOp56
 70
     1
102
RTVSPost2010Prop57
140
1.0
102
RTVSPost2010PropOp57
 70
     1
102
RTVSPropertyOp0
 70
     1
102
RTVSPropertyOp1
 70
     1
102
RTVSPropertyOp2
 70
     1
102
RTVSPropertyOp3
 70
     1
102
RTVSPropertyOp4
 70
     1
102
RTVSPropertyOp5
 70
     1
102
RTVSPropertyOp6
 70
     1
102
RTVSPropertyOp7
 70
     1
102
RTVSPropertyOp8
 70
     1
102
RTVSPropertyOp9
 70
     1
102
RTVSPropertyOp10
 70
     1
102
RTVSPropertyOp11
 70
     1
102
RTVSPropertyOp12
 70
     1
102
RTVSPropertyOp13
 70
     1
102
RTVSPropertyOp14
 70
     1
102
RTVSPropertyOp15
 70
     1
102
RTVSPropertyOp16
 70
     1
102
RTVSPropertyOp17
 70
     1
102
RTVSPropertyOp18
 70
     1
102
RTVSPropertyOp19
 70
     1
102
RTVSPropertyOp20
 70
     1
102
RTVSPropertyOp21
 70
     1
102
RTVSPropertyOp22
 70
     1
102
RTVSPropertyOp23
 70
     1
102
RTVSPropertyOp24
 70
     1
102
RTVSPropertyOp25
 70
     1
102
RTVSPropertyOp26
 70
     1
102
RTVSPropertyOp27
 70
     1
102
RTVSPropertyOp28
 70
     1
102
RTVSPropertyOp29
 70
     1
102
RTVSPropertyOp30
 70
     1
102
RTVSPropertyOp31
 70
     1
102
RTVSPropertyOp32
 70
     1
102
RTVSPropertyOp33
 70
     1
102
RTVSPropertyOp34
 70
     1
102
RTVSPropertyOp35
 70
     1
102
RTVSPropertyOp36
 70
     1
102
RTVSPropertyOp37
 70
     1
102
RTVSPropertyOp38
 70
     1
102
RTVSPropertyOp39
 70
     1
102
RTVSPropertyOp40
 70
     1
102
RTVSPropertyOp41
 70
     1
102
RTVSPropertyOp42
 70
     1
102
RTVSPropertyOp43
 70
     1
102
RTVSPropertyOp44
 70
     1
102
RTVSPropertyOp45
 70
     1
102
RTVSPropertyOp46
 70
     1
102
RTVSPropertyOp47
 70
     1
102
RTVSPropertyOp48
 70
     1
102
RTVSPropertyOp49
 70
     1
102
RTVSPropertyOp50
 70
     1
102
RTVSPropertyOp51
 70
     0
102
RTVSPropertyOp52
 70
     0
102
RTVSPropertyOp53
 70
     1
102
RTVSPropertyOp54
 70
     1
102
RTVSPropertyOp55
 70
     1
102
RTVSPropertyOp56
 70
     1
102
RTVSPropertyOp57
 70
     1
102
RTVSPropertyOp58
 70
     1
102
RTVSPropertyOp59
 70
     1
102
RTVSPropertyOp60
 70
     1
102
RTVSPropertyOp61
 70
     1
102
RTVSPropertyOp62
 70
     1
  0
XRECORD
  5
6458
102
{ACAD_REACTORS
330
6457
102
}
330
6457
100
AcDbXrecord
280
     1
102
RTVSPost2010Prop28
280
     0
102
RTVSPost2010PropOp28
 70
     1
102
RTVSPost2010Prop29
280
     1
102
RTVSPost2010PropOp29
 70
     1
102
RTVSPost2010Prop30
280
     1
102
RTVSPost2010PropOp30
 70
     1
102
RTVSPost2010Prop31
280
     0
102
RTVSPost2010PropOp31
 70
     1
102
RTVSPost2010Prop32
280
     0
102
RTVSPost2010PropOp32
 70
     1
102
RTVSPost2010Prop33
280
     0
102
RTVSPost2010PropOp33
 70
     1
102
RTVSPost2010Prop34
280
     0
102
RTVSPost2010PropOp34
 70
     1
102
RTVSPost2010Prop35
280
     0
102
RTVSPost2010PropOp35
 70
     1
102
RTVSPost2010Prop36
280
     0
102
RTVSPost2010PropOp36
 70
     1
102
RTVSPost2010Prop37
 90
       50
102
RTVSPost2010PropOp37
 70
     1
102
RTVSPost2010Prop38
140
0.0
102
RTVSPost2010PropOp38
 70
     1
102
RTVSPost2010Prop39
140
1.0
102
RTVSPost2010PropOp39
 70
     1
102
RTVSPost2010Prop40
 90
        0
102
RTVSPost2010PropOp40
 70
     1
102
RTVSPost2010Prop41ColorIndex
 90
       18
102
RTVSPost2010Prop41ColorRGB
 90
        0
102
RTVSPost2010PropOp41
 70
     1
102
RTVSPost2010Prop42
 90
       50
102
RTVSPost2010PropOp42
 70
     1
102
RTVSPost2010Prop43
 90
        3
102
RTVSPost2010PropOp43
 70
     1
102
RTVSPost2010Prop44ColorIndex
 90
        5
102
RTVSPost2010Prop44ColorRGB
 90
      255
102
RTVSPost2010PropOp44
 70
     1
102
RTVSPost2010Prop45
280
     0
102
RTVSPost2010PropOp45
 70
     1
102
RTVSPost2010Prop46
 90
       50
102
RTVSPost2010PropOp46
 70
     1
102
RTVSPost2010Prop47
 90
       50
102
RTVSPost2010PropOp47
 70
     1
102
RTVSPost2010Prop48
 90
       50
102
RTVSPost2010PropOp48
 70
     1
102
RTVSPost2010Prop49
280
     0
102
RTVSPost2010PropOp49
 70
     1
102
RTVSPost2010Prop50
 90
       50
102
RTVSPost2010PropOp50
 70
     1
102
RTVSPost2010Prop51ColorIndex
 90
      256
102
RTVSPost2010Prop51ColorRGB
 90
-16777216
102
RTVSPost2010PropOp51
 70
     0
102
RTVSPost2010Prop52
140
1.0
102
RTVSPost2010PropOp52
 70
     0
102
RTVSPost2010Prop53
 90
        2
102
RTVSPost2010PropOp53
 70
     1
102
RTVSPost2010Prop54
  1
strokes_ogs.tif
102
RTVSPost2010PropOp54
 70
     1
102
RTVSPost2010Prop55
280
     0
102
RTVSPost2010PropOp55
 70
     1
102
RTVSPost2010Prop56
140
1.0
102
RTVSPost2010PropOp56
 70
     1
102
RTVSPost2010Prop57
140
1.0
102
RTVSPost2010PropOp57
 70
     1
102
RTVSPropertyOp0
 70
     1
102
RTVSPropertyOp1
 70
     1
102
RTVSPropertyOp2
 70
     1
102
RTVSPropertyOp3
 70
     1
102
RTVSPropertyOp4
 70
     1
102
RTVSPropertyOp5
 70
     1
102
RTVSPropertyOp6
 70
     1
102
RTVSPropertyOp7
 70
     1
102
RTVSPropertyOp8
 70
     1
102
RTVSPropertyOp9
 70
     1
102
RTVSPropertyOp10
 70
     1
102
RTVSPropertyOp11
 70
     1
102
RTVSPropertyOp12
 70
     1
102
RTVSPropertyOp13
 70
     1
102
RTVSPropertyOp14
 70
     1
102
RTVSPropertyOp15
 70
     1
102
RTVSPropertyOp16
 70
     1
102
RTVSPropertyOp17
 70
     1
102
RTVSPropertyOp18
 70
     1
102
RTVSPropertyOp19
 70
     1
102
RTVSPropertyOp20
 70
     1
102
RTVSPropertyOp21
 70
     1
102
RTVSPropertyOp22
 70
     1
102
RTVSPropertyOp23
 70
     1
102
RTVSPropertyOp24
 70
     1
102
RTVSPropertyOp25
 70
     1
102
RTVSPropertyOp26
 70
     1
102
RTVSPropertyOp27
 70
     1
102
RTVSPropertyOp28
 70
     1
102
RTVSPropertyOp29
 70
     1
102
RTVSPropertyOp30
 70
     1
102
RTVSPropertyOp31
 70
     1
102
RTVSPropertyOp32
 70
     1
102
RTVSPropertyOp33
 70
     1
102
RTVSPropertyOp34
 70
     1
102
RTVSPropertyOp35
 70
     1
102
RTVSPropertyOp36
 70
     1
102
RTVSPropertyOp37
 70
     1
102
RTVSPropertyOp38
 70
     1
102
RTVSPropertyOp39
 70
     1
102
RTVSPropertyOp40
 70
     1
102
RTVSPropertyOp41
 70
     1
102
RTVSPropertyOp42
 70
     1
102
RTVSPropertyOp43
 70
     1
102
RTVSPropertyOp44
 70
     1
102
RTVSPropertyOp45
 70
     1
102
RTVSPropertyOp46
 70
     1
102
RTVSPropertyOp47
 70
     1
102
RTVSPropertyOp48
 70
     1
102
RTVSPropertyOp49
 70
     1
102
RTVSPropertyOp50
 70
     1
102
RTVSPropertyOp51
 70
     0
102
RTVSPropertyOp52
 70
     0
102
RTVSPropertyOp53
 70
     1
102
RTVSPropertyOp54
 70
     1
102
RTVSPropertyOp55
 70
     1
102
RTVSPropertyOp56
 70
     1
102
RTVSPropertyOp57
 70
     1
102
RTVSPropertyOp58
 70
     1
102
RTVSPropertyOp59
 70
     1
102
RTVSPropertyOp60
 70
     1
102
RTVSPropertyOp61
 70
     1
102
RTVSPropertyOp62
 70
     1
  0
XRECORD
  5
6470
102
{ACAD_REACTORS
330
646F
102
}
330
646F
100
AcDbXrecord
280
     1
102
RTVSPost2010Prop28
280
     0
102
RTVSPost2010PropOp28
 70
     1
102
RTVSPost2010Prop29
280
     1
102
RTVSPost2010PropOp29
 70
     1
102
RTVSPost2010Prop30
280
     1
102
RTVSPost2010PropOp30
 70
     1
102
RTVSPost2010Prop31
280
     0
102
RTVSPost2010PropOp31
 70
     1
102
RTVSPost2010Prop32
280
     0
102
RTVSPost2010PropOp32
 70
     1
102
RTVSPost2010Prop33
280
     0
102
RTVSPost2010PropOp33
 70
     1
102
RTVSPost2010Prop34
280
     0
102
RTVSPost2010PropOp34
 70
     1
102
RTVSPost2010Prop35
280
     0
102
RTVSPost2010PropOp35
 70
     1
102
RTVSPost2010Prop36
280
     0
102
RTVSPost2010PropOp36
 70
     1
102
RTVSPost2010Prop37
 90
       50
102
RTVSPost2010PropOp37
 70
     1
102
RTVSPost2010Prop38
140
0.0
102
RTVSPost2010PropOp38
 70
     1
102
RTVSPost2010Prop39
140
1.0
102
RTVSPost2010PropOp39
 70
     1
102
RTVSPost2010Prop40
 90
        0
102
RTVSPost2010PropOp40
 70
     1
102
RTVSPost2010Prop41ColorIndex
 90
       18
102
RTVSPost2010Prop41ColorRGB
 90
        0
102
RTVSPost2010PropOp41
 70
     1
102
RTVSPost2010Prop42
 90
       50
102
RTVSPost2010PropOp42
 70
     1
102
RTVSPost2010Prop43
 90
        3
102
RTVSPost2010PropOp43
 70
     1
102
RTVSPost2010Prop44ColorIndex
 90
        5
102
RTVSPost2010Prop44ColorRGB
 90
      255
102
RTVSPost2010PropOp44
 70
     1
102
RTVSPost2010Prop45
280
     0
102
RTVSPost2010PropOp45
 70
     1
102
RTVSPost2010Prop46
 90
       50
102
RTVSPost2010PropOp46
 70
     1
102
RTVSPost2010Prop47
 90
       50
102
RTVSPost2010PropOp47
 70
     1
102
RTVSPost2010Prop48
 90
       50
102
RTVSPost2010PropOp48
 70
     1
102
RTVSPost2010Prop49
280
     0
102
RTVSPost2010PropOp49
 70
     1
102
RTVSPost2010Prop50
 90
       50
102
RTVSPost2010PropOp50
 70
     1
102
RTVSPost2010Prop51ColorIndex
 90
      256
102
RTVSPost2010Prop51ColorRGB
 90
-16777216
102
RTVSPost2010PropOp51
 70
     0
102
RTVSPost2010Prop52
140
1.0
102
RTVSPost2010PropOp52
 70
     0
102
RTVSPost2010Prop53
 90
        2
102
RTVSPost2010PropOp53
 70
     1
102
RTVSPost2010Prop54
  1
strokes_ogs.tif
102
RTVSPost2010PropOp54
 70
     1
102
RTVSPost2010Prop55
280
     0
102
RTVSPost2010PropOp55
 70
     1
102
RTVSPost2010Prop56
140
1.0
102
RTVSPost2010PropOp56
 70
     1
102
RTVSPost2010Prop57
140
1.0
102
RTVSPost2010PropOp57
 70
     1
102
RTVSPropertyOp0
 70
     1
102
RTVSPropertyOp1
 70
     1
102
RTVSPropertyOp2
 70
     1
102
RTVSPropertyOp3
 70
     1
102
RTVSPropertyOp4
 70
     1
102
RTVSPropertyOp5
 70
     1
102
RTVSPropertyOp6
 70
     1
102
RTVSPropertyOp7
 70
     1
102
RTVSPropertyOp8
 70
     1
102
RTVSPropertyOp9
 70
     1
102
RTVSPropertyOp10
 70
     1
102
RTVSPropertyOp11
 70
     1
102
RTVSPropertyOp12
 70
     1
102
RTVSPropertyOp13
 70
     1
102
RTVSPropertyOp14
 70
     1
102
RTVSPropertyOp15
 70
     1
102
RTVSPropertyOp16
 70
     1
102
RTVSPropertyOp17
 70
     1
102
RTVSPropertyOp18
 70
     1
102
RTVSPropertyOp19
 70
     1
102
RTVSPropertyOp20
 70
     1
102
RTVSPropertyOp21
 70
     1
102
RTVSPropertyOp22
 70
     1
102
RTVSPropertyOp23
 70
     1
102
RTVSPropertyOp24
 70
     1
102
RTVSPropertyOp25
 70
     1
102
RTVSPropertyOp26
 70
     1
102
RTVSPropertyOp27
 70
     1
102
RTVSPropertyOp28
 70
     1
102
RTVSPropertyOp29
 70
     1
102
RTVSPropertyOp30
 70
     1
102
RTVSPropertyOp31
 70
     1
102
RTVSPropertyOp32
 70
     1
102
RTVSPropertyOp33
 70
     1
102
RTVSPropertyOp34
 70
     1
102
RTVSPropertyOp35
 70
     1
102
RTVSPropertyOp36
 70
     1
102
RTVSPropertyOp37
 70
     1
102
RTVSPropertyOp38
 70
     1
102
RTVSPropertyOp39
 70
     1
102
RTVSPropertyOp40
 70
     1
102
RTVSPropertyOp41
 70
     1
102
RTVSPropertyOp42
 70
     1
102
RTVSPropertyOp43
 70
     1
102
RTVSPropertyOp44
 70
     1
102
RTVSPropertyOp45
 70
     1
102
RTVSPropertyOp46
 70
     1
102
RTVSPropertyOp47
 70
     1
102
RTVSPropertyOp48
 70
     1
102
RTVSPropertyOp49
 70
     1
102
RTVSPropertyOp50
 70
     1
102
RTVSPropertyOp51
 70
     0
102
RTVSPropertyOp52
 70
     0
102
RTVSPropertyOp53
 70
     1
102
RTVSPropertyOp54
 70
     1
102
RTVSPropertyOp55
 70
     1
102
RTVSPropertyOp56
 70
     1
102
RTVSPropertyOp57
 70
     1
102
RTVSPropertyOp58
 70
     1
102
RTVSPropertyOp59
 70
     1
102
RTVSPropertyOp60
 70
     1
102
RTVSPropertyOp61
 70
     1
102
RTVSPropertyOp62
 70
     1
  0
ENDSEC
  0
EOF
