  0
SECTION
  2
HEADER
  9
$ACADVER
  1
AC1015
  9
$ACADMAINTVER
 70
    20
  9
$DWGCODEPAGE
  3
ANSI_932
  9
$INSBASE
 10
0.0
 20
0.0
 30
0.0
  9
$EXTMIN
 10
3345.597715035096
 20
2822.809791742034
 30
0.0
  9
$EXTMAX
 10
6495.597715035096
 20
7247.809791742034
 30
0.0
  9
$LIMMIN
 10
0.0
 20
0.0
  9
$LIMMAX
 10
297.0
 20
210.0
  9
$ORTHOMODE
 70
     1
  9
$REGENMODE
 70
     1
  9
$FILLMODE
 70
     1
  9
$QTEXTMODE
 70
     0
  9
$MIRRTEXT
 70
     0
  9
$LTSCALE
 40
75.0
  9
$ATTMODE
 70
     1
  9
$TEXTSIZE
 40
3.5
  9
$TRACEWID
 40
0.05
  9
$TEXTSTYLE
  7
STANDARD
  9
$CLAYER
  8
SP
  9
$CELTYPE
  6
BYLAYER
  9
$CECOLOR
 62
   256
  9
$CELTSCALE
 40
1.0
  9
$DISPSILH
 70
     0
  9
$DIMSCALE
 40
15.0
  9
$DIMASZ
 40
2.5
  9
$DIMEXO
 40
1.0
  9
$DIMDLI
 40
7.0
  9
$DIMRND
 40
0.0
  9
$DIMDLE
 40
0.0
  9
$DIMEXE
 40
1.0
  9
$DIMTP
 40
0.0
  9
$DIMTM
 40
0.0
  9
$DIMTXT
 40
3.0
  9
$DIMCEN
 40
0.0
  9
$DIMTSZ
 40
0.0
  9
$DIMTOL
 70
     0
  9
$DIMLIM
 70
     0
  9
$DIMTIH
 70
     0
  9
$DIMTOH
 70
     0
  9
$DIMSE1
 70
     0
  9
$DIMSE2
 70
     0
  9
$DIMTAD
 70
     1
  9
$DIMZIN
 70
     8
  9
$DIMBLK
  1

  9
$DIMASO
 70
     1
  9
$DIMSHO
 70
     1
  9
$DIMPOST
  1

  9
$DIMAPOST
  1

  9
$DIMALT
 70
     0
  9
$DIMALTD
 70
     2
  9
$DIMALTF
 40
0.03937
  9
$DIMLFAC
 40
1.0
  9
$DIMTOFL
 70
     1
  9
$DIMTVP
 40
0.0
  9
$DIMTIX
 70
     0
  9
$DIMSOXD
 70
     0
  9
$DIMSAH
 70
     1
  9
$DIMBLK1
  1
OPEN
  9
$DIMBLK2
  1
OPEN
  9
$DIMSTYLE
  2
GOD
  9
$DIMCLRD
 70
   256
  9
$DIMCLRE
 70
   256
  9
$DIMCLRT
 70
   256
  9
$DIMTFAC
 40
1.0
  9
$DIMGAP
 40
1.0
  9
$DIMJUST
 70
     0
  9
$DIMSD1
 70
     0
  9
$DIMSD2
 70
     0
  9
$DIMTOLJ
 70
     1
  9
$DIMTZIN
 70
     8
  9
$DIMALTZ
 70
     0
  9
$DIMALTTZ
 70
     0
  9
$DIMUPT
 70
     0
  9
$DIMDEC
 70
     2
  9
$DIMTDEC
 70
     2
  9
$DIMALTU
 70
     2
  9
$DIMALTTD
 70
     2
  9
$DIMTXSTY
  7
STANDARD
  9
$DIMAUNIT
 70
     0
  9
$DIMADEC
 70
     0
  9
$DIMALTRND
 40
0.0
  9
$DIMAZIN
 70
     0
  9
$DIMDSEP
 70
    46
  9
$DIMATFIT
 70
     0
  9
$DIMFRAC
 70
     0
  9
$DIMLDRBLK
  1
OPEN
  9
$DIMLUNIT
 70
     2
  9
$DIMLWD
 70
    -2
  9
$DIMLWE
 70
    -2
  9
$DIMTMOVE
 70
     0
  9
$LUNITS
 70
     2
  9
$LUPREC
 70
     3
  9
$SKETCHINC
 40
0.1
  9
$FILLETRAD
 40
15.0
  9
$AUNITS
 70
     0
  9
$AUPREC
 70
     2
  9
$MENU
  1
acad
  9
$ELEVATION
 40
0.0
  9
$PELEVATION
 40
0.0
  9
$THICKNESS
 40
0.0
  9
$LIMCHECK
 70
     0
  9
$CHAMFERA
 40
0.0
  9
$CHAMFERB
 40
0.0
  9
$CHAMFERC
 40
20.0
  9
$CHAMFERD
 40
0.0
  9
$SKPOLY
 70
     0
  9
$TDCREATE
 40
2454939.604632489
  9
$TDUCREATE
 40
2454939.229632489
  9
$TDUPDATE
 40
2459353.579604931
  9
$TDUUPDATE
 40
2459353.204604931
  9
$TDINDWG
 40
0.1144376042
  9
$TDUSRTIMER
 40
0.1144376042
  9
$USRTIMER
 70
     1
  9
$ANGBASE
 50
0.0
  9
$ANGDIR
 70
     0
  9
$PDMODE
 70
     0
  9
$PDSIZE
 40
1.0
  9
$PLINEWID
 40
0.0
  9
$SPLFRAME
 70
     0
  9
$SPLINETYPE
 70
     6
  9
$SPLINESEGS
 70
     8
  9
$HANDSEED
  5
5C6E
  9
$SURFTAB1
 70
     6
  9
$SURFTAB2
 70
     6
  9
$SURFTYPE
 70
     6
  9
$SURFU
 70
     6
  9
$SURFV
 70
     6
  9
$UCSBASE
  2

  9
$UCSNAME
  2

  9
$UCSORG
 10
0.0
 20
0.0
 30
0.0
  9
$UCSXDIR
 10
1.0
 20
0.0
 30
0.0
  9
$UCSYDIR
 10
0.0
 20
1.0
 30
0.0
  9
$UCSORTHOREF
  2

  9
$UCSORTHOVIEW
 70
     0
  9
$UCSORGTOP
 10
0.0
 20
0.0
 30
0.0
  9
$UCSORGBOTTOM
 10
0.0
 20
0.0
 30
0.0
  9
$UCSORGLEFT
 10
0.0
 20
0.0
 30
0.0
  9
$UCSORGRIGHT
 10
0.0
 20
0.0
 30
0.0
  9
$UCSORGFRONT
 10
0.0
 20
0.0
 30
0.0
  9
$UCSORGBACK
 10
0.0
 20
0.0
 30
0.0
  9
$PUCSBASE
  2

  9
$PUCSNAME
  2

  9
$PUCSORG
 10
0.0
 20
0.0
 30
0.0
  9
$PUCSXDIR
 10
1.0
 20
0.0
 30
0.0
  9
$PUCSYDIR
 10
0.0
 20
1.0
 30
0.0
  9
$PUCSORTHOREF
  2

  9
$PUCSORTHOVIEW
 70
     0
  9
$PUCSORGTOP
 10
0.0
 20
0.0
 30
0.0
  9
$PUCSORGBOTTOM
 10
0.0
 20
0.0
 30
0.0
  9
$PUCSORGLEFT
 10
0.0
 20
0.0
 30
0.0
  9
$PUCSORGRIGHT
 10
0.0
 20
0.0
 30
0.0
  9
$PUCSORGFRONT
 10
0.0
 20
0.0
 30
0.0
  9
$PUCSORGBACK
 10
0.0
 20
0.0
 30
0.0
  9
$USERI1
 70
     0
  9
$USERI2
 70
     0
  9
$USERI3
 70
     0
  9
$USERI4
 70
     0
  9
$USERI5
 70
     0
  9
$USERR1
 40
0.0
  9
$USERR2
 40
0.0
  9
$USERR3
 40
0.0
  9
$USERR4
 40
0.0
  9
$USERR5
 40
0.0
  9
$WORLDVIEW
 70
     1
  9
$SHADEDGE
 70
     3
  9
$SHADEDIF
 70
    70
  9
$TILEMODE
 70
     1
  9
$MAXACTVP
 70
    16
  9
$PINSBASE
 10
0.0
 20
0.0
 30
0.0
  9
$PLIMCHECK
 70
     0
  9
$PEXTMIN
 10
1.000000000000000E+20
 20
1.000000000000000E+20
 30
1.000000000000000E+20
  9
$PEXTMAX
 10
-1.000000000000000E+20
 20
-1.000000000000000E+20
 30
-1.000000000000000E+20
  9
$PLIMMIN
 10
0.0
 20
0.0
  9
$PLIMMAX
 10
12.0
 20
9.0
  9
$UNITMODE
 70
     0
  9
$VISRETAIN
 70
     0
  9
$PLINEGEN
 70
     0
  9
$PSLTSCALE
 70
     0
  9
$TREEDEPTH
 70
  3020
  9
$CMLSTYLE
  2
STANDARD
  9
$CMLJUST
 70
     0
  9
$CMLSCALE
 40
20.0
  9
$PROXYGRAPHICS
 70
     1
  9
$MEASUREMENT
 70
     1
  9
$CELWEIGHT
370
    -1
  9
$ENDCAPS
280
     0
  9
$JOINSTYLE
280
     0
  9
$LWDISPLAY
290
     0
  9
$INSUNITS
 70
     0
  9
$HYPERLINKBASE
  1

  9
$STYLESHEET
  1

  9
$XEDIT
290
     1
  9
$CEPSNTYPE
380
     0
  9
$PSTYLEMODE
290
     1
  9
$FINGERPRINTGUID
  2
{A0F129D1-2BC8-11D4-BF85-004026350B0A}
  9
$VERSIONGUID
  2
{4EBB2FDB-C674-1D45-A401-5D7E897A0321}
  9
$EXTNAMES
290
     1
  9
$PSVPSCALE
 40
0.0
  9
$OLESTARTUP
290
     0
  0
ENDSEC
  0
SECTION
  2
CLASSES
  0
CLASS
  1
ACDBDICTIONARYWDFLT
  2
AcDbDictionaryWithDefault
  3
ObjectDBX Classes
 90
        0
280
     0
281
     0
  0
CLASS
  1
ACDBPLACEHOLDER
  2
AcDbPlaceHolder
  3
ObjectDBX Classes
 90
        0
280
     0
281
     0
  0
CLASS
  1
LAYOUT
  2
AcDbLayout
  3
ObjectDBX Classes
 90
        0
280
     0
281
     0
  0
CLASS
  1
MATERIAL
  2
AcDbMaterial
  3
ObjectDBX Classes
 90
     1153
280
     0
281
     0
  0
CLASS
  1
VISUALSTYLE
  2
AcDbVisualStyle
  3
ObjectDBX Classes
 90
     4095
280
     0
281
     0
  0
CLASS
  1
TABLESTYLE
  2
AcDbTableStyle
  3
ObjectDBX Classes
 90
     4095
280
     0
281
     0
  0
CLASS
  1
SCALE
  2
AcDbScale
  3
ObjectDBX Classes
 90
     1153
280
     0
281
     0
  0
CLASS
  1
MLEADERSTYLE
  2
AcDbMLeaderStyle
  3
ACDB_MLEADERSTYLE_CLASS
 90
     4095
280
     0
281
     0
  0
CLASS
  1
ACDBSECTIONVIEWSTYLE
  2
AcDbSectionViewStyle
  3
ObjectDBX Classes
 90
     1025
280
     0
281
     0
  0
CLASS
  1
ACDBDETAILVIEWSTYLE
  2
AcDbDetailViewStyle
  3
ObjectDBX Classes
 90
     1025
280
     0
281
     0
  0
CLASS
  1
SORTENTSTABLE
  2
AcDbSortentsTable
  3
ObjectDBX Classes
 90
        0
280
     0
281
     0
  0
CLASS
  1
DICTIONARYVAR
  2
AcDbDictionaryVar
  3
ObjectDBX Classes
 90
        0
280
     0
281
     0
  0
CLASS
  1
CELLSTYLEMAP
  2
AcDbCellStyleMap
  3
ObjectDBX Classes
 90
     1152
280
     0
281
     0
  0
ENDSEC
  0
SECTION
  2
TABLES
  0
TABLE
  2
VPORT
  5
8
330
0
100
AcDbSymbolTable
 70
     1
  0
VPORT
  5
5A10
330
8
100
AcDbSymbolTableRecord
100
AcDbViewportTableRecord
  2
*Active
 70
     0
 10
0.0
 20
0.0
 11
1.0
 21
1.0
 12
4920.611533821868
 22
5347.614321914073
 13
0.0
 23
0.0
 14
5.0
 24
5.0
 15
0.0
 25
0.0
 16
0.0
 26
0.0
 36
1.0
 17
0.0
 27
0.0
 37
0.0
 40
5086.2436064199
 41
2.146341463414634
 42
50.0
 43
0.0
 44
0.0
 50
0.0
 51
0.0
 71
     0
 72
   100
 73
     1
 74
     0
 75
     0
 76
     0
 77
     0
 78
     0
281
     0
 65
     1
110
0.0
120
0.0
130
0.0
111
1.0
121
0.0
131
0.0
112
0.0
122
1.0
132
0.0
 79
     0
146
0.0
1001
ACAD_NAV_VCDISPLAY
1070
     3
  0
ENDTAB
  0
TABLE
  2
LTYPE
  5
5
330
0
100
AcDbSymbolTable
 70
     4
  0
LTYPE
  5
13
330
5
100
AcDbSymbolTableRecord
100
AcDbLinetypeTableRecord
  2
BYBLOCK
 70
     0
  3

 72
    65
 73
     0
 40
0.0
  0
LTYPE
  5
14
330
5
100
AcDbSymbolTableRecord
100
AcDbLinetypeTableRecord
  2
BYLAYER
 70
     0
  3

 72
    65
 73
     0
 40
0.0
  0
LTYPE
  5
15
330
5
100
AcDbSymbolTableRecord
100
AcDbLinetypeTableRecord
  2
CONTINUOUS
 70
     0
  3
Solid line
 72
    65
 73
     0
 40
0.0
  0
LTYPE
  5
1F
330
5
100
AcDbSymbolTableRecord
100
AcDbLinetypeTableRecord
  2
CENTER
 70
     0
  3
____ _ ____ _ ____ _ ____ _ ____ _ ____ _ ____ 
 72
    65
 73
     4
 40
2.0
 49
1.25
 74
     0
 49
-0.25
 74
     0
 49
0.25
 74
     0
 49
-0.25
 74
     0
  0
LTYPE
  5
20
330
5
100
AcDbSymbolTableRecord
100
AcDbLinetypeTableRecord
  2
HIDDEN
 70
     0
  3
__ __ __ __ __ __ __ __ __ __ __ __ __ __ __ __
 72
    65
 73
     2
 40
0.375
 49
0.25
 74
     0
 49
-0.125
 74
     0
  0
LTYPE
  5
21
330
5
100
AcDbSymbolTableRecord
100
AcDbLinetypeTableRecord
  2
PHANTOM
 70
     0
  3
______  __  __  ______  __  __  ______  __  __ 
 72
    65
 73
     6
 40
2.5
 49
1.25
 74
     0
 49
-0.25
 74
     0
 49
0.25
 74
     0
 49
-0.25
 74
     0
 49
0.25
 74
     0
 49
-0.25
 74
     0
  0
ENDTAB
  0
TABLE
  2
LAYER
  5
2
102
{ACAD_XDICTIONARY
360
5BE4
102
}
330
0
100
AcDbSymbolTable
 70
    13
  0
LAYER
  5
F
102
{ACAD_XDICTIONARY
360
5BC9
102
}
330
2
100
AcDbSymbolTableRecord
100
AcDbLayerTableRecord
  2
0
 70
     0
 62
     7
  6
CONTINUOUS
370
    -3
390
1E91
  0
LAYER
  5
2F
102
{ACAD_XDICTIONARY
360
5BCB
102
}
330
2
100
AcDbSymbolTableRecord
100
AcDbLayerTableRecord
  2
CT
 70
     0
 62
     3
  6
CENTER
370
    -3
390
1E91
  0
LAYER
  5
30
102
{ACAD_XDICTIONARY
360
5BCD
102
}
330
2
100
AcDbSymbolTableRecord
100
AcDbLayerTableRecord
  2
FUTO
 70
     0
 62
     4
  6
CONTINUOUS
370
    -3
390
1E91
  0
LAYER
  5
32
102
{ACAD_XDICTIONARY
360
5BCF
102
}
330
2
100
AcDbSymbolTableRecord
100
AcDbLayerTableRecord
  2
HOSO
 70
     0
 62
     7
  6
CONTINUOUS
370
    -3
390
1E91
  0
LAYER
  5
33
102
{ACAD_XDICTIONARY
360
5BD1
102
}
330
2
100
AcDbSymbolTableRecord
100
AcDbLayerTableRecord
  2
KL
 70
     0
 62
     7
  6
HIDDEN
370
    -3
390
1E91
  0
LAYER
  5
34
102
{ACAD_XDICTIONARY
360
5BD3
102
}
330
2
100
AcDbSymbolTableRecord
100
AcDbLayerTableRecord
  2
MOJI
 70
     0
 62
     3
  6
CONTINUOUS
370
    -3
390
1E91
  0
LAYER
  5
35
102
{ACAD_XDICTIONARY
360
5BD5
102
}
330
2
100
AcDbSymbolTableRecord
100
AcDbLayerTableRecord
  2
SL
 70
     0
 62
     1
  6
PHANTOM
370
    -3
390
1E91
  0
LAYER
  5
36
102
{ACAD_XDICTIONARY
360
5BD7
102
}
330
2
100
AcDbSymbolTableRecord
100
AcDbLayerTableRecord
  2
SP
 70
     0
 62
     2
  6
CONTINUOUS
370
    -3
390
1E91
  0
LAYER
  5
1E9B
330
2
100
AcDbSymbolTableRecord
100
AcDbLayerTableRecord
  2
Defpoints
 70
     0
 62
     7
  6
CONTINUOUS
290
     0
370
    -3
390
1E91
  0
LAYER
  5
1EEE
102
{ACAD_XDICTIONARY
360
5BD9
102
}
330
2
100
AcDbSymbolTableRecord
100
AcDbLayerTableRecord
  2
3
 70
     0
 62
    -2
  6
CONTINUOUS
370
    -3
390
1E91
  0
LAYER
  5
1EEF
102
{ACAD_XDICTIONARY
360
5BDB
102
}
330
2
100
AcDbSymbolTableRecord
100
AcDbLayerTableRecord
  2
2
 70
     0
 62
     3
  6
CENTER
370
    -3
390
1E91
  0
LAYER
  5
1EF0
102
{ACAD_XDICTIONARY
360
5BDD
102
}
330
2
100
AcDbSymbolTableRecord
100
AcDbLayerTableRecord
  2
1
 70
     0
 62
     4
  6
CONTINUOUS
370
    -3
390
1E91
  0
LAYER
  5
2188
102
{ACAD_XDICTIONARY
360
5BDF
102
}
330
2
100
AcDbSymbolTableRecord
100
AcDbLayerTableRecord
  2
4
 70
     0
 62
     7
  6
CONTINUOUS
370
    -3
390
1E91
  0
ENDTAB
  0
TABLE
  2
STYLE
  5
3
330
0
100
AcDbSymbolTable
 70
     1
  0
STYLE
  5
10
330
3
100
AcDbSymbolTableRecord
100
AcDbTextStyleTableRecord
  2
STANDARD
 70
     0
 40
0.0
 41
1.0
 50
15.0
 71
     0
 42
3.5
  3
C:\Program Files\AutoCAD LT\simplex.shx
  4
C:\Program Files\AutoCAD LT\extfont.shx
  0
ENDTAB
  0
TABLE
  2
VIEW
  5
6
330
0
100
AcDbSymbolTable
 70
     0
  0
ENDTAB
  0
TABLE
  2
UCS
  5
7
330
0
100
AcDbSymbolTable
 70
     0
  0
ENDTAB
  0
TABLE
  2
APPID
  5
9
330
0
100
AcDbSymbolTable
 70
     5
  0
APPID
  5
11
330
9
100
AcDbSymbolTableRecord
100
AcDbRegAppTableRecord
  2
ACAD
 70
     0
  0
APPID
  5
5A6F
330
9
100
AcDbSymbolTableRecord
100
AcDbRegAppTableRecord
  2
ACAD_EXEMPT_FROM_CAD_STANDARDS
 70
     0
  0
APPID
  5
5B70
330
9
100
AcDbSymbolTableRecord
100
AcDbRegAppTableRecord
  2
ACAD_NAV_VCDISPLAY
 70
     0
  0
APPID
  5
5B89
330
9
100
AcDbSymbolTableRecord
100
AcDbRegAppTableRecord
  2
AcadAnnoMonitorAlertIconDisabled
 70
     0
  0
APPID
  5
5C6B
330
9
100
AcDbSymbolTableRecord
100
AcDbRegAppTableRecord
  2
ACAD_MLEADERVER
 70
     0
  0
ENDTAB
  0
TABLE
  2
DIMSTYLE
  5
A
330
0
100
AcDbSymbolTable
 70
     3
100
AcDbDimStyleTable
 71
     2
340
1E99
340
1D
  0
DIMSTYLE
105
1D
330
A
100
AcDbSymbolTableRecord
100
AcDbDimStyleTableRecord
  2
STANDARD
 70
     0
340
10
  0
DIMSTYLE
105
1E99
102
{ACAD_REACTORS
330
34BF
330
34CE
330
3890
330
3894
330
3997
330
39B6
330
4449
330
4456
330
4463
330
4472
330
55ED
330
55EE
330
55EF
330
59F0
330
5B7C
330
5B9E
102
}
330
A
100
AcDbSymbolTableRecord
100
AcDbDimStyleTableRecord
  2
GOD
 70
     0
 40
15.0
 41
2.5
 42
1.0
 43
7.0
 44
1.0
 73
     0
 74
     0
 77
     1
 78
     8
140
3.0
141
0.0
143
0.03937
147
1.0
172
     1
173
     1
176
   256
177
   256
178
   256
271
     2
272
     2
284
     8
289
     0
340
10
341
1E7F
343
1E7F
344
1E7F
  0
DIMSTYLE
105
1EF1
330
A
100
AcDbSymbolTableRecord
100
AcDbDimStyleTableRecord
  2
IGA
 70
     0
 40
2.0
 41
2.0
 42
0.5
 43
10.0
 44
1.0
 47
1.0
 48
1.0
 73
     0
 74
     0
 77
     1
 78
     8
140
3.0
141
0.0
143
0.03937
146
10.0
147
1.0
173
     1
271
     1
272
     0
279
     2
284
     8
340
10
341
1E7F
343
1E7F
344
1E7F
  0
ENDTAB
  0
TABLE
  2
BLOCK_RECORD
  5
1
330
0
100
AcDbSymbolTable
 70
    30
  0
BLOCK_RECORD
  5
19
102
{ACAD_XDICTIONARY
360
5B53
102
}
330
1
100
AcDbSymbolTableRecord
100
AcDbBlockTableRecord
  2
*MODEL_SPACE
340
1E94
  0
BLOCK_RECORD
  5
16
330
1
100
AcDbSymbolTableRecord
100
AcDbBlockTableRecord
  2
*PAPER_SPACE
340
1E95
  0
BLOCK_RECORD
  5
1E7F
330
1
100
AcDbSymbolTableRecord
100
AcDbBlockTableRecord
  2
_OPEN
340
0
102
{BLKREFS
331
5B58
331
5B59
331
5B61
331
5B62
331
5B6A
331
5B6B
331
5B98
331
5B99
331
5BC4
331
5BC5
331
5617
331
5618
331
5620
331
5621
331
5629
331
562A
331
39B0
331
39B1
331
39C8
331
39C9
331
444E
331
444F
331
445B
331
445C
331
446A
331
446B
331
4477
331
4478
331
4E25
331
4E26
331
4E2E
331
4E2F
102
}
  0
BLOCK_RECORD
  5
1EB4
330
1
100
AcDbSymbolTableRecord
100
AcDbBlockTableRecord
  2
_Dot
340
0
  0
BLOCK_RECORD
  5
22E5
330
1
100
AcDbSymbolTableRecord
100
AcDbBlockTableRecord
  2
A$C5EBD6DA5
340
0
  0
BLOCK_RECORD
  5
34C0
330
1
100
AcDbSymbolTableRecord
100
AcDbBlockTableRecord
  2
*D3
340
0
  0
BLOCK_RECORD
  5
34CF
330
1
100
AcDbSymbolTableRecord
100
AcDbBlockTableRecord
  2
*D4
340
0
  0
BLOCK_RECORD
  5
3922
330
1
100
AcDbSymbolTableRecord
100
AcDbBlockTableRecord
  2
*D6
340
0
  0
BLOCK_RECORD
  5
392E
330
1
100
AcDbSymbolTableRecord
100
AcDbBlockTableRecord
  2
*D7
340
0
  0
BLOCK_RECORD
  5
3998
330
1
100
AcDbSymbolTableRecord
100
AcDbBlockTableRecord
  2
*D8
340
0
  0
BLOCK_RECORD
  5
39B7
330
1
100
AcDbSymbolTableRecord
100
AcDbBlockTableRecord
  2
*D9
340
0
  0
BLOCK_RECORD
  5
3F67
330
1
100
AcDbSymbolTableRecord
100
AcDbBlockTableRecord
  2
A$C2860434C
340
0
  0
BLOCK_RECORD
  5
444A
330
1
100
AcDbSymbolTableRecord
100
AcDbBlockTableRecord
  2
*D11
340
0
  0
BLOCK_RECORD
  5
4457
330
1
100
AcDbSymbolTableRecord
100
AcDbBlockTableRecord
  2
*D12
340
0
  0
BLOCK_RECORD
  5
4464
330
1
100
AcDbSymbolTableRecord
100
AcDbBlockTableRecord
  2
*D13
340
0
  0
BLOCK_RECORD
  5
4473
330
1
100
AcDbSymbolTableRecord
100
AcDbBlockTableRecord
  2
*D14
340
0
  0
BLOCK_RECORD
  5
55F0
330
1
100
AcDbSymbolTableRecord
100
AcDbBlockTableRecord
  2
*D16
340
0
  0
BLOCK_RECORD
  5
55FC
330
1
100
AcDbSymbolTableRecord
100
AcDbBlockTableRecord
  2
*D17
340
0
  0
BLOCK_RECORD
  5
5608
330
1
100
AcDbSymbolTableRecord
100
AcDbBlockTableRecord
  2
*D18
340
0
  0
BLOCK_RECORD
  5
59F1
330
1
100
AcDbSymbolTableRecord
100
AcDbBlockTableRecord
  2
*D19
340
0
  0
BLOCK_RECORD
  5
5B7D
330
1
100
AcDbSymbolTableRecord
100
AcDbBlockTableRecord
  2
*D28
340
0
  0
BLOCK_RECORD
  5
5B9F
330
1
100
AcDbSymbolTableRecord
100
AcDbBlockTableRecord
  2
*D29
340
0
  0
ENDTAB
  0
ENDSEC
  0
SECTION
  2
BLOCKS
  0
BLOCK
  5
1A
330
19
100
AcDbEntity
  8
0
100
AcDbBlockBegin
  2
*MODEL_SPACE
 70
     0
 10
0.0
 20
0.0
 30
0.0
  3
*MODEL_SPACE
  1

  0
ENDBLK
  5
1B
330
19
100
AcDbEntity
  8
0
100
AcDbBlockEnd
  0
BLOCK
  5
17
330
16
100
AcDbEntity
 67
     1
  8
0
100
AcDbBlockBegin
  2
*PAPER_SPACE
 70
     0
 10
0.0
 20
0.0
 30
0.0
  3
*PAPER_SPACE
  1

  0
ENDBLK
  5
18
330
16
100
AcDbEntity
 67
     1
  8
0
100
AcDbBlockEnd
  0
BLOCK
  5
1E80
330
1E7F
100
AcDbEntity
  8
0
100
AcDbBlockBegin
  2
_OPEN
 70
     0
 10
0.0
 20
0.0
 30
0.0
  3
_OPEN
  1

  0
LINE
  5
1E81
330
1E7F
100
AcDbEntity
  8
0
  6
ByBlock
 62
     0
100
AcDbLine
 10
-1.0
 20
0.1666666666666666
 30
0.0
 11
0.0
 21
0.0
 31
0.0
  0
LINE
  5
1E82
330
1E7F
100
AcDbEntity
  8
0
  6
ByBlock
 62
     0
100
AcDbLine
 10
0.0
 20
0.0
 30
0.0
 11
-1.0
 21
-0.1666666666666666
 31
0.0
  0
LINE
  5
1E83
330
1E7F
100
AcDbEntity
  8
0
  6
ByBlock
 62
     0
100
AcDbLine
 10
0.0
 20
0.0
 30
0.0
 11
-1.0
 21
0.0
 31
0.0
  0
ENDBLK
  5
1E84
330
1E7F
100
AcDbEntity
  8
0
100
AcDbBlockEnd
  0
BLOCK
  5
1EB7
330
1EB4
100
AcDbEntity
  8
0
100
AcDbBlockBegin
  2
_Dot
 70
     0
 10
0.0
 20
0.0
 30
0.0
  3
_Dot
  1

  0
LINE
  5
1EC3
330
1EB4
100
AcDbEntity
  8
0
  6
ByBlock
 62
     0
100
AcDbLine
 10
0.0
 20
0.0
 30
0.0
 11
-1.0
 21
-0.0000000000000284
 31
0.0
  0
LWPOLYLINE
  5
1EC4
330
1EB4
100
AcDbEntity
  8
0
  6
ByBlock
 62
     0
100
AcDbPolyline
 90
        2
 70
     1
 43
0.1666666666666666
 10
-0.0833333333333286
 20
-0.0000000000000284
 42
1.0
 10
0.0833333333333286
 20
-0.0000000000000284
 42
1.0
  0
ENDBLK
  5
1EB8
330
1EB4
100
AcDbEntity
  8
0
100
AcDbBlockEnd
  0
BLOCK
  5
22ED
330
22E5
100
AcDbEntity
  8
0
100
AcDbBlockBegin
  2
A$C5EBD6DA5
 70
     0
 10
0.0
 20
0.0
 30
0.0
  3
A$C5EBD6DA5
  1

  0
LWPOLYLINE
  5
22E6
330
22E5
100
AcDbEntity
  8
1
100
AcDbPolyline
 90
        2
 70
     0
 43
0.0
 10
8.000000000002728
 20
-181.5000000000009
 10
8.000000000000909
 20
181.5000000000009
  0
LINE
  5
22E7
330
22E5
100
AcDbEntity
  8
1
100
AcDbLine
 10
1.000000000000909
 20
182.5000000000009
 30
0.0
 11
7.000000000002728
 21
182.5000000000009
 31
0.0
  0
ARC
  5
22E8
330
22E5
100
AcDbEntity
  8
1
100
AcDbCircle
 10
1.000000000000909
 20
183.5000000000009
 30
0.0
 40
1.0
100
AcDbArc
 50
180.0
 51
270.0
  0
LINE
  5
22E9
330
22E5
100
AcDbEntity
  8
1
100
AcDbLine
 10
1.000000000000909
 20
-182.5000000000009
 30
0.0
 11
7.000000000002728
 21
-182.5000000000009
 31
0.0
  0
ARC
  5
22EA
330
22E5
100
AcDbEntity
  8
1
100
AcDbCircle
 10
1.000000000000909
 20
-183.5000000000009
 30
0.0
 40
1.0
100
AcDbArc
 50
90.0
 51
180.0
  0
ARC
  5
22EB
330
22E5
100
AcDbEntity
  8
1
100
AcDbCircle
 10
7.000000000000909
 20
-181.5000000000009
 30
0.0
 40
1.0
100
AcDbArc
 50
270.0
 51
0.0
  0
ARC
  5
22EC
330
22E5
100
AcDbEntity
  8
1
100
AcDbCircle
 10
7.000000000000909
 20
181.5000000000009
 30
0.0
 40
1.0
100
AcDbArc
 50
0.0
 51
90.0
  0
ENDBLK
  5
22EE
330
22E5
100
AcDbEntity
  8
0
100
AcDbBlockEnd
  0
BLOCK
  5
34CA
330
34C0
100
AcDbEntity
  8
0
100
AcDbBlockBegin
  2
*D3
 70
     1
 10
0.0
 20
0.0
 30
0.0
  3
*D3
  1

  0
LINE
  5
5B55
330
34C0
100
AcDbEntity
  8
SP
370
    -2
100
AcDbLine
 10
5528.175894304141
 20
4767.635294509084
 30
0.0
 11
5528.175894304141
 21
4872.75139915572
 31
0.0
  0
LINE
  5
5B56
330
34C0
100
AcDbEntity
  8
SP
370
    -2
100
AcDbLine
 10
5752.175894304141
 20
4767.635294509084
 30
0.0
 11
5752.175894304141
 21
4872.75139915572
 31
0.0
  0
LINE
  5
5B57
330
34C0
100
AcDbEntity
  8
SP
370
    -2
100
AcDbLine
 10
5565.675894304142
 20
4857.751399155721
 30
0.0
 11
5714.675894304141
 21
4857.751399155721
 31
0.0
  0
INSERT
  5
5B58
330
34C0
100
AcDbEntity
  8
SP
370
    -2
100
AcDbBlockReference
  2
_OPEN
 10
5528.175894304141
 20
4857.751399155721
 30
0.0
 41
37.5
 42
37.5
 43
37.5
 50
180.0
  0
INSERT
  5
5B59
330
34C0
100
AcDbEntity
  8
SP
370
    -2
100
AcDbBlockReference
  2
_OPEN
 10
5752.175894304141
 20
4857.751399155721
 30
0.0
 41
37.5
 42
37.5
 43
37.5
  0
MTEXT
  5
5B5A
330
34C0
100
AcDbEntity
  8
SP
100
AcDbMText
 10
5640.175894304142
 20
4895.251399155721
 30
0.0
 40
45.0
 41
0.0
 71
     5
 72
     1
  1
\A1;224
 73
     1
 44
1.0
1001
ACAD
1000
MTEXTBEGIN
1070
    73
1070
     1
1070
    44
1040
1.0
1070
    74
1070
     0
1000
MTEXTEND
  0
POINT
  5
5B5B
330
34C0
100
AcDbEntity
  8
Defpoints
 62
     0
100
AcDbPoint
 10
5528.175894304141
 20
4752.635294509084
 30
0.0
  0
POINT
  5
5B5C
330
34C0
100
AcDbEntity
  8
Defpoints
 62
     0
100
AcDbPoint
 10
5752.175894304141
 20
4752.635294509084
 30
0.0
  0
POINT
  5
5B5D
330
34C0
100
AcDbEntity
  8
Defpoints
 62
     0
100
AcDbPoint
 10
5752.175894304141
 20
4857.751399155721
 30
0.0
  0
ENDBLK
  5
34CB
330
34C0
100
AcDbEntity
  8
0
100
AcDbBlockEnd
  0
BLOCK
  5
34D9
330
34CF
100
AcDbEntity
  8
0
100
AcDbBlockBegin
  2
*D4
 70
     1
 10
0.0
 20
0.0
 30
0.0
  3
*D4
  1

  0
LINE
  5
5B5E
330
34CF
100
AcDbEntity
  8
SP
370
    -2
100
AcDbLine
 10
5640.175894304141
 20
4932.751399155721
 30
0.0
 11
5640.175894304141
 21
4977.635294509084
 31
0.0
  0
LINE
  5
5B5F
330
34CF
100
AcDbEntity
  8
SP
370
    -2
100
AcDbLine
 10
5761.175894304141
 20
4699.13529450908
 30
0.0
 11
5761.175894304141
 21
4977.635294509084
 31
0.0
  0
LINE
  5
5B60
330
34CF
100
AcDbEntity
  8
SP
370
    -2
100
AcDbLine
 10
5677.67589430414
 20
4962.635294509084
 30
0.0
 11
5723.675894304141
 21
4962.635294509084
 31
0.0
  0
INSERT
  5
5B61
330
34CF
100
AcDbEntity
  8
SP
370
    -2
100
AcDbBlockReference
  2
_OPEN
 10
5640.175894304141
 20
4962.635294509084
 30
0.0
 41
37.5
 42
37.5
 43
37.5
 50
180.0
  0
INSERT
  5
5B62
330
34CF
100
AcDbEntity
  8
SP
370
    -2
100
AcDbBlockReference
  2
_OPEN
 10
5761.175894304141
 20
4962.635294509084
 30
0.0
 41
37.5
 42
37.5
 43
37.5
  0
MTEXT
  5
5B63
330
34CF
100
AcDbEntity
  8
SP
100
AcDbMText
 10
5700.67589430414
 20
5000.135294509084
 30
0.0
 40
45.0
 41
0.0
 71
     5
 72
     1
  1
\A1;121
 73
     1
 44
1.0
1001
ACAD
1000
MTEXTBEGIN
1070
    73
1070
     1
1070
    44
1040
1.0
1070
    74
1070
     0
1000
MTEXTEND
  0
POINT
  5
5B64
330
34CF
100
AcDbEntity
  8
Defpoints
 62
     0
100
AcDbPoint
 10
5640.175894304141
 20
4917.75139915572
 30
0.0
  0
POINT
  5
5B65
330
34CF
100
AcDbEntity
  8
Defpoints
 62
     0
100
AcDbPoint
 10
5761.175894304141
 20
4684.13529450908
 30
0.0
  0
POINT
  5
5B66
330
34CF
100
AcDbEntity
  8
Defpoints
 62
     0
100
AcDbPoint
 10
5761.175894304141
 20
4962.635294509084
 30
0.0
  0
ENDBLK
  5
34DA
330
34CF
100
AcDbEntity
  8
0
100
AcDbBlockEnd
  0
BLOCK
  5
392C
330
3922
100
AcDbEntity
  8
0
100
AcDbBlockBegin
  2
*D6
 70
     1
 10
0.0
 20
0.0
 30
0.0
  3
*D6
  1

  0
LINE
  5
4E22
330
3922
100
AcDbEntity
  8
SP
370
    -2
100
AcDbLine
 10
4662.261118783407
 20
4502.635294509082
 30
0.0
 11
4748.997622829448
 21
4502.635294509082
 31
0.0
  0
LINE
  5
4E23
330
3922
100
AcDbEntity
  8
SP
370
    -2
100
AcDbLine
 10
4415.49762282945
 20
4752.635294509075
 30
0.0
 11
4748.997622829448
 21
4752.635294509075
 31
0.0
  0
LINE
  5
4E24
330
3922
100
AcDbEntity
  8
SP
370
    -2
100
AcDbLine
 10
4733.997622829448
 20
4540.135294509082
 30
0.0
 11
4733.997622829448
 21
4715.135294509075
 31
0.0
  0
INSERT
  5
4E25
330
3922
100
AcDbEntity
  8
SP
370
    -2
100
AcDbBlockReference
  2
_OPEN
 10
4733.997622829448
 20
4502.635294509082
 30
0.0
 41
37.5
 42
37.5
 43
37.5
 50
270.0
  0
INSERT
  5
4E26
330
3922
100
AcDbEntity
  8
SP
370
    -2
100
AcDbBlockReference
  2
_OPEN
 10
4733.997622829448
 20
4752.635294509075
 30
0.0
 41
37.5
 42
37.5
 43
37.5
 50
90.0
  0
MTEXT
  5
4E27
330
3922
100
AcDbEntity
  8
SP
100
AcDbMText
 10
4696.497622829448
 20
4627.63529450908
 30
0.0
 40
45.0
 41
0.0
 71
     5
 72
     1
  1
\A1;250
 11
0.0000000000000001
 21
1.0
 31
0.0
 73
     1
 44
1.0
1001
ACAD
1000
MTEXTBEGIN
1070
    73
1070
     1
1070
    44
1040
1.0
1070
    74
1070
     0
1000
MTEXTEND
  0
POINT
  5
4E28
330
3922
100
AcDbEntity
  8
Defpoints
 62
     0
100
AcDbPoint
 10
4647.261118783406
 20
4502.635294509082
 30
0.0
  0
POINT
  5
4E29
330
3922
100
AcDbEntity
  8
Defpoints
 62
     0
100
AcDbPoint
 10
4400.49762282945
 20
4752.635294509075
 30
0.0
  0
POINT
  5
4E2A
330
3922
100
AcDbEntity
  8
Defpoints
 62
     0
100
AcDbPoint
 10
4733.997622829448
 20
4752.635294509075
 30
0.0
  0
ENDBLK
  5
392D
330
3922
100
AcDbEntity
  8
0
100
AcDbBlockEnd
  0
BLOCK
  5
3938
330
392E
100
AcDbEntity
  8
0
100
AcDbBlockBegin
  2
*D7
 70
     1
 10
0.0
 20
0.0
 30
0.0
  3
*D7
  1

  0
LINE
  5
4E2B
330
392E
100
AcDbEntity
  8
SP
370
    -2
100
AcDbLine
 10
4643.997622829449
 20
4147.635294509082
 30
0.0
 11
4748.997622829438
 21
4147.635294509082
 31
0.0
  0
LINE
  5
4E2C
330
392E
100
AcDbEntity
  8
SP
370
    -2
100
AcDbLine
 10
4662.261118783407
 20
4502.635294509082
 30
0.0
 11
4748.997622829438
 21
4502.635294509082
 31
0.0
  0
LINE
  5
4E2D
330
392E
100
AcDbEntity
  8
SP
370
    -2
100
AcDbLine
 10
4733.997622829439
 20
4185.135294509082
 30
0.0
 11
4733.997622829439
 21
4465.135294509082
 31
0.0
  0
INSERT
  5
4E2E
330
392E
100
AcDbEntity
  8
SP
370
    -2
100
AcDbBlockReference
  2
_OPEN
 10
4733.997622829439
 20
4147.635294509082
 30
0.0
 41
37.5
 42
37.5
 43
37.5
 50
270.0
  0
INSERT
  5
4E2F
330
392E
100
AcDbEntity
  8
SP
370
    -2
100
AcDbBlockReference
  2
_OPEN
 10
4733.997622829439
 20
4502.635294509082
 30
0.0
 41
37.5
 42
37.5
 43
37.5
 50
90.0
  0
MTEXT
  5
4E30
330
392E
100
AcDbEntity
  8
SP
100
AcDbMText
 10
4696.497622829438
 20
4325.135294509083
 30
0.0
 40
45.0
 41
0.0
 71
     5
 72
     1
  1
\A1;355
 11
0.0000000000000001
 21
1.0
 31
0.0
 73
     1
 44
1.0
1001
ACAD
1000
MTEXTBEGIN
1070
    73
1070
     1
1070
    44
1040
1.0
1070
    74
1070
     0
1000
MTEXTEND
  0
POINT
  5
4E31
330
392E
100
AcDbEntity
  8
Defpoints
 62
     0
100
AcDbPoint
 10
4628.99762282945
 20
4147.635294509082
 30
0.0
  0
POINT
  5
4E32
330
392E
100
AcDbEntity
  8
Defpoints
 62
     0
100
AcDbPoint
 10
4647.261118783406
 20
4502.635294509082
 30
0.0
  0
POINT
  5
4E33
330
392E
100
AcDbEntity
  8
Defpoints
 62
     0
100
AcDbPoint
 10
4733.997622829439
 20
4502.635294509082
 30
0.0
  0
ENDBLK
  5
3939
330
392E
100
AcDbEntity
  8
0
100
AcDbBlockEnd
  0
BLOCK
  5
39A2
330
3998
100
AcDbEntity
  8
0
100
AcDbBlockBegin
  2
*D8
 70
     1
 10
0.0
 20
0.0
 30
0.0
  3
*D8
  1

  0
LINE
  5
39AD
330
3998
100
AcDbEntity
  8
SP
370
    -2
100
AcDbLine
 10
4063.997622829449
 20
4767.635294509086
 30
0.0
 11
4063.997622829449
 21
4872.635294509076
 31
0.0
  0
LINE
  5
39AE
330
3998
100
AcDbEntity
  8
SP
370
    -2
100
AcDbLine
 10
4378.997622829444
 20
4790.633820463165
 30
0.0
 11
4378.997622829444
 21
4872.635294509076
 31
0.0
  0
LINE
  5
39AF
330
3998
100
AcDbEntity
  8
SP
370
    -2
100
AcDbLine
 10
4101.497622829449
 20
4857.635294509076
 30
0.0
 11
4341.497622829444
 21
4857.635294509076
 31
0.0
  0
INSERT
  5
39B0
330
3998
100
AcDbEntity
  8
SP
370
    -2
100
AcDbBlockReference
  2
_OPEN
 10
4063.997622829449
 20
4857.635294509076
 30
0.0
 41
37.5
 42
37.5
 43
37.5
 50
180.0
  0
INSERT
  5
39B1
330
3998
100
AcDbEntity
  8
SP
370
    -2
100
AcDbBlockReference
  2
_OPEN
 10
4378.997622829444
 20
4857.635294509076
 30
0.0
 41
37.5
 42
37.5
 43
37.5
  0
MTEXT
  5
39B2
330
3998
100
AcDbEntity
  8
SP
100
AcDbMText
 10
4221.497622829447
 20
4895.135294509076
 30
0.0
 40
45.0
 41
0.0
 71
     5
 72
     1
  1
\A1;315
 73
     1
 44
1.0
1001
ACAD
1000
MTEXTBEGIN
1070
    73
1070
     1
1070
    44
1040
1.0
1070
    74
1070
     0
1000
MTEXTEND
  0
POINT
  5
39B3
330
3998
100
AcDbEntity
  8
Defpoints
 62
     0
100
AcDbPoint
 10
4063.997622829449
 20
4752.635294509087
 30
0.0
  0
POINT
  5
39B4
330
3998
100
AcDbEntity
  8
Defpoints
 62
     0
100
AcDbPoint
 10
4378.997622829444
 20
4775.633820463164
 30
0.0
  0
POINT
  5
39B5
330
3998
100
AcDbEntity
  8
Defpoints
 62
     0
100
AcDbPoint
 10
4378.997622829444
 20
4857.635294509076
 30
0.0
  0
ENDBLK
  5
39A3
330
3998
100
AcDbEntity
  8
0
100
AcDbBlockEnd
  0
BLOCK
  5
39C3
330
39B7
100
AcDbEntity
  8
0
100
AcDbBlockBegin
  2
*D9
 70
     1
 10
0.0
 20
0.0
 30
0.0
  3
*D9
  1

  0
LINE
  5
39C5
330
39B7
100
AcDbEntity
  8
SP
370
    -2
100
AcDbLine
 10
4378.997622829444
 20
4790.633820463165
 30
0.0
 11
4378.997622829444
 21
4872.635294509077
 31
0.0
  0
LINE
  5
39C6
330
39B7
100
AcDbEntity
  8
SP
370
    -2
100
AcDbLine
 10
4601.284842945918
 20
4494.781590644274
 30
0.0
 11
4601.284842945918
 21
4872.635294509077
 31
0.0
  0
LINE
  5
39C7
330
39B7
100
AcDbEntity
  8
SP
370
    -2
100
AcDbLine
 10
4416.497622829444
 20
4857.635294509076
 30
0.0
 11
4563.784842945918
 21
4857.635294509076
 31
0.0
  0
INSERT
  5
39C8
330
39B7
100
AcDbEntity
  8
SP
370
    -2
100
AcDbBlockReference
  2
_OPEN
 10
4378.997622829444
 20
4857.635294509076
 30
0.0
 41
37.5
 42
37.5
 43
37.5
 50
180.0
  0
INSERT
  5
39C9
330
39B7
100
AcDbEntity
  8
SP
370
    -2
100
AcDbBlockReference
  2
_OPEN
 10
4601.284842945918
 20
4857.635294509076
 30
0.0
 41
37.5
 42
37.5
 43
37.5
  0
MTEXT
  5
39CA
330
39B7
100
AcDbEntity
  8
SP
100
AcDbMText
 10
4490.141232887681
 20
4895.135294509077
 30
0.0
 40
45.0
 41
0.0
 71
     5
 72
     1
  1
\A1;222
 73
     1
 44
1.0
1001
ACAD
1000
MTEXTBEGIN
1070
    73
1070
     1
1070
    44
1040
1.0
1070
    74
1070
     0
1000
MTEXTEND
  0
POINT
  5
39CB
330
39B7
100
AcDbEntity
  8
Defpoints
 62
     0
100
AcDbPoint
 10
4378.997622829444
 20
4775.633820463164
 30
0.0
  0
POINT
  5
39CC
330
39B7
100
AcDbEntity
  8
Defpoints
 62
     0
100
AcDbPoint
 10
4601.284842945918
 20
4479.781590644273
 30
0.0
  0
POINT
  5
39CD
330
39B7
100
AcDbEntity
  8
Defpoints
 62
     0
100
AcDbPoint
 10
4601.284842945918
 20
4857.635294509076
 30
0.0
  0
ENDBLK
  5
39C4
330
39B7
100
AcDbEntity
  8
0
100
AcDbBlockEnd
  0
BLOCK
  5
3F70
330
3F67
100
AcDbEntity
  8
0
100
AcDbBlockBegin
  2
A$C2860434C
 70
     0
 10
0.0
 20
0.0
 30
0.0
  3
A$C2860434C
  1

  0
LINE
  5
3F68
330
3F67
100
AcDbEntity
  8
FUTO
100
AcDbLine
 10
46.80127011642617
 20
-0.0000088960860012
 30
0.0
 11
8.586023312103861
 21
70.14998454137458
 31
0.0
  0
LINE
  5
3F69
330
3F67
100
AcDbEntity
  8
FUTO
100
AcDbLine
 10
-0.0000161416137416
 20
53.3499845413753
 30
0.0
 11
1.599983858386622
 21
53.3499845413753
 31
0.0
  0
LINE
  5
3F6A
330
3F67
100
AcDbEntity
  8
FUTO
100
AcDbLine
 10
-0.0000161416137416
 20
53.3499845413753
 30
0.0
 11
-0.0000161416137416
 21
68.54998454137422
 31
0.0
  0
LINE
  5
3F6B
330
3F67
100
AcDbEntity
  8
FUTO
100
AcDbLine
 10
1.599983858386622
 20
53.3499845413753
 30
0.0
 11
1.599983858386622
 21
68.54998454137422
 31
0.0
  0
LINE
  5
3F6C
330
3F67
100
AcDbEntity
  8
FUTO
100
AcDbLine
 10
3.199983858386985
 20
70.14998454137458
 30
0.0
 11
91.76921462761674
 21
70.14998454137094
 31
0.0
  0
LINE
  5
3F6D
330
3F67
100
AcDbEntity
  8
FUTO
100
AcDbLine
 10
3.199983858386985
 20
71.74998454137313
 30
0.0
 11
92.79485565325741
 21
71.74998454137313
 31
0.0
  0
ARC
  5
3F6E
330
3F67
100
AcDbEntity
  8
FUTO
100
AcDbCircle
 10
3.199983858386985
 20
68.54998454137422
 30
0.0
 40
3.2
100
AcDbArc
 50
90.0
 51
180.0
  0
ARC
  5
3F6F
330
3F67
100
AcDbEntity
  8
FUTO
100
AcDbCircle
 10
3.199983858386985
 20
68.54998454137422
 30
0.0
 40
1.6
100
AcDbArc
 50
90.0
 51
180.0
  0
ENDBLK
  5
3F71
330
3F67
100
AcDbEntity
  8
0
100
AcDbBlockEnd
  0
BLOCK
  5
4454
330
444A
100
AcDbEntity
  8
0
100
AcDbBlockBegin
  2
*D11
 70
     1
 10
0.0
 20
0.0
 30
0.0
  3
*D11
  1

  0
LINE
  5
444B
330
444A
100
AcDbEntity
  8
SP
370
    -2
100
AcDbLine
 10
4128.997622829439
 20
5407.362935220169
 30
0.0
 11
4128.997622829439
 21
5301.28545370638
 31
0.0
  0
LINE
  5
444C
330
444A
100
AcDbEntity
  8
SP
370
    -2
100
AcDbLine
 10
4628.997622829439
 20
5407.362935220169
 30
0.0
 11
4628.997622829439
 21
5301.28545370638
 31
0.0
  0
LINE
  5
444D
330
444A
100
AcDbEntity
  8
SP
370
    -2
100
AcDbLine
 10
4166.497622829439
 20
5316.285453706379
 30
0.0
 11
4591.497622829439
 21
5316.285453706379
 31
0.0
  0
INSERT
  5
444E
330
444A
100
AcDbEntity
  8
SP
370
    -2
100
AcDbBlockReference
  2
_OPEN
 10
4128.997622829439
 20
5316.285453706379
 30
0.0
 41
37.5
 42
37.5
 43
37.5
 50
180.0
  0
INSERT
  5
444F
330
444A
100
AcDbEntity
  8
SP
370
    -2
100
AcDbBlockReference
  2
_OPEN
 10
4628.997622829439
 20
5316.285453706379
 30
0.0
 41
37.5
 42
37.5
 43
37.5
  0
MTEXT
  5
4450
330
444A
100
AcDbEntity
  8
SP
100
AcDbMText
 10
4378.997622829439
 20
5353.785453706379
 30
0.0
 40
45.0
 41
0.0
 71
     5
 72
     1
  1
\A1;500
 73
     1
 44
1.0
1001
ACAD
1000
MTEXTBEGIN
1070
    73
1070
     1
1070
    44
1040
1.0
1070
    74
1070
     0
1000
MTEXTEND
  0
POINT
  5
4451
330
444A
100
AcDbEntity
  8
Defpoints
 62
     0
100
AcDbPoint
 10
4128.997622829439
 20
5422.362935220169
 30
0.0
  0
POINT
  5
4452
330
444A
100
AcDbEntity
  8
Defpoints
 62
     0
100
AcDbPoint
 10
4628.997622829439
 20
5422.362935220169
 30
0.0
  0
POINT
  5
4453
330
444A
100
AcDbEntity
  8
Defpoints
 62
     0
100
AcDbPoint
 10
4628.997622829439
 20
5316.285453706379
 30
0.0
  0
ENDBLK
  5
4455
330
444A
100
AcDbEntity
  8
0
100
AcDbBlockEnd
  0
BLOCK
  5
4461
330
4457
100
AcDbEntity
  8
0
100
AcDbBlockBegin
  2
*D12
 70
     1
 10
0.0
 20
0.0
 30
0.0
  3
*D12
  1

  0
LINE
  5
4458
330
4457
100
AcDbEntity
  8
SP
370
    -2
100
AcDbLine
 10
4643.997622829439
 20
5732.362935220167
 30
0.0
 11
4768.315554715824
 21
5732.362935220167
 31
0.0
  0
LINE
  5
4459
330
4457
100
AcDbEntity
  8
SP
370
    -2
100
AcDbLine
 10
4643.997622829439
 20
5422.362935220169
 30
0.0
 11
4768.315554715824
 21
5422.362935220169
 31
0.0
  0
LINE
  5
445A
330
4457
100
AcDbEntity
  8
SP
370
    -2
100
AcDbLine
 10
4753.315554715824
 20
5694.862935220167
 30
0.0
 11
4753.315554715824
 21
5459.862935220169
 31
0.0
  0
INSERT
  5
445B
330
4457
100
AcDbEntity
  8
SP
370
    -2
100
AcDbBlockReference
  2
_OPEN
 10
4753.315554715824
 20
5732.362935220167
 30
0.0
 41
37.5
 42
37.5
 43
37.5
 50
90.0
  0
INSERT
  5
445C
330
4457
100
AcDbEntity
  8
SP
370
    -2
100
AcDbBlockReference
  2
_OPEN
 10
4753.315554715824
 20
5422.362935220169
 30
0.0
 41
37.5
 42
37.5
 43
37.5
 50
270.0
  0
MTEXT
  5
445D
330
4457
100
AcDbEntity
  8
SP
100
AcDbMText
 10
4715.815554715823
 20
5577.362935220168
 30
0.0
 40
45.0
 41
0.0
 71
     5
 72
     1
  1
\A1;310
 11
0.0000000000000001
 21
1.0
 31
0.0
 73
     1
 44
1.0
1001
ACAD
1000
MTEXTBEGIN
1070
    73
1070
     1
1070
    44
1040
1.0
1070
    74
1070
     0
1000
MTEXTEND
  0
POINT
  5
445E
330
4457
100
AcDbEntity
  8
Defpoints
 62
     0
100
AcDbPoint
 10
4628.997622829439
 20
5732.362935220167
 30
0.0
  0
POINT
  5
445F
330
4457
100
AcDbEntity
  8
Defpoints
 62
     0
100
AcDbPoint
 10
4628.997622829439
 20
5422.362935220169
 30
0.0
  0
POINT
  5
4460
330
4457
100
AcDbEntity
  8
Defpoints
 62
     0
100
AcDbPoint
 10
4753.315554715824
 20
5422.362935220169
 30
0.0
  0
ENDBLK
  5
4462
330
4457
100
AcDbEntity
  8
0
100
AcDbBlockEnd
  0
BLOCK
  5
4470
330
4464
100
AcDbEntity
  8
0
100
AcDbBlockBegin
  2
*D13
 70
     1
 10
0.0
 20
0.0
 30
0.0
  3
*D13
  1

  0
LINE
  5
4465
330
4464
100
AcDbEntity
  8
SP
370
    -2
100
AcDbLine
 10
4643.997622829443
 20
5732.362935220169
 30
0.0
 11
4768.315554715824
 21
5732.362935220169
 31
0.0
  0
LINE
  5
4466
330
4464
100
AcDbEntity
  8
SP
370
    -2
100
AcDbLine
 10
4640.081181786598
 20
5854.362935220169
 30
0.0
 11
4768.315554715824
 21
5854.362935220169
 31
0.0
  0
LINE
  5
4467
330
4464
100
AcDbEntity
  8
SP
370
    -2
100
AcDbLine
 10
4753.315554715824
 20
5694.862935220169
 30
0.0
 11
4753.315554715824
 21
5657.362935220169
 31
0.0
  0
LINE
  5
4468
330
4464
100
AcDbEntity
  8
SP
370
    -2
100
AcDbLine
 10
4753.315554715824
 20
5891.862935220169
 30
0.0
 11
4753.315554715824
 21
6064.362935220168
 31
0.0
  0
LINE
  5
4469
330
4464
100
AcDbEntity
  8
SP
370
    -2
100
AcDbLine
 10
4753.315554715824
 20
5732.362935220169
 30
0.0
 11
4753.315554715824
 21
5854.362935220169
 31
0.0
  0
INSERT
  5
446A
330
4464
100
AcDbEntity
  8
SP
370
    -2
100
AcDbBlockReference
  2
_OPEN
 10
4753.315554715824
 20
5732.362935220169
 30
0.0
 41
37.5
 42
37.5
 43
37.5
 50
90.0
  0
INSERT
  5
446B
330
4464
100
AcDbEntity
  8
SP
370
    -2
100
AcDbBlockReference
  2
_OPEN
 10
4753.315554715824
 20
5854.362935220169
 30
0.0
 41
37.5
 42
37.5
 43
37.5
 50
270.0
  0
MTEXT
  5
446C
330
4464
100
AcDbEntity
  8
SP
100
AcDbMText
 10
4715.815554715823
 20
5996.862935220169
 30
0.0
 40
45.0
 41
0.0
 71
     5
 72
     1
  1
\A1;122
 11
0.0000000000000001
 21
1.0
 31
0.0
 73
     1
 44
1.0
1001
ACAD
1000
MTEXTBEGIN
1070
    73
1070
     1
1070
    44
1040
1.0
1070
    74
1070
     0
1000
MTEXTEND
  0
POINT
  5
446D
330
4464
100
AcDbEntity
  8
Defpoints
 62
     0
100
AcDbPoint
 10
4628.997622829444
 20
5732.362935220169
 30
0.0
  0
POINT
  5
446E
330
4464
100
AcDbEntity
  8
Defpoints
 62
     0
100
AcDbPoint
 10
4625.081181786598
 20
5854.362935220169
 30
0.0
  0
POINT
  5
446F
330
4464
100
AcDbEntity
  8
Defpoints
 62
     0
100
AcDbPoint
 10
4753.315554715824
 20
5854.362935220169
 30
0.0
  0
ENDBLK
  5
4471
330
4464
100
AcDbEntity
  8
0
100
AcDbBlockEnd
  0
BLOCK
  5
447D
330
4473
100
AcDbEntity
  8
0
100
AcDbBlockBegin
  2
*D14
 70
     1
 10
0.0
 20
0.0
 30
0.0
  3
*D14
  1

  0
LINE
  5
4474
330
4473
100
AcDbEntity
  8
SP
370
    -2
100
AcDbLine
 10
5208.175894304141
 20
4132.635294509083
 30
0.0
 11
5208.175894304141
 21
4027.635294509082
 31
0.0
  0
LINE
  5
4475
330
4473
100
AcDbEntity
  8
SP
370
    -2
100
AcDbLine
 10
5518.175894304139
 20
4132.635294509083
 30
0.0
 11
5518.175894304139
 21
4027.635294509082
 31
0.0
  0
LINE
  5
4476
330
4473
100
AcDbEntity
  8
SP
370
    -2
100
AcDbLine
 10
5245.675894304142
 20
4042.635294509083
 30
0.0
 11
5480.675894304139
 21
4042.635294509083
 31
0.0
  0
INSERT
  5
4477
330
4473
100
AcDbEntity
  8
SP
370
    -2
100
AcDbBlockReference
  2
_OPEN
 10
5208.175894304141
 20
4042.635294509083
 30
0.0
 41
37.5
 42
37.5
 43
37.5
 50
180.0
  0
INSERT
  5
4478
330
4473
100
AcDbEntity
  8
SP
370
    -2
100
AcDbBlockReference
  2
_OPEN
 10
5518.175894304139
 20
4042.635294509083
 30
0.0
 41
37.5
 42
37.5
 43
37.5
  0
MTEXT
  5
4479
330
4473
100
AcDbEntity
  8
SP
100
AcDbMText
 10
5363.17589430414
 20
4080.135294509083
 30
0.0
 40
45.0
 41
0.0
 71
     5
 72
     1
  1
\A1;310
 73
     1
 44
1.0
1001
ACAD
1000
MTEXTBEGIN
1070
    73
1070
     1
1070
    44
1040
1.0
1070
    74
1070
     0
1000
MTEXTEND
  0
POINT
  5
447A
330
4473
100
AcDbEntity
  8
Defpoints
 62
     0
100
AcDbPoint
 10
5208.175894304141
 20
4147.635294509083
 30
0.0
  0
POINT
  5
447B
330
4473
100
AcDbEntity
  8
Defpoints
 62
     0
100
AcDbPoint
 10
5518.175894304139
 20
4147.635294509083
 30
0.0
  0
POINT
  5
447C
330
4473
100
AcDbEntity
  8
Defpoints
 62
     0
100
AcDbPoint
 10
5518.175894304139
 20
4042.635294509083
 30
0.0
  0
ENDBLK
  5
447E
330
4473
100
AcDbEntity
  8
0
100
AcDbBlockEnd
  0
BLOCK
  5
55FA
330
55F0
100
AcDbEntity
  8
0
100
AcDbBlockBegin
  2
*D16
 70
     1
 10
0.0
 20
0.0
 30
0.0
  3
*D16
  1

  0
LINE
  5
5614
330
55F0
100
AcDbEntity
  8
SP
370
    -2
100
AcDbLine
 10
4378.997622829452
 20
4102.479113442421
 30
0.0
 11
4378.997622829452
 21
4027.635294509084
 31
0.0
  0
LINE
  5
5615
330
55F0
100
AcDbEntity
  8
SP
370
    -2
100
AcDbLine
 10
4128.997622829459
 20
4132.635294509082
 30
0.0
 11
4128.997622829459
 21
4027.635294509084
 31
0.0
  0
LINE
  5
5616
330
55F0
100
AcDbEntity
  8
SP
370
    -2
100
AcDbLine
 10
4341.497622829452
 20
4042.635294509084
 30
0.0
 11
4166.497622829459
 21
4042.635294509084
 31
0.0
  0
INSERT
  5
5617
330
55F0
100
AcDbEntity
  8
SP
370
    -2
100
AcDbBlockReference
  2
_OPEN
 10
4378.997622829452
 20
4042.635294509084
 30
0.0
 41
37.5
 42
37.5
 43
37.5
  0
INSERT
  5
5618
330
55F0
100
AcDbEntity
  8
SP
370
    -2
100
AcDbBlockReference
  2
_OPEN
 10
4128.997622829459
 20
4042.635294509084
 30
0.0
 41
37.5
 42
37.5
 43
37.5
 50
180.0
  0
MTEXT
  5
5619
330
55F0
100
AcDbEntity
  8
SP
100
AcDbMText
 10
4253.997622829455
 20
4080.135294509084
 30
0.0
 40
45.0
 41
0.0
 71
     5
 72
     1
  1
\A1;250
 73
     1
 44
1.0
1001
ACAD
1000
MTEXTBEGIN
1070
    73
1070
     1
1070
    44
1040
1.0
1070
    74
1070
     0
1000
MTEXTEND
  0
POINT
  5
561A
330
55F0
100
AcDbEntity
  8
Defpoints
 62
     0
100
AcDbPoint
 10
4378.997622829452
 20
4117.479113442421
 30
0.0
  0
POINT
  5
561B
330
55F0
100
AcDbEntity
  8
Defpoints
 62
     0
100
AcDbPoint
 10
4128.997622829459
 20
4147.635294509082
 30
0.0
  0
POINT
  5
561C
330
55F0
100
AcDbEntity
  8
Defpoints
 62
     0
100
AcDbPoint
 10
4128.997622829459
 20
4042.635294509084
 30
0.0
  0
ENDBLK
  5
55FB
330
55F0
100
AcDbEntity
  8
0
100
AcDbBlockEnd
  0
BLOCK
  5
5606
330
55FC
100
AcDbEntity
  8
0
100
AcDbBlockBegin
  2
*D17
 70
     1
 10
0.0
 20
0.0
 30
0.0
  3
*D17
  1

  0
LINE
  5
561D
330
55FC
100
AcDbEntity
  8
SP
370
    -2
100
AcDbLine
 10
4128.997622829458
 20
4132.635294509082
 30
0.0
 11
4128.997622829458
 21
3922.635294509083
 31
0.0
  0
LINE
  5
561E
330
55FC
100
AcDbEntity
  8
SP
370
    -2
100
AcDbLine
 10
4628.997622829457
 20
4132.635294509082
 30
0.0
 11
4628.997622829457
 21
3922.635294509083
 31
0.0
  0
LINE
  5
561F
330
55FC
100
AcDbEntity
  8
SP
370
    -2
100
AcDbLine
 10
4166.497622829458
 20
3937.635294509082
 30
0.0
 11
4591.497622829456
 21
3937.635294509082
 31
0.0
  0
INSERT
  5
5620
330
55FC
100
AcDbEntity
  8
SP
370
    -2
100
AcDbBlockReference
  2
_OPEN
 10
4128.997622829458
 20
3937.635294509082
 30
0.0
 41
37.5
 42
37.5
 43
37.5
 50
180.0
  0
INSERT
  5
5621
330
55FC
100
AcDbEntity
  8
SP
370
    -2
100
AcDbBlockReference
  2
_OPEN
 10
4628.997622829457
 20
3937.635294509082
 30
0.0
 41
37.5
 42
37.5
 43
37.5
  0
MTEXT
  5
5622
330
55FC
100
AcDbEntity
  8
SP
100
AcDbMText
 10
4378.997622829458
 20
3975.135294509082
 30
0.0
 40
45.0
 41
0.0
 71
     5
 72
     1
  1
\A1;500
 73
     1
 44
1.0
1001
ACAD
1000
MTEXTBEGIN
1070
    73
1070
     1
1070
    44
1040
1.0
1070
    74
1070
     0
1000
MTEXTEND
  0
POINT
  5
5623
330
55FC
100
AcDbEntity
  8
Defpoints
 62
     0
100
AcDbPoint
 10
4128.997622829458
 20
4147.635294509082
 30
0.0
  0
POINT
  5
5624
330
55FC
100
AcDbEntity
  8
Defpoints
 62
     0
100
AcDbPoint
 10
4628.997622829457
 20
4147.635294509082
 30
0.0
  0
POINT
  5
5625
330
55FC
100
AcDbEntity
  8
Defpoints
 62
     0
100
AcDbPoint
 10
4628.997622829457
 20
3937.635294509082
 30
0.0
  0
ENDBLK
  5
5607
330
55FC
100
AcDbEntity
  8
0
100
AcDbBlockEnd
  0
BLOCK
  5
5612
330
5608
100
AcDbEntity
  8
0
100
AcDbBlockBegin
  2
*D18
 70
     1
 10
0.0
 20
0.0
 30
0.0
  3
*D18
  1

  0
LINE
  5
5626
330
5608
100
AcDbEntity
  8
SP
370
    -2
100
AcDbLine
 10
4378.997622829452
 20
4102.479113442421
 30
0.0
 11
4378.997622829452
 21
4027.635294509084
 31
0.0
  0
LINE
  5
5627
330
5608
100
AcDbEntity
  8
SP
370
    -2
100
AcDbLine
 10
4628.997622829457
 20
4132.635294509082
 30
0.0
 11
4628.997622829457
 21
4027.635294509084
 31
0.0
  0
LINE
  5
5628
330
5608
100
AcDbEntity
  8
SP
370
    -2
100
AcDbLine
 10
4416.497622829452
 20
4042.635294509084
 30
0.0
 11
4591.497622829456
 21
4042.635294509084
 31
0.0
  0
INSERT
  5
5629
330
5608
100
AcDbEntity
  8
SP
370
    -2
100
AcDbBlockReference
  2
_OPEN
 10
4378.997622829452
 20
4042.635294509084
 30
0.0
 41
37.5
 42
37.5
 43
37.5
 50
180.0
  0
INSERT
  5
562A
330
5608
100
AcDbEntity
  8
SP
370
    -2
100
AcDbBlockReference
  2
_OPEN
 10
4628.997622829457
 20
4042.635294509084
 30
0.0
 41
37.5
 42
37.5
 43
37.5
  0
MTEXT
  5
562B
330
5608
100
AcDbEntity
  8
SP
100
AcDbMText
 10
4503.997622829454
 20
4080.135294509084
 30
0.0
 40
45.0
 41
0.0
 71
     5
 72
     1
  1
\A1;250
 73
     1
 44
1.0
1001
ACAD
1000
MTEXTBEGIN
1070
    73
1070
     1
1070
    44
1040
1.0
1070
    74
1070
     0
1000
MTEXTEND
  0
POINT
  5
562C
330
5608
100
AcDbEntity
  8
Defpoints
 62
     0
100
AcDbPoint
 10
4378.997622829452
 20
4117.479113442421
 30
0.0
  0
POINT
  5
562D
330
5608
100
AcDbEntity
  8
Defpoints
 62
     0
100
AcDbPoint
 10
4628.997622829457
 20
4147.635294509082
 30
0.0
  0
POINT
  5
562E
330
5608
100
AcDbEntity
  8
Defpoints
 62
     0
100
AcDbPoint
 10
4628.997622829457
 20
4042.635294509084
 30
0.0
  0
ENDBLK
  5
5613
330
5608
100
AcDbEntity
  8
0
100
AcDbBlockEnd
  0
BLOCK
  5
59FB
330
59F1
100
AcDbEntity
  8
0
100
AcDbBlockBegin
  2
*D19
 70
     1
 10
0.0
 20
0.0
 30
0.0
  3
*D19
  1

  0
LINE
  5
5B67
330
59F1
100
AcDbEntity
  8
SP
370
    -2
100
AcDbLine
 10
5776.175894304142
 20
4660.135294509082
 30
0.0
 11
5889.841725328311
 21
4660.135294509082
 31
0.0
  0
LINE
  5
5B68
330
59F1
100
AcDbEntity
  8
SP
370
    -2
100
AcDbLine
 10
5776.175894304144
 20
4345.135294509082
 30
0.0
 11
5889.841725328311
 21
4345.135294509082
 31
0.0
  0
LINE
  5
5B69
330
59F1
100
AcDbEntity
  8
SP
370
    -2
100
AcDbLine
 10
5874.841725328312
 20
4622.635294509082
 30
0.0
 11
5874.841725328312
 21
4382.635294509082
 31
0.0
  0
INSERT
  5
5B6A
330
59F1
100
AcDbEntity
  8
SP
370
    -2
100
AcDbBlockReference
  2
_OPEN
 10
5874.841725328312
 20
4660.135294509082
 30
0.0
 41
37.5
 42
37.5
 43
37.5
 50
90.0
  0
INSERT
  5
5B6B
330
59F1
100
AcDbEntity
  8
SP
370
    -2
100
AcDbBlockReference
  2
_OPEN
 10
5874.841725328312
 20
4345.135294509082
 30
0.0
 41
37.5
 42
37.5
 43
37.5
 50
270.0
  0
MTEXT
  5
5B6C
330
59F1
100
AcDbEntity
  8
SP
100
AcDbMText
 10
5837.341725328311
 20
4502.63529450908
 30
0.0
 40
45.0
 41
0.0
 71
     5
 72
     1
  1
\A1;\U+03C6315
 11
0.0000000000000001
 21
1.0
 31
0.0
 73
     1
 44
1.0
1001
ACAD
1000
MTEXTBEGIN
1070
    73
1070
     1
1070
    44
1040
1.0
1070
    74
1070
     0
1000
MTEXTEND
  0
POINT
  5
5B6D
330
59F1
100
AcDbEntity
  8
Defpoints
 62
     0
100
AcDbPoint
 10
5761.175894304142
 20
4660.135294509082
 30
0.0
  0
POINT
  5
5B6E
330
59F1
100
AcDbEntity
  8
Defpoints
 62
     0
100
AcDbPoint
 10
5761.175894304145
 20
4345.135294509082
 30
0.0
  0
POINT
  5
5B6F
330
59F1
100
AcDbEntity
  8
Defpoints
 62
     0
100
AcDbPoint
 10
5874.841725328312
 20
4345.135294509082
 30
0.0
  0
ENDBLK
  5
59FC
330
59F1
100
AcDbEntity
  8
0
100
AcDbBlockEnd
  0
BLOCK
  5
5B7E
330
5B7D
100
AcDbEntity
  8
0
100
AcDbBlockBegin
  2
*D28
 70
     1
 10
0.0
 20
0.0
 30
0.0
  3
*D28
  1

  0
LINE
  5
5B95
330
5B7D
100
AcDbEntity
  8
SP
370
    -2
100
AcDbLine
 10
5640.175894304141
 20
4932.751399155721
 30
0.0
 11
5640.175894304141
 21
4977.635294509084
 31
0.0
  0
LINE
  5
5B96
330
5B7D
100
AcDbEntity
  8
SP
370
    -2
100
AcDbLine
 10
5219.17589430414
 20
4601.216194509083
 30
0.0
 11
5219.17589430414
 21
4977.635294509084
 31
0.0
  0
LINE
  5
5B97
330
5B7D
100
AcDbEntity
  8
SP
370
    -2
100
AcDbLine
 10
5602.675894304141
 20
4962.635294509084
 30
0.0
 11
5256.675894304141
 21
4962.635294509084
 31
0.0
  0
INSERT
  5
5B98
330
5B7D
100
AcDbEntity
  8
SP
370
    -2
100
AcDbBlockReference
  2
_OPEN
 10
5640.175894304141
 20
4962.635294509084
 30
0.0
 41
37.5
 42
37.5
 43
37.5
  0
INSERT
  5
5B99
330
5B7D
100
AcDbEntity
  8
SP
370
    -2
100
AcDbBlockReference
  2
_OPEN
 10
5219.17589430414
 20
4962.635294509084
 30
0.0
 41
37.5
 42
37.5
 43
37.5
 50
180.0
  0
MTEXT
  5
5B9A
330
5B7D
100
AcDbEntity
  8
SP
100
AcDbMText
 10
5429.67589430414
 20
5011.921008794798
 30
0.0
 40
45.0
 41
0.0
 71
     5
 72
     1
  1
\A1;(420)
 73
     1
 44
1.0
1001
ACAD
1000
MTEXTBEGIN
1070
    73
1070
     1
1070
    44
1040
1.0
1070
    74
1070
     0
1000
MTEXTEND
  0
POINT
  5
5B9B
330
5B7D
100
AcDbEntity
  8
Defpoints
 62
     0
100
AcDbPoint
 10
5640.175894304141
 20
4917.75139915572
 30
0.0
  0
POINT
  5
5B9C
330
5B7D
100
AcDbEntity
  8
Defpoints
 62
     0
100
AcDbPoint
 10
5219.17589430414
 20
4586.216194509083
 30
0.0
  0
POINT
  5
5B9D
330
5B7D
100
AcDbEntity
  8
Defpoints
 62
     0
100
AcDbPoint
 10
5219.17589430414
 20
4962.635294509084
 30
0.0
  0
ENDBLK
  5
5B7F
330
5B7D
100
AcDbEntity
  8
0
100
AcDbBlockEnd
  0
BLOCK
  5
5BA0
330
5B9F
100
AcDbEntity
  8
0
100
AcDbBlockBegin
  2
*D29
 70
     1
 10
0.0
 20
0.0
 30
0.0
  3
*D29
  1

  0
LINE
  5
5BBE
330
5B9F
100
AcDbEntity
  8
SP
370
    -2
100
AcDbLine
 10
5518.175894304139
 20
4132.635294509083
 30
0.0
 11
5518.175894304139
 21
4027.635294509082
 31
0.0
  0
LINE
  5
5BBF
330
5B9F
100
AcDbEntity
  8
SP
370
    -2
100
AcDbLine
 10
5640.175894304141
 20
4189.505763657423
 30
0.0
 11
5640.175894304141
 21
4027.635294509082
 31
0.0
  0
LINE
  5
5BC0
330
5B9F
100
AcDbEntity
  8
SP
370
    -2
100
AcDbLine
 10
5480.675894304139
 20
4042.635294509083
 30
0.0
 11
5443.17589430414
 21
4042.635294509083
 31
0.0
  0
LINE
  5
5BC1
330
5B9F
100
AcDbEntity
  8
SP
370
    -2
100
AcDbLine
 10
5677.67589430414
 20
4042.635294509083
 30
0.0
 11
5715.175894304141
 21
4042.635294509083
 31
0.0
  0
MTEXT
  5
5BC2
330
5B9F
100
AcDbEntity
  8
SP
100
AcDbMText
 10
5754.668223124841
 20
4081.514242687575
 30
0.0
 40
45.0
 41
0.0
 71
     5
 72
     1
  1
\A1;122
 73
     1
 44
1.0
1001
ACAD
1000
MTEXTBEGIN
1070
    73
1070
     1
1070
    44
1040
1.0
1070
    74
1070
     0
1000
MTEXTEND
  0
LINE
  5
5BC3
330
5B9F
100
AcDbEntity
  8
SP
370
    -2
100
AcDbLine
 10
5518.175894304139
 20
4042.635294509083
 30
0.0
 11
5640.175894304141
 21
4042.635294509083
 31
0.0
  0
INSERT
  5
5BC4
330
5B9F
100
AcDbEntity
  8
SP
370
    -2
100
AcDbBlockReference
  2
_OPEN
 10
5518.175894304139
 20
4042.635294509083
 30
0.0
 41
37.5
 42
37.5
 43
37.5
  0
INSERT
  5
5BC5
330
5B9F
100
AcDbEntity
  8
SP
370
    -2
100
AcDbBlockReference
  2
_OPEN
 10
5640.175894304141
 20
4042.635294509083
 30
0.0
 41
37.5
 42
37.5
 43
37.5
 50
180.0
  0
POINT
  5
5BC6
330
5B9F
100
AcDbEntity
  8
Defpoints
 62
     0
100
AcDbPoint
 10
5518.175894304139
 20
4147.635294509083
 30
0.0
  0
POINT
  5
5BC7
330
5B9F
100
AcDbEntity
  8
Defpoints
 62
     0
100
AcDbPoint
 10
5640.175894304141
 20
4204.505763657424
 30
0.0
  0
POINT
  5
5BC8
330
5B9F
100
AcDbEntity
  8
Defpoints
 62
     0
100
AcDbPoint
 10
5640.175894304141
 20
4042.635294509083
 30
0.0
  0
ENDBLK
  5
5BA1
330
5B9F
100
AcDbEntity
  8
0
100
AcDbBlockEnd
  0
ENDSEC
  0
SECTION
  2
ENTITIES
  0
TEXT
  5
2515
330
19
100
AcDbEntity
  8
4
100
AcDbText
 10
4825.579458413316
 20
3298.549168161949
 30
0.0
 40
75.0
  1
MF＃2-7
100
AcDbText
  0
TEXT
  5
2516
330
19
100
AcDbEntity
  8
4
100
AcDbText
 10
4610.159554355879
 20
6397.953053740807
 30
0.0
 40
80.99999999999999
  1
床置ベッド型
100
AcDbText
  0
TEXT
  5
2517
330
19
100
AcDbEntity
  8
4
100
AcDbText
 10
4812.115833266592
 20
3456.667445178387
 30
0.0
 40
75.0
  1
ミツヤ多翼送風機
100
AcDbText
  0
LINE
  5
2518
330
19
100
AcDbEntity
  8
4
100
AcDbLine
 10
3345.597715035096
 20
7247.809791742034
 30
0.0
 11
6495.597715035096
 21
7247.809791742034
 31
0.0
  0
LINE
  5
2519
330
19
100
AcDbEntity
  8
4
100
AcDbLine
 10
3720.597715035096
 20
6826.922923139242
 30
0.0
 11
6120.597715035096
 21
6826.922923139242
 31
0.0
  0
LINE
  5
251A
330
19
100
AcDbEntity
  8
4
100
AcDbLine
 10
3720.597715035096
 20
6526.922923139242
 30
0.0
 11
6120.597715035096
 21
6526.922923139242
 31
0.0
  0
TEXT
  5
251B
330
19
100
AcDbEntity
  8
4
100
AcDbText
 10
4077.692070952385
 20
6623.63125604098
 30
0.0
 40
108.0
  1
遠心式片吸込直動形多翼ファン
100
AcDbText
  0
LINE
  5
251C
330
19
100
AcDbEntity
  8
4
100
AcDbLine
 10
6495.597715035096
 20
2822.809791742034
 30
0.0
 11
3345.597715035096
 21
2822.809791742034
 31
0.0
  0
LINE
  5
251D
330
19
100
AcDbEntity
  8
4
100
AcDbLine
 10
4020.597715035095
 20
3572.809791742034
 30
0.0
 11
5820.597715035095
 21
3572.809791742034
 31
0.0
  0
LINE
  5
251E
330
19
100
AcDbEntity
  8
4
100
AcDbLine
 10
4020.597715035095
 20
3422.809791742034
 30
0.0
 11
5820.597715035095
 21
3422.809791742034
 31
0.0
  0
LINE
  5
251F
330
19
100
AcDbEntity
  8
4
100
AcDbLine
 10
4020.597715035095
 20
3272.809791742034
 30
0.0
 11
5820.597715035095
 21
3272.809791742034
 31
0.0
  0
LINE
  5
2521
330
19
100
AcDbEntity
  8
4
100
AcDbLine
 10
3345.597715035096
 20
2822.809791742034
 30
0.0
 11
3345.597715035096
 21
7247.809791742034
 31
0.0
  0
TEXT
  5
2523
330
19
100
AcDbEntity
  8
4
100
AcDbText
 10
4074.984874072291
 20
3305.27752684005
 30
0.0
 40
75.0
  1
機器型番
100
AcDbText
  0
TEXT
  5
2524
330
19
100
AcDbEntity
  8
4
100
AcDbText
 10
4078.350836305448
 20
3470.124330541953
 30
0.0
 40
75.0
  1
機器名称
100
AcDbText
  0
LINE
  5
2525
330
19
100
AcDbEntity
  8
4
100
AcDbLine
 10
4020.597715035095
 20
3572.809791742034
 30
0.0
 11
4020.597715035095
 21
3272.809791742034
 31
0.0
  0
LINE
  5
2526
330
19
100
AcDbEntity
  8
4
100
AcDbLine
 10
4770.597715035095
 20
3572.809791742034
 30
0.0
 11
4770.597715035095
 21
3272.809791742034
 31
0.0
  0
TEXT
  5
2527
330
19
100
AcDbEntity
  8
4
100
AcDbText
 10
3818.48108722505
 20
6396.289008061549
 30
0.0
 40
80.99999999999999
  1
右回転上向
100
AcDbText
  0
LINE
  5
2528
330
19
100
AcDbEntity
  8
4
100
AcDbLine
 10
3720.597715035096
 20
6826.922923139242
 30
0.0
 11
3720.597715035096
 21
6526.922923139242
 31
0.0
  0
LINE
  5
2606
330
19
100
AcDbEntity
  8
4
100
AcDbLine
 10
6495.597715035096
 20
7247.809791742034
 30
0.0
 11
6495.597715035096
 21
2822.809791742034
 31
0.0
  0
LINE
  5
2607
330
19
100
AcDbEntity
  8
4
100
AcDbLine
 10
5820.597715035095
 20
3572.809791742034
 30
0.0
 11
5820.597715035097
 21
3272.809791742034
 31
0.0
  0
LINE
  5
2609
330
19
100
AcDbEntity
  8
4
100
AcDbLine
 10
6120.597715035096
 20
6844.705166430135
 30
0.0
 11
5506.523848574892
 21
6844.705166430135
 31
0.0
  0
LINE
  5
260A
330
19
100
AcDbEntity
  8
4
100
AcDbLine
 10
5506.523848574892
 20
7002.788184066663
 30
0.0
 11
6120.597715035096
 21
7002.788184066663
 31
0.0
  0
TEXT
  5
260B
330
19
100
AcDbEntity
  8
4
100
AcDbText
 10
5399.987632465126
 20
6397.953053740807
 30
0.0
 40
80.99999999999999
  1
縮尺：1/15
100
AcDbText
  0
TEXT
  5
2659
330
19
100
AcDbEntity
  8
4
100
AcDbText
 10
5549.05205390903
 20
6881.901413984997
 30
0.0
 40
84.00000000000002
  1
No.
100
AcDbText
  0
LINE
  5
265A
330
19
100
AcDbEntity
  8
4
100
AcDbLine
 10
5506.523848574892
 20
6844.705166430135
 30
0.0
 11
5506.523848574892
 21
7002.788184066663
 31
0.0
  0
LINE
  5
265B
330
19
100
AcDbEntity
  8
4
100
AcDbLine
 10
6120.597715035096
 20
6826.922923139242
 30
0.0
 11
6120.597715035096
 21
6526.922923139242
 31
0.0
  0
LINE
  5
265C
330
19
100
AcDbEntity
  8
4
100
AcDbLine
 10
6120.597715035096
 20
7002.788184066663
 30
0.0
 11
6120.597715035096
 21
6844.705166430135
 31
0.0
  0
LINE
  5
265D
330
19
100
AcDbEntity
  8
4
100
AcDbLine
 10
6495.597715035096
 20
7247.809791742034
 30
0.0
 11
6495.597715035096
 21
7247.809791742034
 31
0.0
  0
LINE
  5
3404
330
19
100
AcDbEntity
  8
2
100
AcDbLine
 10
4022.512748144669
 20
5854.362935220169
 30
0.0
 11
4625.081181786598
 21
5854.362935220169
 31
0.0
1001
ACAD
1000
ASC_BOUNDS
1002
{
1070
    19
1005
0
1005
0
1002
}
  0
LINE
  5
3414
330
19
100
AcDbEntity
  8
1
100
AcDbLine
 10
4400.49762282929
 20
5967.362935220165
 30
0.0
 11
4586.997622829441
 21
5967.362935220169
 31
0.0
  0
LINE
  5
3415
330
19
100
AcDbEntity
  8
1
100
AcDbLine
 10
4400.12498326276
 20
5741.362935220171
 30
0.0
 11
4586.997622829442
 21
5741.362935220169
 31
0.0
  0
LINE
  5
341A
330
19
100
AcDbEntity
  8
2
100
AcDbLine
 10
4378.997622829444
 20
5393.259398171078
 30
0.0
 11
4378.997622829438
 21
6048.10375393326
 31
0.0
  0
LINE
  5
345C
330
19
100
AcDbEntity
  8
1
100
AcDbLine
 10
4601.997622829442
 20
5756.362935220169
 30
0.0
 11
4601.997622829441
 21
5952.362935220168
 31
0.0
  0
ARC
  5
345D
330
19
100
AcDbEntity
  8
1
100
AcDbCircle
 10
4586.997622829442
 20
5756.362935220169
 30
0.0
 40
15.0
100
AcDbArc
 50
270.0
 51
0.0
  0
ARC
  5
3463
330
19
100
AcDbEntity
  8
1
100
AcDbCircle
 10
4586.997622829441
 20
5952.362935220168
 30
0.0
 40
15.0
100
AcDbArc
 50
0.0
 51
90.0
  0
LINE
  5
346B
330
19
100
AcDbEntity
  8
2
100
AcDbLine
 10
5805.047914351157
 20
4502.63529450908
 30
0.0
 11
5177.787773737561
 21
4502.63529450908
 31
0.0
  0
LINE
  5
346C
330
19
100
AcDbEntity
  8
1
100
AcDbLine
 10
5507.175894304142
 20
4752.635294509084
 30
0.0
 11
5773.175894304141
 21
4752.635294509084
 31
0.0
  0
LINE
  5
346D
330
19
100
AcDbEntity
  8
1
100
AcDbLine
 10
5545.975894304141
 20
4732.635294509083
 30
0.0
 11
5734.37589430414
 21
4732.635294509083
 31
0.0
  0
LINE
  5
346E
330
19
100
AcDbEntity
  8
1
100
AcDbLine
 10
5507.17589430414
 20
4751.435294509084
 30
0.0
 11
5773.175894304142
 21
4751.435294509084
 31
0.0
  0
LINE
  5
346F
330
19
100
AcDbEntity
  8
1
100
AcDbLine
 10
5542.17589430414
 20
4238.404012875246
 30
0.0
 11
5738.17589430414
 21
4238.404012875247
 31
0.0
  0
LINE
  5
348D
330
19
100
AcDbEntity
  8
2
100
AcDbLine
 10
5640.175894304141
 20
4839.821085121053
 30
0.0
 11
5640.175894304141
 21
4204.505763657424
 31
0.0
1001
ACAD
1000
ASC_BOUNDS
1002
{
1070
    19
1005
0
1005
0
1002
}
  0
ARC
  5
3493
330
19
100
AcDbEntity
  8
1
100
AcDbCircle
 10
5542.17589430414
 20
4253.404012875246
 30
0.0
 40
15.0
100
AcDbArc
 50
180.0
 51
270.0
  0
LINE
  5
349F
330
19
100
AcDbEntity
  8
1
100
AcDbLine
 10
5528.175894304141
 20
4752.635294509084
 30
0.0
 11
5528.175894304141
 21
4253.404012875246
 31
0.0
  0
LINE
  5
34A0
330
19
100
AcDbEntity
  8
1
100
AcDbLine
 10
5527.175894304141
 20
4752.635294509084
 30
0.0
 11
5527.175894304141
 21
4253.404012875246
 31
0.0
  0
LINE
  5
34A7
330
19
100
AcDbEntity
  8
1
100
AcDbLine
 10
5527.175894304141
 20
4751.435294509084
 30
0.0
 11
5545.975894304141
 21
4732.635294509083
 31
0.0
  0
LINE
  5
34A8
330
19
100
AcDbEntity
  8
1
100
AcDbLine
 10
5507.175894304142
 20
4752.635294509084
 30
0.0
 11
5507.175894304142
 21
4751.435294509084
 31
0.0
1001
ACAD
1000
ASC_BOUNDS
1002
{
1070
    19
1002
}
  0
ARC
  5
34AA
330
19
100
AcDbEntity
  8
1
100
AcDbCircle
 10
5738.17589430414
 20
4253.404012875248
 30
0.0
 40
15.0
100
AcDbArc
 50
270.0
 51
0.0
  0
LINE
  5
34AB
330
19
100
AcDbEntity
  8
1
100
AcDbLine
 10
5752.175894304141
 20
4752.635294509084
 30
0.0
 11
5752.175894304141
 21
4253.404012875248
 31
0.0
  0
LINE
  5
34AC
330
19
100
AcDbEntity
  8
1
100
AcDbLine
 10
5753.175894304142
 20
4752.635294509084
 30
0.0
 11
5753.175894304142
 21
4253.404012875248
 31
0.0
  0
LINE
  5
34BD
330
19
100
AcDbEntity
  8
1
100
AcDbLine
 10
5753.175894304142
 20
4751.435294509084
 30
0.0
 11
5734.37589430414
 21
4732.635294509083
 31
0.0
  0
LINE
  5
34BE
330
19
100
AcDbEntity
  8
1
100
AcDbLine
 10
5773.175894304141
 20
4752.635294509084
 30
0.0
 11
5773.175894304141
 21
4751.435294509084
 31
0.0
1001
ACAD
1000
ASC_BOUNDS
1002
{
1070
    19
1002
}
  0
DIMENSION
  5
34BF
330
19
100
AcDbEntity
  8
SP
100
AcDbDimension
  2
*D3
 10
5752.175894304141
 20
4857.751399155721
 30
0.0
 11
5640.175894304142
 21
4895.251399155721
 31
0.0
 70
    32
 71
     5
 42
224.0
  3
GOD
100
AcDbAlignedDimension
 13
5528.175894304141
 23
4752.635294509084
 33
0.0
 14
5752.175894304141
 24
4752.635294509084
 34
0.0
100
AcDbRotatedDimension
  0
DIMENSION
  5
34CE
330
19
100
AcDbEntity
  8
SP
100
AcDbDimension
  2
*D4
 10
5761.175894304141
 20
4962.635294509084
 30
0.0
 11
5700.67589430414
 21
5000.135294509084
 31
0.0
 70
    32
 71
     5
 42
121.0
  3
GOD
100
AcDbAlignedDimension
 13
5640.175894304141
 23
4917.75139915572
 33
0.0
 14
5761.175894304141
 24
4684.13529450908
 34
0.0
100
AcDbRotatedDimension
  0
LWPOLYLINE
  5
388B
330
19
100
AcDbEntity
  8
1
100
AcDbPolyline
 90
        3
 70
     0
 43
0.0
 10
4053.997622829448
 20
4732.635294509086
 10
4053.997622829443
 20
4528.123117770398
 42
0.2269714708976296
 10
4167.743804945274
 20
4291.924574773659
  0
LWPOLYLINE
  5
388C
330
19
100
AcDbEntity
  8
1
100
AcDbPolyline
 90
        3
 70
     0
 43
0.0
 10
4063.997622829449
 20
4752.635294509087
 10
4063.997622829443
 20
4528.135294509087
 42
0.2269607506063405
 10
4173.997622829445
 20
4299.727763985234
 42
0.129402372482195
  0
LINE
  5
388F
330
19
100
AcDbEntity
  8
1
100
AcDbLine
 10
4081.397622829451
 20
4732.635294509084
 30
0.0
 11
4362.59762282945
 21
4732.635294509077
 31
0.0
  0
DIMENSION
  5
3890
330
19
100
AcDbEntity
  8
SP
100
AcDbDimension
  2
*D6
 10
4733.997622829448
 20
4752.635294509075
 30
0.0
 11
4696.497622829448
 21
4627.63529450908
 31
0.0
 70
    32
 71
     5
 42
249.9999999999936
  3
GOD
100
AcDbAlignedDimension
 13
4647.261118783406
 23
4502.635294509082
 33
0.0
 14
4400.49762282945
 24
4752.635294509075
 34
0.0
 50
90.0
100
AcDbRotatedDimension
  0
LINE
  5
3891
330
19
100
AcDbEntity
  8
2
100
AcDbLine
 10
4378.997622829444
 20
4117.47911344242
 30
0.0
 11
4378.997622829444
 21
4775.633820463164
 31
0.0
  0
DIMENSION
  5
3894
330
19
100
AcDbEntity
  8
SP
100
AcDbDimension
  2
*D7
 10
4733.997622829439
 20
4502.635294509082
 30
0.0
 11
4696.497622829438
 21
4325.135294509083
 31
0.0
 70
    32
 71
     5
 42
355.0
  3
GOD
100
AcDbAlignedDimension
 13
4628.99762282945
 23
4147.635294509082
 33
0.0
 14
4647.261118783406
 24
4502.635294509082
 34
0.0
 50
90.0
100
AcDbRotatedDimension
  0
LWPOLYLINE
  5
38A2
330
19
100
AcDbEntity
  8
1
100
AcDbPolyline
 90
        3
 70
     0
 43
0.0
 10
4167.847335366839
 20
4291.84271711617
 42
0.2162335382726867
 10
4408.798459977418
 20
4233.767804699402
 42
0.1298839697351506
 10
4524.767118339886
 20
4290.052838736391
 42
0.1298839697351506
  0
LWPOLYLINE
  5
38A3
330
19
100
AcDbEntity
  8
1
100
AcDbPolyline
 90
        2
 70
     0
 43
0.0
 10
4391.661886443441
 20
4728.146201512522
 42
0.0934525219043797
 10
4411.552038121852
 20
4707.635294509077
 42
0.1987366729981355
  0
LWPOLYLINE
  5
38A4
330
19
100
AcDbEntity
  8
1
100
AcDbPolyline
 90
        2
 70
     0
 43
0.0
 10
4395.852714483021
 20
4707.635294509077
 42
0.1315967463597435
 10
4435.39205283746
 20
4686.007754752177
 42
0.2200089805681688
  0
ARC
  5
38A5
330
19
100
AcDbEntity
  8
1
100
AcDbCircle
 10
4378.997622829436
 20
4502.635294509082
 30
0.0
 40
100.8
100
AcDbArc
 50
285.7971000000011
 51
0.0
  0
ARC
  5
38A6
330
19
100
AcDbEntity
  8
1
100
AcDbCircle
 10
4378.997622829436
 20
4502.635294509082
 30
0.0
 40
100.8
100
AcDbArc
 50
0.0
 51
254.5723000000003
  0
LWPOLYLINE
  5
38A7
330
19
100
AcDbEntity
  8
1
100
AcDbPolyline
 90
        3
 70
     0
 43
0.0
 10
4173.997622829445
 20
4299.727763985234
 42
0.2162148363065116
 10
4406.895439637497
 20
4243.585083232438
 42
0.1298622998199493
 10
4518.247427821519
 20
4297.635294509073
 42
0.3153658436290411
  0
CIRCLE
  5
38A8
330
19
100
AcDbEntity
  8
CT
100
AcDbCircle
 10
4378.997622829436
 20
4502.635294509082
 30
0.0
 40
169.0
  0
LWPOLYLINE
  5
38A9
330
19
100
AcDbEntity
  8
1
100
AcDbPolyline
 90
        3
 70
     0
 43
0.0
 10
4593.287878319
 20
4385.956880409293
 42
0.1343314877425494
 10
4608.240909655643
 20
4518.953423502833
 42
0.3163064660587118
 10
4437.252247134625
 20
4695.833214627018
 42
0.3163064660587118
  0
LINE
  5
38AA
330
19
100
AcDbEntity
  8
1
100
AcDbLine
 10
4406.615322829437
 20
4405.635294509082
 30
0.0
 11
4351.728222829437
 21
4405.635294509082
 31
0.0
  0
LWPOLYLINE
  5
38AD
330
19
100
AcDbEntity
  8
1
100
AcDbPolyline
 90
        3
 70
     0
 43
0.0
 10
4583.997622829445
 20
4389.657036208551
 42
0.1343280102757561
 10
4598.361467038651
 20
4517.40531978937
 42
0.3163019945347412
 10
4435.367255877718
 20
4686.012481051496
 42
0.3153658436290411
  0
LWPOLYLINE
  5
38AE
330
19
100
AcDbEntity
  8
1
100
AcDbPolyline
 90
        2
 70
     0
 43
0.0
 10
4524.815042780209
 20
4290.094310902517
 42
0.1174780416237576
 10
4593.259917911412
 20
4385.88743545853
 42
0.1174780416237576
  0
LINE
  5
38AF
330
19
100
AcDbEntity
  8
CT
100
AcDbLine
 10
4333.057242323755
 20
4331.183460342773
 30
0.0
 11
4337.16667810881
 21
4346.52008348304
 31
0.0
  0
LWPOLYLINE
  5
38B1
330
19
100
AcDbEntity
  8
1
100
AcDbPolyline
 90
        2
 70
     0
 43
0.0
 10
4518.247427821517
 20
4297.635294509074
 42
0.1174780416237573
 10
4583.997622829445
 20
4389.657036208552
 42
0.3153658436290411
  0
CIRCLE
  5
38B3
330
19
100
AcDbEntity
  8
1
100
AcDbCircle
 10
4335.257204207127
 20
4339.393829866231
 30
0.0
 40
4.0
  0
LINE
  5
38B4
330
19
100
AcDbEntity
  8
CT
100
AcDbLine
 10
4298.997622829437
 20
4416.015794509081
 30
0.0
 11
4298.997622829437
 21
4398.668694509082
 31
0.0
  0
LINE
  5
38B5
330
19
100
AcDbEntity
  8
1
100
AcDbLine
 10
4318.795122829437
 20
4421.746494509082
 30
0.0
 11
4312.562622829437
 21
4415.513994509081
 31
0.0
  0
ARC
  5
38B6
330
19
100
AcDbEntity
  8
1
100
AcDbCircle
 10
4310.441222829437
 20
4417.635294509081
 30
0.0
 40
3.0
100
AcDbArc
 50
270.0
 51
315.0
  0
LINE
  5
38B7
330
19
100
AcDbEntity
  8
1
100
AcDbLine
 10
4325.547222829437
 20
4417.184994509081
 30
0.0
 11
4318.997622829437
 21
4410.635294509082
 31
0.0
  0
ARC
  5
38B8
330
19
100
AcDbEntity
  8
1
100
AcDbCircle
 10
4316.997622829437
 20
4412.635294509082
 30
0.0
 40
2.0
100
AcDbArc
 50
0.0
 51
90.0
  0
LINE
  5
38B9
330
19
100
AcDbEntity
  8
1
100
AcDbLine
 10
4318.997622829437
 20
4402.635294509082
 30
0.0
 11
4318.997622829437
 21
4412.635294509082
 31
0.0
  0
LINE
  5
38BA
330
19
100
AcDbEntity
  8
1
100
AcDbLine
 10
4304.997622829437
 20
4402.635294509082
 30
0.0
 11
4304.997622829437
 21
4414.635294509081
 31
0.0
  0
LINE
  5
38BB
330
19
100
AcDbEntity
  8
1
100
AcDbLine
 10
4292.997622829437
 20
4414.635294509081
 30
0.0
 11
4292.997622829437
 21
4402.635294509082
 31
0.0
  0
ARC
  5
38BC
330
19
100
AcDbEntity
  8
1
100
AcDbCircle
 10
4280.997622829437
 20
4412.635294509082
 30
0.0
 40
2.0
100
AcDbArc
 50
90.0
 51
180.0
  0
LINE
  5
38BD
330
19
100
AcDbEntity
  8
1
100
AcDbLine
 10
4278.997622829437
 20
4402.635294509082
 30
0.0
 11
4278.997622829437
 21
4412.635294509082
 31
0.0
  0
LINE
  5
38BE
330
19
100
AcDbEntity
  8
1
100
AcDbLine
 10
4279.889822829438
 20
4414.303394509082
 30
0.0
 11
4296.290622829437
 21
4444.965394509082
 31
0.0
  0
LINE
  5
38BF
330
19
100
AcDbEntity
  8
1
100
AcDbLine
 10
4278.997622829437
 20
4402.635294509082
 30
0.0
 11
4318.997622829437
 21
4402.635294509082
 31
0.0
  0
LINE
  5
38C0
330
19
100
AcDbEntity
  8
1
100
AcDbLine
 10
4280.997622829437
 20
4414.635294509081
 30
0.0
 11
4316.997622829437
 21
4414.635294509081
 31
0.0
  0
LINE
  5
38C1
330
19
100
AcDbEntity
  8
CT
100
AcDbLine
 10
4253.48616916884
 20
4377.123840848464
 30
0.0
 11
4264.713356524052
 21
4388.351028203676
 31
0.0
  0
CIRCLE
  5
38C2
330
19
100
AcDbEntity
  8
1
100
AcDbCircle
 10
4259.496576808925
 20
4383.134248488551
 30
0.0
 40
4.0
  0
LINE
  5
38C3
330
19
100
AcDbEntity
  8
CT
100
AcDbLine
 10
4207.545788663141
 20
4456.694914003377
 30
0.0
 11
4222.882411803408
 21
4460.804349788433
 31
0.0
  0
CIRCLE
  5
38C4
330
19
100
AcDbEntity
  8
1
100
AcDbCircle
 10
4215.756158186599
 20
4458.89487588675
 30
0.0
 40
4.0
  0
LINE
  5
38C7
330
19
100
AcDbEntity
  8
CT
100
AcDbLine
 10
4424.938003335149
 20
4331.183460342776
 30
0.0
 11
4420.828567550095
 21
4346.520083483043
 31
0.0
  0
LINE
  5
38CA
330
19
100
AcDbEntity
  8
CT
100
AcDbLine
 10
4550.449456995754
 20
4456.694914003391
 30
0.0
 11
4535.112833855487
 21
4460.804349788448
 31
0.0
  0
CIRCLE
  5
38CB
330
19
100
AcDbEntity
  8
1
100
AcDbCircle
 10
4542.239087472297
 20
4458.894875886764
 30
0.0
 40
4.0
  0
LINE
  5
38CC
330
19
100
AcDbEntity
  8
CT
100
AcDbLine
 10
4504.509076490061
 20
4377.123840848477
 30
0.0
 11
4493.281889134848
 21
4388.351028203689
 31
0.0
  0
CIRCLE
  5
38CD
330
19
100
AcDbEntity
  8
1
100
AcDbCircle
 10
4498.498668849975
 20
4383.134248488562
 30
0.0
 40
4.0
  0
LINE
  5
38CE
330
19
100
AcDbEntity
  8
CT
100
AcDbLine
 10
4458.997622829437
 20
4416.015794509081
 30
0.0
 11
4458.997622829437
 21
4398.668694509082
 31
0.0
  0
ARC
  5
38CF
330
19
100
AcDbEntity
  8
1
100
AcDbCircle
 10
4476.997622829437
 20
4412.635294509082
 30
0.0
 40
2.0
100
AcDbArc
 50
0.0
 51
90.0
  0
LINE
  5
38D0
330
19
100
AcDbEntity
  8
1
100
AcDbLine
 10
4464.997622829437
 20
4414.635294509081
 30
0.0
 11
4464.997622829437
 21
4402.635294509082
 31
0.0
  0
LINE
  5
38D1
330
19
100
AcDbEntity
  8
1
100
AcDbLine
 10
4478.997622829437
 20
4402.635294509082
 30
0.0
 11
4478.997622829437
 21
4412.635294509082
 31
0.0
  0
LINE
  5
38D2
330
19
100
AcDbEntity
  8
1
100
AcDbLine
 10
4452.997622829437
 20
4402.635294509082
 30
0.0
 11
4452.997622829437
 21
4414.635294509081
 31
0.0
  0
LINE
  5
38D3
330
19
100
AcDbEntity
  8
1
100
AcDbLine
 10
4477.906822829437
 20
4414.674794509082
 30
0.0
 11
4461.788122829437
 21
4444.809094509081
 31
0.0
  0
LINE
  5
38D4
330
19
100
AcDbEntity
  8
1
100
AcDbLine
 10
4432.744222829438
 20
4416.888794509082
 30
0.0
 11
4438.997622829437
 21
4410.635294509082
 31
0.0
  0
ARC
  5
38D5
330
19
100
AcDbEntity
  8
1
100
AcDbCircle
 10
4440.997622829438
 20
4412.635294509082
 30
0.0
 40
2.0
100
AcDbArc
 50
90.0
 51
180.0
  0
LINE
  5
38D6
330
19
100
AcDbEntity
  8
1
100
AcDbLine
 10
4438.997622829437
 20
4402.635294509082
 30
0.0
 11
4438.997622829437
 21
4412.635294509082
 31
0.0
  0
LINE
  5
38D7
330
19
100
AcDbEntity
  8
1
100
AcDbLine
 10
4439.579722829437
 20
4421.366994509081
 30
0.0
 11
4445.432622829438
 21
4415.513994509081
 31
0.0
  0
ARC
  5
38D8
330
19
100
AcDbEntity
  8
1
100
AcDbCircle
 10
4447.554022829438
 20
4417.635294509081
 30
0.0
 40
3.0
100
AcDbArc
 50
225.0
 51
270.0
  0
CIRCLE
  5
38D9
330
19
100
AcDbEntity
  8
1
100
AcDbCircle
 10
4422.738041451777
 20
4339.393829866234
 30
0.0
 40
4.0
  0
LINE
  5
38DA
330
19
100
AcDbEntity
  8
1
100
AcDbLine
 10
4478.997622829437
 20
4402.635294509082
 30
0.0
 11
4438.997622829437
 21
4402.635294509082
 31
0.0
  0
LINE
  5
38DB
330
19
100
AcDbEntity
  8
1
100
AcDbLine
 10
4476.997622829437
 20
4414.635294509081
 30
0.0
 11
4440.997622829438
 21
4414.635294509081
 31
0.0
  0
LWPOLYLINE
  5
38DD
330
19
100
AcDbEntity
  8
1
100
AcDbPolyline
 90
        2
 70
     0
 43
0.0
 10
4411.552038121852
 20
4707.635294509077
 42
0.0941668855597806
 10
4437.757789920353
 20
4695.72389020073
 42
0.1987366729981355
  0
LINE
  5
38DF
330
19
100
AcDbEntity
  8
2
100
AcDbLine
 10
3989.962899804494
 20
4502.635294509082
 30
0.0
 11
4647.261118783406
 21
4502.635294509082
 31
0.0
  0
LINE
  5
38E1
330
19
100
AcDbEntity
  8
CT
100
AcDbLine
 10
4207.545788663135
 20
4548.575675014771
 30
0.0
 11
4222.882411803403
 21
4544.466239229715
 31
0.0
  0
CIRCLE
  5
38E2
330
19
100
AcDbEntity
  8
1
100
AcDbCircle
 10
4215.756158186592
 20
4546.375713131399
 30
0.0
 40
4.0
  0
LINE
  5
38E3
330
19
100
AcDbEntity
  8
CT
100
AcDbLine
 10
4333.057242323739
 20
4674.087128675387
 30
0.0
 11
4337.166678108795
 21
4658.750505535119
 31
0.0
  0
CIRCLE
  5
38E4
330
19
100
AcDbEntity
  8
1
100
AcDbCircle
 10
4335.257204207112
 20
4665.87675915193
 30
0.0
 40
4.0
  0
LINE
  5
38E5
330
19
100
AcDbEntity
  8
CT
100
AcDbLine
 10
4253.486169168827
 20
4628.146748169687
 30
0.0
 11
4264.71335652404
 21
4616.919560814475
 31
0.0
  0
CIRCLE
  5
38E6
330
19
100
AcDbEntity
  8
1
100
AcDbCircle
 10
4259.496576808913
 20
4622.136340529601
 30
0.0
 40
4.0
  0
POINT
  5
38E7
330
19
100
AcDbEntity
  8
1
100
AcDbPoint
 10
4221.497622829444
 20
4752.635294509093
 30
0.0
  0
POINT
  5
38E8
330
19
100
AcDbEntity
  8
1
100
AcDbPoint
 10
4221.497622829444
 20
4752.635294509093
 30
0.0
  0
LINE
  5
38EA
330
19
100
AcDbEntity
  8
CT
100
AcDbLine
 10
4550.449456995749
 20
4548.575675014786
 30
0.0
 11
4535.112833855483
 21
4544.466239229732
 31
0.0
  0
CIRCLE
  5
38EB
330
19
100
AcDbEntity
  8
1
100
AcDbCircle
 10
4542.239087472291
 20
4546.375713131416
 30
0.0
 40
4.0
  0
LWPOLYLINE
  5
38EC
330
19
100
AcDbEntity
  8
FUTO
100
AcDbPolyline
 90
        2
 70
     0
 43
0.0
 10
4400.49762282945
 20
4752.635294509075
 10
4400.49762282945
 20
4751.435294509075
  0
LWPOLYLINE
  5
38ED
330
19
100
AcDbEntity
  8
CT
100
AcDbPolyline
 90
        2
 70
     0
 43
0.0
 10
4390.49762282945
 20
4757.698457724074
 10
4390.497622829449
 20
4745.430147440128
  0
ARC
  5
38EE
330
19
100
AcDbEntity
  8
1
100
AcDbCircle
 10
4378.997622829449
 20
4747.635294509079
 30
0.0
 40
1.0
100
AcDbArc
 50
0.0
 51
143.130102354195
  0
POINT
  5
38EF
330
19
100
AcDbEntity
  8
1
100
AcDbPoint
 10
4378.997622829449
 20
4752.635294509075
 30
0.0
  0
LINE
  5
38F0
330
19
100
AcDbEntity
  8
1
100
AcDbLine
 10
4379.997622829455
 20
4732.635294509076
 30
0.0
 11
4383.317432956286
 21
4732.635294509074
 31
0.0
  0
LINE
  5
38F1
330
19
100
AcDbEntity
  8
1
100
AcDbLine
 10
4379.997622829448
 20
4752.635294509078
 30
0.0
 11
4379.997622829448
 21
4731.635294509078
 31
0.0
  0
LINE
  5
38F2
330
19
100
AcDbEntity
  8
1
100
AcDbLine
 10
4378.297622829452
 20
4748.335294509076
 30
0.0
 11
4362.597622829452
 21
4732.635294509077
 31
0.0
  0
LWPOLYLINE
  5
38F3
330
19
100
AcDbEntity
  8
1
100
AcDbPolyline
 90
        3
 70
     0
 43
0.0
 10
4379.997622829448
 20
4731.635294509078
 42
0.101266720201501
 10
4381.122977813058
 20
4726.135884022314
 42
0.0681921917069782
 10
4395.852714483021
 20
4707.635294509077
 42
0.2200089805681688
  0
ARC
  5
38F4
330
19
100
AcDbEntity
  8
1
100
AcDbCircle
 10
4383.31743295628
 20
4722.635294509078
 30
0.0
 40
10.0
100
AcDbArc
 50
33.4418717894809
 51
90.0
  0
LINE
  5
38F5
330
19
100
AcDbEntity
  8
CT
100
AcDbLine
 10
4504.50907649005
 20
4628.146748169698
 30
0.0
 11
4493.281889134838
 21
4616.919560814486
 31
0.0
  0
CIRCLE
  5
38F6
330
19
100
AcDbEntity
  8
1
100
AcDbCircle
 10
4498.498668849964
 20
4622.136340529612
 30
0.0
 40
4.0
  0
LINE
  5
38F7
330
19
100
AcDbEntity
  8
CT
100
AcDbLine
 10
4424.938003335133
 20
4674.087128675392
 30
0.0
 11
4420.828567550078
 21
4658.750505535125
 31
0.0
  0
CIRCLE
  5
38F8
330
19
100
AcDbEntity
  8
1
100
AcDbCircle
 10
4422.738041451761
 20
4665.876759151934
 30
0.0
 40
4.0
  0
LINE
  5
38FA
330
19
100
AcDbEntity
  8
FUTO
100
AcDbLine
 10
4053.997622829448
 20
4732.635294509086
 30
0.0
 11
4063.997622829448
 21
4732.635294509086
 31
0.0
  0
ARC
  5
38FB
330
19
100
AcDbEntity
  8
1
100
AcDbCircle
 10
4064.99762282945
 20
4747.635294509087
 30
0.0
 40
1.0
100
AcDbArc
 50
36.86989764580494
 51
180.0
  0
LINE
  5
38FC
330
19
100
AcDbEntity
  8
1
100
AcDbLine
 10
4065.697622829449
 20
4748.335294509085
 30
0.0
 11
4081.397622829451
 21
4732.635294509084
 31
0.0
  0
LWPOLYLINE
  5
38FD
330
19
100
AcDbEntity
  8
CT
100
AcDbPolyline
 90
        2
 70
     0
 43
0.0
 10
4052.49762282945
 20
4757.698457724083
 10
4052.497622829449
 20
4745.430147440138
  0
LINE
  5
3992
330
19
100
AcDbEntity
  8
FUTO
100
AcDbLine
 10
4400.49762282945
 20
4752.635294509075
 30
0.0
 11
4042.49762282945
 21
4752.635294509087
 31
0.0
  0
LINE
  5
3993
330
19
100
AcDbEntity
  8
FUTO
100
AcDbLine
 10
4042.49762282945
 20
4752.635294509087
 30
0.0
 11
4042.497622829449
 21
4751.435294509086
 31
0.0
  0
LINE
  5
3994
330
19
100
AcDbEntity
  8
FUTO
100
AcDbLine
 10
4042.497622829449
 20
4751.435294509086
 30
0.0
 11
4400.497622829449
 21
4751.435294509075
 31
0.0
  0
DIMENSION
  5
3997
330
19
100
AcDbEntity
  8
SP
100
AcDbDimension
  2
*D8
 10
4378.997622829444
 20
4857.635294509076
 30
0.0
 11
4221.497622829447
 21
4895.135294509076
 31
0.0
 70
    32
 71
     5
 42
314.9999999999955
  3
GOD
100
AcDbAlignedDimension
 13
4063.997622829449
 23
4752.635294509087
 33
0.0
 14
4378.997622829444
 24
4775.633820463164
 34
0.0
100
AcDbRotatedDimension
  0
DIMENSION
  5
39B6
330
19
100
AcDbEntity
  8
SP
100
AcDbDimension
  2
*D9
 10
4601.284842945918
 20
4857.635294509076
 30
0.0
 11
4490.141232887681
 21
4895.135294509077
 31
0.0
 70
    32
 71
     5
 42
222.2872201164737
  3
GOD
100
AcDbAlignedDimension
 13
4378.997622829444
 23
4775.633820463164
 33
0.0
 14
4601.284842945918
 24
4479.781590644273
 34
0.0
100
AcDbRotatedDimension
1001
ACAD
1000
DSTYLE
1002
{
1070
   271
1070
     0
1002
}
  0
LINE
  5
39D8
330
19
100
AcDbEntity
  8
FUTO
100
AcDbLine
 10
4400.497622829449
 20
5962.362935220169
 30
0.0
 11
4400.497622829449
 21
5746.362935220169
 31
0.0
  0
LINE
  5
39D9
330
19
100
AcDbEntity
  8
FUTO
100
AcDbLine
 10
4042.497622829449
 20
5746.362935220169
 30
0.0
 11
4042.497622829449
 21
5962.362935220169
 31
0.0
  0
LINE
  5
39DB
330
19
100
AcDbEntity
  8
FUTO
100
AcDbLine
 10
4067.497622829448
 20
5987.362935220168
 30
0.0
 11
4375.497622829448
 21
5987.362935220168
 31
0.0
1001
ACAD
1000
ASC_BOUNDS
1002
{
1070
    19
1005
0
1005
0
1002
}
  0
LINE
  5
39DC
330
19
100
AcDbEntity
  8
FUTO
100
AcDbLine
 10
4067.497622829448
 20
5721.362935220168
 30
0.0
 11
4375.497622829448
 21
5721.362935220168
 31
0.0
1001
ACAD
1000
ASC_BOUNDS
1002
{
1070
    19
1005
0
1005
0
1002
}
  0
ARC
  5
39DD
330
19
100
AcDbEntity
  8
FUTO
100
AcDbCircle
 10
4067.497622829449
 20
5746.36293522017
 30
0.0
 40
25.0
100
AcDbArc
 50
180.000000000002
 51
269.999999999999
  0
ARC
  5
39DE
330
19
100
AcDbEntity
  8
FUTO
100
AcDbCircle
 10
4067.497622829449
 20
5962.362935220166
 30
0.0
 40
25.0
100
AcDbArc
 50
90.00000000000104
 51
179.9999999999958
  0
ARC
  5
39DF
330
19
100
AcDbEntity
  8
FUTO
100
AcDbCircle
 10
4375.497622829451
 20
5962.36293522017
 30
0.0
 40
25.0
100
AcDbArc
 50
359.9999999999979
 51
90.00000000000417
  0
ARC
  5
39E0
330
19
100
AcDbEntity
  8
FUTO
100
AcDbCircle
 10
4375.497622829448
 20
5746.362935220169
 30
0.0
 40
25.0
100
AcDbArc
 50
270.0
 51
0.0
  0
LINE
  5
39E1
330
19
100
AcDbEntity
  8
FUTO
100
AcDbLine
 10
4077.49762282945
 20
5967.362935220169
 30
0.0
 11
4365.497622829449
 21
5967.362935220169
 31
0.0
1001
ACAD
1000
ASC_BOUNDS
1002
{
1070
    19
1005
0
1005
0
1002
}
  0
LINE
  5
39E2
330
19
100
AcDbEntity
  8
FUTO
100
AcDbLine
 10
4077.497622829449
 20
5741.362935220169
 30
0.0
 11
4365.497622829449
 21
5741.362935220169
 31
0.0
1001
ACAD
1000
ASC_BOUNDS
1002
{
1070
    19
1005
0
1005
0
1002
}
  0
LINE
  5
39E3
330
19
100
AcDbEntity
  8
FUTO
100
AcDbLine
 10
4062.497622829449
 20
5756.362935220169
 30
0.0
 11
4062.497622829449
 21
5952.362935220168
 31
0.0
  0
LINE
  5
39E4
330
19
100
AcDbEntity
  8
FUTO
100
AcDbLine
 10
4380.497622829449
 20
5952.362935220168
 30
0.0
 11
4380.497622829449
 21
5756.362935220169
 31
0.0
  0
ARC
  5
39E5
330
19
100
AcDbEntity
  8
FUTO
100
AcDbCircle
 10
4077.49762282945
 20
5952.362935220168
 30
0.0
 40
15.0
100
AcDbArc
 50
90.0
 51
180.0
  0
ARC
  5
39E6
330
19
100
AcDbEntity
  8
FUTO
100
AcDbCircle
 10
4077.497622829449
 20
5756.362935220169
 30
0.0
 40
15.0
100
AcDbArc
 50
179.9999999999998
 51
270.0
  0
ARC
  5
39E7
330
19
100
AcDbEntity
  8
FUTO
100
AcDbCircle
 10
4365.497622829449
 20
5756.362935220169
 30
0.0
 40
15.0
100
AcDbArc
 50
270.0
 51
0.0
  0
ARC
  5
39E8
330
19
100
AcDbEntity
  8
FUTO
100
AcDbCircle
 10
4365.497622829449
 20
5952.362935220168
 30
0.0
 40
15.0
100
AcDbArc
 50
0.0
 51
90.0
  0
LINE
  5
39E9
330
19
100
AcDbEntity
  8
HOSO
100
AcDbLine
 10
4066.891021111651
 20
5962.969536937967
 30
0.0
 11
4376.104224547247
 21
5745.75633350237
 31
0.0
  0
LINE
  5
39EA
330
19
100
AcDbEntity
  8
HOSO
100
AcDbLine
 10
4066.891021111651
 20
5745.75633350237
 30
0.0
 11
4376.104224547247
 21
5962.969536937967
 31
0.0
  0
LINE
  5
43AD
330
19
100
AcDbEntity
  8
1
100
AcDbLine
 10
5269.17589430414
 20
4406.635294509082
 30
0.0
 11
5269.17589430414
 21
4601.935294509083
 31
0.0
  0
LINE
  5
43AE
330
19
100
AcDbEntity
  8
1
100
AcDbLine
 10
5309.17589430414
 20
4603.435294509083
 30
0.0
 11
5309.17589430414
 21
4452.635294509081
 31
0.0
  0
LINE
  5
43AF
330
19
100
AcDbEntity
  8
1
100
AcDbLine
 10
5219.17589430414
 20
4419.082394509082
 30
0.0
 11
5219.17589430414
 21
4586.216194509083
 31
0.0
  0
LINE
  5
43B0
330
19
100
AcDbEntity
  8
FUTO
100
AcDbLine
 10
5267.652777280168
 20
4311.773623687134
 30
0.0
 11
5220.054953484717
 21
4399.146787701623
 31
0.0
  0
LINE
  5
43B1
330
19
100
AcDbEntity
  8
1
100
AcDbLine
 10
5269.17589430414
 20
4406.635294509082
 30
0.0
 11
5220.589194304141
 21
4417.324394509082
 31
0.0
  0
LINE
  5
43B2
330
19
100
AcDbEntity
  8
FUTO
100
AcDbLine
 10
5211.975894304142
 20
4401.546787701621
 30
0.0
 11
5300.729762781842
 21
4401.546787701621
 31
0.0
  0
LINE
  5
43B3
330
19
100
AcDbEntity
  8
FUTO
100
AcDbLine
 10
5211.975894304142
 20
4399.146787701623
 30
0.0
 11
5299.845481091701
 21
4399.14678770162
 31
0.0
  0
LINE
  5
43B4
330
19
100
AcDbEntity
  8
FUTO
100
AcDbLine
 10
5207.17589430414
 20
4373.946787701625
 30
0.0
 11
5207.17589430414
 21
4396.746787701623
 31
0.0
  0
LINE
  5
43B5
330
19
100
AcDbEntity
  8
FUTO
100
AcDbLine
 10
5209.575894304141
 20
4373.946787701625
 30
0.0
 11
5209.575894304141
 21
4396.746787701623
 31
0.0
  0
ARC
  5
43B6
330
19
100
AcDbEntity
  8
FUTO
100
AcDbCircle
 10
5211.975894304142
 20
4396.746787701623
 30
0.0
 40
4.8
100
AcDbArc
 50
89.99999999999998
 51
180.0
  0
ARC
  5
43B7
330
19
100
AcDbEntity
  8
FUTO
100
AcDbCircle
 10
5211.975894304142
 20
4396.746787701623
 30
0.0
 40
2.4
100
AcDbArc
 50
89.99999999999998
 51
180.0
  0
LINE
  5
43B8
330
19
100
AcDbEntity
  8
FUTO
100
AcDbLine
 10
5207.17589430414
 20
4373.946787701625
 30
0.0
 11
5209.575894304141
 21
4373.946787701625
 31
0.0
  0
ARC
  5
43B9
330
19
100
AcDbEntity
  8
1
100
AcDbCircle
 10
5220.975694304141
 20
4419.082194509083
 30
0.0
 40
1.7998
100
AcDbArc
 50
179.9961000000213
 51
257.5983000000071
  0
LINE
  5
43BA
330
19
100
AcDbEntity
  8
1
100
AcDbLine
 10
5295.17589430414
 20
4405.635294509082
 30
0.0
 11
5295.17589430414
 21
4443.635294509082
 31
0.0
  0
ARC
  5
43BB
330
19
100
AcDbEntity
  8
1
100
AcDbCircle
 10
5270.175994304139
 20
4406.635294509082
 30
0.0
 40
1.000099999999999
100
AcDbArc
 50
180.0
 51
269.9965000000103
  0
LINE
  5
43BC
330
19
100
AcDbEntity
  8
1
100
AcDbLine
 10
5295.17589430414
 20
4405.635294509082
 30
0.0
 11
5270.175894304141
 21
4405.635294509082
 31
0.0
  0
LINE
  5
43BD
330
19
100
AcDbEntity
  8
1
100
AcDbLine
 10
5295.076394304141
 20
4417.635294509081
 30
0.0
 11
5306.657584444987
 21
4417.635294509081
 31
0.0
  0
LINE
  5
43BE
330
19
100
AcDbEntity
  8
1
100
AcDbLine
 10
5295.17589430414
 20
4443.635294509082
 30
0.0
 11
5309.17589430414
 21
4452.635294509081
 31
0.0
  0
LINE
  5
43BF
330
19
100
AcDbEntity
  8
1
100
AcDbLine
 10
5269.17589430414
 20
4599.635294509082
 30
0.0
 11
5220.555794304141
 21
4587.966494509083
 31
0.0
  0
ARC
  5
43C0
330
19
100
AcDbEntity
  8
1
100
AcDbCircle
 10
5220.97579430414
 20
4586.216294509082
 30
0.0
 40
1.7999
100
AcDbArc
 50
103.4933999999954
 51
180.0018999999831
  0
LINE
  5
43C1
330
19
100
AcDbEntity
  8
1
100
AcDbLine
 10
5309.007594304141
 20
4589.075994509083
 30
0.0
 11
5316.836194304141
 21
4602.635294509082
 31
0.0
  0
ARC
  5
43C2
330
19
100
AcDbEntity
  8
1
100
AcDbCircle
 10
5270.67589430414
 20
4601.935294509083
 30
0.0
 40
1.5
100
AcDbArc
 50
89.99999999999998
 51
180.0
  0
LINE
  5
43C3
330
19
100
AcDbEntity
  8
1
100
AcDbLine
 10
5309.17589430414
 20
4603.435294509083
 30
0.0
 11
5270.67589430414
 21
4603.435294509083
 31
0.0
  0
LINE
  5
43C4
330
19
100
AcDbEntity
  8
1
100
AcDbLine
 10
5392.175894304141
 20
4602.635294509082
 30
0.0
 11
5316.836194304141
 21
4602.635294509082
 31
0.0
  0
LINE
  5
43C6
330
19
100
AcDbEntity
  8
1
100
AcDbLine
 10
5392.175894304141
 20
4602.635294509082
 30
0.0
 11
5429.570976075678
 21
4602.635294509082
 31
0.0
  0
LINE
  5
43C7
330
19
100
AcDbEntity
  8
1
100
AcDbLine
 10
5526.175894304142
 20
4685.135294509082
 30
0.0
 11
5520.175894304141
 21
4685.135294509082
 31
0.0
  0
ARC
  5
43C8
330
19
100
AcDbEntity
  8
1
100
AcDbCircle
 10
5526.175894304142
 20
4686.135294509081
 30
0.0
 40
1.0
100
AcDbArc
 50
270.0
 51
0.0
  0
ARC
  5
43C9
330
19
100
AcDbEntity
  8
1
100
AcDbCircle
 10
5520.175894304141
 20
4684.135294509081
 30
0.0
 40
1.0
100
AcDbArc
 50
89.99999999999998
 51
180.0
  0
LWPOLYLINE
  5
43CA
330
19
100
AcDbEntity
  8
1
100
AcDbPolyline
 90
        3
 70
     0
 43
0.0
 10
5518.175894304141
 20
4697.95340534661
 10
5518.175894304139
 20
4502.635294509082
 10
5518.175894304139
 20
4147.635294509083
  0
LWPOLYLINE
  5
43CB
330
19
100
AcDbEntity
  8
1
100
AcDbPolyline
 90
        2
 70
     0
 43
0.0
 10
5514.975894304139
 20
4694.51095586662
 10
5514.97589430414
 20
4147.635294509083
  0
ARC
  5
43CC
330
19
100
AcDbEntity
  8
1
100
AcDbCircle
 10
5520.175894304141
 20
4321.135294509081
 30
0.0
 40
1.0
100
AcDbArc
 50
180.0
 51
270.0
  0
LINE
  5
43CD
330
19
100
AcDbEntity
  8
1
100
AcDbLine
 10
5527.175894304141
 20
4320.135294509082
 30
0.0
 11
5520.175894304141
 21
4320.135294509082
 31
0.0
  0
LINE
  5
43CE
330
19
100
AcDbEntity
  8
1
100
AcDbLine
 10
5208.175894304141
 20
4147.635294509083
 30
0.0
 11
5558.175894304141
 21
4147.635294509083
 31
0.0
  0
LWPOLYLINE
  5
43CF
330
19
100
AcDbEntity
  8
1
100
AcDbPolyline
 90
        2
 70
     0
 43
0.0
 10
5558.175894304141
 20
4150.835294509082
 10
5558.175894304141
 20
4147.635294509082
  0
LINE
  5
43D0
330
19
100
AcDbEntity
  8
1
100
AcDbLine
 10
5518.175894304142
 20
4150.835294509082
 30
0.0
 11
5558.175894304141
 21
4150.835294509082
 31
0.0
  0
LINE
  5
43D1
330
19
100
AcDbEntity
  8
FUTO
100
AcDbLine
 10
5208.175894304141
 20
4150.835294509082
 30
0.0
 11
5514.97589430414
 21
4150.835294509082
 31
0.0
  0
LINE
  5
43D2
330
19
100
AcDbEntity
  8
FUTO
100
AcDbLine
 10
5208.175894304141
 20
4147.635294509083
 30
0.0
 11
5208.175894304141
 21
4150.835294509082
 31
0.0
  0
LINE
  5
43D3
330
19
100
AcDbEntity
  8
FUTO
100
AcDbLine
 10
5337.975894304141
 20
4502.635294509082
 30
0.0
 11
5208.175894304141
 21
4150.835294509082
 31
0.0
  0
LINE
  5
43F4
330
19
100
AcDbEntity
  8
1
100
AcDbLine
 10
4462.550522829437
 20
5434.362935220168
 30
0.0
 11
4295.416722829438
 21
5434.362935220168
 31
0.0
  0
LINE
  5
43F5
330
19
100
AcDbEntity
  8
1
100
AcDbLine
 10
4462.550522829441
 20
5434.362935220168
 30
0.0
 11
4295.416722829441
 21
5434.362935220168
 31
0.0
  0
LINE
  5
43F6
330
19
100
AcDbEntity
  8
1
100
AcDbLine
 10
4474.997622829437
 20
5484.362935220168
 30
0.0
 11
4279.697622829438
 21
5484.362935220168
 31
0.0
  0
LINE
  5
43F7
330
19
100
AcDbEntity
  8
1
100
AcDbLine
 10
4278.197622829438
 20
5524.362935220168
 30
0.0
 11
4479.797622829438
 21
5524.362935220168
 31
0.0
  0
LINE
  5
43F8
330
19
100
AcDbEntity
  8
1
100
AcDbLine
 10
4281.997622829438
 20
5484.362935220168
 30
0.0
 11
4293.666422829438
 21
5435.742835220168
 31
0.0
  0
ARC
  5
43F9
330
19
100
AcDbEntity
  8
1
100
AcDbCircle
 10
4295.416622829438
 20
5436.162835220169
 30
0.0
 40
1.7999
100
AcDbArc
 50
193.4933999999977
 51
270.0018999999994
  0
LINE
  5
43FA
330
19
100
AcDbEntity
  8
1
100
AcDbLine
 10
4278.197622829438
 20
5524.362935220168
 30
0.0
 11
4278.197622829438
 21
5485.862935220168
 31
0.0
  0
ARC
  5
43FB
330
19
100
AcDbEntity
  8
1
100
AcDbCircle
 10
4279.697622829438
 20
5485.862935220168
 30
0.0
 40
1.5
100
AcDbArc
 50
180.0
 51
270.0
  0
LINE
  5
43FC
330
19
100
AcDbEntity
  8
1
100
AcDbLine
 10
4292.556922829438
 20
5524.194635220169
 30
0.0
 11
4278.997622829439
 21
5532.02323522017
 31
0.0
  0
LINE
  5
43FD
330
19
100
AcDbEntity
  8
1
100
AcDbLine
 10
4475.997622829438
 20
5484.362935220168
 30
0.0
 11
4464.328822829438
 21
5435.742835220168
 31
0.0
  0
ARC
  5
43FE
330
19
100
AcDbEntity
  8
1
100
AcDbCircle
 10
4462.578622829438
 20
5436.162835220169
 30
0.0
 40
1.7999
100
AcDbArc
 50
269.9981000000006
 51
346.5066000000023
  0
LINE
  5
43FF
330
19
100
AcDbEntity
  8
1
100
AcDbLine
 10
4479.797622829438
 20
5524.362935220168
 30
0.0
 11
4479.797622829438
 21
5485.862935220168
 31
0.0
  0
ARC
  5
4400
330
19
100
AcDbEntity
  8
1
100
AcDbCircle
 10
4478.297622829438
 20
5485.862935220168
 30
0.0
 40
1.5
100
AcDbArc
 50
270.0
 51
0.0
  0
LINE
  5
4401
330
19
100
AcDbEntity
  8
1
100
AcDbLine
 10
4465.438322829438
 20
5524.194635220169
 30
0.0
 11
4478.997622829438
 21
5532.02323522017
 31
0.0
  0
LINE
  5
440A
330
19
100
AcDbEntity
  8
1
100
AcDbLine
 10
4478.997622829438
 20
5682.702635220169
 30
0.0
 11
4478.997622829438
 21
5532.02323522017
 31
0.0
  0
LINE
  5
440B
330
19
100
AcDbEntity
  8
1
100
AcDbLine
 10
4278.997622829439
 20
5532.02323522017
 30
0.0
 11
4278.997622829439
 21
5682.702635220169
 31
0.0
  0
LINE
  5
440C
330
19
100
AcDbEntity
  8
1
100
AcDbLine
 10
4463.997622829437
 20
5691.362935220169
 30
0.0
 11
4293.997622829438
 21
5691.362935220169
 31
0.0
  0
LINE
  5
440D
330
19
100
AcDbEntity
  8
1
100
AcDbLine
 10
4296.997622829438
 20
5712.090614653588
 30
0.0
 11
4460.997622829437
 21
5712.090614653588
 31
0.0
  0
LINE
  5
440E
330
19
100
AcDbEntity
  8
1
100
AcDbLine
 10
4415.997622829438
 20
5718.090614653588
 30
0.0
 11
4341.997622829437
 21
5718.090614653588
 31
0.0
  0
LINE
  5
440F
330
19
100
AcDbEntity
  8
1
100
AcDbLine
 10
4293.997622829438
 20
5691.362935220169
 30
0.0
 11
4293.997622829438
 21
5709.090614653588
 31
0.0
  0
LINE
  5
4410
330
19
100
AcDbEntity
  8
1
100
AcDbLine
 10
4293.997622829438
 20
5694.362935220169
 30
0.0
 11
4293.997622829438
 21
5691.362935220169
 31
0.0
  0
LINE
  5
4411
330
19
100
AcDbEntity
  8
1
100
AcDbLine
 10
4278.997622829439
 20
5682.702635220169
 30
0.0
 11
4293.997622829438
 21
5691.362935220169
 31
0.0
  0
ARC
  5
4412
330
19
100
AcDbEntity
  8
1
100
AcDbCircle
 10
4341.997522829438
 20
5715.090614653588
 30
0.0
 40
2.999899999999999
100
AcDbArc
 50
89.99879999999965
 51
180.0011999999971
  0
LINE
  5
4413
330
19
100
AcDbEntity
  8
1
100
AcDbLine
 10
4338.997622829437
 20
5712.090614653588
 30
0.0
 11
4338.997622829437
 21
5715.090614653588
 31
0.0
  0
ARC
  5
4414
330
19
100
AcDbEntity
  8
1
100
AcDbCircle
 10
4296.997522829438
 20
5709.090614653588
 30
0.0
 40
2.999899999999999
100
AcDbArc
 50
89.99879999999965
 51
180.0011999999971
  0
LINE
  5
4415
330
19
100
AcDbEntity
  8
1
100
AcDbLine
 10
4463.997622829437
 20
5691.362935220169
 30
0.0
 11
4463.997622829437
 21
5709.090614653588
 31
0.0
  0
LINE
  5
4416
330
19
100
AcDbEntity
  8
1
100
AcDbLine
 10
4463.997622829437
 20
5694.362935220169
 30
0.0
 11
4463.997622829437
 21
5691.362935220169
 31
0.0
  0
LINE
  5
4417
330
19
100
AcDbEntity
  8
1
100
AcDbLine
 10
4478.997622829438
 20
5682.702635220169
 30
0.0
 11
4463.997622829437
 21
5691.362935220169
 31
0.0
  0
ARC
  5
4418
330
19
100
AcDbEntity
  8
1
100
AcDbCircle
 10
4460.997722829438
 20
5709.090614653588
 30
0.0
 40
2.999899999999999
100
AcDbArc
 50
359.9988000000029
 51
90.00120000000034
  0
LINE
  5
4419
330
19
100
AcDbEntity
  8
1
100
AcDbLine
 10
4418.997622829438
 20
5712.090614653588
 30
0.0
 11
4418.997622829438
 21
5715.090614653588
 31
0.0
  0
ARC
  5
441A
330
19
100
AcDbEntity
  8
1
100
AcDbCircle
 10
4415.997622829438
 20
5715.090614653588
 30
0.0
 40
2.999899999999999
100
AcDbArc
 50
359.9988000000029
 51
90.00120000000034
  0
LINE
  5
441B
330
19
100
AcDbEntity
  8
1
100
AcDbLine
 10
4393.597522829438
 20
5718.090614653588
 30
0.0
 11
4393.597522829438
 21
5741.362935220169
 31
0.0
  0
LINE
  5
441C
330
19
100
AcDbEntity
  8
1
100
AcDbLine
 10
4364.397622829438
 20
5718.090614653588
 30
0.0
 11
4364.397622829438
 21
5741.362935220172
 31
0.0
  0
LWPOLYLINE
  5
4438
330
19
100
AcDbEntity
  8
1
100
AcDbPolyline
 90
        2
 70
     0
 43
0.0
 10
4358.667320049616
 20
5975.362935220169
 10
4197.49762282944
 20
5975.362935220169
  0
LINE
  5
4439
330
19
100
AcDbEntity
  8
1
100
AcDbLine
 10
4198.497622829441
 20
5974.36293522017
 30
0.0
 11
4226.198324488873
 21
5974.362935220169
 31
0.0
  0
ARC
  5
443A
330
19
100
AcDbEntity
  8
1
100
AcDbCircle
 10
4195.49762282944
 20
5968.362935220169
 30
0.0
 40
1.0
100
AcDbArc
 50
270.0
 51
0.0
  0
LINE
  5
443B
330
19
100
AcDbEntity
  8
1
100
AcDbLine
 10
4196.497622829441
 20
5968.362935220169
 30
0.0
 11
4196.497622829441
 21
5974.36293522017
 31
0.0
  0
LINE
  5
443C
330
19
100
AcDbEntity
  8
1
100
AcDbLine
 10
4197.497622829438
 20
5967.362935220171
 30
0.0
 11
4197.49762282944
 21
5973.362935220171
 31
0.0
  0
ARC
  5
443D
330
19
100
AcDbEntity
  8
1
100
AcDbCircle
 10
4197.49762282944
 20
5974.362935220169
 30
0.0
 40
1.0
100
AcDbArc
 50
90.00000000000003
 51
180.0
  0
ARC
  5
443E
330
19
100
AcDbEntity
  8
1
100
AcDbCircle
 10
4198.497622829441
 20
5973.362935220169
 30
0.0
 40
1.0
100
AcDbArc
 50
90.00000000000003
 51
180.0
  0
ARC
  5
443F
330
19
100
AcDbEntity
  8
1
100
AcDbCircle
 10
4199.343042641449
 20
5933.789082068271
 30
0.0
 40
48.65638419258441
100
AcDbArc
 50
43.63165127683587
 51
56.49996633473549
  0
LWPOLYLINE
  5
4440
330
19
100
AcDbEntity
  8
1
100
AcDbPolyline
 90
        3
 70
     0
 43
0.0
 10
4560.49762282944
 20
5975.362935220169
 10
4378.99762282944
 20
5975.362935220169
 10
4358.667320049616
 20
5975.362935220169
  0
LINE
  5
4441
330
19
100
AcDbEntity
  8
1
100
AcDbLine
 10
4559.497622829439
 20
5974.362935220169
 30
0.0
 11
4531.796921170005
 21
5974.362935220169
 31
0.0
  0
ARC
  5
4442
330
19
100
AcDbEntity
  8
1
100
AcDbCircle
 10
4558.652203017429
 20
5933.789082068271
 30
0.0
 40
48.65638419258441
100
AcDbArc
 50
123.5000336652645
 51
136.3683487231641
  0
ARC
  5
4443
330
19
100
AcDbEntity
  8
1
100
AcDbCircle
 10
4560.49762282944
 20
5974.362935220169
 30
0.0
 40
1.0
100
AcDbArc
 50
0.0
 51
90.00000000000003
  0
ARC
  5
4444
330
19
100
AcDbEntity
  8
1
100
AcDbCircle
 10
4559.497622829439
 20
5973.362935220169
 30
0.0
 40
1.0
100
AcDbArc
 50
0.0
 51
90.00000000000003
  0
ARC
  5
4445
330
19
100
AcDbEntity
  8
1
100
AcDbCircle
 10
4560.497622829442
 20
5974.362935220169
 30
0.0
 40
1.0
100
AcDbArc
 50
0.0
 51
90.00000000000003
  0
LINE
  5
4446
330
19
100
AcDbEntity
  8
1
100
AcDbLine
 10
4560.49762282944
 20
5967.362935220169
 30
0.0
 11
4560.49762282944
 21
5973.362935220169
 31
0.0
  0
LINE
  5
4447
330
19
100
AcDbEntity
  8
1
100
AcDbLine
 10
4561.497622829438
 20
5968.362935220169
 30
0.0
 11
4561.49762282944
 21
5974.362935220169
 31
0.0
  0
ARC
  5
4448
330
19
100
AcDbEntity
  8
1
100
AcDbCircle
 10
4562.497622829439
 20
5968.362935220169
 30
0.0
 40
1.0
100
AcDbArc
 50
180.0
 51
270.0
  0
DIMENSION
  5
4449
330
19
100
AcDbEntity
  8
SP
100
AcDbDimension
  2
*D11
 10
4628.997622829439
 20
5316.285453706379
 30
0.0
 11
4378.997622829439
 21
5353.785453706379
 31
0.0
 70
    32
 71
     5
 42
500.0
  3
GOD
100
AcDbAlignedDimension
 13
4128.997622829439
 23
5422.362935220169
 33
0.0
 14
4628.997622829439
 24
5422.362935220169
 34
0.0
100
AcDbRotatedDimension
  0
DIMENSION
  5
4456
330
19
100
AcDbEntity
  8
SP
100
AcDbDimension
  2
*D12
 10
4753.315554715824
 20
5422.362935220169
 30
0.0
 11
4715.815554715823
 21
5577.362935220168
 31
0.0
 70
    32
 71
     5
 42
309.9999999999982
  3
GOD
100
AcDbAlignedDimension
 13
4628.997622829439
 23
5732.362935220167
 33
0.0
 14
4628.997622829439
 24
5422.362935220169
 34
0.0
 50
90.0
100
AcDbRotatedDimension
  0
DIMENSION
  5
4463
330
19
100
AcDbEntity
  8
SP
100
AcDbDimension
  2
*D13
 10
4753.315554715824
 20
5854.362935220169
 30
0.0
 11
4715.815554715823
 21
5996.862935220169
 31
0.0
 70
    32
 71
     5
 42
122.0
  3
GOD
100
AcDbAlignedDimension
 13
4628.997622829444
 23
5732.362935220169
 33
0.0
 14
4625.081181786598
 24
5854.362935220169
 34
0.0
 50
90.0
100
AcDbRotatedDimension
  0
DIMENSION
  5
4472
330
19
100
AcDbEntity
  8
SP
100
AcDbDimension
  2
*D14
 10
5518.175894304139
 20
4042.635294509083
 30
0.0
 11
5363.17589430414
 21
4080.135294509083
 31
0.0
 70
    32
 71
     5
 42
309.9999999999982
  3
GOD
100
AcDbAlignedDimension
 13
5208.175894304141
 23
4147.635294509083
 33
0.0
 14
5518.175894304139
 24
4147.635294509083
 34
0.0
100
AcDbRotatedDimension
  0
LINE
  5
55D6
330
19
100
AcDbEntity
  8
FUTO
100
AcDbLine
 10
4128.997622829459
 20
4147.635294509082
 30
0.0
 11
4628.997622829444
 21
4147.635294509082
 31
0.0
  0
LINE
  5
55D7
330
19
100
AcDbEntity
  8
1
100
AcDbLine
 10
4128.99762282946
 20
4149.935294509081
 30
0.0
 11
4166.697622829462
 21
4149.935294509081
 31
0.0
  0
LINE
  5
55D8
330
19
100
AcDbEntity
  8
1
100
AcDbLine
 10
4128.99762282946
 20
4149.935294509081
 30
0.0
 11
4128.997622829459
 21
4147.635294509082
 31
0.0
  0
LINE
  5
55D9
330
19
100
AcDbEntity
  8
2
100
AcDbLine
 10
4146.997622829451
 20
4138.731282845248
 30
0.0
 11
4146.997622829451
 21
4161.139306172914
 31
0.0
  0
LINE
  5
55DA
330
19
100
AcDbEntity
  8
1
100
AcDbLine
 10
4628.997622829444
 20
4149.935294509081
 30
0.0
 11
4591.297622829441
 21
4149.935294509081
 31
0.0
  0
LINE
  5
55DB
330
19
100
AcDbEntity
  8
1
100
AcDbLine
 10
4628.997622829444
 20
4149.935294509081
 30
0.0
 11
4628.997622829444
 21
4147.635294509082
 31
0.0
  0
LINE
  5
55DC
330
19
100
AcDbEntity
  8
2
100
AcDbLine
 10
4610.997622829452
 20
4138.731282845248
 30
0.0
 11
4610.997622829452
 21
4161.139306172914
 31
0.0
  0
LINE
  5
55DD
330
19
100
AcDbEntity
  8
1
100
AcDbLine
 10
4591.297622829441
 20
4585.735294509082
 30
0.0
 11
4591.297622829441
 21
4149.93529450908
 31
0.0
  0
LINE
  5
55DE
330
19
100
AcDbEntity
  8
1
100
AcDbLine
 10
4588.997622829441
 20
4587.557616667709
 30
0.0
 11
4588.997622829444
 21
4147.635294509082
 31
0.0
  0
LINE
  5
55DF
330
19
100
AcDbEntity
  8
1
100
AcDbLine
 10
4548.997622829442
 20
4402.635294509082
 30
0.0
 11
4548.997622829443
 21
4202.635294509081
 31
0.0
  0
LINE
  5
55E0
330
19
100
AcDbEntity
  8
1
100
AcDbLine
 10
4588.997622829443
 20
4202.635294509081
 30
0.0
 11
4548.997622829443
 21
4202.635294509081
 31
0.0
  0
LINE
  5
55E1
330
19
100
AcDbEntity
  8
1
100
AcDbLine
 10
4168.997622829462
 20
4587.557616667709
 30
0.0
 11
4168.997622829459
 21
4147.635294509082
 31
0.0
  0
LINE
  5
55E2
330
19
100
AcDbEntity
  8
1
100
AcDbLine
 10
4166.697622829462
 20
4585.735294509082
 30
0.0
 11
4166.697622829462
 21
4149.93529450908
 31
0.0
  0
LINE
  5
55E3
330
19
100
AcDbEntity
  8
1
100
AcDbLine
 10
4208.997622829461
 20
4402.635294509082
 30
0.0
 11
4208.99762282946
 21
4202.635294509081
 31
0.0
  0
LINE
  5
55E4
330
19
100
AcDbEntity
  8
1
100
AcDbLine
 10
4168.997622829461
 20
4202.635294509081
 30
0.0
 11
4208.99762282946
 21
4202.635294509081
 31
0.0
  0
LINE
  5
55E5
330
19
100
AcDbEntity
  8
1
100
AcDbLine
 10
4168.997622829461
 20
4402.635294509082
 30
0.0
 11
4588.997622829441
 21
4402.635294509081
 31
0.0
  0
LINE
  5
55E6
330
19
100
AcDbEntity
  8
1
100
AcDbLine
 10
4208.99762282946
 20
4362.635294509082
 30
0.0
 11
4378.997622829452
 21
4362.635294509082
 31
0.0
  0
LINE
  5
55E7
330
19
100
AcDbEntity
  8
FUTO
100
AcDbLine
 10
4168.997622829461
 20
4402.635294509082
 30
0.0
 11
4208.99762282946
 21
4362.635294509082
 31
0.0
  0
LINE
  5
55E8
330
19
100
AcDbEntity
  8
FUTO
100
AcDbLine
 10
4588.997622829441
 20
4402.635294509082
 30
0.0
 11
4548.997622829443
 21
4362.635294509082
 31
0.0
  0
LINE
  5
55E9
330
19
100
AcDbEntity
  8
1
100
AcDbLine
 10
4548.997622829443
 20
4362.635294509082
 30
0.0
 11
4378.997622829452
 21
4362.635294509082
 31
0.0
  0
LINE
  5
55EA
330
19
100
AcDbEntity
  8
1
100
AcDbLine
 10
4468.997622829443
 20
4707.635294509082
 30
0.0
 11
4591.297622829441
 21
4585.735294509082
 31
0.0
  0
LINE
  5
55EB
330
19
100
AcDbEntity
  8
1
100
AcDbLine
 10
4288.997622829444
 20
4707.635294509082
 30
0.0
 11
4166.697622829462
 21
4585.735294509082
 31
0.0
  0
LINE
  5
55EC
330
19
100
AcDbEntity
  8
1
100
AcDbLine
 10
4288.997622829444
 20
4707.635294509084
 30
0.0
 11
4468.997622829443
 21
4707.635294509082
 31
0.0
  0
DIMENSION
  5
55ED
330
19
100
AcDbEntity
  8
SP
100
AcDbDimension
  2
*D16
 10
4128.997622829459
 20
4042.635294509084
 30
0.0
 11
4253.997622829455
 21
4080.135294509084
 31
0.0
 70
    32
 71
     5
 42
249.9999999999927
  3
GOD
100
AcDbAlignedDimension
 13
4378.997622829452
 23
4117.479113442421
 33
0.0
 14
4128.997622829459
 24
4147.635294509082
 34
0.0
100
AcDbRotatedDimension
  0
DIMENSION
  5
55EE
330
19
100
AcDbEntity
  8
SP
100
AcDbDimension
  2
*D17
 10
4628.997622829457
 20
3937.635294509082
 30
0.0
 11
4378.997622829458
 21
3975.135294509082
 31
0.0
 70
    32
 71
     5
 42
499.9999999999991
  3
GOD
100
AcDbAlignedDimension
 13
4128.997622829458
 23
4147.635294509082
 33
0.0
 14
4628.997622829457
 24
4147.635294509082
 34
0.0
100
AcDbRotatedDimension
  0
DIMENSION
  5
55EF
330
19
100
AcDbEntity
  8
SP
100
AcDbDimension
  2
*D18
 10
4628.997622829457
 20
4042.635294509084
 30
0.0
 11
4503.997622829454
 21
4080.135294509084
 31
0.0
 70
    32
 71
     5
 42
250.0000000000055
  3
GOD
100
AcDbAlignedDimension
 13
4378.997622829452
 23
4117.479113442421
 33
0.0
 14
4628.997622829457
 24
4147.635294509082
 34
0.0
100
AcDbRotatedDimension
  0
LINE
  5
58CC
330
19
100
AcDbEntity
  8
1
100
AcDbLine
 10
4128.997622829439
 20
5422.362935220169
 30
0.0
 11
4128.99762282944
 21
5732.36293522018
 31
0.0
  0
LINE
  5
58CD
330
19
100
AcDbEntity
  8
1
100
AcDbLine
 10
4168.997622829439
 20
5422.362935220169
 30
0.0
 11
4168.997622829439
 21
5732.36293522018
 31
0.0
  0
LINE
  5
58CE
330
19
100
AcDbEntity
  8
1
100
AcDbLine
 10
4168.997622829439
 20
5732.36293522018
 30
0.0
 11
4128.99762282944
 21
5732.36293522018
 31
0.0
  0
LINE
  5
58CF
330
19
100
AcDbEntity
  8
CT
100
AcDbLine
 10
4131.305334632799
 20
5702.362935220168
 30
0.0
 11
4161.997622829439
 21
5702.362935220168
 31
0.0
  0
CIRCLE
  5
58D0
330
19
100
AcDbEntity
  8
1
100
AcDbCircle
 10
4146.997622829439
 20
5702.362935220168
 30
0.0
 40
6.0
  0
LINE
  5
58D1
330
19
100
AcDbEntity
  8
CT
100
AcDbLine
 10
4146.997622829439
 20
5718.497643102718
 30
0.0
 11
4146.997622829439
 21
5682.830563598277
 31
0.0
  0
LWPOLYLINE
  5
58D2
330
19
100
AcDbEntity
  8
1
100
AcDbPolyline
 90
        2
 70
     0
 43
0.0
 10
4168.997622829439
 20
5722.866971870885
 10
4364.397622829438
 20
5722.866971870885
  0
LWPOLYLINE
  5
58D3
330
19
100
AcDbEntity
  8
1
100
AcDbPolyline
 90
        2
 70
     0
 43
0.0
 10
4168.997622829439
 20
5470.762935220171
 10
4285.261616116165
 20
5470.762935220171
  0
LINE
  5
58D4
330
19
100
AcDbEntity
  8
CT
100
AcDbLine
 10
4146.997622829439
 20
5468.497643102718
 30
0.0
 11
4146.997622829439
 21
5432.830563598277
 31
0.0
  0
LINE
  5
58D5
330
19
100
AcDbEntity
  8
1
100
AcDbLine
 10
4128.997622829439
 20
5422.362935220169
 30
0.0
 11
4168.997622829439
 21
5422.362935220169
 31
0.0
  0
CIRCLE
  5
58D6
330
19
100
AcDbEntity
  8
1
100
AcDbCircle
 10
4146.997622829439
 20
5452.362935220168
 30
0.0
 40
6.0
  0
LINE
  5
58D7
330
19
100
AcDbEntity
  8
CT
100
AcDbLine
 10
4131.305334632799
 20
5452.362935220168
 30
0.0
 11
4161.997622829439
 21
5452.362935220168
 31
0.0
  0
LWPOLYLINE
  5
58D8
330
19
100
AcDbEntity
  8
1
100
AcDbPolyline
 90
        2
 70
     0
 43
0.0
 10
4472.73362954271
 20
5470.762935220171
 10
4588.997622829439
 20
5470.762935220168
  0
LINE
  5
58D9
330
19
100
AcDbEntity
  8
CT
100
AcDbLine
 10
4610.997622829438
 20
5468.497643102718
 30
0.0
 11
4610.997622829439
 21
5432.830563598277
 31
0.0
  0
LINE
  5
58DA
330
19
100
AcDbEntity
  8
1
100
AcDbLine
 10
4588.997622829439
 20
5422.362935220172
 30
0.0
 11
4628.997622829438
 21
5422.362935220169
 31
0.0
  0
LINE
  5
58DB
330
19
100
AcDbEntity
  8
CT
100
AcDbLine
 10
4626.689911026079
 20
5452.362935220168
 30
0.0
 11
4595.997622829437
 21
5452.362935220168
 31
0.0
  0
CIRCLE
  5
58DC
330
19
100
AcDbEntity
  8
1
100
AcDbCircle
 10
4610.997622829439
 20
5452.362935220168
 30
0.0
 40
6.0
  0
LINE
  5
58DD
330
19
100
AcDbEntity
  8
1
100
AcDbLine
 10
4628.997622829439
 20
5422.362935220169
 30
0.0
 11
4628.997622829439
 21
5732.362935220169
 31
0.0
  0
LINE
  5
58DE
330
19
100
AcDbEntity
  8
1
100
AcDbLine
 10
4588.997622829439
 20
5422.362935220169
 30
0.0
 11
4588.997622829439
 21
5732.362935220169
 31
0.0
  0
CIRCLE
  5
58DF
330
19
100
AcDbEntity
  8
1
100
AcDbCircle
 10
4610.997622829439
 20
5702.362935220168
 30
0.0
 40
6.0
  0
LINE
  5
58E0
330
19
100
AcDbEntity
  8
CT
100
AcDbLine
 10
4610.997622829438
 20
5718.497643102718
 30
0.0
 11
4610.997622829439
 21
5682.830563598277
 31
0.0
  0
LINE
  5
58E1
330
19
100
AcDbEntity
  8
FUTO
100
AcDbLine
 10
4588.997622829439
 20
5732.362935220169
 30
0.0
 11
4628.997622829443
 21
5732.362935220169
 31
0.0
  0
LWPOLYLINE
  5
58E2
330
19
100
AcDbEntity
  8
1
100
AcDbPolyline
 90
        2
 70
     0
 43
0.0
 10
4393.597522829438
 20
5722.866971870885
 10
4588.997622829439
 20
5722.866971870885
  0
LINE
  5
58E3
330
19
100
AcDbEntity
  8
CT
100
AcDbLine
 10
4626.689911026079
 20
5702.362935220168
 30
0.0
 11
4595.997622829437
 21
5702.362935220168
 31
0.0
  0
LINE
  5
59D6
330
19
100
AcDbEntity
  8
1
100
AcDbLine
 10
5542.17589430414
 20
4239.404012875247
 30
0.0
 11
5738.17589430414
 21
4239.404012875247
 31
0.0
  0
ARC
  5
59D7
330
19
100
AcDbEntity
  8
1
100
AcDbCircle
 10
5738.17589430414
 20
4253.404012875248
 30
0.0
 40
14.0
100
AcDbArc
 50
270.0
 51
0.0
  0
ARC
  5
59D8
330
19
100
AcDbEntity
  8
1
100
AcDbCircle
 10
5542.17589430414
 20
4253.404012875246
 30
0.0
 40
14.0
100
AcDbArc
 50
180.0
 51
270.0
  0
LWPOLYLINE
  5
59E7
330
19
100
AcDbEntity
  8
1
100
AcDbPolyline
 90
        3
 70
     0
 43
0.0
 10
5761.175894304141
 20
4684.135294509082
 10
5761.175894304142
 20
4502.635294509082
 10
5761.175894304142
 20
4321.135294509082
  0
LINE
  5
59E8
330
19
100
AcDbEntity
  8
1
100
AcDbLine
 10
5754.175894304141
 20
4320.135294509084
 30
0.0
 11
5760.175894304143
 21
4320.135294509084
 31
0.0
  0
ARC
  5
59E9
330
19
100
AcDbEntity
  8
1
100
AcDbCircle
 10
5754.175894304141
 20
4319.135294509083
 30
0.0
 40
1.0
100
AcDbArc
 50
90.0
 51
180.0
  0
ARC
  5
59EA
330
19
100
AcDbEntity
  8
1
100
AcDbCircle
 10
5760.17589430414
 20
4321.135294509082
 30
0.0
 40
1.0
100
AcDbArc
 50
270.0
 51
0.0
  0
LINE
  5
59EB
330
19
100
AcDbEntity
  8
FUTO
100
AcDbLine
 10
5761.175894304142
 20
4345.13529450908
 30
0.0
 11
5753.175894304137
 21
4345.13529450908
 31
0.0
  0
LINE
  5
59EC
330
19
100
AcDbEntity
  8
FUTO
100
AcDbLine
 10
5761.175894304141
 20
4660.13529450908
 30
0.0
 11
5753.175894304137
 21
4660.13529450908
 31
0.0
  0
LINE
  5
59ED
330
19
100
AcDbEntity
  8
1
100
AcDbLine
 10
5754.175894304141
 20
4685.135294509082
 30
0.0
 11
5760.17589430414
 21
4685.135294509082
 31
0.0
  0
ARC
  5
59EE
330
19
100
AcDbEntity
  8
1
100
AcDbCircle
 10
5754.175894304141
 20
4686.135294509081
 30
0.0
 40
1.0
100
AcDbArc
 50
180.0
 51
270.0
  0
ARC
  5
59EF
330
19
100
AcDbEntity
  8
1
100
AcDbCircle
 10
5760.17589430414
 20
4684.135294509081
 30
0.0
 40
1.0
100
AcDbArc
 50
0.0
 51
90.0
  0
DIMENSION
  5
59F0
330
19
100
AcDbEntity
  8
SP
100
AcDbDimension
  2
*D19
 10
5874.841725328312
 20
4345.135294509082
 30
0.0
 11
5837.341725328311
 21
4502.63529450908
 31
0.0
 70
    32
 71
     5
 42
315.0
  3
GOD
100
AcDbAlignedDimension
 13
5761.175894304141
 23
4660.13529450908
 33
0.0
 14
5761.175894304142
 24
4345.13529450908
 34
0.0
 50
90.0
100
AcDbRotatedDimension
1001
ACAD
1000
DSTYLE
1002
{
1070
     3
1000
\U+03C6<>
1002
}
  0
LINE
  5
5B52
330
19
100
AcDbEntity
  8
1
100
AcDbLine
 10
5518.175894304141
 20
4697.95340534661
 30
0.0
 11
5336.61391109619
 21
4502.635294509082
 31
0.0
  0
LINE
  5
5B7B
330
19
100
AcDbEntity
  8
1
100
AcDbLine
 10
5519.17589430414
 20
4321.135294509081
 30
0.0
 11
5519.17589430414
 21
4684.135294509081
 31
0.0
  0
DIMENSION
  5
5B7C
330
19
100
AcDbEntity
  8
SP
100
AcDbDimension
  2
*D28
 10
5219.17589430414
 20
4962.635294509084
 30
0.0
 11
5429.67589430414
 21
5011.921008794798
 31
0.0
 70
    32
  1
(420)
 71
     5
 42
421.0
  3
GOD
100
AcDbAlignedDimension
 13
5640.175894304141
 23
4917.75139915572
 33
0.0
 14
5219.17589430414
 24
4586.216194509083
 34
0.0
100
AcDbRotatedDimension
1001
ACAD
1000
DSTYLE
1002
{
1070
   279
1070
     1
1002
}
  0
DIMENSION
  5
5B9E
330
19
100
AcDbEntity
  8
SP
100
AcDbDimension
  2
*D29
 10
5640.175894304141
 20
4042.635294509083
 30
0.0
 11
5754.668223124841
 21
4044.014242687575
 31
0.0
 70
   160
 71
     5
 42
122.0000000000009
  3
GOD
100
AcDbAlignedDimension
 13
5518.175894304139
 23
4147.635294509083
 33
0.0
 14
5640.175894304141
 24
4204.505763657424
 34
0.0
100
AcDbRotatedDimension
1001
ACAD
1000
DSTYLE
1002
{
1070
   279
1070
     1
1002
}
  0
ENDSEC
  0
SECTION
  2
OBJECTS
  0
DICTIONARY
  5
C
330
0
100
AcDbDictionary
281
     1
  3
ACAD_CIP_PREVIOUS_PRODUCT_INFO
350
5A62
  3
ACAD_COLOR
350
5A44
  3
ACAD_DETAILVIEWSTYLE
350
5A5D
  3
ACAD_GROUP
350
D
  3
ACAD_LAYOUT
350
1E92
  3
ACAD_MATERIAL
350
5A12
  3
ACAD_MLEADERSTYLE
350
5A59
  3
ACAD_MLINESTYLE
350
E
  3
ACAD_PLOTSETTINGS
350
1E93
  3
ACAD_PLOTSTYLENAME
350
1E90
  3
ACAD_SCALELIST
350
5A47
  3
ACAD_SECTIONVIEWSTYLE
350
5A5B
  3
ACAD_TABLESTYLE
350
5A45
  3
ACAD_VISUALSTYLE
350
5A2B
  3
AcadDim
350
1EC5
  3
ACDB_RECOMPOSE_DATA
350
5C29
  3
AcDbVariableDictionary
350
5C13
  3
AcDsDecomposeData
350
5C30
  3
DWGPROPS
350
5C2A
  0
DICTIONARY
  5
5BE4
330
2
100
AcDbDictionary
280
     1
281
     1
  3
ACAD_LAYERSTATES
360
5BE5
  0
DICTIONARY
  5
5BC9
330
F
100
AcDbDictionary
280
     1
281
     1
  3
ADSK_XREC_LAYER_RECONCILED
360
5BCA
  0
DICTIONARY
  5
5BCB
330
2F
100
AcDbDictionary
280
     1
281
     1
  3
ADSK_XREC_LAYER_RECONCILED
360
5BCC
  0
DICTIONARY
  5
5BCD
330
30
100
AcDbDictionary
280
     1
281
     1
  3
ADSK_XREC_LAYER_RECONCILED
360
5BCE
  0
DICTIONARY
  5
5BCF
330
32
100
AcDbDictionary
280
     1
281
     1
  3
ADSK_XREC_LAYER_RECONCILED
360
5BD0
  0
DICTIONARY
  5
5BD1
330
33
100
AcDbDictionary
280
     1
281
     1
  3
ADSK_XREC_LAYER_RECONCILED
360
5BD2
  0
DICTIONARY
  5
5BD3
330
34
100
AcDbDictionary
280
     1
281
     1
  3
ADSK_XREC_LAYER_RECONCILED
360
5BD4
  0
DICTIONARY
  5
5BD5
330
35
100
AcDbDictionary
280
     1
281
     1
  3
ADSK_XREC_LAYER_RECONCILED
360
5BD6
  0
DICTIONARY
  5
5BD7
330
36
100
AcDbDictionary
280
     1
281
     1
  3
ADSK_XREC_LAYER_RECONCILED
360
5BD8
  0
DICTIONARY
  5
5BD9
330
1EEE
100
AcDbDictionary
280
     1
281
     1
  3
ADSK_XREC_LAYER_RECONCILED
360
5BDA
  0
DICTIONARY
  5
5BDB
330
1EEF
100
AcDbDictionary
280
     1
281
     1
  3
ADSK_XREC_LAYER_RECONCILED
360
5BDC
  0
DICTIONARY
  5
5BDD
330
1EF0
100
AcDbDictionary
280
     1
281
     1
  3
ADSK_XREC_LAYER_RECONCILED
360
5BDE
  0
DICTIONARY
  5
5BDF
330
2188
100
AcDbDictionary
280
     1
281
     1
  3
ADSK_XREC_LAYER_RECONCILED
360
5BE0
  0
DICTIONARY
  5
5B53
330
19
100
AcDbDictionary
280
     1
281
     1
  3
ACAD_SORTENTS
360
5B54
  0
XRECORD
  5
5A62
102
{ACAD_REACTORS
330
C
102
}
330
C
100
AcDbXrecord
280
     1
300
ACDLT
300
2015
300
INVLTS_F_S
  0
DICTIONARY
  5
5A44
102
{ACAD_REACTORS
330
C
102
}
330
C
100
AcDbDictionary
281
     1
  0
DICTIONARY
  5
5A5D
102
{ACAD_REACTORS
330
C
102
}
330
C
100
AcDbDictionary
281
     1
  3
Metric50
350
5A5E
  0
DICTIONARY
  5
D
102
{ACAD_REACTORS
330
C
102
}
330
C
100
AcDbDictionary
281
     1
  0
DICTIONARY
  5
1E92
102
{ACAD_REACTORS
330
C
102
}
330
C
100
AcDbDictionary
281
     1
  3
Model
350
1E94
  3
ﾚｲｱｳﾄ1
350
1E95
  0
DICTIONARY
  5
5A12
102
{ACAD_REACTORS
330
C
102
}
330
C
100
AcDbDictionary
281
     1
  3
ByBlock
350
5A1B
  3
ByLayer
350
5A13
  3
Global
350
5A23
  0
DICTIONARY
  5
5A59
102
{ACAD_REACTORS
330
C
102
}
330
C
100
AcDbDictionary
281
     1
  3
Standard
350
5A5A
  0
DICTIONARY
  5
E
102
{ACAD_REACTORS
330
C
102
}
330
C
100
AcDbDictionary
281
     1
  3
STANDARD
350
1C
  0
DICTIONARY
  5
1E93
102
{ACAD_REACTORS
330
C
102
}
330
C
100
AcDbDictionary
281
     1
  0
ACDBDICTIONARYWDFLT
  5
1E90
102
{ACAD_REACTORS
330
C
102
}
330
C
100
AcDbDictionary
281
     1
  3
Normal
350
1E91
100
AcDbDictionaryWithDefault
340
1E91
  0
DICTIONARY
  5
5A47
102
{ACAD_REACTORS
330
C
102
}
330
C
100
AcDbDictionary
281
     1
  3
A0
350
5A48
  3
A1
350
5A49
  3
A2
350
5A4A
  3
A3
350
5A4B
  3
A4
350
5A4C
  3
A5
350
5A4D
  3
A6
350
5A4E
  3
A7
350
5A4F
  3
A8
350
5A50
  3
A9
350
5A51
  3
B0
350
5A52
  3
B1
350
5A53
  3
B2
350
5A54
  3
B3
350
5A55
  3
B4
350
5A56
  3
B5
350
5A57
  3
B6
350
5A58
  0
DICTIONARY
  5
5A5B
102
{ACAD_REACTORS
330
C
102
}
330
C
100
AcDbDictionary
281
     1
  3
Metric50
350
5A5C
  0
DICTIONARY
  5
5A45
102
{ACAD_REACTORS
330
C
102
}
330
C
100
AcDbDictionary
281
     1
  3
Standard
350
5A46
  0
DICTIONARY
  5
5A2B
102
{ACAD_REACTORS
330
C
102
}
330
C
100
AcDbDictionary
281
     1
  3
2dWireframe
350
5A31
  3
Basic
350
5A30
  3
Brighten
350
5A37
  3
ColorChange
350
5A3B
  3
Conceptual
350
5A34
  3
Dim
350
5A36
  3
EdgeColorOff
350
5A43
  3
Facepattern
350
5A3A
  3
Flat
350
5A2C
  3
FlatWithEdges
350
5A2D
  3
Gouraud
350
5A2E
  3
GouraudWithEdges
350
5A2F
  3
Hidden
350
5A33
  3
JitterOff
350
5A41
  3
Linepattern
350
5A39
  3
OverhangOff
350
5A42
  3
Realistic
350
5A35
  3
Shaded
350
5A40
  3
Shaded with edges
350
5A3F
  3
Shades of Gray
350
5A3C
  3
Sketchy
350
5A3D
  3
Thicken
350
5A38
  3
Wireframe
350
5A32
  3
X-Ray
350
5A3E
  0
XRECORD
  5
1EC5
102
{ACAD_REACTORS
330
C
102
}
330
C
100
AcDbXrecord
280
     1
 90
   990106
  3

 60
     0
 61
     0
 62
     4
 63
     4
 64
     1
 65
     0
 66
     1
 67
     3
 68
     1
 69
     0
 70
     0
 71
     0
 72
     0
 40
0.0
170
     1
340
0
  0
XRECORD
  5
5C29
102
{ACAD_REACTORS
330
C
102
}
330
C
100
AcDbXrecord
280
     1
 90
        1
330
5A46
  0
DICTIONARY
  5
5C13
102
{ACAD_REACTORS
330
C
102
}
330
C
100
AcDbDictionary
281
     1
  3
CANNOSCALE
350
5C19
  3
CMLEADERSTYLE
350
5C15
  3
CTABLESTYLE
350
5C14
  3
CVIEWDETAILSTYLE
350
5C16
  3
CVIEWSECTIONSTYLE
350
5C17
  3
DIMASSOC
350
5C25
  3
INDEXCTL
350
5C24
  3
LAYEREVAL
350
5C1B
  3
LAYERNOTIFY
350
5C1C
  3
LIGHTINGUNITS
350
5C1A
  3
MSLTSCALE
350
5C18
  3
SORTENTS
350
5C23
  3
XCLIPFRAME
350
5C26
  0
DICTIONARY
  5
5C30
102
{ACAD_REACTORS
330
C
102
}
330
C
100
AcDbDictionary
281
     1
  3
AcDsRecords
350
5C32
  3
AcDsSchemas
350
5C31
1001
ACAD
1070
     2
  0
XRECORD
  5
5C2A
102
{ACAD_REACTORS
330
C
102
}
330
C
100
AcDbXrecord
280
     1
  1
DWGPROPS COOKIE
  2

  3

  4

  6

  7

  8
toshiyuki.morita
  9

300
=
301
=
302
=
303
=
304
=
305
=
306
=
307
=
308
=
309
=
 40
0.1144366203703704
 41
2454939.604632489
 42
2459353.579604931
  1

 90
        0
  0
DICTIONARY
  5
5BE5
102
{ACAD_REACTORS
330
5BE4
102
}
330
5BE4
100
AcDbDictionary
281
     1
  0
XRECORD
  5
5BCA
102
{ACAD_REACTORS
330
5BC9
102
}
330
5BC9
100
AcDbXrecord
280
     1
290
     1
  0
XRECORD
  5
5BCC
102
{ACAD_REACTORS
330
5BCB
102
}
330
5BCB
100
AcDbXrecord
280
     1
290
     1
  0
XRECORD
  5
5BCE
102
{ACAD_REACTORS
330
5BCD
102
}
330
5BCD
100
AcDbXrecord
280
     1
290
     1
  0
XRECORD
  5
5BD0
102
{ACAD_REACTORS
330
5BCF
102
}
330
5BCF
100
AcDbXrecord
280
     1
290
     1
  0
XRECORD
  5
5BD2
102
{ACAD_REACTORS
330
5BD1
102
}
330
5BD1
100
AcDbXrecord
280
     1
290
     1
  0
XRECORD
  5
5BD4
102
{ACAD_REACTORS
330
5BD3
102
}
330
5BD3
100
AcDbXrecord
280
     1
290
     1
  0
XRECORD
  5
5BD6
102
{ACAD_REACTORS
330
5BD5
102
}
330
5BD5
100
AcDbXrecord
280
     1
290
     1
  0
XRECORD
  5
5BD8
102
{ACAD_REACTORS
330
5BD7
102
}
330
5BD7
100
AcDbXrecord
280
     1
290
     1
  0
XRECORD
  5
5BDA
102
{ACAD_REACTORS
330
5BD9
102
}
330
5BD9
100
AcDbXrecord
280
     1
290
     1
  0
XRECORD
  5
5BDC
102
{ACAD_REACTORS
330
5BDB
102
}
330
5BDB
100
AcDbXrecord
280
     1
290
     1
  0
XRECORD
  5
5BDE
102
{ACAD_REACTORS
330
5BDD
102
}
330
5BDD
100
AcDbXrecord
280
     1
290
     1
  0
XRECORD
  5
5BE0
102
{ACAD_REACTORS
330
5BDF
102
}
330
5BDF
100
AcDbXrecord
280
     1
290
     1
  0
SORTENTSTABLE
  5
5B54
102
{ACAD_REACTORS
330
5B53
102
}
330
5B53
100
AcDbSortentsTable
330
19
331
58E3
  5
59D6
331
58DF
  5
58E0
331
58DB
  5
58DC
331
4447
  5
4448
331
4443
  5
4444
331
443F
  5
4440
331
43D0
  5
43D1
331
4472
  5
55D6
331
443B
  5
443C
331
43CC
  5
43CD
331
43C8
  5
43C9
331
58D7
  5
58D8
331
58D3
  5
58D4
331
59EE
  5
59EF
331
58CF
  5
58D0
331
59EA
  5
59EB
331
441B
  5
441C
331
4417
  5
4418
331
4413
  5
4414
331
55EC
  5
55ED
331
55E8
  5
55E9
331
55E4
  5
55E5
331
55E0
  5
55E1
331
440F
  5
4410
331
440B
  5
440C
331
4456
  5
4463
331
59D6
  5
59D7
331
43FF
  5
4400
331
43FB
  5
43FC
331
55DC
  5
55DD
331
43F7
  5
43F8
331
55D8
  5
55D9
331
58E2
  5
58E3
331
58DE
  5
58DF
331
58DA
  5
58DB
331
4446
  5
4447
331
4442
  5
4443
331
43D3
  5
43F4
331
443E
  5
443F
331
43CF
  5
43D0
331
443A
  5
443B
331
43CB
  5
43CC
331
58D6
  5
58D7
331
58D2
  5
58D3
331
59ED
  5
59EE
331
58CE
  5
58CF
331
59E9
  5
59EA
331
43C7
  5
43C8
331
441A
  5
441B
331
4416
  5
4417
331
4412
  5
4413
331
55EF
  5
58CC
331
55EB
  5
55EC
331
55E7
  5
55E8
331
55E3
  5
55E4
331
440E
  5
440F
331
440A
  5
440B
331
43FE
  5
43FF
331
55DF
  5
55E0
331
43FA
  5
43FB
331
55DB
  5
55DC
331
43F6
  5
43F7
331
4449
  5
4456
331
58E1
  5
58E2
331
58DD
  5
58DE
331
58D9
  5
58DA
331
55D7
  5
55D8
331
4445
  5
4446
331
4441
  5
4442
331
43D2
  5
43D3
331
443D
  5
443E
331
43CE
  5
43CF
331
4439
  5
443A
331
43CA
  5
43CB
331
58D5
  5
58D6
331
59F0
  5
5A76
331
58D1
  5
58D2
331
59EC
  5
59ED
331
58CD
  5
58CE
331
59E8
  5
59E9
331
43C6
  5
43C7
331
4419
  5
441A
331
4415
  5
4416
331
4411
  5
4412
331
55EE
  5
55EF
331
55EA
  5
55EB
331
55E6
  5
55E7
331
59D8
  5
59E7
331
55E2
  5
55E3
331
440D
  5
440E
331
4401
  5
440A
331
43FD
  5
43FE
331
55DE
  5
55DF
331
43F9
  5
43FA
331
55DA
  5
55DB
331
43F5
  5
43F6
331
4448
  5
4449
331
58E0
  5
58E1
331
58DC
  5
58DD
331
58D8
  5
58D9
331
55D6
  5
55D7
331
4444
  5
4445
331
4440
  5
4441
331
43D1
  5
43D2
331
443C
  5
443D
331
43CD
  5
43CE
331
4438
  5
4439
331
43C9
  5
43CA
331
58D4
  5
58D5
331
59EF
  5
59F0
331
58D0
  5
58D1
331
59EB
  5
59EC
331
58CC
  5
58CD
331
441C
  5
4438
331
4418
  5
4419
331
4463
  5
4472
331
4414
  5
4415
331
5B52
  5
43C6
331
4410
  5
4411
331
59E7
  5
59E8
331
55ED
  5
55EE
331
55E9
  5
55EA
331
55E5
  5
55E6
331
55E1
  5
55E2
331
440C
  5
440D
331
4400
  5
4401
331
59D7
  5
59D8
331
43FC
  5
43FD
331
55DD
  5
55DE
331
43F8
  5
43F9
331
55D9
  5
55DA
331
43F4
  5
43F5
  0
ACDBDETAILVIEWSTYLE
  5
5A5E
102
{ACAD_XDICTIONARY
360
5C11
102
}
102
{ACAD_REACTORS
330
5A5D
102
}
330
5A5D
100
AcDbModelDocViewStyle
 70
     0
  3
Metric50
290
     0
100
AcDbDetailViewStyle
 70
     0
 71
     0
 90
        3
 71
     1
340
10
 40
5.0
340
0
 40
5.0
300

 40
0.0
280
     1
 71
     2
340
15
 90
       25
 71
     3
340
10
 40
5.0
 90
        0
 40
15.0
 90
        1
300
%<\AcVar ViewDetailId>% (%<\AcVar ViewScale \f "%sn">%)
 71
     4
340
15
 90
       25
340
15
 90
       25
280
     0
  0
LAYOUT
  5
1E94
102
{ACAD_XDICTIONARY
360
5C33
102
}
102
{ACAD_REACTORS
330
1E92
102
}
330
1E92
100
AcDbPlotSettings
  1

  2
EPSON LP-9300
  4

  6

 40
0.0
 41
0.0
 42
0.0
 43
0.0
 44
0.0
 45
0.0
 46
0.0
 47
0.0
 48
0.0
 49
0.0
140
0.0
141
0.0
142
1.0
143
1.0
 70
  1712
 72
     0
 73
     0
 74
     0
  7
GOD2000TABLE.ctb
 75
     0
147
1.0
148
0.0
149
0.0
100
AcDbLayout
  1
Model
 70
     1
 71
     0
 10
0.0
 20
0.0
 11
12.0
 21
9.0
 12
0.0
 22
0.0
 32
0.0
 14
0.0
 24
0.0
 34
0.0
 15
0.0
 25
0.0
 35
0.0
146
0.0
 13
0.0
 23
0.0
 33
0.0
 16
1.0
 26
0.0
 36
0.0
 17
0.0
 27
1.0
 37
0.0
 76
     0
330
19
331
5A10
  0
LAYOUT
  5
1E95
102
{ACAD_XDICTIONARY
360
5C35
102
}
102
{ACAD_REACTORS
330
1E92
102
}
330
1E92
100
AcDbPlotSettings
  1

  2
EPSON LP-9300
  4

  6

 40
0.0
 41
0.0
 42
0.0
 43
0.0
 44
0.0
 45
0.0
 46
0.0
 47
0.0
 48
0.0
 49
0.0
140
0.0
141
0.0
142
1.0
143
1.0
 70
   688
 72
     0
 73
     0
 74
     5
  7
GOD2000TABLE.ctb
 75
    16
147
1.0
148
0.0
149
0.0
100
AcDbLayout
  1
ﾚｲｱｳﾄ1
 70
     0
 71
     1
 10
0.0
 20
0.0
 11
12.0
 21
9.0
 12
0.0
 22
0.0
 32
0.0
 14
1.000000000000000E+20
 24
1.000000000000000E+20
 34
1.000000000000000E+20
 15
-1.000000000000000E+20
 25
-1.000000000000000E+20
 35
-1.000000000000000E+20
146
0.0
 13
0.0
 23
0.0
 33
0.0
 16
1.0
 26
0.0
 36
0.0
 17
0.0
 27
1.0
 37
0.0
 76
     0
330
16
  0
MATERIAL
  5
5A1B
102
{ACAD_XDICTIONARY
360
5A1C
102
}
102
{ACAD_REACTORS
330
5A12
102
}
330
5A12
100
AcDbMaterial
  1
ByBlock
 72
     0
 43
0.0208333333333333
 43
0.0
 43
0.0
 43
0.0
 43
0.0
 43
0.0208333333333333
 43
0.0
 43
0.0
 43
0.0
 43
0.0
 43
1.0
 43
0.0
 43
0.0
 43
0.0
 43
0.0
 43
1.0
 77
     0
 47
0.0208333333333333
 47
0.0
 47
0.0
 47
0.0
 47
0.0
 47
0.0208333333333333
 47
0.0
 47
0.0
 47
0.0
 47
0.0
 47
1.0
 47
0.0
 47
0.0
 47
0.0
 47
0.0
 47
1.0
171
     0
 49
0.0208333333333333
 49
0.0
 49
0.0
 49
0.0
 49
0.0
 49
0.0208333333333333
 49
0.0
 49
0.0
 49
0.0
 49
0.0
 49
1.0
 49
0.0
 49
0.0
 49
0.0
 49
0.0
 49
1.0
175
     0
142
0.0208333333333333
142
0.0
142
0.0
142
0.0
142
0.0
142
0.0208333333333333
142
0.0
142
0.0
142
0.0
142
0.0
142
1.0
142
0.0
142
0.0
142
0.0
142
0.0
142
1.0
179
     0
144
0.0208333333333333
144
0.0
144
0.0
144
0.0
144
0.0
144
0.0208333333333333
144
0.0
144
0.0
144
0.0
144
0.0
144
1.0
144
0.0
144
0.0
144
0.0
144
0.0
144
1.0
147
0.0208333333333333
147
0.0
147
0.0
147
0.0
147
0.0
147
0.0208333333333333
147
0.0
147
0.0
147
0.0
147
0.0
147
1.0
147
0.0
147
0.0
147
0.0
147
0.0
147
1.0
  0
MATERIAL
  5
5A13
102
{ACAD_XDICTIONARY
360
5A14
102
}
102
{ACAD_REACTORS
330
5A12
102
}
330
5A12
100
AcDbMaterial
  1
ByLayer
 72
     0
 43
0.0208333333333333
 43
0.0
 43
0.0
 43
0.0
 43
0.0
 43
0.0208333333333333
 43
0.0
 43
0.0
 43
0.0
 43
0.0
 43
1.0
 43
0.0
 43
0.0
 43
0.0
 43
0.0
 43
1.0
 77
     0
 47
0.0208333333333333
 47
0.0
 47
0.0
 47
0.0
 47
0.0
 47
0.0208333333333333
 47
0.0
 47
0.0
 47
0.0
 47
0.0
 47
1.0
 47
0.0
 47
0.0
 47
0.0
 47
0.0
 47
1.0
171
     0
 49
0.0208333333333333
 49
0.0
 49
0.0
 49
0.0
 49
0.0
 49
0.0208333333333333
 49
0.0
 49
0.0
 49
0.0
 49
0.0
 49
1.0
 49
0.0
 49
0.0
 49
0.0
 49
0.0
 49
1.0
175
     0
142
0.0208333333333333
142
0.0
142
0.0
142
0.0
142
0.0
142
0.0208333333333333
142
0.0
142
0.0
142
0.0
142
0.0
142
1.0
142
0.0
142
0.0
142
0.0
142
0.0
142
1.0
179
     0
144
0.0208333333333333
144
0.0
144
0.0
144
0.0
144
0.0
144
0.0208333333333333
144
0.0
144
0.0
144
0.0
144
0.0
144
1.0
144
0.0
144
0.0
144
0.0
144
0.0
144
1.0
147
0.0208333333333333
147
0.0
147
0.0
147
0.0
147
0.0
147
0.0208333333333333
147
0.0
147
0.0
147
0.0
147
0.0
147
1.0
147
0.0
147
0.0
147
0.0
147
0.0
147
1.0
  0
MATERIAL
  5
5A23
102
{ACAD_XDICTIONARY
360
5A24
102
}
102
{ACAD_REACTORS
330
5A12
102
}
330
5A12
100
AcDbMaterial
  1
Global
 72
     0
 43
0.0208333333333333
 43
0.0
 43
0.0
 43
0.0
 43
0.0
 43
0.0208333333333333
 43
0.0
 43
0.0
 43
0.0
 43
0.0
 43
1.0
 43
0.0
 43
0.0
 43
0.0
 43
0.0
 43
1.0
 77
     0
 47
0.0208333333333333
 47
0.0
 47
0.0
 47
0.0
 47
0.0
 47
0.0208333333333333
 47
0.0
 47
0.0
 47
0.0
 47
0.0
 47
1.0
 47
0.0
 47
0.0
 47
0.0
 47
0.0
 47
1.0
171
     0
 49
0.0208333333333333
 49
0.0
 49
0.0
 49
0.0
 49
0.0
 49
0.0208333333333333
 49
0.0
 49
0.0
 49
0.0
 49
0.0
 49
1.0
 49
0.0
 49
0.0
 49
0.0
 49
0.0
 49
1.0
175
     0
142
0.0208333333333333
142
0.0
142
0.0
142
0.0
142
0.0
142
0.0208333333333333
142
0.0
142
0.0
142
0.0
142
0.0
142
1.0
142
0.0
142
0.0
142
0.0
142
0.0
142
1.0
179
     0
144
0.0208333333333333
144
0.0
144
0.0
144
0.0
144
0.0
144
0.0208333333333333
144
0.0
144
0.0
144
0.0
144
0.0
144
1.0
144
0.0
144
0.0
144
0.0
144
0.0
144
1.0
147
0.0208333333333333
147
0.0
147
0.0
147
0.0
147
0.0
147
0.0208333333333333
147
0.0
147
0.0
147
0.0
147
0.0
147
1.0
147
0.0
147
0.0
147
0.0
147
0.0
147
1.0
  0
MLEADERSTYLE
  5
5A5A
102
{ACAD_XDICTIONARY
360
5C6C
102
}
102
{ACAD_REACTORS
330
5A59
102
}
330
5A59
100
AcDbMLeaderStyle
170
     2
171
     1
172
     0
 90
        2
 40
0.0
 41
0.0
173
     1
 91
-1056964608
340
13
 92
       -2
290
     1
 42
2.0
291
     1
 43
0.36
  3
Standard
 44
4.0
300

342
10
174
     1
178
     6
175
     1
176
     0
 93
-1056964608
 45
4.0
292
     0
297
     0
 46
4.0
 94
-1056964608
 47
1.0
 49
1.0
140
1.0
293
     1
141
0.0
294
     1
177
     0
142
1.0
295
     0
296
     0
143
0.125
1001
ACAD_MLEADERVER
1070
     2
  0
MLINESTYLE
  5
1C
102
{ACAD_REACTORS
330
E
102
}
330
E
100
AcDbMlineStyle
  2
STANDARD
 70
     0
  3

 62
     0
 51
90.0
 52
90.0
 71
     2
 49
0.5
 62
   256
  6
BYLAYER
 49
-0.5
 62
   256
  6
BYLAYER
  0
ACDBPLACEHOLDER
  5
1E91
102
{ACAD_REACTORS
330
1E90
102
}
330
1E90
  0
SCALE
  5
5A48
102
{ACAD_REACTORS
330
5A47
102
}
330
5A47
100
AcDbScale
 70
     0
300
1:1
140
1.0
141
1.0
290
     1
  0
SCALE
  5
5A49
102
{ACAD_REACTORS
330
5A47
102
}
330
5A47
100
AcDbScale
 70
     0
300
1:2
140
1.0
141
2.0
290
     0
  0
SCALE
  5
5A4A
102
{ACAD_REACTORS
330
5A47
102
}
330
5A47
100
AcDbScale
 70
     0
300
1:4
140
1.0
141
4.0
290
     0
  0
SCALE
  5
5A4B
102
{ACAD_REACTORS
330
5A47
102
}
330
5A47
100
AcDbScale
 70
     0
300
1:5
140
1.0
141
5.0
290
     0
  0
SCALE
  5
5A4C
102
{ACAD_REACTORS
330
5A47
102
}
330
5A47
100
AcDbScale
 70
     0
300
1:8
140
1.0
141
8.0
290
     0
  0
SCALE
  5
5A4D
102
{ACAD_REACTORS
330
5A47
102
}
330
5A47
100
AcDbScale
 70
     0
300
1:10
140
1.0
141
10.0
290
     0
  0
SCALE
  5
5A4E
102
{ACAD_REACTORS
330
5A47
102
}
330
5A47
100
AcDbScale
 70
     0
300
1:16
140
1.0
141
16.0
290
     0
  0
SCALE
  5
5A4F
102
{ACAD_REACTORS
330
5A47
102
}
330
5A47
100
AcDbScale
 70
     0
300
1:20
140
1.0
141
20.0
290
     0
  0
SCALE
  5
5A50
102
{ACAD_REACTORS
330
5A47
102
}
330
5A47
100
AcDbScale
 70
     0
300
1:30
140
1.0
141
30.0
290
     0
  0
SCALE
  5
5A51
102
{ACAD_REACTORS
330
5A47
102
}
330
5A47
100
AcDbScale
 70
     0
300
1:40
140
1.0
141
40.0
290
     0
  0
SCALE
  5
5A52
102
{ACAD_REACTORS
330
5A47
102
}
330
5A47
100
AcDbScale
 70
     0
300
1:50
140
1.0
141
50.0
290
     0
  0
SCALE
  5
5A53
102
{ACAD_REACTORS
330
5A47
102
}
330
5A47
100
AcDbScale
 70
     0
300
1:100
140
1.0
141
100.0
290
     0
  0
SCALE
  5
5A54
102
{ACAD_REACTORS
330
5A47
102
}
330
5A47
100
AcDbScale
 70
     0
300
2:1
140
2.0
141
1.0
290
     0
  0
SCALE
  5
5A55
102
{ACAD_REACTORS
330
5A47
102
}
330
5A47
100
AcDbScale
 70
     0
300
4:1
140
4.0
141
1.0
290
     0
  0
SCALE
  5
5A56
102
{ACAD_REACTORS
330
5A47
102
}
330
5A47
100
AcDbScale
 70
     0
300
8:1
140
8.0
141
1.0
290
     0
  0
SCALE
  5
5A57
102
{ACAD_REACTORS
330
5A47
102
}
330
5A47
100
AcDbScale
 70
     0
300
10:1
140
10.0
141
1.0
290
     0
  0
SCALE
  5
5A58
102
{ACAD_REACTORS
330
5A47
102
}
330
5A47
100
AcDbScale
 70
     0
300
100:1
140
100.0
141
1.0
290
     0
  0
ACDBSECTIONVIEWSTYLE
  5
5A5C
102
{ACAD_XDICTIONARY
360
5C0F
102
}
102
{ACAD_REACTORS
330
5A5B
102
}
330
5A5B
100
AcDbModelDocViewStyle
 70
     0
  3
Metric50
290
     0
100
AcDbSectionViewStyle
 70
     0
 71
     0
 90
      102
 71
     1
340
10
 40
5.0
340
0
340
0
 40
5.0
300
I, O, Q, S, X, Z
 40
10.0
 90
        0
 40
2.5
 90
        0
 71
     2
340
15
 90
       25
340
15
 90
       50
 40
5.0
 40
2.5
 40
5.0
 71
     3
340
10
 40
5.0
 90
        0
 40
15.0
 90
        1
300
%<\AcVar ViewSectionStartId>%-%<\AcVar ViewSectionEndId>% (%<\AcVar ViewScale \f "%sn">%)
 71
     4
300
ANSI31
 40
1.0
 90
        0
290
     0
290
     0
 90
        6
 40
0.0
 40
1.570796326794896
 40
0.2617993877991494
 40
1.308996938995747
 40
-0.2617993877991494
 40
1.832595714594046
  0
TABLESTYLE
  5
5A46
102
{ACAD_XDICTIONARY
360
5C27
102
}
102
{ACAD_REACTORS
330
5A45
102
}
330
5A45
100
AcDbTableStyle
  3
Standard
 70
     0
 71
     0
 40
1.5
 41
1.5
280
     0
281
     0
  7
STANDARD
140
4.5
170
     2
 62
     0
 63
     7
283
     0
274
    -2
284
     1
 64
     0
275
    -2
285
     1
 65
     0
276
    -2
286
     1
 66
     0
277
    -2
287
     1
 67
     0
278
    -2
288
     1
 68
     0
279
    -2
289
     1
 69
     0
  7
STANDARD
140
6.0
170
     5
 62
     0
 63
     7
283
     0
274
    -2
284
     1
 64
     0
275
    -2
285
     1
 65
     0
276
    -2
286
     1
 66
     0
277
    -2
287
     1
 67
     0
278
    -2
288
     1
 68
     0
279
    -2
289
     1
 69
     0
  7
STANDARD
140
4.5
170
     5
 62
     0
 63
     7
283
     0
274
    -2
284
     1
 64
     0
275
    -2
285
     1
 65
     0
276
    -2
286
     1
 66
     0
277
    -2
287
     1
 67
     0
278
    -2
288
     1
 68
     0
279
    -2
289
     1
 69
     0
  0
VISUALSTYLE
  5
5A31
102
{ACAD_XDICTIONARY
360
5C44
102
}
102
{ACAD_REACTORS
330
5A2B
102
}
330
5A2B
100
AcDbVisualStyle
  2
2dWireframe
 70
     4
 71
     0
 72
     2
 73
     0
 90
        0
 40
-0.6
 41
-30.0
 62
     5
 63
     7
 74
     1
 91
        4
 64
     7
 65
   257
 75
     1
175
     1
 42
1.0
 92
        0
 66
   257
 43
1.0
 76
     1
 77
     6
 78
     2
 67
     7
 79
     5
170
     0
171
     0
290
     0
174
     0
 93
        1
 44
0.0
173
     0
291
     0
 45
0.0
1001
ACAD
1000
AcDbSavedByObjectVersion
1070
     0
  0
VISUALSTYLE
  5
5A30
102
{ACAD_XDICTIONARY
360
5C42
102
}
102
{ACAD_REACTORS
330
5A2B
102
}
330
5A2B
100
AcDbVisualStyle
  2
Basic
 70
     7
 71
     1
 72
     0
 73
     1
 90
        0
 40
-0.6
 41
-30.0
 62
     5
 63
     7
 74
     0
 91
        4
 64
     7
 65
   257
 75
     1
175
     1
 42
1.0
 92
        8
 66
     7
 43
1.0
 76
     1
 77
     6
 78
     2
 67
     7
 79
     5
170
     0
171
     0
290
     0
174
     0
 93
        1
 44
0.0
173
     0
291
     1
 45
0.0
1001
ACAD
1000
AcDbSavedByObjectVersion
1070
     0
  0
VISUALSTYLE
  5
5A37
102
{ACAD_XDICTIONARY
360
5C50
102
}
102
{ACAD_REACTORS
330
5A2B
102
}
330
5A2B
100
AcDbVisualStyle
  2
Brighten
 70
    12
 71
     2
 72
     2
 73
     0
 90
        0
 40
-0.6
 41
-30.0
 62
     5
 63
     7
 74
     1
 91
        4
 64
     7
 65
   257
 75
     1
175
     1
 42
1.0
 92
        8
 66
     7
 43
1.0
 76
     1
 77
     6
 78
     2
 67
     7
 79
     5
170
     0
171
     0
290
     0
174
     0
 93
        1
 44
50.0
173
     0
291
     1
 45
0.0
1001
ACAD
1000
AcDbSavedByObjectVersion
1070
     0
  0
VISUALSTYLE
  5
5A3B
102
{ACAD_XDICTIONARY
360
5C58
102
}
102
{ACAD_REACTORS
330
5A2B
102
}
330
5A2B
100
AcDbVisualStyle
  2
ColorChange
 70
    16
 71
     2
 72
     2
 73
     3
 90
        0
 40
-0.6
 41
-30.0
 62
     5
 63
     8
 74
     1
 91
        4
 64
     7
 65
   257
 75
     1
175
     1
 42
1.0
 92
        8
 66
     8
 43
1.0
 76
     1
 77
     6
 78
     2
 67
     7
 79
     5
170
     0
171
     0
290
     0
174
     0
 93
        1
 44
0.0
173
     0
291
     1
 45
0.0
1001
ACAD
1000
AcDbSavedByObjectVersion
1070
     0
  0
VISUALSTYLE
  5
5A34
102
{ACAD_XDICTIONARY
360
5C4A
102
}
102
{ACAD_REACTORS
330
5A2B
102
}
330
5A2B
100
AcDbVisualStyle
  2
Conceptual
 70
     9
 71
     3
 72
     2
 73
     0
 90
        0
 40
-0.6
 41
-30.0
 62
     5
 63
     7
 74
     2
 91
        2
 64
     7
 65
   257
 75
     1
175
     1
 42
179.0
 92
        8
 66
     7
 43
1.0
 76
     1
 77
     6
 78
     2
 67
     7
 79
     3
170
     0
171
     0
290
     0
174
     0
 93
        1
 44
0.0
173
     0
291
     0
 45
0.0
1001
ACAD
1000
AcDbSavedByObjectVersion
1070
     0
  0
VISUALSTYLE
  5
5A36
102
{ACAD_XDICTIONARY
360
5C4E
102
}
102
{ACAD_REACTORS
330
5A2B
102
}
330
5A2B
100
AcDbVisualStyle
  2
Dim
 70
    11
 71
     2
 72
     2
 73
     0
 90
        0
 40
-0.6
 41
-30.0
 62
     5
 63
     7
 74
     1
 91
        4
 64
     7
 65
   257
 75
     1
175
     1
 42
1.0
 92
        8
 66
     7
 43
1.0
 76
     1
 77
     6
 78
     2
 67
     7
 79
     5
170
     0
171
     0
290
     0
174
     0
 93
        1
 44
-50.0
173
     0
291
     1
 45
0.0
1001
ACAD
1000
AcDbSavedByObjectVersion
1070
     0
  0
VISUALSTYLE
  5
5A43
102
{ACAD_XDICTIONARY
360
5C68
102
}
102
{ACAD_REACTORS
330
5A2B
102
}
330
5A2B
100
AcDbVisualStyle
  2
EdgeColorOff
 70
    22
 71
     2
 72
     2
 73
     0
 90
        0
 40
-0.6
 41
-30.0
 62
     5
 63
     7
 74
     1
 91
        4
 64
     7
 65
   257
 75
     1
175
     1
 42
1.0
 92
        8
 66
     7
 43
1.0
 76
     1
 77
     6
 78
     2
 67
     7
 79
     5
170
     0
171
     0
290
     0
174
     0
 93
        1
 44
0.0
173
     0
291
     1
 45
0.0
1001
ACAD
1000
AcDbSavedByObjectVersion
1070
     0
  0
VISUALSTYLE
  5
5A3A
102
{ACAD_XDICTIONARY
360
5C56
102
}
102
{ACAD_REACTORS
330
5A2B
102
}
330
5A2B
100
AcDbVisualStyle
  2
Facepattern
 70
    15
 71
     2
 72
     2
 73
     0
 90
        0
 40
-0.6
 41
-30.0
 62
     5
 63
     7
 74
     1
 91
        4
 64
     7
 65
   257
 75
     1
175
     1
 42
1.0
 92
        8
 66
     7
 43
1.0
 76
     1
 77
     6
 78
     2
 67
     7
 79
     5
170
     0
171
     0
290
     0
174
     0
 93
        1
 44
0.0
173
     0
291
     1
 45
0.0
1001
ACAD
1000
AcDbSavedByObjectVersion
1070
     0
  0
VISUALSTYLE
  5
5A2C
102
{ACAD_XDICTIONARY
360
5C3A
102
}
102
{ACAD_REACTORS
330
5A2B
102
}
330
5A2B
100
AcDbVisualStyle
  2
Flat
 70
     0
 71
     2
 72
     1
 73
     1
 90
        2
 40
-0.6
 41
30.0
 62
     5
 63
     7
 74
     0
 91
        0
 64
     7
 65
   257
 75
     1
175
     1
 42
1.0
 92
        8
 66
     7
 43
1.0
 76
     1
 77
     6
 78
     2
 67
     7
 79
     5
170
     0
171
     0
290
     0
174
     0
 93
       13
 44
0.0
173
     0
291
     1
 45
0.0
1001
ACAD
1000
AcDbSavedByObjectVersion
1070
     0
  0
VISUALSTYLE
  5
5A2D
102
{ACAD_XDICTIONARY
360
5C3C
102
}
102
{ACAD_REACTORS
330
5A2B
102
}
330
5A2B
100
AcDbVisualStyle
  2
FlatWithEdges
 70
     1
 71
     2
 72
     1
 73
     1
 90
        2
 40
-0.6
 41
30.0
 62
     5
 63
     7
 74
     1
 91
        0
 64
     7
 65
   257
 75
     1
175
     1
 42
1.0
 92
        0
 66
   257
 43
1.0
 76
     1
 77
     6
 78
     2
 67
     7
 79
     5
170
     0
171
     0
290
     0
174
     0
 93
       13
 44
0.0
173
     0
291
     1
 45
0.0
1001
ACAD
1000
AcDbSavedByObjectVersion
1070
     0
  0
VISUALSTYLE
  5
5A2E
102
{ACAD_XDICTIONARY
360
5C3E
102
}
102
{ACAD_REACTORS
330
5A2B
102
}
330
5A2B
100
AcDbVisualStyle
  2
Gouraud
 70
     2
 71
     2
 72
     2
 73
     1
 90
        2
 40
-0.6
 41
30.0
 62
     5
 63
     7
 74
     0
 91
        0
 64
     7
 65
   257
 75
     1
175
     1
 42
1.0
 92
        0
 66
     7
 43
1.0
 76
     1
 77
     6
 78
     2
 67
     7
 79
     5
170
     0
171
     0
290
     0
174
     0
 93
       13
 44
0.0
173
     0
291
     1
 45
0.0
1001
ACAD
1000
AcDbSavedByObjectVersion
1070
     0
  0
VISUALSTYLE
  5
5A2F
102
{ACAD_XDICTIONARY
360
5C40
102
}
102
{ACAD_REACTORS
330
5A2B
102
}
330
5A2B
100
AcDbVisualStyle
  2
GouraudWithEdges
 70
     3
 71
     2
 72
     2
 73
     1
 90
        2
 40
-0.6
 41
30.0
 62
     5
 63
     7
 74
     1
 91
        0
 64
     7
 65
   257
 75
     1
175
     1
 42
1.0
 92
        0
 66
   257
 43
1.0
 76
     1
 77
     6
 78
     2
 67
     7
 79
     5
170
     0
171
     0
290
     0
174
     0
 93
       13
 44
0.0
173
     0
291
     1
 45
0.0
1001
ACAD
1000
AcDbSavedByObjectVersion
1070
     0
  0
VISUALSTYLE
  5
5A33
102
{ACAD_XDICTIONARY
360
5C48
102
}
102
{ACAD_REACTORS
330
5A2B
102
}
330
5A2B
100
AcDbVisualStyle
  2
Hidden
 70
     6
 71
     1
 72
     2
 73
     2
 90
        0
 40
-0.6
 41
-30.0
 62
     5
 63
     7
 74
     2
 91
        2
 64
     7
 65
   257
 75
     2
175
     1
 42
40.0
 92
        0
 66
   257
 43
1.0
 76
     1
 77
     6
 78
     2
 67
     7
 79
     3
170
     0
171
     0
290
     0
174
     0
 93
        1
 44
0.0
173
     0
291
     0
 45
0.0
1001
ACAD
1000
AcDbSavedByObjectVersion
1070
     0
  0
VISUALSTYLE
  5
5A41
102
{ACAD_XDICTIONARY
360
5C64
102
}
102
{ACAD_REACTORS
330
5A2B
102
}
330
5A2B
100
AcDbVisualStyle
  2
JitterOff
 70
    20
 71
     2
 72
     2
 73
     0
 90
        0
 40
-0.6
 41
-30.0
 62
     5
 63
     7
 74
     1
 91
        4
 64
     7
 65
   257
 75
     1
175
     1
 42
1.0
 92
       10
 66
     7
 43
1.0
 76
     1
 77
     6
 78
     2
 67
     7
 79
     5
170
     0
171
     0
290
     0
174
     0
 93
        1
 44
0.0
173
     0
291
     1
 45
0.0
1001
ACAD
1000
AcDbSavedByObjectVersion
1070
     0
  0
VISUALSTYLE
  5
5A39
102
{ACAD_XDICTIONARY
360
5C54
102
}
102
{ACAD_REACTORS
330
5A2B
102
}
330
5A2B
100
AcDbVisualStyle
  2
Linepattern
 70
    14
 71
     2
 72
     2
 73
     0
 90
        0
 40
-0.6
 41
-30.0
 62
     5
 63
     7
 74
     1
 91
        4
 64
     7
 65
   257
 75
     7
175
     7
 42
1.0
 92
        8
 66
     7
 43
1.0
 76
     1
 77
     6
 78
     2
 67
     7
 79
     5
170
     0
171
     0
290
     0
174
     0
 93
        1
 44
0.0
173
     0
291
     1
 45
0.0
1001
ACAD
1000
AcDbSavedByObjectVersion
1070
     0
  0
VISUALSTYLE
  5
5A42
102
{ACAD_XDICTIONARY
360
5C66
102
}
102
{ACAD_REACTORS
330
5A2B
102
}
330
5A2B
100
AcDbVisualStyle
  2
OverhangOff
 70
    21
 71
     2
 72
     2
 73
     0
 90
        0
 40
-0.6
 41
-30.0
 62
     5
 63
     7
 74
     1
 91
        4
 64
     7
 65
   257
 75
     1
175
     1
 42
1.0
 92
        9
 66
     7
 43
1.0
 76
     1
 77
     6
 78
     2
 67
     7
 79
     5
170
     0
171
     0
290
     0
174
     0
 93
        1
 44
0.0
173
     0
291
     1
 45
0.0
1001
ACAD
1000
AcDbSavedByObjectVersion
1070
     0
  0
VISUALSTYLE
  5
5A35
102
{ACAD_XDICTIONARY
360
5C4C
102
}
102
{ACAD_REACTORS
330
5A2B
102
}
330
5A2B
100
AcDbVisualStyle
  2
Realistic
 70
     8
 71
     2
 72
     3
 73
     0
 90
        2
 40
-0.6
 41
30.0
 62
     5
 63
     7
 74
     0
 91
        0
 64
     7
 65
   257
 75
     1
175
     1
 42
1.0
 92
        8
 66
   257
 43
1.0
 76
     1
 77
     6
 78
     2
 67
     7
 79
     3
170
     0
171
     0
290
     0
174
     0
 93
       13
 44
0.0
173
     0
291
     0
 45
0.0
1001
ACAD
1000
AcDbSavedByObjectVersion
1070
     0
  0
VISUALSTYLE
  5
5A40
102
{ACAD_XDICTIONARY
360
5C62
102
}
102
{ACAD_REACTORS
330
5A2B
102
}
330
5A2B
100
AcDbVisualStyle
  2
Shaded
 70
    27
 71
     2
 72
     2
 73
     1
 90
        2
 40
-0.6
 41
30.0
 62
     5
 63
     7
 74
     0
 91
        4
 64
     7
 65
   257
 75
     1
175
     1
 42
1.0
 92
        8
 66
   257
 43
1.0
 76
     1
 77
     6
 78
     2
 67
     8
 79
     3
170
     0
171
     0
290
     0
174
     0
 93
        5
 44
0.0
173
     0
291
     0
 45
0.0
1001
ACAD
1000
AcDbSavedByObjectVersion
1070
     0
  0
VISUALSTYLE
  5
5A3F
102
{ACAD_XDICTIONARY
360
5C60
102
}
102
{ACAD_REACTORS
330
5A2B
102
}
330
5A2B
100
AcDbVisualStyle
  2
Shaded with edges
 70
    26
 71
     2
 72
     2
 73
     1
 90
        2
 40
-0.6
 41
30.0
 62
     5
 63
     7
 74
     1
 91
        2
 64
     7
 65
   257
 75
     2
175
     1
 42
1.0
 92
        8
 66
   257
 43
1.0
 76
     1
 77
     6
 78
     2
 67
     7
 79
     3
170
     0
171
     0
290
     0
174
     0
 93
        5
 44
0.0
173
     0
291
     0
 45
0.0
1001
ACAD
1000
AcDbSavedByObjectVersion
1070
     0
  0
VISUALSTYLE
  5
5A3C
102
{ACAD_XDICTIONARY
360
5C5A
102
}
102
{ACAD_REACTORS
330
5A2B
102
}
330
5A2B
100
AcDbVisualStyle
  2
Shades of Gray
 70
    23
 71
     2
 72
     2
 73
     3
 90
        0
 40
-0.6
 41
-30.0
 62
     5
 63
     7
 74
     2
 91
        2
 64
     7
 65
     7
 75
     1
175
     1
 42
40.0
 92
        8
 66
     7
 43
1.0
 76
     1
 77
     6
 78
     2
 67
     7
 79
     3
170
     0
171
     0
290
     0
174
     0
 93
        1
 44
0.0
173
     0
291
     0
 45
0.0
1001
ACAD
1000
AcDbSavedByObjectVersion
1070
     0
  0
VISUALSTYLE
  5
5A3D
102
{ACAD_XDICTIONARY
360
5C5C
102
}
102
{ACAD_REACTORS
330
5A2B
102
}
330
5A2B
100
AcDbVisualStyle
  2
Sketchy
 70
    24
 71
     1
 72
     2
 73
     2
 90
        0
 40
-0.6
 41
-30.0
 62
     5
 63
     7
 74
     2
 91
        2
 64
     7
 65
     7
 75
     1
175
     1
 42
40.0
 92
       11
 66
     7
 43
1.0
 76
     1
 77
     6
 78
     2
 67
     7
 79
     6
170
     0
171
     0
290
     0
174
     0
 93
        1
 44
0.0
173
     0
291
     0
 45
0.0
1001
ACAD
1000
AcDbSavedByObjectVersion
1070
     0
  0
VISUALSTYLE
  5
5A38
102
{ACAD_XDICTIONARY
360
5C52
102
}
102
{ACAD_REACTORS
330
5A2B
102
}
330
5A2B
100
AcDbVisualStyle
  2
Thicken
 70
    13
 71
     2
 72
     2
 73
     0
 90
        0
 40
-0.6
 41
-30.0
 62
     5
 63
     7
 74
     1
 91
        4
 64
     7
 65
   257
 75
     1
175
     1
 42
1.0
 92
       12
 66
     7
 43
1.0
 76
     1
 77
     6
 78
     2
 67
     7
 79
     5
170
     0
171
     0
290
     0
174
     0
 93
        1
 44
0.0
173
     0
291
     1
 45
0.0
1001
ACAD
1000
AcDbSavedByObjectVersion
1070
     0
  0
VISUALSTYLE
  5
5A32
102
{ACAD_XDICTIONARY
360
5C46
102
}
102
{ACAD_REACTORS
330
5A2B
102
}
330
5A2B
100
AcDbVisualStyle
  2
Wireframe
 70
     5
 71
     0
 72
     2
 73
     0
 90
        0
 40
-0.6
 41
-30.0
 62
     5
 63
     7
 74
     1
 91
        4
 64
     7
 65
   257
 75
     1
175
     1
 42
1.0
 92
        0
 66
   257
 43
1.0
 76
     1
 77
     6
 78
     2
 67
     7
 79
     3
170
     0
171
     0
290
     0
174
     0
 93
        1
 44
0.0
173
     0
291
     0
 45
0.0
1001
ACAD
1000
AcDbSavedByObjectVersion
1070
     0
  0
VISUALSTYLE
  5
5A3E
102
{ACAD_XDICTIONARY
360
5C5E
102
}
102
{ACAD_REACTORS
330
5A2B
102
}
330
5A2B
100
AcDbVisualStyle
  2
X-Ray
 70
    25
 71
     2
 72
     2
 73
     1
 90
        1
 40
0.5
 41
-30.0
 62
     5
 63
     7
 74
     1
 91
        0
 64
     7
 65
   257
 75
     1
175
     1
 42
1.0
 92
        8
 66
     7
 43
1.0
 76
     1
 77
     6
 78
     2
 67
     7
 79
     3
170
     0
171
     0
290
     0
174
     0
 93
       13
 44
0.0
173
     0
291
     0
 45
0.0
1001
ACAD
1000
AcDbSavedByObjectVersion
1070
     0
  0
DICTIONARYVAR
  5
5C19
102
{ACAD_REACTORS
330
5C13
102
}
330
5C13
100
DictionaryVariables
280
     0
  1
1:1
  0
DICTIONARYVAR
  5
5C15
102
{ACAD_REACTORS
330
5C13
102
}
330
5C13
100
DictionaryVariables
280
     0
  1
STANDARD
  0
DICTIONARYVAR
  5
5C14
102
{ACAD_REACTORS
330
5C13
102
}
330
5C13
100
DictionaryVariables
280
     0
  1
STANDARD
  0
DICTIONARYVAR
  5
5C16
102
{ACAD_REACTORS
330
5C13
102
}
330
5C13
100
DictionaryVariables
280
     0
  1
Metric50
  0
DICTIONARYVAR
  5
5C17
102
{ACAD_REACTORS
330
5C13
102
}
330
5C13
100
DictionaryVariables
280
     0
  1
Metric50
  0
DICTIONARYVAR
  5
5C25
102
{ACAD_REACTORS
330
5C13
102
}
330
5C13
100
DictionaryVariables
280
     0
  1
1
  0
DICTIONARYVAR
  5
5C24
102
{ACAD_REACTORS
330
5C13
102
}
330
5C13
100
DictionaryVariables
280
     0
  1
0
  0
DICTIONARYVAR
  5
5C1B
102
{ACAD_REACTORS
330
5C13
102
}
330
5C13
100
DictionaryVariables
280
     0
  1
1
  0
DICTIONARYVAR
  5
5C1C
102
{ACAD_REACTORS
330
5C13
102
}
330
5C13
100
DictionaryVariables
280
     0
  1
15
  0
DICTIONARYVAR
  5
5C1A
102
{ACAD_REACTORS
330
5C13
102
}
330
5C13
100
DictionaryVariables
280
     0
  1
0
  0
DICTIONARYVAR
  5
5C18
102
{ACAD_REACTORS
330
5C13
102
}
330
5C13
100
DictionaryVariables
280
     0
  1
0
  0
DICTIONARYVAR
  5
5C23
102
{ACAD_REACTORS
330
5C13
102
}
330
5C13
100
DictionaryVariables
280
     0
  1
127
  0
DICTIONARYVAR
  5
5C26
102
{ACAD_REACTORS
330
5C13
102
}
330
5C13
100
DictionaryVariables
280
     0
  1
2
  0
DICTIONARY
  5
5C32
102
{ACAD_REACTORS
330
5C30
102
}
330
5C30
100
AcDbDictionary
281
     1
  0
DICTIONARY
  5
5C31
102
{ACAD_REACTORS
330
5C30
102
}
330
5C30
100
AcDbDictionary
281
     1
  3
140687753913392
350
5C2B
  3
140687753913408
350
5C2C
  3
140687753913424
350
5C2D
  3
140687753913440
350
5C2E
  3
140687753913456
350
5C2F
  0
DICTIONARY
  5
5C11
330
5A5E
100
AcDbDictionary
280
     1
281
     1
  3
ACAD_XREC_ROUNDTRIP
360
5C12
  0
DICTIONARY
  5
5C33
330
1E94
100
AcDbDictionary
280
     1
281
     1
  3
ACAD_XREC_ROUNDTRIP
360
5C34
  0
DICTIONARY
  5
5C35
330
1E95
100
AcDbDictionary
280
     1
281
     1
  3
ACAD_XREC_ROUNDTRIP
360
5C36
  0
DICTIONARY
  5
5A1C
330
5A1B
100
AcDbDictionary
280
     1
281
     1
  3
ACAD_XREC_ROUNDTRIP
360
5C38
  3
BUMPTILE
360
5A1E
  3
DIFFUSETILE
360
5A1D
  3
OPACITYTILE
360
5A21
  3
REFLECTIONTILE
360
5A20
  3
REFRACTIONTILE
360
5A22
  3
SPECULARTILE
360
5A1F
  0
DICTIONARY
  5
5A14
330
5A13
100
AcDbDictionary
280
     1
281
     1
  3
ACAD_XREC_ROUNDTRIP
360
5C37
  3
BUMPTILE
360
5A16
  3
DIFFUSETILE
360
5A15
  3
OPACITYTILE
360
5A19
  3
REFLECTIONTILE
360
5A18
  3
REFRACTIONTILE
360
5A1A
  3
SPECULARTILE
360
5A17
  0
DICTIONARY
  5
5A24
330
5A23
100
AcDbDictionary
280
     1
281
     1
  3
ACAD_XREC_ROUNDTRIP
360
5C39
  3
BUMPTILE
360
5A26
  3
DIFFUSETILE
360
5A25
  3
OPACITYTILE
360
5A29
  3
REFLECTIONTILE
360
5A28
  3
REFRACTIONTILE
360
5A2A
  3
SPECULARTILE
360
5A27
  0
DICTIONARY
  5
5C6C
330
5A5A
100
AcDbDictionary
280
     1
281
     1
  3
ACAD_XREC_ROUNDTRIP
360
5C6D
  0
DICTIONARY
  5
5C0F
330
5A5C
100
AcDbDictionary
280
     1
281
     1
  3
ACAD_XREC_ROUNDTRIP
360
5C10
  0
DICTIONARY
  5
5C27
330
5A46
100
AcDbDictionary
280
     1
281
     1
  3
ACAD_ROUNDTRIP_2008_TABLESTYLE_CELLSTYLEMAP
360
5C28
  3
ACAD_XREC_ROUNDTRIP
360
5C6A
  0
DICTIONARY
  5
5C44
330
5A31
100
AcDbDictionary
280
     1
281
     1
  3
ACAD_XREC_ROUNDTRIP
360
5C45
  0
DICTIONARY
  5
5C42
330
5A30
100
AcDbDictionary
280
     1
281
     1
  3
ACAD_XREC_ROUNDTRIP
360
5C43
  0
DICTIONARY
  5
5C50
330
5A37
100
AcDbDictionary
280
     1
281
     1
  3
ACAD_XREC_ROUNDTRIP
360
5C51
  0
DICTIONARY
  5
5C58
330
5A3B
100
AcDbDictionary
280
     1
281
     1
  3
ACAD_XREC_ROUNDTRIP
360
5C59
  0
DICTIONARY
  5
5C4A
330
5A34
100
AcDbDictionary
280
     1
281
     1
  3
ACAD_XREC_ROUNDTRIP
360
5C4B
  0
DICTIONARY
  5
5C4E
330
5A36
100
AcDbDictionary
280
     1
281
     1
  3
ACAD_XREC_ROUNDTRIP
360
5C4F
  0
DICTIONARY
  5
5C68
330
5A43
100
AcDbDictionary
280
     1
281
     1
  3
ACAD_XREC_ROUNDTRIP
360
5C69
  0
DICTIONARY
  5
5C56
330
5A3A
100
AcDbDictionary
280
     1
281
     1
  3
ACAD_XREC_ROUNDTRIP
360
5C57
  0
DICTIONARY
  5
5C3A
330
5A2C
100
AcDbDictionary
280
     1
281
     1
  3
ACAD_XREC_ROUNDTRIP
360
5C3B
  0
DICTIONARY
  5
5C3C
330
5A2D
100
AcDbDictionary
280
     1
281
     1
  3
ACAD_XREC_ROUNDTRIP
360
5C3D
  0
DICTIONARY
  5
5C3E
330
5A2E
100
AcDbDictionary
280
     1
281
     1
  3
ACAD_XREC_ROUNDTRIP
360
5C3F
  0
DICTIONARY
  5
5C40
330
5A2F
100
AcDbDictionary
280
     1
281
     1
  3
ACAD_XREC_ROUNDTRIP
360
5C41
  0
DICTIONARY
  5
5C48
330
5A33
100
AcDbDictionary
280
     1
281
     1
  3
ACAD_XREC_ROUNDTRIP
360
5C49
  0
DICTIONARY
  5
5C64
330
5A41
100
AcDbDictionary
280
     1
281
     1
  3
ACAD_XREC_ROUNDTRIP
360
5C65
  0
DICTIONARY
  5
5C54
330
5A39
100
AcDbDictionary
280
     1
281
     1
  3
ACAD_XREC_ROUNDTRIP
360
5C55
  0
DICTIONARY
  5
5C66
330
5A42
100
AcDbDictionary
280
     1
281
     1
  3
ACAD_XREC_ROUNDTRIP
360
5C67
  0
DICTIONARY
  5
5C4C
330
5A35
100
AcDbDictionary
280
     1
281
     1
  3
ACAD_XREC_ROUNDTRIP
360
5C4D
  0
DICTIONARY
  5
5C62
330
5A40
100
AcDbDictionary
280
     1
281
     1
  3
ACAD_XREC_ROUNDTRIP
360
5C63
  0
DICTIONARY
  5
5C60
330
5A3F
100
AcDbDictionary
280
     1
281
     1
  3
ACAD_XREC_ROUNDTRIP
360
5C61
  0
DICTIONARY
  5
5C5A
330
5A3C
100
AcDbDictionary
280
     1
281
     1
  3
ACAD_XREC_ROUNDTRIP
360
5C5B
  0
DICTIONARY
  5
5C5C
330
5A3D
100
AcDbDictionary
280
     1
281
     1
  3
ACAD_XREC_ROUNDTRIP
360
5C5D
  0
DICTIONARY
  5
5C52
330
5A38
100
AcDbDictionary
280
     1
281
     1
  3
ACAD_XREC_ROUNDTRIP
360
5C53
  0
DICTIONARY
  5
5C46
330
5A32
100
AcDbDictionary
280
     1
281
     1
  3
ACAD_XREC_ROUNDTRIP
360
5C47
  0
DICTIONARY
  5
5C5E
330
5A3E
100
AcDbDictionary
280
     1
281
     1
  3
ACAD_XREC_ROUNDTRIP
360
5C5F
  0
XRECORD
  5
5C2B
102
{ACAD_REACTORS
330
5C31
102
}
330
5C31
100
AcDbXrecord
280
     1
  1
AcDb_Thumbnail_Schema
102
{ATTRRECORD
341
5C2C
  2
AcDbDs::TreatedAsObjectData
280
     1
291
     1
102
ATTRRECORD}
102
{ATTRRECORD
341
5C2D
  2
AcDbDs::Legacy
280
     1
291
     1
102
ATTRRECORD}
  2
AcDbDs::ID
280
    10
 91
        8
102
{ATTRRECORD
341
5C2E
  2
AcDs:Indexable
280
     1
291
     1
102
ATTRRECORD}
102
{ATTRRECORD
341
5C2F
  2
AcDbDs::HandleAttribute
280
     7
282
     1
102
ATTRRECORD}
  2
Thumbnail_Data
280
    15
 91
        0
  0
XRECORD
  5
5C2C
102
{ACAD_REACTORS
330
5C31
102
}
330
5C31
100
AcDbXrecord
280
     1
  1
AcDbDs::TreatedAsObjectDataSchema
  2
AcDbDs::TreatedAsObjectData
280
     1
 91
        0
  0
XRECORD
  5
5C2D
102
{ACAD_REACTORS
330
5C31
102
}
330
5C31
100
AcDbXrecord
280
     1
  1
AcDbDs::LegacySchema
  2
AcDbDs::Legacy
280
     1
 91
        0
  0
XRECORD
  5
5C2E
102
{ACAD_REACTORS
330
5C31
102
}
330
5C31
100
AcDbXrecord
280
     1
  1
AcDbDs::IndexedPropertySchema
  2
AcDs:Indexable
280
     1
 91
        0
  0
XRECORD
  5
5C2F
102
{ACAD_REACTORS
330
5C31
102
}
330
5C31
100
AcDbXrecord
280
     1
  1
AcDbDs::HandleAttributeSchema
  2
AcDbDs::HandleAttribute
280
     7
 91
        1
284
     1
  0
XRECORD
  5
5C12
102
{ACAD_REACTORS
330
5C11
102
}
330
5C11
100
AcDbXrecord
280
     1
102
DISPLAYNAME
  1
Metric50
102
FLAGS
 90
        0
  0
XRECORD
  5
5C34
102
{ACAD_REACTORS
330
5C33
102
}
330
5C33
100
AcDbXrecord
280
     1
102
SHADEPLOT
 70
     0
102
SHADEPLOTRESLEVEL
 70
     2
102
SHADEPLOTCUSTOMDPI
 70
   300
  0
XRECORD
  5
5C36
102
{ACAD_REACTORS
330
5C35
102
}
330
5C35
100
AcDbXrecord
280
     1
102
SHADEPLOT
 70
     0
102
SHADEPLOTRESLEVEL
 70
     2
102
SHADEPLOTCUSTOMDPI
 70
   300
  0
XRECORD
  5
5C38
102
{ACAD_REACTORS
330
5A1C
102
}
330
5A1C
100
AcDbXrecord
280
     1
102
MATERIAL
148
0.0
149
0.0
149
0.0
 93
        0
 94
      127
282
     0
 72
     0
 77
     0
171
     0
175
     0
179
     0
273
     0
  0
XRECORD
  5
5A1E
102
{ACAD_REACTORS
330
5A1C
102
}
330
5A1C
100
AcDbXrecord
280
     1
270
     1
271
     1
  0
XRECORD
  5
5A1D
102
{ACAD_REACTORS
330
5A1C
102
}
330
5A1C
100
AcDbXrecord
280
     1
270
     1
271
     1
  0
XRECORD
  5
5A21
102
{ACAD_REACTORS
330
5A1C
102
}
330
5A1C
100
AcDbXrecord
280
     1
270
     1
271
     1
  0
XRECORD
  5
5A20
102
{ACAD_REACTORS
330
5A1C
102
}
330
5A1C
100
AcDbXrecord
280
     1
270
     1
271
     1
  0
XRECORD
  5
5A22
102
{ACAD_REACTORS
330
5A1C
102
}
330
5A1C
100
AcDbXrecord
280
     1
270
     1
271
     1
  0
XRECORD
  5
5A1F
102
{ACAD_REACTORS
330
5A1C
102
}
330
5A1C
100
AcDbXrecord
280
     1
270
     1
271
     1
  0
XRECORD
  5
5C37
102
{ACAD_REACTORS
330
5A14
102
}
330
5A14
100
AcDbXrecord
280
     1
102
MATERIAL
148
0.0
149
0.0
149
0.0
 93
        0
 94
      127
282
     0
 72
     0
 77
     0
171
     0
175
     0
179
     0
273
     0
  0
XRECORD
  5
5A16
102
{ACAD_REACTORS
330
5A14
102
}
330
5A14
100
AcDbXrecord
280
     1
270
     1
271
     1
  0
XRECORD
  5
5A15
102
{ACAD_REACTORS
330
5A14
102
}
330
5A14
100
AcDbXrecord
280
     1
270
     1
271
     1
  0
XRECORD
  5
5A19
102
{ACAD_REACTORS
330
5A14
102
}
330
5A14
100
AcDbXrecord
280
     1
270
     1
271
     1
  0
XRECORD
  5
5A18
102
{ACAD_REACTORS
330
5A14
102
}
330
5A14
100
AcDbXrecord
280
     1
270
     1
271
     1
  0
XRECORD
  5
5A1A
102
{ACAD_REACTORS
330
5A14
102
}
330
5A14
100
AcDbXrecord
280
     1
270
     1
271
     1
  0
XRECORD
  5
5A17
102
{ACAD_REACTORS
330
5A14
102
}
330
5A14
100
AcDbXrecord
280
     1
270
     1
271
     1
  0
XRECORD
  5
5C39
102
{ACAD_REACTORS
330
5A24
102
}
330
5A24
100
AcDbXrecord
280
     1
102
MATERIAL
148
0.0
149
0.0
149
0.0
 93
        0
 94
      127
282
     0
 72
     0
 77
     0
171
     0
175
     0
179
     0
273
     0
  0
XRECORD
  5
5A26
102
{ACAD_REACTORS
330
5A24
102
}
330
5A24
100
AcDbXrecord
280
     1
270
     1
271
     1
  0
XRECORD
  5
5A25
102
{ACAD_REACTORS
330
5A24
102
}
330
5A24
100
AcDbXrecord
280
     1
270
     1
271
     1
  0
XRECORD
  5
5A29
102
{ACAD_REACTORS
330
5A24
102
}
330
5A24
100
AcDbXrecord
280
     1
270
     1
271
     1
  0
XRECORD
  5
5A28
102
{ACAD_REACTORS
330
5A24
102
}
330
5A24
100
AcDbXrecord
280
     1
270
     1
271
     1
  0
XRECORD
  5
5A2A
102
{ACAD_REACTORS
330
5A24
102
}
330
5A24
100
AcDbXrecord
280
     1
270
     1
271
     1
  0
XRECORD
  5
5A27
102
{ACAD_REACTORS
330
5A24
102
}
330
5A24
100
AcDbXrecord
280
     1
270
     1
271
     1
  0
XRECORD
  5
5C6D
102
{ACAD_REACTORS
330
5C6C
102
}
330
5C6C
100
AcDbXrecord
280
     1
102
ACAD_ROUNDTRIP_2012_MLEADER_STYLE
298
     1
  0
XRECORD
  5
5C10
102
{ACAD_REACTORS
330
5C0F
102
}
330
5C0F
100
AcDbXrecord
280
     1
102
DISPLAYNAME
  1
Metric50
102
FLAGS
 90
        0
  0
CELLSTYLEMAP
  5
5C28
102
{ACAD_REACTORS
330
5C27
102
}
330
5C27
100
AcDbCellStyleMap
 90
        3
300
CELLSTYLE
  1
TABLEFORMAT_BEGIN
 90
        5
170
     1
 91
        0
 92
    32768
 62
   257
 93
        1
300
CONTENTFORMAT
  1
CONTENTFORMAT_BEGIN
 90
        0
 91
        0
 92
      512
 93
        0
300

 40
0.0
140
1.0
 94
        5
 62
     0
340
10
144
6.0
309
CONTENTFORMAT_END
171
     1
301
MARGIN
  1
CELLMARGIN_BEGIN
 40
1.5
 40
1.5
 40
1.5
 40
1.5
 40
4.5
 40
4.5
309
CELLMARGIN_END
 94
        6
 95
        1
302
GRIDFORMAT
  1
GRIDFORMAT_BEGIN
 90
        0
 91
        1
 62
     0
 92
       -2
340
0
 93
        0
 40
1.125
309
GRIDFORMAT_END
 95
        2
302
GRIDFORMAT
  1
GRIDFORMAT_BEGIN
 90
        0
 91
        1
 62
     0
 92
       -2
340
0
 93
        0
 40
1.125
309
GRIDFORMAT_END
 95
        4
302
GRIDFORMAT
  1
GRIDFORMAT_BEGIN
 90
        0
 91
        1
 62
     0
 92
       -2
340
0
 93
        0
 40
1.125
309
GRIDFORMAT_END
 95
        8
302
GRIDFORMAT
  1
GRIDFORMAT_BEGIN
 90
        0
 91
        1
 62
     0
 92
       -2
340
0
 93
        0
 40
1.125
309
GRIDFORMAT_END
 95
       16
302
GRIDFORMAT
  1
GRIDFORMAT_BEGIN
 90
        0
 91
        1
 62
     0
 92
       -2
340
0
 93
        0
 40
1.125
309
GRIDFORMAT_END
 95
       32
302
GRIDFORMAT
  1
GRIDFORMAT_BEGIN
 90
        0
 91
        1
 62
     0
 92
       -2
340
0
 93
        0
 40
1.125
309
GRIDFORMAT_END
309
TABLEFORMAT_END
  1
CELLSTYLE_BEGIN
 90
        1
 91
        1
300
_TITLE
309
CELLSTYLE_END
300
CELLSTYLE
  1
TABLEFORMAT_BEGIN
 90
        5
170
     1
 91
        0
 92
        0
 62
   257
 93
        1
300
CONTENTFORMAT
  1
CONTENTFORMAT_BEGIN
 90
        0
 91
        0
 92
      512
 93
        0
300

 40
0.0
140
1.0
 94
        5
 62
     0
340
10
144
4.5
309
CONTENTFORMAT_END
171
     1
301
MARGIN
  1
CELLMARGIN_BEGIN
 40
1.5
 40
1.5
 40
1.5
 40
1.5
 40
4.5
 40
4.5
309
CELLMARGIN_END
 94
        6
 95
        1
302
GRIDFORMAT
  1
GRIDFORMAT_BEGIN
 90
        0
 91
        1
 62
     0
 92
       -2
340
0
 93
        0
 40
1.125
309
GRIDFORMAT_END
 95
        2
302
GRIDFORMAT
  1
GRIDFORMAT_BEGIN
 90
        0
 91
        1
 62
     0
 92
       -2
340
0
 93
        0
 40
1.125
309
GRIDFORMAT_END
 95
        4
302
GRIDFORMAT
  1
GRIDFORMAT_BEGIN
 90
        0
 91
        1
 62
     0
 92
       -2
340
0
 93
        0
 40
1.125
309
GRIDFORMAT_END
 95
        8
302
GRIDFORMAT
  1
GRIDFORMAT_BEGIN
 90
        0
 91
        1
 62
     0
 92
       -2
340
0
 93
        0
 40
1.125
309
GRIDFORMAT_END
 95
       16
302
GRIDFORMAT
  1
GRIDFORMAT_BEGIN
 90
        0
 91
        1
 62
     0
 92
       -2
340
0
 93
        0
 40
1.125
309
GRIDFORMAT_END
 95
       32
302
GRIDFORMAT
  1
GRIDFORMAT_BEGIN
 90
        0
 91
        1
 62
     0
 92
       -2
340
0
 93
        0
 40
1.125
309
GRIDFORMAT_END
309
TABLEFORMAT_END
  1
CELLSTYLE_BEGIN
 90
        2
 91
        1
300
_HEADER
309
CELLSTYLE_END
300
CELLSTYLE
  1
TABLEFORMAT_BEGIN
 90
        5
170
     1
 91
        0
 92
        0
 62
   257
 93
        1
300
CONTENTFORMAT
  1
CONTENTFORMAT_BEGIN
 90
        0
 91
        0
 92
      512
 93
        0
300

 40
0.0
140
1.0
 94
        2
 62
     0
340
10
144
4.5
309
CONTENTFORMAT_END
171
     1
301
MARGIN
  1
CELLMARGIN_BEGIN
 40
1.5
 40
1.5
 40
1.5
 40
1.5
 40
4.5
 40
4.5
309
CELLMARGIN_END
 94
        6
 95
        1
302
GRIDFORMAT
  1
GRIDFORMAT_BEGIN
 90
        0
 91
        1
 62
     0
 92
       -2
340
0
 93
        0
 40
1.125
309
GRIDFORMAT_END
 95
        2
302
GRIDFORMAT
  1
GRIDFORMAT_BEGIN
 90
        0
 91
        1
 62
     0
 92
       -2
340
0
 93
        0
 40
1.125
309
GRIDFORMAT_END
 95
        4
302
GRIDFORMAT
  1
GRIDFORMAT_BEGIN
 90
        0
 91
        1
 62
     0
 92
       -2
340
0
 93
        0
 40
1.125
309
GRIDFORMAT_END
 95
        8
302
GRIDFORMAT
  1
GRIDFORMAT_BEGIN
 90
        0
 91
        1
 62
     0
 92
       -2
340
0
 93
        0
 40
1.125
309
GRIDFORMAT_END
 95
       16
302
GRIDFORMAT
  1
GRIDFORMAT_BEGIN
 90
        0
 91
        1
 62
     0
 92
       -2
340
0
 93
        0
 40
1.125
309
GRIDFORMAT_END
 95
       32
302
GRIDFORMAT
  1
GRIDFORMAT_BEGIN
 90
        0
 91
        1
 62
     0
 92
       -2
340
0
 93
        0
 40
1.125
309
GRIDFORMAT_END
309
TABLEFORMAT_END
  1
CELLSTYLE_BEGIN
 90
        3
 91
        2
300
_DATA
309
CELLSTYLE_END
  0
XRECORD
  5
5C6A
102
{ACAD_REACTORS
330
5C27
102
}
330
5C27
100
AcDbXrecord
280
     1
102
ACAD_ROUNDTRIP_PRE2007_TABLESTYLE
 90
      512
 91
        0
  1

 92
      512
 93
        0
  2

 94
      512
 95
        0
  3

  0
XRECORD
  5
5C45
102
{ACAD_REACTORS
330
5C44
102
}
330
5C44
100
AcDbXrecord
280
     1
102
RTVSPost2010Prop28
280
     1
102
RTVSPost2010PropOp28
 70
     1
102
RTVSPost2010Prop29
280
     1
102
RTVSPost2010PropOp29
 70
     1
102
RTVSPost2010Prop30
280
     0
102
RTVSPost2010PropOp30
 70
     1
102
RTVSPost2010Prop31
280
     0
102
RTVSPost2010PropOp31
 70
     1
102
RTVSPost2010Prop32
280
     0
102
RTVSPost2010PropOp32
 70
     1
102
RTVSPost2010Prop33
280
     0
102
RTVSPost2010PropOp33
 70
     1
102
RTVSPost2010Prop34
280
     0
102
RTVSPost2010PropOp34
 70
     1
102
RTVSPost2010Prop35
280
     0
102
RTVSPost2010PropOp35
 70
     1
102
RTVSPost2010Prop36
280
     0
102
RTVSPost2010PropOp36
 70
     1
102
RTVSPost2010Prop37
 90
       50
102
RTVSPost2010PropOp37
 70
     1
102
RTVSPost2010Prop38
140
0.0
102
RTVSPost2010PropOp38
 70
     1
102
RTVSPost2010Prop39
140
1.0
102
RTVSPost2010PropOp39
 70
     1
102
RTVSPost2010Prop40
 90
        0
102
RTVSPost2010PropOp40
 70
     1
102
RTVSPost2010Prop41ColorIndex
 90
       18
102
RTVSPost2010Prop41ColorRGB
 90
        0
102
RTVSPost2010PropOp41
 70
     1
102
RTVSPost2010Prop42
 90
       50
102
RTVSPost2010PropOp42
 70
     1
102
RTVSPost2010Prop43
 90
        3
102
RTVSPost2010PropOp43
 70
     1
102
RTVSPost2010Prop44ColorIndex
 90
        5
102
RTVSPost2010Prop44ColorRGB
 90
      255
102
RTVSPost2010PropOp44
 70
     1
102
RTVSPost2010Prop45
280
     0
102
RTVSPost2010PropOp45
 70
     1
102
RTVSPost2010Prop46
 90
       50
102
RTVSPost2010PropOp46
 70
     1
102
RTVSPost2010Prop47
 90
       50
102
RTVSPost2010PropOp47
 70
     1
102
RTVSPost2010Prop48
 90
       50
102
RTVSPost2010PropOp48
 70
     1
102
RTVSPost2010Prop49
280
     0
102
RTVSPost2010PropOp49
 70
     1
102
RTVSPost2010Prop50
 90
       50
102
RTVSPost2010PropOp50
 70
     1
102
RTVSPost2010Prop51ColorIndex
 90
      256
102
RTVSPost2010Prop51ColorRGB
 90
-16777216
102
RTVSPost2010PropOp51
 70
     0
102
RTVSPost2010Prop52
140
1.0
102
RTVSPost2010PropOp52
 70
     0
102
RTVSPost2010Prop53
 90
        2
102
RTVSPost2010PropOp53
 70
     1
102
RTVSPost2010Prop54
  1
strokes_ogs.tif
102
RTVSPost2010PropOp54
 70
     1
102
RTVSPost2010Prop55
280
     0
102
RTVSPost2010PropOp55
 70
     1
102
RTVSPost2010Prop56
140
1.0
102
RTVSPost2010PropOp56
 70
     1
102
RTVSPost2010Prop57
140
1.0
102
RTVSPost2010PropOp57
 70
     1
102
RTVSPropertyOp0
 70
     1
102
RTVSPropertyOp1
 70
     1
102
RTVSPropertyOp2
 70
     1
102
RTVSPropertyOp3
 70
     1
102
RTVSPropertyOp4
 70
     1
102
RTVSPropertyOp5
 70
     1
102
RTVSPropertyOp6
 70
     1
102
RTVSPropertyOp7
 70
     1
102
RTVSPropertyOp8
 70
     1
102
RTVSPropertyOp9
 70
     1
102
RTVSPropertyOp10
 70
     1
102
RTVSPropertyOp11
 70
     1
102
RTVSPropertyOp12
 70
     1
102
RTVSPropertyOp13
 70
     1
102
RTVSPropertyOp14
 70
     1
102
RTVSPropertyOp15
 70
     1
102
RTVSPropertyOp16
 70
     1
102
RTVSPropertyOp17
 70
     1
102
RTVSPropertyOp18
 70
     1
102
RTVSPropertyOp19
 70
     1
102
RTVSPropertyOp20
 70
     1
102
RTVSPropertyOp21
 70
     1
102
RTVSPropertyOp22
 70
     1
102
RTVSPropertyOp23
 70
     1
102
RTVSPropertyOp24
 70
     1
102
RTVSPropertyOp25
 70
     1
102
RTVSPropertyOp26
 70
     1
102
RTVSPropertyOp27
 70
     1
102
RTVSPropertyOp28
 70
     1
102
RTVSPropertyOp29
 70
     1
102
RTVSPropertyOp30
 70
     1
102
RTVSPropertyOp31
 70
     1
102
RTVSPropertyOp32
 70
     1
102
RTVSPropertyOp33
 70
     1
102
RTVSPropertyOp34
 70
     1
102
RTVSPropertyOp35
 70
     1
102
RTVSPropertyOp36
 70
     1
102
RTVSPropertyOp37
 70
     1
102
RTVSPropertyOp38
 70
     1
102
RTVSPropertyOp39
 70
     1
102
RTVSPropertyOp40
 70
     1
102
RTVSPropertyOp41
 70
     1
102
RTVSPropertyOp42
 70
     1
102
RTVSPropertyOp43
 70
     1
102
RTVSPropertyOp44
 70
     1
102
RTVSPropertyOp45
 70
     1
102
RTVSPropertyOp46
 70
     1
102
RTVSPropertyOp47
 70
     1
102
RTVSPropertyOp48
 70
     1
102
RTVSPropertyOp49
 70
     1
102
RTVSPropertyOp50
 70
     1
102
RTVSPropertyOp51
 70
     0
102
RTVSPropertyOp52
 70
     0
102
RTVSPropertyOp53
 70
     1
102
RTVSPropertyOp54
 70
     1
102
RTVSPropertyOp55
 70
     1
102
RTVSPropertyOp56
 70
     1
102
RTVSPropertyOp57
 70
     1
102
RTVSPropertyOp58
 70
     1
102
RTVSPropertyOp59
 70
     1
102
RTVSPropertyOp60
 70
     1
102
RTVSPropertyOp61
 70
     1
102
RTVSPropertyOp62
 70
     1
  0
XRECORD
  5
5C43
102
{ACAD_REACTORS
330
5C42
102
}
330
5C42
100
AcDbXrecord
280
     1
102
RTVSPost2010Prop28
280
     0
102
RTVSPost2010PropOp28
 70
     1
102
RTVSPost2010Prop29
280
     1
102
RTVSPost2010PropOp29
 70
     1
102
RTVSPost2010Prop30
280
     1
102
RTVSPost2010PropOp30
 70
     1
102
RTVSPost2010Prop31
280
     0
102
RTVSPost2010PropOp31
 70
     1
102
RTVSPost2010Prop32
280
     0
102
RTVSPost2010PropOp32
 70
     1
102
RTVSPost2010Prop33
280
     0
102
RTVSPost2010PropOp33
 70
     1
102
RTVSPost2010Prop34
280
     0
102
RTVSPost2010PropOp34
 70
     1
102
RTVSPost2010Prop35
280
     0
102
RTVSPost2010PropOp35
 70
     1
102
RTVSPost2010Prop36
280
     0
102
RTVSPost2010PropOp36
 70
     1
102
RTVSPost2010Prop37
 90
       50
102
RTVSPost2010PropOp37
 70
     1
102
RTVSPost2010Prop38
140
0.0
102
RTVSPost2010PropOp38
 70
     1
102
RTVSPost2010Prop39
140
1.0
102
RTVSPost2010PropOp39
 70
     1
102
RTVSPost2010Prop40
 90
        0
102
RTVSPost2010PropOp40
 70
     1
102
RTVSPost2010Prop41ColorIndex
 90
       18
102
RTVSPost2010Prop41ColorRGB
 90
        0
102
RTVSPost2010PropOp41
 70
     1
102
RTVSPost2010Prop42
 90
       50
102
RTVSPost2010PropOp42
 70
     1
102
RTVSPost2010Prop43
 90
        3
102
RTVSPost2010PropOp43
 70
     1
102
RTVSPost2010Prop44ColorIndex
 90
        5
102
RTVSPost2010Prop44ColorRGB
 90
      255
102
RTVSPost2010PropOp44
 70
     1
102
RTVSPost2010Prop45
280
     0
102
RTVSPost2010PropOp45
 70
     1
102
RTVSPost2010Prop46
 90
       50
102
RTVSPost2010PropOp46
 70
     1
102
RTVSPost2010Prop47
 90
       50
102
RTVSPost2010PropOp47
 70
     1
102
RTVSPost2010Prop48
 90
       50
102
RTVSPost2010PropOp48
 70
     1
102
RTVSPost2010Prop49
280
     0
102
RTVSPost2010PropOp49
 70
     1
102
RTVSPost2010Prop50
 90
       50
102
RTVSPost2010PropOp50
 70
     1
102
RTVSPost2010Prop51ColorIndex
 90
      256
102
RTVSPost2010Prop51ColorRGB
 90
-16777216
102
RTVSPost2010PropOp51
 70
     0
102
RTVSPost2010Prop52
140
1.0
102
RTVSPost2010PropOp52
 70
     0
102
RTVSPost2010Prop53
 90
        2
102
RTVSPost2010PropOp53
 70
     1
102
RTVSPost2010Prop54
  1
strokes_ogs.tif
102
RTVSPost2010PropOp54
 70
     1
102
RTVSPost2010Prop55
280
     0
102
RTVSPost2010PropOp55
 70
     1
102
RTVSPost2010Prop56
140
1.0
102
RTVSPost2010PropOp56
 70
     1
102
RTVSPost2010Prop57
140
1.0
102
RTVSPost2010PropOp57
 70
     1
102
RTVSPropertyOp0
 70
     1
102
RTVSPropertyOp1
 70
     1
102
RTVSPropertyOp2
 70
     1
102
RTVSPropertyOp3
 70
     1
102
RTVSPropertyOp4
 70
     1
102
RTVSPropertyOp5
 70
     1
102
RTVSPropertyOp6
 70
     1
102
RTVSPropertyOp7
 70
     1
102
RTVSPropertyOp8
 70
     1
102
RTVSPropertyOp9
 70
     1
102
RTVSPropertyOp10
 70
     1
102
RTVSPropertyOp11
 70
     1
102
RTVSPropertyOp12
 70
     1
102
RTVSPropertyOp13
 70
     1
102
RTVSPropertyOp14
 70
     1
102
RTVSPropertyOp15
 70
     1
102
RTVSPropertyOp16
 70
     1
102
RTVSPropertyOp17
 70
     1
102
RTVSPropertyOp18
 70
     1
102
RTVSPropertyOp19
 70
     1
102
RTVSPropertyOp20
 70
     1
102
RTVSPropertyOp21
 70
     1
102
RTVSPropertyOp22
 70
     1
102
RTVSPropertyOp23
 70
     1
102
RTVSPropertyOp24
 70
     1
102
RTVSPropertyOp25
 70
     1
102
RTVSPropertyOp26
 70
     1
102
RTVSPropertyOp27
 70
     1
102
RTVSPropertyOp28
 70
     1
102
RTVSPropertyOp29
 70
     1
102
RTVSPropertyOp30
 70
     1
102
RTVSPropertyOp31
 70
     1
102
RTVSPropertyOp32
 70
     1
102
RTVSPropertyOp33
 70
     1
102
RTVSPropertyOp34
 70
     1
102
RTVSPropertyOp35
 70
     1
102
RTVSPropertyOp36
 70
     1
102
RTVSPropertyOp37
 70
     1
102
RTVSPropertyOp38
 70
     1
102
RTVSPropertyOp39
 70
     1
102
RTVSPropertyOp40
 70
     1
102
RTVSPropertyOp41
 70
     1
102
RTVSPropertyOp42
 70
     1
102
RTVSPropertyOp43
 70
     1
102
RTVSPropertyOp44
 70
     1
102
RTVSPropertyOp45
 70
     1
102
RTVSPropertyOp46
 70
     1
102
RTVSPropertyOp47
 70
     1
102
RTVSPropertyOp48
 70
     1
102
RTVSPropertyOp49
 70
     1
102
RTVSPropertyOp50
 70
     1
102
RTVSPropertyOp51
 70
     0
102
RTVSPropertyOp52
 70
     0
102
RTVSPropertyOp53
 70
     1
102
RTVSPropertyOp54
 70
     1
102
RTVSPropertyOp55
 70
     1
102
RTVSPropertyOp56
 70
     1
102
RTVSPropertyOp57
 70
     1
102
RTVSPropertyOp58
 70
     1
102
RTVSPropertyOp59
 70
     1
102
RTVSPropertyOp60
 70
     1
102
RTVSPropertyOp61
 70
     1
102
RTVSPropertyOp62
 70
     1
  0
XRECORD
  5
5C51
102
{ACAD_REACTORS
330
5C50
102
}
330
5C50
100
AcDbXrecord
280
     1
102
RTVSPost2010Prop28
280
     0
102
RTVSPost2010PropOp28
 70
     1
102
RTVSPost2010Prop29
280
     1
102
RTVSPost2010PropOp29
 70
     1
102
RTVSPost2010Prop30
280
     1
102
RTVSPost2010PropOp30
 70
     1
102
RTVSPost2010Prop31
280
     0
102
RTVSPost2010PropOp31
 70
     1
102
RTVSPost2010Prop32
280
     0
102
RTVSPost2010PropOp32
 70
     1
102
RTVSPost2010Prop33
280
     0
102
RTVSPost2010PropOp33
 70
     1
102
RTVSPost2010Prop34
280
     0
102
RTVSPost2010PropOp34
 70
     1
102
RTVSPost2010Prop35
280
     0
102
RTVSPost2010PropOp35
 70
     1
102
RTVSPost2010Prop36
280
     0
102
RTVSPost2010PropOp36
 70
     1
102
RTVSPost2010Prop37
 90
       50
102
RTVSPost2010PropOp37
 70
     1
102
RTVSPost2010Prop38
140
0.0
102
RTVSPost2010PropOp38
 70
     1
102
RTVSPost2010Prop39
140
1.0
102
RTVSPost2010PropOp39
 70
     1
102
RTVSPost2010Prop40
 90
        0
102
RTVSPost2010PropOp40
 70
     1
102
RTVSPost2010Prop41ColorIndex
 90
       18
102
RTVSPost2010Prop41ColorRGB
 90
        0
102
RTVSPost2010PropOp41
 70
     1
102
RTVSPost2010Prop42
 90
       50
102
RTVSPost2010PropOp42
 70
     1
102
RTVSPost2010Prop43
 90
        3
102
RTVSPost2010PropOp43
 70
     1
102
RTVSPost2010Prop44ColorIndex
 90
        5
102
RTVSPost2010Prop44ColorRGB
 90
      255
102
RTVSPost2010PropOp44
 70
     1
102
RTVSPost2010Prop45
280
     0
102
RTVSPost2010PropOp45
 70
     1
102
RTVSPost2010Prop46
 90
       50
102
RTVSPost2010PropOp46
 70
     1
102
RTVSPost2010Prop47
 90
       50
102
RTVSPost2010PropOp47
 70
     1
102
RTVSPost2010Prop48
 90
       50
102
RTVSPost2010PropOp48
 70
     1
102
RTVSPost2010Prop49
280
     0
102
RTVSPost2010PropOp49
 70
     1
102
RTVSPost2010Prop50
 90
       50
102
RTVSPost2010PropOp50
 70
     1
102
RTVSPost2010Prop51ColorIndex
 90
      256
102
RTVSPost2010Prop51ColorRGB
 90
-16777216
102
RTVSPost2010PropOp51
 70
     0
102
RTVSPost2010Prop52
140
1.0
102
RTVSPost2010PropOp52
 70
     0
102
RTVSPost2010Prop53
 90
        2
102
RTVSPost2010PropOp53
 70
     1
102
RTVSPost2010Prop54
  1
strokes_ogs.tif
102
RTVSPost2010PropOp54
 70
     1
102
RTVSPost2010Prop55
280
     0
102
RTVSPost2010PropOp55
 70
     1
102
RTVSPost2010Prop56
140
1.0
102
RTVSPost2010PropOp56
 70
     1
102
RTVSPost2010Prop57
140
1.0
102
RTVSPost2010PropOp57
 70
     1
102
RTVSPropertyOp0
 70
     1
102
RTVSPropertyOp1
 70
     1
102
RTVSPropertyOp2
 70
     1
102
RTVSPropertyOp3
 70
     1
102
RTVSPropertyOp4
 70
     1
102
RTVSPropertyOp5
 70
     1
102
RTVSPropertyOp6
 70
     1
102
RTVSPropertyOp7
 70
     1
102
RTVSPropertyOp8
 70
     1
102
RTVSPropertyOp9
 70
     1
102
RTVSPropertyOp10
 70
     1
102
RTVSPropertyOp11
 70
     1
102
RTVSPropertyOp12
 70
     1
102
RTVSPropertyOp13
 70
     1
102
RTVSPropertyOp14
 70
     1
102
RTVSPropertyOp15
 70
     1
102
RTVSPropertyOp16
 70
     1
102
RTVSPropertyOp17
 70
     1
102
RTVSPropertyOp18
 70
     1
102
RTVSPropertyOp19
 70
     1
102
RTVSPropertyOp20
 70
     1
102
RTVSPropertyOp21
 70
     1
102
RTVSPropertyOp22
 70
     1
102
RTVSPropertyOp23
 70
     1
102
RTVSPropertyOp24
 70
     1
102
RTVSPropertyOp25
 70
     1
102
RTVSPropertyOp26
 70
     1
102
RTVSPropertyOp27
 70
     1
102
RTVSPropertyOp28
 70
     1
102
RTVSPropertyOp29
 70
     1
102
RTVSPropertyOp30
 70
     1
102
RTVSPropertyOp31
 70
     1
102
RTVSPropertyOp32
 70
     1
102
RTVSPropertyOp33
 70
     1
102
RTVSPropertyOp34
 70
     1
102
RTVSPropertyOp35
 70
     1
102
RTVSPropertyOp36
 70
     1
102
RTVSPropertyOp37
 70
     1
102
RTVSPropertyOp38
 70
     1
102
RTVSPropertyOp39
 70
     1
102
RTVSPropertyOp40
 70
     1
102
RTVSPropertyOp41
 70
     1
102
RTVSPropertyOp42
 70
     1
102
RTVSPropertyOp43
 70
     1
102
RTVSPropertyOp44
 70
     1
102
RTVSPropertyOp45
 70
     1
102
RTVSPropertyOp46
 70
     1
102
RTVSPropertyOp47
 70
     1
102
RTVSPropertyOp48
 70
     1
102
RTVSPropertyOp49
 70
     1
102
RTVSPropertyOp50
 70
     1
102
RTVSPropertyOp51
 70
     0
102
RTVSPropertyOp52
 70
     0
102
RTVSPropertyOp53
 70
     1
102
RTVSPropertyOp54
 70
     1
102
RTVSPropertyOp55
 70
     1
102
RTVSPropertyOp56
 70
     1
102
RTVSPropertyOp57
 70
     1
102
RTVSPropertyOp58
 70
     1
102
RTVSPropertyOp59
 70
     1
102
RTVSPropertyOp60
 70
     1
102
RTVSPropertyOp61
 70
     1
102
RTVSPropertyOp62
 70
     1
  0
XRECORD
  5
5C59
102
{ACAD_REACTORS
330
5C58
102
}
330
5C58
100
AcDbXrecord
280
     1
102
RTVSPost2010Prop28
280
     0
102
RTVSPost2010PropOp28
 70
     1
102
RTVSPost2010Prop29
280
     1
102
RTVSPost2010PropOp29
 70
     1
102
RTVSPost2010Prop30
280
     1
102
RTVSPost2010PropOp30
 70
     1
102
RTVSPost2010Prop31
280
     0
102
RTVSPost2010PropOp31
 70
     1
102
RTVSPost2010Prop32
280
     0
102
RTVSPost2010PropOp32
 70
     1
102
RTVSPost2010Prop33
280
     0
102
RTVSPost2010PropOp33
 70
     1
102
RTVSPost2010Prop34
280
     0
102
RTVSPost2010PropOp34
 70
     1
102
RTVSPost2010Prop35
280
     0
102
RTVSPost2010PropOp35
 70
     1
102
RTVSPost2010Prop36
280
     0
102
RTVSPost2010PropOp36
 70
     1
102
RTVSPost2010Prop37
 90
       50
102
RTVSPost2010PropOp37
 70
     1
102
RTVSPost2010Prop38
140
0.0
102
RTVSPost2010PropOp38
 70
     1
102
RTVSPost2010Prop39
140
1.0
102
RTVSPost2010PropOp39
 70
     1
102
RTVSPost2010Prop40
 90
        0
102
RTVSPost2010PropOp40
 70
     1
102
RTVSPost2010Prop41ColorIndex
 90
       18
102
RTVSPost2010Prop41ColorRGB
 90
        0
102
RTVSPost2010PropOp41
 70
     1
102
RTVSPost2010Prop42
 90
       50
102
RTVSPost2010PropOp42
 70
     1
102
RTVSPost2010Prop43
 90
        3
102
RTVSPost2010PropOp43
 70
     1
102
RTVSPost2010Prop44ColorIndex
 90
        5
102
RTVSPost2010Prop44ColorRGB
 90
      255
102
RTVSPost2010PropOp44
 70
     1
102
RTVSPost2010Prop45
280
     0
102
RTVSPost2010PropOp45
 70
     1
102
RTVSPost2010Prop46
 90
       50
102
RTVSPost2010PropOp46
 70
     1
102
RTVSPost2010Prop47
 90
       50
102
RTVSPost2010PropOp47
 70
     1
102
RTVSPost2010Prop48
 90
       50
102
RTVSPost2010PropOp48
 70
     1
102
RTVSPost2010Prop49
280
     0
102
RTVSPost2010PropOp49
 70
     1
102
RTVSPost2010Prop50
 90
       50
102
RTVSPost2010PropOp50
 70
     1
102
RTVSPost2010Prop51ColorIndex
 90
      256
102
RTVSPost2010Prop51ColorRGB
 90
-16777216
102
RTVSPost2010PropOp51
 70
     0
102
RTVSPost2010Prop52
140
1.0
102
RTVSPost2010PropOp52
 70
     0
102
RTVSPost2010Prop53
 90
        2
102
RTVSPost2010PropOp53
 70
     1
102
RTVSPost2010Prop54
  1
strokes_ogs.tif
102
RTVSPost2010PropOp54
 70
     1
102
RTVSPost2010Prop55
280
     0
102
RTVSPost2010PropOp55
 70
     1
102
RTVSPost2010Prop56
140
1.0
102
RTVSPost2010PropOp56
 70
     1
102
RTVSPost2010Prop57
140
1.0
102
RTVSPost2010PropOp57
 70
     1
102
RTVSPropertyOp0
 70
     1
102
RTVSPropertyOp1
 70
     1
102
RTVSPropertyOp2
 70
     1
102
RTVSPropertyOp3
 70
     1
102
RTVSPropertyOp4
 70
     1
102
RTVSPropertyOp5
 70
     1
102
RTVSPropertyOp6
 70
     1
102
RTVSPropertyOp7
 70
     1
102
RTVSPropertyOp8
 70
     1
102
RTVSPropertyOp9
 70
     1
102
RTVSPropertyOp10
 70
     1
102
RTVSPropertyOp11
 70
     1
102
RTVSPropertyOp12
 70
     1
102
RTVSPropertyOp13
 70
     1
102
RTVSPropertyOp14
 70
     1
102
RTVSPropertyOp15
 70
     1
102
RTVSPropertyOp16
 70
     1
102
RTVSPropertyOp17
 70
     1
102
RTVSPropertyOp18
 70
     1
102
RTVSPropertyOp19
 70
     1
102
RTVSPropertyOp20
 70
     1
102
RTVSPropertyOp21
 70
     1
102
RTVSPropertyOp22
 70
     1
102
RTVSPropertyOp23
 70
     1
102
RTVSPropertyOp24
 70
     1
102
RTVSPropertyOp25
 70
     1
102
RTVSPropertyOp26
 70
     1
102
RTVSPropertyOp27
 70
     1
102
RTVSPropertyOp28
 70
     1
102
RTVSPropertyOp29
 70
     1
102
RTVSPropertyOp30
 70
     1
102
RTVSPropertyOp31
 70
     1
102
RTVSPropertyOp32
 70
     1
102
RTVSPropertyOp33
 70
     1
102
RTVSPropertyOp34
 70
     1
102
RTVSPropertyOp35
 70
     1
102
RTVSPropertyOp36
 70
     1
102
RTVSPropertyOp37
 70
     1
102
RTVSPropertyOp38
 70
     1
102
RTVSPropertyOp39
 70
     1
102
RTVSPropertyOp40
 70
     1
102
RTVSPropertyOp41
 70
     1
102
RTVSPropertyOp42
 70
     1
102
RTVSPropertyOp43
 70
     1
102
RTVSPropertyOp44
 70
     1
102
RTVSPropertyOp45
 70
     1
102
RTVSPropertyOp46
 70
     1
102
RTVSPropertyOp47
 70
     1
102
RTVSPropertyOp48
 70
     1
102
RTVSPropertyOp49
 70
     1
102
RTVSPropertyOp50
 70
     1
102
RTVSPropertyOp51
 70
     0
102
RTVSPropertyOp52
 70
     0
102
RTVSPropertyOp53
 70
     1
102
RTVSPropertyOp54
 70
     1
102
RTVSPropertyOp55
 70
     1
102
RTVSPropertyOp56
 70
     1
102
RTVSPropertyOp57
 70
     1
102
RTVSPropertyOp58
 70
     1
102
RTVSPropertyOp59
 70
     1
102
RTVSPropertyOp60
 70
     1
102
RTVSPropertyOp61
 70
     1
102
RTVSPropertyOp62
 70
     1
  0
XRECORD
  5
5C4B
102
{ACAD_REACTORS
330
5C4A
102
}
330
5C4A
100
AcDbXrecord
280
     1
102
RTVSPost2010Prop28
280
     0
102
RTVSPost2010PropOp28
 70
     1
102
RTVSPost2010Prop29
280
     1
102
RTVSPost2010PropOp29
 70
     1
102
RTVSPost2010Prop30
280
     1
102
RTVSPost2010PropOp30
 70
     1
102
RTVSPost2010Prop31
280
     0
102
RTVSPost2010PropOp31
 70
     1
102
RTVSPost2010Prop32
280
     0
102
RTVSPost2010PropOp32
 70
     1
102
RTVSPost2010Prop33
280
     0
102
RTVSPost2010PropOp33
 70
     1
102
RTVSPost2010Prop34
280
     0
102
RTVSPost2010PropOp34
 70
     1
102
RTVSPost2010Prop35
280
     0
102
RTVSPost2010PropOp35
 70
     1
102
RTVSPost2010Prop36
280
     0
102
RTVSPost2010PropOp36
 70
     1
102
RTVSPost2010Prop37
 90
       50
102
RTVSPost2010PropOp37
 70
     1
102
RTVSPost2010Prop38
140
0.0
102
RTVSPost2010PropOp38
 70
     1
102
RTVSPost2010Prop39
140
1.0
102
RTVSPost2010PropOp39
 70
     1
102
RTVSPost2010Prop40
 90
        0
102
RTVSPost2010PropOp40
 70
     1
102
RTVSPost2010Prop41ColorIndex
 90
       18
102
RTVSPost2010Prop41ColorRGB
 90
        0
102
RTVSPost2010PropOp41
 70
     1
102
RTVSPost2010Prop42
 90
       50
102
RTVSPost2010PropOp42
 70
     1
102
RTVSPost2010Prop43
 90
        3
102
RTVSPost2010PropOp43
 70
     1
102
RTVSPost2010Prop44ColorIndex
 90
        5
102
RTVSPost2010Prop44ColorRGB
 90
      255
102
RTVSPost2010PropOp44
 70
     1
102
RTVSPost2010Prop45
280
     0
102
RTVSPost2010PropOp45
 70
     1
102
RTVSPost2010Prop46
 90
       50
102
RTVSPost2010PropOp46
 70
     1
102
RTVSPost2010Prop47
 90
       50
102
RTVSPost2010PropOp47
 70
     1
102
RTVSPost2010Prop48
 90
       50
102
RTVSPost2010PropOp48
 70
     1
102
RTVSPost2010Prop49
280
     0
102
RTVSPost2010PropOp49
 70
     1
102
RTVSPost2010Prop50
 90
       50
102
RTVSPost2010PropOp50
 70
     1
102
RTVSPost2010Prop51ColorIndex
 90
      256
102
RTVSPost2010Prop51ColorRGB
 90
-16777216
102
RTVSPost2010PropOp51
 70
     0
102
RTVSPost2010Prop52
140
1.0
102
RTVSPost2010PropOp52
 70
     0
102
RTVSPost2010Prop53
 90
        2
102
RTVSPost2010PropOp53
 70
     1
102
RTVSPost2010Prop54
  1
strokes_ogs.tif
102
RTVSPost2010PropOp54
 70
     1
102
RTVSPost2010Prop55
280
     0
102
RTVSPost2010PropOp55
 70
     1
102
RTVSPost2010Prop56
140
1.0
102
RTVSPost2010PropOp56
 70
     1
102
RTVSPost2010Prop57
140
1.0
102
RTVSPost2010PropOp57
 70
     1
102
RTVSPropertyOp0
 70
     1
102
RTVSPropertyOp1
 70
     1
102
RTVSPropertyOp2
 70
     1
102
RTVSPropertyOp3
 70
     1
102
RTVSPropertyOp4
 70
     1
102
RTVSPropertyOp5
 70
     1
102
RTVSPropertyOp6
 70
     1
102
RTVSPropertyOp7
 70
     1
102
RTVSPropertyOp8
 70
     1
102
RTVSPropertyOp9
 70
     1
102
RTVSPropertyOp10
 70
     1
102
RTVSPropertyOp11
 70
     1
102
RTVSPropertyOp12
 70
     1
102
RTVSPropertyOp13
 70
     1
102
RTVSPropertyOp14
 70
     1
102
RTVSPropertyOp15
 70
     1
102
RTVSPropertyOp16
 70
     1
102
RTVSPropertyOp17
 70
     1
102
RTVSPropertyOp18
 70
     1
102
RTVSPropertyOp19
 70
     1
102
RTVSPropertyOp20
 70
     1
102
RTVSPropertyOp21
 70
     1
102
RTVSPropertyOp22
 70
     1
102
RTVSPropertyOp23
 70
     1
102
RTVSPropertyOp24
 70
     1
102
RTVSPropertyOp25
 70
     1
102
RTVSPropertyOp26
 70
     1
102
RTVSPropertyOp27
 70
     1
102
RTVSPropertyOp28
 70
     1
102
RTVSPropertyOp29
 70
     1
102
RTVSPropertyOp30
 70
     1
102
RTVSPropertyOp31
 70
     1
102
RTVSPropertyOp32
 70
     1
102
RTVSPropertyOp33
 70
     1
102
RTVSPropertyOp34
 70
     1
102
RTVSPropertyOp35
 70
     1
102
RTVSPropertyOp36
 70
     1
102
RTVSPropertyOp37
 70
     1
102
RTVSPropertyOp38
 70
     1
102
RTVSPropertyOp39
 70
     1
102
RTVSPropertyOp40
 70
     1
102
RTVSPropertyOp41
 70
     1
102
RTVSPropertyOp42
 70
     1
102
RTVSPropertyOp43
 70
     1
102
RTVSPropertyOp44
 70
     1
102
RTVSPropertyOp45
 70
     1
102
RTVSPropertyOp46
 70
     1
102
RTVSPropertyOp47
 70
     1
102
RTVSPropertyOp48
 70
     1
102
RTVSPropertyOp49
 70
     1
102
RTVSPropertyOp50
 70
     1
102
RTVSPropertyOp51
 70
     0
102
RTVSPropertyOp52
 70
     0
102
RTVSPropertyOp53
 70
     1
102
RTVSPropertyOp54
 70
     1
102
RTVSPropertyOp55
 70
     1
102
RTVSPropertyOp56
 70
     1
102
RTVSPropertyOp57
 70
     1
102
RTVSPropertyOp58
 70
     1
102
RTVSPropertyOp59
 70
     1
102
RTVSPropertyOp60
 70
     1
102
RTVSPropertyOp61
 70
     1
102
RTVSPropertyOp62
 70
     1
  0
XRECORD
  5
5C4F
102
{ACAD_REACTORS
330
5C4E
102
}
330
5C4E
100
AcDbXrecord
280
     1
102
RTVSPost2010Prop28
280
     0
102
RTVSPost2010PropOp28
 70
     1
102
RTVSPost2010Prop29
280
     1
102
RTVSPost2010PropOp29
 70
     1
102
RTVSPost2010Prop30
280
     1
102
RTVSPost2010PropOp30
 70
     1
102
RTVSPost2010Prop31
280
     0
102
RTVSPost2010PropOp31
 70
     1
102
RTVSPost2010Prop32
280
     0
102
RTVSPost2010PropOp32
 70
     1
102
RTVSPost2010Prop33
280
     0
102
RTVSPost2010PropOp33
 70
     1
102
RTVSPost2010Prop34
280
     0
102
RTVSPost2010PropOp34
 70
     1
102
RTVSPost2010Prop35
280
     0
102
RTVSPost2010PropOp35
 70
     1
102
RTVSPost2010Prop36
280
     0
102
RTVSPost2010PropOp36
 70
     1
102
RTVSPost2010Prop37
 90
       50
102
RTVSPost2010PropOp37
 70
     1
102
RTVSPost2010Prop38
140
0.0
102
RTVSPost2010PropOp38
 70
     1
102
RTVSPost2010Prop39
140
1.0
102
RTVSPost2010PropOp39
 70
     1
102
RTVSPost2010Prop40
 90
        0
102
RTVSPost2010PropOp40
 70
     1
102
RTVSPost2010Prop41ColorIndex
 90
       18
102
RTVSPost2010Prop41ColorRGB
 90
        0
102
RTVSPost2010PropOp41
 70
     1
102
RTVSPost2010Prop42
 90
       50
102
RTVSPost2010PropOp42
 70
     1
102
RTVSPost2010Prop43
 90
        3
102
RTVSPost2010PropOp43
 70
     1
102
RTVSPost2010Prop44ColorIndex
 90
        5
102
RTVSPost2010Prop44ColorRGB
 90
      255
102
RTVSPost2010PropOp44
 70
     1
102
RTVSPost2010Prop45
280
     0
102
RTVSPost2010PropOp45
 70
     1
102
RTVSPost2010Prop46
 90
       50
102
RTVSPost2010PropOp46
 70
     1
102
RTVSPost2010Prop47
 90
       50
102
RTVSPost2010PropOp47
 70
     1
102
RTVSPost2010Prop48
 90
       50
102
RTVSPost2010PropOp48
 70
     1
102
RTVSPost2010Prop49
280
     0
102
RTVSPost2010PropOp49
 70
     1
102
RTVSPost2010Prop50
 90
       50
102
RTVSPost2010PropOp50
 70
     1
102
RTVSPost2010Prop51ColorIndex
 90
      256
102
RTVSPost2010Prop51ColorRGB
 90
-16777216
102
RTVSPost2010PropOp51
 70
     0
102
RTVSPost2010Prop52
140
1.0
102
RTVSPost2010PropOp52
 70
     0
102
RTVSPost2010Prop53
 90
        2
102
RTVSPost2010PropOp53
 70
     1
102
RTVSPost2010Prop54
  1
strokes_ogs.tif
102
RTVSPost2010PropOp54
 70
     1
102
RTVSPost2010Prop55
280
     0
102
RTVSPost2010PropOp55
 70
     1
102
RTVSPost2010Prop56
140
1.0
102
RTVSPost2010PropOp56
 70
     1
102
RTVSPost2010Prop57
140
1.0
102
RTVSPost2010PropOp57
 70
     1
102
RTVSPropertyOp0
 70
     1
102
RTVSPropertyOp1
 70
     1
102
RTVSPropertyOp2
 70
     1
102
RTVSPropertyOp3
 70
     1
102
RTVSPropertyOp4
 70
     1
102
RTVSPropertyOp5
 70
     1
102
RTVSPropertyOp6
 70
     1
102
RTVSPropertyOp7
 70
     1
102
RTVSPropertyOp8
 70
     1
102
RTVSPropertyOp9
 70
     1
102
RTVSPropertyOp10
 70
     1
102
RTVSPropertyOp11
 70
     1
102
RTVSPropertyOp12
 70
     1
102
RTVSPropertyOp13
 70
     1
102
RTVSPropertyOp14
 70
     1
102
RTVSPropertyOp15
 70
     1
102
RTVSPropertyOp16
 70
     1
102
RTVSPropertyOp17
 70
     1
102
RTVSPropertyOp18
 70
     1
102
RTVSPropertyOp19
 70
     1
102
RTVSPropertyOp20
 70
     1
102
RTVSPropertyOp21
 70
     1
102
RTVSPropertyOp22
 70
     1
102
RTVSPropertyOp23
 70
     1
102
RTVSPropertyOp24
 70
     1
102
RTVSPropertyOp25
 70
     1
102
RTVSPropertyOp26
 70
     1
102
RTVSPropertyOp27
 70
     1
102
RTVSPropertyOp28
 70
     1
102
RTVSPropertyOp29
 70
     1
102
RTVSPropertyOp30
 70
     1
102
RTVSPropertyOp31
 70
     1
102
RTVSPropertyOp32
 70
     1
102
RTVSPropertyOp33
 70
     1
102
RTVSPropertyOp34
 70
     1
102
RTVSPropertyOp35
 70
     1
102
RTVSPropertyOp36
 70
     1
102
RTVSPropertyOp37
 70
     1
102
RTVSPropertyOp38
 70
     1
102
RTVSPropertyOp39
 70
     1
102
RTVSPropertyOp40
 70
     1
102
RTVSPropertyOp41
 70
     1
102
RTVSPropertyOp42
 70
     1
102
RTVSPropertyOp43
 70
     1
102
RTVSPropertyOp44
 70
     1
102
RTVSPropertyOp45
 70
     1
102
RTVSPropertyOp46
 70
     1
102
RTVSPropertyOp47
 70
     1
102
RTVSPropertyOp48
 70
     1
102
RTVSPropertyOp49
 70
     1
102
RTVSPropertyOp50
 70
     1
102
RTVSPropertyOp51
 70
     0
102
RTVSPropertyOp52
 70
     0
102
RTVSPropertyOp53
 70
     1
102
RTVSPropertyOp54
 70
     1
102
RTVSPropertyOp55
 70
     1
102
RTVSPropertyOp56
 70
     1
102
RTVSPropertyOp57
 70
     1
102
RTVSPropertyOp58
 70
     1
102
RTVSPropertyOp59
 70
     1
102
RTVSPropertyOp60
 70
     1
102
RTVSPropertyOp61
 70
     1
102
RTVSPropertyOp62
 70
     1
  0
XRECORD
  5
5C69
102
{ACAD_REACTORS
330
5C68
102
}
330
5C68
100
AcDbXrecord
280
     1
102
RTVSPost2010Prop28
280
     0
102
RTVSPost2010PropOp28
 70
     0
102
RTVSPost2010Prop29
280
     1
102
RTVSPost2010PropOp29
 70
     0
102
RTVSPost2010Prop30
280
     1
102
RTVSPost2010PropOp30
 70
     0
102
RTVSPost2010Prop31
280
     0
102
RTVSPost2010PropOp31
 70
     0
102
RTVSPost2010Prop32
280
     0
102
RTVSPost2010PropOp32
 70
     0
102
RTVSPost2010Prop33
280
     0
102
RTVSPost2010PropOp33
 70
     0
102
RTVSPost2010Prop34
280
     0
102
RTVSPost2010PropOp34
 70
     0
102
RTVSPost2010Prop35
280
     0
102
RTVSPost2010PropOp35
 70
     0
102
RTVSPost2010Prop36
280
     0
102
RTVSPost2010PropOp36
 70
     0
102
RTVSPost2010Prop37
 90
       50
102
RTVSPost2010PropOp37
 70
     0
102
RTVSPost2010Prop38
140
0.0
102
RTVSPost2010PropOp38
 70
     0
102
RTVSPost2010Prop39
140
1.0
102
RTVSPost2010PropOp39
 70
     0
102
RTVSPost2010Prop40
 90
        0
102
RTVSPost2010PropOp40
 70
     0
102
RTVSPost2010Prop41ColorIndex
 90
       18
102
RTVSPost2010Prop41ColorRGB
 90
        0
102
RTVSPost2010PropOp41
 70
     0
102
RTVSPost2010Prop42
 90
       50
102
RTVSPost2010PropOp42
 70
     0
102
RTVSPost2010Prop43
 90
        3
102
RTVSPost2010PropOp43
 70
     0
102
RTVSPost2010Prop44ColorIndex
 90
        5
102
RTVSPost2010Prop44ColorRGB
 90
      255
102
RTVSPost2010PropOp44
 70
     0
102
RTVSPost2010Prop45
280
     0
102
RTVSPost2010PropOp45
 70
     0
102
RTVSPost2010Prop46
 90
       50
102
RTVSPost2010PropOp46
 70
     0
102
RTVSPost2010Prop47
 90
       50
102
RTVSPost2010PropOp47
 70
     0
102
RTVSPost2010Prop48
 90
       50
102
RTVSPost2010PropOp48
 70
     0
102
RTVSPost2010Prop49
280
     0
102
RTVSPost2010PropOp49
 70
     0
102
RTVSPost2010Prop50
 90
       50
102
RTVSPost2010PropOp50
 70
     0
102
RTVSPost2010Prop51ColorIndex
 90
      256
102
RTVSPost2010Prop51ColorRGB
 90
-16777216
102
RTVSPost2010PropOp51
 70
     0
102
RTVSPost2010Prop52
140
1.0
102
RTVSPost2010PropOp52
 70
     0
102
RTVSPost2010Prop53
 90
        2
102
RTVSPost2010PropOp53
 70
     0
102
RTVSPost2010Prop54
  1
strokes_ogs.tif
102
RTVSPost2010PropOp54
 70
     0
102
RTVSPost2010Prop55
280
     0
102
RTVSPost2010PropOp55
 70
     0
102
RTVSPost2010Prop56
140
1.0
102
RTVSPost2010PropOp56
 70
     0
102
RTVSPost2010Prop57
140
1.0
102
RTVSPost2010PropOp57
 70
     0
102
RTVSPropertyOp0
 70
     0
102
RTVSPropertyOp1
 70
     0
102
RTVSPropertyOp2
 70
     0
102
RTVSPropertyOp3
 70
     0
102
RTVSPropertyOp4
 70
     0
102
RTVSPropertyOp5
 70
     0
102
RTVSPropertyOp6
 70
     0
102
RTVSPropertyOp7
 70
     0
102
RTVSPropertyOp8
 70
     0
102
RTVSPropertyOp9
 70
     0
102
RTVSPropertyOp10
 70
     0
102
RTVSPropertyOp11
 70
     0
102
RTVSPropertyOp12
 70
     0
102
RTVSPropertyOp13
 70
     0
102
RTVSPropertyOp14
 70
     2
102
RTVSPropertyOp15
 70
     0
102
RTVSPropertyOp16
 70
     0
102
RTVSPropertyOp17
 70
     0
102
RTVSPropertyOp18
 70
     0
102
RTVSPropertyOp19
 70
     0
102
RTVSPropertyOp20
 70
     0
102
RTVSPropertyOp21
 70
     0
102
RTVSPropertyOp22
 70
     0
102
RTVSPropertyOp23
 70
     0
102
RTVSPropertyOp24
 70
     0
102
RTVSPropertyOp25
 70
     0
102
RTVSPropertyOp26
 70
     0
102
RTVSPropertyOp27
 70
     0
102
RTVSPropertyOp28
 70
     0
102
RTVSPropertyOp29
 70
     0
102
RTVSPropertyOp30
 70
     0
102
RTVSPropertyOp31
 70
     0
102
RTVSPropertyOp32
 70
     0
102
RTVSPropertyOp33
 70
     0
102
RTVSPropertyOp34
 70
     0
102
RTVSPropertyOp35
 70
     0
102
RTVSPropertyOp36
 70
     0
102
RTVSPropertyOp37
 70
     0
102
RTVSPropertyOp38
 70
     0
102
RTVSPropertyOp39
 70
     0
102
RTVSPropertyOp40
 70
     0
102
RTVSPropertyOp41
 70
     0
102
RTVSPropertyOp42
 70
     0
102
RTVSPropertyOp43
 70
     0
102
RTVSPropertyOp44
 70
     0
102
RTVSPropertyOp45
 70
     0
102
RTVSPropertyOp46
 70
     0
102
RTVSPropertyOp47
 70
     0
102
RTVSPropertyOp48
 70
     0
102
RTVSPropertyOp49
 70
     0
102
RTVSPropertyOp50
 70
     0
102
RTVSPropertyOp51
 70
     0
102
RTVSPropertyOp52
 70
     0
102
RTVSPropertyOp53
 70
     0
102
RTVSPropertyOp54
 70
     0
102
RTVSPropertyOp55
 70
     0
102
RTVSPropertyOp56
 70
     0
102
RTVSPropertyOp57
 70
     0
102
RTVSPropertyOp58
 70
     1
102
RTVSPropertyOp59
 70
     1
102
RTVSPropertyOp60
 70
     1
102
RTVSPropertyOp61
 70
     1
102
RTVSPropertyOp62
 70
     1
  0
XRECORD
  5
5C57
102
{ACAD_REACTORS
330
5C56
102
}
330
5C56
100
AcDbXrecord
280
     1
102
RTVSPost2010Prop28
280
     0
102
RTVSPost2010PropOp28
 70
     1
102
RTVSPost2010Prop29
280
     1
102
RTVSPost2010PropOp29
 70
     1
102
RTVSPost2010Prop30
280
     1
102
RTVSPost2010PropOp30
 70
     1
102
RTVSPost2010Prop31
280
     0
102
RTVSPost2010PropOp31
 70
     1
102
RTVSPost2010Prop32
280
     0
102
RTVSPost2010PropOp32
 70
     1
102
RTVSPost2010Prop33
280
     0
102
RTVSPost2010PropOp33
 70
     1
102
RTVSPost2010Prop34
280
     0
102
RTVSPost2010PropOp34
 70
     1
102
RTVSPost2010Prop35
280
     0
102
RTVSPost2010PropOp35
 70
     1
102
RTVSPost2010Prop36
280
     0
102
RTVSPost2010PropOp36
 70
     1
102
RTVSPost2010Prop37
 90
       50
102
RTVSPost2010PropOp37
 70
     1
102
RTVSPost2010Prop38
140
0.0
102
RTVSPost2010PropOp38
 70
     1
102
RTVSPost2010Prop39
140
1.0
102
RTVSPost2010PropOp39
 70
     1
102
RTVSPost2010Prop40
 90
        0
102
RTVSPost2010PropOp40
 70
     1
102
RTVSPost2010Prop41ColorIndex
 90
       18
102
RTVSPost2010Prop41ColorRGB
 90
        0
102
RTVSPost2010PropOp41
 70
     1
102
RTVSPost2010Prop42
 90
       50
102
RTVSPost2010PropOp42
 70
     1
102
RTVSPost2010Prop43
 90
        3
102
RTVSPost2010PropOp43
 70
     1
102
RTVSPost2010Prop44ColorIndex
 90
        5
102
RTVSPost2010Prop44ColorRGB
 90
      255
102
RTVSPost2010PropOp44
 70
     1
102
RTVSPost2010Prop45
280
     0
102
RTVSPost2010PropOp45
 70
     1
102
RTVSPost2010Prop46
 90
       50
102
RTVSPost2010PropOp46
 70
     1
102
RTVSPost2010Prop47
 90
       50
102
RTVSPost2010PropOp47
 70
     1
102
RTVSPost2010Prop48
 90
       50
102
RTVSPost2010PropOp48
 70
     1
102
RTVSPost2010Prop49
280
     0
102
RTVSPost2010PropOp49
 70
     1
102
RTVSPost2010Prop50
 90
       50
102
RTVSPost2010PropOp50
 70
     1
102
RTVSPost2010Prop51ColorIndex
 90
      256
102
RTVSPost2010Prop51ColorRGB
 90
-16777216
102
RTVSPost2010PropOp51
 70
     0
102
RTVSPost2010Prop52
140
1.0
102
RTVSPost2010PropOp52
 70
     0
102
RTVSPost2010Prop53
 90
        2
102
RTVSPost2010PropOp53
 70
     1
102
RTVSPost2010Prop54
  1
strokes_ogs.tif
102
RTVSPost2010PropOp54
 70
     1
102
RTVSPost2010Prop55
280
     0
102
RTVSPost2010PropOp55
 70
     1
102
RTVSPost2010Prop56
140
1.0
102
RTVSPost2010PropOp56
 70
     1
102
RTVSPost2010Prop57
140
1.0
102
RTVSPost2010PropOp57
 70
     1
102
RTVSPropertyOp0
 70
     1
102
RTVSPropertyOp1
 70
     1
102
RTVSPropertyOp2
 70
     1
102
RTVSPropertyOp3
 70
     1
102
RTVSPropertyOp4
 70
     1
102
RTVSPropertyOp5
 70
     1
102
RTVSPropertyOp6
 70
     1
102
RTVSPropertyOp7
 70
     1
102
RTVSPropertyOp8
 70
     1
102
RTVSPropertyOp9
 70
     1
102
RTVSPropertyOp10
 70
     1
102
RTVSPropertyOp11
 70
     1
102
RTVSPropertyOp12
 70
     1
102
RTVSPropertyOp13
 70
     1
102
RTVSPropertyOp14
 70
     1
102
RTVSPropertyOp15
 70
     1
102
RTVSPropertyOp16
 70
     1
102
RTVSPropertyOp17
 70
     1
102
RTVSPropertyOp18
 70
     1
102
RTVSPropertyOp19
 70
     1
102
RTVSPropertyOp20
 70
     1
102
RTVSPropertyOp21
 70
     1
102
RTVSPropertyOp22
 70
     1
102
RTVSPropertyOp23
 70
     1
102
RTVSPropertyOp24
 70
     1
102
RTVSPropertyOp25
 70
     1
102
RTVSPropertyOp26
 70
     1
102
RTVSPropertyOp27
 70
     1
102
RTVSPropertyOp28
 70
     1
102
RTVSPropertyOp29
 70
     1
102
RTVSPropertyOp30
 70
     1
102
RTVSPropertyOp31
 70
     1
102
RTVSPropertyOp32
 70
     1
102
RTVSPropertyOp33
 70
     1
102
RTVSPropertyOp34
 70
     1
102
RTVSPropertyOp35
 70
     1
102
RTVSPropertyOp36
 70
     1
102
RTVSPropertyOp37
 70
     1
102
RTVSPropertyOp38
 70
     1
102
RTVSPropertyOp39
 70
     1
102
RTVSPropertyOp40
 70
     1
102
RTVSPropertyOp41
 70
     1
102
RTVSPropertyOp42
 70
     1
102
RTVSPropertyOp43
 70
     1
102
RTVSPropertyOp44
 70
     1
102
RTVSPropertyOp45
 70
     1
102
RTVSPropertyOp46
 70
     1
102
RTVSPropertyOp47
 70
     1
102
RTVSPropertyOp48
 70
     1
102
RTVSPropertyOp49
 70
     1
102
RTVSPropertyOp50
 70
     1
102
RTVSPropertyOp51
 70
     0
102
RTVSPropertyOp52
 70
     0
102
RTVSPropertyOp53
 70
     1
102
RTVSPropertyOp54
 70
     1
102
RTVSPropertyOp55
 70
     1
102
RTVSPropertyOp56
 70
     1
102
RTVSPropertyOp57
 70
     1
102
RTVSPropertyOp58
 70
     1
102
RTVSPropertyOp59
 70
     1
102
RTVSPropertyOp60
 70
     1
102
RTVSPropertyOp61
 70
     1
102
RTVSPropertyOp62
 70
     1
  0
XRECORD
  5
5C3B
102
{ACAD_REACTORS
330
5C3A
102
}
330
5C3A
100
AcDbXrecord
280
     1
102
RTVSPost2010Prop28
280
     0
102
RTVSPost2010PropOp28
 70
     1
102
RTVSPost2010Prop29
280
     1
102
RTVSPost2010PropOp29
 70
     1
102
RTVSPost2010Prop30
280
     1
102
RTVSPost2010PropOp30
 70
     1
102
RTVSPost2010Prop31
280
     0
102
RTVSPost2010PropOp31
 70
     1
102
RTVSPost2010Prop32
280
     0
102
RTVSPost2010PropOp32
 70
     1
102
RTVSPost2010Prop33
280
     0
102
RTVSPost2010PropOp33
 70
     1
102
RTVSPost2010Prop34
280
     0
102
RTVSPost2010PropOp34
 70
     1
102
RTVSPost2010Prop35
280
     0
102
RTVSPost2010PropOp35
 70
     1
102
RTVSPost2010Prop36
280
     0
102
RTVSPost2010PropOp36
 70
     1
102
RTVSPost2010Prop37
 90
       50
102
RTVSPost2010PropOp37
 70
     1
102
RTVSPost2010Prop38
140
0.0
102
RTVSPost2010PropOp38
 70
     1
102
RTVSPost2010Prop39
140
1.0
102
RTVSPost2010PropOp39
 70
     1
102
RTVSPost2010Prop40
 90
        0
102
RTVSPost2010PropOp40
 70
     1
102
RTVSPost2010Prop41ColorIndex
 90
       18
102
RTVSPost2010Prop41ColorRGB
 90
        0
102
RTVSPost2010PropOp41
 70
     1
102
RTVSPost2010Prop42
 90
       50
102
RTVSPost2010PropOp42
 70
     1
102
RTVSPost2010Prop43
 90
        3
102
RTVSPost2010PropOp43
 70
     1
102
RTVSPost2010Prop44ColorIndex
 90
        5
102
RTVSPost2010Prop44ColorRGB
 90
      255
102
RTVSPost2010PropOp44
 70
     1
102
RTVSPost2010Prop45
280
     0
102
RTVSPost2010PropOp45
 70
     1
102
RTVSPost2010Prop46
 90
       50
102
RTVSPost2010PropOp46
 70
     1
102
RTVSPost2010Prop47
 90
       50
102
RTVSPost2010PropOp47
 70
     1
102
RTVSPost2010Prop48
 90
       50
102
RTVSPost2010PropOp48
 70
     1
102
RTVSPost2010Prop49
280
     0
102
RTVSPost2010PropOp49
 70
     1
102
RTVSPost2010Prop50
 90
       50
102
RTVSPost2010PropOp50
 70
     1
102
RTVSPost2010Prop51ColorIndex
 90
      256
102
RTVSPost2010Prop51ColorRGB
 90
-16777216
102
RTVSPost2010PropOp51
 70
     0
102
RTVSPost2010Prop52
140
1.0
102
RTVSPost2010PropOp52
 70
     0
102
RTVSPost2010Prop53
 90
        2
102
RTVSPost2010PropOp53
 70
     1
102
RTVSPost2010Prop54
  1
strokes_ogs.tif
102
RTVSPost2010PropOp54
 70
     1
102
RTVSPost2010Prop55
280
     0
102
RTVSPost2010PropOp55
 70
     1
102
RTVSPost2010Prop56
140
1.0
102
RTVSPost2010PropOp56
 70
     1
102
RTVSPost2010Prop57
140
1.0
102
RTVSPost2010PropOp57
 70
     1
102
RTVSPropertyOp0
 70
     1
102
RTVSPropertyOp1
 70
     1
102
RTVSPropertyOp2
 70
     1
102
RTVSPropertyOp3
 70
     1
102
RTVSPropertyOp4
 70
     1
102
RTVSPropertyOp5
 70
     1
102
RTVSPropertyOp6
 70
     1
102
RTVSPropertyOp7
 70
     1
102
RTVSPropertyOp8
 70
     1
102
RTVSPropertyOp9
 70
     1
102
RTVSPropertyOp10
 70
     1
102
RTVSPropertyOp11
 70
     1
102
RTVSPropertyOp12
 70
     1
102
RTVSPropertyOp13
 70
     1
102
RTVSPropertyOp14
 70
     1
102
RTVSPropertyOp15
 70
     1
102
RTVSPropertyOp16
 70
     1
102
RTVSPropertyOp17
 70
     1
102
RTVSPropertyOp18
 70
     1
102
RTVSPropertyOp19
 70
     1
102
RTVSPropertyOp20
 70
     1
102
RTVSPropertyOp21
 70
     1
102
RTVSPropertyOp22
 70
     1
102
RTVSPropertyOp23
 70
     1
102
RTVSPropertyOp24
 70
     1
102
RTVSPropertyOp25
 70
     1
102
RTVSPropertyOp26
 70
     1
102
RTVSPropertyOp27
 70
     1
102
RTVSPropertyOp28
 70
     1
102
RTVSPropertyOp29
 70
     1
102
RTVSPropertyOp30
 70
     1
102
RTVSPropertyOp31
 70
     1
102
RTVSPropertyOp32
 70
     1
102
RTVSPropertyOp33
 70
     1
102
RTVSPropertyOp34
 70
     1
102
RTVSPropertyOp35
 70
     1
102
RTVSPropertyOp36
 70
     1
102
RTVSPropertyOp37
 70
     1
102
RTVSPropertyOp38
 70
     1
102
RTVSPropertyOp39
 70
     1
102
RTVSPropertyOp40
 70
     1
102
RTVSPropertyOp41
 70
     1
102
RTVSPropertyOp42
 70
     1
102
RTVSPropertyOp43
 70
     1
102
RTVSPropertyOp44
 70
     1
102
RTVSPropertyOp45
 70
     1
102
RTVSPropertyOp46
 70
     1
102
RTVSPropertyOp47
 70
     1
102
RTVSPropertyOp48
 70
     1
102
RTVSPropertyOp49
 70
     1
102
RTVSPropertyOp50
 70
     1
102
RTVSPropertyOp51
 70
     0
102
RTVSPropertyOp52
 70
     0
102
RTVSPropertyOp53
 70
     1
102
RTVSPropertyOp54
 70
     1
102
RTVSPropertyOp55
 70
     1
102
RTVSPropertyOp56
 70
     1
102
RTVSPropertyOp57
 70
     1
102
RTVSPropertyOp58
 70
     1
102
RTVSPropertyOp59
 70
     1
102
RTVSPropertyOp60
 70
     1
102
RTVSPropertyOp61
 70
     1
102
RTVSPropertyOp62
 70
     1
  0
XRECORD
  5
5C3D
102
{ACAD_REACTORS
330
5C3C
102
}
330
5C3C
100
AcDbXrecord
280
     1
102
RTVSPost2010Prop28
280
     0
102
RTVSPost2010PropOp28
 70
     1
102
RTVSPost2010Prop29
280
     1
102
RTVSPost2010PropOp29
 70
     1
102
RTVSPost2010Prop30
280
     1
102
RTVSPost2010PropOp30
 70
     1
102
RTVSPost2010Prop31
280
     0
102
RTVSPost2010PropOp31
 70
     1
102
RTVSPost2010Prop32
280
     0
102
RTVSPost2010PropOp32
 70
     1
102
RTVSPost2010Prop33
280
     0
102
RTVSPost2010PropOp33
 70
     1
102
RTVSPost2010Prop34
280
     0
102
RTVSPost2010PropOp34
 70
     1
102
RTVSPost2010Prop35
280
     0
102
RTVSPost2010PropOp35
 70
     1
102
RTVSPost2010Prop36
280
     0
102
RTVSPost2010PropOp36
 70
     1
102
RTVSPost2010Prop37
 90
       50
102
RTVSPost2010PropOp37
 70
     1
102
RTVSPost2010Prop38
140
0.0
102
RTVSPost2010PropOp38
 70
     1
102
RTVSPost2010Prop39
140
1.0
102
RTVSPost2010PropOp39
 70
     1
102
RTVSPost2010Prop40
 90
        0
102
RTVSPost2010PropOp40
 70
     1
102
RTVSPost2010Prop41ColorIndex
 90
       18
102
RTVSPost2010Prop41ColorRGB
 90
        0
102
RTVSPost2010PropOp41
 70
     1
102
RTVSPost2010Prop42
 90
       50
102
RTVSPost2010PropOp42
 70
     1
102
RTVSPost2010Prop43
 90
        3
102
RTVSPost2010PropOp43
 70
     1
102
RTVSPost2010Prop44ColorIndex
 90
        5
102
RTVSPost2010Prop44ColorRGB
 90
      255
102
RTVSPost2010PropOp44
 70
     1
102
RTVSPost2010Prop45
280
     0
102
RTVSPost2010PropOp45
 70
     1
102
RTVSPost2010Prop46
 90
       50
102
RTVSPost2010PropOp46
 70
     1
102
RTVSPost2010Prop47
 90
       50
102
RTVSPost2010PropOp47
 70
     1
102
RTVSPost2010Prop48
 90
       50
102
RTVSPost2010PropOp48
 70
     1
102
RTVSPost2010Prop49
280
     0
102
RTVSPost2010PropOp49
 70
     1
102
RTVSPost2010Prop50
 90
       50
102
RTVSPost2010PropOp50
 70
     1
102
RTVSPost2010Prop51ColorIndex
 90
      256
102
RTVSPost2010Prop51ColorRGB
 90
-16777216
102
RTVSPost2010PropOp51
 70
     0
102
RTVSPost2010Prop52
140
1.0
102
RTVSPost2010PropOp52
 70
     0
102
RTVSPost2010Prop53
 90
        2
102
RTVSPost2010PropOp53
 70
     1
102
RTVSPost2010Prop54
  1
strokes_ogs.tif
102
RTVSPost2010PropOp54
 70
     1
102
RTVSPost2010Prop55
280
     0
102
RTVSPost2010PropOp55
 70
     1
102
RTVSPost2010Prop56
140
1.0
102
RTVSPost2010PropOp56
 70
     1
102
RTVSPost2010Prop57
140
1.0
102
RTVSPost2010PropOp57
 70
     1
102
RTVSPropertyOp0
 70
     1
102
RTVSPropertyOp1
 70
     1
102
RTVSPropertyOp2
 70
     1
102
RTVSPropertyOp3
 70
     1
102
RTVSPropertyOp4
 70
     1
102
RTVSPropertyOp5
 70
     1
102
RTVSPropertyOp6
 70
     1
102
RTVSPropertyOp7
 70
     1
102
RTVSPropertyOp8
 70
     1
102
RTVSPropertyOp9
 70
     1
102
RTVSPropertyOp10
 70
     1
102
RTVSPropertyOp11
 70
     1
102
RTVSPropertyOp12
 70
     1
102
RTVSPropertyOp13
 70
     1
102
RTVSPropertyOp14
 70
     1
102
RTVSPropertyOp15
 70
     1
102
RTVSPropertyOp16
 70
     1
102
RTVSPropertyOp17
 70
     1
102
RTVSPropertyOp18
 70
     1
102
RTVSPropertyOp19
 70
     1
102
RTVSPropertyOp20
 70
     1
102
RTVSPropertyOp21
 70
     1
102
RTVSPropertyOp22
 70
     1
102
RTVSPropertyOp23
 70
     1
102
RTVSPropertyOp24
 70
     1
102
RTVSPropertyOp25
 70
     1
102
RTVSPropertyOp26
 70
     1
102
RTVSPropertyOp27
 70
     1
102
RTVSPropertyOp28
 70
     1
102
RTVSPropertyOp29
 70
     1
102
RTVSPropertyOp30
 70
     1
102
RTVSPropertyOp31
 70
     1
102
RTVSPropertyOp32
 70
     1
102
RTVSPropertyOp33
 70
     1
102
RTVSPropertyOp34
 70
     1
102
RTVSPropertyOp35
 70
     1
102
RTVSPropertyOp36
 70
     1
102
RTVSPropertyOp37
 70
     1
102
RTVSPropertyOp38
 70
     1
102
RTVSPropertyOp39
 70
     1
102
RTVSPropertyOp40
 70
     1
102
RTVSPropertyOp41
 70
     1
102
RTVSPropertyOp42
 70
     1
102
RTVSPropertyOp43
 70
     1
102
RTVSPropertyOp44
 70
     1
102
RTVSPropertyOp45
 70
     1
102
RTVSPropertyOp46
 70
     1
102
RTVSPropertyOp47
 70
     1
102
RTVSPropertyOp48
 70
     1
102
RTVSPropertyOp49
 70
     1
102
RTVSPropertyOp50
 70
     1
102
RTVSPropertyOp51
 70
     0
102
RTVSPropertyOp52
 70
     0
102
RTVSPropertyOp53
 70
     1
102
RTVSPropertyOp54
 70
     1
102
RTVSPropertyOp55
 70
     1
102
RTVSPropertyOp56
 70
     1
102
RTVSPropertyOp57
 70
     1
102
RTVSPropertyOp58
 70
     1
102
RTVSPropertyOp59
 70
     1
102
RTVSPropertyOp60
 70
     1
102
RTVSPropertyOp61
 70
     1
102
RTVSPropertyOp62
 70
     1
  0
XRECORD
  5
5C3F
102
{ACAD_REACTORS
330
5C3E
102
}
330
5C3E
100
AcDbXrecord
280
     1
102
RTVSPost2010Prop28
280
     0
102
RTVSPost2010PropOp28
 70
     1
102
RTVSPost2010Prop29
280
     1
102
RTVSPost2010PropOp29
 70
     1
102
RTVSPost2010Prop30
280
     1
102
RTVSPost2010PropOp30
 70
     1
102
RTVSPost2010Prop31
280
     0
102
RTVSPost2010PropOp31
 70
     1
102
RTVSPost2010Prop32
280
     0
102
RTVSPost2010PropOp32
 70
     1
102
RTVSPost2010Prop33
280
     0
102
RTVSPost2010PropOp33
 70
     1
102
RTVSPost2010Prop34
280
     0
102
RTVSPost2010PropOp34
 70
     1
102
RTVSPost2010Prop35
280
     0
102
RTVSPost2010PropOp35
 70
     1
102
RTVSPost2010Prop36
280
     0
102
RTVSPost2010PropOp36
 70
     1
102
RTVSPost2010Prop37
 90
       50
102
RTVSPost2010PropOp37
 70
     1
102
RTVSPost2010Prop38
140
0.0
102
RTVSPost2010PropOp38
 70
     1
102
RTVSPost2010Prop39
140
1.0
102
RTVSPost2010PropOp39
 70
     1
102
RTVSPost2010Prop40
 90
        0
102
RTVSPost2010PropOp40
 70
     1
102
RTVSPost2010Prop41ColorIndex
 90
       18
102
RTVSPost2010Prop41ColorRGB
 90
        0
102
RTVSPost2010PropOp41
 70
     1
102
RTVSPost2010Prop42
 90
       50
102
RTVSPost2010PropOp42
 70
     1
102
RTVSPost2010Prop43
 90
        3
102
RTVSPost2010PropOp43
 70
     1
102
RTVSPost2010Prop44ColorIndex
 90
        5
102
RTVSPost2010Prop44ColorRGB
 90
      255
102
RTVSPost2010PropOp44
 70
     1
102
RTVSPost2010Prop45
280
     0
102
RTVSPost2010PropOp45
 70
     1
102
RTVSPost2010Prop46
 90
       50
102
RTVSPost2010PropOp46
 70
     1
102
RTVSPost2010Prop47
 90
       50
102
RTVSPost2010PropOp47
 70
     1
102
RTVSPost2010Prop48
 90
       50
102
RTVSPost2010PropOp48
 70
     1
102
RTVSPost2010Prop49
280
     0
102
RTVSPost2010PropOp49
 70
     1
102
RTVSPost2010Prop50
 90
       50
102
RTVSPost2010PropOp50
 70
     1
102
RTVSPost2010Prop51ColorIndex
 90
      256
102
RTVSPost2010Prop51ColorRGB
 90
-16777216
102
RTVSPost2010PropOp51
 70
     0
102
RTVSPost2010Prop52
140
1.0
102
RTVSPost2010PropOp52
 70
     0
102
RTVSPost2010Prop53
 90
        2
102
RTVSPost2010PropOp53
 70
     1
102
RTVSPost2010Prop54
  1
strokes_ogs.tif
102
RTVSPost2010PropOp54
 70
     1
102
RTVSPost2010Prop55
280
     0
102
RTVSPost2010PropOp55
 70
     1
102
RTVSPost2010Prop56
140
1.0
102
RTVSPost2010PropOp56
 70
     1
102
RTVSPost2010Prop57
140
1.0
102
RTVSPost2010PropOp57
 70
     1
102
RTVSPropertyOp0
 70
     1
102
RTVSPropertyOp1
 70
     1
102
RTVSPropertyOp2
 70
     1
102
RTVSPropertyOp3
 70
     1
102
RTVSPropertyOp4
 70
     1
102
RTVSPropertyOp5
 70
     1
102
RTVSPropertyOp6
 70
     1
102
RTVSPropertyOp7
 70
     1
102
RTVSPropertyOp8
 70
     1
102
RTVSPropertyOp9
 70
     1
102
RTVSPropertyOp10
 70
     1
102
RTVSPropertyOp11
 70
     1
102
RTVSPropertyOp12
 70
     1
102
RTVSPropertyOp13
 70
     1
102
RTVSPropertyOp14
 70
     1
102
RTVSPropertyOp15
 70
     1
102
RTVSPropertyOp16
 70
     1
102
RTVSPropertyOp17
 70
     1
102
RTVSPropertyOp18
 70
     1
102
RTVSPropertyOp19
 70
     1
102
RTVSPropertyOp20
 70
     1
102
RTVSPropertyOp21
 70
     1
102
RTVSPropertyOp22
 70
     1
102
RTVSPropertyOp23
 70
     1
102
RTVSPropertyOp24
 70
     1
102
RTVSPropertyOp25
 70
     1
102
RTVSPropertyOp26
 70
     1
102
RTVSPropertyOp27
 70
     1
102
RTVSPropertyOp28
 70
     1
102
RTVSPropertyOp29
 70
     1
102
RTVSPropertyOp30
 70
     1
102
RTVSPropertyOp31
 70
     1
102
RTVSPropertyOp32
 70
     1
102
RTVSPropertyOp33
 70
     1
102
RTVSPropertyOp34
 70
     1
102
RTVSPropertyOp35
 70
     1
102
RTVSPropertyOp36
 70
     1
102
RTVSPropertyOp37
 70
     1
102
RTVSPropertyOp38
 70
     1
102
RTVSPropertyOp39
 70
     1
102
RTVSPropertyOp40
 70
     1
102
RTVSPropertyOp41
 70
     1
102
RTVSPropertyOp42
 70
     1
102
RTVSPropertyOp43
 70
     1
102
RTVSPropertyOp44
 70
     1
102
RTVSPropertyOp45
 70
     1
102
RTVSPropertyOp46
 70
     1
102
RTVSPropertyOp47
 70
     1
102
RTVSPropertyOp48
 70
     1
102
RTVSPropertyOp49
 70
     1
102
RTVSPropertyOp50
 70
     1
102
RTVSPropertyOp51
 70
     0
102
RTVSPropertyOp52
 70
     0
102
RTVSPropertyOp53
 70
     1
102
RTVSPropertyOp54
 70
     1
102
RTVSPropertyOp55
 70
     1
102
RTVSPropertyOp56
 70
     1
102
RTVSPropertyOp57
 70
     1
102
RTVSPropertyOp58
 70
     1
102
RTVSPropertyOp59
 70
     1
102
RTVSPropertyOp60
 70
     1
102
RTVSPropertyOp61
 70
     1
102
RTVSPropertyOp62
 70
     1
  0
XRECORD
  5
5C41
102
{ACAD_REACTORS
330
5C40
102
}
330
5C40
100
AcDbXrecord
280
     1
102
RTVSPost2010Prop28
280
     0
102
RTVSPost2010PropOp28
 70
     1
102
RTVSPost2010Prop29
280
     1
102
RTVSPost2010PropOp29
 70
     1
102
RTVSPost2010Prop30
280
     1
102
RTVSPost2010PropOp30
 70
     1
102
RTVSPost2010Prop31
280
     0
102
RTVSPost2010PropOp31
 70
     1
102
RTVSPost2010Prop32
280
     0
102
RTVSPost2010PropOp32
 70
     1
102
RTVSPost2010Prop33
280
     0
102
RTVSPost2010PropOp33
 70
     1
102
RTVSPost2010Prop34
280
     0
102
RTVSPost2010PropOp34
 70
     1
102
RTVSPost2010Prop35
280
     0
102
RTVSPost2010PropOp35
 70
     1
102
RTVSPost2010Prop36
280
     0
102
RTVSPost2010PropOp36
 70
     1
102
RTVSPost2010Prop37
 90
       50
102
RTVSPost2010PropOp37
 70
     1
102
RTVSPost2010Prop38
140
0.0
102
RTVSPost2010PropOp38
 70
     1
102
RTVSPost2010Prop39
140
1.0
102
RTVSPost2010PropOp39
 70
     1
102
RTVSPost2010Prop40
 90
        0
102
RTVSPost2010PropOp40
 70
     1
102
RTVSPost2010Prop41ColorIndex
 90
       18
102
RTVSPost2010Prop41ColorRGB
 90
        0
102
RTVSPost2010PropOp41
 70
     1
102
RTVSPost2010Prop42
 90
       50
102
RTVSPost2010PropOp42
 70
     1
102
RTVSPost2010Prop43
 90
        3
102
RTVSPost2010PropOp43
 70
     1
102
RTVSPost2010Prop44ColorIndex
 90
        5
102
RTVSPost2010Prop44ColorRGB
 90
      255
102
RTVSPost2010PropOp44
 70
     1
102
RTVSPost2010Prop45
280
     0
102
RTVSPost2010PropOp45
 70
     1
102
RTVSPost2010Prop46
 90
       50
102
RTVSPost2010PropOp46
 70
     1
102
RTVSPost2010Prop47
 90
       50
102
RTVSPost2010PropOp47
 70
     1
102
RTVSPost2010Prop48
 90
       50
102
RTVSPost2010PropOp48
 70
     1
102
RTVSPost2010Prop49
280
     0
102
RTVSPost2010PropOp49
 70
     1
102
RTVSPost2010Prop50
 90
       50
102
RTVSPost2010PropOp50
 70
     1
102
RTVSPost2010Prop51ColorIndex
 90
      256
102
RTVSPost2010Prop51ColorRGB
 90
-16777216
102
RTVSPost2010PropOp51
 70
     0
102
RTVSPost2010Prop52
140
1.0
102
RTVSPost2010PropOp52
 70
     0
102
RTVSPost2010Prop53
 90
        2
102
RTVSPost2010PropOp53
 70
     1
102
RTVSPost2010Prop54
  1
strokes_ogs.tif
102
RTVSPost2010PropOp54
 70
     1
102
RTVSPost2010Prop55
280
     0
102
RTVSPost2010PropOp55
 70
     1
102
RTVSPost2010Prop56
140
1.0
102
RTVSPost2010PropOp56
 70
     1
102
RTVSPost2010Prop57
140
1.0
102
RTVSPost2010PropOp57
 70
     1
102
RTVSPropertyOp0
 70
     1
102
RTVSPropertyOp1
 70
     1
102
RTVSPropertyOp2
 70
     1
102
RTVSPropertyOp3
 70
     1
102
RTVSPropertyOp4
 70
     1
102
RTVSPropertyOp5
 70
     1
102
RTVSPropertyOp6
 70
     1
102
RTVSPropertyOp7
 70
     1
102
RTVSPropertyOp8
 70
     1
102
RTVSPropertyOp9
 70
     1
102
RTVSPropertyOp10
 70
     1
102
RTVSPropertyOp11
 70
     1
102
RTVSPropertyOp12
 70
     1
102
RTVSPropertyOp13
 70
     1
102
RTVSPropertyOp14
 70
     1
102
RTVSPropertyOp15
 70
     1
102
RTVSPropertyOp16
 70
     1
102
RTVSPropertyOp17
 70
     1
102
RTVSPropertyOp18
 70
     1
102
RTVSPropertyOp19
 70
     1
102
RTVSPropertyOp20
 70
     1
102
RTVSPropertyOp21
 70
     1
102
RTVSPropertyOp22
 70
     1
102
RTVSPropertyOp23
 70
     1
102
RTVSPropertyOp24
 70
     1
102
RTVSPropertyOp25
 70
     1
102
RTVSPropertyOp26
 70
     1
102
RTVSPropertyOp27
 70
     1
102
RTVSPropertyOp28
 70
     1
102
RTVSPropertyOp29
 70
     1
102
RTVSPropertyOp30
 70
     1
102
RTVSPropertyOp31
 70
     1
102
RTVSPropertyOp32
 70
     1
102
RTVSPropertyOp33
 70
     1
102
RTVSPropertyOp34
 70
     1
102
RTVSPropertyOp35
 70
     1
102
RTVSPropertyOp36
 70
     1
102
RTVSPropertyOp37
 70
     1
102
RTVSPropertyOp38
 70
     1
102
RTVSPropertyOp39
 70
     1
102
RTVSPropertyOp40
 70
     1
102
RTVSPropertyOp41
 70
     1
102
RTVSPropertyOp42
 70
     1
102
RTVSPropertyOp43
 70
     1
102
RTVSPropertyOp44
 70
     1
102
RTVSPropertyOp45
 70
     1
102
RTVSPropertyOp46
 70
     1
102
RTVSPropertyOp47
 70
     1
102
RTVSPropertyOp48
 70
     1
102
RTVSPropertyOp49
 70
     1
102
RTVSPropertyOp50
 70
     1
102
RTVSPropertyOp51
 70
     0
102
RTVSPropertyOp52
 70
     0
102
RTVSPropertyOp53
 70
     1
102
RTVSPropertyOp54
 70
     1
102
RTVSPropertyOp55
 70
     1
102
RTVSPropertyOp56
 70
     1
102
RTVSPropertyOp57
 70
     1
102
RTVSPropertyOp58
 70
     1
102
RTVSPropertyOp59
 70
     1
102
RTVSPropertyOp60
 70
     1
102
RTVSPropertyOp61
 70
     1
102
RTVSPropertyOp62
 70
     1
  0
XRECORD
  5
5C49
102
{ACAD_REACTORS
330
5C48
102
}
330
5C48
100
AcDbXrecord
280
     1
102
RTVSPost2010Prop28
280
     0
102
RTVSPost2010PropOp28
 70
     1
102
RTVSPost2010Prop29
280
     1
102
RTVSPost2010PropOp29
 70
     1
102
RTVSPost2010Prop30
280
     1
102
RTVSPost2010PropOp30
 70
     1
102
RTVSPost2010Prop31
280
     0
102
RTVSPost2010PropOp31
 70
     1
102
RTVSPost2010Prop32
280
     0
102
RTVSPost2010PropOp32
 70
     1
102
RTVSPost2010Prop33
280
     0
102
RTVSPost2010PropOp33
 70
     1
102
RTVSPost2010Prop34
280
     0
102
RTVSPost2010PropOp34
 70
     1
102
RTVSPost2010Prop35
280
     0
102
RTVSPost2010PropOp35
 70
     1
102
RTVSPost2010Prop36
280
     0
102
RTVSPost2010PropOp36
 70
     1
102
RTVSPost2010Prop37
 90
       50
102
RTVSPost2010PropOp37
 70
     1
102
RTVSPost2010Prop38
140
0.0
102
RTVSPost2010PropOp38
 70
     1
102
RTVSPost2010Prop39
140
1.0
102
RTVSPost2010PropOp39
 70
     1
102
RTVSPost2010Prop40
 90
        0
102
RTVSPost2010PropOp40
 70
     1
102
RTVSPost2010Prop41ColorIndex
 90
       18
102
RTVSPost2010Prop41ColorRGB
 90
        0
102
RTVSPost2010PropOp41
 70
     1
102
RTVSPost2010Prop42
 90
       50
102
RTVSPost2010PropOp42
 70
     1
102
RTVSPost2010Prop43
 90
        3
102
RTVSPost2010PropOp43
 70
     1
102
RTVSPost2010Prop44ColorIndex
 90
        5
102
RTVSPost2010Prop44ColorRGB
 90
      255
102
RTVSPost2010PropOp44
 70
     1
102
RTVSPost2010Prop45
280
     0
102
RTVSPost2010PropOp45
 70
     1
102
RTVSPost2010Prop46
 90
       50
102
RTVSPost2010PropOp46
 70
     1
102
RTVSPost2010Prop47
 90
       50
102
RTVSPost2010PropOp47
 70
     1
102
RTVSPost2010Prop48
 90
       50
102
RTVSPost2010PropOp48
 70
     1
102
RTVSPost2010Prop49
280
     0
102
RTVSPost2010PropOp49
 70
     1
102
RTVSPost2010Prop50
 90
       50
102
RTVSPost2010PropOp50
 70
     1
102
RTVSPost2010Prop51ColorIndex
 90
      256
102
RTVSPost2010Prop51ColorRGB
 90
-16777216
102
RTVSPost2010PropOp51
 70
     0
102
RTVSPost2010Prop52
140
1.0
102
RTVSPost2010PropOp52
 70
     0
102
RTVSPost2010Prop53
 90
        2
102
RTVSPost2010PropOp53
 70
     1
102
RTVSPost2010Prop54
  1
strokes_ogs.tif
102
RTVSPost2010PropOp54
 70
     1
102
RTVSPost2010Prop55
280
     0
102
RTVSPost2010PropOp55
 70
     1
102
RTVSPost2010Prop56
140
1.0
102
RTVSPost2010PropOp56
 70
     1
102
RTVSPost2010Prop57
140
1.0
102
RTVSPost2010PropOp57
 70
     1
102
RTVSPropertyOp0
 70
     1
102
RTVSPropertyOp1
 70
     1
102
RTVSPropertyOp2
 70
     1
102
RTVSPropertyOp3
 70
     1
102
RTVSPropertyOp4
 70
     1
102
RTVSPropertyOp5
 70
     1
102
RTVSPropertyOp6
 70
     1
102
RTVSPropertyOp7
 70
     1
102
RTVSPropertyOp8
 70
     1
102
RTVSPropertyOp9
 70
     1
102
RTVSPropertyOp10
 70
     1
102
RTVSPropertyOp11
 70
     1
102
RTVSPropertyOp12
 70
     1
102
RTVSPropertyOp13
 70
     1
102
RTVSPropertyOp14
 70
     1
102
RTVSPropertyOp15
 70
     1
102
RTVSPropertyOp16
 70
     1
102
RTVSPropertyOp17
 70
     1
102
RTVSPropertyOp18
 70
     1
102
RTVSPropertyOp19
 70
     1
102
RTVSPropertyOp20
 70
     1
102
RTVSPropertyOp21
 70
     1
102
RTVSPropertyOp22
 70
     1
102
RTVSPropertyOp23
 70
     1
102
RTVSPropertyOp24
 70
     1
102
RTVSPropertyOp25
 70
     1
102
RTVSPropertyOp26
 70
     1
102
RTVSPropertyOp27
 70
     1
102
RTVSPropertyOp28
 70
     1
102
RTVSPropertyOp29
 70
     1
102
RTVSPropertyOp30
 70
     1
102
RTVSPropertyOp31
 70
     1
102
RTVSPropertyOp32
 70
     1
102
RTVSPropertyOp33
 70
     1
102
RTVSPropertyOp34
 70
     1
102
RTVSPropertyOp35
 70
     1
102
RTVSPropertyOp36
 70
     1
102
RTVSPropertyOp37
 70
     1
102
RTVSPropertyOp38
 70
     1
102
RTVSPropertyOp39
 70
     1
102
RTVSPropertyOp40
 70
     1
102
RTVSPropertyOp41
 70
     1
102
RTVSPropertyOp42
 70
     1
102
RTVSPropertyOp43
 70
     1
102
RTVSPropertyOp44
 70
     1
102
RTVSPropertyOp45
 70
     1
102
RTVSPropertyOp46
 70
     1
102
RTVSPropertyOp47
 70
     1
102
RTVSPropertyOp48
 70
     1
102
RTVSPropertyOp49
 70
     1
102
RTVSPropertyOp50
 70
     1
102
RTVSPropertyOp51
 70
     0
102
RTVSPropertyOp52
 70
     0
102
RTVSPropertyOp53
 70
     1
102
RTVSPropertyOp54
 70
     1
102
RTVSPropertyOp55
 70
     1
102
RTVSPropertyOp56
 70
     1
102
RTVSPropertyOp57
 70
     1
102
RTVSPropertyOp58
 70
     1
102
RTVSPropertyOp59
 70
     1
102
RTVSPropertyOp60
 70
     1
102
RTVSPropertyOp61
 70
     1
102
RTVSPropertyOp62
 70
     1
  0
XRECORD
  5
5C65
102
{ACAD_REACTORS
330
5C64
102
}
330
5C64
100
AcDbXrecord
280
     1
102
RTVSPost2010Prop28
280
     0
102
RTVSPost2010PropOp28
 70
     0
102
RTVSPost2010Prop29
280
     1
102
RTVSPost2010PropOp29
 70
     0
102
RTVSPost2010Prop30
280
     1
102
RTVSPost2010PropOp30
 70
     0
102
RTVSPost2010Prop31
280
     0
102
RTVSPost2010PropOp31
 70
     0
102
RTVSPost2010Prop32
280
     0
102
RTVSPost2010PropOp32
 70
     0
102
RTVSPost2010Prop33
280
     0
102
RTVSPost2010PropOp33
 70
     0
102
RTVSPost2010Prop34
280
     0
102
RTVSPost2010PropOp34
 70
     0
102
RTVSPost2010Prop35
280
     0
102
RTVSPost2010PropOp35
 70
     0
102
RTVSPost2010Prop36
280
     0
102
RTVSPost2010PropOp36
 70
     0
102
RTVSPost2010Prop37
 90
       50
102
RTVSPost2010PropOp37
 70
     0
102
RTVSPost2010Prop38
140
0.0
102
RTVSPost2010PropOp38
 70
     0
102
RTVSPost2010Prop39
140
1.0
102
RTVSPost2010PropOp39
 70
     0
102
RTVSPost2010Prop40
 90
        0
102
RTVSPost2010PropOp40
 70
     0
102
RTVSPost2010Prop41ColorIndex
 90
       18
102
RTVSPost2010Prop41ColorRGB
 90
        0
102
RTVSPost2010PropOp41
 70
     0
102
RTVSPost2010Prop42
 90
       50
102
RTVSPost2010PropOp42
 70
     0
102
RTVSPost2010Prop43
 90
        3
102
RTVSPost2010PropOp43
 70
     0
102
RTVSPost2010Prop44ColorIndex
 90
        5
102
RTVSPost2010Prop44ColorRGB
 90
      255
102
RTVSPost2010PropOp44
 70
     0
102
RTVSPost2010Prop45
280
     0
102
RTVSPost2010PropOp45
 70
     0
102
RTVSPost2010Prop46
 90
       50
102
RTVSPost2010PropOp46
 70
     0
102
RTVSPost2010Prop47
 90
       50
102
RTVSPost2010PropOp47
 70
     0
102
RTVSPost2010Prop48
 90
       50
102
RTVSPost2010PropOp48
 70
     0
102
RTVSPost2010Prop49
280
     0
102
RTVSPost2010PropOp49
 70
     0
102
RTVSPost2010Prop50
 90
       50
102
RTVSPost2010PropOp50
 70
     0
102
RTVSPost2010Prop51ColorIndex
 90
      256
102
RTVSPost2010Prop51ColorRGB
 90
-16777216
102
RTVSPost2010PropOp51
 70
     0
102
RTVSPost2010Prop52
140
1.0
102
RTVSPost2010PropOp52
 70
     0
102
RTVSPost2010Prop53
 90
        2
102
RTVSPost2010PropOp53
 70
     0
102
RTVSPost2010Prop54
  1
strokes_ogs.tif
102
RTVSPost2010PropOp54
 70
     0
102
RTVSPost2010Prop55
280
     0
102
RTVSPost2010PropOp55
 70
     0
102
RTVSPost2010Prop56
140
1.0
102
RTVSPost2010PropOp56
 70
     0
102
RTVSPost2010Prop57
140
1.0
102
RTVSPost2010PropOp57
 70
     0
102
RTVSPropertyOp0
 70
     0
102
RTVSPropertyOp1
 70
     0
102
RTVSPropertyOp2
 70
     0
102
RTVSPropertyOp3
 70
     0
102
RTVSPropertyOp4
 70
     0
102
RTVSPropertyOp5
 70
     0
102
RTVSPropertyOp6
 70
     0
102
RTVSPropertyOp7
 70
     0
102
RTVSPropertyOp8
 70
     0
102
RTVSPropertyOp9
 70
     0
102
RTVSPropertyOp10
 70
     0
102
RTVSPropertyOp11
 70
     0
102
RTVSPropertyOp12
 70
     0
102
RTVSPropertyOp13
 70
     0
102
RTVSPropertyOp14
 70
     2
102
RTVSPropertyOp15
 70
     0
102
RTVSPropertyOp16
 70
     0
102
RTVSPropertyOp17
 70
     0
102
RTVSPropertyOp18
 70
     0
102
RTVSPropertyOp19
 70
     0
102
RTVSPropertyOp20
 70
     0
102
RTVSPropertyOp21
 70
     0
102
RTVSPropertyOp22
 70
     0
102
RTVSPropertyOp23
 70
     0
102
RTVSPropertyOp24
 70
     0
102
RTVSPropertyOp25
 70
     0
102
RTVSPropertyOp26
 70
     0
102
RTVSPropertyOp27
 70
     0
102
RTVSPropertyOp28
 70
     0
102
RTVSPropertyOp29
 70
     0
102
RTVSPropertyOp30
 70
     0
102
RTVSPropertyOp31
 70
     0
102
RTVSPropertyOp32
 70
     0
102
RTVSPropertyOp33
 70
     0
102
RTVSPropertyOp34
 70
     0
102
RTVSPropertyOp35
 70
     0
102
RTVSPropertyOp36
 70
     0
102
RTVSPropertyOp37
 70
     0
102
RTVSPropertyOp38
 70
     0
102
RTVSPropertyOp39
 70
     0
102
RTVSPropertyOp40
 70
     0
102
RTVSPropertyOp41
 70
     0
102
RTVSPropertyOp42
 70
     0
102
RTVSPropertyOp43
 70
     0
102
RTVSPropertyOp44
 70
     0
102
RTVSPropertyOp45
 70
     0
102
RTVSPropertyOp46
 70
     0
102
RTVSPropertyOp47
 70
     0
102
RTVSPropertyOp48
 70
     0
102
RTVSPropertyOp49
 70
     0
102
RTVSPropertyOp50
 70
     0
102
RTVSPropertyOp51
 70
     0
102
RTVSPropertyOp52
 70
     0
102
RTVSPropertyOp53
 70
     0
102
RTVSPropertyOp54
 70
     0
102
RTVSPropertyOp55
 70
     0
102
RTVSPropertyOp56
 70
     0
102
RTVSPropertyOp57
 70
     0
102
RTVSPropertyOp58
 70
     1
102
RTVSPropertyOp59
 70
     1
102
RTVSPropertyOp60
 70
     1
102
RTVSPropertyOp61
 70
     1
102
RTVSPropertyOp62
 70
     1
  0
XRECORD
  5
5C55
102
{ACAD_REACTORS
330
5C54
102
}
330
5C54
100
AcDbXrecord
280
     1
102
RTVSPost2010Prop28
280
     0
102
RTVSPost2010PropOp28
 70
     1
102
RTVSPost2010Prop29
280
     1
102
RTVSPost2010PropOp29
 70
     1
102
RTVSPost2010Prop30
280
     1
102
RTVSPost2010PropOp30
 70
     1
102
RTVSPost2010Prop31
280
     0
102
RTVSPost2010PropOp31
 70
     1
102
RTVSPost2010Prop32
280
     0
102
RTVSPost2010PropOp32
 70
     1
102
RTVSPost2010Prop33
280
     0
102
RTVSPost2010PropOp33
 70
     1
102
RTVSPost2010Prop34
280
     0
102
RTVSPost2010PropOp34
 70
     1
102
RTVSPost2010Prop35
280
     0
102
RTVSPost2010PropOp35
 70
     1
102
RTVSPost2010Prop36
280
     0
102
RTVSPost2010PropOp36
 70
     1
102
RTVSPost2010Prop37
 90
       50
102
RTVSPost2010PropOp37
 70
     1
102
RTVSPost2010Prop38
140
0.0
102
RTVSPost2010PropOp38
 70
     1
102
RTVSPost2010Prop39
140
1.0
102
RTVSPost2010PropOp39
 70
     1
102
RTVSPost2010Prop40
 90
        0
102
RTVSPost2010PropOp40
 70
     1
102
RTVSPost2010Prop41ColorIndex
 90
       18
102
RTVSPost2010Prop41ColorRGB
 90
        0
102
RTVSPost2010PropOp41
 70
     1
102
RTVSPost2010Prop42
 90
       50
102
RTVSPost2010PropOp42
 70
     1
102
RTVSPost2010Prop43
 90
        3
102
RTVSPost2010PropOp43
 70
     1
102
RTVSPost2010Prop44ColorIndex
 90
        5
102
RTVSPost2010Prop44ColorRGB
 90
      255
102
RTVSPost2010PropOp44
 70
     1
102
RTVSPost2010Prop45
280
     0
102
RTVSPost2010PropOp45
 70
     1
102
RTVSPost2010Prop46
 90
       50
102
RTVSPost2010PropOp46
 70
     1
102
RTVSPost2010Prop47
 90
       50
102
RTVSPost2010PropOp47
 70
     1
102
RTVSPost2010Prop48
 90
       50
102
RTVSPost2010PropOp48
 70
     1
102
RTVSPost2010Prop49
280
     0
102
RTVSPost2010PropOp49
 70
     1
102
RTVSPost2010Prop50
 90
       50
102
RTVSPost2010PropOp50
 70
     1
102
RTVSPost2010Prop51ColorIndex
 90
      256
102
RTVSPost2010Prop51ColorRGB
 90
-16777216
102
RTVSPost2010PropOp51
 70
     0
102
RTVSPost2010Prop52
140
1.0
102
RTVSPost2010PropOp52
 70
     0
102
RTVSPost2010Prop53
 90
        2
102
RTVSPost2010PropOp53
 70
     1
102
RTVSPost2010Prop54
  1
strokes_ogs.tif
102
RTVSPost2010PropOp54
 70
     1
102
RTVSPost2010Prop55
280
     0
102
RTVSPost2010PropOp55
 70
     1
102
RTVSPost2010Prop56
140
1.0
102
RTVSPost2010PropOp56
 70
     1
102
RTVSPost2010Prop57
140
1.0
102
RTVSPost2010PropOp57
 70
     1
102
RTVSPropertyOp0
 70
     1
102
RTVSPropertyOp1
 70
     1
102
RTVSPropertyOp2
 70
     1
102
RTVSPropertyOp3
 70
     1
102
RTVSPropertyOp4
 70
     1
102
RTVSPropertyOp5
 70
     1
102
RTVSPropertyOp6
 70
     1
102
RTVSPropertyOp7
 70
     1
102
RTVSPropertyOp8
 70
     1
102
RTVSPropertyOp9
 70
     1
102
RTVSPropertyOp10
 70
     1
102
RTVSPropertyOp11
 70
     1
102
RTVSPropertyOp12
 70
     1
102
RTVSPropertyOp13
 70
     1
102
RTVSPropertyOp14
 70
     1
102
RTVSPropertyOp15
 70
     1
102
RTVSPropertyOp16
 70
     1
102
RTVSPropertyOp17
 70
     1
102
RTVSPropertyOp18
 70
     1
102
RTVSPropertyOp19
 70
     1
102
RTVSPropertyOp20
 70
     1
102
RTVSPropertyOp21
 70
     1
102
RTVSPropertyOp22
 70
     1
102
RTVSPropertyOp23
 70
     1
102
RTVSPropertyOp24
 70
     1
102
RTVSPropertyOp25
 70
     1
102
RTVSPropertyOp26
 70
     1
102
RTVSPropertyOp27
 70
     1
102
RTVSPropertyOp28
 70
     1
102
RTVSPropertyOp29
 70
     1
102
RTVSPropertyOp30
 70
     1
102
RTVSPropertyOp31
 70
     1
102
RTVSPropertyOp32
 70
     1
102
RTVSPropertyOp33
 70
     1
102
RTVSPropertyOp34
 70
     1
102
RTVSPropertyOp35
 70
     1
102
RTVSPropertyOp36
 70
     1
102
RTVSPropertyOp37
 70
     1
102
RTVSPropertyOp38
 70
     1
102
RTVSPropertyOp39
 70
     1
102
RTVSPropertyOp40
 70
     1
102
RTVSPropertyOp41
 70
     1
102
RTVSPropertyOp42
 70
     1
102
RTVSPropertyOp43
 70
     1
102
RTVSPropertyOp44
 70
     1
102
RTVSPropertyOp45
 70
     1
102
RTVSPropertyOp46
 70
     1
102
RTVSPropertyOp47
 70
     1
102
RTVSPropertyOp48
 70
     1
102
RTVSPropertyOp49
 70
     1
102
RTVSPropertyOp50
 70
     1
102
RTVSPropertyOp51
 70
     0
102
RTVSPropertyOp52
 70
     0
102
RTVSPropertyOp53
 70
     1
102
RTVSPropertyOp54
 70
     1
102
RTVSPropertyOp55
 70
     1
102
RTVSPropertyOp56
 70
     1
102
RTVSPropertyOp57
 70
     1
102
RTVSPropertyOp58
 70
     1
102
RTVSPropertyOp59
 70
     1
102
RTVSPropertyOp60
 70
     1
102
RTVSPropertyOp61
 70
     1
102
RTVSPropertyOp62
 70
     1
  0
XRECORD
  5
5C67
102
{ACAD_REACTORS
330
5C66
102
}
330
5C66
100
AcDbXrecord
280
     1
102
RTVSPost2010Prop28
280
     0
102
RTVSPost2010PropOp28
 70
     0
102
RTVSPost2010Prop29
280
     1
102
RTVSPost2010PropOp29
 70
     0
102
RTVSPost2010Prop30
280
     1
102
RTVSPost2010PropOp30
 70
     0
102
RTVSPost2010Prop31
280
     0
102
RTVSPost2010PropOp31
 70
     0
102
RTVSPost2010Prop32
280
     0
102
RTVSPost2010PropOp32
 70
     0
102
RTVSPost2010Prop33
280
     0
102
RTVSPost2010PropOp33
 70
     0
102
RTVSPost2010Prop34
280
     0
102
RTVSPost2010PropOp34
 70
     0
102
RTVSPost2010Prop35
280
     0
102
RTVSPost2010PropOp35
 70
     0
102
RTVSPost2010Prop36
280
     0
102
RTVSPost2010PropOp36
 70
     0
102
RTVSPost2010Prop37
 90
       50
102
RTVSPost2010PropOp37
 70
     0
102
RTVSPost2010Prop38
140
0.0
102
RTVSPost2010PropOp38
 70
     0
102
RTVSPost2010Prop39
140
1.0
102
RTVSPost2010PropOp39
 70
     0
102
RTVSPost2010Prop40
 90
        0
102
RTVSPost2010PropOp40
 70
     0
102
RTVSPost2010Prop41ColorIndex
 90
       18
102
RTVSPost2010Prop41ColorRGB
 90
        0
102
RTVSPost2010PropOp41
 70
     0
102
RTVSPost2010Prop42
 90
       50
102
RTVSPost2010PropOp42
 70
     0
102
RTVSPost2010Prop43
 90
        3
102
RTVSPost2010PropOp43
 70
     0
102
RTVSPost2010Prop44ColorIndex
 90
        5
102
RTVSPost2010Prop44ColorRGB
 90
      255
102
RTVSPost2010PropOp44
 70
     0
102
RTVSPost2010Prop45
280
     0
102
RTVSPost2010PropOp45
 70
     0
102
RTVSPost2010Prop46
 90
       50
102
RTVSPost2010PropOp46
 70
     0
102
RTVSPost2010Prop47
 90
       50
102
RTVSPost2010PropOp47
 70
     0
102
RTVSPost2010Prop48
 90
       50
102
RTVSPost2010PropOp48
 70
     0
102
RTVSPost2010Prop49
280
     0
102
RTVSPost2010PropOp49
 70
     0
102
RTVSPost2010Prop50
 90
       50
102
RTVSPost2010PropOp50
 70
     0
102
RTVSPost2010Prop51ColorIndex
 90
      256
102
RTVSPost2010Prop51ColorRGB
 90
-16777216
102
RTVSPost2010PropOp51
 70
     0
102
RTVSPost2010Prop52
140
1.0
102
RTVSPost2010PropOp52
 70
     0
102
RTVSPost2010Prop53
 90
        2
102
RTVSPost2010PropOp53
 70
     0
102
RTVSPost2010Prop54
  1
strokes_ogs.tif
102
RTVSPost2010PropOp54
 70
     0
102
RTVSPost2010Prop55
280
     0
102
RTVSPost2010PropOp55
 70
     0
102
RTVSPost2010Prop56
140
1.0
102
RTVSPost2010PropOp56
 70
     0
102
RTVSPost2010Prop57
140
1.0
102
RTVSPost2010PropOp57
 70
     0
102
RTVSPropertyOp0
 70
     0
102
RTVSPropertyOp1
 70
     0
102
RTVSPropertyOp2
 70
     0
102
RTVSPropertyOp3
 70
     0
102
RTVSPropertyOp4
 70
     0
102
RTVSPropertyOp5
 70
     0
102
RTVSPropertyOp6
 70
     0
102
RTVSPropertyOp7
 70
     0
102
RTVSPropertyOp8
 70
     0
102
RTVSPropertyOp9
 70
     0
102
RTVSPropertyOp10
 70
     0
102
RTVSPropertyOp11
 70
     0
102
RTVSPropertyOp12
 70
     0
102
RTVSPropertyOp13
 70
     0
102
RTVSPropertyOp14
 70
     2
102
RTVSPropertyOp15
 70
     0
102
RTVSPropertyOp16
 70
     0
102
RTVSPropertyOp17
 70
     0
102
RTVSPropertyOp18
 70
     0
102
RTVSPropertyOp19
 70
     0
102
RTVSPropertyOp20
 70
     0
102
RTVSPropertyOp21
 70
     0
102
RTVSPropertyOp22
 70
     0
102
RTVSPropertyOp23
 70
     0
102
RTVSPropertyOp24
 70
     0
102
RTVSPropertyOp25
 70
     0
102
RTVSPropertyOp26
 70
     0
102
RTVSPropertyOp27
 70
     0
102
RTVSPropertyOp28
 70
     0
102
RTVSPropertyOp29
 70
     0
102
RTVSPropertyOp30
 70
     0
102
RTVSPropertyOp31
 70
     0
102
RTVSPropertyOp32
 70
     0
102
RTVSPropertyOp33
 70
     0
102
RTVSPropertyOp34
 70
     0
102
RTVSPropertyOp35
 70
     0
102
RTVSPropertyOp36
 70
     0
102
RTVSPropertyOp37
 70
     0
102
RTVSPropertyOp38
 70
     0
102
RTVSPropertyOp39
 70
     0
102
RTVSPropertyOp40
 70
     0
102
RTVSPropertyOp41
 70
     0
102
RTVSPropertyOp42
 70
     0
102
RTVSPropertyOp43
 70
     0
102
RTVSPropertyOp44
 70
     0
102
RTVSPropertyOp45
 70
     0
102
RTVSPropertyOp46
 70
     0
102
RTVSPropertyOp47
 70
     0
102
RTVSPropertyOp48
 70
     0
102
RTVSPropertyOp49
 70
     0
102
RTVSPropertyOp50
 70
     0
102
RTVSPropertyOp51
 70
     0
102
RTVSPropertyOp52
 70
     0
102
RTVSPropertyOp53
 70
     0
102
RTVSPropertyOp54
 70
     0
102
RTVSPropertyOp55
 70
     0
102
RTVSPropertyOp56
 70
     0
102
RTVSPropertyOp57
 70
     0
102
RTVSPropertyOp58
 70
     1
102
RTVSPropertyOp59
 70
     1
102
RTVSPropertyOp60
 70
     1
102
RTVSPropertyOp61
 70
     1
102
RTVSPropertyOp62
 70
     1
  0
XRECORD
  5
5C4D
102
{ACAD_REACTORS
330
5C4C
102
}
330
5C4C
100
AcDbXrecord
280
     1
102
RTVSPost2010Prop28
280
     0
102
RTVSPost2010PropOp28
 70
     1
102
RTVSPost2010Prop29
280
     1
102
RTVSPost2010PropOp29
 70
     1
102
RTVSPost2010Prop30
280
     1
102
RTVSPost2010PropOp30
 70
     1
102
RTVSPost2010Prop31
280
     0
102
RTVSPost2010PropOp31
 70
     1
102
RTVSPost2010Prop32
280
     0
102
RTVSPost2010PropOp32
 70
     1
102
RTVSPost2010Prop33
280
     0
102
RTVSPost2010PropOp33
 70
     1
102
RTVSPost2010Prop34
280
     0
102
RTVSPost2010PropOp34
 70
     1
102
RTVSPost2010Prop35
280
     0
102
RTVSPost2010PropOp35
 70
     1
102
RTVSPost2010Prop36
280
     0
102
RTVSPost2010PropOp36
 70
     1
102
RTVSPost2010Prop37
 90
       50
102
RTVSPost2010PropOp37
 70
     1
102
RTVSPost2010Prop38
140
0.0
102
RTVSPost2010PropOp38
 70
     1
102
RTVSPost2010Prop39
140
1.0
102
RTVSPost2010PropOp39
 70
     1
102
RTVSPost2010Prop40
 90
        0
102
RTVSPost2010PropOp40
 70
     1
102
RTVSPost2010Prop41ColorIndex
 90
       18
102
RTVSPost2010Prop41ColorRGB
 90
        0
102
RTVSPost2010PropOp41
 70
     1
102
RTVSPost2010Prop42
 90
       50
102
RTVSPost2010PropOp42
 70
     1
102
RTVSPost2010Prop43
 90
        3
102
RTVSPost2010PropOp43
 70
     1
102
RTVSPost2010Prop44ColorIndex
 90
        5
102
RTVSPost2010Prop44ColorRGB
 90
      255
102
RTVSPost2010PropOp44
 70
     1
102
RTVSPost2010Prop45
280
     0
102
RTVSPost2010PropOp45
 70
     1
102
RTVSPost2010Prop46
 90
       50
102
RTVSPost2010PropOp46
 70
     1
102
RTVSPost2010Prop47
 90
       50
102
RTVSPost2010PropOp47
 70
     1
102
RTVSPost2010Prop48
 90
       50
102
RTVSPost2010PropOp48
 70
     1
102
RTVSPost2010Prop49
280
     0
102
RTVSPost2010PropOp49
 70
     1
102
RTVSPost2010Prop50
 90
       50
102
RTVSPost2010PropOp50
 70
     1
102
RTVSPost2010Prop51ColorIndex
 90
      256
102
RTVSPost2010Prop51ColorRGB
 90
-16777216
102
RTVSPost2010PropOp51
 70
     0
102
RTVSPost2010Prop52
140
1.0
102
RTVSPost2010PropOp52
 70
     0
102
RTVSPost2010Prop53
 90
        2
102
RTVSPost2010PropOp53
 70
     1
102
RTVSPost2010Prop54
  1
strokes_ogs.tif
102
RTVSPost2010PropOp54
 70
     1
102
RTVSPost2010Prop55
280
     0
102
RTVSPost2010PropOp55
 70
     1
102
RTVSPost2010Prop56
140
1.0
102
RTVSPost2010PropOp56
 70
     1
102
RTVSPost2010Prop57
140
1.0
102
RTVSPost2010PropOp57
 70
     1
102
RTVSPropertyOp0
 70
     1
102
RTVSPropertyOp1
 70
     1
102
RTVSPropertyOp2
 70
     1
102
RTVSPropertyOp3
 70
     1
102
RTVSPropertyOp4
 70
     1
102
RTVSPropertyOp5
 70
     1
102
RTVSPropertyOp6
 70
     1
102
RTVSPropertyOp7
 70
     1
102
RTVSPropertyOp8
 70
     1
102
RTVSPropertyOp9
 70
     1
102
RTVSPropertyOp10
 70
     1
102
RTVSPropertyOp11
 70
     1
102
RTVSPropertyOp12
 70
     1
102
RTVSPropertyOp13
 70
     1
102
RTVSPropertyOp14
 70
     1
102
RTVSPropertyOp15
 70
     1
102
RTVSPropertyOp16
 70
     1
102
RTVSPropertyOp17
 70
     1
102
RTVSPropertyOp18
 70
     1
102
RTVSPropertyOp19
 70
     1
102
RTVSPropertyOp20
 70
     1
102
RTVSPropertyOp21
 70
     1
102
RTVSPropertyOp22
 70
     1
102
RTVSPropertyOp23
 70
     1
102
RTVSPropertyOp24
 70
     1
102
RTVSPropertyOp25
 70
     1
102
RTVSPropertyOp26
 70
     1
102
RTVSPropertyOp27
 70
     1
102
RTVSPropertyOp28
 70
     1
102
RTVSPropertyOp29
 70
     1
102
RTVSPropertyOp30
 70
     1
102
RTVSPropertyOp31
 70
     1
102
RTVSPropertyOp32
 70
     1
102
RTVSPropertyOp33
 70
     1
102
RTVSPropertyOp34
 70
     1
102
RTVSPropertyOp35
 70
     1
102
RTVSPropertyOp36
 70
     1
102
RTVSPropertyOp37
 70
     1
102
RTVSPropertyOp38
 70
     1
102
RTVSPropertyOp39
 70
     1
102
RTVSPropertyOp40
 70
     1
102
RTVSPropertyOp41
 70
     1
102
RTVSPropertyOp42
 70
     1
102
RTVSPropertyOp43
 70
     1
102
RTVSPropertyOp44
 70
     1
102
RTVSPropertyOp45
 70
     1
102
RTVSPropertyOp46
 70
     1
102
RTVSPropertyOp47
 70
     1
102
RTVSPropertyOp48
 70
     1
102
RTVSPropertyOp49
 70
     1
102
RTVSPropertyOp50
 70
     1
102
RTVSPropertyOp51
 70
     0
102
RTVSPropertyOp52
 70
     0
102
RTVSPropertyOp53
 70
     1
102
RTVSPropertyOp54
 70
     1
102
RTVSPropertyOp55
 70
     1
102
RTVSPropertyOp56
 70
     1
102
RTVSPropertyOp57
 70
     1
102
RTVSPropertyOp58
 70
     1
102
RTVSPropertyOp59
 70
     1
102
RTVSPropertyOp60
 70
     1
102
RTVSPropertyOp61
 70
     1
102
RTVSPropertyOp62
 70
     1
  0
XRECORD
  5
5C63
102
{ACAD_REACTORS
330
5C62
102
}
330
5C62
100
AcDbXrecord
280
     1
102
RTVSPost2010Prop28
280
     0
102
RTVSPost2010PropOp28
 70
     1
102
RTVSPost2010Prop29
280
     1
102
RTVSPost2010PropOp29
 70
     1
102
RTVSPost2010Prop30
280
     1
102
RTVSPost2010PropOp30
 70
     1
102
RTVSPost2010Prop31
280
     0
102
RTVSPost2010PropOp31
 70
     1
102
RTVSPost2010Prop32
280
     0
102
RTVSPost2010PropOp32
 70
     1
102
RTVSPost2010Prop33
280
     0
102
RTVSPost2010PropOp33
 70
     1
102
RTVSPost2010Prop34
280
     0
102
RTVSPost2010PropOp34
 70
     1
102
RTVSPost2010Prop35
280
     0
102
RTVSPost2010PropOp35
 70
     1
102
RTVSPost2010Prop36
280
     0
102
RTVSPost2010PropOp36
 70
     1
102
RTVSPost2010Prop37
 90
       50
102
RTVSPost2010PropOp37
 70
     1
102
RTVSPost2010Prop38
140
0.0
102
RTVSPost2010PropOp38
 70
     1
102
RTVSPost2010Prop39
140
1.0
102
RTVSPost2010PropOp39
 70
     1
102
RTVSPost2010Prop40
 90
        0
102
RTVSPost2010PropOp40
 70
     1
102
RTVSPost2010Prop41ColorIndex
 90
       18
102
RTVSPost2010Prop41ColorRGB
 90
        0
102
RTVSPost2010PropOp41
 70
     1
102
RTVSPost2010Prop42
 90
       50
102
RTVSPost2010PropOp42
 70
     1
102
RTVSPost2010Prop43
 90
        3
102
RTVSPost2010PropOp43
 70
     1
102
RTVSPost2010Prop44ColorIndex
 90
        5
102
RTVSPost2010Prop44ColorRGB
 90
      255
102
RTVSPost2010PropOp44
 70
     1
102
RTVSPost2010Prop45
280
     0
102
RTVSPost2010PropOp45
 70
     1
102
RTVSPost2010Prop46
 90
       50
102
RTVSPost2010PropOp46
 70
     1
102
RTVSPost2010Prop47
 90
       50
102
RTVSPost2010PropOp47
 70
     1
102
RTVSPost2010Prop48
 90
       50
102
RTVSPost2010PropOp48
 70
     1
102
RTVSPost2010Prop49
280
     0
102
RTVSPost2010PropOp49
 70
     1
102
RTVSPost2010Prop50
 90
       50
102
RTVSPost2010PropOp50
 70
     1
102
RTVSPost2010Prop51ColorIndex
 90
      256
102
RTVSPost2010Prop51ColorRGB
 90
-16777216
102
RTVSPost2010PropOp51
 70
     0
102
RTVSPost2010Prop52
140
1.0
102
RTVSPost2010PropOp52
 70
     0
102
RTVSPost2010Prop53
 90
        2
102
RTVSPost2010PropOp53
 70
     1
102
RTVSPost2010Prop54
  1
strokes_ogs.tif
102
RTVSPost2010PropOp54
 70
     1
102
RTVSPost2010Prop55
280
     0
102
RTVSPost2010PropOp55
 70
     1
102
RTVSPost2010Prop56
140
1.0
102
RTVSPost2010PropOp56
 70
     1
102
RTVSPost2010Prop57
140
1.0
102
RTVSPost2010PropOp57
 70
     1
102
RTVSPropertyOp0
 70
     1
102
RTVSPropertyOp1
 70
     1
102
RTVSPropertyOp2
 70
     1
102
RTVSPropertyOp3
 70
     1
102
RTVSPropertyOp4
 70
     1
102
RTVSPropertyOp5
 70
     1
102
RTVSPropertyOp6
 70
     1
102
RTVSPropertyOp7
 70
     1
102
RTVSPropertyOp8
 70
     1
102
RTVSPropertyOp9
 70
     1
102
RTVSPropertyOp10
 70
     1
102
RTVSPropertyOp11
 70
     1
102
RTVSPropertyOp12
 70
     1
102
RTVSPropertyOp13
 70
     1
102
RTVSPropertyOp14
 70
     1
102
RTVSPropertyOp15
 70
     1
102
RTVSPropertyOp16
 70
     1
102
RTVSPropertyOp17
 70
     1
102
RTVSPropertyOp18
 70
     1
102
RTVSPropertyOp19
 70
     1
102
RTVSPropertyOp20
 70
     1
102
RTVSPropertyOp21
 70
     1
102
RTVSPropertyOp22
 70
     1
102
RTVSPropertyOp23
 70
     1
102
RTVSPropertyOp24
 70
     1
102
RTVSPropertyOp25
 70
     1
102
RTVSPropertyOp26
 70
     1
102
RTVSPropertyOp27
 70
     1
102
RTVSPropertyOp28
 70
     1
102
RTVSPropertyOp29
 70
     1
102
RTVSPropertyOp30
 70
     1
102
RTVSPropertyOp31
 70
     1
102
RTVSPropertyOp32
 70
     1
102
RTVSPropertyOp33
 70
     1
102
RTVSPropertyOp34
 70
     1
102
RTVSPropertyOp35
 70
     1
102
RTVSPropertyOp36
 70
     1
102
RTVSPropertyOp37
 70
     1
102
RTVSPropertyOp38
 70
     1
102
RTVSPropertyOp39
 70
     1
102
RTVSPropertyOp40
 70
     1
102
RTVSPropertyOp41
 70
     1
102
RTVSPropertyOp42
 70
     1
102
RTVSPropertyOp43
 70
     1
102
RTVSPropertyOp44
 70
     1
102
RTVSPropertyOp45
 70
     1
102
RTVSPropertyOp46
 70
     1
102
RTVSPropertyOp47
 70
     1
102
RTVSPropertyOp48
 70
     1
102
RTVSPropertyOp49
 70
     1
102
RTVSPropertyOp50
 70
     1
102
RTVSPropertyOp51
 70
     0
102
RTVSPropertyOp52
 70
     0
102
RTVSPropertyOp53
 70
     1
102
RTVSPropertyOp54
 70
     1
102
RTVSPropertyOp55
 70
     1
102
RTVSPropertyOp56
 70
     1
102
RTVSPropertyOp57
 70
     1
102
RTVSPropertyOp58
 70
     1
102
RTVSPropertyOp59
 70
     1
102
RTVSPropertyOp60
 70
     1
102
RTVSPropertyOp61
 70
     1
102
RTVSPropertyOp62
 70
     1
  0
XRECORD
  5
5C61
102
{ACAD_REACTORS
330
5C60
102
}
330
5C60
100
AcDbXrecord
280
     1
102
RTVSPost2010Prop28
280
     0
102
RTVSPost2010PropOp28
 70
     1
102
RTVSPost2010Prop29
280
     1
102
RTVSPost2010PropOp29
 70
     1
102
RTVSPost2010Prop30
280
     1
102
RTVSPost2010PropOp30
 70
     1
102
RTVSPost2010Prop31
280
     0
102
RTVSPost2010PropOp31
 70
     1
102
RTVSPost2010Prop32
280
     0
102
RTVSPost2010PropOp32
 70
     1
102
RTVSPost2010Prop33
280
     0
102
RTVSPost2010PropOp33
 70
     1
102
RTVSPost2010Prop34
280
     0
102
RTVSPost2010PropOp34
 70
     1
102
RTVSPost2010Prop35
280
     0
102
RTVSPost2010PropOp35
 70
     1
102
RTVSPost2010Prop36
280
     0
102
RTVSPost2010PropOp36
 70
     1
102
RTVSPost2010Prop37
 90
       50
102
RTVSPost2010PropOp37
 70
     1
102
RTVSPost2010Prop38
140
0.0
102
RTVSPost2010PropOp38
 70
     1
102
RTVSPost2010Prop39
140
1.0
102
RTVSPost2010PropOp39
 70
     1
102
RTVSPost2010Prop40
 90
        0
102
RTVSPost2010PropOp40
 70
     1
102
RTVSPost2010Prop41ColorIndex
 90
       18
102
RTVSPost2010Prop41ColorRGB
 90
        0
102
RTVSPost2010PropOp41
 70
     1
102
RTVSPost2010Prop42
 90
       50
102
RTVSPost2010PropOp42
 70
     1
102
RTVSPost2010Prop43
 90
        3
102
RTVSPost2010PropOp43
 70
     1
102
RTVSPost2010Prop44ColorIndex
 90
        5
102
RTVSPost2010Prop44ColorRGB
 90
      255
102
RTVSPost2010PropOp44
 70
     1
102
RTVSPost2010Prop45
280
     0
102
RTVSPost2010PropOp45
 70
     1
102
RTVSPost2010Prop46
 90
       50
102
RTVSPost2010PropOp46
 70
     1
102
RTVSPost2010Prop47
 90
       50
102
RTVSPost2010PropOp47
 70
     1
102
RTVSPost2010Prop48
 90
       50
102
RTVSPost2010PropOp48
 70
     1
102
RTVSPost2010Prop49
280
     0
102
RTVSPost2010PropOp49
 70
     1
102
RTVSPost2010Prop50
 90
       50
102
RTVSPost2010PropOp50
 70
     1
102
RTVSPost2010Prop51ColorIndex
 90
      256
102
RTVSPost2010Prop51ColorRGB
 90
-16777216
102
RTVSPost2010PropOp51
 70
     0
102
RTVSPost2010Prop52
140
1.0
102
RTVSPost2010PropOp52
 70
     0
102
RTVSPost2010Prop53
 90
        2
102
RTVSPost2010PropOp53
 70
     1
102
RTVSPost2010Prop54
  1
strokes_ogs.tif
102
RTVSPost2010PropOp54
 70
     1
102
RTVSPost2010Prop55
280
     0
102
RTVSPost2010PropOp55
 70
     1
102
RTVSPost2010Prop56
140
1.0
102
RTVSPost2010PropOp56
 70
     1
102
RTVSPost2010Prop57
140
1.0
102
RTVSPost2010PropOp57
 70
     1
102
RTVSPropertyOp0
 70
     1
102
RTVSPropertyOp1
 70
     1
102
RTVSPropertyOp2
 70
     1
102
RTVSPropertyOp3
 70
     1
102
RTVSPropertyOp4
 70
     1
102
RTVSPropertyOp5
 70
     1
102
RTVSPropertyOp6
 70
     1
102
RTVSPropertyOp7
 70
     1
102
RTVSPropertyOp8
 70
     1
102
RTVSPropertyOp9
 70
     1
102
RTVSPropertyOp10
 70
     1
102
RTVSPropertyOp11
 70
     1
102
RTVSPropertyOp12
 70
     1
102
RTVSPropertyOp13
 70
     1
102
RTVSPropertyOp14
 70
     1
102
RTVSPropertyOp15
 70
     1
102
RTVSPropertyOp16
 70
     1
102
RTVSPropertyOp17
 70
     1
102
RTVSPropertyOp18
 70
     1
102
RTVSPropertyOp19
 70
     1
102
RTVSPropertyOp20
 70
     1
102
RTVSPropertyOp21
 70
     1
102
RTVSPropertyOp22
 70
     1
102
RTVSPropertyOp23
 70
     1
102
RTVSPropertyOp24
 70
     1
102
RTVSPropertyOp25
 70
     1
102
RTVSPropertyOp26
 70
     1
102
RTVSPropertyOp27
 70
     1
102
RTVSPropertyOp28
 70
     1
102
RTVSPropertyOp29
 70
     1
102
RTVSPropertyOp30
 70
     1
102
RTVSPropertyOp31
 70
     1
102
RTVSPropertyOp32
 70
     1
102
RTVSPropertyOp33
 70
     1
102
RTVSPropertyOp34
 70
     1
102
RTVSPropertyOp35
 70
     1
102
RTVSPropertyOp36
 70
     1
102
RTVSPropertyOp37
 70
     1
102
RTVSPropertyOp38
 70
     1
102
RTVSPropertyOp39
 70
     1
102
RTVSPropertyOp40
 70
     1
102
RTVSPropertyOp41
 70
     1
102
RTVSPropertyOp42
 70
     1
102
RTVSPropertyOp43
 70
     1
102
RTVSPropertyOp44
 70
     1
102
RTVSPropertyOp45
 70
     1
102
RTVSPropertyOp46
 70
     1
102
RTVSPropertyOp47
 70
     1
102
RTVSPropertyOp48
 70
     1
102
RTVSPropertyOp49
 70
     1
102
RTVSPropertyOp50
 70
     1
102
RTVSPropertyOp51
 70
     0
102
RTVSPropertyOp52
 70
     0
102
RTVSPropertyOp53
 70
     1
102
RTVSPropertyOp54
 70
     1
102
RTVSPropertyOp55
 70
     1
102
RTVSPropertyOp56
 70
     1
102
RTVSPropertyOp57
 70
     1
102
RTVSPropertyOp58
 70
     1
102
RTVSPropertyOp59
 70
     1
102
RTVSPropertyOp60
 70
     1
102
RTVSPropertyOp61
 70
     1
102
RTVSPropertyOp62
 70
     1
  0
XRECORD
  5
5C5B
102
{ACAD_REACTORS
330
5C5A
102
}
330
5C5A
100
AcDbXrecord
280
     1
102
RTVSPost2010Prop28
280
     0
102
RTVSPost2010PropOp28
 70
     1
102
RTVSPost2010Prop29
280
     1
102
RTVSPost2010PropOp29
 70
     1
102
RTVSPost2010Prop30
280
     1
102
RTVSPost2010PropOp30
 70
     1
102
RTVSPost2010Prop31
280
     0
102
RTVSPost2010PropOp31
 70
     1
102
RTVSPost2010Prop32
280
     0
102
RTVSPost2010PropOp32
 70
     1
102
RTVSPost2010Prop33
280
     0
102
RTVSPost2010PropOp33
 70
     1
102
RTVSPost2010Prop34
280
     0
102
RTVSPost2010PropOp34
 70
     1
102
RTVSPost2010Prop35
280
     0
102
RTVSPost2010PropOp35
 70
     1
102
RTVSPost2010Prop36
280
     0
102
RTVSPost2010PropOp36
 70
     1
102
RTVSPost2010Prop37
 90
       50
102
RTVSPost2010PropOp37
 70
     1
102
RTVSPost2010Prop38
140
0.0
102
RTVSPost2010PropOp38
 70
     1
102
RTVSPost2010Prop39
140
1.0
102
RTVSPost2010PropOp39
 70
     1
102
RTVSPost2010Prop40
 90
        0
102
RTVSPost2010PropOp40
 70
     1
102
RTVSPost2010Prop41ColorIndex
 90
       18
102
RTVSPost2010Prop41ColorRGB
 90
        0
102
RTVSPost2010PropOp41
 70
     1
102
RTVSPost2010Prop42
 90
       50
102
RTVSPost2010PropOp42
 70
     1
102
RTVSPost2010Prop43
 90
        3
102
RTVSPost2010PropOp43
 70
     1
102
RTVSPost2010Prop44ColorIndex
 90
        5
102
RTVSPost2010Prop44ColorRGB
 90
      255
102
RTVSPost2010PropOp44
 70
     1
102
RTVSPost2010Prop45
280
     0
102
RTVSPost2010PropOp45
 70
     1
102
RTVSPost2010Prop46
 90
       50
102
RTVSPost2010PropOp46
 70
     1
102
RTVSPost2010Prop47
 90
       50
102
RTVSPost2010PropOp47
 70
     1
102
RTVSPost2010Prop48
 90
       50
102
RTVSPost2010PropOp48
 70
     1
102
RTVSPost2010Prop49
280
     0
102
RTVSPost2010PropOp49
 70
     1
102
RTVSPost2010Prop50
 90
       50
102
RTVSPost2010PropOp50
 70
     1
102
RTVSPost2010Prop51ColorIndex
 90
      256
102
RTVSPost2010Prop51ColorRGB
 90
-16777216
102
RTVSPost2010PropOp51
 70
     0
102
RTVSPost2010Prop52
140
1.0
102
RTVSPost2010PropOp52
 70
     0
102
RTVSPost2010Prop53
 90
        2
102
RTVSPost2010PropOp53
 70
     1
102
RTVSPost2010Prop54
  1
strokes_ogs.tif
102
RTVSPost2010PropOp54
 70
     1
102
RTVSPost2010Prop55
280
     0
102
RTVSPost2010PropOp55
 70
     1
102
RTVSPost2010Prop56
140
1.0
102
RTVSPost2010PropOp56
 70
     1
102
RTVSPost2010Prop57
140
1.0
102
RTVSPost2010PropOp57
 70
     1
102
RTVSPropertyOp0
 70
     1
102
RTVSPropertyOp1
 70
     1
102
RTVSPropertyOp2
 70
     1
102
RTVSPropertyOp3
 70
     1
102
RTVSPropertyOp4
 70
     1
102
RTVSPropertyOp5
 70
     1
102
RTVSPropertyOp6
 70
     1
102
RTVSPropertyOp7
 70
     1
102
RTVSPropertyOp8
 70
     1
102
RTVSPropertyOp9
 70
     1
102
RTVSPropertyOp10
 70
     1
102
RTVSPropertyOp11
 70
     1
102
RTVSPropertyOp12
 70
     1
102
RTVSPropertyOp13
 70
     1
102
RTVSPropertyOp14
 70
     1
102
RTVSPropertyOp15
 70
     1
102
RTVSPropertyOp16
 70
     1
102
RTVSPropertyOp17
 70
     1
102
RTVSPropertyOp18
 70
     1
102
RTVSPropertyOp19
 70
     1
102
RTVSPropertyOp20
 70
     1
102
RTVSPropertyOp21
 70
     1
102
RTVSPropertyOp22
 70
     1
102
RTVSPropertyOp23
 70
     1
102
RTVSPropertyOp24
 70
     1
102
RTVSPropertyOp25
 70
     1
102
RTVSPropertyOp26
 70
     1
102
RTVSPropertyOp27
 70
     1
102
RTVSPropertyOp28
 70
     1
102
RTVSPropertyOp29
 70
     1
102
RTVSPropertyOp30
 70
     1
102
RTVSPropertyOp31
 70
     1
102
RTVSPropertyOp32
 70
     1
102
RTVSPropertyOp33
 70
     1
102
RTVSPropertyOp34
 70
     1
102
RTVSPropertyOp35
 70
     1
102
RTVSPropertyOp36
 70
     1
102
RTVSPropertyOp37
 70
     1
102
RTVSPropertyOp38
 70
     1
102
RTVSPropertyOp39
 70
     1
102
RTVSPropertyOp40
 70
     1
102
RTVSPropertyOp41
 70
     1
102
RTVSPropertyOp42
 70
     1
102
RTVSPropertyOp43
 70
     1
102
RTVSPropertyOp44
 70
     1
102
RTVSPropertyOp45
 70
     1
102
RTVSPropertyOp46
 70
     1
102
RTVSPropertyOp47
 70
     1
102
RTVSPropertyOp48
 70
     1
102
RTVSPropertyOp49
 70
     1
102
RTVSPropertyOp50
 70
     1
102
RTVSPropertyOp51
 70
     0
102
RTVSPropertyOp52
 70
     0
102
RTVSPropertyOp53
 70
     1
102
RTVSPropertyOp54
 70
     1
102
RTVSPropertyOp55
 70
     1
102
RTVSPropertyOp56
 70
     1
102
RTVSPropertyOp57
 70
     1
102
RTVSPropertyOp58
 70
     1
102
RTVSPropertyOp59
 70
     1
102
RTVSPropertyOp60
 70
     1
102
RTVSPropertyOp61
 70
     1
102
RTVSPropertyOp62
 70
     1
  0
XRECORD
  5
5C5D
102
{ACAD_REACTORS
330
5C5C
102
}
330
5C5C
100
AcDbXrecord
280
     1
102
RTVSPost2010Prop28
280
     0
102
RTVSPost2010PropOp28
 70
     1
102
RTVSPost2010Prop29
280
     1
102
RTVSPost2010PropOp29
 70
     1
102
RTVSPost2010Prop30
280
     1
102
RTVSPost2010PropOp30
 70
     1
102
RTVSPost2010Prop31
280
     0
102
RTVSPost2010PropOp31
 70
     1
102
RTVSPost2010Prop32
280
     0
102
RTVSPost2010PropOp32
 70
     1
102
RTVSPost2010Prop33
280
     0
102
RTVSPost2010PropOp33
 70
     1
102
RTVSPost2010Prop34
280
     0
102
RTVSPost2010PropOp34
 70
     1
102
RTVSPost2010Prop35
280
     0
102
RTVSPost2010PropOp35
 70
     1
102
RTVSPost2010Prop36
280
     0
102
RTVSPost2010PropOp36
 70
     1
102
RTVSPost2010Prop37
 90
       50
102
RTVSPost2010PropOp37
 70
     1
102
RTVSPost2010Prop38
140
0.0
102
RTVSPost2010PropOp38
 70
     1
102
RTVSPost2010Prop39
140
1.0
102
RTVSPost2010PropOp39
 70
     1
102
RTVSPost2010Prop40
 90
        0
102
RTVSPost2010PropOp40
 70
     1
102
RTVSPost2010Prop41ColorIndex
 90
       18
102
RTVSPost2010Prop41ColorRGB
 90
        0
102
RTVSPost2010PropOp41
 70
     1
102
RTVSPost2010Prop42
 90
       50
102
RTVSPost2010PropOp42
 70
     1
102
RTVSPost2010Prop43
 90
        3
102
RTVSPost2010PropOp43
 70
     1
102
RTVSPost2010Prop44ColorIndex
 90
        5
102
RTVSPost2010Prop44ColorRGB
 90
      255
102
RTVSPost2010PropOp44
 70
     1
102
RTVSPost2010Prop45
280
     0
102
RTVSPost2010PropOp45
 70
     1
102
RTVSPost2010Prop46
 90
       50
102
RTVSPost2010PropOp46
 70
     1
102
RTVSPost2010Prop47
 90
       50
102
RTVSPost2010PropOp47
 70
     1
102
RTVSPost2010Prop48
 90
       50
102
RTVSPost2010PropOp48
 70
     1
102
RTVSPost2010Prop49
280
     0
102
RTVSPost2010PropOp49
 70
     1
102
RTVSPost2010Prop50
 90
       50
102
RTVSPost2010PropOp50
 70
     1
102
RTVSPost2010Prop51ColorIndex
 90
      256
102
RTVSPost2010Prop51ColorRGB
 90
-16777216
102
RTVSPost2010PropOp51
 70
     0
102
RTVSPost2010Prop52
140
1.0
102
RTVSPost2010PropOp52
 70
     0
102
RTVSPost2010Prop53
 90
        2
102
RTVSPost2010PropOp53
 70
     1
102
RTVSPost2010Prop54
  1
strokes_ogs.tif
102
RTVSPost2010PropOp54
 70
     1
102
RTVSPost2010Prop55
280
     0
102
RTVSPost2010PropOp55
 70
     1
102
RTVSPost2010Prop56
140
1.0
102
RTVSPost2010PropOp56
 70
     1
102
RTVSPost2010Prop57
140
1.0
102
RTVSPost2010PropOp57
 70
     1
102
RTVSPropertyOp0
 70
     1
102
RTVSPropertyOp1
 70
     1
102
RTVSPropertyOp2
 70
     1
102
RTVSPropertyOp3
 70
     1
102
RTVSPropertyOp4
 70
     1
102
RTVSPropertyOp5
 70
     1
102
RTVSPropertyOp6
 70
     1
102
RTVSPropertyOp7
 70
     1
102
RTVSPropertyOp8
 70
     1
102
RTVSPropertyOp9
 70
     1
102
RTVSPropertyOp10
 70
     1
102
RTVSPropertyOp11
 70
     1
102
RTVSPropertyOp12
 70
     1
102
RTVSPropertyOp13
 70
     1
102
RTVSPropertyOp14
 70
     1
102
RTVSPropertyOp15
 70
     1
102
RTVSPropertyOp16
 70
     1
102
RTVSPropertyOp17
 70
     1
102
RTVSPropertyOp18
 70
     1
102
RTVSPropertyOp19
 70
     1
102
RTVSPropertyOp20
 70
     1
102
RTVSPropertyOp21
 70
     1
102
RTVSPropertyOp22
 70
     1
102
RTVSPropertyOp23
 70
     1
102
RTVSPropertyOp24
 70
     1
102
RTVSPropertyOp25
 70
     1
102
RTVSPropertyOp26
 70
     1
102
RTVSPropertyOp27
 70
     1
102
RTVSPropertyOp28
 70
     1
102
RTVSPropertyOp29
 70
     1
102
RTVSPropertyOp30
 70
     1
102
RTVSPropertyOp31
 70
     1
102
RTVSPropertyOp32
 70
     1
102
RTVSPropertyOp33
 70
     1
102
RTVSPropertyOp34
 70
     1
102
RTVSPropertyOp35
 70
     1
102
RTVSPropertyOp36
 70
     1
102
RTVSPropertyOp37
 70
     1
102
RTVSPropertyOp38
 70
     1
102
RTVSPropertyOp39
 70
     1
102
RTVSPropertyOp40
 70
     1
102
RTVSPropertyOp41
 70
     1
102
RTVSPropertyOp42
 70
     1
102
RTVSPropertyOp43
 70
     1
102
RTVSPropertyOp44
 70
     1
102
RTVSPropertyOp45
 70
     1
102
RTVSPropertyOp46
 70
     1
102
RTVSPropertyOp47
 70
     1
102
RTVSPropertyOp48
 70
     1
102
RTVSPropertyOp49
 70
     1
102
RTVSPropertyOp50
 70
     1
102
RTVSPropertyOp51
 70
     0
102
RTVSPropertyOp52
 70
     0
102
RTVSPropertyOp53
 70
     1
102
RTVSPropertyOp54
 70
     1
102
RTVSPropertyOp55
 70
     1
102
RTVSPropertyOp56
 70
     1
102
RTVSPropertyOp57
 70
     1
102
RTVSPropertyOp58
 70
     1
102
RTVSPropertyOp59
 70
     1
102
RTVSPropertyOp60
 70
     1
102
RTVSPropertyOp61
 70
     1
102
RTVSPropertyOp62
 70
     1
  0
XRECORD
  5
5C53
102
{ACAD_REACTORS
330
5C52
102
}
330
5C52
100
AcDbXrecord
280
     1
102
RTVSPost2010Prop28
280
     0
102
RTVSPost2010PropOp28
 70
     1
102
RTVSPost2010Prop29
280
     1
102
RTVSPost2010PropOp29
 70
     1
102
RTVSPost2010Prop30
280
     1
102
RTVSPost2010PropOp30
 70
     1
102
RTVSPost2010Prop31
280
     0
102
RTVSPost2010PropOp31
 70
     1
102
RTVSPost2010Prop32
280
     0
102
RTVSPost2010PropOp32
 70
     1
102
RTVSPost2010Prop33
280
     0
102
RTVSPost2010PropOp33
 70
     1
102
RTVSPost2010Prop34
280
     0
102
RTVSPost2010PropOp34
 70
     1
102
RTVSPost2010Prop35
280
     0
102
RTVSPost2010PropOp35
 70
     1
102
RTVSPost2010Prop36
280
     0
102
RTVSPost2010PropOp36
 70
     1
102
RTVSPost2010Prop37
 90
       50
102
RTVSPost2010PropOp37
 70
     1
102
RTVSPost2010Prop38
140
0.0
102
RTVSPost2010PropOp38
 70
     1
102
RTVSPost2010Prop39
140
1.0
102
RTVSPost2010PropOp39
 70
     1
102
RTVSPost2010Prop40
 90
        0
102
RTVSPost2010PropOp40
 70
     1
102
RTVSPost2010Prop41ColorIndex
 90
       18
102
RTVSPost2010Prop41ColorRGB
 90
        0
102
RTVSPost2010PropOp41
 70
     1
102
RTVSPost2010Prop42
 90
       50
102
RTVSPost2010PropOp42
 70
     1
102
RTVSPost2010Prop43
 90
        3
102
RTVSPost2010PropOp43
 70
     1
102
RTVSPost2010Prop44ColorIndex
 90
        5
102
RTVSPost2010Prop44ColorRGB
 90
      255
102
RTVSPost2010PropOp44
 70
     1
102
RTVSPost2010Prop45
280
     0
102
RTVSPost2010PropOp45
 70
     1
102
RTVSPost2010Prop46
 90
       50
102
RTVSPost2010PropOp46
 70
     1
102
RTVSPost2010Prop47
 90
       50
102
RTVSPost2010PropOp47
 70
     1
102
RTVSPost2010Prop48
 90
       50
102
RTVSPost2010PropOp48
 70
     1
102
RTVSPost2010Prop49
280
     0
102
RTVSPost2010PropOp49
 70
     1
102
RTVSPost2010Prop50
 90
       50
102
RTVSPost2010PropOp50
 70
     1
102
RTVSPost2010Prop51ColorIndex
 90
      256
102
RTVSPost2010Prop51ColorRGB
 90
-16777216
102
RTVSPost2010PropOp51
 70
     0
102
RTVSPost2010Prop52
140
1.0
102
RTVSPost2010PropOp52
 70
     0
102
RTVSPost2010Prop53
 90
        2
102
RTVSPost2010PropOp53
 70
     1
102
RTVSPost2010Prop54
  1
strokes_ogs.tif
102
RTVSPost2010PropOp54
 70
     1
102
RTVSPost2010Prop55
280
     0
102
RTVSPost2010PropOp55
 70
     1
102
RTVSPost2010Prop56
140
1.0
102
RTVSPost2010PropOp56
 70
     1
102
RTVSPost2010Prop57
140
1.0
102
RTVSPost2010PropOp57
 70
     1
102
RTVSPropertyOp0
 70
     1
102
RTVSPropertyOp1
 70
     1
102
RTVSPropertyOp2
 70
     1
102
RTVSPropertyOp3
 70
     1
102
RTVSPropertyOp4
 70
     1
102
RTVSPropertyOp5
 70
     1
102
RTVSPropertyOp6
 70
     1
102
RTVSPropertyOp7
 70
     1
102
RTVSPropertyOp8
 70
     1
102
RTVSPropertyOp9
 70
     1
102
RTVSPropertyOp10
 70
     1
102
RTVSPropertyOp11
 70
     1
102
RTVSPropertyOp12
 70
     1
102
RTVSPropertyOp13
 70
     1
102
RTVSPropertyOp14
 70
     1
102
RTVSPropertyOp15
 70
     1
102
RTVSPropertyOp16
 70
     1
102
RTVSPropertyOp17
 70
     1
102
RTVSPropertyOp18
 70
     1
102
RTVSPropertyOp19
 70
     1
102
RTVSPropertyOp20
 70
     1
102
RTVSPropertyOp21
 70
     1
102
RTVSPropertyOp22
 70
     1
102
RTVSPropertyOp23
 70
     1
102
RTVSPropertyOp24
 70
     1
102
RTVSPropertyOp25
 70
     1
102
RTVSPropertyOp26
 70
     1
102
RTVSPropertyOp27
 70
     1
102
RTVSPropertyOp28
 70
     1
102
RTVSPropertyOp29
 70
     1
102
RTVSPropertyOp30
 70
     1
102
RTVSPropertyOp31
 70
     1
102
RTVSPropertyOp32
 70
     1
102
RTVSPropertyOp33
 70
     1
102
RTVSPropertyOp34
 70
     1
102
RTVSPropertyOp35
 70
     1
102
RTVSPropertyOp36
 70
     1
102
RTVSPropertyOp37
 70
     1
102
RTVSPropertyOp38
 70
     1
102
RTVSPropertyOp39
 70
     1
102
RTVSPropertyOp40
 70
     1
102
RTVSPropertyOp41
 70
     1
102
RTVSPropertyOp42
 70
     1
102
RTVSPropertyOp43
 70
     1
102
RTVSPropertyOp44
 70
     1
102
RTVSPropertyOp45
 70
     1
102
RTVSPropertyOp46
 70
     1
102
RTVSPropertyOp47
 70
     1
102
RTVSPropertyOp48
 70
     1
102
RTVSPropertyOp49
 70
     1
102
RTVSPropertyOp50
 70
     1
102
RTVSPropertyOp51
 70
     0
102
RTVSPropertyOp52
 70
     0
102
RTVSPropertyOp53
 70
     1
102
RTVSPropertyOp54
 70
     1
102
RTVSPropertyOp55
 70
     1
102
RTVSPropertyOp56
 70
     1
102
RTVSPropertyOp57
 70
     1
102
RTVSPropertyOp58
 70
     1
102
RTVSPropertyOp59
 70
     1
102
RTVSPropertyOp60
 70
     1
102
RTVSPropertyOp61
 70
     1
102
RTVSPropertyOp62
 70
     1
  0
XRECORD
  5
5C47
102
{ACAD_REACTORS
330
5C46
102
}
330
5C46
100
AcDbXrecord
280
     1
102
RTVSPost2010Prop28
280
     0
102
RTVSPost2010PropOp28
 70
     1
102
RTVSPost2010Prop29
280
     1
102
RTVSPost2010PropOp29
 70
     1
102
RTVSPost2010Prop30
280
     1
102
RTVSPost2010PropOp30
 70
     1
102
RTVSPost2010Prop31
280
     0
102
RTVSPost2010PropOp31
 70
     1
102
RTVSPost2010Prop32
280
     0
102
RTVSPost2010PropOp32
 70
     1
102
RTVSPost2010Prop33
280
     0
102
RTVSPost2010PropOp33
 70
     1
102
RTVSPost2010Prop34
280
     0
102
RTVSPost2010PropOp34
 70
     1
102
RTVSPost2010Prop35
280
     0
102
RTVSPost2010PropOp35
 70
     1
102
RTVSPost2010Prop36
280
     0
102
RTVSPost2010PropOp36
 70
     1
102
RTVSPost2010Prop37
 90
       50
102
RTVSPost2010PropOp37
 70
     1
102
RTVSPost2010Prop38
140
0.0
102
RTVSPost2010PropOp38
 70
     1
102
RTVSPost2010Prop39
140
1.0
102
RTVSPost2010PropOp39
 70
     1
102
RTVSPost2010Prop40
 90
        0
102
RTVSPost2010PropOp40
 70
     1
102
RTVSPost2010Prop41ColorIndex
 90
       18
102
RTVSPost2010Prop41ColorRGB
 90
        0
102
RTVSPost2010PropOp41
 70
     1
102
RTVSPost2010Prop42
 90
       50
102
RTVSPost2010PropOp42
 70
     1
102
RTVSPost2010Prop43
 90
        3
102
RTVSPost2010PropOp43
 70
     1
102
RTVSPost2010Prop44ColorIndex
 90
        5
102
RTVSPost2010Prop44ColorRGB
 90
      255
102
RTVSPost2010PropOp44
 70
     1
102
RTVSPost2010Prop45
280
     0
102
RTVSPost2010PropOp45
 70
     1
102
RTVSPost2010Prop46
 90
       50
102
RTVSPost2010PropOp46
 70
     1
102
RTVSPost2010Prop47
 90
       50
102
RTVSPost2010PropOp47
 70
     1
102
RTVSPost2010Prop48
 90
       50
102
RTVSPost2010PropOp48
 70
     1
102
RTVSPost2010Prop49
280
     0
102
RTVSPost2010PropOp49
 70
     1
102
RTVSPost2010Prop50
 90
       50
102
RTVSPost2010PropOp50
 70
     1
102
RTVSPost2010Prop51ColorIndex
 90
      256
102
RTVSPost2010Prop51ColorRGB
 90
-16777216
102
RTVSPost2010PropOp51
 70
     0
102
RTVSPost2010Prop52
140
1.0
102
RTVSPost2010PropOp52
 70
     0
102
RTVSPost2010Prop53
 90
        2
102
RTVSPost2010PropOp53
 70
     1
102
RTVSPost2010Prop54
  1
strokes_ogs.tif
102
RTVSPost2010PropOp54
 70
     1
102
RTVSPost2010Prop55
280
     0
102
RTVSPost2010PropOp55
 70
     1
102
RTVSPost2010Prop56
140
1.0
102
RTVSPost2010PropOp56
 70
     1
102
RTVSPost2010Prop57
140
1.0
102
RTVSPost2010PropOp57
 70
     1
102
RTVSPropertyOp0
 70
     1
102
RTVSPropertyOp1
 70
     1
102
RTVSPropertyOp2
 70
     1
102
RTVSPropertyOp3
 70
     1
102
RTVSPropertyOp4
 70
     1
102
RTVSPropertyOp5
 70
     1
102
RTVSPropertyOp6
 70
     1
102
RTVSPropertyOp7
 70
     1
102
RTVSPropertyOp8
 70
     1
102
RTVSPropertyOp9
 70
     1
102
RTVSPropertyOp10
 70
     1
102
RTVSPropertyOp11
 70
     1
102
RTVSPropertyOp12
 70
     1
102
RTVSPropertyOp13
 70
     1
102
RTVSPropertyOp14
 70
     1
102
RTVSPropertyOp15
 70
     1
102
RTVSPropertyOp16
 70
     1
102
RTVSPropertyOp17
 70
     1
102
RTVSPropertyOp18
 70
     1
102
RTVSPropertyOp19
 70
     1
102
RTVSPropertyOp20
 70
     1
102
RTVSPropertyOp21
 70
     1
102
RTVSPropertyOp22
 70
     1
102
RTVSPropertyOp23
 70
     1
102
RTVSPropertyOp24
 70
     1
102
RTVSPropertyOp25
 70
     1
102
RTVSPropertyOp26
 70
     1
102
RTVSPropertyOp27
 70
     1
102
RTVSPropertyOp28
 70
     1
102
RTVSPropertyOp29
 70
     1
102
RTVSPropertyOp30
 70
     1
102
RTVSPropertyOp31
 70
     1
102
RTVSPropertyOp32
 70
     1
102
RTVSPropertyOp33
 70
     1
102
RTVSPropertyOp34
 70
     1
102
RTVSPropertyOp35
 70
     1
102
RTVSPropertyOp36
 70
     1
102
RTVSPropertyOp37
 70
     1
102
RTVSPropertyOp38
 70
     1
102
RTVSPropertyOp39
 70
     1
102
RTVSPropertyOp40
 70
     1
102
RTVSPropertyOp41
 70
     1
102
RTVSPropertyOp42
 70
     1
102
RTVSPropertyOp43
 70
     1
102
RTVSPropertyOp44
 70
     1
102
RTVSPropertyOp45
 70
     1
102
RTVSPropertyOp46
 70
     1
102
RTVSPropertyOp47
 70
     1
102
RTVSPropertyOp48
 70
     1
102
RTVSPropertyOp49
 70
     1
102
RTVSPropertyOp50
 70
     1
102
RTVSPropertyOp51
 70
     0
102
RTVSPropertyOp52
 70
     0
102
RTVSPropertyOp53
 70
     1
102
RTVSPropertyOp54
 70
     1
102
RTVSPropertyOp55
 70
     1
102
RTVSPropertyOp56
 70
     1
102
RTVSPropertyOp57
 70
     1
102
RTVSPropertyOp58
 70
     1
102
RTVSPropertyOp59
 70
     1
102
RTVSPropertyOp60
 70
     1
102
RTVSPropertyOp61
 70
     1
102
RTVSPropertyOp62
 70
     1
  0
XRECORD
  5
5C5F
102
{ACAD_REACTORS
330
5C5E
102
}
330
5C5E
100
AcDbXrecord
280
     1
102
RTVSPost2010Prop28
280
     0
102
RTVSPost2010PropOp28
 70
     1
102
RTVSPost2010Prop29
280
     1
102
RTVSPost2010PropOp29
 70
     1
102
RTVSPost2010Prop30
280
     1
102
RTVSPost2010PropOp30
 70
     1
102
RTVSPost2010Prop31
280
     0
102
RTVSPost2010PropOp31
 70
     1
102
RTVSPost2010Prop32
280
     0
102
RTVSPost2010PropOp32
 70
     1
102
RTVSPost2010Prop33
280
     0
102
RTVSPost2010PropOp33
 70
     1
102
RTVSPost2010Prop34
280
     0
102
RTVSPost2010PropOp34
 70
     1
102
RTVSPost2010Prop35
280
     0
102
RTVSPost2010PropOp35
 70
     1
102
RTVSPost2010Prop36
280
     0
102
RTVSPost2010PropOp36
 70
     1
102
RTVSPost2010Prop37
 90
       50
102
RTVSPost2010PropOp37
 70
     1
102
RTVSPost2010Prop38
140
0.0
102
RTVSPost2010PropOp38
 70
     1
102
RTVSPost2010Prop39
140
1.0
102
RTVSPost2010PropOp39
 70
     1
102
RTVSPost2010Prop40
 90
        0
102
RTVSPost2010PropOp40
 70
     1
102
RTVSPost2010Prop41ColorIndex
 90
       18
102
RTVSPost2010Prop41ColorRGB
 90
        0
102
RTVSPost2010PropOp41
 70
     1
102
RTVSPost2010Prop42
 90
       50
102
RTVSPost2010PropOp42
 70
     1
102
RTVSPost2010Prop43
 90
        3
102
RTVSPost2010PropOp43
 70
     1
102
RTVSPost2010Prop44ColorIndex
 90
        5
102
RTVSPost2010Prop44ColorRGB
 90
      255
102
RTVSPost2010PropOp44
 70
     1
102
RTVSPost2010Prop45
280
     0
102
RTVSPost2010PropOp45
 70
     1
102
RTVSPost2010Prop46
 90
       50
102
RTVSPost2010PropOp46
 70
     1
102
RTVSPost2010Prop47
 90
       50
102
RTVSPost2010PropOp47
 70
     1
102
RTVSPost2010Prop48
 90
       50
102
RTVSPost2010PropOp48
 70
     1
102
RTVSPost2010Prop49
280
     0
102
RTVSPost2010PropOp49
 70
     1
102
RTVSPost2010Prop50
 90
       50
102
RTVSPost2010PropOp50
 70
     1
102
RTVSPost2010Prop51ColorIndex
 90
      256
102
RTVSPost2010Prop51ColorRGB
 90
-16777216
102
RTVSPost2010PropOp51
 70
     0
102
RTVSPost2010Prop52
140
1.0
102
RTVSPost2010PropOp52
 70
     0
102
RTVSPost2010Prop53
 90
        2
102
RTVSPost2010PropOp53
 70
     1
102
RTVSPost2010Prop54
  1
strokes_ogs.tif
102
RTVSPost2010PropOp54
 70
     1
102
RTVSPost2010Prop55
280
     0
102
RTVSPost2010PropOp55
 70
     1
102
RTVSPost2010Prop56
140
1.0
102
RTVSPost2010PropOp56
 70
     1
102
RTVSPost2010Prop57
140
1.0
102
RTVSPost2010PropOp57
 70
     1
102
RTVSPropertyOp0
 70
     1
102
RTVSPropertyOp1
 70
     1
102
RTVSPropertyOp2
 70
     1
102
RTVSPropertyOp3
 70
     1
102
RTVSPropertyOp4
 70
     1
102
RTVSPropertyOp5
 70
     1
102
RTVSPropertyOp6
 70
     1
102
RTVSPropertyOp7
 70
     1
102
RTVSPropertyOp8
 70
     1
102
RTVSPropertyOp9
 70
     1
102
RTVSPropertyOp10
 70
     1
102
RTVSPropertyOp11
 70
     1
102
RTVSPropertyOp12
 70
     1
102
RTVSPropertyOp13
 70
     1
102
RTVSPropertyOp14
 70
     1
102
RTVSPropertyOp15
 70
     1
102
RTVSPropertyOp16
 70
     1
102
RTVSPropertyOp17
 70
     1
102
RTVSPropertyOp18
 70
     1
102
RTVSPropertyOp19
 70
     1
102
RTVSPropertyOp20
 70
     1
102
RTVSPropertyOp21
 70
     1
102
RTVSPropertyOp22
 70
     1
102
RTVSPropertyOp23
 70
     1
102
RTVSPropertyOp24
 70
     1
102
RTVSPropertyOp25
 70
     1
102
RTVSPropertyOp26
 70
     1
102
RTVSPropertyOp27
 70
     1
102
RTVSPropertyOp28
 70
     1
102
RTVSPropertyOp29
 70
     1
102
RTVSPropertyOp30
 70
     1
102
RTVSPropertyOp31
 70
     1
102
RTVSPropertyOp32
 70
     1
102
RTVSPropertyOp33
 70
     1
102
RTVSPropertyOp34
 70
     1
102
RTVSPropertyOp35
 70
     1
102
RTVSPropertyOp36
 70
     1
102
RTVSPropertyOp37
 70
     1
102
RTVSPropertyOp38
 70
     1
102
RTVSPropertyOp39
 70
     1
102
RTVSPropertyOp40
 70
     1
102
RTVSPropertyOp41
 70
     1
102
RTVSPropertyOp42
 70
     1
102
RTVSPropertyOp43
 70
     1
102
RTVSPropertyOp44
 70
     1
102
RTVSPropertyOp45
 70
     1
102
RTVSPropertyOp46
 70
     1
102
RTVSPropertyOp47
 70
     1
102
RTVSPropertyOp48
 70
     1
102
RTVSPropertyOp49
 70
     1
102
RTVSPropertyOp50
 70
     1
102
RTVSPropertyOp51
 70
     0
102
RTVSPropertyOp52
 70
     0
102
RTVSPropertyOp53
 70
     1
102
RTVSPropertyOp54
 70
     1
102
RTVSPropertyOp55
 70
     1
102
RTVSPropertyOp56
 70
     1
102
RTVSPropertyOp57
 70
     1
102
RTVSPropertyOp58
 70
     1
102
RTVSPropertyOp59
 70
     1
102
RTVSPropertyOp60
 70
     1
102
RTVSPropertyOp61
 70
     1
102
RTVSPropertyOp62
 70
     1
  0
ENDSEC
  0
EOF
