  0
SECTION
  2
HEADER
  9
$ACADVER
  1
AC1015
  9
$ACADMAINTVER
 70
    20
  9
$DWGCODEPAGE
  3
ANSI_932
  9
$INSBASE
 10
0.0
 20
0.0
 30
0.0
  9
$EXTMIN
 10
-154.4022849649045
 20
2822.809791742034
 30
0.0
  9
$EXTMAX
 10
2995.597715035096
 20
7247.809791742034
 30
0.0
  9
$LIMMIN
 10
0.0
 20
0.0
  9
$LIMMAX
 10
297.0
 20
210.0
  9
$ORTHOMODE
 70
     1
  9
$REGENMODE
 70
     1
  9
$FILLMODE
 70
     1
  9
$QTEXTMODE
 70
     0
  9
$MIRRTEXT
 70
     0
  9
$LTSCALE
 40
75.0
  9
$ATTMODE
 70
     1
  9
$TEXTSIZE
 40
3.5
  9
$TRACEWID
 40
0.05
  9
$TEXTSTYLE
  7
STANDARD
  9
$CLAYER
  8
SP
  9
$CELTYPE
  6
BYLAYER
  9
$CECOLOR
 62
   256
  9
$CELTSCALE
 40
1.0
  9
$DISPSILH
 70
     0
  9
$DIMSCALE
 40
15.0
  9
$DIMASZ
 40
2.5
  9
$DIMEXO
 40
1.0
  9
$DIMDLI
 40
7.0
  9
$DIMRND
 40
0.0
  9
$DIMDLE
 40
0.0
  9
$DIMEXE
 40
1.0
  9
$DIMTP
 40
0.0
  9
$DIMTM
 40
0.0
  9
$DIMTXT
 40
3.0
  9
$DIMCEN
 40
0.0
  9
$DIMTSZ
 40
0.0
  9
$DIMTOL
 70
     0
  9
$DIMLIM
 70
     0
  9
$DIMTIH
 70
     0
  9
$DIMTOH
 70
     0
  9
$DIMSE1
 70
     0
  9
$DIMSE2
 70
     0
  9
$DIMTAD
 70
     1
  9
$DIMZIN
 70
     8
  9
$DIMBLK
  1

  9
$DIMASO
 70
     1
  9
$DIMSHO
 70
     1
  9
$DIMPOST
  1

  9
$DIMAPOST
  1

  9
$DIMALT
 70
     0
  9
$DIMALTD
 70
     2
  9
$DIMALTF
 40
0.03937
  9
$DIMLFAC
 40
1.0
  9
$DIMTOFL
 70
     1
  9
$DIMTVP
 40
0.0
  9
$DIMTIX
 70
     0
  9
$DIMSOXD
 70
     0
  9
$DIMSAH
 70
     1
  9
$DIMBLK1
  1
OPEN
  9
$DIMBLK2
  1
OPEN
  9
$DIMSTYLE
  2
GOD
  9
$DIMCLRD
 70
   256
  9
$DIMCLRE
 70
   256
  9
$DIMCLRT
 70
   256
  9
$DIMTFAC
 40
1.0
  9
$DIMGAP
 40
1.0
  9
$DIMJUST
 70
     0
  9
$DIMSD1
 70
     0
  9
$DIMSD2
 70
     0
  9
$DIMTOLJ
 70
     1
  9
$DIMTZIN
 70
     8
  9
$DIMALTZ
 70
     0
  9
$DIMALTTZ
 70
     0
  9
$DIMUPT
 70
     0
  9
$DIMDEC
 70
     2
  9
$DIMTDEC
 70
     2
  9
$DIMALTU
 70
     2
  9
$DIMALTTD
 70
     2
  9
$DIMTXSTY
  7
STANDARD
  9
$DIMAUNIT
 70
     0
  9
$DIMADEC
 70
     0
  9
$DIMALTRND
 40
0.0
  9
$DIMAZIN
 70
     0
  9
$DIMDSEP
 70
    46
  9
$DIMATFIT
 70
     0
  9
$DIMFRAC
 70
     0
  9
$DIMLDRBLK
  1
OPEN
  9
$DIMLUNIT
 70
     2
  9
$DIMLWD
 70
    -2
  9
$DIMLWE
 70
    -2
  9
$DIMTMOVE
 70
     0
  9
$LUNITS
 70
     2
  9
$LUPREC
 70
     3
  9
$SKETCHINC
 40
0.1
  9
$FILLETRAD
 40
15.0
  9
$AUNITS
 70
     0
  9
$AUPREC
 70
     2
  9
$MENU
  1
acad
  9
$ELEVATION
 40
0.0
  9
$PELEVATION
 40
0.0
  9
$THICKNESS
 40
0.0
  9
$LIMCHECK
 70
     0
  9
$CHAMFERA
 40
0.0
  9
$CHAMFERB
 40
0.0
  9
$CHAMFERC
 40
20.0
  9
$CHAMFERD
 40
0.0
  9
$SKPOLY
 70
     0
  9
$TDCREATE
 40
2454939.604632489
  9
$TDUCREATE
 40
2454939.229632489
  9
$TDUPDATE
 40
2459353.579797304
  9
$TDUUPDATE
 40
2459353.204797303
  9
$TDINDWG
 40
0.1181896875
  9
$TDUSRTIMER
 40
0.1181896875
  9
$USRTIMER
 70
     1
  9
$ANGBASE
 50
0.0
  9
$ANGDIR
 70
     0
  9
$PDMODE
 70
     0
  9
$PDSIZE
 40
1.0
  9
$PLINEWID
 40
0.0
  9
$SPLFRAME
 70
     0
  9
$SPLINETYPE
 70
     6
  9
$SPLINESEGS
 70
     8
  9
$HANDSEED
  5
5C44
  9
$SURFTAB1
 70
     6
  9
$SURFTAB2
 70
     6
  9
$SURFTYPE
 70
     6
  9
$SURFU
 70
     6
  9
$SURFV
 70
     6
  9
$UCSBASE
  2

  9
$UCSNAME
  2

  9
$UCSORG
 10
0.0
 20
0.0
 30
0.0
  9
$UCSXDIR
 10
1.0
 20
0.0
 30
0.0
  9
$UCSYDIR
 10
0.0
 20
1.0
 30
0.0
  9
$UCSORTHOREF
  2

  9
$UCSORTHOVIEW
 70
     0
  9
$UCSORGTOP
 10
0.0
 20
0.0
 30
0.0
  9
$UCSORGBOTTOM
 10
0.0
 20
0.0
 30
0.0
  9
$UCSORGLEFT
 10
0.0
 20
0.0
 30
0.0
  9
$UCSORGRIGHT
 10
0.0
 20
0.0
 30
0.0
  9
$UCSORGFRONT
 10
0.0
 20
0.0
 30
0.0
  9
$UCSORGBACK
 10
0.0
 20
0.0
 30
0.0
  9
$PUCSBASE
  2

  9
$PUCSNAME
  2

  9
$PUCSORG
 10
0.0
 20
0.0
 30
0.0
  9
$PUCSXDIR
 10
1.0
 20
0.0
 30
0.0
  9
$PUCSYDIR
 10
0.0
 20
1.0
 30
0.0
  9
$PUCSORTHOREF
  2

  9
$PUCSORTHOVIEW
 70
     0
  9
$PUCSORGTOP
 10
0.0
 20
0.0
 30
0.0
  9
$PUCSORGBOTTOM
 10
0.0
 20
0.0
 30
0.0
  9
$PUCSORGLEFT
 10
0.0
 20
0.0
 30
0.0
  9
$PUCSORGRIGHT
 10
0.0
 20
0.0
 30
0.0
  9
$PUCSORGFRONT
 10
0.0
 20
0.0
 30
0.0
  9
$PUCSORGBACK
 10
0.0
 20
0.0
 30
0.0
  9
$USERI1
 70
     0
  9
$USERI2
 70
     0
  9
$USERI3
 70
     0
  9
$USERI4
 70
     0
  9
$USERI5
 70
     0
  9
$USERR1
 40
0.0
  9
$USERR2
 40
0.0
  9
$USERR3
 40
0.0
  9
$USERR4
 40
0.0
  9
$USERR5
 40
0.0
  9
$WORLDVIEW
 70
     1
  9
$SHADEDGE
 70
     3
  9
$SHADEDIF
 70
    70
  9
$TILEMODE
 70
     1
  9
$MAXACTVP
 70
    16
  9
$PINSBASE
 10
0.0
 20
0.0
 30
0.0
  9
$PLIMCHECK
 70
     0
  9
$PEXTMIN
 10
1.000000000000000E+20
 20
1.000000000000000E+20
 30
1.000000000000000E+20
  9
$PEXTMAX
 10
-1.000000000000000E+20
 20
-1.000000000000000E+20
 30
-1.000000000000000E+20
  9
$PLIMMIN
 10
0.0
 20
0.0
  9
$PLIMMAX
 10
12.0
 20
9.0
  9
$UNITMODE
 70
     0
  9
$VISRETAIN
 70
     0
  9
$PLINEGEN
 70
     0
  9
$PSLTSCALE
 70
     0
  9
$TREEDEPTH
 70
  3020
  9
$CMLSTYLE
  2
STANDARD
  9
$CMLJUST
 70
     0
  9
$CMLSCALE
 40
20.0
  9
$PROXYGRAPHICS
 70
     1
  9
$MEASUREMENT
 70
     1
  9
$CELWEIGHT
370
    -1
  9
$ENDCAPS
280
     0
  9
$JOINSTYLE
280
     0
  9
$LWDISPLAY
290
     0
  9
$INSUNITS
 70
     0
  9
$HYPERLINKBASE
  1

  9
$STYLESHEET
  1

  9
$XEDIT
290
     1
  9
$CEPSNTYPE
380
     0
  9
$PSTYLEMODE
290
     1
  9
$FINGERPRINTGUID
  2
{A0F129D1-2BC8-11D4-BF85-004026350B0A}
  9
$VERSIONGUID
  2
{09F54D73-B331-FD42-951D-E8743DC71466}
  9
$EXTNAMES
290
     1
  9
$PSVPSCALE
 40
0.0
  9
$OLESTARTUP
290
     0
  0
ENDSEC
  0
SECTION
  2
CLASSES
  0
CLASS
  1
ACDBDICTIONARYWDFLT
  2
AcDbDictionaryWithDefault
  3
ObjectDBX Classes
 90
        0
280
     0
281
     0
  0
CLASS
  1
ACDBPLACEHOLDER
  2
AcDbPlaceHolder
  3
ObjectDBX Classes
 90
        0
280
     0
281
     0
  0
CLASS
  1
LAYOUT
  2
AcDbLayout
  3
ObjectDBX Classes
 90
        0
280
     0
281
     0
  0
CLASS
  1
MATERIAL
  2
AcDbMaterial
  3
ObjectDBX Classes
 90
     1153
280
     0
281
     0
  0
CLASS
  1
VISUALSTYLE
  2
AcDbVisualStyle
  3
ObjectDBX Classes
 90
     4095
280
     0
281
     0
  0
CLASS
  1
TABLESTYLE
  2
AcDbTableStyle
  3
ObjectDBX Classes
 90
     4095
280
     0
281
     0
  0
CLASS
  1
SCALE
  2
AcDbScale
  3
ObjectDBX Classes
 90
     1153
280
     0
281
     0
  0
CLASS
  1
MLEADERSTYLE
  2
AcDbMLeaderStyle
  3
ACDB_MLEADERSTYLE_CLASS
 90
     4095
280
     0
281
     0
  0
CLASS
  1
ACDBSECTIONVIEWSTYLE
  2
AcDbSectionViewStyle
  3
ObjectDBX Classes
 90
     1025
280
     0
281
     0
  0
CLASS
  1
ACDBDETAILVIEWSTYLE
  2
AcDbDetailViewStyle
  3
ObjectDBX Classes
 90
     1025
280
     0
281
     0
  0
CLASS
  1
DICTIONARYVAR
  2
AcDbDictionaryVar
  3
ObjectDBX Classes
 90
        0
280
     0
281
     0
  0
CLASS
  1
CELLSTYLEMAP
  2
AcDbCellStyleMap
  3
ObjectDBX Classes
 90
     1152
280
     0
281
     0
  0
ENDSEC
  0
SECTION
  2
TABLES
  0
TABLE
  2
VPORT
  5
8
330
0
100
AcDbSymbolTable
 70
     1
  0
VPORT
  5
5A0D
330
8
100
AcDbSymbolTableRecord
100
AcDbViewportTableRecord
  2
*Active
 70
     0
 10
0.0
 20
0.0
 11
1.0
 21
1.0
 12
1420.597722369262
 22
5347.510061844362
 13
0.0
 23
0.0
 14
5.0
 24
5.0
 15
0.0
 25
0.0
 16
0.0
 26
0.0
 36
1.0
 17
0.0
 27
0.0
 37
0.0
 40
5084.914710787955
 41
2.146341463414634
 42
50.0
 43
0.0
 44
0.0
 50
0.0
 51
0.0
 71
     0
 72
   100
 73
     1
 74
     0
 75
     0
 76
     0
 77
     0
 78
     0
281
     0
 65
     1
110
0.0
120
0.0
130
0.0
111
1.0
121
0.0
131
0.0
112
0.0
122
1.0
132
0.0
 79
     0
146
0.0
1001
ACAD_NAV_VCDISPLAY
1070
     3
  0
ENDTAB
  0
TABLE
  2
LTYPE
  5
5
330
0
100
AcDbSymbolTable
 70
     4
  0
LTYPE
  5
13
330
5
100
AcDbSymbolTableRecord
100
AcDbLinetypeTableRecord
  2
BYBLOCK
 70
     0
  3

 72
    65
 73
     0
 40
0.0
  0
LTYPE
  5
14
330
5
100
AcDbSymbolTableRecord
100
AcDbLinetypeTableRecord
  2
BYLAYER
 70
     0
  3

 72
    65
 73
     0
 40
0.0
  0
LTYPE
  5
15
330
5
100
AcDbSymbolTableRecord
100
AcDbLinetypeTableRecord
  2
CONTINUOUS
 70
     0
  3
Solid line
 72
    65
 73
     0
 40
0.0
  0
LTYPE
  5
1F
330
5
100
AcDbSymbolTableRecord
100
AcDbLinetypeTableRecord
  2
CENTER
 70
     0
  3
____ _ ____ _ ____ _ ____ _ ____ _ ____ _ ____ 
 72
    65
 73
     4
 40
2.0
 49
1.25
 74
     0
 49
-0.25
 74
     0
 49
0.25
 74
     0
 49
-0.25
 74
     0
  0
LTYPE
  5
20
330
5
100
AcDbSymbolTableRecord
100
AcDbLinetypeTableRecord
  2
HIDDEN
 70
     0
  3
__ __ __ __ __ __ __ __ __ __ __ __ __ __ __ __
 72
    65
 73
     2
 40
0.375
 49
0.25
 74
     0
 49
-0.125
 74
     0
  0
LTYPE
  5
21
330
5
100
AcDbSymbolTableRecord
100
AcDbLinetypeTableRecord
  2
PHANTOM
 70
     0
  3
______  __  __  ______  __  __  ______  __  __ 
 72
    65
 73
     6
 40
2.5
 49
1.25
 74
     0
 49
-0.25
 74
     0
 49
0.25
 74
     0
 49
-0.25
 74
     0
 49
0.25
 74
     0
 49
-0.25
 74
     0
  0
ENDTAB
  0
TABLE
  2
LAYER
  5
2
102
{ACAD_XDICTIONARY
360
5BD6
102
}
330
0
100
AcDbSymbolTable
 70
    13
  0
LAYER
  5
F
102
{ACAD_XDICTIONARY
360
5BBB
102
}
330
2
100
AcDbSymbolTableRecord
100
AcDbLayerTableRecord
  2
0
 70
     0
 62
     7
  6
CONTINUOUS
370
    -3
390
1E91
  0
LAYER
  5
2F
102
{ACAD_XDICTIONARY
360
5BBD
102
}
330
2
100
AcDbSymbolTableRecord
100
AcDbLayerTableRecord
  2
CT
 70
     0
 62
     3
  6
CENTER
370
    -3
390
1E91
  0
LAYER
  5
30
102
{ACAD_XDICTIONARY
360
5BBF
102
}
330
2
100
AcDbSymbolTableRecord
100
AcDbLayerTableRecord
  2
FUTO
 70
     0
 62
     4
  6
CONTINUOUS
370
    -3
390
1E91
  0
LAYER
  5
32
102
{ACAD_XDICTIONARY
360
5BC1
102
}
330
2
100
AcDbSymbolTableRecord
100
AcDbLayerTableRecord
  2
HOSO
 70
     0
 62
     7
  6
CONTINUOUS
370
    -3
390
1E91
  0
LAYER
  5
33
102
{ACAD_XDICTIONARY
360
5BC3
102
}
330
2
100
AcDbSymbolTableRecord
100
AcDbLayerTableRecord
  2
KL
 70
     0
 62
     7
  6
HIDDEN
370
    -3
390
1E91
  0
LAYER
  5
34
102
{ACAD_XDICTIONARY
360
5BC5
102
}
330
2
100
AcDbSymbolTableRecord
100
AcDbLayerTableRecord
  2
MOJI
 70
     0
 62
     3
  6
CONTINUOUS
370
    -3
390
1E91
  0
LAYER
  5
35
102
{ACAD_XDICTIONARY
360
5BC7
102
}
330
2
100
AcDbSymbolTableRecord
100
AcDbLayerTableRecord
  2
SL
 70
     0
 62
     1
  6
PHANTOM
370
    -3
390
1E91
  0
LAYER
  5
36
102
{ACAD_XDICTIONARY
360
5BC9
102
}
330
2
100
AcDbSymbolTableRecord
100
AcDbLayerTableRecord
  2
SP
 70
     0
 62
     2
  6
CONTINUOUS
370
    -3
390
1E91
  0
LAYER
  5
1E9B
330
2
100
AcDbSymbolTableRecord
100
AcDbLayerTableRecord
  2
Defpoints
 70
     0
 62
     7
  6
CONTINUOUS
290
     0
370
    -3
390
1E91
  0
LAYER
  5
1EEE
102
{ACAD_XDICTIONARY
360
5BCB
102
}
330
2
100
AcDbSymbolTableRecord
100
AcDbLayerTableRecord
  2
3
 70
     0
 62
     2
  6
CONTINUOUS
370
    -3
390
1E91
  0
LAYER
  5
1EEF
102
{ACAD_XDICTIONARY
360
5BCD
102
}
330
2
100
AcDbSymbolTableRecord
100
AcDbLayerTableRecord
  2
2
 70
     0
 62
     3
  6
CENTER
370
    -3
390
1E91
  0
LAYER
  5
1EF0
102
{ACAD_XDICTIONARY
360
5BCF
102
}
330
2
100
AcDbSymbolTableRecord
100
AcDbLayerTableRecord
  2
1
 70
     0
 62
     4
  6
CONTINUOUS
370
    -3
390
1E91
  0
LAYER
  5
2188
102
{ACAD_XDICTIONARY
360
5BD1
102
}
330
2
100
AcDbSymbolTableRecord
100
AcDbLayerTableRecord
  2
4
 70
     0
 62
     7
  6
CONTINUOUS
370
    -3
390
1E91
  0
ENDTAB
  0
TABLE
  2
STYLE
  5
3
330
0
100
AcDbSymbolTable
 70
     1
  0
STYLE
  5
10
330
3
100
AcDbSymbolTableRecord
100
AcDbTextStyleTableRecord
  2
STANDARD
 70
     0
 40
0.0
 41
1.0
 50
15.0
 71
     0
 42
3.5
  3
C:\Program Files\AutoCAD LT\simplex.shx
  4
C:\Program Files\AutoCAD LT\extfont.shx
  0
ENDTAB
  0
TABLE
  2
VIEW
  5
6
330
0
100
AcDbSymbolTable
 70
     0
  0
ENDTAB
  0
TABLE
  2
UCS
  5
7
330
0
100
AcDbSymbolTable
 70
     0
  0
ENDTAB
  0
TABLE
  2
APPID
  5
9
330
0
100
AcDbSymbolTable
 70
     5
  0
APPID
  5
11
330
9
100
AcDbSymbolTableRecord
100
AcDbRegAppTableRecord
  2
ACAD
 70
     0
  0
APPID
  5
5B51
330
9
100
AcDbSymbolTableRecord
100
AcDbRegAppTableRecord
  2
ACAD_EXEMPT_FROM_CAD_STANDARDS
 70
     0
  0
APPID
  5
5B66
330
9
100
AcDbSymbolTableRecord
100
AcDbRegAppTableRecord
  2
AcadAnnoMonitorAlertIconDisabled
 70
     0
  0
APPID
  5
5BDC
330
9
100
AcDbSymbolTableRecord
100
AcDbRegAppTableRecord
  2
ACAD_NAV_VCDISPLAY
 70
     0
  0
APPID
  5
5C41
330
9
100
AcDbSymbolTableRecord
100
AcDbRegAppTableRecord
  2
ACAD_MLEADERVER
 70
     0
  0
ENDTAB
  0
TABLE
  2
DIMSTYLE
  5
A
330
0
100
AcDbSymbolTable
 70
     3
100
AcDbDimStyleTable
 71
     2
340
1E99
340
1D
  0
DIMSTYLE
105
1D
330
A
100
AcDbSymbolTableRecord
100
AcDbDimStyleTableRecord
  2
STANDARD
 70
     0
340
10
  0
DIMSTYLE
105
1E99
102
{ACAD_REACTORS
330
53D2
330
53D3
330
530B
330
5326
330
531E
330
530A
330
531F
330
532B
330
5317
330
53D4
330
5308
330
5311
330
5305
330
53A4
330
5B59
330
5B7A
102
}
330
A
100
AcDbSymbolTableRecord
100
AcDbDimStyleTableRecord
  2
GOD
 70
     0
 40
15.0
 41
2.5
 42
1.0
 43
7.0
 44
1.0
 73
     0
 74
     0
 77
     1
 78
     8
140
3.0
141
0.0
143
0.03937
147
1.0
172
     1
173
     1
176
   256
177
   256
178
   256
271
     2
272
     2
284
     8
289
     0
340
10
341
1E7F
343
1E7F
344
1E7F
  0
DIMSTYLE
105
1EF1
330
A
100
AcDbSymbolTableRecord
100
AcDbDimStyleTableRecord
  2
IGA
 70
     0
 40
2.0
 41
2.0
 42
0.5
 43
10.0
 44
1.0
 47
1.0
 48
1.0
 73
     0
 74
     0
 77
     1
 78
     8
140
3.0
141
0.0
143
0.03937
146
10.0
147
1.0
173
     1
271
     1
272
     0
279
     2
284
     8
340
10
341
1E7F
343
1E7F
344
1E7F
  0
ENDTAB
  0
TABLE
  2
BLOCK_RECORD
  5
1
330
0
100
AcDbSymbolTable
 70
    28
  0
BLOCK_RECORD
  5
19
330
1
100
AcDbSymbolTableRecord
100
AcDbBlockTableRecord
  2
*MODEL_SPACE
340
1E94
  0
BLOCK_RECORD
  5
16
330
1
100
AcDbSymbolTableRecord
100
AcDbBlockTableRecord
  2
*PAPER_SPACE
340
1E95
  0
BLOCK_RECORD
  5
1E7F
330
1
100
AcDbSymbolTableRecord
100
AcDbBlockTableRecord
  2
_OPEN
340
0
102
{BLKREFS
331
5BB6
331
5BB7
331
5B39
331
5B3A
331
5B42
331
5B43
331
5B4B
331
5B4C
331
5B74
331
5B75
331
5504
331
5505
331
550D
331
550E
331
5516
331
5517
331
551F
331
5520
331
5528
331
5529
331
5531
331
5532
331
553A
331
553B
331
5543
331
5544
331
554C
331
554D
331
5555
331
5556
331
5570
331
5571
102
}
  0
BLOCK_RECORD
  5
1EB4
330
1
100
AcDbSymbolTableRecord
100
AcDbBlockTableRecord
  2
_Dot
340
0
  0
BLOCK_RECORD
  5
22E5
330
1
100
AcDbSymbolTableRecord
100
AcDbBlockTableRecord
  2
A$C5EBD6DA5
340
0
  0
BLOCK_RECORD
  5
3F67
330
1
100
AcDbSymbolTableRecord
100
AcDbBlockTableRecord
  2
A$C2860434C
340
0
  0
BLOCK_RECORD
  5
543D
330
1
100
AcDbSymbolTableRecord
100
AcDbBlockTableRecord
  2
*D4
340
0
  0
BLOCK_RECORD
  5
544B
330
1
100
AcDbSymbolTableRecord
100
AcDbBlockTableRecord
  2
*D5
340
0
  0
BLOCK_RECORD
  5
5457
330
1
100
AcDbSymbolTableRecord
100
AcDbBlockTableRecord
  2
*D6
340
0
  0
BLOCK_RECORD
  5
5463
330
1
100
AcDbSymbolTableRecord
100
AcDbBlockTableRecord
  2
*D7
340
0
  0
BLOCK_RECORD
  5
546F
330
1
100
AcDbSymbolTableRecord
100
AcDbBlockTableRecord
  2
*D8
340
0
  0
BLOCK_RECORD
  5
547B
330
1
100
AcDbSymbolTableRecord
100
AcDbBlockTableRecord
  2
*D9
340
0
  0
BLOCK_RECORD
  5
5487
330
1
100
AcDbSymbolTableRecord
100
AcDbBlockTableRecord
  2
*D10
340
0
  0
BLOCK_RECORD
  5
5493
330
1
100
AcDbSymbolTableRecord
100
AcDbBlockTableRecord
  2
*D11
340
0
  0
BLOCK_RECORD
  5
549F
330
1
100
AcDbSymbolTableRecord
100
AcDbBlockTableRecord
  2
*D12
340
0
  0
BLOCK_RECORD
  5
54AB
330
1
100
AcDbSymbolTableRecord
100
AcDbBlockTableRecord
  2
*D13
340
0
  0
BLOCK_RECORD
  5
54B7
330
1
100
AcDbSymbolTableRecord
100
AcDbBlockTableRecord
  2
*D14
340
0
  0
BLOCK_RECORD
  5
54CF
330
1
100
AcDbSymbolTableRecord
100
AcDbBlockTableRecord
  2
*D16
340
0
  0
BLOCK_RECORD
  5
54E7
330
1
100
AcDbSymbolTableRecord
100
AcDbBlockTableRecord
  2
*D18
340
0
  0
BLOCK_RECORD
  5
54F3
330
1
100
AcDbSymbolTableRecord
100
AcDbBlockTableRecord
  2
*D19
340
0
  0
BLOCK_RECORD
  5
5B5A
330
1
100
AcDbSymbolTableRecord
100
AcDbBlockTableRecord
  2
*D26
340
0
  0
BLOCK_RECORD
  5
5B7B
330
1
100
AcDbSymbolTableRecord
100
AcDbBlockTableRecord
  2
*D27
340
0
  0
ENDTAB
  0
ENDSEC
  0
SECTION
  2
BLOCKS
  0
BLOCK
  5
1A
330
19
100
AcDbEntity
  8
0
100
AcDbBlockBegin
  2
*MODEL_SPACE
 70
     0
 10
0.0
 20
0.0
 30
0.0
  3
*MODEL_SPACE
  1

  0
ENDBLK
  5
1B
330
19
100
AcDbEntity
  8
0
100
AcDbBlockEnd
  0
BLOCK
  5
17
330
16
100
AcDbEntity
 67
     1
  8
0
100
AcDbBlockBegin
  2
*PAPER_SPACE
 70
     0
 10
0.0
 20
0.0
 30
0.0
  3
*PAPER_SPACE
  1

  0
ENDBLK
  5
18
330
16
100
AcDbEntity
 67
     1
  8
0
100
AcDbBlockEnd
  0
BLOCK
  5
1E80
330
1E7F
100
AcDbEntity
  8
0
100
AcDbBlockBegin
  2
_OPEN
 70
     0
 10
0.0
 20
0.0
 30
0.0
  3
_OPEN
  1

  0
LINE
  5
1E81
330
1E7F
100
AcDbEntity
  8
0
  6
ByBlock
 62
     0
100
AcDbLine
 10
-1.0
 20
0.1666666666666666
 30
0.0
 11
0.0
 21
0.0
 31
0.0
  0
LINE
  5
1E82
330
1E7F
100
AcDbEntity
  8
0
  6
ByBlock
 62
     0
100
AcDbLine
 10
0.0
 20
0.0
 30
0.0
 11
-1.0
 21
-0.1666666666666666
 31
0.0
  0
LINE
  5
1E83
330
1E7F
100
AcDbEntity
  8
0
  6
ByBlock
 62
     0
100
AcDbLine
 10
0.0
 20
0.0
 30
0.0
 11
-1.0
 21
0.0
 31
0.0
  0
ENDBLK
  5
1E84
330
1E7F
100
AcDbEntity
  8
0
100
AcDbBlockEnd
  0
BLOCK
  5
1EB7
330
1EB4
100
AcDbEntity
  8
0
100
AcDbBlockBegin
  2
_Dot
 70
     0
 10
0.0
 20
0.0
 30
0.0
  3
_Dot
  1

  0
LINE
  5
1EC3
330
1EB4
100
AcDbEntity
  8
0
  6
ByBlock
 62
     0
100
AcDbLine
 10
0.0
 20
0.0
 30
0.0
 11
-1.0
 21
-0.0000000000000284
 31
0.0
  0
LWPOLYLINE
  5
1EC4
330
1EB4
100
AcDbEntity
  8
0
  6
ByBlock
 62
     0
100
AcDbPolyline
 90
        2
 70
     1
 43
0.1666666666666666
 10
-0.0833333333333286
 20
-0.0000000000000284
 42
1.0
 10
0.0833333333333286
 20
-0.0000000000000284
 42
1.0
  0
ENDBLK
  5
1EB8
330
1EB4
100
AcDbEntity
  8
0
100
AcDbBlockEnd
  0
BLOCK
  5
22ED
330
22E5
100
AcDbEntity
  8
0
100
AcDbBlockBegin
  2
A$C5EBD6DA5
 70
     0
 10
0.0
 20
0.0
 30
0.0
  3
A$C5EBD6DA5
  1

  0
LWPOLYLINE
  5
22E6
330
22E5
100
AcDbEntity
  8
1
100
AcDbPolyline
 90
        2
 70
     0
 43
0.0
 10
8.000000000002728
 20
-181.5000000000009
 10
8.000000000000909
 20
181.5000000000009
  0
LINE
  5
22E7
330
22E5
100
AcDbEntity
  8
1
100
AcDbLine
 10
1.000000000000909
 20
182.5000000000009
 30
0.0
 11
7.000000000002728
 21
182.5000000000009
 31
0.0
  0
ARC
  5
22E8
330
22E5
100
AcDbEntity
  8
1
100
AcDbCircle
 10
1.000000000000909
 20
183.5000000000009
 30
0.0
 40
1.0
100
AcDbArc
 50
180.0
 51
270.0
  0
LINE
  5
22E9
330
22E5
100
AcDbEntity
  8
1
100
AcDbLine
 10
1.000000000000909
 20
-182.5000000000009
 30
0.0
 11
7.000000000002728
 21
-182.5000000000009
 31
0.0
  0
ARC
  5
22EA
330
22E5
100
AcDbEntity
  8
1
100
AcDbCircle
 10
1.000000000000909
 20
-183.5000000000009
 30
0.0
 40
1.0
100
AcDbArc
 50
90.0
 51
180.0
  0
ARC
  5
22EB
330
22E5
100
AcDbEntity
  8
1
100
AcDbCircle
 10
7.000000000000909
 20
-181.5000000000009
 30
0.0
 40
1.0
100
AcDbArc
 50
270.0
 51
0.0
  0
ARC
  5
22EC
330
22E5
100
AcDbEntity
  8
1
100
AcDbCircle
 10
7.000000000000909
 20
181.5000000000009
 30
0.0
 40
1.0
100
AcDbArc
 50
0.0
 51
90.0
  0
ENDBLK
  5
22EE
330
22E5
100
AcDbEntity
  8
0
100
AcDbBlockEnd
  0
BLOCK
  5
3F70
330
3F67
100
AcDbEntity
  8
0
100
AcDbBlockBegin
  2
A$C2860434C
 70
     0
 10
0.0
 20
0.0
 30
0.0
  3
A$C2860434C
  1

  0
LINE
  5
3F68
330
3F67
100
AcDbEntity
  8
FUTO
100
AcDbLine
 10
46.80127011642617
 20
-0.0000088960860012
 30
0.0
 11
8.586023312103861
 21
70.14998454137458
 31
0.0
  0
LINE
  5
3F69
330
3F67
100
AcDbEntity
  8
FUTO
100
AcDbLine
 10
-0.0000161416137416
 20
53.3499845413753
 30
0.0
 11
1.599983858386622
 21
53.3499845413753
 31
0.0
  0
LINE
  5
3F6A
330
3F67
100
AcDbEntity
  8
FUTO
100
AcDbLine
 10
-0.0000161416137416
 20
53.3499845413753
 30
0.0
 11
-0.0000161416137416
 21
68.54998454137422
 31
0.0
  0
LINE
  5
3F6B
330
3F67
100
AcDbEntity
  8
FUTO
100
AcDbLine
 10
1.599983858386622
 20
53.3499845413753
 30
0.0
 11
1.599983858386622
 21
68.54998454137422
 31
0.0
  0
LINE
  5
3F6C
330
3F67
100
AcDbEntity
  8
FUTO
100
AcDbLine
 10
3.199983858386985
 20
70.14998454137458
 30
0.0
 11
91.76921462761674
 21
70.14998454137094
 31
0.0
  0
LINE
  5
3F6D
330
3F67
100
AcDbEntity
  8
FUTO
100
AcDbLine
 10
3.199983858386985
 20
71.74998454137313
 30
0.0
 11
92.79485565325741
 21
71.74998454137313
 31
0.0
  0
ARC
  5
3F6E
330
3F67
100
AcDbEntity
  8
FUTO
100
AcDbCircle
 10
3.199983858386985
 20
68.54998454137422
 30
0.0
 40
3.2
100
AcDbArc
 50
90.0
 51
180.0
  0
ARC
  5
3F6F
330
3F67
100
AcDbEntity
  8
FUTO
100
AcDbCircle
 10
3.199983858386985
 20
68.54998454137422
 30
0.0
 40
1.6
100
AcDbArc
 50
90.0
 51
180.0
  0
ENDBLK
  5
3F71
330
3F67
100
AcDbEntity
  8
0
100
AcDbBlockEnd
  0
BLOCK
  5
5449
330
543D
100
AcDbEntity
  8
0
100
AcDbBlockBegin
  2
*D4
 70
     1
 10
0.0
 20
0.0
 30
0.0
  3
*D4
  1

  0
LINE
  5
54FF
330
543D
100
AcDbEntity
  8
SP
370
    -2
100
AcDbLine
 10
1182.766365650733
 20
5732.362935220167
 30
0.0
 11
1356.639068086905
 21
5732.362935220167
 31
0.0
  0
LINE
  5
5500
330
543D
100
AcDbEntity
  8
SP
370
    -2
100
AcDbLine
 10
1230.387913917214
 20
5854.362935220167
 30
0.0
 11
1356.639068086905
 21
5854.362935220167
 31
0.0
  0
LINE
  5
5501
330
543D
100
AcDbEntity
  8
SP
370
    -2
100
AcDbLine
 10
1341.639068086905
 20
5694.862935220167
 30
0.0
 11
1341.639068086905
 21
5657.362935220167
 31
0.0
  0
LINE
  5
5502
330
543D
100
AcDbEntity
  8
SP
370
    -2
100
AcDbLine
 10
1341.639068086905
 20
5891.862935220167
 30
0.0
 11
1341.639068086905
 21
6064.362935220167
 31
0.0
  0
LINE
  5
5503
330
543D
100
AcDbEntity
  8
SP
370
    -2
100
AcDbLine
 10
1341.639068086905
 20
5732.362935220167
 30
0.0
 11
1341.639068086905
 21
5854.362935220167
 31
0.0
  0
INSERT
  5
5504
330
543D
100
AcDbEntity
  8
SP
370
    -2
100
AcDbBlockReference
  2
_OPEN
 10
1341.639068086905
 20
5732.362935220167
 30
0.0
 41
37.5
 42
37.5
 43
37.5
 50
90.0
  0
INSERT
  5
5505
330
543D
100
AcDbEntity
  8
SP
370
    -2
100
AcDbBlockReference
  2
_OPEN
 10
1341.639068086905
 20
5854.362935220167
 30
0.0
 41
37.5
 42
37.5
 43
37.5
 50
270.0
  0
MTEXT
  5
5506
330
543D
100
AcDbEntity
  8
SP
100
AcDbMText
 10
1304.139068086904
 20
5996.862935220168
 30
0.0
 40
45.0
 41
0.0
 71
     5
 72
     1
  1
\A1;122
 11
0.0000000000000001
 21
1.0
 31
0.0
 73
     1
 44
1.0
1001
ACAD
1000
MTEXTBEGIN
1070
    73
1070
     1
1070
    44
1040
1.0
1070
    74
1070
     0
1000
MTEXTEND
  0
POINT
  5
5507
330
543D
100
AcDbEntity
  8
Defpoints
 62
     0
100
AcDbPoint
 10
1167.766365650733
 20
5732.362935220167
 30
0.0
  0
POINT
  5
5508
330
543D
100
AcDbEntity
  8
Defpoints
 62
     0
100
AcDbPoint
 10
1215.387913917213
 20
5854.362935220167
 30
0.0
  0
POINT
  5
5509
330
543D
100
AcDbEntity
  8
Defpoints
 62
     0
100
AcDbPoint
 10
1341.639068086905
 20
5854.362935220167
 30
0.0
  0
ENDBLK
  5
544A
330
543D
100
AcDbEntity
  8
0
100
AcDbBlockEnd
  0
BLOCK
  5
5455
330
544B
100
AcDbEntity
  8
0
100
AcDbBlockBegin
  2
*D5
 70
     1
 10
0.0
 20
0.0
 30
0.0
  3
*D5
  1

  0
LINE
  5
550A
330
544B
100
AcDbEntity
  8
SP
370
    -2
100
AcDbLine
 10
667.7663656507288
 20
5407.362935220167
 30
0.0
 11
667.7663656507288
 21
5260.341501466711
 31
0.0
  0
LINE
  5
550B
330
544B
100
AcDbEntity
  8
SP
370
    -2
100
AcDbLine
 10
1167.766365650728
 20
5407.362935220167
 30
0.0
 11
1167.766365650728
 21
5260.341501466711
 31
0.0
  0
LINE
  5
550C
330
544B
100
AcDbEntity
  8
SP
370
    -2
100
AcDbLine
 10
705.2663656507288
 20
5275.34150146671
 30
0.0
 11
1130.266365650728
 21
5275.34150146671
 31
0.0
  0
INSERT
  5
550D
330
544B
100
AcDbEntity
  8
SP
370
    -2
100
AcDbBlockReference
  2
_OPEN
 10
667.7663656507288
 20
5275.34150146671
 30
0.0
 41
37.5
 42
37.5
 43
37.5
 50
180.0
  0
INSERT
  5
550E
330
544B
100
AcDbEntity
  8
SP
370
    -2
100
AcDbBlockReference
  2
_OPEN
 10
1167.766365650728
 20
5275.34150146671
 30
0.0
 41
37.5
 42
37.5
 43
37.5
  0
MTEXT
  5
550F
330
544B
100
AcDbEntity
  8
SP
100
AcDbMText
 10
917.7663656507284
 20
5312.84150146671
 30
0.0
 40
45.0
 41
0.0
 71
     5
 72
     1
  1
\A1;500
 73
     1
 44
1.0
1001
ACAD
1000
MTEXTBEGIN
1070
    73
1070
     1
1070
    44
1040
1.0
1070
    74
1070
     0
1000
MTEXTEND
  0
POINT
  5
5510
330
544B
100
AcDbEntity
  8
Defpoints
 62
     0
100
AcDbPoint
 10
667.7663656507288
 20
5422.362935220167
 30
0.0
  0
POINT
  5
5511
330
544B
100
AcDbEntity
  8
Defpoints
 62
     0
100
AcDbPoint
 10
1167.766365650728
 20
5422.362935220167
 30
0.0
  0
POINT
  5
5512
330
544B
100
AcDbEntity
  8
Defpoints
 62
     0
100
AcDbPoint
 10
1167.766365650728
 20
5275.34150146671
 30
0.0
  0
ENDBLK
  5
5456
330
544B
100
AcDbEntity
  8
0
100
AcDbBlockEnd
  0
BLOCK
  5
5461
330
5457
100
AcDbEntity
  8
0
100
AcDbBlockBegin
  2
*D6
 70
     1
 10
0.0
 20
0.0
 30
0.0
  3
*D6
  1

  0
LINE
  5
5513
330
5457
100
AcDbEntity
  8
SP
370
    -2
100
AcDbLine
 10
917.7663656507334
 20
4889.171207472601
 30
0.0
 11
917.7663656507334
 21
4948.635294509076
 31
0.0
  0
LINE
  5
5514
330
5457
100
AcDbEntity
  8
SP
370
    -2
100
AcDbLine
 10
1167.766365650739
 20
4853.635294509078
 30
0.0
 11
1167.766365650739
 21
4948.635294509076
 31
0.0
  0
LINE
  5
5515
330
5457
100
AcDbEntity
  8
SP
370
    -2
100
AcDbLine
 10
955.2663656507334
 20
4933.635294509076
 30
0.0
 11
1130.266365650739
 21
4933.635294509076
 31
0.0
  0
INSERT
  5
5516
330
5457
100
AcDbEntity
  8
SP
370
    -2
100
AcDbBlockReference
  2
_OPEN
 10
917.7663656507334
 20
4933.635294509076
 30
0.0
 41
37.5
 42
37.5
 43
37.5
 50
180.0
  0
INSERT
  5
5517
330
5457
100
AcDbEntity
  8
SP
370
    -2
100
AcDbBlockReference
  2
_OPEN
 10
1167.766365650739
 20
4933.635294509076
 30
0.0
 41
37.5
 42
37.5
 43
37.5
  0
MTEXT
  5
5518
330
5457
100
AcDbEntity
  8
SP
100
AcDbMText
 10
1042.766365650736
 20
4971.135294509076
 30
0.0
 40
45.0
 41
0.0
 71
     5
 72
     1
  1
\A1;250
 73
     1
 44
1.0
1001
ACAD
1000
MTEXTBEGIN
1070
    73
1070
     1
1070
    44
1040
1.0
1070
    74
1070
     0
1000
MTEXTEND
  0
POINT
  5
5519
330
5457
100
AcDbEntity
  8
Defpoints
 62
     0
100
AcDbPoint
 10
917.7663656507334
 20
4874.171207472601
 30
0.0
  0
POINT
  5
551A
330
5457
100
AcDbEntity
  8
Defpoints
 62
     0
100
AcDbPoint
 10
1167.766365650739
 20
4838.635294509078
 30
0.0
  0
POINT
  5
551B
330
5457
100
AcDbEntity
  8
Defpoints
 62
     0
100
AcDbPoint
 10
1167.766365650739
 20
4933.635294509076
 30
0.0
  0
ENDBLK
  5
5462
330
5457
100
AcDbEntity
  8
0
100
AcDbBlockEnd
  0
BLOCK
  5
546D
330
5463
100
AcDbEntity
  8
0
100
AcDbBlockBegin
  2
*D7
 70
     1
 10
0.0
 20
0.0
 30
0.0
  3
*D7
  1

  0
LINE
  5
551C
330
5463
100
AcDbEntity
  8
SP
370
    -2
100
AcDbLine
 10
917.7663656507334
 20
4102.47911344242
 30
0.0
 11
917.7663656507334
 21
4027.635294509082
 31
0.0
  0
LINE
  5
551D
330
5463
100
AcDbEntity
  8
SP
370
    -2
100
AcDbLine
 10
1167.766365650739
 20
4132.635294509081
 30
0.0
 11
1167.766365650739
 21
4027.635294509082
 31
0.0
  0
LINE
  5
551E
330
5463
100
AcDbEntity
  8
SP
370
    -2
100
AcDbLine
 10
955.2663656507334
 20
4042.635294509083
 30
0.0
 11
1130.266365650739
 21
4042.635294509083
 31
0.0
  0
INSERT
  5
551F
330
5463
100
AcDbEntity
  8
SP
370
    -2
100
AcDbBlockReference
  2
_OPEN
 10
917.7663656507334
 20
4042.635294509083
 30
0.0
 41
37.5
 42
37.5
 43
37.5
 50
180.0
  0
INSERT
  5
5520
330
5463
100
AcDbEntity
  8
SP
370
    -2
100
AcDbBlockReference
  2
_OPEN
 10
1167.766365650739
 20
4042.635294509083
 30
0.0
 41
37.5
 42
37.5
 43
37.5
  0
MTEXT
  5
5521
330
5463
100
AcDbEntity
  8
SP
100
AcDbMText
 10
1042.766365650736
 20
4080.135294509083
 30
0.0
 40
45.0
 41
0.0
 71
     5
 72
     1
  1
\A1;250
 73
     1
 44
1.0
1001
ACAD
1000
MTEXTBEGIN
1070
    73
1070
     1
1070
    44
1040
1.0
1070
    74
1070
     0
1000
MTEXTEND
  0
POINT
  5
5522
330
5463
100
AcDbEntity
  8
Defpoints
 62
     0
100
AcDbPoint
 10
917.7663656507334
 20
4117.47911344242
 30
0.0
  0
POINT
  5
5523
330
5463
100
AcDbEntity
  8
Defpoints
 62
     0
100
AcDbPoint
 10
1167.766365650739
 20
4147.635294509081
 30
0.0
  0
POINT
  5
5524
330
5463
100
AcDbEntity
  8
Defpoints
 62
     0
100
AcDbPoint
 10
1167.766365650739
 20
4042.635294509083
 30
0.0
  0
ENDBLK
  5
546E
330
5463
100
AcDbEntity
  8
0
100
AcDbBlockEnd
  0
BLOCK
  5
5479
330
546F
100
AcDbEntity
  8
0
100
AcDbBlockBegin
  2
*D8
 70
     1
 10
0.0
 20
0.0
 30
0.0
  3
*D8
  1

  0
LINE
  5
5525
330
546F
100
AcDbEntity
  8
SP
370
    -2
100
AcDbLine
 10
667.7663656507397
 20
4132.635294509081
 30
0.0
 11
667.7663656507397
 21
3922.635294509081
 31
0.0
  0
LINE
  5
5526
330
546F
100
AcDbEntity
  8
SP
370
    -2
100
AcDbLine
 10
1167.766365650739
 20
4132.635294509081
 30
0.0
 11
1167.766365650739
 21
3922.635294509081
 31
0.0
  0
LINE
  5
5527
330
546F
100
AcDbEntity
  8
SP
370
    -2
100
AcDbLine
 10
705.2663656507397
 20
3937.635294509082
 30
0.0
 11
1130.266365650739
 21
3937.635294509082
 31
0.0
  0
INSERT
  5
5528
330
546F
100
AcDbEntity
  8
SP
370
    -2
100
AcDbBlockReference
  2
_OPEN
 10
667.7663656507397
 20
3937.635294509082
 30
0.0
 41
37.5
 42
37.5
 43
37.5
 50
180.0
  0
INSERT
  5
5529
330
546F
100
AcDbEntity
  8
SP
370
    -2
100
AcDbBlockReference
  2
_OPEN
 10
1167.766365650739
 20
3937.635294509082
 30
0.0
 41
37.5
 42
37.5
 43
37.5
  0
MTEXT
  5
552A
330
546F
100
AcDbEntity
  8
SP
100
AcDbMText
 10
917.7663656507393
 20
3975.135294509082
 30
0.0
 40
45.0
 41
0.0
 71
     5
 72
     1
  1
\A1;500
 73
     1
 44
1.0
1001
ACAD
1000
MTEXTBEGIN
1070
    73
1070
     1
1070
    44
1040
1.0
1070
    74
1070
     0
1000
MTEXTEND
  0
POINT
  5
552B
330
546F
100
AcDbEntity
  8
Defpoints
 62
     0
100
AcDbPoint
 10
667.7663656507397
 20
4147.635294509081
 30
0.0
  0
POINT
  5
552C
330
546F
100
AcDbEntity
  8
Defpoints
 62
     0
100
AcDbPoint
 10
1167.766365650739
 20
4147.635294509081
 30
0.0
  0
POINT
  5
552D
330
546F
100
AcDbEntity
  8
Defpoints
 62
     0
100
AcDbPoint
 10
1167.766365650739
 20
3937.635294509082
 30
0.0
  0
ENDBLK
  5
547A
330
546F
100
AcDbEntity
  8
0
100
AcDbBlockEnd
  0
BLOCK
  5
5485
330
547B
100
AcDbEntity
  8
0
100
AcDbBlockBegin
  2
*D9
 70
     1
 10
0.0
 20
0.0
 30
0.0
  3
*D9
  1

  0
LINE
  5
552E
330
547B
100
AcDbEntity
  8
SP
370
    -2
100
AcDbLine
 10
917.7663656507334
 20
4889.171207472601
 30
0.0
 11
917.7663656507334
 21
4948.635294509076
 31
0.0
  0
LINE
  5
552F
330
547B
100
AcDbEntity
  8
SP
370
    -2
100
AcDbLine
 10
653.5350840168982
 20
4544.305717321468
 30
0.0
 11
653.5350840168982
 21
4948.635294509076
 31
0.0
  0
LINE
  5
5530
330
547B
100
AcDbEntity
  8
SP
370
    -2
100
AcDbLine
 10
880.2663656507334
 20
4933.635294509076
 30
0.0
 11
691.0350840168982
 21
4933.635294509076
 31
0.0
  0
INSERT
  5
5531
330
547B
100
AcDbEntity
  8
SP
370
    -2
100
AcDbBlockReference
  2
_OPEN
 10
917.7663656507334
 20
4933.635294509076
 30
0.0
 41
37.5
 42
37.5
 43
37.5
  0
INSERT
  5
5532
330
547B
100
AcDbEntity
  8
SP
370
    -2
100
AcDbBlockReference
  2
_OPEN
 10
653.5350840168982
 20
4933.635294509076
 30
0.0
 41
37.5
 42
37.5
 43
37.5
 50
180.0
  0
MTEXT
  5
5533
330
547B
100
AcDbEntity
  8
SP
100
AcDbMText
 10
785.6507248338158
 20
4971.135294509076
 30
0.0
 40
45.0
 41
0.0
 71
     5
 72
     1
  1
\A1;264
 73
     1
 44
1.0
1001
ACAD
1000
MTEXTBEGIN
1070
    73
1070
     1
1070
    44
1040
1.0
1070
    74
1070
     0
1000
MTEXTEND
  0
POINT
  5
5534
330
547B
100
AcDbEntity
  8
Defpoints
 62
     0
100
AcDbPoint
 10
917.7663656507334
 20
4874.171207472601
 30
0.0
  0
POINT
  5
5535
330
547B
100
AcDbEntity
  8
Defpoints
 62
     0
100
AcDbPoint
 10
653.5350840168982
 20
4529.305717321468
 30
0.0
  0
POINT
  5
5536
330
547B
100
AcDbEntity
  8
Defpoints
 62
     0
100
AcDbPoint
 10
653.5350840168982
 20
4933.635294509076
 30
0.0
  0
ENDBLK
  5
5486
330
547B
100
AcDbEntity
  8
0
100
AcDbBlockEnd
  0
BLOCK
  5
5491
330
5487
100
AcDbEntity
  8
0
100
AcDbBlockBegin
  2
*D10
 70
     1
 10
0.0
 20
0.0
 30
0.0
  3
*D10
  1

  0
LINE
  5
5537
330
5487
100
AcDbEntity
  8
SP
370
    -2
100
AcDbLine
 10
917.7663656507334
 20
4102.47911344242
 30
0.0
 11
917.7663656507334
 21
4027.635294509082
 31
0.0
  0
LINE
  5
5538
330
5487
100
AcDbEntity
  8
SP
370
    -2
100
AcDbLine
 10
667.7663656507406
 20
4132.635294509081
 30
0.0
 11
667.7663656507406
 21
4027.635294509082
 31
0.0
  0
LINE
  5
5539
330
5487
100
AcDbEntity
  8
SP
370
    -2
100
AcDbLine
 10
880.2663656507334
 20
4042.635294509083
 30
0.0
 11
705.2663656507406
 21
4042.635294509083
 31
0.0
  0
INSERT
  5
553A
330
5487
100
AcDbEntity
  8
SP
370
    -2
100
AcDbBlockReference
  2
_OPEN
 10
917.7663656507334
 20
4042.635294509083
 30
0.0
 41
37.5
 42
37.5
 43
37.5
  0
INSERT
  5
553B
330
5487
100
AcDbEntity
  8
SP
370
    -2
100
AcDbBlockReference
  2
_OPEN
 10
667.7663656507406
 20
4042.635294509083
 30
0.0
 41
37.5
 42
37.5
 43
37.5
 50
180.0
  0
MTEXT
  5
553C
330
5487
100
AcDbEntity
  8
SP
100
AcDbMText
 10
792.7663656507371
 20
4080.135294509083
 30
0.0
 40
45.0
 41
0.0
 71
     5
 72
     1
  1
\A1;250
 73
     1
 44
1.0
1001
ACAD
1000
MTEXTBEGIN
1070
    73
1070
     1
1070
    44
1040
1.0
1070
    74
1070
     0
1000
MTEXTEND
  0
POINT
  5
553D
330
5487
100
AcDbEntity
  8
Defpoints
 62
     0
100
AcDbPoint
 10
917.7663656507334
 20
4117.47911344242
 30
0.0
  0
POINT
  5
553E
330
5487
100
AcDbEntity
  8
Defpoints
 62
     0
100
AcDbPoint
 10
667.7663656507406
 20
4147.635294509081
 30
0.0
  0
POINT
  5
553F
330
5487
100
AcDbEntity
  8
Defpoints
 62
     0
100
AcDbPoint
 10
667.7663656507406
 20
4042.635294509083
 30
0.0
  0
ENDBLK
  5
5492
330
5487
100
AcDbEntity
  8
0
100
AcDbBlockEnd
  0
BLOCK
  5
549D
330
5493
100
AcDbEntity
  8
0
100
AcDbBlockBegin
  2
*D11
 70
     1
 10
0.0
 20
0.0
 30
0.0
  3
*D11
  1

  0
LINE
  5
5540
330
5493
100
AcDbEntity
  8
SP
370
    -2
100
AcDbLine
 10
1222.068391154391
 20
4502.635294509081
 30
0.0
 11
1287.766365650737
 21
4502.635294509081
 31
0.0
  0
LINE
  5
5541
330
5493
100
AcDbEntity
  8
SP
370
    -2
100
AcDbLine
 10
1182.766365650738
 20
4817.635294509077
 30
0.0
 11
1287.766365650737
 21
4817.635294509077
 31
0.0
  0
LINE
  5
5542
330
5493
100
AcDbEntity
  8
SP
370
    -2
100
AcDbLine
 10
1272.766365650737
 20
4540.135294509081
 30
0.0
 11
1272.766365650737
 21
4780.135294509078
 31
0.0
  0
INSERT
  5
5543
330
5493
100
AcDbEntity
  8
SP
370
    -2
100
AcDbBlockReference
  2
_OPEN
 10
1272.766365650737
 20
4502.635294509081
 30
0.0
 41
37.5
 42
37.5
 43
37.5
 50
270.0
  0
INSERT
  5
5544
330
5493
100
AcDbEntity
  8
SP
370
    -2
100
AcDbBlockReference
  2
_OPEN
 10
1272.766365650737
 20
4817.635294509077
 30
0.0
 41
37.5
 42
37.5
 43
37.5
 50
90.0
  0
MTEXT
  5
5545
330
5493
100
AcDbEntity
  8
SP
100
AcDbMText
 10
1235.266365650736
 20
4660.135294509079
 30
0.0
 40
45.0
 41
0.0
 71
     5
 72
     1
  1
\A1;315
 11
0.0000000000000001
 21
1.0
 31
0.0
 73
     1
 44
1.0
1001
ACAD
1000
MTEXTBEGIN
1070
    73
1070
     1
1070
    44
1040
1.0
1070
    74
1070
     0
1000
MTEXTEND
  0
POINT
  5
5546
330
5493
100
AcDbEntity
  8
Defpoints
 62
     0
100
AcDbPoint
 10
1207.068391154391
 20
4502.635294509081
 30
0.0
  0
POINT
  5
5547
330
5493
100
AcDbEntity
  8
Defpoints
 62
     0
100
AcDbPoint
 10
1167.766365650738
 20
4817.635294509077
 30
0.0
  0
POINT
  5
5548
330
5493
100
AcDbEntity
  8
Defpoints
 62
     0
100
AcDbPoint
 10
1272.766365650737
 20
4817.635294509077
 30
0.0
  0
ENDBLK
  5
549E
330
5493
100
AcDbEntity
  8
0
100
AcDbBlockEnd
  0
BLOCK
  5
54A9
330
549F
100
AcDbEntity
  8
0
100
AcDbBlockBegin
  2
*D12
 70
     1
 10
0.0
 20
0.0
 30
0.0
  3
*D12
  1

  0
LINE
  5
5549
330
549F
100
AcDbEntity
  8
SP
370
    -2
100
AcDbLine
 10
1182.766365650739
 20
4147.635294509081
 30
0.0
 11
1287.766365650728
 21
4147.635294509081
 31
0.0
  0
LINE
  5
554A
330
549F
100
AcDbEntity
  8
SP
370
    -2
100
AcDbLine
 10
1222.068391154391
 20
4502.635294509081
 30
0.0
 11
1287.766365650728
 21
4502.635294509081
 31
0.0
  0
LINE
  5
554B
330
549F
100
AcDbEntity
  8
SP
370
    -2
100
AcDbLine
 10
1272.766365650727
 20
4185.13529450908
 30
0.0
 11
1272.766365650727
 21
4465.135294509081
 31
0.0
  0
INSERT
  5
554C
330
549F
100
AcDbEntity
  8
SP
370
    -2
100
AcDbBlockReference
  2
_OPEN
 10
1272.766365650727
 20
4147.635294509081
 30
0.0
 41
37.5
 42
37.5
 43
37.5
 50
270.0
  0
INSERT
  5
554D
330
549F
100
AcDbEntity
  8
SP
370
    -2
100
AcDbBlockReference
  2
_OPEN
 10
1272.766365650727
 20
4502.635294509081
 30
0.0
 41
37.5
 42
37.5
 43
37.5
 50
90.0
  0
MTEXT
  5
554E
330
549F
100
AcDbEntity
  8
SP
100
AcDbMText
 10
1235.266365650727
 20
4325.135294509081
 30
0.0
 40
45.0
 41
0.0
 71
     5
 72
     1
  1
\A1;355
 11
0.0000000000000001
 21
1.0
 31
0.0
 73
     1
 44
1.0
1001
ACAD
1000
MTEXTBEGIN
1070
    73
1070
     1
1070
    44
1040
1.0
1070
    74
1070
     0
1000
MTEXTEND
  0
POINT
  5
554F
330
549F
100
AcDbEntity
  8
Defpoints
 62
     0
100
AcDbPoint
 10
1167.766365650739
 20
4147.635294509081
 30
0.0
  0
POINT
  5
5550
330
549F
100
AcDbEntity
  8
Defpoints
 62
     0
100
AcDbPoint
 10
1207.068391154391
 20
4502.635294509081
 30
0.0
  0
POINT
  5
5551
330
549F
100
AcDbEntity
  8
Defpoints
 62
     0
100
AcDbPoint
 10
1272.766365650727
 20
4502.635294509081
 30
0.0
  0
ENDBLK
  5
54AA
330
549F
100
AcDbEntity
  8
0
100
AcDbBlockEnd
  0
BLOCK
  5
54B5
330
54AB
100
AcDbEntity
  8
0
100
AcDbBlockBegin
  2
*D13
 70
     1
 10
0.0
 20
0.0
 30
0.0
  3
*D13
  1

  0
LINE
  5
5552
330
54AB
100
AcDbEntity
  8
SP
370
    -2
100
AcDbLine
 10
1182.766365650729
 20
5732.362935220167
 30
0.0
 11
1356.639068086905
 21
5732.362935220167
 31
0.0
  0
LINE
  5
5553
330
54AB
100
AcDbEntity
  8
SP
370
    -2
100
AcDbLine
 10
1182.766365650729
 20
5422.362935220167
 30
0.0
 11
1356.639068086905
 21
5422.362935220167
 31
0.0
  0
LINE
  5
5554
330
54AB
100
AcDbEntity
  8
SP
370
    -2
100
AcDbLine
 10
1341.639068086905
 20
5694.862935220167
 30
0.0
 11
1341.639068086905
 21
5459.862935220167
 31
0.0
  0
INSERT
  5
5555
330
54AB
100
AcDbEntity
  8
SP
370
    -2
100
AcDbBlockReference
  2
_OPEN
 10
1341.639068086905
 20
5732.362935220167
 30
0.0
 41
37.5
 42
37.5
 43
37.5
 50
90.0
  0
INSERT
  5
5556
330
54AB
100
AcDbEntity
  8
SP
370
    -2
100
AcDbBlockReference
  2
_OPEN
 10
1341.639068086905
 20
5422.362935220167
 30
0.0
 41
37.5
 42
37.5
 43
37.5
 50
270.0
  0
MTEXT
  5
5557
330
54AB
100
AcDbEntity
  8
SP
100
AcDbMText
 10
1304.139068086904
 20
5577.362935220167
 30
0.0
 40
45.0
 41
0.0
 71
     5
 72
     1
  1
\A1;310
 11
0.0000000000000001
 21
1.0
 31
0.0
 73
     1
 44
1.0
1001
ACAD
1000
MTEXTBEGIN
1070
    73
1070
     1
1070
    44
1040
1.0
1070
    74
1070
     0
1000
MTEXTEND
  0
POINT
  5
5558
330
54AB
100
AcDbEntity
  8
Defpoints
 62
     0
100
AcDbPoint
 10
1167.766365650729
 20
5732.362935220167
 30
0.0
  0
POINT
  5
5559
330
54AB
100
AcDbEntity
  8
Defpoints
 62
     0
100
AcDbPoint
 10
1167.766365650729
 20
5422.362935220167
 30
0.0
  0
POINT
  5
555A
330
54AB
100
AcDbEntity
  8
Defpoints
 62
     0
100
AcDbPoint
 10
1341.639068086905
 20
5422.362935220167
 30
0.0
  0
ENDBLK
  5
54B6
330
54AB
100
AcDbEntity
  8
0
100
AcDbBlockEnd
  0
BLOCK
  5
54C1
330
54B7
100
AcDbEntity
  8
0
100
AcDbBlockBegin
  2
*D14
 70
     1
 10
0.0
 20
0.0
 30
0.0
  3
*D14
  1

  0
LINE
  5
5B3F
330
54B7
100
AcDbEntity
  8
SP
370
    -2
100
AcDbLine
 10
2293.221875722606
 20
5008.635294509076
 30
0.0
 11
2293.221875722606
 21
5053.635294509075
 31
0.0
  0
LINE
  5
5B40
330
54B7
100
AcDbEntity
  8
SP
370
    -2
100
AcDbLine
 10
2414.221875722607
 20
4699.135294509079
 30
0.0
 11
2414.221875722607
 21
5053.635294509075
 31
0.0
  0
LINE
  5
5B41
330
54B7
100
AcDbEntity
  8
SP
370
    -2
100
AcDbLine
 10
2330.721875722606
 20
5038.635294509075
 30
0.0
 11
2376.721875722607
 21
5038.635294509075
 31
0.0
  0
INSERT
  5
5B42
330
54B7
100
AcDbEntity
  8
SP
370
    -2
100
AcDbBlockReference
  2
_OPEN
 10
2293.221875722606
 20
5038.635294509075
 30
0.0
 41
37.5
 42
37.5
 43
37.5
 50
180.0
  0
INSERT
  5
5B43
330
54B7
100
AcDbEntity
  8
SP
370
    -2
100
AcDbBlockReference
  2
_OPEN
 10
2414.221875722607
 20
5038.635294509075
 30
0.0
 41
37.5
 42
37.5
 43
37.5
  0
MTEXT
  5
5B44
330
54B7
100
AcDbEntity
  8
SP
100
AcDbMText
 10
2353.721875722607
 20
5076.135294509075
 30
0.0
 40
45.0
 41
0.0
 71
     5
 72
     1
  1
\A1;121
 73
     1
 44
1.0
1001
ACAD
1000
MTEXTBEGIN
1070
    73
1070
     1
1070
    44
1040
1.0
1070
    74
1070
     0
1000
MTEXTEND
  0
POINT
  5
5B45
330
54B7
100
AcDbEntity
  8
Defpoints
 62
     0
100
AcDbPoint
 10
2293.221875722606
 20
4993.635294509076
 30
0.0
  0
POINT
  5
5B46
330
54B7
100
AcDbEntity
  8
Defpoints
 62
     0
100
AcDbPoint
 10
2414.221875722607
 20
4684.135294509079
 30
0.0
  0
POINT
  5
5B47
330
54B7
100
AcDbEntity
  8
Defpoints
 62
     0
100
AcDbPoint
 10
2414.221875722607
 20
5038.635294509075
 30
0.0
  0
ENDBLK
  5
54C2
330
54B7
100
AcDbEntity
  8
0
100
AcDbBlockEnd
  0
BLOCK
  5
54D9
330
54CF
100
AcDbEntity
  8
0
100
AcDbBlockBegin
  2
*D16
 70
     1
 10
0.0
 20
0.0
 30
0.0
  3
*D16
  1

  0
LINE
  5
556D
330
54CF
100
AcDbEntity
  8
SP
370
    -2
100
AcDbLine
 10
2171.221875722608
 20
4135.835294509082
 30
0.0
 11
2171.221875722608
 21
4027.635294509082
 31
0.0
  0
LINE
  5
556E
330
54CF
100
AcDbEntity
  8
SP
370
    -2
100
AcDbLine
 10
1861.221875722607
 20
4132.635294509083
 30
0.0
 11
1861.221875722607
 21
4027.635294509082
 31
0.0
  0
LINE
  5
556F
330
54CF
100
AcDbEntity
  8
SP
370
    -2
100
AcDbLine
 10
2133.721875722608
 20
4042.635294509083
 30
0.0
 11
1898.721875722607
 21
4042.635294509083
 31
0.0
  0
INSERT
  5
5570
330
54CF
100
AcDbEntity
  8
SP
370
    -2
100
AcDbBlockReference
  2
_OPEN
 10
2171.221875722608
 20
4042.635294509083
 30
0.0
 41
37.5
 42
37.5
 43
37.5
  0
INSERT
  5
5571
330
54CF
100
AcDbEntity
  8
SP
370
    -2
100
AcDbBlockReference
  2
_OPEN
 10
1861.221875722607
 20
4042.635294509083
 30
0.0
 41
37.5
 42
37.5
 43
37.5
 50
180.0
  0
MTEXT
  5
5572
330
54CF
100
AcDbEntity
  8
SP
100
AcDbMText
 10
2016.221875722608
 20
4080.135294509083
 30
0.0
 40
45.0
 41
0.0
 71
     5
 72
     1
  1
\A1;310
 73
     1
 44
1.0
1001
ACAD
1000
MTEXTBEGIN
1070
    73
1070
     1
1070
    44
1040
1.0
1070
    74
1070
     0
1000
MTEXTEND
  0
POINT
  5
5573
330
54CF
100
AcDbEntity
  8
Defpoints
 62
     0
100
AcDbPoint
 10
2171.221875722608
 20
4150.835294509081
 30
0.0
  0
POINT
  5
5574
330
54CF
100
AcDbEntity
  8
Defpoints
 62
     0
100
AcDbPoint
 10
1861.221875722607
 20
4147.635294509083
 30
0.0
  0
POINT
  5
5575
330
54CF
100
AcDbEntity
  8
Defpoints
 62
     0
100
AcDbPoint
 10
1861.221875722607
 20
4042.635294509083
 30
0.0
  0
ENDBLK
  5
54DA
330
54CF
100
AcDbEntity
  8
0
100
AcDbBlockEnd
  0
BLOCK
  5
54F1
330
54E7
100
AcDbEntity
  8
0
100
AcDbBlockBegin
  2
*D18
 70
     1
 10
0.0
 20
0.0
 30
0.0
  3
*D18
  1

  0
LINE
  5
5B36
330
54E7
100
AcDbEntity
  8
SP
370
    -2
100
AcDbLine
 10
2181.221875722606
 20
4826.020459316219
 30
0.0
 11
2181.221875722606
 21
4948.635294509076
 31
0.0
  0
LINE
  5
5B37
330
54E7
100
AcDbEntity
  8
SP
370
    -2
100
AcDbLine
 10
2405.221875722606
 20
4826.020459316211
 30
0.0
 11
2405.221875722606
 21
4948.635294509076
 31
0.0
  0
LINE
  5
5B38
330
54E7
100
AcDbEntity
  8
SP
370
    -2
100
AcDbLine
 10
2218.721875722605
 20
4933.635294509076
 30
0.0
 11
2367.721875722606
 21
4933.635294509076
 31
0.0
  0
INSERT
  5
5B39
330
54E7
100
AcDbEntity
  8
SP
370
    -2
100
AcDbBlockReference
  2
_OPEN
 10
2181.221875722606
 20
4933.635294509076
 30
0.0
 41
37.5
 42
37.5
 43
37.5
 50
180.0
  0
INSERT
  5
5B3A
330
54E7
100
AcDbEntity
  8
SP
370
    -2
100
AcDbBlockReference
  2
_OPEN
 10
2405.221875722606
 20
4933.635294509076
 30
0.0
 41
37.5
 42
37.5
 43
37.5
  0
MTEXT
  5
5B3B
330
54E7
100
AcDbEntity
  8
SP
100
AcDbMText
 10
2293.221875722606
 20
4971.135294509076
 30
0.0
 40
45.0
 41
0.0
 71
     5
 72
     1
  1
\A1;224
 73
     1
 44
1.0
1001
ACAD
1000
MTEXTBEGIN
1070
    73
1070
     1
1070
    44
1040
1.0
1070
    74
1070
     0
1000
MTEXTEND
  0
POINT
  5
5B3C
330
54E7
100
AcDbEntity
  8
Defpoints
 62
     0
100
AcDbPoint
 10
2181.221875722606
 20
4811.020459316218
 30
0.0
  0
POINT
  5
5B3D
330
54E7
100
AcDbEntity
  8
Defpoints
 62
     0
100
AcDbPoint
 10
2405.221875722606
 20
4811.020459316211
 30
0.0
  0
POINT
  5
5B3E
330
54E7
100
AcDbEntity
  8
Defpoints
 62
     0
100
AcDbPoint
 10
2405.221875722606
 20
4933.635294509076
 30
0.0
  0
ENDBLK
  5
54F2
330
54E7
100
AcDbEntity
  8
0
100
AcDbBlockEnd
  0
BLOCK
  5
54FD
330
54F3
100
AcDbEntity
  8
0
100
AcDbBlockBegin
  2
*D19
 70
     1
 10
0.0
 20
0.0
 30
0.0
  3
*D19
  1

  0
LINE
  5
5B48
330
54F3
100
AcDbEntity
  8
SP
370
    -2
100
AcDbLine
 10
2429.221875722608
 20
4660.135294509083
 30
0.0
 11
2545.43646423438
 21
4660.135294509083
 31
0.0
  0
LINE
  5
5B49
330
54F3
100
AcDbEntity
  8
SP
370
    -2
100
AcDbLine
 10
2429.221875722609
 20
4345.135294509083
 30
0.0
 11
2545.43646423438
 21
4345.135294509083
 31
0.0
  0
LINE
  5
5B4A
330
54F3
100
AcDbEntity
  8
SP
370
    -2
100
AcDbLine
 10
2530.43646423438
 20
4622.635294509083
 30
0.0
 11
2530.43646423438
 21
4382.635294509083
 31
0.0
  0
INSERT
  5
5B4B
330
54F3
100
AcDbEntity
  8
SP
370
    -2
100
AcDbBlockReference
  2
_OPEN
 10
2530.43646423438
 20
4660.135294509083
 30
0.0
 41
37.5
 42
37.5
 43
37.5
 50
90.0
  0
INSERT
  5
5B4C
330
54F3
100
AcDbEntity
  8
SP
370
    -2
100
AcDbBlockReference
  2
_OPEN
 10
2530.43646423438
 20
4345.135294509083
 30
0.0
 41
37.5
 42
37.5
 43
37.5
 50
270.0
  0
MTEXT
  5
5B4D
330
54F3
100
AcDbEntity
  8
SP
100
AcDbMText
 10
2492.936464234381
 20
4502.635294509081
 30
0.0
 40
45.0
 41
0.0
 71
     5
 72
     1
  1
\A1;\U+03C6315
 11
0.0000000000000001
 21
1.0
 31
0.0
 73
     1
 44
1.0
1001
ACAD
1000
MTEXTBEGIN
1070
    73
1070
     1
1070
    44
1040
1.0
1070
    74
1070
     0
1000
MTEXTEND
  0
POINT
  5
5B4E
330
54F3
100
AcDbEntity
  8
Defpoints
 62
     0
100
AcDbPoint
 10
2414.221875722608
 20
4660.135294509083
 30
0.0
  0
POINT
  5
5B4F
330
54F3
100
AcDbEntity
  8
Defpoints
 62
     0
100
AcDbPoint
 10
2414.221875722609
 20
4345.135294509083
 30
0.0
  0
POINT
  5
5B50
330
54F3
100
AcDbEntity
  8
Defpoints
 62
     0
100
AcDbPoint
 10
2530.43646423438
 20
4345.135294509083
 30
0.0
  0
ENDBLK
  5
54FE
330
54F3
100
AcDbEntity
  8
0
100
AcDbBlockEnd
  0
BLOCK
  5
5B5B
330
5B5A
100
AcDbEntity
  8
0
100
AcDbBlockBegin
  2
*D26
 70
     1
 10
0.0
 20
0.0
 30
0.0
  3
*D26
  1

  0
LINE
  5
5B71
330
5B5A
100
AcDbEntity
  8
SP
370
    -2
100
AcDbLine
 10
2293.221875722606
 20
5008.635294509076
 30
0.0
 11
2293.221875722606
 21
5053.635294509075
 31
0.0
  0
LINE
  5
5B72
330
5B5A
100
AcDbEntity
  8
SP
370
    -2
100
AcDbLine
 10
1872.221875723596
 20
4601.216234822137
 30
0.0
 11
1872.221875723596
 21
5053.635294509075
 31
0.0
  0
LINE
  5
5B73
330
5B5A
100
AcDbEntity
  8
SP
370
    -2
100
AcDbLine
 10
2255.721875722606
 20
5038.635294509075
 30
0.0
 11
1909.721875723596
 21
5038.635294509075
 31
0.0
  0
INSERT
  5
5B74
330
5B5A
100
AcDbEntity
  8
SP
370
    -2
100
AcDbBlockReference
  2
_OPEN
 10
2293.221875722606
 20
5038.635294509075
 30
0.0
 41
37.5
 42
37.5
 43
37.5
  0
INSERT
  5
5B75
330
5B5A
100
AcDbEntity
  8
SP
370
    -2
100
AcDbBlockReference
  2
_OPEN
 10
1872.221875723596
 20
5038.635294509075
 30
0.0
 41
37.5
 42
37.5
 43
37.5
 50
180.0
  0
MTEXT
  5
5B76
330
5B5A
100
AcDbEntity
  8
SP
100
AcDbMText
 10
2082.721875723101
 20
5087.92100879479
 30
0.0
 40
45.0
 41
0.0
 71
     5
 72
     1
  1
\A1;(420)
 73
     1
 44
1.0
1001
ACAD
1000
MTEXTBEGIN
1070
    73
1070
     1
1070
    44
1040
1.0
1070
    74
1070
     0
1000
MTEXTEND
  0
POINT
  5
5B77
330
5B5A
100
AcDbEntity
  8
Defpoints
 62
     0
100
AcDbPoint
 10
2293.221875722606
 20
4993.635294509076
 30
0.0
  0
POINT
  5
5B78
330
5B5A
100
AcDbEntity
  8
Defpoints
 62
     0
100
AcDbPoint
 10
1872.221875723596
 20
4586.216234822138
 30
0.0
  0
POINT
  5
5B79
330
5B5A
100
AcDbEntity
  8
Defpoints
 62
     0
100
AcDbPoint
 10
1872.221875723596
 20
5038.635294509075
 30
0.0
  0
ENDBLK
  5
5B5C
330
5B5A
100
AcDbEntity
  8
0
100
AcDbBlockEnd
  0
BLOCK
  5
5B7C
330
5B7B
100
AcDbEntity
  8
0
100
AcDbBlockBegin
  2
*D27
 70
     1
 10
0.0
 20
0.0
 30
0.0
  3
*D27
  1

  0
LINE
  5
5BB0
330
5B7B
100
AcDbEntity
  8
SP
370
    -2
100
AcDbLine
 10
2171.221875722608
 20
4135.835294509082
 30
0.0
 11
2171.221875722608
 21
4027.635294509082
 31
0.0
  0
LINE
  5
5BB1
330
5B7B
100
AcDbEntity
  8
SP
370
    -2
100
AcDbLine
 10
2293.221875722606
 20
4198.196782543494
 30
0.0
 11
2293.221875722606
 21
4027.635294509082
 31
0.0
  0
LINE
  5
5BB2
330
5B7B
100
AcDbEntity
  8
SP
370
    -2
100
AcDbLine
 10
2133.721875722608
 20
4042.635294509083
 30
0.0
 11
2096.221875722608
 21
4042.635294509083
 31
0.0
  0
LINE
  5
5BB3
330
5B7B
100
AcDbEntity
  8
SP
370
    -2
100
AcDbLine
 10
2330.721875722606
 20
4042.635294509083
 30
0.0
 11
2368.221875722607
 21
4042.635294509083
 31
0.0
  0
MTEXT
  5
5BB4
330
5B7B
100
AcDbEntity
  8
SP
100
AcDbMText
 10
2424.995286125522
 20
4080.04145211067
 30
0.0
 40
45.0
 41
0.0
 71
     5
 72
     1
  1
\A1;122
 73
     1
 44
1.0
1001
ACAD
1000
MTEXTBEGIN
1070
    73
1070
     1
1070
    44
1040
1.0
1070
    74
1070
     0
1000
MTEXTEND
  0
LINE
  5
5BB5
330
5B7B
100
AcDbEntity
  8
SP
370
    -2
100
AcDbLine
 10
2171.221875722608
 20
4042.635294509083
 30
0.0
 11
2293.221875722606
 21
4042.635294509083
 31
0.0
  0
INSERT
  5
5BB6
330
5B7B
100
AcDbEntity
  8
SP
370
    -2
100
AcDbBlockReference
  2
_OPEN
 10
2171.221875722608
 20
4042.635294509083
 30
0.0
 41
37.5
 42
37.5
 43
37.5
  0
INSERT
  5
5BB7
330
5B7B
100
AcDbEntity
  8
SP
370
    -2
100
AcDbBlockReference
  2
_OPEN
 10
2293.221875722606
 20
4042.635294509083
 30
0.0
 41
37.5
 42
37.5
 43
37.5
 50
180.0
  0
POINT
  5
5BB8
330
5B7B
100
AcDbEntity
  8
Defpoints
 62
     0
100
AcDbPoint
 10
2171.221875722608
 20
4150.835294509081
 30
0.0
  0
POINT
  5
5BB9
330
5B7B
100
AcDbEntity
  8
Defpoints
 62
     0
100
AcDbPoint
 10
2293.221875722606
 20
4213.196782543493
 30
0.0
  0
POINT
  5
5BBA
330
5B7B
100
AcDbEntity
  8
Defpoints
 62
     0
100
AcDbPoint
 10
2293.221875722606
 20
4042.635294509083
 30
0.0
  0
ENDBLK
  5
5B7D
330
5B7B
100
AcDbEntity
  8
0
100
AcDbBlockEnd
  0
ENDSEC
  0
SECTION
  2
ENTITIES
  0
LINE
  5
21AC
330
19
100
AcDbEntity
  8
4
100
AcDbLine
 10
2995.597715035096
 20
7247.809791742034
 30
0.0
 11
2995.597715035096
 21
2822.809791742034
 31
0.0
  0
LINE
  5
21AD
330
19
100
AcDbEntity
  8
4
100
AcDbLine
 10
-154.4022849649045
 20
2822.809791742034
 30
0.0
 11
-154.4022849649045
 21
7247.809791742034
 31
0.0
  0
TEXT
  5
21AE
330
19
100
AcDbEntity
  8
4
100
AcDbText
 10
318.4810872250491
 20
6396.289008061549
 30
0.0
 40
80.99999999999999
  1
右回転右横向
100
AcDbText
  0
LINE
  5
21AF
330
19
100
AcDbEntity
  8
4
100
AcDbLine
 10
-154.4022849649045
 20
7247.809791742034
 30
0.0
 11
2995.597715035096
 21
7247.809791742034
 31
0.0
  0
LINE
  5
21B0
330
19
100
AcDbEntity
  8
4
100
AcDbLine
 10
220.5977150350955
 20
6826.922923139242
 30
0.0
 11
2620.597715035096
 21
6826.922923139242
 31
0.0
  0
LINE
  5
21B1
330
19
100
AcDbEntity
  8
4
100
AcDbLine
 10
220.5977150350955
 20
6526.922923139242
 30
0.0
 11
2620.597715035096
 21
6526.922923139242
 31
0.0
  0
LINE
  5
21B2
330
19
100
AcDbEntity
  8
4
100
AcDbLine
 10
220.5977150350955
 20
6826.922923139242
 30
0.0
 11
220.5977150350955
 21
6526.922923139242
 31
0.0
  0
LINE
  5
21B3
330
19
100
AcDbEntity
  8
4
100
AcDbLine
 10
2620.597715035096
 20
6826.922923139242
 30
0.0
 11
2620.597715035096
 21
6526.922923139242
 31
0.0
  0
TEXT
  5
21B4
330
19
100
AcDbEntity
  8
4
100
AcDbText
 10
1899.987632465126
 20
6397.953053740807
 30
0.0
 40
80.99999999999999
  1
縮尺：1/15
100
AcDbText
  0
TEXT
  5
21B5
330
19
100
AcDbEntity
  8
4
100
AcDbText
 10
577.6920709523847
 20
6623.63125604098
 30
0.0
 40
108.0
  1
遠心式片吸込直動形多翼ファン
100
AcDbText
  0
TEXT
  5
21B6
330
19
100
AcDbEntity
  8
4
100
AcDbText
 10
1110.159554355879
 20
6397.953053740807
 30
0.0
 40
80.99999999999999
  1
床置ベッド型
100
AcDbText
  0
TEXT
  5
21B7
330
19
100
AcDbEntity
  8
4
100
AcDbText
 10
2049.052053909031
 20
6881.901413984997
 30
0.0
 40
84.00000000000002
  1
No.
100
AcDbText
  0
LINE
  5
21B8
330
19
100
AcDbEntity
  8
4
100
AcDbLine
 10
2620.597715035096
 20
6844.705166430135
 30
0.0
 11
2006.523848574893
 21
6844.705166430135
 31
0.0
  0
LINE
  5
21B9
330
19
100
AcDbEntity
  8
4
100
AcDbLine
 10
2006.523848574893
 20
7002.788184066663
 30
0.0
 11
2620.597715035096
 21
7002.788184066663
 31
0.0
  0
LINE
  5
21BA
330
19
100
AcDbEntity
  8
4
100
AcDbLine
 10
2006.523848574893
 20
6844.705166430135
 30
0.0
 11
2006.523848574893
 21
7002.788184066663
 31
0.0
  0
LINE
  5
21BB
330
19
100
AcDbEntity
  8
4
100
AcDbLine
 10
2620.597715035096
 20
7002.788184066663
 30
0.0
 11
2620.597715035096
 21
6844.705166430135
 31
0.0
  0
LINE
  5
21BC
330
19
100
AcDbEntity
  8
4
100
AcDbLine
 10
2995.597715035096
 20
7247.809791742034
 30
0.0
 11
2995.597715035096
 21
7247.809791742034
 31
0.0
  0
LINE
  5
21BD
330
19
100
AcDbEntity
  8
4
100
AcDbLine
 10
2995.597715035096
 20
2822.809791742034
 30
0.0
 11
-154.4022849649045
 21
2822.809791742034
 31
0.0
  0
LINE
  5
21BE
330
19
100
AcDbEntity
  8
4
100
AcDbLine
 10
520.5977150350954
 20
3572.809791742034
 30
0.0
 11
2320.597715035095
 21
3572.809791742034
 31
0.0
  0
LINE
  5
21BF
330
19
100
AcDbEntity
  8
4
100
AcDbLine
 10
520.5977150350954
 20
3422.809791742034
 30
0.0
 11
2320.597715035095
 21
3422.809791742034
 31
0.0
  0
LINE
  5
21C0
330
19
100
AcDbEntity
  8
4
100
AcDbLine
 10
520.5977150350954
 20
3272.809791742034
 30
0.0
 11
2320.597715035095
 21
3272.809791742034
 31
0.0
  0
TEXT
  5
21C3
330
19
100
AcDbEntity
  8
4
100
AcDbText
 10
1325.579458413316
 20
3298.549168161949
 30
0.0
 40
75.0
  1
MF＃2-7
100
AcDbText
  0
TEXT
  5
21C4
330
19
100
AcDbEntity
  8
4
100
AcDbText
 10
574.9848740722918
 20
3305.27752684005
 30
0.0
 40
75.0
  1
機器型番
100
AcDbText
  0
TEXT
  5
21C5
330
19
100
AcDbEntity
  8
4
100
AcDbText
 10
578.3508363054479
 20
3470.124330541953
 30
0.0
 40
75.0
  1
機器名称
100
AcDbText
  0
LINE
  5
21C7
330
19
100
AcDbEntity
  8
4
100
AcDbLine
 10
520.5977150350954
 20
3572.809791742034
 30
0.0
 11
520.5977150350954
 21
3272.809791742034
 31
0.0
  0
LINE
  5
21C8
330
19
100
AcDbEntity
  8
4
100
AcDbLine
 10
1270.597715035095
 20
3572.809791742034
 30
0.0
 11
1270.597715035095
 21
3272.809791742034
 31
0.0
  0
TEXT
  5
21C9
330
19
100
AcDbEntity
  8
4
100
AcDbText
 10
1312.115833266593
 20
3456.667445178387
 30
0.0
 40
75.0
  1
ミツヤ多翼送風機
100
AcDbText
  0
LINE
  5
21CA
330
19
100
AcDbEntity
  8
4
100
AcDbLine
 10
2320.597715035095
 20
3572.809791742034
 30
0.0
 11
2320.597715035095
 21
3272.809791742034
 31
0.0
  0
DIMENSION
  5
5305
330
19
100
AcDbEntity
  8
SP
100
AcDbDimension
  2
*D18
 10
2405.221875722606
 20
4933.635294509076
 30
0.0
 11
2293.221875722606
 21
4971.135294509076
 31
0.0
 70
    32
 71
     5
 42
224.0000000000009
  3
GOD
100
AcDbAlignedDimension
 13
2181.221875722606
 23
4811.020459316218
 33
0.0
 14
2405.221875722606
 24
4811.020459316211
 34
0.0
100
AcDbRotatedDimension
  0
LINE
  5
5306
330
19
100
AcDbEntity
  8
2
100
AcDbLine
 10
2293.221875722606
 20
4920.955005841838
 30
0.0
 11
2293.221875722606
 21
4213.196782543493
 31
0.0
1001
ACAD
1000
ASC_BOUNDS
1002
{
1070
    19
1005
0
1005
0
1002
}
  0
DIMENSION
  5
5308
330
19
100
AcDbEntity
  8
SP
100
AcDbDimension
  2
*D14
 10
2414.221875722607
 20
5038.635294509075
 30
0.0
 11
2353.721875722607
 21
5076.135294509075
 31
0.0
 70
    32
 71
     5
 42
121.0
  3
GOD
100
AcDbAlignedDimension
 13
2293.221875722606
 23
4993.635294509076
 33
0.0
 14
2414.221875722607
 24
4684.135294509079
 34
0.0
100
AcDbRotatedDimension
  0
LINE
  5
5309
330
19
100
AcDbEntity
  8
2
100
AcDbLine
 10
917.7663656507334
 20
4117.47911344242
 30
0.0
 11
917.7663656507334
 21
4874.171207472601
 31
0.0
  0
DIMENSION
  5
530A
330
19
100
AcDbEntity
  8
SP
100
AcDbDimension
  2
*D9
 10
653.5350840168982
 20
4933.635294509076
 30
0.0
 11
785.6507248338158
 21
4971.135294509076
 31
0.0
 70
    32
 71
     5
 42
264.2312816338351
  3
GOD
100
AcDbAlignedDimension
 13
917.7663656507334
 23
4874.171207472601
 33
0.0
 14
653.5350840168982
 24
4529.305717321468
 34
0.0
100
AcDbRotatedDimension
1001
ACAD
1000
DSTYLE
1002
{
1070
   271
1070
     0
1002
}
  0
DIMENSION
  5
530B
330
19
100
AcDbEntity
  8
SP
100
AcDbDimension
  2
*D6
 10
1167.766365650739
 20
4933.635294509076
 30
0.0
 11
1042.766365650736
 21
4971.135294509076
 31
0.0
 70
    32
 71
     5
 42
250.0000000000059
  3
GOD
100
AcDbAlignedDimension
 13
917.7663656507334
 23
4874.171207472601
 33
0.0
 14
1167.766365650739
 24
4838.635294509078
 34
0.0
100
AcDbRotatedDimension
  0
LWPOLYLINE
  5
530C
330
19
100
AcDbEntity
  8
1
100
AcDbPolyline
 90
        3
 70
     0
 43
0.0
 10
1147.766365650737
 20
4827.635294509079
 10
943.2541889120502
 20
4827.635294509082
 42
0.2269714708976296
 10
707.055645915311
 20
4713.889112393251
  0
LINE
  5
530D
330
19
100
AcDbEntity
  8
1
100
AcDbLine
 10
2045.221875722607
 20
4602.635294509081
 30
0.0
 11
2082.129152616095
 21
4602.635294509081
 31
0.0
  0
LINE
  5
530E
330
19
100
AcDbEntity
  8
1
100
AcDbLine
 10
2171.221875722606
 20
4698.983770758135
 30
0.0
 11
1989.659892514655
 21
4502.635294509081
 31
0.0
  0
LINE
  5
530F
330
19
100
AcDbEntity
  8
1
100
AcDbLine
 10
1861.221875722607
 20
4147.635294509083
 30
0.0
 11
2211.221875722606
 21
4147.635294509083
 31
0.0
  0
LINE
  5
5310
330
19
100
AcDbEntity
  8
FUTO
100
AcDbLine
 10
1861.221875722607
 20
4150.835294509081
 30
0.0
 11
2168.021875722607
 21
4150.835294509081
 31
0.0
  0
DIMENSION
  5
5311
330
19
100
AcDbEntity
  8
SP
100
AcDbDimension
  2
*D16
 10
1861.221875722607
 20
4042.635294509083
 30
0.0
 11
2016.221875722608
 21
4080.135294509083
 31
0.0
 70
    32
 71
     5
 42
310.0
  3
GOD
100
AcDbAlignedDimension
 13
2171.221875722608
 23
4150.835294509081
 33
0.0
 14
1861.221875722607
 24
4147.635294509083
 34
0.0
100
AcDbRotatedDimension
  0
LINE
  5
5312
330
19
100
AcDbEntity
  8
2
100
AcDbLine
 10
2444.233859858323
 20
4502.635294509081
 30
0.0
 11
1830.833755156027
 21
4502.635294509081
 31
0.0
  0
LINE
  5
5313
330
19
100
AcDbEntity
  8
FUTO
100
AcDbLine
 10
1991.021875722606
 20
4502.635294509081
 30
0.0
 11
1861.221875722607
 21
4150.835294509081
 31
0.0
  0
LINE
  5
5314
330
19
100
AcDbEntity
  8
1
100
AcDbLine
 10
1087.766365650724
 20
4402.635294509081
 30
0.0
 11
1087.766365650725
 21
4202.635294509081
 31
0.0
  0
LINE
  5
5315
330
19
100
AcDbEntity
  8
1
100
AcDbLine
 10
1127.766365650722
 20
4587.557616667708
 30
0.0
 11
1127.766365650726
 21
4147.635294509081
 31
0.0
  0
LINE
  5
5316
330
19
100
AcDbEntity
  8
1
100
AcDbLine
 10
1130.066365650723
 20
4585.735294509081
 30
0.0
 11
1130.066365650723
 21
4149.935294509078
 31
0.0
  0
DIMENSION
  5
5317
330
19
100
AcDbEntity
  8
SP
100
AcDbDimension
  2
*D12
 10
1272.766365650727
 20
4502.635294509081
 30
0.0
 11
1235.266365650727
 21
4325.135294509081
 31
0.0
 70
    32
 71
     5
 42
355.0
  3
GOD
100
AcDbAlignedDimension
 13
1167.766365650739
 23
4147.635294509081
 33
0.0
 14
1207.068391154391
 24
4502.635294509081
 34
0.0
 50
90.0
100
AcDbRotatedDimension
  0
LINE
  5
5318
330
19
100
AcDbEntity
  8
1
100
AcDbLine
 10
747.7663656507429
 20
4402.635294509081
 30
0.0
 11
747.7663656507411
 21
4202.635294509081
 31
0.0
  0
LWPOLYLINE
  5
5319
330
19
100
AcDbEntity
  8
1
100
AcDbPolyline
 90
        2
 70
     0
 43
0.0
 10
705.2253820441686
 20
4356.817874558315
 42
0.1174780416237576
 10
801.018506600182
 20
4288.372999427116
 42
0.1174780416237576
  0
LINE
  5
531A
330
19
100
AcDbEntity
  8
1
100
AcDbLine
 10
705.4663656507441
 20
4585.735294509081
 30
0.0
 11
705.4663656507441
 21
4149.935294509078
 31
0.0
  0
LINE
  5
531B
330
19
100
AcDbEntity
  8
1
100
AcDbLine
 10
707.7663656507443
 20
4587.557616667708
 30
0.0
 11
707.7663656507406
 21
4147.635294509081
 31
0.0
  0
LWPOLYLINE
  5
531C
330
19
100
AcDbEntity
  8
1
100
AcDbPolyline
 90
        3
 70
     0
 43
0.0
 10
804.7881073502027
 20
4297.63529450908
 42
0.1343280102757561
 10
932.5363909310212
 20
4283.271450299876
 42
0.3163019945347412
 10
1101.143552193148
 20
4446.265661460809
 42
0.3153658436290411
  0
LWPOLYLINE
  5
531D
330
19
100
AcDbEntity
  8
1
100
AcDbPolyline
 90
        3
 70
     0
 43
0.0
 10
801.087951550944
 20
4288.345039019525
 42
0.1343314877425494
 10
934.0844946444846
 20
4273.392007682883
 42
0.3163064660587118
 10
1110.96428576867
 20
4444.380670203901
 42
0.3163064660587118
  0
DIMENSION
  5
531E
330
19
100
AcDbEntity
  8
SP
100
AcDbDimension
  2
*D8
 10
1167.766365650739
 20
3937.635294509082
 30
0.0
 11
917.7663656507393
 21
3975.135294509082
 31
0.0
 70
    32
 71
     5
 42
499.9999999999991
  3
GOD
100
AcDbAlignedDimension
 13
667.7663656507397
 23
4147.635294509081
 33
0.0
 14
1167.766365650739
 24
4147.635294509081
 34
0.0
100
AcDbRotatedDimension
  0
DIMENSION
  5
531F
330
19
100
AcDbEntity
  8
SP
100
AcDbDimension
  2
*D10
 10
667.7663656507406
 20
4042.635294509083
 30
0.0
 11
792.7663656507371
 21
4080.135294509083
 31
0.0
 70
    32
 71
     5
 42
249.9999999999927
  3
GOD
100
AcDbAlignedDimension
 13
917.7663656507334
 23
4117.47911344242
 33
0.0
 14
667.7663656507406
 24
4147.635294509081
 34
0.0
100
AcDbRotatedDimension
  0
LINE
  5
5320
330
19
100
AcDbEntity
  8
FUTO
100
AcDbLine
 10
667.7663656507406
 20
4147.635294509081
 30
0.0
 11
1167.766365650726
 21
4147.635294509081
 31
0.0
  0
LINE
  5
5321
330
19
100
AcDbEntity
  8
2
100
AcDbLine
 10
685.7663656507334
 20
4138.731282845248
 30
0.0
 11
685.7663656507334
 21
4161.139306172913
 31
0.0
  0
LINE
  5
5322
330
19
100
AcDbEntity
  8
1
100
AcDbLine
 10
707.766365650743
 20
4202.635294509081
 30
0.0
 11
747.7663656507411
 21
4202.635294509081
 31
0.0
  0
LINE
  5
5323
330
19
100
AcDbEntity
  8
1
100
AcDbLine
 10
667.7663656507416
 20
4149.93529450908
 30
0.0
 11
667.7663656507406
 21
4147.635294509081
 31
0.0
  0
LINE
  5
5324
330
19
100
AcDbEntity
  8
1
100
AcDbLine
 10
667.7663656507416
 20
4149.93529450908
 30
0.0
 11
705.4663656507441
 21
4149.93529450908
 31
0.0
  0
LINE
  5
5325
330
19
100
AcDbEntity
  8
2
100
AcDbLine
 10
1149.766365650733
 20
4138.731282845248
 30
0.0
 11
1149.766365650733
 21
4161.139306172913
 31
0.0
  0
DIMENSION
  5
5326
330
19
100
AcDbEntity
  8
SP
100
AcDbDimension
  2
*D7
 10
1167.766365650739
 20
4042.635294509083
 30
0.0
 11
1042.766365650736
 21
4080.135294509083
 31
0.0
 70
    32
 71
     5
 42
250.0000000000055
  3
GOD
100
AcDbAlignedDimension
 13
917.7663656507334
 23
4117.47911344242
 33
0.0
 14
1167.766365650739
 24
4147.635294509081
 34
0.0
100
AcDbRotatedDimension
  0
LINE
  5
5327
330
19
100
AcDbEntity
  8
1
100
AcDbLine
 10
1127.766365650724
 20
4202.635294509081
 30
0.0
 11
1087.766365650725
 21
4202.635294509081
 31
0.0
  0
LINE
  5
5328
330
19
100
AcDbEntity
  8
1
100
AcDbLine
 10
1167.766365650725
 20
4149.93529450908
 30
0.0
 11
1167.766365650726
 21
4147.635294509081
 31
0.0
  0
LINE
  5
5329
330
19
100
AcDbEntity
  8
1
100
AcDbLine
 10
1167.766365650725
 20
4149.93529450908
 30
0.0
 11
1130.066365650723
 21
4149.93529450908
 31
0.0
  0
LINE
  5
532A
330
19
100
AcDbEntity
  8
FUTO
100
AcDbLine
 10
1861.221875722607
 20
4147.635294509083
 30
0.0
 11
1861.221875722607
 21
4150.835294509081
 31
0.0
  0
DIMENSION
  5
532B
330
19
100
AcDbEntity
  8
SP
100
AcDbDimension
  2
*D11
 10
1272.766365650737
 20
4817.635294509077
 30
0.0
 11
1235.266365650736
 21
4660.135294509079
 31
0.0
 70
    32
 71
     5
 42
314.9999999999963
  3
GOD
100
AcDbAlignedDimension
 13
1207.068391154391
 23
4502.635294509081
 33
0.0
 14
1167.766365650738
 24
4817.635294509077
 34
0.0
 50
90.0
100
AcDbRotatedDimension
  0
LINE
  5
532C
330
19
100
AcDbEntity
  8
1
100
AcDbLine
 10
1147.766365650736
 20
4800.235294509074
 30
0.0
 11
1147.766365650728
 21
4519.035294509077
 31
0.0
  0
LWPOLYLINE
  5
532D
330
19
100
AcDbEntity
  8
FUTO
100
AcDbPolyline
 90
        4
 70
     0
 43
0.0
 10
1167.766365650727
 20
4481.135294509075
 10
1167.766365650737
 20
4839.135294509076
 10
1166.566365650737
 20
4839.135294509077
 10
1166.566365650727
 20
4481.135294509077
  0
LWPOLYLINE
  5
532E
330
19
100
AcDbEntity
  8
1
100
AcDbPolyline
 90
        3
 70
     0
 43
0.0
 10
714.858835126885
 20
4707.63529450908
 42
0.2162148363065116
 10
658.7161543740891
 20
4474.737477701029
 42
0.1298622998199493
 10
712.7663656507253
 20
4363.385489517007
 42
0.3153658436290411
  0
LWPOLYLINE
  5
532F
330
19
100
AcDbEntity
  8
1
100
AcDbPolyline
 90
        3
 70
     0
 43
0.0
 10
706.9737882578228
 20
4713.785581971687
 42
0.2162335382726867
 10
648.898875841054
 20
4472.834457361107
 42
0.1298839697351506
 10
705.1839098780425
 20
4356.865798998639
 42
0.1298839697351506
  0
CIRCLE
  5
5330
330
19
100
AcDbEntity
  8
CT
100
AcDbCircle
 10
917.7663656507261
 20
4502.635294509081
 30
0.0
 40
169.0
  0
ARC
  5
5331
330
19
100
AcDbEntity
  8
1
100
AcDbCircle
 10
917.7663656507261
 20
4502.635294509081
 30
0.0
 40
100.8
100
AcDbArc
 50
0.0
 51
254.5723000000041
  0
LINE
  5
5332
330
19
100
AcDbEntity
  8
1
100
AcDbLine
 10
857.5638656507258
 20
4421.74649450908
 30
0.0
 11
851.3313656507257
 21
4415.51399450908
 31
0.0
  0
LINE
  5
5333
330
19
100
AcDbEntity
  8
1
100
AcDbLine
 10
817.7663656507261
 20
4402.635294509081
 30
0.0
 11
857.7663656507262
 21
4402.635294509081
 31
0.0
  0
LINE
  5
5334
330
19
100
AcDbEntity
  8
1
100
AcDbLine
 10
819.7663656507261
 20
4414.635294509081
 30
0.0
 11
855.766365650726
 21
4414.635294509081
 31
0.0
  0
LINE
  5
5335
330
19
100
AcDbEntity
  8
1
100
AcDbLine
 10
747.7663656507425
 20
4362.635294509082
 30
0.0
 11
917.7663656507343
 21
4362.635294509082
 31
0.0
  0
LINE
  5
5336
330
19
100
AcDbEntity
  8
2
100
AcDbLine
 10
612.822855803161
 20
4502.635294509081
 30
0.0
 11
1207.068391154391
 21
4502.635294509081
 31
0.0
  0
LINE
  5
5337
330
19
100
AcDbEntity
  8
1
100
AcDbLine
 10
707.766365650743
 20
4402.635294509081
 30
0.0
 11
1127.766365650724
 21
4402.635294509079
 31
0.0
  0
LINE
  5
5338
330
19
100
AcDbEntity
  8
1
100
AcDbLine
 10
818.6585656507263
 20
4414.303394509082
 30
0.0
 11
835.0593656507257
 21
4444.965394509082
 31
0.0
  0
LINE
  5
5339
330
19
100
AcDbEntity
  8
CT
100
AcDbLine
 10
837.7663656507261
 20
4416.015794509081
 30
0.0
 11
837.7663656507261
 21
4398.668694509079
 31
0.0
  0
LINE
  5
533A
330
19
100
AcDbEntity
  8
1
100
AcDbLine
 10
843.7663656507261
 20
4402.635294509081
 30
0.0
 11
843.7663656507261
 21
4414.635294509081
 31
0.0
  0
ARC
  5
533B
330
19
100
AcDbEntity
  8
1
100
AcDbCircle
 10
849.2099656507257
 20
4417.635294509081
 30
0.0
 40
3.0
100
AcDbArc
 50
270.0
 51
314.9999999999931
  0
LINE
  5
533C
330
19
100
AcDbEntity
  8
1
100
AcDbLine
 10
817.7663656507261
 20
4402.635294509081
 30
0.0
 11
817.7663656507261
 21
4412.635294509081
 31
0.0
  0
ARC
  5
533D
330
19
100
AcDbEntity
  8
1
100
AcDbCircle
 10
819.7663656507261
 20
4412.635294509081
 30
0.0
 40
2.0
100
AcDbArc
 50
90.0
 51
180.0
  0
LINE
  5
533E
330
19
100
AcDbEntity
  8
1
100
AcDbLine
 10
831.766365650726
 20
4414.635294509081
 30
0.0
 11
831.766365650726
 21
4402.635294509081
 31
0.0
  0
CIRCLE
  5
533F
330
19
100
AcDbEntity
  8
1
100
AcDbCircle
 10
798.2653196302144
 20
4383.134248488548
 30
0.0
 40
4.0
  0
LINE
  5
5340
330
19
100
AcDbEntity
  8
CT
100
AcDbLine
 10
792.2549119901287
 20
4377.123840848463
 30
0.0
 11
803.4820993453408
 21
4388.351028203675
 31
0.0
  0
LWPOLYLINE
  5
5341
330
19
100
AcDbEntity
  8
1
100
AcDbPolyline
 90
        2
 70
     0
 43
0.0
 10
712.7663656507262
 20
4363.385489517009
 42
0.1174780416237573
 10
804.7881073502036
 20
4297.635294509083
 42
0.3153658436290411
  0
LINE
  5
5342
330
19
100
AcDbEntity
  8
FUTO
100
AcDbLine
 10
707.766365650743
 20
4402.635294509081
 30
0.0
 11
747.7663656507425
 21
4362.635294509082
 31
0.0
  0
CIRCLE
  5
5343
330
19
100
AcDbEntity
  8
1
100
AcDbCircle
 10
754.5249010078814
 20
4546.375713131399
 30
0.0
 40
4.0
  0
LINE
  5
5344
330
19
100
AcDbEntity
  8
CT
100
AcDbLine
 10
746.3145314844241
 20
4548.575675014769
 30
0.0
 11
761.6511546246911
 21
4544.466239229715
 31
0.0
  0
CIRCLE
  5
5345
330
19
100
AcDbEntity
  8
1
100
AcDbCircle
 10
754.5249010078878
 20
4458.894875886749
 30
0.0
 40
4.0
  0
LINE
  5
5346
330
19
100
AcDbEntity
  8
CT
100
AcDbLine
 10
746.3145314844296
 20
4456.694914003377
 30
0.0
 11
761.6511546246965
 21
4460.804349788431
 31
0.0
  0
LINE
  5
5347
330
19
100
AcDbEntity
  8
1
100
AcDbLine
 10
1016.675565650726
 20
4414.674794509082
 30
0.0
 11
1000.556865650726
 21
4444.809094509079
 31
0.0
  0
ARC
  5
5348
330
19
100
AcDbEntity
  8
1
100
AcDbCircle
 10
917.7663656507261
 20
4502.635294509081
 30
0.0
 40
100.8
100
AcDbArc
 50
285.7970999999871
 51
0.0
  0
LINE
  5
5349
330
19
100
AcDbEntity
  8
1
100
AcDbLine
 10
1087.766365650724
 20
4362.635294509082
 30
0.0
 11
917.7663656507343
 21
4362.635294509082
 31
0.0
  0
CIRCLE
  5
534A
330
19
100
AcDbEntity
  8
1
100
AcDbCircle
 10
1037.267411671265
 20
4383.13424848856
 30
0.0
 40
4.0
  0
LINE
  5
534B
330
19
100
AcDbEntity
  8
CT
100
AcDbLine
 10
1043.277819311349
 20
4377.123840848476
 30
0.0
 11
1032.050631956138
 21
4388.351028203686
 31
0.0
  0
LINE
  5
534C
330
19
100
AcDbEntity
  8
1
100
AcDbLine
 10
991.7663656507262
 20
4402.635294509081
 30
0.0
 11
991.7663656507262
 21
4414.635294509081
 31
0.0
  0
ARC
  5
534D
330
19
100
AcDbEntity
  8
1
100
AcDbCircle
 10
1015.766365650726
 20
4412.635294509081
 30
0.0
 40
2.0
100
AcDbArc
 50
0.0
 51
90.0
  0
LINE
  5
534E
330
19
100
AcDbEntity
  8
CT
100
AcDbLine
 10
997.766365650726
 20
4416.015794509081
 30
0.0
 11
997.766365650726
 21
4398.668694509079
 31
0.0
  0
LINE
  5
534F
330
19
100
AcDbEntity
  8
1
100
AcDbLine
 10
1003.766365650726
 20
4414.635294509081
 30
0.0
 11
1003.766365650726
 21
4402.635294509081
 31
0.0
  0
LINE
  5
5350
330
19
100
AcDbEntity
  8
1
100
AcDbLine
 10
1017.766365650726
 20
4402.635294509081
 30
0.0
 11
1017.766365650726
 21
4412.635294509081
 31
0.0
  0
LINE
  5
5351
330
19
100
AcDbEntity
  8
1
100
AcDbLine
 10
977.7663656507261
 20
4402.635294509081
 30
0.0
 11
977.7663656507261
 21
4412.635294509081
 31
0.0
  0
ARC
  5
5352
330
19
100
AcDbEntity
  8
1
100
AcDbCircle
 10
979.7663656507261
 20
4412.635294509081
 30
0.0
 40
2.0
100
AcDbArc
 50
90.0
 51
180.0
  0
ARC
  5
5353
330
19
100
AcDbEntity
  8
1
100
AcDbCircle
 10
986.3227656507264
 20
4417.635294509081
 30
0.0
 40
3.0
100
AcDbArc
 50
225.0000000000069
 51
270.0
  0
LINE
  5
5354
330
19
100
AcDbEntity
  8
1
100
AcDbLine
 10
978.3484656507257
 20
4421.36699450908
 30
0.0
 11
984.2013656507266
 21
4415.51399450908
 31
0.0
  0
LINE
  5
5355
330
19
100
AcDbEntity
  8
1
100
AcDbLine
 10
971.5129656507265
 20
4416.888794509082
 30
0.0
 11
977.7663656507261
 21
4410.635294509081
 31
0.0
  0
CIRCLE
  5
5356
330
19
100
AcDbEntity
  8
1
100
AcDbCircle
 10
961.5067842730665
 20
4339.393829866233
 30
0.0
 40
4.0
  0
LINE
  5
5357
330
19
100
AcDbEntity
  8
CT
100
AcDbLine
 10
963.7067461564383
 20
4331.183460342775
 30
0.0
 11
959.5973103713834
 21
4346.520083483041
 31
0.0
  0
LINE
  5
5358
330
19
100
AcDbEntity
  8
1
100
AcDbLine
 10
1015.766365650726
 20
4414.635294509081
 30
0.0
 11
979.7663656507261
 21
4414.635294509081
 31
0.0
  0
LINE
  5
5359
330
19
100
AcDbEntity
  8
1
100
AcDbLine
 10
1017.766365650726
 20
4402.635294509081
 30
0.0
 11
977.7663656507261
 21
4402.635294509081
 31
0.0
  0
CIRCLE
  5
535A
330
19
100
AcDbEntity
  8
1
100
AcDbCircle
 10
874.0259470284158
 20
4339.39382986623
 30
0.0
 40
4.0
  0
LINE
  5
535B
330
19
100
AcDbEntity
  8
CT
100
AcDbLine
 10
871.8259851450444
 20
4331.183460342773
 30
0.0
 11
875.9354209300996
 21
4346.520083483038
 31
0.0
  0
LINE
  5
535C
330
19
100
AcDbEntity
  8
1
100
AcDbLine
 10
857.7663656507262
 20
4402.635294509081
 30
0.0
 11
857.7663656507262
 21
4412.635294509081
 31
0.0
  0
ARC
  5
535D
330
19
100
AcDbEntity
  8
1
100
AcDbCircle
 10
855.766365650726
 20
4412.635294509081
 30
0.0
 40
2.0
100
AcDbArc
 50
0.0
 51
90.0
  0
LINE
  5
535E
330
19
100
AcDbEntity
  8
1
100
AcDbLine
 10
864.3159656507263
 20
4417.184994509081
 30
0.0
 11
857.7663656507262
 21
4410.635294509081
 31
0.0
  0
LINE
  5
535F
330
19
100
AcDbEntity
  8
1
100
AcDbLine
 10
945.3840656507258
 20
4405.635294509081
 30
0.0
 11
890.496965650726
 21
4405.635294509081
 31
0.0
  0
LINE
  5
5360
330
19
100
AcDbEntity
  8
FUTO
100
AcDbLine
 10
1127.766365650724
 20
4402.635294509081
 30
0.0
 11
1087.766365650724
 21
4362.635294509082
 31
0.0
  0
LWPOLYLINE
  5
5361
330
19
100
AcDbEntity
  8
CT
100
AcDbPolyline
 90
        2
 70
     0
 43
0.0
 10
1172.829528865725
 20
4491.135294509075
 10
1160.561218581779
 20
4491.135294509077
  0
LINE
  5
5362
330
19
100
AcDbEntity
  8
1
100
AcDbLine
 10
1167.766365650728
 20
4501.635294509077
 30
0.0
 11
1146.766365650728
 21
4501.635294509077
 31
0.0
  0
ARC
  5
5363
330
19
100
AcDbEntity
  8
1
100
AcDbCircle
 10
1162.766365650729
 20
4502.635294509078
 30
0.0
 40
1.0
100
AcDbArc
 50
270.0
 51
53.13010235421331
  0
LINE
  5
5364
330
19
100
AcDbEntity
  8
1
100
AcDbLine
 10
1147.766365650728
 20
4501.635294509072
 30
0.0
 11
1147.766365650725
 21
4498.31548438224
 31
0.0
  0
LINE
  5
5365
330
19
100
AcDbEntity
  8
1
100
AcDbLine
 10
1163.466365650728
 20
4503.335294509074
 30
0.0
 11
1147.766365650729
 21
4519.035294509073
 31
0.0
  0
POINT
  5
5366
330
19
100
AcDbEntity
  8
1
100
AcDbPoint
 10
1167.766365650727
 20
4502.635294509078
 30
0.0
  0
LWPOLYLINE
  5
5367
330
19
100
AcDbEntity
  8
FUTO
100
AcDbPolyline
 90
        2
 70
     0
 43
0.0
 10
1167.766365650727
 20
4481.135294509075
 10
1166.566365650727
 20
4481.135294509075
  0
LWPOLYLINE
  5
5368
330
19
100
AcDbEntity
  8
1
100
AcDbPolyline
 90
        3
 70
     0
 43
0.0
 10
1146.766365650729
 20
4501.635294509077
 42
0.101266720201501
 10
1141.266955163965
 20
4500.509939525468
 42
0.0681921917069782
 10
1122.766365650729
 20
4485.780202855504
 42
0.2200089805681688
  0
ARC
  5
5369
330
19
100
AcDbEntity
  8
1
100
AcDbCircle
 10
1137.766365650729
 20
4498.315484382247
 30
0.0
 40
10.0
100
AcDbArc
 50
303.441871789508
 51
0.0
  0
CIRCLE
  5
536A
330
19
100
AcDbEntity
  8
1
100
AcDbCircle
 10
1081.007830293581
 20
4546.375713131415
 30
0.0
 40
4.0
  0
LINE
  5
536B
330
19
100
AcDbEntity
  8
CT
100
AcDbLine
 10
1089.218199817038
 20
4548.575675014785
 30
0.0
 11
1073.881576676771
 21
4544.466239229731
 31
0.0
  0
CIRCLE
  5
536C
330
19
100
AcDbEntity
  8
1
100
AcDbCircle
 10
1081.007830293586
 20
4458.894875886763
 30
0.0
 40
4.0
  0
LINE
  5
536D
330
19
100
AcDbEntity
  8
CT
100
AcDbLine
 10
1089.218199817043
 20
4456.694914003391
 30
0.0
 11
1073.881576676776
 21
4460.804349788447
 31
0.0
  0
LWPOLYLINE
  5
536E
330
19
100
AcDbEntity
  8
1
100
AcDbPolyline
 90
        2
 70
     0
 43
0.0
 10
1122.766365650728
 20
4470.080879216674
 42
0.0941668855597806
 10
1110.854961342383
 20
4443.875127418173
 42
0.1987366729981355
  0
LWPOLYLINE
  5
536F
330
19
100
AcDbEntity
  8
1
100
AcDbPolyline
 90
        2
 70
     0
 43
0.0
 10
1143.277272654174
 20
4489.971030895084
 42
0.0934525219043797
 10
1122.766365650728
 20
4470.080879216674
 42
0.1987366729981355
  0
LWPOLYLINE
  5
5370
330
19
100
AcDbEntity
  8
1
100
AcDbPolyline
 90
        2
 70
     0
 43
0.0
 10
1122.766365650729
 20
4485.780202855504
 42
0.1315967463597435
 10
1101.138825893828
 20
4446.240864501064
 42
0.2200089805681688
  0
LWPOLYLINE
  5
5371
330
19
100
AcDbEntity
  8
1
100
AcDbPolyline
 90
        3
 70
     0
 43
0.0
 10
1167.766365650738
 20
4817.635294509077
 10
943.2663656507379
 20
4817.635294509083
 42
0.2269607506063405
 10
714.858835126885
 20
4707.63529450908
 42
0.129402372482195
  0
LINE
  5
5372
330
19
100
AcDbEntity
  8
1
100
AcDbLine
 10
827.7663656507252
 20
4707.635294509083
 30
0.0
 11
1007.766365650725
 21
4707.63529450908
 31
0.0
  0
CIRCLE
  5
5373
330
19
100
AcDbEntity
  8
1
100
AcDbCircle
 10
798.2653196302017
 20
4622.136340529599
 30
0.0
 40
4.0
  0
LINE
  5
5374
330
19
100
AcDbEntity
  8
CT
100
AcDbLine
 10
792.2549119901163
 20
4628.146748169686
 30
0.0
 11
803.4820993453282
 21
4616.919560814474
 31
0.0
  0
LINE
  5
5375
330
19
100
AcDbEntity
  8
1
100
AcDbLine
 10
827.7663656507252
 20
4707.63529450908
 30
0.0
 11
705.4663656507441
 21
4585.735294509081
 31
0.0
  0
POINT
  5
5376
330
19
100
AcDbEntity
  8
1
100
AcDbPoint
 10
760.2663656507324
 20
4752.635294509092
 30
0.0
  0
POINT
  5
5377
330
19
100
AcDbEntity
  8
1
100
AcDbPoint
 10
760.2663656507324
 20
4752.635294509092
 30
0.0
  0
LINE
  5
5378
330
19
100
AcDbEntity
  8
1
100
AcDbLine
 10
1007.766365650725
 20
4707.63529450908
 30
0.0
 11
1130.066365650723
 21
4585.735294509081
 31
0.0
  0
CIRCLE
  5
5379
330
19
100
AcDbEntity
  8
1
100
AcDbCircle
 10
1037.267411671253
 20
4622.136340529611
 30
0.0
 40
4.0
  0
LINE
  5
537A
330
19
100
AcDbEntity
  8
CT
100
AcDbLine
 10
1043.277819311338
 20
4628.146748169696
 30
0.0
 11
1032.050631956126
 21
4616.919560814486
 31
0.0
  0
LINE
  5
537B
330
19
100
AcDbEntity
  8
CT
100
AcDbLine
 10
963.7067461564225
 20
4674.087128675391
 30
0.0
 11
959.5973103713673
 21
4658.750505535123
 31
0.0
  0
CIRCLE
  5
537C
330
19
100
AcDbEntity
  8
1
100
AcDbCircle
 10
961.5067842730509
 20
4665.876759151934
 30
0.0
 40
4.0
  0
CIRCLE
  5
537D
330
19
100
AcDbEntity
  8
1
100
AcDbCircle
 10
874.0259470284
 20
4665.876759151929
 30
0.0
 40
4.0
  0
LINE
  5
537E
330
19
100
AcDbEntity
  8
CT
100
AcDbLine
 10
871.8259851450284
 20
4674.087128675386
 30
0.0
 11
875.9354209300836
 21
4658.750505535119
 31
0.0
  0
LINE
  5
537F
330
19
100
AcDbEntity
  8
1
100
AcDbLine
 10
1163.466365650737
 20
4815.935294509077
 30
0.0
 11
1147.766365650736
 21
4800.235294509076
 31
0.0
  0
LWPOLYLINE
  5
5380
330
19
100
AcDbEntity
  8
CT
100
AcDbPolyline
 90
        2
 70
     0
 43
0.0
 10
1172.829528865734
 20
4829.135294509075
 10
1160.561218581789
 20
4829.135294509078
  0
ARC
  5
5381
330
19
100
AcDbEntity
  8
1
100
AcDbCircle
 10
1162.766365650738
 20
4816.635294509078
 30
0.0
 40
1.0
100
AcDbArc
 50
306.8698976457763
 51
90.0
  0
LINE
  5
5382
330
19
100
AcDbEntity
  8
FUTO
100
AcDbLine
 10
1147.766365650737
 20
4827.635294509079
 30
0.0
 11
1147.766365650737
 21
4817.63529450908
 31
0.0
  0
LINE
  5
5383
330
19
100
AcDbEntity
  8
1
100
AcDbLine
 10
1922.221875722607
 20
4406.635294509081
 30
0.0
 11
1922.221875722607
 21
4601.935294509082
 31
0.0
  0
LINE
  5
5384
330
19
100
AcDbEntity
  8
1
100
AcDbLine
 10
1962.221875722606
 20
4603.435294509082
 30
0.0
 11
1962.221875722606
 21
4452.635294509081
 31
0.0
  0
LINE
  5
5385
330
19
100
AcDbEntity
  8
1
100
AcDbLine
 10
1872.221875722607
 20
4419.08239450908
 30
0.0
 11
1872.221875722607
 21
4586.216194509082
 31
0.0
  0
LINE
  5
5386
330
19
100
AcDbEntity
  8
1
100
AcDbLine
 10
1948.221875722606
 20
4405.635294509081
 30
0.0
 11
1948.221875722606
 21
4443.635294509081
 31
0.0
  0
ARC
  5
5387
330
19
100
AcDbEntity
  8
FUTO
100
AcDbCircle
 10
1865.021875722607
 20
4396.746787701623
 30
0.0
 40
4.8
100
AcDbArc
 50
90.0
 51
180.0
  0
ARC
  5
5388
330
19
100
AcDbEntity
  8
FUTO
100
AcDbCircle
 10
1865.021875722607
 20
4396.746787701623
 30
0.0
 40
2.4
100
AcDbArc
 50
90.0
 51
180.0
  0
LINE
  5
5389
330
19
100
AcDbEntity
  8
FUTO
100
AcDbLine
 10
1860.221875722606
 20
4373.946787701624
 30
0.0
 11
1862.621875722607
 21
4373.946787701624
 31
0.0
  0
LINE
  5
538A
330
19
100
AcDbEntity
  8
FUTO
100
AcDbLine
 10
1860.221875722606
 20
4373.946787701624
 30
0.0
 11
1860.221875722606
 21
4396.746787701623
 31
0.0
  0
LINE
  5
538B
330
19
100
AcDbEntity
  8
FUTO
100
AcDbLine
 10
1862.621875722607
 20
4373.946787701624
 30
0.0
 11
1862.621875722607
 21
4396.746787701623
 31
0.0
  0
LINE
  5
538C
330
19
100
AcDbEntity
  8
1
100
AcDbLine
 10
1948.122375722607
 20
4417.635294509081
 30
0.0
 11
1959.703565863452
 21
4417.635294509081
 31
0.0
  0
ARC
  5
538D
330
19
100
AcDbEntity
  8
1
100
AcDbCircle
 10
1923.221975722606
 20
4406.635294509081
 30
0.0
 40
1.000099999999999
100
AcDbArc
 50
180.0
 51
269.9965000000103
  0
LINE
  5
538E
330
19
100
AcDbEntity
  8
1
100
AcDbLine
 10
1948.221875722606
 20
4405.635294509081
 30
0.0
 11
1923.221875722606
 21
4405.635294509081
 31
0.0
  0
ARC
  5
538F
330
19
100
AcDbEntity
  8
1
100
AcDbCircle
 10
1874.021675722607
 20
4419.082194509082
 30
0.0
 40
1.7998
100
AcDbArc
 50
179.9961000000213
 51
257.5983000000102
  0
LINE
  5
5390
330
19
100
AcDbEntity
  8
1
100
AcDbLine
 10
1922.221875722607
 20
4406.635294509081
 30
0.0
 11
1873.635175722607
 21
4417.324394509082
 31
0.0
  0
LINE
  5
5391
330
19
100
AcDbEntity
  8
FUTO
100
AcDbLine
 10
1920.698758698633
 20
4311.773623687134
 30
0.0
 11
1873.100934903183
 21
4399.146787701623
 31
0.0
  0
LINE
  5
5392
330
19
100
AcDbEntity
  8
FUTO
100
AcDbLine
 10
1865.021875722607
 20
4399.146787701623
 30
0.0
 11
1952.891462510168
 21
4399.146787701619
 31
0.0
  0
LINE
  5
5393
330
19
100
AcDbEntity
  8
FUTO
100
AcDbLine
 10
1865.021875722607
 20
4401.54678770162
 30
0.0
 11
1953.775744200308
 21
4401.54678770162
 31
0.0
  0
LINE
  5
5394
330
19
100
AcDbEntity
  8
1
100
AcDbLine
 10
1948.221875722606
 20
4443.635294509081
 30
0.0
 11
1962.221875722606
 21
4452.635294509081
 31
0.0
  0
LINE
  5
5395
330
19
100
AcDbEntity
  8
1
100
AcDbLine
 10
1962.053575722607
 20
4589.075994509082
 30
0.0
 11
1969.882175722607
 21
4602.635294509081
 31
0.0
  0
ARC
  5
5396
330
19
100
AcDbEntity
  8
1
100
AcDbCircle
 10
1923.721875722606
 20
4601.935294509082
 30
0.0
 40
1.5
100
AcDbArc
 50
90.0
 51
180.0
  0
LINE
  5
5397
330
19
100
AcDbEntity
  8
1
100
AcDbLine
 10
1962.221875722606
 20
4603.435294509082
 30
0.0
 11
1923.721875722606
 21
4603.435294509082
 31
0.0
  0
LINE
  5
5398
330
19
100
AcDbEntity
  8
1
100
AcDbLine
 10
2045.221875722607
 20
4602.635294509081
 30
0.0
 11
1969.882175722607
 21
4602.635294509081
 31
0.0
  0
ARC
  5
5399
330
19
100
AcDbEntity
  8
1
100
AcDbCircle
 10
1874.021775722606
 20
4586.216294509081
 30
0.0
 40
1.7999
100
AcDbArc
 50
103.4933999999915
 51
180.0018999999831
  0
LINE
  5
539A
330
19
100
AcDbEntity
  8
1
100
AcDbLine
 10
1922.221875722607
 20
4599.635294509081
 30
0.0
 11
1873.601775722607
 21
4587.966494509081
 31
0.0
  0
ARC
  5
539B
330
19
100
AcDbEntity
  8
FUTO
100
AcDbCircle
 10
2195.221875722606
 20
4295.348074392609
 30
0.0
 40
15.0
100
AcDbArc
 50
180.0
 51
269.9999999999984
  0
LWPOLYLINE
  5
539C
330
19
100
AcDbEntity
  8
1
100
AcDbPolyline
 90
        2
 70
     0
 43
0.0
 10
2168.021875722606
 20
4695.523161257756
 10
2168.021875722607
 20
4147.635294509083
  0
LWPOLYLINE
  5
539D
330
19
100
AcDbEntity
  8
1
100
AcDbPolyline
 90
        3
 70
     0
 43
0.0
 10
2171.221875722606
 20
4698.983770758135
 10
2171.221875722606
 20
4502.635294509081
 10
2171.221875722606
 20
4147.635294509083
  0
ARC
  5
539E
330
19
100
AcDbEntity
  8
FUTO
100
AcDbCircle
 10
2391.221875722607
 20
4295.348074392609
 30
0.0
 40
15.0
100
AcDbArc
 50
269.9999999999984
 51
0.0
  0
LINE
  5
53A0
330
19
100
AcDbEntity
  8
FUTO
100
AcDbLine
 10
2195.221875722606
 20
4280.348074392607
 30
0.0
 11
2391.221875722607
 21
4280.348074392607
 31
0.0
  0
LWPOLYLINE
  5
53A1
330
19
100
AcDbEntity
  8
1
100
AcDbPolyline
 90
        2
 70
     0
 43
0.0
 10
2211.221875722606
 20
4150.835294509081
 10
2211.221875722606
 20
4147.635294509081
  0
LINE
  5
53A2
330
19
100
AcDbEntity
  8
1
100
AcDbLine
 10
2171.221875722608
 20
4150.835294509081
 30
0.0
 11
2211.221875722606
 21
4150.835294509081
 31
0.0
  0
DIMENSION
  5
53A4
330
19
100
AcDbEntity
  8
SP
100
AcDbDimension
  2
*D19
 10
2530.43646423438
 20
4345.135294509083
 30
0.0
 11
2492.936464234381
 21
4502.635294509081
 31
0.0
 70
    32
 71
     5
 42
315.0
  3
GOD
100
AcDbAlignedDimension
 13
2414.221875722607
 23
4660.135294509081
 33
0.0
 14
2414.221875722609
 24
4345.135294509081
 34
0.0
 50
90.0
100
AcDbRotatedDimension
1001
ACAD
1000
DSTYLE
1002
{
1070
     3
1000
\U+03C6<>
1002
}
  0
LINE
  5
53A5
330
19
100
AcDbEntity
  8
1
100
AcDbLine
 10
2406.221875722606
 20
4805.635294509083
 30
0.0
 11
2406.221875722609
 21
4527.635294509082
 31
0.0
  0
LINE
  5
53A6
330
19
100
AcDbEntity
  8
1
100
AcDbLine
 10
2426.221875722607
 20
4506.135294509076
 30
0.0
 11
2426.221875722607
 21
4814.135294509076
 31
0.0
  0
LINE
  5
53A7
330
19
100
AcDbEntity
  8
1
100
AcDbLine
 10
2180.221875722605
 20
4517.635294509083
 30
0.0
 11
2180.221875722606
 21
4661.635294509083
 31
0.0
  0
LINE
  5
53A8
330
19
100
AcDbEntity
  8
HOSO
100
AcDbLine
 10
2400.10136321547
 20
4511.247343081071
 30
0.0
 11
2183.894183226888
 21
4815.46806536589
 31
0.0
  0
LINE
  5
53A9
330
19
100
AcDbEntity
  8
FUTO
100
AcDbLine
 10
2405.221875722606
 20
4811.020459316218
 30
0.0
 11
2405.221875722606
 21
4520.635294509076
 31
0.0
1001
ACAD
1000
ASC_BOUNDS
1002
{
1070
    19
1005
0
1005
0
1002
}
  0
LINE
  5
53AA
330
19
100
AcDbEntity
  8
FUTO
100
AcDbLine
 10
2181.221875722606
 20
4811.020459316218
 30
0.0
 11
2181.221875722606
 21
4512.250129701947
 31
0.0
1001
ACAD
1000
ASC_BOUNDS
1002
{
1070
    19
1005
0
1005
0
1002
}
  0
LINE
  5
53AB
330
19
100
AcDbEntity
  8
HOSO
100
AcDbLine
 10
2402.549568218323
 20
4815.46806536589
 30
0.0
 11
2183.894183226888
 21
4507.802523652276
 31
0.0
  0
LINE
  5
53AC
330
19
100
AcDbEntity
  8
1
100
AcDbLine
 10
2160.221875722607
 20
4506.135294509076
 30
0.0
 11
2160.221875722607
 21
4814.135294509076
 31
0.0
  0
LINE
  5
53AD
330
19
100
AcDbEntity
  8
1
100
AcDbLine
 10
2406.221875722604
 20
4481.135294509232
 30
0.0
 11
2406.221875722607
 21
4295.348074392608
 31
0.0
  0
LINE
  5
53AE
330
19
100
AcDbEntity
  8
1
100
AcDbLine
 10
2180.221875722608
 20
4481.507934075761
 30
0.0
 11
2180.221875722606
 21
4295.348074392608
 31
0.0
  0
LINE
  5
53AF
330
19
100
AcDbEntity
  8
1
100
AcDbLine
 10
2180.221875722608
 20
4320.135294509081
 30
0.0
 11
2173.221875722607
 21
4320.135294509081
 31
0.0
  0
ARC
  5
53B0
330
19
100
AcDbEntity
  8
1
100
AcDbCircle
 10
2173.221875722606
 20
4321.135294509079
 30
0.0
 40
1.0
100
AcDbArc
 50
180.0
 51
270.0
  0
LINE
  5
53B8
330
19
100
AcDbEntity
  8
1
100
AcDbLine
 10
2193.66999195908
 20
4502.635294509082
 30
0.0
 11
2381.221875722609
 21
4502.635294509082
 31
0.0
  0
LINE
  5
53B9
330
19
100
AcDbEntity
  8
FUTO
100
AcDbLine
 10
2185.221875722607
 20
4481.135294509075
 30
0.0
 11
2401.221875722607
 21
4481.135294509075
 31
0.0
  0
ARC
  5
53BA
330
19
100
AcDbEntity
  8
1
100
AcDbCircle
 10
2195.221875722605
 20
4517.635294509083
 30
0.0
 40
15.0
100
AcDbArc
 50
180.0
 51
270.0
  0
ARC
  5
53BB
330
19
100
AcDbEntity
  8
FUTO
100
AcDbCircle
 10
2185.221875722607
 20
4506.135294509078
 30
0.0
 40
25.0
100
AcDbArc
 50
180.0
 51
270.0
  0
ARC
  5
53BC
330
19
100
AcDbEntity
  8
1
100
AcDbCircle
 10
2381.221875722609
 20
4527.635294509082
 30
0.0
 40
25.0
100
AcDbArc
 50
270.0
 51
0.0
  0
ARC
  5
53BD
330
19
100
AcDbEntity
  8
FUTO
100
AcDbCircle
 10
2401.221875722607
 20
4506.135294509078
 30
0.0
 40
25.0
100
AcDbArc
 50
270.0
 51
0.0
  0
LINE
  5
53BE
330
19
100
AcDbEntity
  8
1
100
AcDbLine
 10
2180.221875722605
 20
4805.635294509083
 30
0.0
 11
2180.221875722606
 21
4661.635294509083
 31
0.0
  0
ARC
  5
53BF
330
19
100
AcDbEntity
  8
1
100
AcDbCircle
 10
2173.221875722607
 20
4684.135294509079
 30
0.0
 40
1.0
100
AcDbArc
 50
90.0
 51
180.0
  0
ARC
  5
53C0
330
19
100
AcDbEntity
  8
1
100
AcDbCircle
 10
2179.221875722609
 20
4686.135294509079
 30
0.0
 40
1.0
100
AcDbArc
 50
270.0
 51
0.0
  0
LINE
  5
53C1
330
19
100
AcDbEntity
  8
1
100
AcDbLine
 10
2179.221875722609
 20
4685.13529450908
 30
0.0
 11
2173.221875722607
 21
4685.13529450908
 31
0.0
  0
LINE
  5
53C9
330
19
100
AcDbEntity
  8
FUTO
100
AcDbLine
 10
2195.221875722606
 20
4820.635294509083
 30
0.0
 11
2391.221875722606
 21
4820.635294509083
 31
0.0
  0
LINE
  5
53CA
330
19
100
AcDbEntity
  8
FUTO
100
AcDbLine
 10
2185.221875722607
 20
4839.135294509076
 30
0.0
 11
2401.221875722607
 21
4839.135294509076
 31
0.0
  0
ARC
  5
53CB
330
19
100
AcDbEntity
  8
FUTO
100
AcDbCircle
 10
2195.221875722605
 20
4805.635294509083
 30
0.0
 40
15.0
100
AcDbArc
 50
90.0
 51
180.0
  0
ARC
  5
53CC
330
19
100
AcDbEntity
  8
FUTO
100
AcDbCircle
 10
2185.221875722607
 20
4814.135294509076
 30
0.0
 40
25.0
100
AcDbArc
 50
90.0
 51
180.0
  0
ARC
  5
53CD
330
19
100
AcDbEntity
  8
FUTO
100
AcDbCircle
 10
2391.221875722605
 20
4805.635294509083
 30
0.0
 40
15.0
100
AcDbArc
 50
0.0
 51
90.0
  0
ARC
  5
53CE
330
19
100
AcDbEntity
  8
FUTO
100
AcDbCircle
 10
2401.221875722607
 20
4814.135294509076
 30
0.0
 40
25.0
100
AcDbArc
 50
0.0
 51
90.00000000000161
  0
LINE
  5
53CF
330
19
100
AcDbEntity
  8
2
100
AcDbLine
 10
917.7663656507302
 20
5368.182908544902
 30
0.0
 11
917.7663656507297
 21
5995.364287666135
 31
0.0
  0
LINE
  5
53D0
330
19
100
AcDbEntity
  8
1
100
AcDbLine
 10
1166.566365650733
 20
5987.362935220167
 30
0.0
 11
1166.566365650733
 21
5721.362935220167
 31
0.0
  0
LINE
  5
53D1
330
19
100
AcDbEntity
  8
1
100
AcDbLine
 10
1167.766365650732
 20
5987.362935220167
 30
0.0
 11
1167.766365650733
 21
5721.362935220167
 31
0.0
  0
DIMENSION
  5
53D2
330
19
100
AcDbEntity
  8
SP
100
AcDbDimension
  2
*D4
 10
1341.639068086905
 20
5854.362935220167
 30
0.0
 11
1304.139068086904
 21
5996.862935220168
 31
0.0
 70
    32
 71
     5
 42
122.0
  3
GOD
100
AcDbAlignedDimension
 13
1167.766365650733
 23
5732.362935220167
 33
0.0
 14
1215.387913917213
 24
5854.362935220167
 34
0.0
 50
90.0
100
AcDbRotatedDimension
  0
DIMENSION
  5
53D3
330
19
100
AcDbEntity
  8
SP
100
AcDbDimension
  2
*D5
 10
1167.766365650728
 20
5275.34150146671
 30
0.0
 11
917.7663656507284
 21
5312.84150146671
 31
0.0
 70
    32
 71
     5
 42
499.9999999999991
  3
GOD
100
AcDbAlignedDimension
 13
667.7663656507288
 23
5422.362935220167
 33
0.0
 14
1167.766365650728
 24
5422.362935220167
 34
0.0
100
AcDbRotatedDimension
  0
DIMENSION
  5
53D4
330
19
100
AcDbEntity
  8
SP
100
AcDbDimension
  2
*D13
 10
1341.639068086905
 20
5422.362935220167
 30
0.0
 11
1304.139068086904
 21
5577.362935220167
 31
0.0
 70
    32
 71
     5
 42
310.0
  3
GOD
100
AcDbAlignedDimension
 13
1167.766365650729
 23
5732.362935220167
 33
0.0
 14
1167.766365650729
 24
5422.362935220167
 34
0.0
 50
90.0
100
AcDbRotatedDimension
  0
LINE
  5
53D5
330
19
100
AcDbEntity
  8
CT
100
AcDbLine
 10
1149.766365650728
 20
5718.497643102717
 30
0.0
 11
1149.766365650729
 21
5682.830563598275
 31
0.0
  0
CIRCLE
  5
53D6
330
19
100
AcDbEntity
  8
1
100
AcDbCircle
 10
1149.766365650729
 20
5702.362935220167
 30
0.0
 40
6.0
  0
LINE
  5
53D7
330
19
100
AcDbEntity
  8
1
100
AcDbLine
 10
1127.766365650729
 20
5422.362935220167
 30
0.0
 11
1127.766365650729
 21
5732.362935220167
 31
0.0
  0
LINE
  5
53D8
330
19
100
AcDbEntity
  8
1
100
AcDbLine
 10
1167.766365650729
 20
5422.362935220167
 30
0.0
 11
1167.766365650729
 21
5732.362935220167
 31
0.0
  0
LINE
  5
53D9
330
19
100
AcDbEntity
  8
1
100
AcDbLine
 10
1002.766365650728
 20
5691.362935220166
 30
0.0
 11
1002.766365650728
 21
5709.090614653588
 31
0.0
  0
LINE
  5
53DA
330
19
100
AcDbEntity
  8
1
100
AcDbLine
 10
832.7663656507279
 20
5691.362935220166
 30
0.0
 11
832.7663656507279
 21
5709.090614653588
 31
0.0
  0
LINE
  5
53DB
330
19
100
AcDbEntity
  8
CT
100
AcDbLine
 10
685.7663656507289
 20
5718.497643102717
 30
0.0
 11
685.7663656507289
 21
5682.830563598275
 31
0.0
  0
LINE
  5
53DC
330
19
100
AcDbEntity
  8
1
100
AcDbLine
 10
707.7663656507288
 20
5422.362935220167
 30
0.0
 11
707.7663656507297
 21
5732.362935220177
 31
0.0
  0
LINE
  5
53DD
330
19
100
AcDbEntity
  8
1
100
AcDbLine
 10
667.7663656507288
 20
5422.362935220167
 30
0.0
 11
667.7663656507302
 21
5732.362935220177
 31
0.0
  0
CIRCLE
  5
53DE
330
19
100
AcDbEntity
  8
1
100
AcDbCircle
 10
685.7663656507289
 20
5702.362935220167
 30
0.0
 40
6.0
  0
LINE
  5
53DF
330
19
100
AcDbEntity
  8
1
100
AcDbLine
 10
1001.319265650727
 20
5434.362935220168
 30
0.0
 11
834.185465650728
 21
5434.362935220168
 31
0.0
  0
LINE
  5
53E0
330
19
100
AcDbEntity
  8
1
100
AcDbLine
 10
1013.766365650728
 20
5484.362935220167
 30
0.0
 11
818.4663656507277
 21
5484.362935220167
 31
0.0
  0
LINE
  5
53E1
330
19
100
AcDbEntity
  8
1
100
AcDbLine
 10
816.9663656507278
 20
5524.362935220167
 30
0.0
 11
1018.566365650728
 21
5524.362935220167
 31
0.0
  0
LINE
  5
53E2
330
19
100
AcDbEntity
  8
1
100
AcDbLine
 10
1001.319265650731
 20
5434.362935220168
 30
0.0
 11
834.1854656507317
 21
5434.362935220168
 31
0.0
  0
LINE
  5
53E3
330
19
100
AcDbEntity
  8
1
100
AcDbLine
 10
1002.766365650728
 20
5691.362935220166
 30
0.0
 11
832.7663656507279
 21
5691.362935220166
 31
0.0
  0
LINE
  5
53E4
330
19
100
AcDbEntity
  8
1
100
AcDbLine
 10
817.7663656507279
 20
5532.02323522017
 30
0.0
 11
817.7663656507279
 21
5682.702635220167
 31
0.0
  0
LINE
  5
53E5
330
19
100
AcDbEntity
  8
1
100
AcDbLine
 10
831.3256656507277
 20
5524.194635220169
 30
0.0
 11
817.7663656507279
 21
5532.02323522017
 31
0.0
  0
ARC
  5
53E6
330
19
100
AcDbEntity
  8
1
100
AcDbCircle
 10
818.4663656507277
 20
5485.862935220167
 30
0.0
 40
1.5
100
AcDbArc
 50
180.0
 51
270.0
  0
LINE
  5
53E7
330
19
100
AcDbEntity
  8
1
100
AcDbLine
 10
816.9663656507278
 20
5524.362935220167
 30
0.0
 11
816.9663656507278
 21
5485.862935220167
 31
0.0
  0
ARC
  5
53E8
330
19
100
AcDbEntity
  8
1
100
AcDbCircle
 10
834.1853656507279
 20
5436.162835220169
 30
0.0
 40
1.7999
100
AcDbArc
 50
193.4933999999979
 51
270.0018999999994
  0
LINE
  5
53E9
330
19
100
AcDbEntity
  8
1
100
AcDbLine
 10
820.7663656507278
 20
5484.362935220167
 30
0.0
 11
832.4351656507273
 21
5435.742835220167
 31
0.0
  0
LINE
  5
53EA
330
19
100
AcDbEntity
  8
CT
100
AcDbLine
 10
685.7663656507289
 20
5468.497643102717
 30
0.0
 11
685.7663656507289
 21
5432.830563598275
 31
0.0
  0
LWPOLYLINE
  5
53EB
330
19
100
AcDbEntity
  8
1
100
AcDbPolyline
 90
        2
 70
     0
 43
0.0
 10
707.7663656507289
 20
5470.762935220168
 10
824.0303589374549
 20
5470.762935220168
  0
LINE
  5
53EC
330
19
100
AcDbEntity
  8
CT
100
AcDbLine
 10
670.0740774540886
 20
5452.362935220167
 30
0.0
 11
700.7663656507297
 21
5452.362935220167
 31
0.0
  0
CIRCLE
  5
53ED
330
19
100
AcDbEntity
  8
1
100
AcDbCircle
 10
685.7663656507289
 20
5452.362935220167
 30
0.0
 40
6.0
  0
LINE
  5
53EE
330
19
100
AcDbEntity
  8
1
100
AcDbLine
 10
667.7663656507288
 20
5422.362935220167
 30
0.0
 11
707.7663656507288
 21
5422.362935220167
 31
0.0
  0
LINE
  5
53EF
330
19
100
AcDbEntity
  8
1
100
AcDbLine
 10
817.7663656507279
 20
5682.702635220167
 30
0.0
 11
832.7663656507279
 21
5691.362935220166
 31
0.0
  0
LINE
  5
53F0
330
19
100
AcDbEntity
  8
1
100
AcDbLine
 10
832.7663656507279
 20
5694.362935220167
 30
0.0
 11
832.7663656507279
 21
5691.362935220166
 31
0.0
  0
LINE
  5
53F1
330
19
100
AcDbEntity
  8
1
100
AcDbLine
 10
1017.766365650728
 20
5682.702635220167
 30
0.0
 11
1017.766365650728
 21
5532.02323522017
 31
0.0
  0
LWPOLYLINE
  5
53F2
330
19
100
AcDbEntity
  8
1
100
AcDbPolyline
 90
        2
 70
     0
 43
0.0
 10
1011.502372364
 20
5470.762935220168
 10
1127.766365650729
 20
5470.762935220166
  0
LINE
  5
53F3
330
19
100
AcDbEntity
  8
1
100
AcDbLine
 10
1004.207065650728
 20
5524.194635220169
 30
0.0
 11
1017.766365650728
 21
5532.02323522017
 31
0.0
  0
ARC
  5
53F4
330
19
100
AcDbEntity
  8
1
100
AcDbCircle
 10
1017.066365650728
 20
5485.862935220167
 30
0.0
 40
1.5
100
AcDbArc
 50
270.0
 51
0.0
  0
LINE
  5
53F5
330
19
100
AcDbEntity
  8
1
100
AcDbLine
 10
1018.566365650728
 20
5524.362935220167
 30
0.0
 11
1018.566365650728
 21
5485.862935220167
 31
0.0
  0
ARC
  5
53F6
330
19
100
AcDbEntity
  8
1
100
AcDbCircle
 10
1001.347365650728
 20
5436.162835220169
 30
0.0
 40
1.7999
100
AcDbArc
 50
269.9981000000006
 51
346.5066000000021
  0
LINE
  5
53F7
330
19
100
AcDbEntity
  8
1
100
AcDbLine
 10
1014.766365650728
 20
5484.362935220167
 30
0.0
 11
1003.097565650727
 21
5435.742835220167
 31
0.0
  0
CIRCLE
  5
53F8
330
19
100
AcDbEntity
  8
1
100
AcDbCircle
 10
1149.766365650729
 20
5452.362935220167
 30
0.0
 40
6.0
  0
LINE
  5
53F9
330
19
100
AcDbEntity
  8
CT
100
AcDbLine
 10
1165.458653847368
 20
5452.362935220167
 30
0.0
 11
1134.766365650727
 21
5452.362935220167
 31
0.0
  0
LINE
  5
53FA
330
19
100
AcDbEntity
  8
1
100
AcDbLine
 10
1127.766365650729
 20
5422.362935220171
 30
0.0
 11
1167.766365650728
 21
5422.362935220167
 31
0.0
  0
LINE
  5
53FB
330
19
100
AcDbEntity
  8
CT
100
AcDbLine
 10
1149.766365650728
 20
5468.497643102717
 30
0.0
 11
1149.766365650729
 21
5432.830563598275
 31
0.0
  0
LINE
  5
53FC
330
19
100
AcDbEntity
  8
1
100
AcDbLine
 10
1017.766365650728
 20
5682.702635220167
 30
0.0
 11
1002.766365650728
 21
5691.362935220166
 31
0.0
  0
LINE
  5
53FD
330
19
100
AcDbEntity
  8
1
100
AcDbLine
 10
1002.766365650728
 20
5694.362935220167
 30
0.0
 11
1002.766365650728
 21
5691.362935220166
 31
0.0
  0
LWPOLYLINE
  5
53FE
330
19
100
AcDbEntity
  8
1
100
AcDbPolyline
 90
        2
 70
     0
 43
0.0
 10
897.436062870906
 20
5975.362935220167
 10
736.2663656507308
 20
5975.362935220167
  0
LINE
  5
53FF
330
19
100
AcDbEntity
  8
1
100
AcDbLine
 10
917.7663656507297
 20
5967.362935220167
 30
0.0
 11
668.7663656507297
 21
5967.362935220167
 31
0.0
  0
LWPOLYLINE
  5
5400
330
19
100
AcDbEntity
  8
1
100
AcDbPolyline
 90
        2
 70
     0
 43
0.0
 10
897.436062870906
 20
5733.362935220167
 10
736.2663656507308
 20
5733.362935220167
  0
LWPOLYLINE
  5
5401
330
19
100
AcDbEntity
  8
1
100
AcDbPolyline
 90
        2
 70
     0
 43
0.0
 10
707.7663656507297
 20
5722.866971870884
 10
903.1663656507275
 20
5722.866971870884
  0
LINE
  5
5402
330
19
100
AcDbEntity
  8
1
100
AcDbLine
 10
917.7663656507302
 20
5741.362935220171
 30
0.0
 11
668.7663656507311
 21
5741.362935220166
 31
0.0
  0
LINE
  5
5403
330
19
100
AcDbEntity
  8
2
100
AcDbLine
 10
592.4032368048215
 20
5854.362935220167
 30
0.0
 11
1215.387913917213
 21
5854.362935220167
 31
0.0
1001
ACAD
1000
ASC_BOUNDS
1002
{
1070
    19
1005
0
1005
0
1002
}
  0
LINE
  5
5404
330
19
100
AcDbEntity
  8
1
100
AcDbLine
 10
835.7663656507279
 20
5712.090614653588
 30
0.0
 11
999.7663656507279
 21
5712.090614653588
 31
0.0
  0
LINE
  5
5405
330
19
100
AcDbEntity
  8
1
100
AcDbLine
 10
653.7663656507297
 20
5952.362935220167
 30
0.0
 11
653.7663656507306
 21
5756.362935220167
 31
0.0
  0
ARC
  5
5406
330
19
100
AcDbEntity
  8
1
100
AcDbCircle
 10
668.7663656507306
 20
5756.362935220167
 30
0.0
 40
15.0
100
AcDbArc
 50
180.0
 51
270.0
  0
ARC
  5
5407
330
19
100
AcDbEntity
  8
1
100
AcDbCircle
 10
835.7662656507278
 20
5709.090614653588
 30
0.0
 40
2.999899999999999
100
AcDbArc
 50
89.99879999999965
 51
180.0012000000166
  0
ARC
  5
5408
330
19
100
AcDbEntity
  8
1
100
AcDbCircle
 10
738.1117854627391
 20
5774.936788372065
 30
0.0
 40
48.65638419258441
100
AcDbArc
 50
303.5000336652369
 51
316.3683487231403
  0
LINE
  5
5409
330
19
100
AcDbEntity
  8
1
100
AcDbLine
 10
735.2663656507306
 20
5740.362935220167
 30
0.0
 11
735.2663656507306
 21
5734.362935220167
 31
0.0
  0
LINE
  5
540A
330
19
100
AcDbEntity
  8
1
100
AcDbLine
 10
736.2663656507288
 20
5741.362935220166
 30
0.0
 11
736.2663656507306
 21
5735.362935220167
 31
0.0
  0
ARC
  5
540B
330
19
100
AcDbEntity
  8
1
100
AcDbCircle
 10
736.2663656507306
 20
5734.362935220167
 30
0.0
 40
1.0
100
AcDbArc
 50
180.0
 51
270.0
  0
ARC
  5
540C
330
19
100
AcDbEntity
  8
1
100
AcDbCircle
 10
737.2663656507306
 20
5735.362935220167
 30
0.0
 40
1.0
100
AcDbArc
 50
180.0
 51
270.0
  0
ARC
  5
540D
330
19
100
AcDbEntity
  8
1
100
AcDbCircle
 10
734.2663656507307
 20
5740.362935220167
 30
0.0
 40
1.0
100
AcDbArc
 50
0.0
 51
90.0
  0
LINE
  5
540E
330
19
100
AcDbEntity
  8
1
100
AcDbLine
 10
737.2663656507306
 20
5734.362935220167
 30
0.0
 11
764.9670673101631
 21
5734.362935220167
 31
0.0
  0
LINE
  5
540F
330
19
100
AcDbEntity
  8
CT
100
AcDbLine
 10
670.0740774540886
 20
5702.362935220167
 30
0.0
 11
700.7663656507297
 21
5702.362935220167
 31
0.0
  0
LINE
  5
5410
330
19
100
AcDbEntity
  8
1
100
AcDbLine
 10
707.7663656507297
 20
5732.362935220177
 30
0.0
 11
667.7663656507302
 21
5732.362935220177
 31
0.0
  0
ARC
  5
5411
330
19
100
AcDbEntity
  8
1
100
AcDbCircle
 10
668.7663656507297
 20
5952.362935220167
 30
0.0
 40
15.0
100
AcDbArc
 50
90.0
 51
180.0
  0
ARC
  5
5412
330
19
100
AcDbEntity
  8
1
100
AcDbCircle
 10
738.1117854627391
 20
5933.789082068269
 30
0.0
 40
48.65638419258441
100
AcDbArc
 50
43.63165127685967
 51
56.4999663347631
  0
ARC
  5
5413
330
19
100
AcDbEntity
  8
1
100
AcDbCircle
 10
737.2663656507306
 20
5973.362935220166
 30
0.0
 40
1.0
100
AcDbArc
 50
90.0
 51
180.0
  0
ARC
  5
5414
330
19
100
AcDbEntity
  8
1
100
AcDbCircle
 10
736.2663656507306
 20
5974.362935220167
 30
0.0
 40
1.0
100
AcDbArc
 50
90.0
 51
180.0
  0
LINE
  5
5415
330
19
100
AcDbEntity
  8
1
100
AcDbLine
 10
736.2663656507288
 20
5967.362935220171
 30
0.0
 11
736.2663656507306
 21
5973.362935220171
 31
0.0
  0
LINE
  5
5416
330
19
100
AcDbEntity
  8
1
100
AcDbLine
 10
735.2663656507306
 20
5968.362935220167
 30
0.0
 11
735.2663656507306
 21
5974.36293522017
 31
0.0
  0
ARC
  5
5417
330
19
100
AcDbEntity
  8
1
100
AcDbCircle
 10
734.2663656507307
 20
5968.362935220167
 30
0.0
 40
1.0
100
AcDbArc
 50
270.0
 51
0.0
  0
LINE
  5
5418
330
19
100
AcDbEntity
  8
1
100
AcDbLine
 10
737.2663656507306
 20
5974.36293522017
 30
0.0
 11
764.9670673101631
 21
5974.362935220167
 31
0.0
  0
LINE
  5
5419
330
19
100
AcDbEntity
  8
1
100
AcDbLine
 10
1147.766365650733
 20
5948.562935220167
 30
0.0
 11
1147.766365650733
 21
5760.162935220169
 31
0.0
  0
LWPOLYLINE
  5
541A
330
19
100
AcDbEntity
  8
1
100
AcDbPolyline
 90
        2
 70
     0
 43
0.0
 10
932.3662656507281
 20
5722.866971870884
 10
1127.766365650729
 20
5722.866971870884
  0
LWPOLYLINE
  5
541B
330
19
100
AcDbEntity
  8
1
100
AcDbPolyline
 90
        3
 70
     0
 43
0.0
 10
1099.26636565073
 20
5733.362935220167
 10
917.7663656507297
 20
5733.362935220167
 10
897.436062870906
 20
5733.362935220167
  0
LINE
  5
541C
330
19
100
AcDbEntity
  8
1
100
AcDbLine
 10
1167.766365650732
 20
5741.362935220166
 30
0.0
 11
917.7663656507302
 21
5741.362935220166
 31
0.0
  0
ARC
  5
541D
330
19
100
AcDbEntity
  8
1
100
AcDbCircle
 10
999.766465650728
 20
5709.090614653588
 30
0.0
 40
2.999899999999999
100
AcDbArc
 50
359.9987999999834
 51
90.00120000000034
  0
LINE
  5
541E
330
19
100
AcDbEntity
  8
1
100
AcDbLine
 10
932.3662656507281
 20
5718.090614653588
 30
0.0
 11
932.3662656507281
 21
5741.362935220166
 31
0.0
  0
LINE
  5
541F
330
19
100
AcDbEntity
  8
1
100
AcDbLine
 10
957.7663656507279
 20
5712.090614653588
 30
0.0
 11
957.7663656507279
 21
5715.090614653588
 31
0.0
  0
ARC
  5
5420
330
19
100
AcDbEntity
  8
1
100
AcDbCircle
 10
954.766365650728
 20
5715.090614653588
 30
0.0
 40
2.999899999999999
100
AcDbArc
 50
359.9987999999834
 51
90.00120000000034
  0
LINE
  5
5421
330
19
100
AcDbEntity
  8
1
100
AcDbLine
 10
903.1663656507275
 20
5718.090614653588
 30
0.0
 11
903.1663656507275
 21
5741.362935220171
 31
0.0
  0
LINE
  5
5422
330
19
100
AcDbEntity
  8
1
100
AcDbLine
 10
877.7663656507279
 20
5712.090614653588
 30
0.0
 11
877.7663656507279
 21
5715.090614653588
 31
0.0
  0
ARC
  5
5423
330
19
100
AcDbEntity
  8
1
100
AcDbCircle
 10
880.7662656507277
 20
5715.090614653588
 30
0.0
 40
2.999899999999999
100
AcDbArc
 50
89.99879999999965
 51
180.0012000000166
  0
LINE
  5
5424
330
19
100
AcDbEntity
  8
1
100
AcDbLine
 10
954.766365650728
 20
5718.090614653588
 30
0.0
 11
880.766365650728
 21
5718.090614653588
 31
0.0
  0
LINE
  5
5425
330
19
100
AcDbEntity
  8
1
100
AcDbLine
 10
1167.766365650732
 20
5721.362935220167
 30
0.0
 11
1166.566365650733
 21
5721.362935220167
 31
0.0
1001
ACAD
1000
ASC_BOUNDS
1002
{
1070
    19
1002
}
  0
LINE
  5
5426
330
19
100
AcDbEntity
  8
CT
100
AcDbLine
 10
1165.458653847368
 20
5702.362935220167
 30
0.0
 11
1134.766365650727
 21
5702.362935220167
 31
0.0
  0
LINE
  5
5427
330
19
100
AcDbEntity
  8
FUTO
100
AcDbLine
 10
1127.766365650729
 20
5732.362935220167
 30
0.0
 11
1167.766365650733
 21
5732.362935220167
 31
0.0
  0
LINE
  5
5428
330
19
100
AcDbEntity
  8
1
100
AcDbLine
 10
1166.566365650733
 20
5741.362935220166
 30
0.0
 11
1147.766365650732
 21
5760.162935220169
 31
0.0
  0
LINE
  5
5429
330
19
100
AcDbEntity
  8
1
100
AcDbLine
 10
1099.26636565073
 20
5741.362935220166
 30
0.0
 11
1099.26636565073
 21
5735.362935220167
 31
0.0
  0
LINE
  5
542A
330
19
100
AcDbEntity
  8
1
100
AcDbLine
 10
1100.266365650729
 20
5740.362935220167
 30
0.0
 11
1100.26636565073
 21
5734.362935220167
 31
0.0
  0
ARC
  5
542B
330
19
100
AcDbEntity
  8
1
100
AcDbCircle
 10
1099.26636565073
 20
5734.362935220167
 30
0.0
 40
1.0
100
AcDbArc
 50
270.0
 51
0.0
  0
ARC
  5
542C
330
19
100
AcDbEntity
  8
1
100
AcDbCircle
 10
1098.266365650729
 20
5735.362935220167
 30
0.0
 40
1.0
100
AcDbArc
 50
270.0
 51
0.0
  0
ARC
  5
542D
330
19
100
AcDbEntity
  8
1
100
AcDbCircle
 10
1099.266365650731
 20
5734.362935220167
 30
0.0
 40
1.0
100
AcDbArc
 50
270.0
 51
0.0
  0
ARC
  5
542E
330
19
100
AcDbEntity
  8
1
100
AcDbCircle
 10
1101.266365650729
 20
5740.362935220167
 30
0.0
 40
1.0
100
AcDbArc
 50
90.0
 51
180.0
  0
ARC
  5
542F
330
19
100
AcDbEntity
  8
1
100
AcDbCircle
 10
1097.42094583872
 20
5774.936788372065
 30
0.0
 40
48.65638419258441
100
AcDbArc
 50
223.6316512768597
 51
236.4999663347631
  0
LINE
  5
5430
330
19
100
AcDbEntity
  8
1
100
AcDbLine
 10
1098.266365650729
 20
5734.362935220167
 30
0.0
 11
1070.565663991295
 21
5734.362935220167
 31
0.0
  0
LINE
  5
5431
330
19
100
AcDbEntity
  8
1
100
AcDbLine
 10
1167.766365650733
 20
5967.362935220167
 30
0.0
 11
917.7663656507297
 21
5967.362935220167
 31
0.0
  0
LWPOLYLINE
  5
5432
330
19
100
AcDbEntity
  8
1
100
AcDbPolyline
 90
        3
 70
     0
 43
0.0
 10
1099.26636565073
 20
5975.362935220167
 10
917.7663656507297
 20
5975.362935220167
 10
897.436062870906
 20
5975.362935220167
  0
LINE
  5
5433
330
19
100
AcDbEntity
  8
1
100
AcDbLine
 10
1166.566365650733
 20
5967.362935220167
 30
0.0
 11
1147.766365650733
 21
5948.562935220167
 31
0.0
  0
ARC
  5
5434
330
19
100
AcDbEntity
  8
1
100
AcDbCircle
 10
1101.266365650729
 20
5968.362935220167
 30
0.0
 40
1.0
100
AcDbArc
 50
180.0
 51
270.0
  0
LINE
  5
5435
330
19
100
AcDbEntity
  8
1
100
AcDbLine
 10
1100.266365650729
 20
5968.362935220167
 30
0.0
 11
1100.26636565073
 21
5974.362935220167
 31
0.0
  0
LINE
  5
5436
330
19
100
AcDbEntity
  8
1
100
AcDbLine
 10
1099.26636565073
 20
5967.362935220167
 30
0.0
 11
1099.26636565073
 21
5973.362935220166
 31
0.0
  0
ARC
  5
5437
330
19
100
AcDbEntity
  8
1
100
AcDbCircle
 10
1099.266365650731
 20
5974.362935220167
 30
0.0
 40
1.0
100
AcDbArc
 50
0.0
 51
90.0
  0
ARC
  5
5438
330
19
100
AcDbEntity
  8
1
100
AcDbCircle
 10
1098.266365650729
 20
5973.362935220166
 30
0.0
 40
1.0
100
AcDbArc
 50
0.0
 51
90.0
  0
ARC
  5
5439
330
19
100
AcDbEntity
  8
1
100
AcDbCircle
 10
1099.26636565073
 20
5974.362935220167
 30
0.0
 40
1.0
100
AcDbArc
 50
0.0
 51
90.0
  0
ARC
  5
543A
330
19
100
AcDbEntity
  8
1
100
AcDbCircle
 10
1097.42094583872
 20
5933.789082068269
 30
0.0
 40
48.65638419258441
100
AcDbArc
 50
123.5000336652369
 51
136.3683487231403
  0
LINE
  5
543B
330
19
100
AcDbEntity
  8
1
100
AcDbLine
 10
1098.266365650729
 20
5974.362935220167
 30
0.0
 11
1070.565663991295
 21
5974.362935220167
 31
0.0
  0
LINE
  5
543C
330
19
100
AcDbEntity
  8
1
100
AcDbLine
 10
1167.766365650732
 20
5987.362935220167
 30
0.0
 11
1166.566365650733
 21
5987.362935220167
 31
0.0
1001
ACAD
1000
ASC_BOUNDS
1002
{
1070
    19
1002
}
  0
LWPOLYLINE
  5
59E3
330
19
100
AcDbEntity
  8
1
100
AcDbPolyline
 90
        3
 70
     0
 43
0.0
 10
2414.221875722607
 20
4684.135294509083
 10
2414.221875722609
 20
4502.635294509082
 10
2414.221875722609
 20
4321.135294509083
  0
LINE
  5
59E4
330
19
100
AcDbEntity
  8
1
100
AcDbLine
 10
2407.221875722607
 20
4320.135294509085
 30
0.0
 11
2413.221875722609
 21
4320.135294509085
 31
0.0
  0
ARC
  5
59E5
330
19
100
AcDbEntity
  8
1
100
AcDbCircle
 10
2407.221875722607
 20
4319.135294509083
 30
0.0
 40
1.0
100
AcDbArc
 50
90.0
 51
180.0
  0
ARC
  5
59E6
330
19
100
AcDbEntity
  8
1
100
AcDbCircle
 10
2413.221875722607
 20
4321.135294509083
 30
0.0
 40
1.0
100
AcDbArc
 50
270.0
 51
0.0
  0
LINE
  5
59E7
330
19
100
AcDbEntity
  8
FUTO
100
AcDbLine
 10
2414.221875722609
 20
4345.135294509081
 30
0.0
 11
2406.221875722603
 21
4345.135294509081
 31
0.0
  0
LINE
  5
59E8
330
19
100
AcDbEntity
  8
FUTO
100
AcDbLine
 10
2414.221875722607
 20
4660.135294509081
 30
0.0
 11
2406.221875722603
 21
4660.135294509081
 31
0.0
  0
LINE
  5
59E9
330
19
100
AcDbEntity
  8
1
100
AcDbLine
 10
2407.221875722607
 20
4685.135294509083
 30
0.0
 11
2413.221875722607
 21
4685.135294509083
 31
0.0
  0
ARC
  5
59EA
330
19
100
AcDbEntity
  8
1
100
AcDbCircle
 10
2407.221875722607
 20
4686.135294509082
 30
0.0
 40
1.0
100
AcDbArc
 50
180.0
 51
270.0
  0
ARC
  5
59EB
330
19
100
AcDbEntity
  8
1
100
AcDbCircle
 10
2413.221875722607
 20
4684.135294509082
 30
0.0
 40
1.0
100
AcDbArc
 50
0.0
 51
90.0
  0
LINE
  5
59FE
330
19
100
AcDbEntity
  8
1
100
AcDbLine
 10
2405.221875722604
 20
4481.135294509232
 30
0.0
 11
2405.221875722606
 21
4295.348074392608
 31
0.0
  0
ARC
  5
59FF
330
19
100
AcDbEntity
  8
FUTO
100
AcDbCircle
 10
2391.221875722607
 20
4295.348074392609
 30
0.0
 40
14.0
100
AcDbArc
 50
269.9999999999984
 51
0.0
  0
LINE
  5
5A00
330
19
100
AcDbEntity
  8
FUTO
100
AcDbLine
 10
2195.221875722606
 20
4281.348074392608
 30
0.0
 11
2391.221875722607
 21
4281.348074392608
 31
0.0
  0
ARC
  5
5A01
330
19
100
AcDbEntity
  8
FUTO
100
AcDbCircle
 10
2195.221875722606
 20
4295.348074392609
 30
0.0
 40
14.0
100
AcDbArc
 50
180.0
 51
269.9999999999984
  0
LINE
  5
5A02
330
19
100
AcDbEntity
  8
1
100
AcDbLine
 10
2181.221875722608
 20
4481.507934075761
 30
0.0
 11
2181.221875722607
 21
4295.348074392608
 31
0.0
  0
LINE
  5
5B58
330
19
100
AcDbEntity
  8
1
100
AcDbLine
 10
2172.221875722606
 20
4321.135294509079
 30
0.0
 11
2172.221875722606
 21
4484.781138005015
 31
0.0
  0
DIMENSION
  5
5B59
330
19
100
AcDbEntity
  8
SP
100
AcDbDimension
  2
*D26
 10
1872.221875723596
 20
5038.635294509075
 30
0.0
 11
2082.721875723101
 21
5087.92100879479
 31
0.0
 70
    32
  1
(420)
 71
     5
 42
420.9999999990104
  3
GOD
100
AcDbAlignedDimension
 13
2293.221875722606
 23
4993.635294509076
 33
0.0
 14
1872.221875723596
 24
4586.216234822138
 34
0.0
100
AcDbRotatedDimension
1001
ACAD
1000
DSTYLE
1002
{
1070
   279
1070
     1
1002
}
  0
DIMENSION
  5
5B7A
330
19
100
AcDbEntity
  8
SP
100
AcDbDimension
  2
*D27
 10
2293.221875722606
 20
4042.635294509083
 30
0.0
 11
2424.995286125522
 21
4042.54145211067
 31
0.0
 70
   160
 71
     5
 42
121.9999999999991
  3
GOD
100
AcDbAlignedDimension
 13
2171.221875722608
 23
4150.835294509081
 33
0.0
 14
2293.221875722606
 24
4213.196782543493
 34
0.0
100
AcDbRotatedDimension
1001
ACAD
1000
DSTYLE
1002
{
1070
   279
1070
     1
1002
}
  0
ENDSEC
  0
SECTION
  2
OBJECTS
  0
DICTIONARY
  5
C
330
0
100
AcDbDictionary
281
     1
  3
ACAD_CIP_PREVIOUS_PRODUCT_INFO
350
5A5F
  3
ACAD_COLOR
350
5A41
  3
ACAD_DETAILVIEWSTYLE
350
5A5A
  3
ACAD_GROUP
350
D
  3
ACAD_LAYOUT
350
1E92
  3
ACAD_MATERIAL
350
5A0F
  3
ACAD_MLEADERSTYLE
350
5A56
  3
ACAD_MLINESTYLE
350
E
  3
ACAD_PLOTSETTINGS
350
1E93
  3
ACAD_PLOTSTYLENAME
350
1E90
  3
ACAD_SCALELIST
350
5A44
  3
ACAD_SECTIONVIEWSTYLE
350
5A58
  3
ACAD_TABLESTYLE
350
5A42
  3
ACAD_VISUALSTYLE
350
5A28
  3
AcadDim
350
1EC5
  3
ACDB_RECOMPOSE_DATA
350
5BFF
  3
AcDbVariableDictionary
350
5BE9
  3
AcDsDecomposeData
350
5C06
  3
DWGPROPS
350
5C00
  0
DICTIONARY
  5
5BD6
330
2
100
AcDbDictionary
280
     1
281
     1
  3
ACAD_LAYERSTATES
360
5BD7
  0
DICTIONARY
  5
5BBB
330
F
100
AcDbDictionary
280
     1
281
     1
  3
ADSK_XREC_LAYER_RECONCILED
360
5BBC
  0
DICTIONARY
  5
5BBD
330
2F
100
AcDbDictionary
280
     1
281
     1
  3
ADSK_XREC_LAYER_RECONCILED
360
5BBE
  0
DICTIONARY
  5
5BBF
330
30
100
AcDbDictionary
280
     1
281
     1
  3
ADSK_XREC_LAYER_RECONCILED
360
5BC0
  0
DICTIONARY
  5
5BC1
330
32
100
AcDbDictionary
280
     1
281
     1
  3
ADSK_XREC_LAYER_RECONCILED
360
5BC2
  0
DICTIONARY
  5
5BC3
330
33
100
AcDbDictionary
280
     1
281
     1
  3
ADSK_XREC_LAYER_RECONCILED
360
5BC4
  0
DICTIONARY
  5
5BC5
330
34
100
AcDbDictionary
280
     1
281
     1
  3
ADSK_XREC_LAYER_RECONCILED
360
5BC6
  0
DICTIONARY
  5
5BC7
330
35
100
AcDbDictionary
280
     1
281
     1
  3
ADSK_XREC_LAYER_RECONCILED
360
5BC8
  0
DICTIONARY
  5
5BC9
330
36
100
AcDbDictionary
280
     1
281
     1
  3
ADSK_XREC_LAYER_RECONCILED
360
5BCA
  0
DICTIONARY
  5
5BCB
330
1EEE
100
AcDbDictionary
280
     1
281
     1
  3
ADSK_XREC_LAYER_RECONCILED
360
5BCC
  0
DICTIONARY
  5
5BCD
330
1EEF
100
AcDbDictionary
280
     1
281
     1
  3
ADSK_XREC_LAYER_RECONCILED
360
5BCE
  0
DICTIONARY
  5
5BCF
330
1EF0
100
AcDbDictionary
280
     1
281
     1
  3
ADSK_XREC_LAYER_RECONCILED
360
5BD0
  0
DICTIONARY
  5
5BD1
330
2188
100
AcDbDictionary
280
     1
281
     1
  3
ADSK_XREC_LAYER_RECONCILED
360
5BD2
  0
XRECORD
  5
5A5F
102
{ACAD_REACTORS
330
C
102
}
330
C
100
AcDbXrecord
280
     1
300
ACDLT
300
2015
300
INVLTS_F_S
  0
DICTIONARY
  5
5A41
102
{ACAD_REACTORS
330
C
102
}
330
C
100
AcDbDictionary
281
     1
  0
DICTIONARY
  5
5A5A
102
{ACAD_REACTORS
330
C
102
}
330
C
100
AcDbDictionary
281
     1
  3
Metric50
350
5A5B
  0
DICTIONARY
  5
D
102
{ACAD_REACTORS
330
C
102
}
330
C
100
AcDbDictionary
281
     1
  0
DICTIONARY
  5
1E92
102
{ACAD_REACTORS
330
C
102
}
330
C
100
AcDbDictionary
281
     1
  3
Model
350
1E94
  3
ﾚｲｱｳﾄ1
350
1E95
  0
DICTIONARY
  5
5A0F
102
{ACAD_REACTORS
330
C
102
}
330
C
100
AcDbDictionary
281
     1
  3
ByBlock
350
5A18
  3
ByLayer
350
5A10
  3
Global
350
5A20
  0
DICTIONARY
  5
5A56
102
{ACAD_REACTORS
330
C
102
}
330
C
100
AcDbDictionary
281
     1
  3
Standard
350
5A57
  0
DICTIONARY
  5
E
102
{ACAD_REACTORS
330
C
102
}
330
C
100
AcDbDictionary
281
     1
  3
STANDARD
350
1C
  0
DICTIONARY
  5
1E93
102
{ACAD_REACTORS
330
C
102
}
330
C
100
AcDbDictionary
281
     1
  0
ACDBDICTIONARYWDFLT
  5
1E90
102
{ACAD_REACTORS
330
C
102
}
330
C
100
AcDbDictionary
281
     1
  3
Normal
350
1E91
100
AcDbDictionaryWithDefault
340
1E91
  0
DICTIONARY
  5
5A44
102
{ACAD_REACTORS
330
C
102
}
330
C
100
AcDbDictionary
281
     1
  3
A0
350
5A45
  3
A1
350
5A46
  3
A2
350
5A47
  3
A3
350
5A48
  3
A4
350
5A49
  3
A5
350
5A4A
  3
A6
350
5A4B
  3
A7
350
5A4C
  3
A8
350
5A4D
  3
A9
350
5A4E
  3
B0
350
5A4F
  3
B1
350
5A50
  3
B2
350
5A51
  3
B3
350
5A52
  3
B4
350
5A53
  3
B5
350
5A54
  3
B6
350
5A55
  0
DICTIONARY
  5
5A58
102
{ACAD_REACTORS
330
C
102
}
330
C
100
AcDbDictionary
281
     1
  3
Metric50
350
5A59
  0
DICTIONARY
  5
5A42
102
{ACAD_REACTORS
330
C
102
}
330
C
100
AcDbDictionary
281
     1
  3
Standard
350
5A43
  0
DICTIONARY
  5
5A28
102
{ACAD_REACTORS
330
C
102
}
330
C
100
AcDbDictionary
281
     1
  3
2dWireframe
350
5A2E
  3
Basic
350
5A2D
  3
Brighten
350
5A34
  3
ColorChange
350
5A38
  3
Conceptual
350
5A31
  3
Dim
350
5A33
  3
EdgeColorOff
350
5A40
  3
Facepattern
350
5A37
  3
Flat
350
5A29
  3
FlatWithEdges
350
5A2A
  3
Gouraud
350
5A2B
  3
GouraudWithEdges
350
5A2C
  3
Hidden
350
5A30
  3
JitterOff
350
5A3E
  3
Linepattern
350
5A36
  3
OverhangOff
350
5A3F
  3
Realistic
350
5A32
  3
Shaded
350
5A3D
  3
Shaded with edges
350
5A3C
  3
Shades of Gray
350
5A39
  3
Sketchy
350
5A3A
  3
Thicken
350
5A35
  3
Wireframe
350
5A2F
  3
X-Ray
350
5A3B
  0
XRECORD
  5
1EC5
102
{ACAD_REACTORS
330
C
102
}
330
C
100
AcDbXrecord
280
     1
 90
   990106
  3

 60
     0
 61
     0
 62
     4
 63
     4
 64
     1
 65
     0
 66
     1
 67
     3
 68
     1
 69
     0
 70
     0
 71
     0
 72
     0
 40
0.0
170
     1
340
0
  0
XRECORD
  5
5BFF
102
{ACAD_REACTORS
330
C
102
}
330
C
100
AcDbXrecord
280
     1
 90
        1
330
5A43
  0
DICTIONARY
  5
5BE9
102
{ACAD_REACTORS
330
C
102
}
330
C
100
AcDbDictionary
281
     1
  3
CANNOSCALE
350
5BEF
  3
CMLEADERSTYLE
350
5BEB
  3
CTABLESTYLE
350
5BEA
  3
CVIEWDETAILSTYLE
350
5BEC
  3
CVIEWSECTIONSTYLE
350
5BED
  3
DIMASSOC
350
5BFB
  3
INDEXCTL
350
5BFA
  3
LAYEREVAL
350
5BF1
  3
LAYERNOTIFY
350
5BF2
  3
LIGHTINGUNITS
350
5BF0
  3
MSLTSCALE
350
5BEE
  3
SORTENTS
350
5BF9
  3
XCLIPFRAME
350
5BFC
  0
DICTIONARY
  5
5C06
102
{ACAD_REACTORS
330
C
102
}
330
C
100
AcDbDictionary
281
     1
  3
AcDsRecords
350
5C08
  3
AcDsSchemas
350
5C07
1001
ACAD
1070
     2
  0
XRECORD
  5
5C00
102
{ACAD_REACTORS
330
C
102
}
330
C
100
AcDbXrecord
280
     1
  1
DWGPROPS COOKIE
  2

  3

  4

  6

  7

  8
toshiyuki.morita
  9

300
=
301
=
302
=
303
=
304
=
305
=
306
=
307
=
308
=
309
=
 40
0.1181887268518518
 41
2454939.604632489
 42
2459353.579797304
  1

 90
        0
  0
DICTIONARY
  5
5BD7
102
{ACAD_REACTORS
330
5BD6
102
}
330
5BD6
100
AcDbDictionary
281
     1
  0
XRECORD
  5
5BBC
102
{ACAD_REACTORS
330
5BBB
102
}
330
5BBB
100
AcDbXrecord
280
     1
290
     1
  0
XRECORD
  5
5BBE
102
{ACAD_REACTORS
330
5BBD
102
}
330
5BBD
100
AcDbXrecord
280
     1
290
     1
  0
XRECORD
  5
5BC0
102
{ACAD_REACTORS
330
5BBF
102
}
330
5BBF
100
AcDbXrecord
280
     1
290
     1
  0
XRECORD
  5
5BC2
102
{ACAD_REACTORS
330
5BC1
102
}
330
5BC1
100
AcDbXrecord
280
     1
290
     1
  0
XRECORD
  5
5BC4
102
{ACAD_REACTORS
330
5BC3
102
}
330
5BC3
100
AcDbXrecord
280
     1
290
     1
  0
XRECORD
  5
5BC6
102
{ACAD_REACTORS
330
5BC5
102
}
330
5BC5
100
AcDbXrecord
280
     1
290
     1
  0
XRECORD
  5
5BC8
102
{ACAD_REACTORS
330
5BC7
102
}
330
5BC7
100
AcDbXrecord
280
     1
290
     1
  0
XRECORD
  5
5BCA
102
{ACAD_REACTORS
330
5BC9
102
}
330
5BC9
100
AcDbXrecord
280
     1
290
     1
  0
XRECORD
  5
5BCC
102
{ACAD_REACTORS
330
5BCB
102
}
330
5BCB
100
AcDbXrecord
280
     1
290
     1
  0
XRECORD
  5
5BCE
102
{ACAD_REACTORS
330
5BCD
102
}
330
5BCD
100
AcDbXrecord
280
     1
290
     1
  0
XRECORD
  5
5BD0
102
{ACAD_REACTORS
330
5BCF
102
}
330
5BCF
100
AcDbXrecord
280
     1
290
     1
  0
XRECORD
  5
5BD2
102
{ACAD_REACTORS
330
5BD1
102
}
330
5BD1
100
AcDbXrecord
280
     1
290
     1
  0
ACDBDETAILVIEWSTYLE
  5
5A5B
102
{ACAD_XDICTIONARY
360
5BE7
102
}
102
{ACAD_REACTORS
330
5A5A
102
}
330
5A5A
100
AcDbModelDocViewStyle
 70
     0
  3
Metric50
290
     0
100
AcDbDetailViewStyle
 70
     0
 71
     0
 90
        3
 71
     1
340
10
 40
5.0
340
0
 40
5.0
300

 40
0.0
280
     1
 71
     2
340
15
 90
       25
 71
     3
340
10
 40
5.0
 90
        0
 40
15.0
 90
        1
300
%<\AcVar ViewDetailId>% (%<\AcVar ViewScale \f "%sn">%)
 71
     4
340
15
 90
       25
340
15
 90
       25
280
     0
  0
LAYOUT
  5
1E94
102
{ACAD_XDICTIONARY
360
5C09
102
}
102
{ACAD_REACTORS
330
1E92
102
}
330
1E92
100
AcDbPlotSettings
  1

  2
EPSON LP-9300
  4

  6

 40
0.0
 41
0.0
 42
0.0
 43
0.0
 44
0.0
 45
0.0
 46
0.0
 47
0.0
 48
0.0
 49
0.0
140
0.0
141
0.0
142
1.0
143
1.0
 70
  1712
 72
     0
 73
     0
 74
     0
  7
GOD2000TABLE.ctb
 75
     0
147
1.0
148
0.0
149
0.0
100
AcDbLayout
  1
Model
 70
     1
 71
     0
 10
0.0
 20
0.0
 11
12.0
 21
9.0
 12
0.0
 22
0.0
 32
0.0
 14
0.0
 24
0.0
 34
0.0
 15
0.0
 25
0.0
 35
0.0
146
0.0
 13
0.0
 23
0.0
 33
0.0
 16
1.0
 26
0.0
 36
0.0
 17
0.0
 27
1.0
 37
0.0
 76
     0
330
19
331
5A0D
  0
LAYOUT
  5
1E95
102
{ACAD_XDICTIONARY
360
5C0B
102
}
102
{ACAD_REACTORS
330
1E92
102
}
330
1E92
100
AcDbPlotSettings
  1

  2
EPSON LP-9300
  4

  6

 40
0.0
 41
0.0
 42
0.0
 43
0.0
 44
0.0
 45
0.0
 46
0.0
 47
0.0
 48
0.0
 49
0.0
140
0.0
141
0.0
142
1.0
143
1.0
 70
   688
 72
     0
 73
     0
 74
     5
  7
GOD2000TABLE.ctb
 75
    16
147
1.0
148
0.0
149
0.0
100
AcDbLayout
  1
ﾚｲｱｳﾄ1
 70
     0
 71
     1
 10
0.0
 20
0.0
 11
12.0
 21
9.0
 12
0.0
 22
0.0
 32
0.0
 14
1.000000000000000E+20
 24
1.000000000000000E+20
 34
1.000000000000000E+20
 15
-1.000000000000000E+20
 25
-1.000000000000000E+20
 35
-1.000000000000000E+20
146
0.0
 13
0.0
 23
0.0
 33
0.0
 16
1.0
 26
0.0
 36
0.0
 17
0.0
 27
1.0
 37
0.0
 76
     0
330
16
  0
MATERIAL
  5
5A18
102
{ACAD_XDICTIONARY
360
5A19
102
}
102
{ACAD_REACTORS
330
5A0F
102
}
330
5A0F
100
AcDbMaterial
  1
ByBlock
 72
     0
 43
0.0208333333333333
 43
0.0
 43
0.0
 43
0.0
 43
0.0
 43
0.0208333333333333
 43
0.0
 43
0.0
 43
0.0
 43
0.0
 43
1.0
 43
0.0
 43
0.0
 43
0.0
 43
0.0
 43
1.0
 77
     0
 47
0.0208333333333333
 47
0.0
 47
0.0
 47
0.0
 47
0.0
 47
0.0208333333333333
 47
0.0
 47
0.0
 47
0.0
 47
0.0
 47
1.0
 47
0.0
 47
0.0
 47
0.0
 47
0.0
 47
1.0
171
     0
 49
0.0208333333333333
 49
0.0
 49
0.0
 49
0.0
 49
0.0
 49
0.0208333333333333
 49
0.0
 49
0.0
 49
0.0
 49
0.0
 49
1.0
 49
0.0
 49
0.0
 49
0.0
 49
0.0
 49
1.0
175
     0
142
0.0208333333333333
142
0.0
142
0.0
142
0.0
142
0.0
142
0.0208333333333333
142
0.0
142
0.0
142
0.0
142
0.0
142
1.0
142
0.0
142
0.0
142
0.0
142
0.0
142
1.0
179
     0
144
0.0208333333333333
144
0.0
144
0.0
144
0.0
144
0.0
144
0.0208333333333333
144
0.0
144
0.0
144
0.0
144
0.0
144
1.0
144
0.0
144
0.0
144
0.0
144
0.0
144
1.0
147
0.0208333333333333
147
0.0
147
0.0
147
0.0
147
0.0
147
0.0208333333333333
147
0.0
147
0.0
147
0.0
147
0.0
147
1.0
147
0.0
147
0.0
147
0.0
147
0.0
147
1.0
  0
MATERIAL
  5
5A10
102
{ACAD_XDICTIONARY
360
5A11
102
}
102
{ACAD_REACTORS
330
5A0F
102
}
330
5A0F
100
AcDbMaterial
  1
ByLayer
 72
     0
 43
0.0208333333333333
 43
0.0
 43
0.0
 43
0.0
 43
0.0
 43
0.0208333333333333
 43
0.0
 43
0.0
 43
0.0
 43
0.0
 43
1.0
 43
0.0
 43
0.0
 43
0.0
 43
0.0
 43
1.0
 77
     0
 47
0.0208333333333333
 47
0.0
 47
0.0
 47
0.0
 47
0.0
 47
0.0208333333333333
 47
0.0
 47
0.0
 47
0.0
 47
0.0
 47
1.0
 47
0.0
 47
0.0
 47
0.0
 47
0.0
 47
1.0
171
     0
 49
0.0208333333333333
 49
0.0
 49
0.0
 49
0.0
 49
0.0
 49
0.0208333333333333
 49
0.0
 49
0.0
 49
0.0
 49
0.0
 49
1.0
 49
0.0
 49
0.0
 49
0.0
 49
0.0
 49
1.0
175
     0
142
0.0208333333333333
142
0.0
142
0.0
142
0.0
142
0.0
142
0.0208333333333333
142
0.0
142
0.0
142
0.0
142
0.0
142
1.0
142
0.0
142
0.0
142
0.0
142
0.0
142
1.0
179
     0
144
0.0208333333333333
144
0.0
144
0.0
144
0.0
144
0.0
144
0.0208333333333333
144
0.0
144
0.0
144
0.0
144
0.0
144
1.0
144
0.0
144
0.0
144
0.0
144
0.0
144
1.0
147
0.0208333333333333
147
0.0
147
0.0
147
0.0
147
0.0
147
0.0208333333333333
147
0.0
147
0.0
147
0.0
147
0.0
147
1.0
147
0.0
147
0.0
147
0.0
147
0.0
147
1.0
  0
MATERIAL
  5
5A20
102
{ACAD_XDICTIONARY
360
5A21
102
}
102
{ACAD_REACTORS
330
5A0F
102
}
330
5A0F
100
AcDbMaterial
  1
Global
 72
     0
 43
0.0208333333333333
 43
0.0
 43
0.0
 43
0.0
 43
0.0
 43
0.0208333333333333
 43
0.0
 43
0.0
 43
0.0
 43
0.0
 43
1.0
 43
0.0
 43
0.0
 43
0.0
 43
0.0
 43
1.0
 77
     0
 47
0.0208333333333333
 47
0.0
 47
0.0
 47
0.0
 47
0.0
 47
0.0208333333333333
 47
0.0
 47
0.0
 47
0.0
 47
0.0
 47
1.0
 47
0.0
 47
0.0
 47
0.0
 47
0.0
 47
1.0
171
     0
 49
0.0208333333333333
 49
0.0
 49
0.0
 49
0.0
 49
0.0
 49
0.0208333333333333
 49
0.0
 49
0.0
 49
0.0
 49
0.0
 49
1.0
 49
0.0
 49
0.0
 49
0.0
 49
0.0
 49
1.0
175
     0
142
0.0208333333333333
142
0.0
142
0.0
142
0.0
142
0.0
142
0.0208333333333333
142
0.0
142
0.0
142
0.0
142
0.0
142
1.0
142
0.0
142
0.0
142
0.0
142
0.0
142
1.0
179
     0
144
0.0208333333333333
144
0.0
144
0.0
144
0.0
144
0.0
144
0.0208333333333333
144
0.0
144
0.0
144
0.0
144
0.0
144
1.0
144
0.0
144
0.0
144
0.0
144
0.0
144
1.0
147
0.0208333333333333
147
0.0
147
0.0
147
0.0
147
0.0
147
0.0208333333333333
147
0.0
147
0.0
147
0.0
147
0.0
147
1.0
147
0.0
147
0.0
147
0.0
147
0.0
147
1.0
  0
MLEADERSTYLE
  5
5A57
102
{ACAD_XDICTIONARY
360
5C42
102
}
102
{ACAD_REACTORS
330
5A56
102
}
330
5A56
100
AcDbMLeaderStyle
170
     2
171
     1
172
     0
 90
        2
 40
0.0
 41
0.0
173
     1
 91
-1056964608
340
13
 92
       -2
290
     1
 42
2.0
291
     1
 43
0.36
  3
Standard
 44
4.0
300

342
10
174
     1
178
     6
175
     1
176
     0
 93
-1056964608
 45
4.0
292
     0
297
     0
 46
4.0
 94
-1056964608
 47
1.0
 49
1.0
140
1.0
293
     1
141
0.0
294
     1
177
     0
142
1.0
295
     0
296
     0
143
0.125
1001
ACAD_MLEADERVER
1070
     2
  0
MLINESTYLE
  5
1C
102
{ACAD_REACTORS
330
E
102
}
330
E
100
AcDbMlineStyle
  2
STANDARD
 70
     0
  3

 62
     0
 51
90.0
 52
90.0
 71
     2
 49
0.5
 62
   256
  6
BYLAYER
 49
-0.5
 62
   256
  6
BYLAYER
  0
ACDBPLACEHOLDER
  5
1E91
102
{ACAD_REACTORS
330
1E90
102
}
330
1E90
  0
SCALE
  5
5A45
102
{ACAD_REACTORS
330
5A44
102
}
330
5A44
100
AcDbScale
 70
     0
300
1:1
140
1.0
141
1.0
290
     1
  0
SCALE
  5
5A46
102
{ACAD_REACTORS
330
5A44
102
}
330
5A44
100
AcDbScale
 70
     0
300
1:2
140
1.0
141
2.0
290
     0
  0
SCALE
  5
5A47
102
{ACAD_REACTORS
330
5A44
102
}
330
5A44
100
AcDbScale
 70
     0
300
1:4
140
1.0
141
4.0
290
     0
  0
SCALE
  5
5A48
102
{ACAD_REACTORS
330
5A44
102
}
330
5A44
100
AcDbScale
 70
     0
300
1:5
140
1.0
141
5.0
290
     0
  0
SCALE
  5
5A49
102
{ACAD_REACTORS
330
5A44
102
}
330
5A44
100
AcDbScale
 70
     0
300
1:8
140
1.0
141
8.0
290
     0
  0
SCALE
  5
5A4A
102
{ACAD_REACTORS
330
5A44
102
}
330
5A44
100
AcDbScale
 70
     0
300
1:10
140
1.0
141
10.0
290
     0
  0
SCALE
  5
5A4B
102
{ACAD_REACTORS
330
5A44
102
}
330
5A44
100
AcDbScale
 70
     0
300
1:16
140
1.0
141
16.0
290
     0
  0
SCALE
  5
5A4C
102
{ACAD_REACTORS
330
5A44
102
}
330
5A44
100
AcDbScale
 70
     0
300
1:20
140
1.0
141
20.0
290
     0
  0
SCALE
  5
5A4D
102
{ACAD_REACTORS
330
5A44
102
}
330
5A44
100
AcDbScale
 70
     0
300
1:30
140
1.0
141
30.0
290
     0
  0
SCALE
  5
5A4E
102
{ACAD_REACTORS
330
5A44
102
}
330
5A44
100
AcDbScale
 70
     0
300
1:40
140
1.0
141
40.0
290
     0
  0
SCALE
  5
5A4F
102
{ACAD_REACTORS
330
5A44
102
}
330
5A44
100
AcDbScale
 70
     0
300
1:50
140
1.0
141
50.0
290
     0
  0
SCALE
  5
5A50
102
{ACAD_REACTORS
330
5A44
102
}
330
5A44
100
AcDbScale
 70
     0
300
1:100
140
1.0
141
100.0
290
     0
  0
SCALE
  5
5A51
102
{ACAD_REACTORS
330
5A44
102
}
330
5A44
100
AcDbScale
 70
     0
300
2:1
140
2.0
141
1.0
290
     0
  0
SCALE
  5
5A52
102
{ACAD_REACTORS
330
5A44
102
}
330
5A44
100
AcDbScale
 70
     0
300
4:1
140
4.0
141
1.0
290
     0
  0
SCALE
  5
5A53
102
{ACAD_REACTORS
330
5A44
102
}
330
5A44
100
AcDbScale
 70
     0
300
8:1
140
8.0
141
1.0
290
     0
  0
SCALE
  5
5A54
102
{ACAD_REACTORS
330
5A44
102
}
330
5A44
100
AcDbScale
 70
     0
300
10:1
140
10.0
141
1.0
290
     0
  0
SCALE
  5
5A55
102
{ACAD_REACTORS
330
5A44
102
}
330
5A44
100
AcDbScale
 70
     0
300
100:1
140
100.0
141
1.0
290
     0
  0
ACDBSECTIONVIEWSTYLE
  5
5A59
102
{ACAD_XDICTIONARY
360
5BE5
102
}
102
{ACAD_REACTORS
330
5A58
102
}
330
5A58
100
AcDbModelDocViewStyle
 70
     0
  3
Metric50
290
     0
100
AcDbSectionViewStyle
 70
     0
 71
     0
 90
      102
 71
     1
340
10
 40
5.0
340
0
340
0
 40
5.0
300
I, O, Q, S, X, Z
 40
10.0
 90
        0
 40
2.5
 90
        0
 71
     2
340
15
 90
       25
340
15
 90
       50
 40
5.0
 40
2.5
 40
5.0
 71
     3
340
10
 40
5.0
 90
        0
 40
15.0
 90
        1
300
%<\AcVar ViewSectionStartId>%-%<\AcVar ViewSectionEndId>% (%<\AcVar ViewScale \f "%sn">%)
 71
     4
300
ANSI31
 40
1.0
 90
        0
290
     0
290
     0
 90
        6
 40
0.0
 40
1.570796326794896
 40
0.2617993877991494
 40
1.308996938995747
 40
-0.2617993877991494
 40
1.832595714594046
  0
TABLESTYLE
  5
5A43
102
{ACAD_XDICTIONARY
360
5BFD
102
}
102
{ACAD_REACTORS
330
5A42
102
}
330
5A42
100
AcDbTableStyle
  3
Standard
 70
     0
 71
     0
 40
1.5
 41
1.5
280
     0
281
     0
  7
STANDARD
140
4.5
170
     2
 62
     0
 63
     7
283
     0
274
    -2
284
     1
 64
     0
275
    -2
285
     1
 65
     0
276
    -2
286
     1
 66
     0
277
    -2
287
     1
 67
     0
278
    -2
288
     1
 68
     0
279
    -2
289
     1
 69
     0
  7
STANDARD
140
6.0
170
     5
 62
     0
 63
     7
283
     0
274
    -2
284
     1
 64
     0
275
    -2
285
     1
 65
     0
276
    -2
286
     1
 66
     0
277
    -2
287
     1
 67
     0
278
    -2
288
     1
 68
     0
279
    -2
289
     1
 69
     0
  7
STANDARD
140
4.5
170
     5
 62
     0
 63
     7
283
     0
274
    -2
284
     1
 64
     0
275
    -2
285
     1
 65
     0
276
    -2
286
     1
 66
     0
277
    -2
287
     1
 67
     0
278
    -2
288
     1
 68
     0
279
    -2
289
     1
 69
     0
  0
VISUALSTYLE
  5
5A2E
102
{ACAD_XDICTIONARY
360
5C1A
102
}
102
{ACAD_REACTORS
330
5A28
102
}
330
5A28
100
AcDbVisualStyle
  2
2dWireframe
 70
     4
 71
     0
 72
     2
 73
     0
 90
        0
 40
-0.6
 41
-30.0
 62
     5
 63
     7
 74
     1
 91
        4
 64
     7
 65
   257
 75
     1
175
     1
 42
1.0
 92
        0
 66
   257
 43
1.0
 76
     1
 77
     6
 78
     2
 67
     7
 79
     5
170
     0
171
     0
290
     0
174
     0
 93
        1
 44
0.0
173
     0
291
     0
 45
0.0
1001
ACAD
1000
AcDbSavedByObjectVersion
1070
     0
  0
VISUALSTYLE
  5
5A2D
102
{ACAD_XDICTIONARY
360
5C18
102
}
102
{ACAD_REACTORS
330
5A28
102
}
330
5A28
100
AcDbVisualStyle
  2
Basic
 70
     7
 71
     1
 72
     0
 73
     1
 90
        0
 40
-0.6
 41
-30.0
 62
     5
 63
     7
 74
     0
 91
        4
 64
     7
 65
   257
 75
     1
175
     1
 42
1.0
 92
        8
 66
     7
 43
1.0
 76
     1
 77
     6
 78
     2
 67
     7
 79
     5
170
     0
171
     0
290
     0
174
     0
 93
        1
 44
0.0
173
     0
291
     1
 45
0.0
1001
ACAD
1000
AcDbSavedByObjectVersion
1070
     0
  0
VISUALSTYLE
  5
5A34
102
{ACAD_XDICTIONARY
360
5C26
102
}
102
{ACAD_REACTORS
330
5A28
102
}
330
5A28
100
AcDbVisualStyle
  2
Brighten
 70
    12
 71
     2
 72
     2
 73
     0
 90
        0
 40
-0.6
 41
-30.0
 62
     5
 63
     7
 74
     1
 91
        4
 64
     7
 65
   257
 75
     1
175
     1
 42
1.0
 92
        8
 66
     7
 43
1.0
 76
     1
 77
     6
 78
     2
 67
     7
 79
     5
170
     0
171
     0
290
     0
174
     0
 93
        1
 44
50.0
173
     0
291
     1
 45
0.0
1001
ACAD
1000
AcDbSavedByObjectVersion
1070
     0
  0
VISUALSTYLE
  5
5A38
102
{ACAD_XDICTIONARY
360
5C2E
102
}
102
{ACAD_REACTORS
330
5A28
102
}
330
5A28
100
AcDbVisualStyle
  2
ColorChange
 70
    16
 71
     2
 72
     2
 73
     3
 90
        0
 40
-0.6
 41
-30.0
 62
     5
 63
     8
 74
     1
 91
        4
 64
     7
 65
   257
 75
     1
175
     1
 42
1.0
 92
        8
 66
     8
 43
1.0
 76
     1
 77
     6
 78
     2
 67
     7
 79
     5
170
     0
171
     0
290
     0
174
     0
 93
        1
 44
0.0
173
     0
291
     1
 45
0.0
1001
ACAD
1000
AcDbSavedByObjectVersion
1070
     0
  0
VISUALSTYLE
  5
5A31
102
{ACAD_XDICTIONARY
360
5C20
102
}
102
{ACAD_REACTORS
330
5A28
102
}
330
5A28
100
AcDbVisualStyle
  2
Conceptual
 70
     9
 71
     3
 72
     2
 73
     0
 90
        0
 40
-0.6
 41
-30.0
 62
     5
 63
     7
 74
     2
 91
        2
 64
     7
 65
   257
 75
     1
175
     1
 42
179.0
 92
        8
 66
     7
 43
1.0
 76
     1
 77
     6
 78
     2
 67
     7
 79
     3
170
     0
171
     0
290
     0
174
     0
 93
        1
 44
0.0
173
     0
291
     0
 45
0.0
1001
ACAD
1000
AcDbSavedByObjectVersion
1070
     0
  0
VISUALSTYLE
  5
5A33
102
{ACAD_XDICTIONARY
360
5C24
102
}
102
{ACAD_REACTORS
330
5A28
102
}
330
5A28
100
AcDbVisualStyle
  2
Dim
 70
    11
 71
     2
 72
     2
 73
     0
 90
        0
 40
-0.6
 41
-30.0
 62
     5
 63
     7
 74
     1
 91
        4
 64
     7
 65
   257
 75
     1
175
     1
 42
1.0
 92
        8
 66
     7
 43
1.0
 76
     1
 77
     6
 78
     2
 67
     7
 79
     5
170
     0
171
     0
290
     0
174
     0
 93
        1
 44
-50.0
173
     0
291
     1
 45
0.0
1001
ACAD
1000
AcDbSavedByObjectVersion
1070
     0
  0
VISUALSTYLE
  5
5A40
102
{ACAD_XDICTIONARY
360
5C3E
102
}
102
{ACAD_REACTORS
330
5A28
102
}
330
5A28
100
AcDbVisualStyle
  2
EdgeColorOff
 70
    22
 71
     2
 72
     2
 73
     0
 90
        0
 40
-0.6
 41
-30.0
 62
     5
 63
     7
 74
     1
 91
        4
 64
     7
 65
   257
 75
     1
175
     1
 42
1.0
 92
        8
 66
     7
 43
1.0
 76
     1
 77
     6
 78
     2
 67
     7
 79
     5
170
     0
171
     0
290
     0
174
     0
 93
        1
 44
0.0
173
     0
291
     1
 45
0.0
1001
ACAD
1000
AcDbSavedByObjectVersion
1070
     0
  0
VISUALSTYLE
  5
5A37
102
{ACAD_XDICTIONARY
360
5C2C
102
}
102
{ACAD_REACTORS
330
5A28
102
}
330
5A28
100
AcDbVisualStyle
  2
Facepattern
 70
    15
 71
     2
 72
     2
 73
     0
 90
        0
 40
-0.6
 41
-30.0
 62
     5
 63
     7
 74
     1
 91
        4
 64
     7
 65
   257
 75
     1
175
     1
 42
1.0
 92
        8
 66
     7
 43
1.0
 76
     1
 77
     6
 78
     2
 67
     7
 79
     5
170
     0
171
     0
290
     0
174
     0
 93
        1
 44
0.0
173
     0
291
     1
 45
0.0
1001
ACAD
1000
AcDbSavedByObjectVersion
1070
     0
  0
VISUALSTYLE
  5
5A29
102
{ACAD_XDICTIONARY
360
5C10
102
}
102
{ACAD_REACTORS
330
5A28
102
}
330
5A28
100
AcDbVisualStyle
  2
Flat
 70
     0
 71
     2
 72
     1
 73
     1
 90
        2
 40
-0.6
 41
30.0
 62
     5
 63
     7
 74
     0
 91
        0
 64
     7
 65
   257
 75
     1
175
     1
 42
1.0
 92
        8
 66
     7
 43
1.0
 76
     1
 77
     6
 78
     2
 67
     7
 79
     5
170
     0
171
     0
290
     0
174
     0
 93
       13
 44
0.0
173
     0
291
     1
 45
0.0
1001
ACAD
1000
AcDbSavedByObjectVersion
1070
     0
  0
VISUALSTYLE
  5
5A2A
102
{ACAD_XDICTIONARY
360
5C12
102
}
102
{ACAD_REACTORS
330
5A28
102
}
330
5A28
100
AcDbVisualStyle
  2
FlatWithEdges
 70
     1
 71
     2
 72
     1
 73
     1
 90
        2
 40
-0.6
 41
30.0
 62
     5
 63
     7
 74
     1
 91
        0
 64
     7
 65
   257
 75
     1
175
     1
 42
1.0
 92
        0
 66
   257
 43
1.0
 76
     1
 77
     6
 78
     2
 67
     7
 79
     5
170
     0
171
     0
290
     0
174
     0
 93
       13
 44
0.0
173
     0
291
     1
 45
0.0
1001
ACAD
1000
AcDbSavedByObjectVersion
1070
     0
  0
VISUALSTYLE
  5
5A2B
102
{ACAD_XDICTIONARY
360
5C14
102
}
102
{ACAD_REACTORS
330
5A28
102
}
330
5A28
100
AcDbVisualStyle
  2
Gouraud
 70
     2
 71
     2
 72
     2
 73
     1
 90
        2
 40
-0.6
 41
30.0
 62
     5
 63
     7
 74
     0
 91
        0
 64
     7
 65
   257
 75
     1
175
     1
 42
1.0
 92
        0
 66
     7
 43
1.0
 76
     1
 77
     6
 78
     2
 67
     7
 79
     5
170
     0
171
     0
290
     0
174
     0
 93
       13
 44
0.0
173
     0
291
     1
 45
0.0
1001
ACAD
1000
AcDbSavedByObjectVersion
1070
     0
  0
VISUALSTYLE
  5
5A2C
102
{ACAD_XDICTIONARY
360
5C16
102
}
102
{ACAD_REACTORS
330
5A28
102
}
330
5A28
100
AcDbVisualStyle
  2
GouraudWithEdges
 70
     3
 71
     2
 72
     2
 73
     1
 90
        2
 40
-0.6
 41
30.0
 62
     5
 63
     7
 74
     1
 91
        0
 64
     7
 65
   257
 75
     1
175
     1
 42
1.0
 92
        0
 66
   257
 43
1.0
 76
     1
 77
     6
 78
     2
 67
     7
 79
     5
170
     0
171
     0
290
     0
174
     0
 93
       13
 44
0.0
173
     0
291
     1
 45
0.0
1001
ACAD
1000
AcDbSavedByObjectVersion
1070
     0
  0
VISUALSTYLE
  5
5A30
102
{ACAD_XDICTIONARY
360
5C1E
102
}
102
{ACAD_REACTORS
330
5A28
102
}
330
5A28
100
AcDbVisualStyle
  2
Hidden
 70
     6
 71
     1
 72
     2
 73
     2
 90
        0
 40
-0.6
 41
-30.0
 62
     5
 63
     7
 74
     2
 91
        2
 64
     7
 65
   257
 75
     2
175
     1
 42
40.0
 92
        0
 66
   257
 43
1.0
 76
     1
 77
     6
 78
     2
 67
     7
 79
     3
170
     0
171
     0
290
     0
174
     0
 93
        1
 44
0.0
173
     0
291
     0
 45
0.0
1001
ACAD
1000
AcDbSavedByObjectVersion
1070
     0
  0
VISUALSTYLE
  5
5A3E
102
{ACAD_XDICTIONARY
360
5C3A
102
}
102
{ACAD_REACTORS
330
5A28
102
}
330
5A28
100
AcDbVisualStyle
  2
JitterOff
 70
    20
 71
     2
 72
     2
 73
     0
 90
        0
 40
-0.6
 41
-30.0
 62
     5
 63
     7
 74
     1
 91
        4
 64
     7
 65
   257
 75
     1
175
     1
 42
1.0
 92
       10
 66
     7
 43
1.0
 76
     1
 77
     6
 78
     2
 67
     7
 79
     5
170
     0
171
     0
290
     0
174
     0
 93
        1
 44
0.0
173
     0
291
     1
 45
0.0
1001
ACAD
1000
AcDbSavedByObjectVersion
1070
     0
  0
VISUALSTYLE
  5
5A36
102
{ACAD_XDICTIONARY
360
5C2A
102
}
102
{ACAD_REACTORS
330
5A28
102
}
330
5A28
100
AcDbVisualStyle
  2
Linepattern
 70
    14
 71
     2
 72
     2
 73
     0
 90
        0
 40
-0.6
 41
-30.0
 62
     5
 63
     7
 74
     1
 91
        4
 64
     7
 65
   257
 75
     7
175
     7
 42
1.0
 92
        8
 66
     7
 43
1.0
 76
     1
 77
     6
 78
     2
 67
     7
 79
     5
170
     0
171
     0
290
     0
174
     0
 93
        1
 44
0.0
173
     0
291
     1
 45
0.0
1001
ACAD
1000
AcDbSavedByObjectVersion
1070
     0
  0
VISUALSTYLE
  5
5A3F
102
{ACAD_XDICTIONARY
360
5C3C
102
}
102
{ACAD_REACTORS
330
5A28
102
}
330
5A28
100
AcDbVisualStyle
  2
OverhangOff
 70
    21
 71
     2
 72
     2
 73
     0
 90
        0
 40
-0.6
 41
-30.0
 62
     5
 63
     7
 74
     1
 91
        4
 64
     7
 65
   257
 75
     1
175
     1
 42
1.0
 92
        9
 66
     7
 43
1.0
 76
     1
 77
     6
 78
     2
 67
     7
 79
     5
170
     0
171
     0
290
     0
174
     0
 93
        1
 44
0.0
173
     0
291
     1
 45
0.0
1001
ACAD
1000
AcDbSavedByObjectVersion
1070
     0
  0
VISUALSTYLE
  5
5A32
102
{ACAD_XDICTIONARY
360
5C22
102
}
102
{ACAD_REACTORS
330
5A28
102
}
330
5A28
100
AcDbVisualStyle
  2
Realistic
 70
     8
 71
     2
 72
     3
 73
     0
 90
        2
 40
-0.6
 41
30.0
 62
     5
 63
     7
 74
     0
 91
        0
 64
     7
 65
   257
 75
     1
175
     1
 42
1.0
 92
        8
 66
   257
 43
1.0
 76
     1
 77
     6
 78
     2
 67
     7
 79
     3
170
     0
171
     0
290
     0
174
     0
 93
       13
 44
0.0
173
     0
291
     0
 45
0.0
1001
ACAD
1000
AcDbSavedByObjectVersion
1070
     0
  0
VISUALSTYLE
  5
5A3D
102
{ACAD_XDICTIONARY
360
5C38
102
}
102
{ACAD_REACTORS
330
5A28
102
}
330
5A28
100
AcDbVisualStyle
  2
Shaded
 70
    27
 71
     2
 72
     2
 73
     1
 90
        2
 40
-0.6
 41
30.0
 62
     5
 63
     7
 74
     0
 91
        4
 64
     7
 65
   257
 75
     1
175
     1
 42
1.0
 92
        8
 66
   257
 43
1.0
 76
     1
 77
     6
 78
     2
 67
     8
 79
     3
170
     0
171
     0
290
     0
174
     0
 93
        5
 44
0.0
173
     0
291
     0
 45
0.0
1001
ACAD
1000
AcDbSavedByObjectVersion
1070
     0
  0
VISUALSTYLE
  5
5A3C
102
{ACAD_XDICTIONARY
360
5C36
102
}
102
{ACAD_REACTORS
330
5A28
102
}
330
5A28
100
AcDbVisualStyle
  2
Shaded with edges
 70
    26
 71
     2
 72
     2
 73
     1
 90
        2
 40
-0.6
 41
30.0
 62
     5
 63
     7
 74
     1
 91
        2
 64
     7
 65
   257
 75
     2
175
     1
 42
1.0
 92
        8
 66
   257
 43
1.0
 76
     1
 77
     6
 78
     2
 67
     7
 79
     3
170
     0
171
     0
290
     0
174
     0
 93
        5
 44
0.0
173
     0
291
     0
 45
0.0
1001
ACAD
1000
AcDbSavedByObjectVersion
1070
     0
  0
VISUALSTYLE
  5
5A39
102
{ACAD_XDICTIONARY
360
5C30
102
}
102
{ACAD_REACTORS
330
5A28
102
}
330
5A28
100
AcDbVisualStyle
  2
Shades of Gray
 70
    23
 71
     2
 72
     2
 73
     3
 90
        0
 40
-0.6
 41
-30.0
 62
     5
 63
     7
 74
     2
 91
        2
 64
     7
 65
     7
 75
     1
175
     1
 42
40.0
 92
        8
 66
     7
 43
1.0
 76
     1
 77
     6
 78
     2
 67
     7
 79
     3
170
     0
171
     0
290
     0
174
     0
 93
        1
 44
0.0
173
     0
291
     0
 45
0.0
1001
ACAD
1000
AcDbSavedByObjectVersion
1070
     0
  0
VISUALSTYLE
  5
5A3A
102
{ACAD_XDICTIONARY
360
5C32
102
}
102
{ACAD_REACTORS
330
5A28
102
}
330
5A28
100
AcDbVisualStyle
  2
Sketchy
 70
    24
 71
     1
 72
     2
 73
     2
 90
        0
 40
-0.6
 41
-30.0
 62
     5
 63
     7
 74
     2
 91
        2
 64
     7
 65
     7
 75
     1
175
     1
 42
40.0
 92
       11
 66
     7
 43
1.0
 76
     1
 77
     6
 78
     2
 67
     7
 79
     6
170
     0
171
     0
290
     0
174
     0
 93
        1
 44
0.0
173
     0
291
     0
 45
0.0
1001
ACAD
1000
AcDbSavedByObjectVersion
1070
     0
  0
VISUALSTYLE
  5
5A35
102
{ACAD_XDICTIONARY
360
5C28
102
}
102
{ACAD_REACTORS
330
5A28
102
}
330
5A28
100
AcDbVisualStyle
  2
Thicken
 70
    13
 71
     2
 72
     2
 73
     0
 90
        0
 40
-0.6
 41
-30.0
 62
     5
 63
     7
 74
     1
 91
        4
 64
     7
 65
   257
 75
     1
175
     1
 42
1.0
 92
       12
 66
     7
 43
1.0
 76
     1
 77
     6
 78
     2
 67
     7
 79
     5
170
     0
171
     0
290
     0
174
     0
 93
        1
 44
0.0
173
     0
291
     1
 45
0.0
1001
ACAD
1000
AcDbSavedByObjectVersion
1070
     0
  0
VISUALSTYLE
  5
5A2F
102
{ACAD_XDICTIONARY
360
5C1C
102
}
102
{ACAD_REACTORS
330
5A28
102
}
330
5A28
100
AcDbVisualStyle
  2
Wireframe
 70
     5
 71
     0
 72
     2
 73
     0
 90
        0
 40
-0.6
 41
-30.0
 62
     5
 63
     7
 74
     1
 91
        4
 64
     7
 65
   257
 75
     1
175
     1
 42
1.0
 92
        0
 66
   257
 43
1.0
 76
     1
 77
     6
 78
     2
 67
     7
 79
     3
170
     0
171
     0
290
     0
174
     0
 93
        1
 44
0.0
173
     0
291
     0
 45
0.0
1001
ACAD
1000
AcDbSavedByObjectVersion
1070
     0
  0
VISUALSTYLE
  5
5A3B
102
{ACAD_XDICTIONARY
360
5C34
102
}
102
{ACAD_REACTORS
330
5A28
102
}
330
5A28
100
AcDbVisualStyle
  2
X-Ray
 70
    25
 71
     2
 72
     2
 73
     1
 90
        1
 40
0.5
 41
-30.0
 62
     5
 63
     7
 74
     1
 91
        0
 64
     7
 65
   257
 75
     1
175
     1
 42
1.0
 92
        8
 66
     7
 43
1.0
 76
     1
 77
     6
 78
     2
 67
     7
 79
     3
170
     0
171
     0
290
     0
174
     0
 93
       13
 44
0.0
173
     0
291
     0
 45
0.0
1001
ACAD
1000
AcDbSavedByObjectVersion
1070
     0
  0
DICTIONARYVAR
  5
5BEF
102
{ACAD_REACTORS
330
5BE9
102
}
330
5BE9
100
DictionaryVariables
280
     0
  1
1:1
  0
DICTIONARYVAR
  5
5BEB
102
{ACAD_REACTORS
330
5BE9
102
}
330
5BE9
100
DictionaryVariables
280
     0
  1
STANDARD
  0
DICTIONARYVAR
  5
5BEA
102
{ACAD_REACTORS
330
5BE9
102
}
330
5BE9
100
DictionaryVariables
280
     0
  1
STANDARD
  0
DICTIONARYVAR
  5
5BEC
102
{ACAD_REACTORS
330
5BE9
102
}
330
5BE9
100
DictionaryVariables
280
     0
  1
Metric50
  0
DICTIONARYVAR
  5
5BED
102
{ACAD_REACTORS
330
5BE9
102
}
330
5BE9
100
DictionaryVariables
280
     0
  1
Metric50
  0
DICTIONARYVAR
  5
5BFB
102
{ACAD_REACTORS
330
5BE9
102
}
330
5BE9
100
DictionaryVariables
280
     0
  1
1
  0
DICTIONARYVAR
  5
5BFA
102
{ACAD_REACTORS
330
5BE9
102
}
330
5BE9
100
DictionaryVariables
280
     0
  1
0
  0
DICTIONARYVAR
  5
5BF1
102
{ACAD_REACTORS
330
5BE9
102
}
330
5BE9
100
DictionaryVariables
280
     0
  1
1
  0
DICTIONARYVAR
  5
5BF2
102
{ACAD_REACTORS
330
5BE9
102
}
330
5BE9
100
DictionaryVariables
280
     0
  1
15
  0
DICTIONARYVAR
  5
5BF0
102
{ACAD_REACTORS
330
5BE9
102
}
330
5BE9
100
DictionaryVariables
280
     0
  1
0
  0
DICTIONARYVAR
  5
5BEE
102
{ACAD_REACTORS
330
5BE9
102
}
330
5BE9
100
DictionaryVariables
280
     0
  1
0
  0
DICTIONARYVAR
  5
5BF9
102
{ACAD_REACTORS
330
5BE9
102
}
330
5BE9
100
DictionaryVariables
280
     0
  1
127
  0
DICTIONARYVAR
  5
5BFC
102
{ACAD_REACTORS
330
5BE9
102
}
330
5BE9
100
DictionaryVariables
280
     0
  1
2
  0
DICTIONARY
  5
5C08
102
{ACAD_REACTORS
330
5C06
102
}
330
5C06
100
AcDbDictionary
281
     1
  0
DICTIONARY
  5
5C07
102
{ACAD_REACTORS
330
5C06
102
}
330
5C06
100
AcDbDictionary
281
     1
  3
140687753942288
350
5C01
  3
140687753942304
350
5C02
  3
140687753942320
350
5C03
  3
140687753942336
350
5C04
  3
140687753942352
350
5C05
  0
DICTIONARY
  5
5BE7
330
5A5B
100
AcDbDictionary
280
     1
281
     1
  3
ACAD_XREC_ROUNDTRIP
360
5BE8
  0
DICTIONARY
  5
5C09
330
1E94
100
AcDbDictionary
280
     1
281
     1
  3
ACAD_XREC_ROUNDTRIP
360
5C0A
  0
DICTIONARY
  5
5C0B
330
1E95
100
AcDbDictionary
280
     1
281
     1
  3
ACAD_XREC_ROUNDTRIP
360
5C0C
  0
DICTIONARY
  5
5A19
330
5A18
100
AcDbDictionary
280
     1
281
     1
  3
ACAD_XREC_ROUNDTRIP
360
5C0E
  3
BUMPTILE
360
5A1B
  3
DIFFUSETILE
360
5A1A
  3
OPACITYTILE
360
5A1E
  3
REFLECTIONTILE
360
5A1D
  3
REFRACTIONTILE
360
5A1F
  3
SPECULARTILE
360
5A1C
  0
DICTIONARY
  5
5A11
330
5A10
100
AcDbDictionary
280
     1
281
     1
  3
ACAD_XREC_ROUNDTRIP
360
5C0D
  3
BUMPTILE
360
5A13
  3
DIFFUSETILE
360
5A12
  3
OPACITYTILE
360
5A16
  3
REFLECTIONTILE
360
5A15
  3
REFRACTIONTILE
360
5A17
  3
SPECULARTILE
360
5A14
  0
DICTIONARY
  5
5A21
330
5A20
100
AcDbDictionary
280
     1
281
     1
  3
ACAD_XREC_ROUNDTRIP
360
5C0F
  3
BUMPTILE
360
5A23
  3
DIFFUSETILE
360
5A22
  3
OPACITYTILE
360
5A26
  3
REFLECTIONTILE
360
5A25
  3
REFRACTIONTILE
360
5A27
  3
SPECULARTILE
360
5A24
  0
DICTIONARY
  5
5C42
330
5A57
100
AcDbDictionary
280
     1
281
     1
  3
ACAD_XREC_ROUNDTRIP
360
5C43
  0
DICTIONARY
  5
5BE5
330
5A59
100
AcDbDictionary
280
     1
281
     1
  3
ACAD_XREC_ROUNDTRIP
360
5BE6
  0
DICTIONARY
  5
5BFD
330
5A43
100
AcDbDictionary
280
     1
281
     1
  3
ACAD_ROUNDTRIP_2008_TABLESTYLE_CELLSTYLEMAP
360
5BFE
  3
ACAD_XREC_ROUNDTRIP
360
5C40
  0
DICTIONARY
  5
5C1A
330
5A2E
100
AcDbDictionary
280
     1
281
     1
  3
ACAD_XREC_ROUNDTRIP
360
5C1B
  0
DICTIONARY
  5
5C18
330
5A2D
100
AcDbDictionary
280
     1
281
     1
  3
ACAD_XREC_ROUNDTRIP
360
5C19
  0
DICTIONARY
  5
5C26
330
5A34
100
AcDbDictionary
280
     1
281
     1
  3
ACAD_XREC_ROUNDTRIP
360
5C27
  0
DICTIONARY
  5
5C2E
330
5A38
100
AcDbDictionary
280
     1
281
     1
  3
ACAD_XREC_ROUNDTRIP
360
5C2F
  0
DICTIONARY
  5
5C20
330
5A31
100
AcDbDictionary
280
     1
281
     1
  3
ACAD_XREC_ROUNDTRIP
360
5C21
  0
DICTIONARY
  5
5C24
330
5A33
100
AcDbDictionary
280
     1
281
     1
  3
ACAD_XREC_ROUNDTRIP
360
5C25
  0
DICTIONARY
  5
5C3E
330
5A40
100
AcDbDictionary
280
     1
281
     1
  3
ACAD_XREC_ROUNDTRIP
360
5C3F
  0
DICTIONARY
  5
5C2C
330
5A37
100
AcDbDictionary
280
     1
281
     1
  3
ACAD_XREC_ROUNDTRIP
360
5C2D
  0
DICTIONARY
  5
5C10
330
5A29
100
AcDbDictionary
280
     1
281
     1
  3
ACAD_XREC_ROUNDTRIP
360
5C11
  0
DICTIONARY
  5
5C12
330
5A2A
100
AcDbDictionary
280
     1
281
     1
  3
ACAD_XREC_ROUNDTRIP
360
5C13
  0
DICTIONARY
  5
5C14
330
5A2B
100
AcDbDictionary
280
     1
281
     1
  3
ACAD_XREC_ROUNDTRIP
360
5C15
  0
DICTIONARY
  5
5C16
330
5A2C
100
AcDbDictionary
280
     1
281
     1
  3
ACAD_XREC_ROUNDTRIP
360
5C17
  0
DICTIONARY
  5
5C1E
330
5A30
100
AcDbDictionary
280
     1
281
     1
  3
ACAD_XREC_ROUNDTRIP
360
5C1F
  0
DICTIONARY
  5
5C3A
330
5A3E
100
AcDbDictionary
280
     1
281
     1
  3
ACAD_XREC_ROUNDTRIP
360
5C3B
  0
DICTIONARY
  5
5C2A
330
5A36
100
AcDbDictionary
280
     1
281
     1
  3
ACAD_XREC_ROUNDTRIP
360
5C2B
  0
DICTIONARY
  5
5C3C
330
5A3F
100
AcDbDictionary
280
     1
281
     1
  3
ACAD_XREC_ROUNDTRIP
360
5C3D
  0
DICTIONARY
  5
5C22
330
5A32
100
AcDbDictionary
280
     1
281
     1
  3
ACAD_XREC_ROUNDTRIP
360
5C23
  0
DICTIONARY
  5
5C38
330
5A3D
100
AcDbDictionary
280
     1
281
     1
  3
ACAD_XREC_ROUNDTRIP
360
5C39
  0
DICTIONARY
  5
5C36
330
5A3C
100
AcDbDictionary
280
     1
281
     1
  3
ACAD_XREC_ROUNDTRIP
360
5C37
  0
DICTIONARY
  5
5C30
330
5A39
100
AcDbDictionary
280
     1
281
     1
  3
ACAD_XREC_ROUNDTRIP
360
5C31
  0
DICTIONARY
  5
5C32
330
5A3A
100
AcDbDictionary
280
     1
281
     1
  3
ACAD_XREC_ROUNDTRIP
360
5C33
  0
DICTIONARY
  5
5C28
330
5A35
100
AcDbDictionary
280
     1
281
     1
  3
ACAD_XREC_ROUNDTRIP
360
5C29
  0
DICTIONARY
  5
5C1C
330
5A2F
100
AcDbDictionary
280
     1
281
     1
  3
ACAD_XREC_ROUNDTRIP
360
5C1D
  0
DICTIONARY
  5
5C34
330
5A3B
100
AcDbDictionary
280
     1
281
     1
  3
ACAD_XREC_ROUNDTRIP
360
5C35
  0
XRECORD
  5
5C01
102
{ACAD_REACTORS
330
5C07
102
}
330
5C07
100
AcDbXrecord
280
     1
  1
AcDb_Thumbnail_Schema
102
{ATTRRECORD
341
5C02
  2
AcDbDs::TreatedAsObjectData
280
     1
291
     1
102
ATTRRECORD}
102
{ATTRRECORD
341
5C03
  2
AcDbDs::Legacy
280
     1
291
     1
102
ATTRRECORD}
  2
AcDbDs::ID
280
    10
 91
        8
102
{ATTRRECORD
341
5C04
  2
AcDs:Indexable
280
     1
291
     1
102
ATTRRECORD}
102
{ATTRRECORD
341
5C05
  2
AcDbDs::HandleAttribute
280
     7
282
     1
102
ATTRRECORD}
  2
Thumbnail_Data
280
    15
 91
        0
  0
XRECORD
  5
5C02
102
{ACAD_REACTORS
330
5C07
102
}
330
5C07
100
AcDbXrecord
280
     1
  1
AcDbDs::TreatedAsObjectDataSchema
  2
AcDbDs::TreatedAsObjectData
280
     1
 91
        0
  0
XRECORD
  5
5C03
102
{ACAD_REACTORS
330
5C07
102
}
330
5C07
100
AcDbXrecord
280
     1
  1
AcDbDs::LegacySchema
  2
AcDbDs::Legacy
280
     1
 91
        0
  0
XRECORD
  5
5C04
102
{ACAD_REACTORS
330
5C07
102
}
330
5C07
100
AcDbXrecord
280
     1
  1
AcDbDs::IndexedPropertySchema
  2
AcDs:Indexable
280
     1
 91
        0
  0
XRECORD
  5
5C05
102
{ACAD_REACTORS
330
5C07
102
}
330
5C07
100
AcDbXrecord
280
     1
  1
AcDbDs::HandleAttributeSchema
  2
AcDbDs::HandleAttribute
280
     7
 91
        1
284
     1
  0
XRECORD
  5
5BE8
102
{ACAD_REACTORS
330
5BE7
102
}
330
5BE7
100
AcDbXrecord
280
     1
102
DISPLAYNAME
  1
Metric50
102
FLAGS
 90
        0
  0
XRECORD
  5
5C0A
102
{ACAD_REACTORS
330
5C09
102
}
330
5C09
100
AcDbXrecord
280
     1
102
SHADEPLOT
 70
     0
102
SHADEPLOTRESLEVEL
 70
     2
102
SHADEPLOTCUSTOMDPI
 70
   300
  0
XRECORD
  5
5C0C
102
{ACAD_REACTORS
330
5C0B
102
}
330
5C0B
100
AcDbXrecord
280
     1
102
SHADEPLOT
 70
     0
102
SHADEPLOTRESLEVEL
 70
     2
102
SHADEPLOTCUSTOMDPI
 70
   300
  0
XRECORD
  5
5C0E
102
{ACAD_REACTORS
330
5A19
102
}
330
5A19
100
AcDbXrecord
280
     1
102
MATERIAL
148
0.0
149
0.0
149
0.0
 93
        0
 94
      127
282
     0
 72
     0
 77
     0
171
     0
175
     0
179
     0
273
     0
  0
XRECORD
  5
5A1B
102
{ACAD_REACTORS
330
5A19
102
}
330
5A19
100
AcDbXrecord
280
     1
270
     1
271
     1
  0
XRECORD
  5
5A1A
102
{ACAD_REACTORS
330
5A19
102
}
330
5A19
100
AcDbXrecord
280
     1
270
     1
271
     1
  0
XRECORD
  5
5A1E
102
{ACAD_REACTORS
330
5A19
102
}
330
5A19
100
AcDbXrecord
280
     1
270
     1
271
     1
  0
XRECORD
  5
5A1D
102
{ACAD_REACTORS
330
5A19
102
}
330
5A19
100
AcDbXrecord
280
     1
270
     1
271
     1
  0
XRECORD
  5
5A1F
102
{ACAD_REACTORS
330
5A19
102
}
330
5A19
100
AcDbXrecord
280
     1
270
     1
271
     1
  0
XRECORD
  5
5A1C
102
{ACAD_REACTORS
330
5A19
102
}
330
5A19
100
AcDbXrecord
280
     1
270
     1
271
     1
  0
XRECORD
  5
5C0D
102
{ACAD_REACTORS
330
5A11
102
}
330
5A11
100
AcDbXrecord
280
     1
102
MATERIAL
148
0.0
149
0.0
149
0.0
 93
        0
 94
      127
282
     0
 72
     0
 77
     0
171
     0
175
     0
179
     0
273
     0
  0
XRECORD
  5
5A13
102
{ACAD_REACTORS
330
5A11
102
}
330
5A11
100
AcDbXrecord
280
     1
270
     1
271
     1
  0
XRECORD
  5
5A12
102
{ACAD_REACTORS
330
5A11
102
}
330
5A11
100
AcDbXrecord
280
     1
270
     1
271
     1
  0
XRECORD
  5
5A16
102
{ACAD_REACTORS
330
5A11
102
}
330
5A11
100
AcDbXrecord
280
     1
270
     1
271
     1
  0
XRECORD
  5
5A15
102
{ACAD_REACTORS
330
5A11
102
}
330
5A11
100
AcDbXrecord
280
     1
270
     1
271
     1
  0
XRECORD
  5
5A17
102
{ACAD_REACTORS
330
5A11
102
}
330
5A11
100
AcDbXrecord
280
     1
270
     1
271
     1
  0
XRECORD
  5
5A14
102
{ACAD_REACTORS
330
5A11
102
}
330
5A11
100
AcDbXrecord
280
     1
270
     1
271
     1
  0
XRECORD
  5
5C0F
102
{ACAD_REACTORS
330
5A21
102
}
330
5A21
100
AcDbXrecord
280
     1
102
MATERIAL
148
0.0
149
0.0
149
0.0
 93
        0
 94
      127
282
     0
 72
     0
 77
     0
171
     0
175
     0
179
     0
273
     0
  0
XRECORD
  5
5A23
102
{ACAD_REACTORS
330
5A21
102
}
330
5A21
100
AcDbXrecord
280
     1
270
     1
271
     1
  0
XRECORD
  5
5A22
102
{ACAD_REACTORS
330
5A21
102
}
330
5A21
100
AcDbXrecord
280
     1
270
     1
271
     1
  0
XRECORD
  5
5A26
102
{ACAD_REACTORS
330
5A21
102
}
330
5A21
100
AcDbXrecord
280
     1
270
     1
271
     1
  0
XRECORD
  5
5A25
102
{ACAD_REACTORS
330
5A21
102
}
330
5A21
100
AcDbXrecord
280
     1
270
     1
271
     1
  0
XRECORD
  5
5A27
102
{ACAD_REACTORS
330
5A21
102
}
330
5A21
100
AcDbXrecord
280
     1
270
     1
271
     1
  0
XRECORD
  5
5A24
102
{ACAD_REACTORS
330
5A21
102
}
330
5A21
100
AcDbXrecord
280
     1
270
     1
271
     1
  0
XRECORD
  5
5C43
102
{ACAD_REACTORS
330
5C42
102
}
330
5C42
100
AcDbXrecord
280
     1
102
ACAD_ROUNDTRIP_2012_MLEADER_STYLE
298
     1
  0
XRECORD
  5
5BE6
102
{ACAD_REACTORS
330
5BE5
102
}
330
5BE5
100
AcDbXrecord
280
     1
102
DISPLAYNAME
  1
Metric50
102
FLAGS
 90
        0
  0
CELLSTYLEMAP
  5
5BFE
102
{ACAD_REACTORS
330
5BFD
102
}
330
5BFD
100
AcDbCellStyleMap
 90
        3
300
CELLSTYLE
  1
TABLEFORMAT_BEGIN
 90
        5
170
     1
 91
        0
 92
    32768
 62
   257
 93
        1
300
CONTENTFORMAT
  1
CONTENTFORMAT_BEGIN
 90
        0
 91
        0
 92
      512
 93
        0
300

 40
0.0
140
1.0
 94
        5
 62
     0
340
10
144
6.0
309
CONTENTFORMAT_END
171
     1
301
MARGIN
  1
CELLMARGIN_BEGIN
 40
1.5
 40
1.5
 40
1.5
 40
1.5
 40
4.5
 40
4.5
309
CELLMARGIN_END
 94
        6
 95
        1
302
GRIDFORMAT
  1
GRIDFORMAT_BEGIN
 90
        0
 91
        1
 62
     0
 92
       -2
340
0
 93
        0
 40
1.125
309
GRIDFORMAT_END
 95
        2
302
GRIDFORMAT
  1
GRIDFORMAT_BEGIN
 90
        0
 91
        1
 62
     0
 92
       -2
340
0
 93
        0
 40
1.125
309
GRIDFORMAT_END
 95
        4
302
GRIDFORMAT
  1
GRIDFORMAT_BEGIN
 90
        0
 91
        1
 62
     0
 92
       -2
340
0
 93
        0
 40
1.125
309
GRIDFORMAT_END
 95
        8
302
GRIDFORMAT
  1
GRIDFORMAT_BEGIN
 90
        0
 91
        1
 62
     0
 92
       -2
340
0
 93
        0
 40
1.125
309
GRIDFORMAT_END
 95
       16
302
GRIDFORMAT
  1
GRIDFORMAT_BEGIN
 90
        0
 91
        1
 62
     0
 92
       -2
340
0
 93
        0
 40
1.125
309
GRIDFORMAT_END
 95
       32
302
GRIDFORMAT
  1
GRIDFORMAT_BEGIN
 90
        0
 91
        1
 62
     0
 92
       -2
340
0
 93
        0
 40
1.125
309
GRIDFORMAT_END
309
TABLEFORMAT_END
  1
CELLSTYLE_BEGIN
 90
        1
 91
        1
300
_TITLE
309
CELLSTYLE_END
300
CELLSTYLE
  1
TABLEFORMAT_BEGIN
 90
        5
170
     1
 91
        0
 92
        0
 62
   257
 93
        1
300
CONTENTFORMAT
  1
CONTENTFORMAT_BEGIN
 90
        0
 91
        0
 92
      512
 93
        0
300

 40
0.0
140
1.0
 94
        5
 62
     0
340
10
144
4.5
309
CONTENTFORMAT_END
171
     1
301
MARGIN
  1
CELLMARGIN_BEGIN
 40
1.5
 40
1.5
 40
1.5
 40
1.5
 40
4.5
 40
4.5
309
CELLMARGIN_END
 94
        6
 95
        1
302
GRIDFORMAT
  1
GRIDFORMAT_BEGIN
 90
        0
 91
        1
 62
     0
 92
       -2
340
0
 93
        0
 40
1.125
309
GRIDFORMAT_END
 95
        2
302
GRIDFORMAT
  1
GRIDFORMAT_BEGIN
 90
        0
 91
        1
 62
     0
 92
       -2
340
0
 93
        0
 40
1.125
309
GRIDFORMAT_END
 95
        4
302
GRIDFORMAT
  1
GRIDFORMAT_BEGIN
 90
        0
 91
        1
 62
     0
 92
       -2
340
0
 93
        0
 40
1.125
309
GRIDFORMAT_END
 95
        8
302
GRIDFORMAT
  1
GRIDFORMAT_BEGIN
 90
        0
 91
        1
 62
     0
 92
       -2
340
0
 93
        0
 40
1.125
309
GRIDFORMAT_END
 95
       16
302
GRIDFORMAT
  1
GRIDFORMAT_BEGIN
 90
        0
 91
        1
 62
     0
 92
       -2
340
0
 93
        0
 40
1.125
309
GRIDFORMAT_END
 95
       32
302
GRIDFORMAT
  1
GRIDFORMAT_BEGIN
 90
        0
 91
        1
 62
     0
 92
       -2
340
0
 93
        0
 40
1.125
309
GRIDFORMAT_END
309
TABLEFORMAT_END
  1
CELLSTYLE_BEGIN
 90
        2
 91
        1
300
_HEADER
309
CELLSTYLE_END
300
CELLSTYLE
  1
TABLEFORMAT_BEGIN
 90
        5
170
     1
 91
        0
 92
        0
 62
   257
 93
        1
300
CONTENTFORMAT
  1
CONTENTFORMAT_BEGIN
 90
        0
 91
        0
 92
      512
 93
        0
300

 40
0.0
140
1.0
 94
        2
 62
     0
340
10
144
4.5
309
CONTENTFORMAT_END
171
     1
301
MARGIN
  1
CELLMARGIN_BEGIN
 40
1.5
 40
1.5
 40
1.5
 40
1.5
 40
4.5
 40
4.5
309
CELLMARGIN_END
 94
        6
 95
        1
302
GRIDFORMAT
  1
GRIDFORMAT_BEGIN
 90
        0
 91
        1
 62
     0
 92
       -2
340
0
 93
        0
 40
1.125
309
GRIDFORMAT_END
 95
        2
302
GRIDFORMAT
  1
GRIDFORMAT_BEGIN
 90
        0
 91
        1
 62
     0
 92
       -2
340
0
 93
        0
 40
1.125
309
GRIDFORMAT_END
 95
        4
302
GRIDFORMAT
  1
GRIDFORMAT_BEGIN
 90
        0
 91
        1
 62
     0
 92
       -2
340
0
 93
        0
 40
1.125
309
GRIDFORMAT_END
 95
        8
302
GRIDFORMAT
  1
GRIDFORMAT_BEGIN
 90
        0
 91
        1
 62
     0
 92
       -2
340
0
 93
        0
 40
1.125
309
GRIDFORMAT_END
 95
       16
302
GRIDFORMAT
  1
GRIDFORMAT_BEGIN
 90
        0
 91
        1
 62
     0
 92
       -2
340
0
 93
        0
 40
1.125
309
GRIDFORMAT_END
 95
       32
302
GRIDFORMAT
  1
GRIDFORMAT_BEGIN
 90
        0
 91
        1
 62
     0
 92
       -2
340
0
 93
        0
 40
1.125
309
GRIDFORMAT_END
309
TABLEFORMAT_END
  1
CELLSTYLE_BEGIN
 90
        3
 91
        2
300
_DATA
309
CELLSTYLE_END
  0
XRECORD
  5
5C40
102
{ACAD_REACTORS
330
5BFD
102
}
330
5BFD
100
AcDbXrecord
280
     1
102
ACAD_ROUNDTRIP_PRE2007_TABLESTYLE
 90
      512
 91
        0
  1

 92
      512
 93
        0
  2

 94
      512
 95
        0
  3

  0
XRECORD
  5
5C1B
102
{ACAD_REACTORS
330
5C1A
102
}
330
5C1A
100
AcDbXrecord
280
     1
102
RTVSPost2010Prop28
280
     1
102
RTVSPost2010PropOp28
 70
     1
102
RTVSPost2010Prop29
280
     1
102
RTVSPost2010PropOp29
 70
     1
102
RTVSPost2010Prop30
280
     0
102
RTVSPost2010PropOp30
 70
     1
102
RTVSPost2010Prop31
280
     0
102
RTVSPost2010PropOp31
 70
     1
102
RTVSPost2010Prop32
280
     0
102
RTVSPost2010PropOp32
 70
     1
102
RTVSPost2010Prop33
280
     0
102
RTVSPost2010PropOp33
 70
     1
102
RTVSPost2010Prop34
280
     0
102
RTVSPost2010PropOp34
 70
     1
102
RTVSPost2010Prop35
280
     0
102
RTVSPost2010PropOp35
 70
     1
102
RTVSPost2010Prop36
280
     0
102
RTVSPost2010PropOp36
 70
     1
102
RTVSPost2010Prop37
 90
       50
102
RTVSPost2010PropOp37
 70
     1
102
RTVSPost2010Prop38
140
0.0
102
RTVSPost2010PropOp38
 70
     1
102
RTVSPost2010Prop39
140
1.0
102
RTVSPost2010PropOp39
 70
     1
102
RTVSPost2010Prop40
 90
        0
102
RTVSPost2010PropOp40
 70
     1
102
RTVSPost2010Prop41ColorIndex
 90
       18
102
RTVSPost2010Prop41ColorRGB
 90
        0
102
RTVSPost2010PropOp41
 70
     1
102
RTVSPost2010Prop42
 90
       50
102
RTVSPost2010PropOp42
 70
     1
102
RTVSPost2010Prop43
 90
        3
102
RTVSPost2010PropOp43
 70
     1
102
RTVSPost2010Prop44ColorIndex
 90
        5
102
RTVSPost2010Prop44ColorRGB
 90
      255
102
RTVSPost2010PropOp44
 70
     1
102
RTVSPost2010Prop45
280
     0
102
RTVSPost2010PropOp45
 70
     1
102
RTVSPost2010Prop46
 90
       50
102
RTVSPost2010PropOp46
 70
     1
102
RTVSPost2010Prop47
 90
       50
102
RTVSPost2010PropOp47
 70
     1
102
RTVSPost2010Prop48
 90
       50
102
RTVSPost2010PropOp48
 70
     1
102
RTVSPost2010Prop49
280
     0
102
RTVSPost2010PropOp49
 70
     1
102
RTVSPost2010Prop50
 90
       50
102
RTVSPost2010PropOp50
 70
     1
102
RTVSPost2010Prop51ColorIndex
 90
      256
102
RTVSPost2010Prop51ColorRGB
 90
-16777216
102
RTVSPost2010PropOp51
 70
     0
102
RTVSPost2010Prop52
140
1.0
102
RTVSPost2010PropOp52
 70
     0
102
RTVSPost2010Prop53
 90
        2
102
RTVSPost2010PropOp53
 70
     1
102
RTVSPost2010Prop54
  1
strokes_ogs.tif
102
RTVSPost2010PropOp54
 70
     1
102
RTVSPost2010Prop55
280
     0
102
RTVSPost2010PropOp55
 70
     1
102
RTVSPost2010Prop56
140
1.0
102
RTVSPost2010PropOp56
 70
     1
102
RTVSPost2010Prop57
140
1.0
102
RTVSPost2010PropOp57
 70
     1
102
RTVSPropertyOp0
 70
     1
102
RTVSPropertyOp1
 70
     1
102
RTVSPropertyOp2
 70
     1
102
RTVSPropertyOp3
 70
     1
102
RTVSPropertyOp4
 70
     1
102
RTVSPropertyOp5
 70
     1
102
RTVSPropertyOp6
 70
     1
102
RTVSPropertyOp7
 70
     1
102
RTVSPropertyOp8
 70
     1
102
RTVSPropertyOp9
 70
     1
102
RTVSPropertyOp10
 70
     1
102
RTVSPropertyOp11
 70
     1
102
RTVSPropertyOp12
 70
     1
102
RTVSPropertyOp13
 70
     1
102
RTVSPropertyOp14
 70
     1
102
RTVSPropertyOp15
 70
     1
102
RTVSPropertyOp16
 70
     1
102
RTVSPropertyOp17
 70
     1
102
RTVSPropertyOp18
 70
     1
102
RTVSPropertyOp19
 70
     1
102
RTVSPropertyOp20
 70
     1
102
RTVSPropertyOp21
 70
     1
102
RTVSPropertyOp22
 70
     1
102
RTVSPropertyOp23
 70
     1
102
RTVSPropertyOp24
 70
     1
102
RTVSPropertyOp25
 70
     1
102
RTVSPropertyOp26
 70
     1
102
RTVSPropertyOp27
 70
     1
102
RTVSPropertyOp28
 70
     1
102
RTVSPropertyOp29
 70
     1
102
RTVSPropertyOp30
 70
     1
102
RTVSPropertyOp31
 70
     1
102
RTVSPropertyOp32
 70
     1
102
RTVSPropertyOp33
 70
     1
102
RTVSPropertyOp34
 70
     1
102
RTVSPropertyOp35
 70
     1
102
RTVSPropertyOp36
 70
     1
102
RTVSPropertyOp37
 70
     1
102
RTVSPropertyOp38
 70
     1
102
RTVSPropertyOp39
 70
     1
102
RTVSPropertyOp40
 70
     1
102
RTVSPropertyOp41
 70
     1
102
RTVSPropertyOp42
 70
     1
102
RTVSPropertyOp43
 70
     1
102
RTVSPropertyOp44
 70
     1
102
RTVSPropertyOp45
 70
     1
102
RTVSPropertyOp46
 70
     1
102
RTVSPropertyOp47
 70
     1
102
RTVSPropertyOp48
 70
     1
102
RTVSPropertyOp49
 70
     1
102
RTVSPropertyOp50
 70
     1
102
RTVSPropertyOp51
 70
     0
102
RTVSPropertyOp52
 70
     0
102
RTVSPropertyOp53
 70
     1
102
RTVSPropertyOp54
 70
     1
102
RTVSPropertyOp55
 70
     1
102
RTVSPropertyOp56
 70
     1
102
RTVSPropertyOp57
 70
     1
102
RTVSPropertyOp58
 70
     1
102
RTVSPropertyOp59
 70
     1
102
RTVSPropertyOp60
 70
     1
102
RTVSPropertyOp61
 70
     1
102
RTVSPropertyOp62
 70
     1
  0
XRECORD
  5
5C19
102
{ACAD_REACTORS
330
5C18
102
}
330
5C18
100
AcDbXrecord
280
     1
102
RTVSPost2010Prop28
280
     0
102
RTVSPost2010PropOp28
 70
     1
102
RTVSPost2010Prop29
280
     1
102
RTVSPost2010PropOp29
 70
     1
102
RTVSPost2010Prop30
280
     1
102
RTVSPost2010PropOp30
 70
     1
102
RTVSPost2010Prop31
280
     0
102
RTVSPost2010PropOp31
 70
     1
102
RTVSPost2010Prop32
280
     0
102
RTVSPost2010PropOp32
 70
     1
102
RTVSPost2010Prop33
280
     0
102
RTVSPost2010PropOp33
 70
     1
102
RTVSPost2010Prop34
280
     0
102
RTVSPost2010PropOp34
 70
     1
102
RTVSPost2010Prop35
280
     0
102
RTVSPost2010PropOp35
 70
     1
102
RTVSPost2010Prop36
280
     0
102
RTVSPost2010PropOp36
 70
     1
102
RTVSPost2010Prop37
 90
       50
102
RTVSPost2010PropOp37
 70
     1
102
RTVSPost2010Prop38
140
0.0
102
RTVSPost2010PropOp38
 70
     1
102
RTVSPost2010Prop39
140
1.0
102
RTVSPost2010PropOp39
 70
     1
102
RTVSPost2010Prop40
 90
        0
102
RTVSPost2010PropOp40
 70
     1
102
RTVSPost2010Prop41ColorIndex
 90
       18
102
RTVSPost2010Prop41ColorRGB
 90
        0
102
RTVSPost2010PropOp41
 70
     1
102
RTVSPost2010Prop42
 90
       50
102
RTVSPost2010PropOp42
 70
     1
102
RTVSPost2010Prop43
 90
        3
102
RTVSPost2010PropOp43
 70
     1
102
RTVSPost2010Prop44ColorIndex
 90
        5
102
RTVSPost2010Prop44ColorRGB
 90
      255
102
RTVSPost2010PropOp44
 70
     1
102
RTVSPost2010Prop45
280
     0
102
RTVSPost2010PropOp45
 70
     1
102
RTVSPost2010Prop46
 90
       50
102
RTVSPost2010PropOp46
 70
     1
102
RTVSPost2010Prop47
 90
       50
102
RTVSPost2010PropOp47
 70
     1
102
RTVSPost2010Prop48
 90
       50
102
RTVSPost2010PropOp48
 70
     1
102
RTVSPost2010Prop49
280
     0
102
RTVSPost2010PropOp49
 70
     1
102
RTVSPost2010Prop50
 90
       50
102
RTVSPost2010PropOp50
 70
     1
102
RTVSPost2010Prop51ColorIndex
 90
      256
102
RTVSPost2010Prop51ColorRGB
 90
-16777216
102
RTVSPost2010PropOp51
 70
     0
102
RTVSPost2010Prop52
140
1.0
102
RTVSPost2010PropOp52
 70
     0
102
RTVSPost2010Prop53
 90
        2
102
RTVSPost2010PropOp53
 70
     1
102
RTVSPost2010Prop54
  1
strokes_ogs.tif
102
RTVSPost2010PropOp54
 70
     1
102
RTVSPost2010Prop55
280
     0
102
RTVSPost2010PropOp55
 70
     1
102
RTVSPost2010Prop56
140
1.0
102
RTVSPost2010PropOp56
 70
     1
102
RTVSPost2010Prop57
140
1.0
102
RTVSPost2010PropOp57
 70
     1
102
RTVSPropertyOp0
 70
     1
102
RTVSPropertyOp1
 70
     1
102
RTVSPropertyOp2
 70
     1
102
RTVSPropertyOp3
 70
     1
102
RTVSPropertyOp4
 70
     1
102
RTVSPropertyOp5
 70
     1
102
RTVSPropertyOp6
 70
     1
102
RTVSPropertyOp7
 70
     1
102
RTVSPropertyOp8
 70
     1
102
RTVSPropertyOp9
 70
     1
102
RTVSPropertyOp10
 70
     1
102
RTVSPropertyOp11
 70
     1
102
RTVSPropertyOp12
 70
     1
102
RTVSPropertyOp13
 70
     1
102
RTVSPropertyOp14
 70
     1
102
RTVSPropertyOp15
 70
     1
102
RTVSPropertyOp16
 70
     1
102
RTVSPropertyOp17
 70
     1
102
RTVSPropertyOp18
 70
     1
102
RTVSPropertyOp19
 70
     1
102
RTVSPropertyOp20
 70
     1
102
RTVSPropertyOp21
 70
     1
102
RTVSPropertyOp22
 70
     1
102
RTVSPropertyOp23
 70
     1
102
RTVSPropertyOp24
 70
     1
102
RTVSPropertyOp25
 70
     1
102
RTVSPropertyOp26
 70
     1
102
RTVSPropertyOp27
 70
     1
102
RTVSPropertyOp28
 70
     1
102
RTVSPropertyOp29
 70
     1
102
RTVSPropertyOp30
 70
     1
102
RTVSPropertyOp31
 70
     1
102
RTVSPropertyOp32
 70
     1
102
RTVSPropertyOp33
 70
     1
102
RTVSPropertyOp34
 70
     1
102
RTVSPropertyOp35
 70
     1
102
RTVSPropertyOp36
 70
     1
102
RTVSPropertyOp37
 70
     1
102
RTVSPropertyOp38
 70
     1
102
RTVSPropertyOp39
 70
     1
102
RTVSPropertyOp40
 70
     1
102
RTVSPropertyOp41
 70
     1
102
RTVSPropertyOp42
 70
     1
102
RTVSPropertyOp43
 70
     1
102
RTVSPropertyOp44
 70
     1
102
RTVSPropertyOp45
 70
     1
102
RTVSPropertyOp46
 70
     1
102
RTVSPropertyOp47
 70
     1
102
RTVSPropertyOp48
 70
     1
102
RTVSPropertyOp49
 70
     1
102
RTVSPropertyOp50
 70
     1
102
RTVSPropertyOp51
 70
     0
102
RTVSPropertyOp52
 70
     0
102
RTVSPropertyOp53
 70
     1
102
RTVSPropertyOp54
 70
     1
102
RTVSPropertyOp55
 70
     1
102
RTVSPropertyOp56
 70
     1
102
RTVSPropertyOp57
 70
     1
102
RTVSPropertyOp58
 70
     1
102
RTVSPropertyOp59
 70
     1
102
RTVSPropertyOp60
 70
     1
102
RTVSPropertyOp61
 70
     1
102
RTVSPropertyOp62
 70
     1
  0
XRECORD
  5
5C27
102
{ACAD_REACTORS
330
5C26
102
}
330
5C26
100
AcDbXrecord
280
     1
102
RTVSPost2010Prop28
280
     0
102
RTVSPost2010PropOp28
 70
     1
102
RTVSPost2010Prop29
280
     1
102
RTVSPost2010PropOp29
 70
     1
102
RTVSPost2010Prop30
280
     1
102
RTVSPost2010PropOp30
 70
     1
102
RTVSPost2010Prop31
280
     0
102
RTVSPost2010PropOp31
 70
     1
102
RTVSPost2010Prop32
280
     0
102
RTVSPost2010PropOp32
 70
     1
102
RTVSPost2010Prop33
280
     0
102
RTVSPost2010PropOp33
 70
     1
102
RTVSPost2010Prop34
280
     0
102
RTVSPost2010PropOp34
 70
     1
102
RTVSPost2010Prop35
280
     0
102
RTVSPost2010PropOp35
 70
     1
102
RTVSPost2010Prop36
280
     0
102
RTVSPost2010PropOp36
 70
     1
102
RTVSPost2010Prop37
 90
       50
102
RTVSPost2010PropOp37
 70
     1
102
RTVSPost2010Prop38
140
0.0
102
RTVSPost2010PropOp38
 70
     1
102
RTVSPost2010Prop39
140
1.0
102
RTVSPost2010PropOp39
 70
     1
102
RTVSPost2010Prop40
 90
        0
102
RTVSPost2010PropOp40
 70
     1
102
RTVSPost2010Prop41ColorIndex
 90
       18
102
RTVSPost2010Prop41ColorRGB
 90
        0
102
RTVSPost2010PropOp41
 70
     1
102
RTVSPost2010Prop42
 90
       50
102
RTVSPost2010PropOp42
 70
     1
102
RTVSPost2010Prop43
 90
        3
102
RTVSPost2010PropOp43
 70
     1
102
RTVSPost2010Prop44ColorIndex
 90
        5
102
RTVSPost2010Prop44ColorRGB
 90
      255
102
RTVSPost2010PropOp44
 70
     1
102
RTVSPost2010Prop45
280
     0
102
RTVSPost2010PropOp45
 70
     1
102
RTVSPost2010Prop46
 90
       50
102
RTVSPost2010PropOp46
 70
     1
102
RTVSPost2010Prop47
 90
       50
102
RTVSPost2010PropOp47
 70
     1
102
RTVSPost2010Prop48
 90
       50
102
RTVSPost2010PropOp48
 70
     1
102
RTVSPost2010Prop49
280
     0
102
RTVSPost2010PropOp49
 70
     1
102
RTVSPost2010Prop50
 90
       50
102
RTVSPost2010PropOp50
 70
     1
102
RTVSPost2010Prop51ColorIndex
 90
      256
102
RTVSPost2010Prop51ColorRGB
 90
-16777216
102
RTVSPost2010PropOp51
 70
     0
102
RTVSPost2010Prop52
140
1.0
102
RTVSPost2010PropOp52
 70
     0
102
RTVSPost2010Prop53
 90
        2
102
RTVSPost2010PropOp53
 70
     1
102
RTVSPost2010Prop54
  1
strokes_ogs.tif
102
RTVSPost2010PropOp54
 70
     1
102
RTVSPost2010Prop55
280
     0
102
RTVSPost2010PropOp55
 70
     1
102
RTVSPost2010Prop56
140
1.0
102
RTVSPost2010PropOp56
 70
     1
102
RTVSPost2010Prop57
140
1.0
102
RTVSPost2010PropOp57
 70
     1
102
RTVSPropertyOp0
 70
     1
102
RTVSPropertyOp1
 70
     1
102
RTVSPropertyOp2
 70
     1
102
RTVSPropertyOp3
 70
     1
102
RTVSPropertyOp4
 70
     1
102
RTVSPropertyOp5
 70
     1
102
RTVSPropertyOp6
 70
     1
102
RTVSPropertyOp7
 70
     1
102
RTVSPropertyOp8
 70
     1
102
RTVSPropertyOp9
 70
     1
102
RTVSPropertyOp10
 70
     1
102
RTVSPropertyOp11
 70
     1
102
RTVSPropertyOp12
 70
     1
102
RTVSPropertyOp13
 70
     1
102
RTVSPropertyOp14
 70
     1
102
RTVSPropertyOp15
 70
     1
102
RTVSPropertyOp16
 70
     1
102
RTVSPropertyOp17
 70
     1
102
RTVSPropertyOp18
 70
     1
102
RTVSPropertyOp19
 70
     1
102
RTVSPropertyOp20
 70
     1
102
RTVSPropertyOp21
 70
     1
102
RTVSPropertyOp22
 70
     1
102
RTVSPropertyOp23
 70
     1
102
RTVSPropertyOp24
 70
     1
102
RTVSPropertyOp25
 70
     1
102
RTVSPropertyOp26
 70
     1
102
RTVSPropertyOp27
 70
     1
102
RTVSPropertyOp28
 70
     1
102
RTVSPropertyOp29
 70
     1
102
RTVSPropertyOp30
 70
     1
102
RTVSPropertyOp31
 70
     1
102
RTVSPropertyOp32
 70
     1
102
RTVSPropertyOp33
 70
     1
102
RTVSPropertyOp34
 70
     1
102
RTVSPropertyOp35
 70
     1
102
RTVSPropertyOp36
 70
     1
102
RTVSPropertyOp37
 70
     1
102
RTVSPropertyOp38
 70
     1
102
RTVSPropertyOp39
 70
     1
102
RTVSPropertyOp40
 70
     1
102
RTVSPropertyOp41
 70
     1
102
RTVSPropertyOp42
 70
     1
102
RTVSPropertyOp43
 70
     1
102
RTVSPropertyOp44
 70
     1
102
RTVSPropertyOp45
 70
     1
102
RTVSPropertyOp46
 70
     1
102
RTVSPropertyOp47
 70
     1
102
RTVSPropertyOp48
 70
     1
102
RTVSPropertyOp49
 70
     1
102
RTVSPropertyOp50
 70
     1
102
RTVSPropertyOp51
 70
     0
102
RTVSPropertyOp52
 70
     0
102
RTVSPropertyOp53
 70
     1
102
RTVSPropertyOp54
 70
     1
102
RTVSPropertyOp55
 70
     1
102
RTVSPropertyOp56
 70
     1
102
RTVSPropertyOp57
 70
     1
102
RTVSPropertyOp58
 70
     1
102
RTVSPropertyOp59
 70
     1
102
RTVSPropertyOp60
 70
     1
102
RTVSPropertyOp61
 70
     1
102
RTVSPropertyOp62
 70
     1
  0
XRECORD
  5
5C2F
102
{ACAD_REACTORS
330
5C2E
102
}
330
5C2E
100
AcDbXrecord
280
     1
102
RTVSPost2010Prop28
280
     0
102
RTVSPost2010PropOp28
 70
     1
102
RTVSPost2010Prop29
280
     1
102
RTVSPost2010PropOp29
 70
     1
102
RTVSPost2010Prop30
280
     1
102
RTVSPost2010PropOp30
 70
     1
102
RTVSPost2010Prop31
280
     0
102
RTVSPost2010PropOp31
 70
     1
102
RTVSPost2010Prop32
280
     0
102
RTVSPost2010PropOp32
 70
     1
102
RTVSPost2010Prop33
280
     0
102
RTVSPost2010PropOp33
 70
     1
102
RTVSPost2010Prop34
280
     0
102
RTVSPost2010PropOp34
 70
     1
102
RTVSPost2010Prop35
280
     0
102
RTVSPost2010PropOp35
 70
     1
102
RTVSPost2010Prop36
280
     0
102
RTVSPost2010PropOp36
 70
     1
102
RTVSPost2010Prop37
 90
       50
102
RTVSPost2010PropOp37
 70
     1
102
RTVSPost2010Prop38
140
0.0
102
RTVSPost2010PropOp38
 70
     1
102
RTVSPost2010Prop39
140
1.0
102
RTVSPost2010PropOp39
 70
     1
102
RTVSPost2010Prop40
 90
        0
102
RTVSPost2010PropOp40
 70
     1
102
RTVSPost2010Prop41ColorIndex
 90
       18
102
RTVSPost2010Prop41ColorRGB
 90
        0
102
RTVSPost2010PropOp41
 70
     1
102
RTVSPost2010Prop42
 90
       50
102
RTVSPost2010PropOp42
 70
     1
102
RTVSPost2010Prop43
 90
        3
102
RTVSPost2010PropOp43
 70
     1
102
RTVSPost2010Prop44ColorIndex
 90
        5
102
RTVSPost2010Prop44ColorRGB
 90
      255
102
RTVSPost2010PropOp44
 70
     1
102
RTVSPost2010Prop45
280
     0
102
RTVSPost2010PropOp45
 70
     1
102
RTVSPost2010Prop46
 90
       50
102
RTVSPost2010PropOp46
 70
     1
102
RTVSPost2010Prop47
 90
       50
102
RTVSPost2010PropOp47
 70
     1
102
RTVSPost2010Prop48
 90
       50
102
RTVSPost2010PropOp48
 70
     1
102
RTVSPost2010Prop49
280
     0
102
RTVSPost2010PropOp49
 70
     1
102
RTVSPost2010Prop50
 90
       50
102
RTVSPost2010PropOp50
 70
     1
102
RTVSPost2010Prop51ColorIndex
 90
      256
102
RTVSPost2010Prop51ColorRGB
 90
-16777216
102
RTVSPost2010PropOp51
 70
     0
102
RTVSPost2010Prop52
140
1.0
102
RTVSPost2010PropOp52
 70
     0
102
RTVSPost2010Prop53
 90
        2
102
RTVSPost2010PropOp53
 70
     1
102
RTVSPost2010Prop54
  1
strokes_ogs.tif
102
RTVSPost2010PropOp54
 70
     1
102
RTVSPost2010Prop55
280
     0
102
RTVSPost2010PropOp55
 70
     1
102
RTVSPost2010Prop56
140
1.0
102
RTVSPost2010PropOp56
 70
     1
102
RTVSPost2010Prop57
140
1.0
102
RTVSPost2010PropOp57
 70
     1
102
RTVSPropertyOp0
 70
     1
102
RTVSPropertyOp1
 70
     1
102
RTVSPropertyOp2
 70
     1
102
RTVSPropertyOp3
 70
     1
102
RTVSPropertyOp4
 70
     1
102
RTVSPropertyOp5
 70
     1
102
RTVSPropertyOp6
 70
     1
102
RTVSPropertyOp7
 70
     1
102
RTVSPropertyOp8
 70
     1
102
RTVSPropertyOp9
 70
     1
102
RTVSPropertyOp10
 70
     1
102
RTVSPropertyOp11
 70
     1
102
RTVSPropertyOp12
 70
     1
102
RTVSPropertyOp13
 70
     1
102
RTVSPropertyOp14
 70
     1
102
RTVSPropertyOp15
 70
     1
102
RTVSPropertyOp16
 70
     1
102
RTVSPropertyOp17
 70
     1
102
RTVSPropertyOp18
 70
     1
102
RTVSPropertyOp19
 70
     1
102
RTVSPropertyOp20
 70
     1
102
RTVSPropertyOp21
 70
     1
102
RTVSPropertyOp22
 70
     1
102
RTVSPropertyOp23
 70
     1
102
RTVSPropertyOp24
 70
     1
102
RTVSPropertyOp25
 70
     1
102
RTVSPropertyOp26
 70
     1
102
RTVSPropertyOp27
 70
     1
102
RTVSPropertyOp28
 70
     1
102
RTVSPropertyOp29
 70
     1
102
RTVSPropertyOp30
 70
     1
102
RTVSPropertyOp31
 70
     1
102
RTVSPropertyOp32
 70
     1
102
RTVSPropertyOp33
 70
     1
102
RTVSPropertyOp34
 70
     1
102
RTVSPropertyOp35
 70
     1
102
RTVSPropertyOp36
 70
     1
102
RTVSPropertyOp37
 70
     1
102
RTVSPropertyOp38
 70
     1
102
RTVSPropertyOp39
 70
     1
102
RTVSPropertyOp40
 70
     1
102
RTVSPropertyOp41
 70
     1
102
RTVSPropertyOp42
 70
     1
102
RTVSPropertyOp43
 70
     1
102
RTVSPropertyOp44
 70
     1
102
RTVSPropertyOp45
 70
     1
102
RTVSPropertyOp46
 70
     1
102
RTVSPropertyOp47
 70
     1
102
RTVSPropertyOp48
 70
     1
102
RTVSPropertyOp49
 70
     1
102
RTVSPropertyOp50
 70
     1
102
RTVSPropertyOp51
 70
     0
102
RTVSPropertyOp52
 70
     0
102
RTVSPropertyOp53
 70
     1
102
RTVSPropertyOp54
 70
     1
102
RTVSPropertyOp55
 70
     1
102
RTVSPropertyOp56
 70
     1
102
RTVSPropertyOp57
 70
     1
102
RTVSPropertyOp58
 70
     1
102
RTVSPropertyOp59
 70
     1
102
RTVSPropertyOp60
 70
     1
102
RTVSPropertyOp61
 70
     1
102
RTVSPropertyOp62
 70
     1
  0
XRECORD
  5
5C21
102
{ACAD_REACTORS
330
5C20
102
}
330
5C20
100
AcDbXrecord
280
     1
102
RTVSPost2010Prop28
280
     0
102
RTVSPost2010PropOp28
 70
     1
102
RTVSPost2010Prop29
280
     1
102
RTVSPost2010PropOp29
 70
     1
102
RTVSPost2010Prop30
280
     1
102
RTVSPost2010PropOp30
 70
     1
102
RTVSPost2010Prop31
280
     0
102
RTVSPost2010PropOp31
 70
     1
102
RTVSPost2010Prop32
280
     0
102
RTVSPost2010PropOp32
 70
     1
102
RTVSPost2010Prop33
280
     0
102
RTVSPost2010PropOp33
 70
     1
102
RTVSPost2010Prop34
280
     0
102
RTVSPost2010PropOp34
 70
     1
102
RTVSPost2010Prop35
280
     0
102
RTVSPost2010PropOp35
 70
     1
102
RTVSPost2010Prop36
280
     0
102
RTVSPost2010PropOp36
 70
     1
102
RTVSPost2010Prop37
 90
       50
102
RTVSPost2010PropOp37
 70
     1
102
RTVSPost2010Prop38
140
0.0
102
RTVSPost2010PropOp38
 70
     1
102
RTVSPost2010Prop39
140
1.0
102
RTVSPost2010PropOp39
 70
     1
102
RTVSPost2010Prop40
 90
        0
102
RTVSPost2010PropOp40
 70
     1
102
RTVSPost2010Prop41ColorIndex
 90
       18
102
RTVSPost2010Prop41ColorRGB
 90
        0
102
RTVSPost2010PropOp41
 70
     1
102
RTVSPost2010Prop42
 90
       50
102
RTVSPost2010PropOp42
 70
     1
102
RTVSPost2010Prop43
 90
        3
102
RTVSPost2010PropOp43
 70
     1
102
RTVSPost2010Prop44ColorIndex
 90
        5
102
RTVSPost2010Prop44ColorRGB
 90
      255
102
RTVSPost2010PropOp44
 70
     1
102
RTVSPost2010Prop45
280
     0
102
RTVSPost2010PropOp45
 70
     1
102
RTVSPost2010Prop46
 90
       50
102
RTVSPost2010PropOp46
 70
     1
102
RTVSPost2010Prop47
 90
       50
102
RTVSPost2010PropOp47
 70
     1
102
RTVSPost2010Prop48
 90
       50
102
RTVSPost2010PropOp48
 70
     1
102
RTVSPost2010Prop49
280
     0
102
RTVSPost2010PropOp49
 70
     1
102
RTVSPost2010Prop50
 90
       50
102
RTVSPost2010PropOp50
 70
     1
102
RTVSPost2010Prop51ColorIndex
 90
      256
102
RTVSPost2010Prop51ColorRGB
 90
-16777216
102
RTVSPost2010PropOp51
 70
     0
102
RTVSPost2010Prop52
140
1.0
102
RTVSPost2010PropOp52
 70
     0
102
RTVSPost2010Prop53
 90
        2
102
RTVSPost2010PropOp53
 70
     1
102
RTVSPost2010Prop54
  1
strokes_ogs.tif
102
RTVSPost2010PropOp54
 70
     1
102
RTVSPost2010Prop55
280
     0
102
RTVSPost2010PropOp55
 70
     1
102
RTVSPost2010Prop56
140
1.0
102
RTVSPost2010PropOp56
 70
     1
102
RTVSPost2010Prop57
140
1.0
102
RTVSPost2010PropOp57
 70
     1
102
RTVSPropertyOp0
 70
     1
102
RTVSPropertyOp1
 70
     1
102
RTVSPropertyOp2
 70
     1
102
RTVSPropertyOp3
 70
     1
102
RTVSPropertyOp4
 70
     1
102
RTVSPropertyOp5
 70
     1
102
RTVSPropertyOp6
 70
     1
102
RTVSPropertyOp7
 70
     1
102
RTVSPropertyOp8
 70
     1
102
RTVSPropertyOp9
 70
     1
102
RTVSPropertyOp10
 70
     1
102
RTVSPropertyOp11
 70
     1
102
RTVSPropertyOp12
 70
     1
102
RTVSPropertyOp13
 70
     1
102
RTVSPropertyOp14
 70
     1
102
RTVSPropertyOp15
 70
     1
102
RTVSPropertyOp16
 70
     1
102
RTVSPropertyOp17
 70
     1
102
RTVSPropertyOp18
 70
     1
102
RTVSPropertyOp19
 70
     1
102
RTVSPropertyOp20
 70
     1
102
RTVSPropertyOp21
 70
     1
102
RTVSPropertyOp22
 70
     1
102
RTVSPropertyOp23
 70
     1
102
RTVSPropertyOp24
 70
     1
102
RTVSPropertyOp25
 70
     1
102
RTVSPropertyOp26
 70
     1
102
RTVSPropertyOp27
 70
     1
102
RTVSPropertyOp28
 70
     1
102
RTVSPropertyOp29
 70
     1
102
RTVSPropertyOp30
 70
     1
102
RTVSPropertyOp31
 70
     1
102
RTVSPropertyOp32
 70
     1
102
RTVSPropertyOp33
 70
     1
102
RTVSPropertyOp34
 70
     1
102
RTVSPropertyOp35
 70
     1
102
RTVSPropertyOp36
 70
     1
102
RTVSPropertyOp37
 70
     1
102
RTVSPropertyOp38
 70
     1
102
RTVSPropertyOp39
 70
     1
102
RTVSPropertyOp40
 70
     1
102
RTVSPropertyOp41
 70
     1
102
RTVSPropertyOp42
 70
     1
102
RTVSPropertyOp43
 70
     1
102
RTVSPropertyOp44
 70
     1
102
RTVSPropertyOp45
 70
     1
102
RTVSPropertyOp46
 70
     1
102
RTVSPropertyOp47
 70
     1
102
RTVSPropertyOp48
 70
     1
102
RTVSPropertyOp49
 70
     1
102
RTVSPropertyOp50
 70
     1
102
RTVSPropertyOp51
 70
     0
102
RTVSPropertyOp52
 70
     0
102
RTVSPropertyOp53
 70
     1
102
RTVSPropertyOp54
 70
     1
102
RTVSPropertyOp55
 70
     1
102
RTVSPropertyOp56
 70
     1
102
RTVSPropertyOp57
 70
     1
102
RTVSPropertyOp58
 70
     1
102
RTVSPropertyOp59
 70
     1
102
RTVSPropertyOp60
 70
     1
102
RTVSPropertyOp61
 70
     1
102
RTVSPropertyOp62
 70
     1
  0
XRECORD
  5
5C25
102
{ACAD_REACTORS
330
5C24
102
}
330
5C24
100
AcDbXrecord
280
     1
102
RTVSPost2010Prop28
280
     0
102
RTVSPost2010PropOp28
 70
     1
102
RTVSPost2010Prop29
280
     1
102
RTVSPost2010PropOp29
 70
     1
102
RTVSPost2010Prop30
280
     1
102
RTVSPost2010PropOp30
 70
     1
102
RTVSPost2010Prop31
280
     0
102
RTVSPost2010PropOp31
 70
     1
102
RTVSPost2010Prop32
280
     0
102
RTVSPost2010PropOp32
 70
     1
102
RTVSPost2010Prop33
280
     0
102
RTVSPost2010PropOp33
 70
     1
102
RTVSPost2010Prop34
280
     0
102
RTVSPost2010PropOp34
 70
     1
102
RTVSPost2010Prop35
280
     0
102
RTVSPost2010PropOp35
 70
     1
102
RTVSPost2010Prop36
280
     0
102
RTVSPost2010PropOp36
 70
     1
102
RTVSPost2010Prop37
 90
       50
102
RTVSPost2010PropOp37
 70
     1
102
RTVSPost2010Prop38
140
0.0
102
RTVSPost2010PropOp38
 70
     1
102
RTVSPost2010Prop39
140
1.0
102
RTVSPost2010PropOp39
 70
     1
102
RTVSPost2010Prop40
 90
        0
102
RTVSPost2010PropOp40
 70
     1
102
RTVSPost2010Prop41ColorIndex
 90
       18
102
RTVSPost2010Prop41ColorRGB
 90
        0
102
RTVSPost2010PropOp41
 70
     1
102
RTVSPost2010Prop42
 90
       50
102
RTVSPost2010PropOp42
 70
     1
102
RTVSPost2010Prop43
 90
        3
102
RTVSPost2010PropOp43
 70
     1
102
RTVSPost2010Prop44ColorIndex
 90
        5
102
RTVSPost2010Prop44ColorRGB
 90
      255
102
RTVSPost2010PropOp44
 70
     1
102
RTVSPost2010Prop45
280
     0
102
RTVSPost2010PropOp45
 70
     1
102
RTVSPost2010Prop46
 90
       50
102
RTVSPost2010PropOp46
 70
     1
102
RTVSPost2010Prop47
 90
       50
102
RTVSPost2010PropOp47
 70
     1
102
RTVSPost2010Prop48
 90
       50
102
RTVSPost2010PropOp48
 70
     1
102
RTVSPost2010Prop49
280
     0
102
RTVSPost2010PropOp49
 70
     1
102
RTVSPost2010Prop50
 90
       50
102
RTVSPost2010PropOp50
 70
     1
102
RTVSPost2010Prop51ColorIndex
 90
      256
102
RTVSPost2010Prop51ColorRGB
 90
-16777216
102
RTVSPost2010PropOp51
 70
     0
102
RTVSPost2010Prop52
140
1.0
102
RTVSPost2010PropOp52
 70
     0
102
RTVSPost2010Prop53
 90
        2
102
RTVSPost2010PropOp53
 70
     1
102
RTVSPost2010Prop54
  1
strokes_ogs.tif
102
RTVSPost2010PropOp54
 70
     1
102
RTVSPost2010Prop55
280
     0
102
RTVSPost2010PropOp55
 70
     1
102
RTVSPost2010Prop56
140
1.0
102
RTVSPost2010PropOp56
 70
     1
102
RTVSPost2010Prop57
140
1.0
102
RTVSPost2010PropOp57
 70
     1
102
RTVSPropertyOp0
 70
     1
102
RTVSPropertyOp1
 70
     1
102
RTVSPropertyOp2
 70
     1
102
RTVSPropertyOp3
 70
     1
102
RTVSPropertyOp4
 70
     1
102
RTVSPropertyOp5
 70
     1
102
RTVSPropertyOp6
 70
     1
102
RTVSPropertyOp7
 70
     1
102
RTVSPropertyOp8
 70
     1
102
RTVSPropertyOp9
 70
     1
102
RTVSPropertyOp10
 70
     1
102
RTVSPropertyOp11
 70
     1
102
RTVSPropertyOp12
 70
     1
102
RTVSPropertyOp13
 70
     1
102
RTVSPropertyOp14
 70
     1
102
RTVSPropertyOp15
 70
     1
102
RTVSPropertyOp16
 70
     1
102
RTVSPropertyOp17
 70
     1
102
RTVSPropertyOp18
 70
     1
102
RTVSPropertyOp19
 70
     1
102
RTVSPropertyOp20
 70
     1
102
RTVSPropertyOp21
 70
     1
102
RTVSPropertyOp22
 70
     1
102
RTVSPropertyOp23
 70
     1
102
RTVSPropertyOp24
 70
     1
102
RTVSPropertyOp25
 70
     1
102
RTVSPropertyOp26
 70
     1
102
RTVSPropertyOp27
 70
     1
102
RTVSPropertyOp28
 70
     1
102
RTVSPropertyOp29
 70
     1
102
RTVSPropertyOp30
 70
     1
102
RTVSPropertyOp31
 70
     1
102
RTVSPropertyOp32
 70
     1
102
RTVSPropertyOp33
 70
     1
102
RTVSPropertyOp34
 70
     1
102
RTVSPropertyOp35
 70
     1
102
RTVSPropertyOp36
 70
     1
102
RTVSPropertyOp37
 70
     1
102
RTVSPropertyOp38
 70
     1
102
RTVSPropertyOp39
 70
     1
102
RTVSPropertyOp40
 70
     1
102
RTVSPropertyOp41
 70
     1
102
RTVSPropertyOp42
 70
     1
102
RTVSPropertyOp43
 70
     1
102
RTVSPropertyOp44
 70
     1
102
RTVSPropertyOp45
 70
     1
102
RTVSPropertyOp46
 70
     1
102
RTVSPropertyOp47
 70
     1
102
RTVSPropertyOp48
 70
     1
102
RTVSPropertyOp49
 70
     1
102
RTVSPropertyOp50
 70
     1
102
RTVSPropertyOp51
 70
     0
102
RTVSPropertyOp52
 70
     0
102
RTVSPropertyOp53
 70
     1
102
RTVSPropertyOp54
 70
     1
102
RTVSPropertyOp55
 70
     1
102
RTVSPropertyOp56
 70
     1
102
RTVSPropertyOp57
 70
     1
102
RTVSPropertyOp58
 70
     1
102
RTVSPropertyOp59
 70
     1
102
RTVSPropertyOp60
 70
     1
102
RTVSPropertyOp61
 70
     1
102
RTVSPropertyOp62
 70
     1
  0
XRECORD
  5
5C3F
102
{ACAD_REACTORS
330
5C3E
102
}
330
5C3E
100
AcDbXrecord
280
     1
102
RTVSPost2010Prop28
280
     0
102
RTVSPost2010PropOp28
 70
     0
102
RTVSPost2010Prop29
280
     1
102
RTVSPost2010PropOp29
 70
     0
102
RTVSPost2010Prop30
280
     1
102
RTVSPost2010PropOp30
 70
     0
102
RTVSPost2010Prop31
280
     0
102
RTVSPost2010PropOp31
 70
     0
102
RTVSPost2010Prop32
280
     0
102
RTVSPost2010PropOp32
 70
     0
102
RTVSPost2010Prop33
280
     0
102
RTVSPost2010PropOp33
 70
     0
102
RTVSPost2010Prop34
280
     0
102
RTVSPost2010PropOp34
 70
     0
102
RTVSPost2010Prop35
280
     0
102
RTVSPost2010PropOp35
 70
     0
102
RTVSPost2010Prop36
280
     0
102
RTVSPost2010PropOp36
 70
     0
102
RTVSPost2010Prop37
 90
       50
102
RTVSPost2010PropOp37
 70
     0
102
RTVSPost2010Prop38
140
0.0
102
RTVSPost2010PropOp38
 70
     0
102
RTVSPost2010Prop39
140
1.0
102
RTVSPost2010PropOp39
 70
     0
102
RTVSPost2010Prop40
 90
        0
102
RTVSPost2010PropOp40
 70
     0
102
RTVSPost2010Prop41ColorIndex
 90
       18
102
RTVSPost2010Prop41ColorRGB
 90
        0
102
RTVSPost2010PropOp41
 70
     0
102
RTVSPost2010Prop42
 90
       50
102
RTVSPost2010PropOp42
 70
     0
102
RTVSPost2010Prop43
 90
        3
102
RTVSPost2010PropOp43
 70
     0
102
RTVSPost2010Prop44ColorIndex
 90
        5
102
RTVSPost2010Prop44ColorRGB
 90
      255
102
RTVSPost2010PropOp44
 70
     0
102
RTVSPost2010Prop45
280
     0
102
RTVSPost2010PropOp45
 70
     0
102
RTVSPost2010Prop46
 90
       50
102
RTVSPost2010PropOp46
 70
     0
102
RTVSPost2010Prop47
 90
       50
102
RTVSPost2010PropOp47
 70
     0
102
RTVSPost2010Prop48
 90
       50
102
RTVSPost2010PropOp48
 70
     0
102
RTVSPost2010Prop49
280
     0
102
RTVSPost2010PropOp49
 70
     0
102
RTVSPost2010Prop50
 90
       50
102
RTVSPost2010PropOp50
 70
     0
102
RTVSPost2010Prop51ColorIndex
 90
      256
102
RTVSPost2010Prop51ColorRGB
 90
-16777216
102
RTVSPost2010PropOp51
 70
     0
102
RTVSPost2010Prop52
140
1.0
102
RTVSPost2010PropOp52
 70
     0
102
RTVSPost2010Prop53
 90
        2
102
RTVSPost2010PropOp53
 70
     0
102
RTVSPost2010Prop54
  1
strokes_ogs.tif
102
RTVSPost2010PropOp54
 70
     0
102
RTVSPost2010Prop55
280
     0
102
RTVSPost2010PropOp55
 70
     0
102
RTVSPost2010Prop56
140
1.0
102
RTVSPost2010PropOp56
 70
     0
102
RTVSPost2010Prop57
140
1.0
102
RTVSPost2010PropOp57
 70
     0
102
RTVSPropertyOp0
 70
     0
102
RTVSPropertyOp1
 70
     0
102
RTVSPropertyOp2
 70
     0
102
RTVSPropertyOp3
 70
     0
102
RTVSPropertyOp4
 70
     0
102
RTVSPropertyOp5
 70
     0
102
RTVSPropertyOp6
 70
     0
102
RTVSPropertyOp7
 70
     0
102
RTVSPropertyOp8
 70
     0
102
RTVSPropertyOp9
 70
     0
102
RTVSPropertyOp10
 70
     0
102
RTVSPropertyOp11
 70
     0
102
RTVSPropertyOp12
 70
     0
102
RTVSPropertyOp13
 70
     0
102
RTVSPropertyOp14
 70
     2
102
RTVSPropertyOp15
 70
     0
102
RTVSPropertyOp16
 70
     0
102
RTVSPropertyOp17
 70
     0
102
RTVSPropertyOp18
 70
     0
102
RTVSPropertyOp19
 70
     0
102
RTVSPropertyOp20
 70
     0
102
RTVSPropertyOp21
 70
     0
102
RTVSPropertyOp22
 70
     0
102
RTVSPropertyOp23
 70
     0
102
RTVSPropertyOp24
 70
     0
102
RTVSPropertyOp25
 70
     0
102
RTVSPropertyOp26
 70
     0
102
RTVSPropertyOp27
 70
     0
102
RTVSPropertyOp28
 70
     0
102
RTVSPropertyOp29
 70
     0
102
RTVSPropertyOp30
 70
     0
102
RTVSPropertyOp31
 70
     0
102
RTVSPropertyOp32
 70
     0
102
RTVSPropertyOp33
 70
     0
102
RTVSPropertyOp34
 70
     0
102
RTVSPropertyOp35
 70
     0
102
RTVSPropertyOp36
 70
     0
102
RTVSPropertyOp37
 70
     0
102
RTVSPropertyOp38
 70
     0
102
RTVSPropertyOp39
 70
     0
102
RTVSPropertyOp40
 70
     0
102
RTVSPropertyOp41
 70
     0
102
RTVSPropertyOp42
 70
     0
102
RTVSPropertyOp43
 70
     0
102
RTVSPropertyOp44
 70
     0
102
RTVSPropertyOp45
 70
     0
102
RTVSPropertyOp46
 70
     0
102
RTVSPropertyOp47
 70
     0
102
RTVSPropertyOp48
 70
     0
102
RTVSPropertyOp49
 70
     0
102
RTVSPropertyOp50
 70
     0
102
RTVSPropertyOp51
 70
     0
102
RTVSPropertyOp52
 70
     0
102
RTVSPropertyOp53
 70
     0
102
RTVSPropertyOp54
 70
     0
102
RTVSPropertyOp55
 70
     0
102
RTVSPropertyOp56
 70
     0
102
RTVSPropertyOp57
 70
     0
102
RTVSPropertyOp58
 70
     1
102
RTVSPropertyOp59
 70
     1
102
RTVSPropertyOp60
 70
     1
102
RTVSPropertyOp61
 70
     1
102
RTVSPropertyOp62
 70
     1
  0
XRECORD
  5
5C2D
102
{ACAD_REACTORS
330
5C2C
102
}
330
5C2C
100
AcDbXrecord
280
     1
102
RTVSPost2010Prop28
280
     0
102
RTVSPost2010PropOp28
 70
     1
102
RTVSPost2010Prop29
280
     1
102
RTVSPost2010PropOp29
 70
     1
102
RTVSPost2010Prop30
280
     1
102
RTVSPost2010PropOp30
 70
     1
102
RTVSPost2010Prop31
280
     0
102
RTVSPost2010PropOp31
 70
     1
102
RTVSPost2010Prop32
280
     0
102
RTVSPost2010PropOp32
 70
     1
102
RTVSPost2010Prop33
280
     0
102
RTVSPost2010PropOp33
 70
     1
102
RTVSPost2010Prop34
280
     0
102
RTVSPost2010PropOp34
 70
     1
102
RTVSPost2010Prop35
280
     0
102
RTVSPost2010PropOp35
 70
     1
102
RTVSPost2010Prop36
280
     0
102
RTVSPost2010PropOp36
 70
     1
102
RTVSPost2010Prop37
 90
       50
102
RTVSPost2010PropOp37
 70
     1
102
RTVSPost2010Prop38
140
0.0
102
RTVSPost2010PropOp38
 70
     1
102
RTVSPost2010Prop39
140
1.0
102
RTVSPost2010PropOp39
 70
     1
102
RTVSPost2010Prop40
 90
        0
102
RTVSPost2010PropOp40
 70
     1
102
RTVSPost2010Prop41ColorIndex
 90
       18
102
RTVSPost2010Prop41ColorRGB
 90
        0
102
RTVSPost2010PropOp41
 70
     1
102
RTVSPost2010Prop42
 90
       50
102
RTVSPost2010PropOp42
 70
     1
102
RTVSPost2010Prop43
 90
        3
102
RTVSPost2010PropOp43
 70
     1
102
RTVSPost2010Prop44ColorIndex
 90
        5
102
RTVSPost2010Prop44ColorRGB
 90
      255
102
RTVSPost2010PropOp44
 70
     1
102
RTVSPost2010Prop45
280
     0
102
RTVSPost2010PropOp45
 70
     1
102
RTVSPost2010Prop46
 90
       50
102
RTVSPost2010PropOp46
 70
     1
102
RTVSPost2010Prop47
 90
       50
102
RTVSPost2010PropOp47
 70
     1
102
RTVSPost2010Prop48
 90
       50
102
RTVSPost2010PropOp48
 70
     1
102
RTVSPost2010Prop49
280
     0
102
RTVSPost2010PropOp49
 70
     1
102
RTVSPost2010Prop50
 90
       50
102
RTVSPost2010PropOp50
 70
     1
102
RTVSPost2010Prop51ColorIndex
 90
      256
102
RTVSPost2010Prop51ColorRGB
 90
-16777216
102
RTVSPost2010PropOp51
 70
     0
102
RTVSPost2010Prop52
140
1.0
102
RTVSPost2010PropOp52
 70
     0
102
RTVSPost2010Prop53
 90
        2
102
RTVSPost2010PropOp53
 70
     1
102
RTVSPost2010Prop54
  1
strokes_ogs.tif
102
RTVSPost2010PropOp54
 70
     1
102
RTVSPost2010Prop55
280
     0
102
RTVSPost2010PropOp55
 70
     1
102
RTVSPost2010Prop56
140
1.0
102
RTVSPost2010PropOp56
 70
     1
102
RTVSPost2010Prop57
140
1.0
102
RTVSPost2010PropOp57
 70
     1
102
RTVSPropertyOp0
 70
     1
102
RTVSPropertyOp1
 70
     1
102
RTVSPropertyOp2
 70
     1
102
RTVSPropertyOp3
 70
     1
102
RTVSPropertyOp4
 70
     1
102
RTVSPropertyOp5
 70
     1
102
RTVSPropertyOp6
 70
     1
102
RTVSPropertyOp7
 70
     1
102
RTVSPropertyOp8
 70
     1
102
RTVSPropertyOp9
 70
     1
102
RTVSPropertyOp10
 70
     1
102
RTVSPropertyOp11
 70
     1
102
RTVSPropertyOp12
 70
     1
102
RTVSPropertyOp13
 70
     1
102
RTVSPropertyOp14
 70
     1
102
RTVSPropertyOp15
 70
     1
102
RTVSPropertyOp16
 70
     1
102
RTVSPropertyOp17
 70
     1
102
RTVSPropertyOp18
 70
     1
102
RTVSPropertyOp19
 70
     1
102
RTVSPropertyOp20
 70
     1
102
RTVSPropertyOp21
 70
     1
102
RTVSPropertyOp22
 70
     1
102
RTVSPropertyOp23
 70
     1
102
RTVSPropertyOp24
 70
     1
102
RTVSPropertyOp25
 70
     1
102
RTVSPropertyOp26
 70
     1
102
RTVSPropertyOp27
 70
     1
102
RTVSPropertyOp28
 70
     1
102
RTVSPropertyOp29
 70
     1
102
RTVSPropertyOp30
 70
     1
102
RTVSPropertyOp31
 70
     1
102
RTVSPropertyOp32
 70
     1
102
RTVSPropertyOp33
 70
     1
102
RTVSPropertyOp34
 70
     1
102
RTVSPropertyOp35
 70
     1
102
RTVSPropertyOp36
 70
     1
102
RTVSPropertyOp37
 70
     1
102
RTVSPropertyOp38
 70
     1
102
RTVSPropertyOp39
 70
     1
102
RTVSPropertyOp40
 70
     1
102
RTVSPropertyOp41
 70
     1
102
RTVSPropertyOp42
 70
     1
102
RTVSPropertyOp43
 70
     1
102
RTVSPropertyOp44
 70
     1
102
RTVSPropertyOp45
 70
     1
102
RTVSPropertyOp46
 70
     1
102
RTVSPropertyOp47
 70
     1
102
RTVSPropertyOp48
 70
     1
102
RTVSPropertyOp49
 70
     1
102
RTVSPropertyOp50
 70
     1
102
RTVSPropertyOp51
 70
     0
102
RTVSPropertyOp52
 70
     0
102
RTVSPropertyOp53
 70
     1
102
RTVSPropertyOp54
 70
     1
102
RTVSPropertyOp55
 70
     1
102
RTVSPropertyOp56
 70
     1
102
RTVSPropertyOp57
 70
     1
102
RTVSPropertyOp58
 70
     1
102
RTVSPropertyOp59
 70
     1
102
RTVSPropertyOp60
 70
     1
102
RTVSPropertyOp61
 70
     1
102
RTVSPropertyOp62
 70
     1
  0
XRECORD
  5
5C11
102
{ACAD_REACTORS
330
5C10
102
}
330
5C10
100
AcDbXrecord
280
     1
102
RTVSPost2010Prop28
280
     0
102
RTVSPost2010PropOp28
 70
     1
102
RTVSPost2010Prop29
280
     1
102
RTVSPost2010PropOp29
 70
     1
102
RTVSPost2010Prop30
280
     1
102
RTVSPost2010PropOp30
 70
     1
102
RTVSPost2010Prop31
280
     0
102
RTVSPost2010PropOp31
 70
     1
102
RTVSPost2010Prop32
280
     0
102
RTVSPost2010PropOp32
 70
     1
102
RTVSPost2010Prop33
280
     0
102
RTVSPost2010PropOp33
 70
     1
102
RTVSPost2010Prop34
280
     0
102
RTVSPost2010PropOp34
 70
     1
102
RTVSPost2010Prop35
280
     0
102
RTVSPost2010PropOp35
 70
     1
102
RTVSPost2010Prop36
280
     0
102
RTVSPost2010PropOp36
 70
     1
102
RTVSPost2010Prop37
 90
       50
102
RTVSPost2010PropOp37
 70
     1
102
RTVSPost2010Prop38
140
0.0
102
RTVSPost2010PropOp38
 70
     1
102
RTVSPost2010Prop39
140
1.0
102
RTVSPost2010PropOp39
 70
     1
102
RTVSPost2010Prop40
 90
        0
102
RTVSPost2010PropOp40
 70
     1
102
RTVSPost2010Prop41ColorIndex
 90
       18
102
RTVSPost2010Prop41ColorRGB
 90
        0
102
RTVSPost2010PropOp41
 70
     1
102
RTVSPost2010Prop42
 90
       50
102
RTVSPost2010PropOp42
 70
     1
102
RTVSPost2010Prop43
 90
        3
102
RTVSPost2010PropOp43
 70
     1
102
RTVSPost2010Prop44ColorIndex
 90
        5
102
RTVSPost2010Prop44ColorRGB
 90
      255
102
RTVSPost2010PropOp44
 70
     1
102
RTVSPost2010Prop45
280
     0
102
RTVSPost2010PropOp45
 70
     1
102
RTVSPost2010Prop46
 90
       50
102
RTVSPost2010PropOp46
 70
     1
102
RTVSPost2010Prop47
 90
       50
102
RTVSPost2010PropOp47
 70
     1
102
RTVSPost2010Prop48
 90
       50
102
RTVSPost2010PropOp48
 70
     1
102
RTVSPost2010Prop49
280
     0
102
RTVSPost2010PropOp49
 70
     1
102
RTVSPost2010Prop50
 90
       50
102
RTVSPost2010PropOp50
 70
     1
102
RTVSPost2010Prop51ColorIndex
 90
      256
102
RTVSPost2010Prop51ColorRGB
 90
-16777216
102
RTVSPost2010PropOp51
 70
     0
102
RTVSPost2010Prop52
140
1.0
102
RTVSPost2010PropOp52
 70
     0
102
RTVSPost2010Prop53
 90
        2
102
RTVSPost2010PropOp53
 70
     1
102
RTVSPost2010Prop54
  1
strokes_ogs.tif
102
RTVSPost2010PropOp54
 70
     1
102
RTVSPost2010Prop55
280
     0
102
RTVSPost2010PropOp55
 70
     1
102
RTVSPost2010Prop56
140
1.0
102
RTVSPost2010PropOp56
 70
     1
102
RTVSPost2010Prop57
140
1.0
102
RTVSPost2010PropOp57
 70
     1
102
RTVSPropertyOp0
 70
     1
102
RTVSPropertyOp1
 70
     1
102
RTVSPropertyOp2
 70
     1
102
RTVSPropertyOp3
 70
     1
102
RTVSPropertyOp4
 70
     1
102
RTVSPropertyOp5
 70
     1
102
RTVSPropertyOp6
 70
     1
102
RTVSPropertyOp7
 70
     1
102
RTVSPropertyOp8
 70
     1
102
RTVSPropertyOp9
 70
     1
102
RTVSPropertyOp10
 70
     1
102
RTVSPropertyOp11
 70
     1
102
RTVSPropertyOp12
 70
     1
102
RTVSPropertyOp13
 70
     1
102
RTVSPropertyOp14
 70
     1
102
RTVSPropertyOp15
 70
     1
102
RTVSPropertyOp16
 70
     1
102
RTVSPropertyOp17
 70
     1
102
RTVSPropertyOp18
 70
     1
102
RTVSPropertyOp19
 70
     1
102
RTVSPropertyOp20
 70
     1
102
RTVSPropertyOp21
 70
     1
102
RTVSPropertyOp22
 70
     1
102
RTVSPropertyOp23
 70
     1
102
RTVSPropertyOp24
 70
     1
102
RTVSPropertyOp25
 70
     1
102
RTVSPropertyOp26
 70
     1
102
RTVSPropertyOp27
 70
     1
102
RTVSPropertyOp28
 70
     1
102
RTVSPropertyOp29
 70
     1
102
RTVSPropertyOp30
 70
     1
102
RTVSPropertyOp31
 70
     1
102
RTVSPropertyOp32
 70
     1
102
RTVSPropertyOp33
 70
     1
102
RTVSPropertyOp34
 70
     1
102
RTVSPropertyOp35
 70
     1
102
RTVSPropertyOp36
 70
     1
102
RTVSPropertyOp37
 70
     1
102
RTVSPropertyOp38
 70
     1
102
RTVSPropertyOp39
 70
     1
102
RTVSPropertyOp40
 70
     1
102
RTVSPropertyOp41
 70
     1
102
RTVSPropertyOp42
 70
     1
102
RTVSPropertyOp43
 70
     1
102
RTVSPropertyOp44
 70
     1
102
RTVSPropertyOp45
 70
     1
102
RTVSPropertyOp46
 70
     1
102
RTVSPropertyOp47
 70
     1
102
RTVSPropertyOp48
 70
     1
102
RTVSPropertyOp49
 70
     1
102
RTVSPropertyOp50
 70
     1
102
RTVSPropertyOp51
 70
     0
102
RTVSPropertyOp52
 70
     0
102
RTVSPropertyOp53
 70
     1
102
RTVSPropertyOp54
 70
     1
102
RTVSPropertyOp55
 70
     1
102
RTVSPropertyOp56
 70
     1
102
RTVSPropertyOp57
 70
     1
102
RTVSPropertyOp58
 70
     1
102
RTVSPropertyOp59
 70
     1
102
RTVSPropertyOp60
 70
     1
102
RTVSPropertyOp61
 70
     1
102
RTVSPropertyOp62
 70
     1
  0
XRECORD
  5
5C13
102
{ACAD_REACTORS
330
5C12
102
}
330
5C12
100
AcDbXrecord
280
     1
102
RTVSPost2010Prop28
280
     0
102
RTVSPost2010PropOp28
 70
     1
102
RTVSPost2010Prop29
280
     1
102
RTVSPost2010PropOp29
 70
     1
102
RTVSPost2010Prop30
280
     1
102
RTVSPost2010PropOp30
 70
     1
102
RTVSPost2010Prop31
280
     0
102
RTVSPost2010PropOp31
 70
     1
102
RTVSPost2010Prop32
280
     0
102
RTVSPost2010PropOp32
 70
     1
102
RTVSPost2010Prop33
280
     0
102
RTVSPost2010PropOp33
 70
     1
102
RTVSPost2010Prop34
280
     0
102
RTVSPost2010PropOp34
 70
     1
102
RTVSPost2010Prop35
280
     0
102
RTVSPost2010PropOp35
 70
     1
102
RTVSPost2010Prop36
280
     0
102
RTVSPost2010PropOp36
 70
     1
102
RTVSPost2010Prop37
 90
       50
102
RTVSPost2010PropOp37
 70
     1
102
RTVSPost2010Prop38
140
0.0
102
RTVSPost2010PropOp38
 70
     1
102
RTVSPost2010Prop39
140
1.0
102
RTVSPost2010PropOp39
 70
     1
102
RTVSPost2010Prop40
 90
        0
102
RTVSPost2010PropOp40
 70
     1
102
RTVSPost2010Prop41ColorIndex
 90
       18
102
RTVSPost2010Prop41ColorRGB
 90
        0
102
RTVSPost2010PropOp41
 70
     1
102
RTVSPost2010Prop42
 90
       50
102
RTVSPost2010PropOp42
 70
     1
102
RTVSPost2010Prop43
 90
        3
102
RTVSPost2010PropOp43
 70
     1
102
RTVSPost2010Prop44ColorIndex
 90
        5
102
RTVSPost2010Prop44ColorRGB
 90
      255
102
RTVSPost2010PropOp44
 70
     1
102
RTVSPost2010Prop45
280
     0
102
RTVSPost2010PropOp45
 70
     1
102
RTVSPost2010Prop46
 90
       50
102
RTVSPost2010PropOp46
 70
     1
102
RTVSPost2010Prop47
 90
       50
102
RTVSPost2010PropOp47
 70
     1
102
RTVSPost2010Prop48
 90
       50
102
RTVSPost2010PropOp48
 70
     1
102
RTVSPost2010Prop49
280
     0
102
RTVSPost2010PropOp49
 70
     1
102
RTVSPost2010Prop50
 90
       50
102
RTVSPost2010PropOp50
 70
     1
102
RTVSPost2010Prop51ColorIndex
 90
      256
102
RTVSPost2010Prop51ColorRGB
 90
-16777216
102
RTVSPost2010PropOp51
 70
     0
102
RTVSPost2010Prop52
140
1.0
102
RTVSPost2010PropOp52
 70
     0
102
RTVSPost2010Prop53
 90
        2
102
RTVSPost2010PropOp53
 70
     1
102
RTVSPost2010Prop54
  1
strokes_ogs.tif
102
RTVSPost2010PropOp54
 70
     1
102
RTVSPost2010Prop55
280
     0
102
RTVSPost2010PropOp55
 70
     1
102
RTVSPost2010Prop56
140
1.0
102
RTVSPost2010PropOp56
 70
     1
102
RTVSPost2010Prop57
140
1.0
102
RTVSPost2010PropOp57
 70
     1
102
RTVSPropertyOp0
 70
     1
102
RTVSPropertyOp1
 70
     1
102
RTVSPropertyOp2
 70
     1
102
RTVSPropertyOp3
 70
     1
102
RTVSPropertyOp4
 70
     1
102
RTVSPropertyOp5
 70
     1
102
RTVSPropertyOp6
 70
     1
102
RTVSPropertyOp7
 70
     1
102
RTVSPropertyOp8
 70
     1
102
RTVSPropertyOp9
 70
     1
102
RTVSPropertyOp10
 70
     1
102
RTVSPropertyOp11
 70
     1
102
RTVSPropertyOp12
 70
     1
102
RTVSPropertyOp13
 70
     1
102
RTVSPropertyOp14
 70
     1
102
RTVSPropertyOp15
 70
     1
102
RTVSPropertyOp16
 70
     1
102
RTVSPropertyOp17
 70
     1
102
RTVSPropertyOp18
 70
     1
102
RTVSPropertyOp19
 70
     1
102
RTVSPropertyOp20
 70
     1
102
RTVSPropertyOp21
 70
     1
102
RTVSPropertyOp22
 70
     1
102
RTVSPropertyOp23
 70
     1
102
RTVSPropertyOp24
 70
     1
102
RTVSPropertyOp25
 70
     1
102
RTVSPropertyOp26
 70
     1
102
RTVSPropertyOp27
 70
     1
102
RTVSPropertyOp28
 70
     1
102
RTVSPropertyOp29
 70
     1
102
RTVSPropertyOp30
 70
     1
102
RTVSPropertyOp31
 70
     1
102
RTVSPropertyOp32
 70
     1
102
RTVSPropertyOp33
 70
     1
102
RTVSPropertyOp34
 70
     1
102
RTVSPropertyOp35
 70
     1
102
RTVSPropertyOp36
 70
     1
102
RTVSPropertyOp37
 70
     1
102
RTVSPropertyOp38
 70
     1
102
RTVSPropertyOp39
 70
     1
102
RTVSPropertyOp40
 70
     1
102
RTVSPropertyOp41
 70
     1
102
RTVSPropertyOp42
 70
     1
102
RTVSPropertyOp43
 70
     1
102
RTVSPropertyOp44
 70
     1
102
RTVSPropertyOp45
 70
     1
102
RTVSPropertyOp46
 70
     1
102
RTVSPropertyOp47
 70
     1
102
RTVSPropertyOp48
 70
     1
102
RTVSPropertyOp49
 70
     1
102
RTVSPropertyOp50
 70
     1
102
RTVSPropertyOp51
 70
     0
102
RTVSPropertyOp52
 70
     0
102
RTVSPropertyOp53
 70
     1
102
RTVSPropertyOp54
 70
     1
102
RTVSPropertyOp55
 70
     1
102
RTVSPropertyOp56
 70
     1
102
RTVSPropertyOp57
 70
     1
102
RTVSPropertyOp58
 70
     1
102
RTVSPropertyOp59
 70
     1
102
RTVSPropertyOp60
 70
     1
102
RTVSPropertyOp61
 70
     1
102
RTVSPropertyOp62
 70
     1
  0
XRECORD
  5
5C15
102
{ACAD_REACTORS
330
5C14
102
}
330
5C14
100
AcDbXrecord
280
     1
102
RTVSPost2010Prop28
280
     0
102
RTVSPost2010PropOp28
 70
     1
102
RTVSPost2010Prop29
280
     1
102
RTVSPost2010PropOp29
 70
     1
102
RTVSPost2010Prop30
280
     1
102
RTVSPost2010PropOp30
 70
     1
102
RTVSPost2010Prop31
280
     0
102
RTVSPost2010PropOp31
 70
     1
102
RTVSPost2010Prop32
280
     0
102
RTVSPost2010PropOp32
 70
     1
102
RTVSPost2010Prop33
280
     0
102
RTVSPost2010PropOp33
 70
     1
102
RTVSPost2010Prop34
280
     0
102
RTVSPost2010PropOp34
 70
     1
102
RTVSPost2010Prop35
280
     0
102
RTVSPost2010PropOp35
 70
     1
102
RTVSPost2010Prop36
280
     0
102
RTVSPost2010PropOp36
 70
     1
102
RTVSPost2010Prop37
 90
       50
102
RTVSPost2010PropOp37
 70
     1
102
RTVSPost2010Prop38
140
0.0
102
RTVSPost2010PropOp38
 70
     1
102
RTVSPost2010Prop39
140
1.0
102
RTVSPost2010PropOp39
 70
     1
102
RTVSPost2010Prop40
 90
        0
102
RTVSPost2010PropOp40
 70
     1
102
RTVSPost2010Prop41ColorIndex
 90
       18
102
RTVSPost2010Prop41ColorRGB
 90
        0
102
RTVSPost2010PropOp41
 70
     1
102
RTVSPost2010Prop42
 90
       50
102
RTVSPost2010PropOp42
 70
     1
102
RTVSPost2010Prop43
 90
        3
102
RTVSPost2010PropOp43
 70
     1
102
RTVSPost2010Prop44ColorIndex
 90
        5
102
RTVSPost2010Prop44ColorRGB
 90
      255
102
RTVSPost2010PropOp44
 70
     1
102
RTVSPost2010Prop45
280
     0
102
RTVSPost2010PropOp45
 70
     1
102
RTVSPost2010Prop46
 90
       50
102
RTVSPost2010PropOp46
 70
     1
102
RTVSPost2010Prop47
 90
       50
102
RTVSPost2010PropOp47
 70
     1
102
RTVSPost2010Prop48
 90
       50
102
RTVSPost2010PropOp48
 70
     1
102
RTVSPost2010Prop49
280
     0
102
RTVSPost2010PropOp49
 70
     1
102
RTVSPost2010Prop50
 90
       50
102
RTVSPost2010PropOp50
 70
     1
102
RTVSPost2010Prop51ColorIndex
 90
      256
102
RTVSPost2010Prop51ColorRGB
 90
-16777216
102
RTVSPost2010PropOp51
 70
     0
102
RTVSPost2010Prop52
140
1.0
102
RTVSPost2010PropOp52
 70
     0
102
RTVSPost2010Prop53
 90
        2
102
RTVSPost2010PropOp53
 70
     1
102
RTVSPost2010Prop54
  1
strokes_ogs.tif
102
RTVSPost2010PropOp54
 70
     1
102
RTVSPost2010Prop55
280
     0
102
RTVSPost2010PropOp55
 70
     1
102
RTVSPost2010Prop56
140
1.0
102
RTVSPost2010PropOp56
 70
     1
102
RTVSPost2010Prop57
140
1.0
102
RTVSPost2010PropOp57
 70
     1
102
RTVSPropertyOp0
 70
     1
102
RTVSPropertyOp1
 70
     1
102
RTVSPropertyOp2
 70
     1
102
RTVSPropertyOp3
 70
     1
102
RTVSPropertyOp4
 70
     1
102
RTVSPropertyOp5
 70
     1
102
RTVSPropertyOp6
 70
     1
102
RTVSPropertyOp7
 70
     1
102
RTVSPropertyOp8
 70
     1
102
RTVSPropertyOp9
 70
     1
102
RTVSPropertyOp10
 70
     1
102
RTVSPropertyOp11
 70
     1
102
RTVSPropertyOp12
 70
     1
102
RTVSPropertyOp13
 70
     1
102
RTVSPropertyOp14
 70
     1
102
RTVSPropertyOp15
 70
     1
102
RTVSPropertyOp16
 70
     1
102
RTVSPropertyOp17
 70
     1
102
RTVSPropertyOp18
 70
     1
102
RTVSPropertyOp19
 70
     1
102
RTVSPropertyOp20
 70
     1
102
RTVSPropertyOp21
 70
     1
102
RTVSPropertyOp22
 70
     1
102
RTVSPropertyOp23
 70
     1
102
RTVSPropertyOp24
 70
     1
102
RTVSPropertyOp25
 70
     1
102
RTVSPropertyOp26
 70
     1
102
RTVSPropertyOp27
 70
     1
102
RTVSPropertyOp28
 70
     1
102
RTVSPropertyOp29
 70
     1
102
RTVSPropertyOp30
 70
     1
102
RTVSPropertyOp31
 70
     1
102
RTVSPropertyOp32
 70
     1
102
RTVSPropertyOp33
 70
     1
102
RTVSPropertyOp34
 70
     1
102
RTVSPropertyOp35
 70
     1
102
RTVSPropertyOp36
 70
     1
102
RTVSPropertyOp37
 70
     1
102
RTVSPropertyOp38
 70
     1
102
RTVSPropertyOp39
 70
     1
102
RTVSPropertyOp40
 70
     1
102
RTVSPropertyOp41
 70
     1
102
RTVSPropertyOp42
 70
     1
102
RTVSPropertyOp43
 70
     1
102
RTVSPropertyOp44
 70
     1
102
RTVSPropertyOp45
 70
     1
102
RTVSPropertyOp46
 70
     1
102
RTVSPropertyOp47
 70
     1
102
RTVSPropertyOp48
 70
     1
102
RTVSPropertyOp49
 70
     1
102
RTVSPropertyOp50
 70
     1
102
RTVSPropertyOp51
 70
     0
102
RTVSPropertyOp52
 70
     0
102
RTVSPropertyOp53
 70
     1
102
RTVSPropertyOp54
 70
     1
102
RTVSPropertyOp55
 70
     1
102
RTVSPropertyOp56
 70
     1
102
RTVSPropertyOp57
 70
     1
102
RTVSPropertyOp58
 70
     1
102
RTVSPropertyOp59
 70
     1
102
RTVSPropertyOp60
 70
     1
102
RTVSPropertyOp61
 70
     1
102
RTVSPropertyOp62
 70
     1
  0
XRECORD
  5
5C17
102
{ACAD_REACTORS
330
5C16
102
}
330
5C16
100
AcDbXrecord
280
     1
102
RTVSPost2010Prop28
280
     0
102
RTVSPost2010PropOp28
 70
     1
102
RTVSPost2010Prop29
280
     1
102
RTVSPost2010PropOp29
 70
     1
102
RTVSPost2010Prop30
280
     1
102
RTVSPost2010PropOp30
 70
     1
102
RTVSPost2010Prop31
280
     0
102
RTVSPost2010PropOp31
 70
     1
102
RTVSPost2010Prop32
280
     0
102
RTVSPost2010PropOp32
 70
     1
102
RTVSPost2010Prop33
280
     0
102
RTVSPost2010PropOp33
 70
     1
102
RTVSPost2010Prop34
280
     0
102
RTVSPost2010PropOp34
 70
     1
102
RTVSPost2010Prop35
280
     0
102
RTVSPost2010PropOp35
 70
     1
102
RTVSPost2010Prop36
280
     0
102
RTVSPost2010PropOp36
 70
     1
102
RTVSPost2010Prop37
 90
       50
102
RTVSPost2010PropOp37
 70
     1
102
RTVSPost2010Prop38
140
0.0
102
RTVSPost2010PropOp38
 70
     1
102
RTVSPost2010Prop39
140
1.0
102
RTVSPost2010PropOp39
 70
     1
102
RTVSPost2010Prop40
 90
        0
102
RTVSPost2010PropOp40
 70
     1
102
RTVSPost2010Prop41ColorIndex
 90
       18
102
RTVSPost2010Prop41ColorRGB
 90
        0
102
RTVSPost2010PropOp41
 70
     1
102
RTVSPost2010Prop42
 90
       50
102
RTVSPost2010PropOp42
 70
     1
102
RTVSPost2010Prop43
 90
        3
102
RTVSPost2010PropOp43
 70
     1
102
RTVSPost2010Prop44ColorIndex
 90
        5
102
RTVSPost2010Prop44ColorRGB
 90
      255
102
RTVSPost2010PropOp44
 70
     1
102
RTVSPost2010Prop45
280
     0
102
RTVSPost2010PropOp45
 70
     1
102
RTVSPost2010Prop46
 90
       50
102
RTVSPost2010PropOp46
 70
     1
102
RTVSPost2010Prop47
 90
       50
102
RTVSPost2010PropOp47
 70
     1
102
RTVSPost2010Prop48
 90
       50
102
RTVSPost2010PropOp48
 70
     1
102
RTVSPost2010Prop49
280
     0
102
RTVSPost2010PropOp49
 70
     1
102
RTVSPost2010Prop50
 90
       50
102
RTVSPost2010PropOp50
 70
     1
102
RTVSPost2010Prop51ColorIndex
 90
      256
102
RTVSPost2010Prop51ColorRGB
 90
-16777216
102
RTVSPost2010PropOp51
 70
     0
102
RTVSPost2010Prop52
140
1.0
102
RTVSPost2010PropOp52
 70
     0
102
RTVSPost2010Prop53
 90
        2
102
RTVSPost2010PropOp53
 70
     1
102
RTVSPost2010Prop54
  1
strokes_ogs.tif
102
RTVSPost2010PropOp54
 70
     1
102
RTVSPost2010Prop55
280
     0
102
RTVSPost2010PropOp55
 70
     1
102
RTVSPost2010Prop56
140
1.0
102
RTVSPost2010PropOp56
 70
     1
102
RTVSPost2010Prop57
140
1.0
102
RTVSPost2010PropOp57
 70
     1
102
RTVSPropertyOp0
 70
     1
102
RTVSPropertyOp1
 70
     1
102
RTVSPropertyOp2
 70
     1
102
RTVSPropertyOp3
 70
     1
102
RTVSPropertyOp4
 70
     1
102
RTVSPropertyOp5
 70
     1
102
RTVSPropertyOp6
 70
     1
102
RTVSPropertyOp7
 70
     1
102
RTVSPropertyOp8
 70
     1
102
RTVSPropertyOp9
 70
     1
102
RTVSPropertyOp10
 70
     1
102
RTVSPropertyOp11
 70
     1
102
RTVSPropertyOp12
 70
     1
102
RTVSPropertyOp13
 70
     1
102
RTVSPropertyOp14
 70
     1
102
RTVSPropertyOp15
 70
     1
102
RTVSPropertyOp16
 70
     1
102
RTVSPropertyOp17
 70
     1
102
RTVSPropertyOp18
 70
     1
102
RTVSPropertyOp19
 70
     1
102
RTVSPropertyOp20
 70
     1
102
RTVSPropertyOp21
 70
     1
102
RTVSPropertyOp22
 70
     1
102
RTVSPropertyOp23
 70
     1
102
RTVSPropertyOp24
 70
     1
102
RTVSPropertyOp25
 70
     1
102
RTVSPropertyOp26
 70
     1
102
RTVSPropertyOp27
 70
     1
102
RTVSPropertyOp28
 70
     1
102
RTVSPropertyOp29
 70
     1
102
RTVSPropertyOp30
 70
     1
102
RTVSPropertyOp31
 70
     1
102
RTVSPropertyOp32
 70
     1
102
RTVSPropertyOp33
 70
     1
102
RTVSPropertyOp34
 70
     1
102
RTVSPropertyOp35
 70
     1
102
RTVSPropertyOp36
 70
     1
102
RTVSPropertyOp37
 70
     1
102
RTVSPropertyOp38
 70
     1
102
RTVSPropertyOp39
 70
     1
102
RTVSPropertyOp40
 70
     1
102
RTVSPropertyOp41
 70
     1
102
RTVSPropertyOp42
 70
     1
102
RTVSPropertyOp43
 70
     1
102
RTVSPropertyOp44
 70
     1
102
RTVSPropertyOp45
 70
     1
102
RTVSPropertyOp46
 70
     1
102
RTVSPropertyOp47
 70
     1
102
RTVSPropertyOp48
 70
     1
102
RTVSPropertyOp49
 70
     1
102
RTVSPropertyOp50
 70
     1
102
RTVSPropertyOp51
 70
     0
102
RTVSPropertyOp52
 70
     0
102
RTVSPropertyOp53
 70
     1
102
RTVSPropertyOp54
 70
     1
102
RTVSPropertyOp55
 70
     1
102
RTVSPropertyOp56
 70
     1
102
RTVSPropertyOp57
 70
     1
102
RTVSPropertyOp58
 70
     1
102
RTVSPropertyOp59
 70
     1
102
RTVSPropertyOp60
 70
     1
102
RTVSPropertyOp61
 70
     1
102
RTVSPropertyOp62
 70
     1
  0
XRECORD
  5
5C1F
102
{ACAD_REACTORS
330
5C1E
102
}
330
5C1E
100
AcDbXrecord
280
     1
102
RTVSPost2010Prop28
280
     0
102
RTVSPost2010PropOp28
 70
     1
102
RTVSPost2010Prop29
280
     1
102
RTVSPost2010PropOp29
 70
     1
102
RTVSPost2010Prop30
280
     1
102
RTVSPost2010PropOp30
 70
     1
102
RTVSPost2010Prop31
280
     0
102
RTVSPost2010PropOp31
 70
     1
102
RTVSPost2010Prop32
280
     0
102
RTVSPost2010PropOp32
 70
     1
102
RTVSPost2010Prop33
280
     0
102
RTVSPost2010PropOp33
 70
     1
102
RTVSPost2010Prop34
280
     0
102
RTVSPost2010PropOp34
 70
     1
102
RTVSPost2010Prop35
280
     0
102
RTVSPost2010PropOp35
 70
     1
102
RTVSPost2010Prop36
280
     0
102
RTVSPost2010PropOp36
 70
     1
102
RTVSPost2010Prop37
 90
       50
102
RTVSPost2010PropOp37
 70
     1
102
RTVSPost2010Prop38
140
0.0
102
RTVSPost2010PropOp38
 70
     1
102
RTVSPost2010Prop39
140
1.0
102
RTVSPost2010PropOp39
 70
     1
102
RTVSPost2010Prop40
 90
        0
102
RTVSPost2010PropOp40
 70
     1
102
RTVSPost2010Prop41ColorIndex
 90
       18
102
RTVSPost2010Prop41ColorRGB
 90
        0
102
RTVSPost2010PropOp41
 70
     1
102
RTVSPost2010Prop42
 90
       50
102
RTVSPost2010PropOp42
 70
     1
102
RTVSPost2010Prop43
 90
        3
102
RTVSPost2010PropOp43
 70
     1
102
RTVSPost2010Prop44ColorIndex
 90
        5
102
RTVSPost2010Prop44ColorRGB
 90
      255
102
RTVSPost2010PropOp44
 70
     1
102
RTVSPost2010Prop45
280
     0
102
RTVSPost2010PropOp45
 70
     1
102
RTVSPost2010Prop46
 90
       50
102
RTVSPost2010PropOp46
 70
     1
102
RTVSPost2010Prop47
 90
       50
102
RTVSPost2010PropOp47
 70
     1
102
RTVSPost2010Prop48
 90
       50
102
RTVSPost2010PropOp48
 70
     1
102
RTVSPost2010Prop49
280
     0
102
RTVSPost2010PropOp49
 70
     1
102
RTVSPost2010Prop50
 90
       50
102
RTVSPost2010PropOp50
 70
     1
102
RTVSPost2010Prop51ColorIndex
 90
      256
102
RTVSPost2010Prop51ColorRGB
 90
-16777216
102
RTVSPost2010PropOp51
 70
     0
102
RTVSPost2010Prop52
140
1.0
102
RTVSPost2010PropOp52
 70
     0
102
RTVSPost2010Prop53
 90
        2
102
RTVSPost2010PropOp53
 70
     1
102
RTVSPost2010Prop54
  1
strokes_ogs.tif
102
RTVSPost2010PropOp54
 70
     1
102
RTVSPost2010Prop55
280
     0
102
RTVSPost2010PropOp55
 70
     1
102
RTVSPost2010Prop56
140
1.0
102
RTVSPost2010PropOp56
 70
     1
102
RTVSPost2010Prop57
140
1.0
102
RTVSPost2010PropOp57
 70
     1
102
RTVSPropertyOp0
 70
     1
102
RTVSPropertyOp1
 70
     1
102
RTVSPropertyOp2
 70
     1
102
RTVSPropertyOp3
 70
     1
102
RTVSPropertyOp4
 70
     1
102
RTVSPropertyOp5
 70
     1
102
RTVSPropertyOp6
 70
     1
102
RTVSPropertyOp7
 70
     1
102
RTVSPropertyOp8
 70
     1
102
RTVSPropertyOp9
 70
     1
102
RTVSPropertyOp10
 70
     1
102
RTVSPropertyOp11
 70
     1
102
RTVSPropertyOp12
 70
     1
102
RTVSPropertyOp13
 70
     1
102
RTVSPropertyOp14
 70
     1
102
RTVSPropertyOp15
 70
     1
102
RTVSPropertyOp16
 70
     1
102
RTVSPropertyOp17
 70
     1
102
RTVSPropertyOp18
 70
     1
102
RTVSPropertyOp19
 70
     1
102
RTVSPropertyOp20
 70
     1
102
RTVSPropertyOp21
 70
     1
102
RTVSPropertyOp22
 70
     1
102
RTVSPropertyOp23
 70
     1
102
RTVSPropertyOp24
 70
     1
102
RTVSPropertyOp25
 70
     1
102
RTVSPropertyOp26
 70
     1
102
RTVSPropertyOp27
 70
     1
102
RTVSPropertyOp28
 70
     1
102
RTVSPropertyOp29
 70
     1
102
RTVSPropertyOp30
 70
     1
102
RTVSPropertyOp31
 70
     1
102
RTVSPropertyOp32
 70
     1
102
RTVSPropertyOp33
 70
     1
102
RTVSPropertyOp34
 70
     1
102
RTVSPropertyOp35
 70
     1
102
RTVSPropertyOp36
 70
     1
102
RTVSPropertyOp37
 70
     1
102
RTVSPropertyOp38
 70
     1
102
RTVSPropertyOp39
 70
     1
102
RTVSPropertyOp40
 70
     1
102
RTVSPropertyOp41
 70
     1
102
RTVSPropertyOp42
 70
     1
102
RTVSPropertyOp43
 70
     1
102
RTVSPropertyOp44
 70
     1
102
RTVSPropertyOp45
 70
     1
102
RTVSPropertyOp46
 70
     1
102
RTVSPropertyOp47
 70
     1
102
RTVSPropertyOp48
 70
     1
102
RTVSPropertyOp49
 70
     1
102
RTVSPropertyOp50
 70
     1
102
RTVSPropertyOp51
 70
     0
102
RTVSPropertyOp52
 70
     0
102
RTVSPropertyOp53
 70
     1
102
RTVSPropertyOp54
 70
     1
102
RTVSPropertyOp55
 70
     1
102
RTVSPropertyOp56
 70
     1
102
RTVSPropertyOp57
 70
     1
102
RTVSPropertyOp58
 70
     1
102
RTVSPropertyOp59
 70
     1
102
RTVSPropertyOp60
 70
     1
102
RTVSPropertyOp61
 70
     1
102
RTVSPropertyOp62
 70
     1
  0
XRECORD
  5
5C3B
102
{ACAD_REACTORS
330
5C3A
102
}
330
5C3A
100
AcDbXrecord
280
     1
102
RTVSPost2010Prop28
280
     0
102
RTVSPost2010PropOp28
 70
     0
102
RTVSPost2010Prop29
280
     1
102
RTVSPost2010PropOp29
 70
     0
102
RTVSPost2010Prop30
280
     1
102
RTVSPost2010PropOp30
 70
     0
102
RTVSPost2010Prop31
280
     0
102
RTVSPost2010PropOp31
 70
     0
102
RTVSPost2010Prop32
280
     0
102
RTVSPost2010PropOp32
 70
     0
102
RTVSPost2010Prop33
280
     0
102
RTVSPost2010PropOp33
 70
     0
102
RTVSPost2010Prop34
280
     0
102
RTVSPost2010PropOp34
 70
     0
102
RTVSPost2010Prop35
280
     0
102
RTVSPost2010PropOp35
 70
     0
102
RTVSPost2010Prop36
280
     0
102
RTVSPost2010PropOp36
 70
     0
102
RTVSPost2010Prop37
 90
       50
102
RTVSPost2010PropOp37
 70
     0
102
RTVSPost2010Prop38
140
0.0
102
RTVSPost2010PropOp38
 70
     0
102
RTVSPost2010Prop39
140
1.0
102
RTVSPost2010PropOp39
 70
     0
102
RTVSPost2010Prop40
 90
        0
102
RTVSPost2010PropOp40
 70
     0
102
RTVSPost2010Prop41ColorIndex
 90
       18
102
RTVSPost2010Prop41ColorRGB
 90
        0
102
RTVSPost2010PropOp41
 70
     0
102
RTVSPost2010Prop42
 90
       50
102
RTVSPost2010PropOp42
 70
     0
102
RTVSPost2010Prop43
 90
        3
102
RTVSPost2010PropOp43
 70
     0
102
RTVSPost2010Prop44ColorIndex
 90
        5
102
RTVSPost2010Prop44ColorRGB
 90
      255
102
RTVSPost2010PropOp44
 70
     0
102
RTVSPost2010Prop45
280
     0
102
RTVSPost2010PropOp45
 70
     0
102
RTVSPost2010Prop46
 90
       50
102
RTVSPost2010PropOp46
 70
     0
102
RTVSPost2010Prop47
 90
       50
102
RTVSPost2010PropOp47
 70
     0
102
RTVSPost2010Prop48
 90
       50
102
RTVSPost2010PropOp48
 70
     0
102
RTVSPost2010Prop49
280
     0
102
RTVSPost2010PropOp49
 70
     0
102
RTVSPost2010Prop50
 90
       50
102
RTVSPost2010PropOp50
 70
     0
102
RTVSPost2010Prop51ColorIndex
 90
      256
102
RTVSPost2010Prop51ColorRGB
 90
-16777216
102
RTVSPost2010PropOp51
 70
     0
102
RTVSPost2010Prop52
140
1.0
102
RTVSPost2010PropOp52
 70
     0
102
RTVSPost2010Prop53
 90
        2
102
RTVSPost2010PropOp53
 70
     0
102
RTVSPost2010Prop54
  1
strokes_ogs.tif
102
RTVSPost2010PropOp54
 70
     0
102
RTVSPost2010Prop55
280
     0
102
RTVSPost2010PropOp55
 70
     0
102
RTVSPost2010Prop56
140
1.0
102
RTVSPost2010PropOp56
 70
     0
102
RTVSPost2010Prop57
140
1.0
102
RTVSPost2010PropOp57
 70
     0
102
RTVSPropertyOp0
 70
     0
102
RTVSPropertyOp1
 70
     0
102
RTVSPropertyOp2
 70
     0
102
RTVSPropertyOp3
 70
     0
102
RTVSPropertyOp4
 70
     0
102
RTVSPropertyOp5
 70
     0
102
RTVSPropertyOp6
 70
     0
102
RTVSPropertyOp7
 70
     0
102
RTVSPropertyOp8
 70
     0
102
RTVSPropertyOp9
 70
     0
102
RTVSPropertyOp10
 70
     0
102
RTVSPropertyOp11
 70
     0
102
RTVSPropertyOp12
 70
     0
102
RTVSPropertyOp13
 70
     0
102
RTVSPropertyOp14
 70
     2
102
RTVSPropertyOp15
 70
     0
102
RTVSPropertyOp16
 70
     0
102
RTVSPropertyOp17
 70
     0
102
RTVSPropertyOp18
 70
     0
102
RTVSPropertyOp19
 70
     0
102
RTVSPropertyOp20
 70
     0
102
RTVSPropertyOp21
 70
     0
102
RTVSPropertyOp22
 70
     0
102
RTVSPropertyOp23
 70
     0
102
RTVSPropertyOp24
 70
     0
102
RTVSPropertyOp25
 70
     0
102
RTVSPropertyOp26
 70
     0
102
RTVSPropertyOp27
 70
     0
102
RTVSPropertyOp28
 70
     0
102
RTVSPropertyOp29
 70
     0
102
RTVSPropertyOp30
 70
     0
102
RTVSPropertyOp31
 70
     0
102
RTVSPropertyOp32
 70
     0
102
RTVSPropertyOp33
 70
     0
102
RTVSPropertyOp34
 70
     0
102
RTVSPropertyOp35
 70
     0
102
RTVSPropertyOp36
 70
     0
102
RTVSPropertyOp37
 70
     0
102
RTVSPropertyOp38
 70
     0
102
RTVSPropertyOp39
 70
     0
102
RTVSPropertyOp40
 70
     0
102
RTVSPropertyOp41
 70
     0
102
RTVSPropertyOp42
 70
     0
102
RTVSPropertyOp43
 70
     0
102
RTVSPropertyOp44
 70
     0
102
RTVSPropertyOp45
 70
     0
102
RTVSPropertyOp46
 70
     0
102
RTVSPropertyOp47
 70
     0
102
RTVSPropertyOp48
 70
     0
102
RTVSPropertyOp49
 70
     0
102
RTVSPropertyOp50
 70
     0
102
RTVSPropertyOp51
 70
     0
102
RTVSPropertyOp52
 70
     0
102
RTVSPropertyOp53
 70
     0
102
RTVSPropertyOp54
 70
     0
102
RTVSPropertyOp55
 70
     0
102
RTVSPropertyOp56
 70
     0
102
RTVSPropertyOp57
 70
     0
102
RTVSPropertyOp58
 70
     1
102
RTVSPropertyOp59
 70
     1
102
RTVSPropertyOp60
 70
     1
102
RTVSPropertyOp61
 70
     1
102
RTVSPropertyOp62
 70
     1
  0
XRECORD
  5
5C2B
102
{ACAD_REACTORS
330
5C2A
102
}
330
5C2A
100
AcDbXrecord
280
     1
102
RTVSPost2010Prop28
280
     0
102
RTVSPost2010PropOp28
 70
     1
102
RTVSPost2010Prop29
280
     1
102
RTVSPost2010PropOp29
 70
     1
102
RTVSPost2010Prop30
280
     1
102
RTVSPost2010PropOp30
 70
     1
102
RTVSPost2010Prop31
280
     0
102
RTVSPost2010PropOp31
 70
     1
102
RTVSPost2010Prop32
280
     0
102
RTVSPost2010PropOp32
 70
     1
102
RTVSPost2010Prop33
280
     0
102
RTVSPost2010PropOp33
 70
     1
102
RTVSPost2010Prop34
280
     0
102
RTVSPost2010PropOp34
 70
     1
102
RTVSPost2010Prop35
280
     0
102
RTVSPost2010PropOp35
 70
     1
102
RTVSPost2010Prop36
280
     0
102
RTVSPost2010PropOp36
 70
     1
102
RTVSPost2010Prop37
 90
       50
102
RTVSPost2010PropOp37
 70
     1
102
RTVSPost2010Prop38
140
0.0
102
RTVSPost2010PropOp38
 70
     1
102
RTVSPost2010Prop39
140
1.0
102
RTVSPost2010PropOp39
 70
     1
102
RTVSPost2010Prop40
 90
        0
102
RTVSPost2010PropOp40
 70
     1
102
RTVSPost2010Prop41ColorIndex
 90
       18
102
RTVSPost2010Prop41ColorRGB
 90
        0
102
RTVSPost2010PropOp41
 70
     1
102
RTVSPost2010Prop42
 90
       50
102
RTVSPost2010PropOp42
 70
     1
102
RTVSPost2010Prop43
 90
        3
102
RTVSPost2010PropOp43
 70
     1
102
RTVSPost2010Prop44ColorIndex
 90
        5
102
RTVSPost2010Prop44ColorRGB
 90
      255
102
RTVSPost2010PropOp44
 70
     1
102
RTVSPost2010Prop45
280
     0
102
RTVSPost2010PropOp45
 70
     1
102
RTVSPost2010Prop46
 90
       50
102
RTVSPost2010PropOp46
 70
     1
102
RTVSPost2010Prop47
 90
       50
102
RTVSPost2010PropOp47
 70
     1
102
RTVSPost2010Prop48
 90
       50
102
RTVSPost2010PropOp48
 70
     1
102
RTVSPost2010Prop49
280
     0
102
RTVSPost2010PropOp49
 70
     1
102
RTVSPost2010Prop50
 90
       50
102
RTVSPost2010PropOp50
 70
     1
102
RTVSPost2010Prop51ColorIndex
 90
      256
102
RTVSPost2010Prop51ColorRGB
 90
-16777216
102
RTVSPost2010PropOp51
 70
     0
102
RTVSPost2010Prop52
140
1.0
102
RTVSPost2010PropOp52
 70
     0
102
RTVSPost2010Prop53
 90
        2
102
RTVSPost2010PropOp53
 70
     1
102
RTVSPost2010Prop54
  1
strokes_ogs.tif
102
RTVSPost2010PropOp54
 70
     1
102
RTVSPost2010Prop55
280
     0
102
RTVSPost2010PropOp55
 70
     1
102
RTVSPost2010Prop56
140
1.0
102
RTVSPost2010PropOp56
 70
     1
102
RTVSPost2010Prop57
140
1.0
102
RTVSPost2010PropOp57
 70
     1
102
RTVSPropertyOp0
 70
     1
102
RTVSPropertyOp1
 70
     1
102
RTVSPropertyOp2
 70
     1
102
RTVSPropertyOp3
 70
     1
102
RTVSPropertyOp4
 70
     1
102
RTVSPropertyOp5
 70
     1
102
RTVSPropertyOp6
 70
     1
102
RTVSPropertyOp7
 70
     1
102
RTVSPropertyOp8
 70
     1
102
RTVSPropertyOp9
 70
     1
102
RTVSPropertyOp10
 70
     1
102
RTVSPropertyOp11
 70
     1
102
RTVSPropertyOp12
 70
     1
102
RTVSPropertyOp13
 70
     1
102
RTVSPropertyOp14
 70
     1
102
RTVSPropertyOp15
 70
     1
102
RTVSPropertyOp16
 70
     1
102
RTVSPropertyOp17
 70
     1
102
RTVSPropertyOp18
 70
     1
102
RTVSPropertyOp19
 70
     1
102
RTVSPropertyOp20
 70
     1
102
RTVSPropertyOp21
 70
     1
102
RTVSPropertyOp22
 70
     1
102
RTVSPropertyOp23
 70
     1
102
RTVSPropertyOp24
 70
     1
102
RTVSPropertyOp25
 70
     1
102
RTVSPropertyOp26
 70
     1
102
RTVSPropertyOp27
 70
     1
102
RTVSPropertyOp28
 70
     1
102
RTVSPropertyOp29
 70
     1
102
RTVSPropertyOp30
 70
     1
102
RTVSPropertyOp31
 70
     1
102
RTVSPropertyOp32
 70
     1
102
RTVSPropertyOp33
 70
     1
102
RTVSPropertyOp34
 70
     1
102
RTVSPropertyOp35
 70
     1
102
RTVSPropertyOp36
 70
     1
102
RTVSPropertyOp37
 70
     1
102
RTVSPropertyOp38
 70
     1
102
RTVSPropertyOp39
 70
     1
102
RTVSPropertyOp40
 70
     1
102
RTVSPropertyOp41
 70
     1
102
RTVSPropertyOp42
 70
     1
102
RTVSPropertyOp43
 70
     1
102
RTVSPropertyOp44
 70
     1
102
RTVSPropertyOp45
 70
     1
102
RTVSPropertyOp46
 70
     1
102
RTVSPropertyOp47
 70
     1
102
RTVSPropertyOp48
 70
     1
102
RTVSPropertyOp49
 70
     1
102
RTVSPropertyOp50
 70
     1
102
RTVSPropertyOp51
 70
     0
102
RTVSPropertyOp52
 70
     0
102
RTVSPropertyOp53
 70
     1
102
RTVSPropertyOp54
 70
     1
102
RTVSPropertyOp55
 70
     1
102
RTVSPropertyOp56
 70
     1
102
RTVSPropertyOp57
 70
     1
102
RTVSPropertyOp58
 70
     1
102
RTVSPropertyOp59
 70
     1
102
RTVSPropertyOp60
 70
     1
102
RTVSPropertyOp61
 70
     1
102
RTVSPropertyOp62
 70
     1
  0
XRECORD
  5
5C3D
102
{ACAD_REACTORS
330
5C3C
102
}
330
5C3C
100
AcDbXrecord
280
     1
102
RTVSPost2010Prop28
280
     0
102
RTVSPost2010PropOp28
 70
     0
102
RTVSPost2010Prop29
280
     1
102
RTVSPost2010PropOp29
 70
     0
102
RTVSPost2010Prop30
280
     1
102
RTVSPost2010PropOp30
 70
     0
102
RTVSPost2010Prop31
280
     0
102
RTVSPost2010PropOp31
 70
     0
102
RTVSPost2010Prop32
280
     0
102
RTVSPost2010PropOp32
 70
     0
102
RTVSPost2010Prop33
280
     0
102
RTVSPost2010PropOp33
 70
     0
102
RTVSPost2010Prop34
280
     0
102
RTVSPost2010PropOp34
 70
     0
102
RTVSPost2010Prop35
280
     0
102
RTVSPost2010PropOp35
 70
     0
102
RTVSPost2010Prop36
280
     0
102
RTVSPost2010PropOp36
 70
     0
102
RTVSPost2010Prop37
 90
       50
102
RTVSPost2010PropOp37
 70
     0
102
RTVSPost2010Prop38
140
0.0
102
RTVSPost2010PropOp38
 70
     0
102
RTVSPost2010Prop39
140
1.0
102
RTVSPost2010PropOp39
 70
     0
102
RTVSPost2010Prop40
 90
        0
102
RTVSPost2010PropOp40
 70
     0
102
RTVSPost2010Prop41ColorIndex
 90
       18
102
RTVSPost2010Prop41ColorRGB
 90
        0
102
RTVSPost2010PropOp41
 70
     0
102
RTVSPost2010Prop42
 90
       50
102
RTVSPost2010PropOp42
 70
     0
102
RTVSPost2010Prop43
 90
        3
102
RTVSPost2010PropOp43
 70
     0
102
RTVSPost2010Prop44ColorIndex
 90
        5
102
RTVSPost2010Prop44ColorRGB
 90
      255
102
RTVSPost2010PropOp44
 70
     0
102
RTVSPost2010Prop45
280
     0
102
RTVSPost2010PropOp45
 70
     0
102
RTVSPost2010Prop46
 90
       50
102
RTVSPost2010PropOp46
 70
     0
102
RTVSPost2010Prop47
 90
       50
102
RTVSPost2010PropOp47
 70
     0
102
RTVSPost2010Prop48
 90
       50
102
RTVSPost2010PropOp48
 70
     0
102
RTVSPost2010Prop49
280
     0
102
RTVSPost2010PropOp49
 70
     0
102
RTVSPost2010Prop50
 90
       50
102
RTVSPost2010PropOp50
 70
     0
102
RTVSPost2010Prop51ColorIndex
 90
      256
102
RTVSPost2010Prop51ColorRGB
 90
-16777216
102
RTVSPost2010PropOp51
 70
     0
102
RTVSPost2010Prop52
140
1.0
102
RTVSPost2010PropOp52
 70
     0
102
RTVSPost2010Prop53
 90
        2
102
RTVSPost2010PropOp53
 70
     0
102
RTVSPost2010Prop54
  1
strokes_ogs.tif
102
RTVSPost2010PropOp54
 70
     0
102
RTVSPost2010Prop55
280
     0
102
RTVSPost2010PropOp55
 70
     0
102
RTVSPost2010Prop56
140
1.0
102
RTVSPost2010PropOp56
 70
     0
102
RTVSPost2010Prop57
140
1.0
102
RTVSPost2010PropOp57
 70
     0
102
RTVSPropertyOp0
 70
     0
102
RTVSPropertyOp1
 70
     0
102
RTVSPropertyOp2
 70
     0
102
RTVSPropertyOp3
 70
     0
102
RTVSPropertyOp4
 70
     0
102
RTVSPropertyOp5
 70
     0
102
RTVSPropertyOp6
 70
     0
102
RTVSPropertyOp7
 70
     0
102
RTVSPropertyOp8
 70
     0
102
RTVSPropertyOp9
 70
     0
102
RTVSPropertyOp10
 70
     0
102
RTVSPropertyOp11
 70
     0
102
RTVSPropertyOp12
 70
     0
102
RTVSPropertyOp13
 70
     0
102
RTVSPropertyOp14
 70
     2
102
RTVSPropertyOp15
 70
     0
102
RTVSPropertyOp16
 70
     0
102
RTVSPropertyOp17
 70
     0
102
RTVSPropertyOp18
 70
     0
102
RTVSPropertyOp19
 70
     0
102
RTVSPropertyOp20
 70
     0
102
RTVSPropertyOp21
 70
     0
102
RTVSPropertyOp22
 70
     0
102
RTVSPropertyOp23
 70
     0
102
RTVSPropertyOp24
 70
     0
102
RTVSPropertyOp25
 70
     0
102
RTVSPropertyOp26
 70
     0
102
RTVSPropertyOp27
 70
     0
102
RTVSPropertyOp28
 70
     0
102
RTVSPropertyOp29
 70
     0
102
RTVSPropertyOp30
 70
     0
102
RTVSPropertyOp31
 70
     0
102
RTVSPropertyOp32
 70
     0
102
RTVSPropertyOp33
 70
     0
102
RTVSPropertyOp34
 70
     0
102
RTVSPropertyOp35
 70
     0
102
RTVSPropertyOp36
 70
     0
102
RTVSPropertyOp37
 70
     0
102
RTVSPropertyOp38
 70
     0
102
RTVSPropertyOp39
 70
     0
102
RTVSPropertyOp40
 70
     0
102
RTVSPropertyOp41
 70
     0
102
RTVSPropertyOp42
 70
     0
102
RTVSPropertyOp43
 70
     0
102
RTVSPropertyOp44
 70
     0
102
RTVSPropertyOp45
 70
     0
102
RTVSPropertyOp46
 70
     0
102
RTVSPropertyOp47
 70
     0
102
RTVSPropertyOp48
 70
     0
102
RTVSPropertyOp49
 70
     0
102
RTVSPropertyOp50
 70
     0
102
RTVSPropertyOp51
 70
     0
102
RTVSPropertyOp52
 70
     0
102
RTVSPropertyOp53
 70
     0
102
RTVSPropertyOp54
 70
     0
102
RTVSPropertyOp55
 70
     0
102
RTVSPropertyOp56
 70
     0
102
RTVSPropertyOp57
 70
     0
102
RTVSPropertyOp58
 70
     1
102
RTVSPropertyOp59
 70
     1
102
RTVSPropertyOp60
 70
     1
102
RTVSPropertyOp61
 70
     1
102
RTVSPropertyOp62
 70
     1
  0
XRECORD
  5
5C23
102
{ACAD_REACTORS
330
5C22
102
}
330
5C22
100
AcDbXrecord
280
     1
102
RTVSPost2010Prop28
280
     0
102
RTVSPost2010PropOp28
 70
     1
102
RTVSPost2010Prop29
280
     1
102
RTVSPost2010PropOp29
 70
     1
102
RTVSPost2010Prop30
280
     1
102
RTVSPost2010PropOp30
 70
     1
102
RTVSPost2010Prop31
280
     0
102
RTVSPost2010PropOp31
 70
     1
102
RTVSPost2010Prop32
280
     0
102
RTVSPost2010PropOp32
 70
     1
102
RTVSPost2010Prop33
280
     0
102
RTVSPost2010PropOp33
 70
     1
102
RTVSPost2010Prop34
280
     0
102
RTVSPost2010PropOp34
 70
     1
102
RTVSPost2010Prop35
280
     0
102
RTVSPost2010PropOp35
 70
     1
102
RTVSPost2010Prop36
280
     0
102
RTVSPost2010PropOp36
 70
     1
102
RTVSPost2010Prop37
 90
       50
102
RTVSPost2010PropOp37
 70
     1
102
RTVSPost2010Prop38
140
0.0
102
RTVSPost2010PropOp38
 70
     1
102
RTVSPost2010Prop39
140
1.0
102
RTVSPost2010PropOp39
 70
     1
102
RTVSPost2010Prop40
 90
        0
102
RTVSPost2010PropOp40
 70
     1
102
RTVSPost2010Prop41ColorIndex
 90
       18
102
RTVSPost2010Prop41ColorRGB
 90
        0
102
RTVSPost2010PropOp41
 70
     1
102
RTVSPost2010Prop42
 90
       50
102
RTVSPost2010PropOp42
 70
     1
102
RTVSPost2010Prop43
 90
        3
102
RTVSPost2010PropOp43
 70
     1
102
RTVSPost2010Prop44ColorIndex
 90
        5
102
RTVSPost2010Prop44ColorRGB
 90
      255
102
RTVSPost2010PropOp44
 70
     1
102
RTVSPost2010Prop45
280
     0
102
RTVSPost2010PropOp45
 70
     1
102
RTVSPost2010Prop46
 90
       50
102
RTVSPost2010PropOp46
 70
     1
102
RTVSPost2010Prop47
 90
       50
102
RTVSPost2010PropOp47
 70
     1
102
RTVSPost2010Prop48
 90
       50
102
RTVSPost2010PropOp48
 70
     1
102
RTVSPost2010Prop49
280
     0
102
RTVSPost2010PropOp49
 70
     1
102
RTVSPost2010Prop50
 90
       50
102
RTVSPost2010PropOp50
 70
     1
102
RTVSPost2010Prop51ColorIndex
 90
      256
102
RTVSPost2010Prop51ColorRGB
 90
-16777216
102
RTVSPost2010PropOp51
 70
     0
102
RTVSPost2010Prop52
140
1.0
102
RTVSPost2010PropOp52
 70
     0
102
RTVSPost2010Prop53
 90
        2
102
RTVSPost2010PropOp53
 70
     1
102
RTVSPost2010Prop54
  1
strokes_ogs.tif
102
RTVSPost2010PropOp54
 70
     1
102
RTVSPost2010Prop55
280
     0
102
RTVSPost2010PropOp55
 70
     1
102
RTVSPost2010Prop56
140
1.0
102
RTVSPost2010PropOp56
 70
     1
102
RTVSPost2010Prop57
140
1.0
102
RTVSPost2010PropOp57
 70
     1
102
RTVSPropertyOp0
 70
     1
102
RTVSPropertyOp1
 70
     1
102
RTVSPropertyOp2
 70
     1
102
RTVSPropertyOp3
 70
     1
102
RTVSPropertyOp4
 70
     1
102
RTVSPropertyOp5
 70
     1
102
RTVSPropertyOp6
 70
     1
102
RTVSPropertyOp7
 70
     1
102
RTVSPropertyOp8
 70
     1
102
RTVSPropertyOp9
 70
     1
102
RTVSPropertyOp10
 70
     1
102
RTVSPropertyOp11
 70
     1
102
RTVSPropertyOp12
 70
     1
102
RTVSPropertyOp13
 70
     1
102
RTVSPropertyOp14
 70
     1
102
RTVSPropertyOp15
 70
     1
102
RTVSPropertyOp16
 70
     1
102
RTVSPropertyOp17
 70
     1
102
RTVSPropertyOp18
 70
     1
102
RTVSPropertyOp19
 70
     1
102
RTVSPropertyOp20
 70
     1
102
RTVSPropertyOp21
 70
     1
102
RTVSPropertyOp22
 70
     1
102
RTVSPropertyOp23
 70
     1
102
RTVSPropertyOp24
 70
     1
102
RTVSPropertyOp25
 70
     1
102
RTVSPropertyOp26
 70
     1
102
RTVSPropertyOp27
 70
     1
102
RTVSPropertyOp28
 70
     1
102
RTVSPropertyOp29
 70
     1
102
RTVSPropertyOp30
 70
     1
102
RTVSPropertyOp31
 70
     1
102
RTVSPropertyOp32
 70
     1
102
RTVSPropertyOp33
 70
     1
102
RTVSPropertyOp34
 70
     1
102
RTVSPropertyOp35
 70
     1
102
RTVSPropertyOp36
 70
     1
102
RTVSPropertyOp37
 70
     1
102
RTVSPropertyOp38
 70
     1
102
RTVSPropertyOp39
 70
     1
102
RTVSPropertyOp40
 70
     1
102
RTVSPropertyOp41
 70
     1
102
RTVSPropertyOp42
 70
     1
102
RTVSPropertyOp43
 70
     1
102
RTVSPropertyOp44
 70
     1
102
RTVSPropertyOp45
 70
     1
102
RTVSPropertyOp46
 70
     1
102
RTVSPropertyOp47
 70
     1
102
RTVSPropertyOp48
 70
     1
102
RTVSPropertyOp49
 70
     1
102
RTVSPropertyOp50
 70
     1
102
RTVSPropertyOp51
 70
     0
102
RTVSPropertyOp52
 70
     0
102
RTVSPropertyOp53
 70
     1
102
RTVSPropertyOp54
 70
     1
102
RTVSPropertyOp55
 70
     1
102
RTVSPropertyOp56
 70
     1
102
RTVSPropertyOp57
 70
     1
102
RTVSPropertyOp58
 70
     1
102
RTVSPropertyOp59
 70
     1
102
RTVSPropertyOp60
 70
     1
102
RTVSPropertyOp61
 70
     1
102
RTVSPropertyOp62
 70
     1
  0
XRECORD
  5
5C39
102
{ACAD_REACTORS
330
5C38
102
}
330
5C38
100
AcDbXrecord
280
     1
102
RTVSPost2010Prop28
280
     0
102
RTVSPost2010PropOp28
 70
     1
102
RTVSPost2010Prop29
280
     1
102
RTVSPost2010PropOp29
 70
     1
102
RTVSPost2010Prop30
280
     1
102
RTVSPost2010PropOp30
 70
     1
102
RTVSPost2010Prop31
280
     0
102
RTVSPost2010PropOp31
 70
     1
102
RTVSPost2010Prop32
280
     0
102
RTVSPost2010PropOp32
 70
     1
102
RTVSPost2010Prop33
280
     0
102
RTVSPost2010PropOp33
 70
     1
102
RTVSPost2010Prop34
280
     0
102
RTVSPost2010PropOp34
 70
     1
102
RTVSPost2010Prop35
280
     0
102
RTVSPost2010PropOp35
 70
     1
102
RTVSPost2010Prop36
280
     0
102
RTVSPost2010PropOp36
 70
     1
102
RTVSPost2010Prop37
 90
       50
102
RTVSPost2010PropOp37
 70
     1
102
RTVSPost2010Prop38
140
0.0
102
RTVSPost2010PropOp38
 70
     1
102
RTVSPost2010Prop39
140
1.0
102
RTVSPost2010PropOp39
 70
     1
102
RTVSPost2010Prop40
 90
        0
102
RTVSPost2010PropOp40
 70
     1
102
RTVSPost2010Prop41ColorIndex
 90
       18
102
RTVSPost2010Prop41ColorRGB
 90
        0
102
RTVSPost2010PropOp41
 70
     1
102
RTVSPost2010Prop42
 90
       50
102
RTVSPost2010PropOp42
 70
     1
102
RTVSPost2010Prop43
 90
        3
102
RTVSPost2010PropOp43
 70
     1
102
RTVSPost2010Prop44ColorIndex
 90
        5
102
RTVSPost2010Prop44ColorRGB
 90
      255
102
RTVSPost2010PropOp44
 70
     1
102
RTVSPost2010Prop45
280
     0
102
RTVSPost2010PropOp45
 70
     1
102
RTVSPost2010Prop46
 90
       50
102
RTVSPost2010PropOp46
 70
     1
102
RTVSPost2010Prop47
 90
       50
102
RTVSPost2010PropOp47
 70
     1
102
RTVSPost2010Prop48
 90
       50
102
RTVSPost2010PropOp48
 70
     1
102
RTVSPost2010Prop49
280
     0
102
RTVSPost2010PropOp49
 70
     1
102
RTVSPost2010Prop50
 90
       50
102
RTVSPost2010PropOp50
 70
     1
102
RTVSPost2010Prop51ColorIndex
 90
      256
102
RTVSPost2010Prop51ColorRGB
 90
-16777216
102
RTVSPost2010PropOp51
 70
     0
102
RTVSPost2010Prop52
140
1.0
102
RTVSPost2010PropOp52
 70
     0
102
RTVSPost2010Prop53
 90
        2
102
RTVSPost2010PropOp53
 70
     1
102
RTVSPost2010Prop54
  1
strokes_ogs.tif
102
RTVSPost2010PropOp54
 70
     1
102
RTVSPost2010Prop55
280
     0
102
RTVSPost2010PropOp55
 70
     1
102
RTVSPost2010Prop56
140
1.0
102
RTVSPost2010PropOp56
 70
     1
102
RTVSPost2010Prop57
140
1.0
102
RTVSPost2010PropOp57
 70
     1
102
RTVSPropertyOp0
 70
     1
102
RTVSPropertyOp1
 70
     1
102
RTVSPropertyOp2
 70
     1
102
RTVSPropertyOp3
 70
     1
102
RTVSPropertyOp4
 70
     1
102
RTVSPropertyOp5
 70
     1
102
RTVSPropertyOp6
 70
     1
102
RTVSPropertyOp7
 70
     1
102
RTVSPropertyOp8
 70
     1
102
RTVSPropertyOp9
 70
     1
102
RTVSPropertyOp10
 70
     1
102
RTVSPropertyOp11
 70
     1
102
RTVSPropertyOp12
 70
     1
102
RTVSPropertyOp13
 70
     1
102
RTVSPropertyOp14
 70
     1
102
RTVSPropertyOp15
 70
     1
102
RTVSPropertyOp16
 70
     1
102
RTVSPropertyOp17
 70
     1
102
RTVSPropertyOp18
 70
     1
102
RTVSPropertyOp19
 70
     1
102
RTVSPropertyOp20
 70
     1
102
RTVSPropertyOp21
 70
     1
102
RTVSPropertyOp22
 70
     1
102
RTVSPropertyOp23
 70
     1
102
RTVSPropertyOp24
 70
     1
102
RTVSPropertyOp25
 70
     1
102
RTVSPropertyOp26
 70
     1
102
RTVSPropertyOp27
 70
     1
102
RTVSPropertyOp28
 70
     1
102
RTVSPropertyOp29
 70
     1
102
RTVSPropertyOp30
 70
     1
102
RTVSPropertyOp31
 70
     1
102
RTVSPropertyOp32
 70
     1
102
RTVSPropertyOp33
 70
     1
102
RTVSPropertyOp34
 70
     1
102
RTVSPropertyOp35
 70
     1
102
RTVSPropertyOp36
 70
     1
102
RTVSPropertyOp37
 70
     1
102
RTVSPropertyOp38
 70
     1
102
RTVSPropertyOp39
 70
     1
102
RTVSPropertyOp40
 70
     1
102
RTVSPropertyOp41
 70
     1
102
RTVSPropertyOp42
 70
     1
102
RTVSPropertyOp43
 70
     1
102
RTVSPropertyOp44
 70
     1
102
RTVSPropertyOp45
 70
     1
102
RTVSPropertyOp46
 70
     1
102
RTVSPropertyOp47
 70
     1
102
RTVSPropertyOp48
 70
     1
102
RTVSPropertyOp49
 70
     1
102
RTVSPropertyOp50
 70
     1
102
RTVSPropertyOp51
 70
     0
102
RTVSPropertyOp52
 70
     0
102
RTVSPropertyOp53
 70
     1
102
RTVSPropertyOp54
 70
     1
102
RTVSPropertyOp55
 70
     1
102
RTVSPropertyOp56
 70
     1
102
RTVSPropertyOp57
 70
     1
102
RTVSPropertyOp58
 70
     1
102
RTVSPropertyOp59
 70
     1
102
RTVSPropertyOp60
 70
     1
102
RTVSPropertyOp61
 70
     1
102
RTVSPropertyOp62
 70
     1
  0
XRECORD
  5
5C37
102
{ACAD_REACTORS
330
5C36
102
}
330
5C36
100
AcDbXrecord
280
     1
102
RTVSPost2010Prop28
280
     0
102
RTVSPost2010PropOp28
 70
     1
102
RTVSPost2010Prop29
280
     1
102
RTVSPost2010PropOp29
 70
     1
102
RTVSPost2010Prop30
280
     1
102
RTVSPost2010PropOp30
 70
     1
102
RTVSPost2010Prop31
280
     0
102
RTVSPost2010PropOp31
 70
     1
102
RTVSPost2010Prop32
280
     0
102
RTVSPost2010PropOp32
 70
     1
102
RTVSPost2010Prop33
280
     0
102
RTVSPost2010PropOp33
 70
     1
102
RTVSPost2010Prop34
280
     0
102
RTVSPost2010PropOp34
 70
     1
102
RTVSPost2010Prop35
280
     0
102
RTVSPost2010PropOp35
 70
     1
102
RTVSPost2010Prop36
280
     0
102
RTVSPost2010PropOp36
 70
     1
102
RTVSPost2010Prop37
 90
       50
102
RTVSPost2010PropOp37
 70
     1
102
RTVSPost2010Prop38
140
0.0
102
RTVSPost2010PropOp38
 70
     1
102
RTVSPost2010Prop39
140
1.0
102
RTVSPost2010PropOp39
 70
     1
102
RTVSPost2010Prop40
 90
        0
102
RTVSPost2010PropOp40
 70
     1
102
RTVSPost2010Prop41ColorIndex
 90
       18
102
RTVSPost2010Prop41ColorRGB
 90
        0
102
RTVSPost2010PropOp41
 70
     1
102
RTVSPost2010Prop42
 90
       50
102
RTVSPost2010PropOp42
 70
     1
102
RTVSPost2010Prop43
 90
        3
102
RTVSPost2010PropOp43
 70
     1
102
RTVSPost2010Prop44ColorIndex
 90
        5
102
RTVSPost2010Prop44ColorRGB
 90
      255
102
RTVSPost2010PropOp44
 70
     1
102
RTVSPost2010Prop45
280
     0
102
RTVSPost2010PropOp45
 70
     1
102
RTVSPost2010Prop46
 90
       50
102
RTVSPost2010PropOp46
 70
     1
102
RTVSPost2010Prop47
 90
       50
102
RTVSPost2010PropOp47
 70
     1
102
RTVSPost2010Prop48
 90
       50
102
RTVSPost2010PropOp48
 70
     1
102
RTVSPost2010Prop49
280
     0
102
RTVSPost2010PropOp49
 70
     1
102
RTVSPost2010Prop50
 90
       50
102
RTVSPost2010PropOp50
 70
     1
102
RTVSPost2010Prop51ColorIndex
 90
      256
102
RTVSPost2010Prop51ColorRGB
 90
-16777216
102
RTVSPost2010PropOp51
 70
     0
102
RTVSPost2010Prop52
140
1.0
102
RTVSPost2010PropOp52
 70
     0
102
RTVSPost2010Prop53
 90
        2
102
RTVSPost2010PropOp53
 70
     1
102
RTVSPost2010Prop54
  1
strokes_ogs.tif
102
RTVSPost2010PropOp54
 70
     1
102
RTVSPost2010Prop55
280
     0
102
RTVSPost2010PropOp55
 70
     1
102
RTVSPost2010Prop56
140
1.0
102
RTVSPost2010PropOp56
 70
     1
102
RTVSPost2010Prop57
140
1.0
102
RTVSPost2010PropOp57
 70
     1
102
RTVSPropertyOp0
 70
     1
102
RTVSPropertyOp1
 70
     1
102
RTVSPropertyOp2
 70
     1
102
RTVSPropertyOp3
 70
     1
102
RTVSPropertyOp4
 70
     1
102
RTVSPropertyOp5
 70
     1
102
RTVSPropertyOp6
 70
     1
102
RTVSPropertyOp7
 70
     1
102
RTVSPropertyOp8
 70
     1
102
RTVSPropertyOp9
 70
     1
102
RTVSPropertyOp10
 70
     1
102
RTVSPropertyOp11
 70
     1
102
RTVSPropertyOp12
 70
     1
102
RTVSPropertyOp13
 70
     1
102
RTVSPropertyOp14
 70
     1
102
RTVSPropertyOp15
 70
     1
102
RTVSPropertyOp16
 70
     1
102
RTVSPropertyOp17
 70
     1
102
RTVSPropertyOp18
 70
     1
102
RTVSPropertyOp19
 70
     1
102
RTVSPropertyOp20
 70
     1
102
RTVSPropertyOp21
 70
     1
102
RTVSPropertyOp22
 70
     1
102
RTVSPropertyOp23
 70
     1
102
RTVSPropertyOp24
 70
     1
102
RTVSPropertyOp25
 70
     1
102
RTVSPropertyOp26
 70
     1
102
RTVSPropertyOp27
 70
     1
102
RTVSPropertyOp28
 70
     1
102
RTVSPropertyOp29
 70
     1
102
RTVSPropertyOp30
 70
     1
102
RTVSPropertyOp31
 70
     1
102
RTVSPropertyOp32
 70
     1
102
RTVSPropertyOp33
 70
     1
102
RTVSPropertyOp34
 70
     1
102
RTVSPropertyOp35
 70
     1
102
RTVSPropertyOp36
 70
     1
102
RTVSPropertyOp37
 70
     1
102
RTVSPropertyOp38
 70
     1
102
RTVSPropertyOp39
 70
     1
102
RTVSPropertyOp40
 70
     1
102
RTVSPropertyOp41
 70
     1
102
RTVSPropertyOp42
 70
     1
102
RTVSPropertyOp43
 70
     1
102
RTVSPropertyOp44
 70
     1
102
RTVSPropertyOp45
 70
     1
102
RTVSPropertyOp46
 70
     1
102
RTVSPropertyOp47
 70
     1
102
RTVSPropertyOp48
 70
     1
102
RTVSPropertyOp49
 70
     1
102
RTVSPropertyOp50
 70
     1
102
RTVSPropertyOp51
 70
     0
102
RTVSPropertyOp52
 70
     0
102
RTVSPropertyOp53
 70
     1
102
RTVSPropertyOp54
 70
     1
102
RTVSPropertyOp55
 70
     1
102
RTVSPropertyOp56
 70
     1
102
RTVSPropertyOp57
 70
     1
102
RTVSPropertyOp58
 70
     1
102
RTVSPropertyOp59
 70
     1
102
RTVSPropertyOp60
 70
     1
102
RTVSPropertyOp61
 70
     1
102
RTVSPropertyOp62
 70
     1
  0
XRECORD
  5
5C31
102
{ACAD_REACTORS
330
5C30
102
}
330
5C30
100
AcDbXrecord
280
     1
102
RTVSPost2010Prop28
280
     0
102
RTVSPost2010PropOp28
 70
     1
102
RTVSPost2010Prop29
280
     1
102
RTVSPost2010PropOp29
 70
     1
102
RTVSPost2010Prop30
280
     1
102
RTVSPost2010PropOp30
 70
     1
102
RTVSPost2010Prop31
280
     0
102
RTVSPost2010PropOp31
 70
     1
102
RTVSPost2010Prop32
280
     0
102
RTVSPost2010PropOp32
 70
     1
102
RTVSPost2010Prop33
280
     0
102
RTVSPost2010PropOp33
 70
     1
102
RTVSPost2010Prop34
280
     0
102
RTVSPost2010PropOp34
 70
     1
102
RTVSPost2010Prop35
280
     0
102
RTVSPost2010PropOp35
 70
     1
102
RTVSPost2010Prop36
280
     0
102
RTVSPost2010PropOp36
 70
     1
102
RTVSPost2010Prop37
 90
       50
102
RTVSPost2010PropOp37
 70
     1
102
RTVSPost2010Prop38
140
0.0
102
RTVSPost2010PropOp38
 70
     1
102
RTVSPost2010Prop39
140
1.0
102
RTVSPost2010PropOp39
 70
     1
102
RTVSPost2010Prop40
 90
        0
102
RTVSPost2010PropOp40
 70
     1
102
RTVSPost2010Prop41ColorIndex
 90
       18
102
RTVSPost2010Prop41ColorRGB
 90
        0
102
RTVSPost2010PropOp41
 70
     1
102
RTVSPost2010Prop42
 90
       50
102
RTVSPost2010PropOp42
 70
     1
102
RTVSPost2010Prop43
 90
        3
102
RTVSPost2010PropOp43
 70
     1
102
RTVSPost2010Prop44ColorIndex
 90
        5
102
RTVSPost2010Prop44ColorRGB
 90
      255
102
RTVSPost2010PropOp44
 70
     1
102
RTVSPost2010Prop45
280
     0
102
RTVSPost2010PropOp45
 70
     1
102
RTVSPost2010Prop46
 90
       50
102
RTVSPost2010PropOp46
 70
     1
102
RTVSPost2010Prop47
 90
       50
102
RTVSPost2010PropOp47
 70
     1
102
RTVSPost2010Prop48
 90
       50
102
RTVSPost2010PropOp48
 70
     1
102
RTVSPost2010Prop49
280
     0
102
RTVSPost2010PropOp49
 70
     1
102
RTVSPost2010Prop50
 90
       50
102
RTVSPost2010PropOp50
 70
     1
102
RTVSPost2010Prop51ColorIndex
 90
      256
102
RTVSPost2010Prop51ColorRGB
 90
-16777216
102
RTVSPost2010PropOp51
 70
     0
102
RTVSPost2010Prop52
140
1.0
102
RTVSPost2010PropOp52
 70
     0
102
RTVSPost2010Prop53
 90
        2
102
RTVSPost2010PropOp53
 70
     1
102
RTVSPost2010Prop54
  1
strokes_ogs.tif
102
RTVSPost2010PropOp54
 70
     1
102
RTVSPost2010Prop55
280
     0
102
RTVSPost2010PropOp55
 70
     1
102
RTVSPost2010Prop56
140
1.0
102
RTVSPost2010PropOp56
 70
     1
102
RTVSPost2010Prop57
140
1.0
102
RTVSPost2010PropOp57
 70
     1
102
RTVSPropertyOp0
 70
     1
102
RTVSPropertyOp1
 70
     1
102
RTVSPropertyOp2
 70
     1
102
RTVSPropertyOp3
 70
     1
102
RTVSPropertyOp4
 70
     1
102
RTVSPropertyOp5
 70
     1
102
RTVSPropertyOp6
 70
     1
102
RTVSPropertyOp7
 70
     1
102
RTVSPropertyOp8
 70
     1
102
RTVSPropertyOp9
 70
     1
102
RTVSPropertyOp10
 70
     1
102
RTVSPropertyOp11
 70
     1
102
RTVSPropertyOp12
 70
     1
102
RTVSPropertyOp13
 70
     1
102
RTVSPropertyOp14
 70
     1
102
RTVSPropertyOp15
 70
     1
102
RTVSPropertyOp16
 70
     1
102
RTVSPropertyOp17
 70
     1
102
RTVSPropertyOp18
 70
     1
102
RTVSPropertyOp19
 70
     1
102
RTVSPropertyOp20
 70
     1
102
RTVSPropertyOp21
 70
     1
102
RTVSPropertyOp22
 70
     1
102
RTVSPropertyOp23
 70
     1
102
RTVSPropertyOp24
 70
     1
102
RTVSPropertyOp25
 70
     1
102
RTVSPropertyOp26
 70
     1
102
RTVSPropertyOp27
 70
     1
102
RTVSPropertyOp28
 70
     1
102
RTVSPropertyOp29
 70
     1
102
RTVSPropertyOp30
 70
     1
102
RTVSPropertyOp31
 70
     1
102
RTVSPropertyOp32
 70
     1
102
RTVSPropertyOp33
 70
     1
102
RTVSPropertyOp34
 70
     1
102
RTVSPropertyOp35
 70
     1
102
RTVSPropertyOp36
 70
     1
102
RTVSPropertyOp37
 70
     1
102
RTVSPropertyOp38
 70
     1
102
RTVSPropertyOp39
 70
     1
102
RTVSPropertyOp40
 70
     1
102
RTVSPropertyOp41
 70
     1
102
RTVSPropertyOp42
 70
     1
102
RTVSPropertyOp43
 70
     1
102
RTVSPropertyOp44
 70
     1
102
RTVSPropertyOp45
 70
     1
102
RTVSPropertyOp46
 70
     1
102
RTVSPropertyOp47
 70
     1
102
RTVSPropertyOp48
 70
     1
102
RTVSPropertyOp49
 70
     1
102
RTVSPropertyOp50
 70
     1
102
RTVSPropertyOp51
 70
     0
102
RTVSPropertyOp52
 70
     0
102
RTVSPropertyOp53
 70
     1
102
RTVSPropertyOp54
 70
     1
102
RTVSPropertyOp55
 70
     1
102
RTVSPropertyOp56
 70
     1
102
RTVSPropertyOp57
 70
     1
102
RTVSPropertyOp58
 70
     1
102
RTVSPropertyOp59
 70
     1
102
RTVSPropertyOp60
 70
     1
102
RTVSPropertyOp61
 70
     1
102
RTVSPropertyOp62
 70
     1
  0
XRECORD
  5
5C33
102
{ACAD_REACTORS
330
5C32
102
}
330
5C32
100
AcDbXrecord
280
     1
102
RTVSPost2010Prop28
280
     0
102
RTVSPost2010PropOp28
 70
     1
102
RTVSPost2010Prop29
280
     1
102
RTVSPost2010PropOp29
 70
     1
102
RTVSPost2010Prop30
280
     1
102
RTVSPost2010PropOp30
 70
     1
102
RTVSPost2010Prop31
280
     0
102
RTVSPost2010PropOp31
 70
     1
102
RTVSPost2010Prop32
280
     0
102
RTVSPost2010PropOp32
 70
     1
102
RTVSPost2010Prop33
280
     0
102
RTVSPost2010PropOp33
 70
     1
102
RTVSPost2010Prop34
280
     0
102
RTVSPost2010PropOp34
 70
     1
102
RTVSPost2010Prop35
280
     0
102
RTVSPost2010PropOp35
 70
     1
102
RTVSPost2010Prop36
280
     0
102
RTVSPost2010PropOp36
 70
     1
102
RTVSPost2010Prop37
 90
       50
102
RTVSPost2010PropOp37
 70
     1
102
RTVSPost2010Prop38
140
0.0
102
RTVSPost2010PropOp38
 70
     1
102
RTVSPost2010Prop39
140
1.0
102
RTVSPost2010PropOp39
 70
     1
102
RTVSPost2010Prop40
 90
        0
102
RTVSPost2010PropOp40
 70
     1
102
RTVSPost2010Prop41ColorIndex
 90
       18
102
RTVSPost2010Prop41ColorRGB
 90
        0
102
RTVSPost2010PropOp41
 70
     1
102
RTVSPost2010Prop42
 90
       50
102
RTVSPost2010PropOp42
 70
     1
102
RTVSPost2010Prop43
 90
        3
102
RTVSPost2010PropOp43
 70
     1
102
RTVSPost2010Prop44ColorIndex
 90
        5
102
RTVSPost2010Prop44ColorRGB
 90
      255
102
RTVSPost2010PropOp44
 70
     1
102
RTVSPost2010Prop45
280
     0
102
RTVSPost2010PropOp45
 70
     1
102
RTVSPost2010Prop46
 90
       50
102
RTVSPost2010PropOp46
 70
     1
102
RTVSPost2010Prop47
 90
       50
102
RTVSPost2010PropOp47
 70
     1
102
RTVSPost2010Prop48
 90
       50
102
RTVSPost2010PropOp48
 70
     1
102
RTVSPost2010Prop49
280
     0
102
RTVSPost2010PropOp49
 70
     1
102
RTVSPost2010Prop50
 90
       50
102
RTVSPost2010PropOp50
 70
     1
102
RTVSPost2010Prop51ColorIndex
 90
      256
102
RTVSPost2010Prop51ColorRGB
 90
-16777216
102
RTVSPost2010PropOp51
 70
     0
102
RTVSPost2010Prop52
140
1.0
102
RTVSPost2010PropOp52
 70
     0
102
RTVSPost2010Prop53
 90
        2
102
RTVSPost2010PropOp53
 70
     1
102
RTVSPost2010Prop54
  1
strokes_ogs.tif
102
RTVSPost2010PropOp54
 70
     1
102
RTVSPost2010Prop55
280
     0
102
RTVSPost2010PropOp55
 70
     1
102
RTVSPost2010Prop56
140
1.0
102
RTVSPost2010PropOp56
 70
     1
102
RTVSPost2010Prop57
140
1.0
102
RTVSPost2010PropOp57
 70
     1
102
RTVSPropertyOp0
 70
     1
102
RTVSPropertyOp1
 70
     1
102
RTVSPropertyOp2
 70
     1
102
RTVSPropertyOp3
 70
     1
102
RTVSPropertyOp4
 70
     1
102
RTVSPropertyOp5
 70
     1
102
RTVSPropertyOp6
 70
     1
102
RTVSPropertyOp7
 70
     1
102
RTVSPropertyOp8
 70
     1
102
RTVSPropertyOp9
 70
     1
102
RTVSPropertyOp10
 70
     1
102
RTVSPropertyOp11
 70
     1
102
RTVSPropertyOp12
 70
     1
102
RTVSPropertyOp13
 70
     1
102
RTVSPropertyOp14
 70
     1
102
RTVSPropertyOp15
 70
     1
102
RTVSPropertyOp16
 70
     1
102
RTVSPropertyOp17
 70
     1
102
RTVSPropertyOp18
 70
     1
102
RTVSPropertyOp19
 70
     1
102
RTVSPropertyOp20
 70
     1
102
RTVSPropertyOp21
 70
     1
102
RTVSPropertyOp22
 70
     1
102
RTVSPropertyOp23
 70
     1
102
RTVSPropertyOp24
 70
     1
102
RTVSPropertyOp25
 70
     1
102
RTVSPropertyOp26
 70
     1
102
RTVSPropertyOp27
 70
     1
102
RTVSPropertyOp28
 70
     1
102
RTVSPropertyOp29
 70
     1
102
RTVSPropertyOp30
 70
     1
102
RTVSPropertyOp31
 70
     1
102
RTVSPropertyOp32
 70
     1
102
RTVSPropertyOp33
 70
     1
102
RTVSPropertyOp34
 70
     1
102
RTVSPropertyOp35
 70
     1
102
RTVSPropertyOp36
 70
     1
102
RTVSPropertyOp37
 70
     1
102
RTVSPropertyOp38
 70
     1
102
RTVSPropertyOp39
 70
     1
102
RTVSPropertyOp40
 70
     1
102
RTVSPropertyOp41
 70
     1
102
RTVSPropertyOp42
 70
     1
102
RTVSPropertyOp43
 70
     1
102
RTVSPropertyOp44
 70
     1
102
RTVSPropertyOp45
 70
     1
102
RTVSPropertyOp46
 70
     1
102
RTVSPropertyOp47
 70
     1
102
RTVSPropertyOp48
 70
     1
102
RTVSPropertyOp49
 70
     1
102
RTVSPropertyOp50
 70
     1
102
RTVSPropertyOp51
 70
     0
102
RTVSPropertyOp52
 70
     0
102
RTVSPropertyOp53
 70
     1
102
RTVSPropertyOp54
 70
     1
102
RTVSPropertyOp55
 70
     1
102
RTVSPropertyOp56
 70
     1
102
RTVSPropertyOp57
 70
     1
102
RTVSPropertyOp58
 70
     1
102
RTVSPropertyOp59
 70
     1
102
RTVSPropertyOp60
 70
     1
102
RTVSPropertyOp61
 70
     1
102
RTVSPropertyOp62
 70
     1
  0
XRECORD
  5
5C29
102
{ACAD_REACTORS
330
5C28
102
}
330
5C28
100
AcDbXrecord
280
     1
102
RTVSPost2010Prop28
280
     0
102
RTVSPost2010PropOp28
 70
     1
102
RTVSPost2010Prop29
280
     1
102
RTVSPost2010PropOp29
 70
     1
102
RTVSPost2010Prop30
280
     1
102
RTVSPost2010PropOp30
 70
     1
102
RTVSPost2010Prop31
280
     0
102
RTVSPost2010PropOp31
 70
     1
102
RTVSPost2010Prop32
280
     0
102
RTVSPost2010PropOp32
 70
     1
102
RTVSPost2010Prop33
280
     0
102
RTVSPost2010PropOp33
 70
     1
102
RTVSPost2010Prop34
280
     0
102
RTVSPost2010PropOp34
 70
     1
102
RTVSPost2010Prop35
280
     0
102
RTVSPost2010PropOp35
 70
     1
102
RTVSPost2010Prop36
280
     0
102
RTVSPost2010PropOp36
 70
     1
102
RTVSPost2010Prop37
 90
       50
102
RTVSPost2010PropOp37
 70
     1
102
RTVSPost2010Prop38
140
0.0
102
RTVSPost2010PropOp38
 70
     1
102
RTVSPost2010Prop39
140
1.0
102
RTVSPost2010PropOp39
 70
     1
102
RTVSPost2010Prop40
 90
        0
102
RTVSPost2010PropOp40
 70
     1
102
RTVSPost2010Prop41ColorIndex
 90
       18
102
RTVSPost2010Prop41ColorRGB
 90
        0
102
RTVSPost2010PropOp41
 70
     1
102
RTVSPost2010Prop42
 90
       50
102
RTVSPost2010PropOp42
 70
     1
102
RTVSPost2010Prop43
 90
        3
102
RTVSPost2010PropOp43
 70
     1
102
RTVSPost2010Prop44ColorIndex
 90
        5
102
RTVSPost2010Prop44ColorRGB
 90
      255
102
RTVSPost2010PropOp44
 70
     1
102
RTVSPost2010Prop45
280
     0
102
RTVSPost2010PropOp45
 70
     1
102
RTVSPost2010Prop46
 90
       50
102
RTVSPost2010PropOp46
 70
     1
102
RTVSPost2010Prop47
 90
       50
102
RTVSPost2010PropOp47
 70
     1
102
RTVSPost2010Prop48
 90
       50
102
RTVSPost2010PropOp48
 70
     1
102
RTVSPost2010Prop49
280
     0
102
RTVSPost2010PropOp49
 70
     1
102
RTVSPost2010Prop50
 90
       50
102
RTVSPost2010PropOp50
 70
     1
102
RTVSPost2010Prop51ColorIndex
 90
      256
102
RTVSPost2010Prop51ColorRGB
 90
-16777216
102
RTVSPost2010PropOp51
 70
     0
102
RTVSPost2010Prop52
140
1.0
102
RTVSPost2010PropOp52
 70
     0
102
RTVSPost2010Prop53
 90
        2
102
RTVSPost2010PropOp53
 70
     1
102
RTVSPost2010Prop54
  1
strokes_ogs.tif
102
RTVSPost2010PropOp54
 70
     1
102
RTVSPost2010Prop55
280
     0
102
RTVSPost2010PropOp55
 70
     1
102
RTVSPost2010Prop56
140
1.0
102
RTVSPost2010PropOp56
 70
     1
102
RTVSPost2010Prop57
140
1.0
102
RTVSPost2010PropOp57
 70
     1
102
RTVSPropertyOp0
 70
     1
102
RTVSPropertyOp1
 70
     1
102
RTVSPropertyOp2
 70
     1
102
RTVSPropertyOp3
 70
     1
102
RTVSPropertyOp4
 70
     1
102
RTVSPropertyOp5
 70
     1
102
RTVSPropertyOp6
 70
     1
102
RTVSPropertyOp7
 70
     1
102
RTVSPropertyOp8
 70
     1
102
RTVSPropertyOp9
 70
     1
102
RTVSPropertyOp10
 70
     1
102
RTVSPropertyOp11
 70
     1
102
RTVSPropertyOp12
 70
     1
102
RTVSPropertyOp13
 70
     1
102
RTVSPropertyOp14
 70
     1
102
RTVSPropertyOp15
 70
     1
102
RTVSPropertyOp16
 70
     1
102
RTVSPropertyOp17
 70
     1
102
RTVSPropertyOp18
 70
     1
102
RTVSPropertyOp19
 70
     1
102
RTVSPropertyOp20
 70
     1
102
RTVSPropertyOp21
 70
     1
102
RTVSPropertyOp22
 70
     1
102
RTVSPropertyOp23
 70
     1
102
RTVSPropertyOp24
 70
     1
102
RTVSPropertyOp25
 70
     1
102
RTVSPropertyOp26
 70
     1
102
RTVSPropertyOp27
 70
     1
102
RTVSPropertyOp28
 70
     1
102
RTVSPropertyOp29
 70
     1
102
RTVSPropertyOp30
 70
     1
102
RTVSPropertyOp31
 70
     1
102
RTVSPropertyOp32
 70
     1
102
RTVSPropertyOp33
 70
     1
102
RTVSPropertyOp34
 70
     1
102
RTVSPropertyOp35
 70
     1
102
RTVSPropertyOp36
 70
     1
102
RTVSPropertyOp37
 70
     1
102
RTVSPropertyOp38
 70
     1
102
RTVSPropertyOp39
 70
     1
102
RTVSPropertyOp40
 70
     1
102
RTVSPropertyOp41
 70
     1
102
RTVSPropertyOp42
 70
     1
102
RTVSPropertyOp43
 70
     1
102
RTVSPropertyOp44
 70
     1
102
RTVSPropertyOp45
 70
     1
102
RTVSPropertyOp46
 70
     1
102
RTVSPropertyOp47
 70
     1
102
RTVSPropertyOp48
 70
     1
102
RTVSPropertyOp49
 70
     1
102
RTVSPropertyOp50
 70
     1
102
RTVSPropertyOp51
 70
     0
102
RTVSPropertyOp52
 70
     0
102
RTVSPropertyOp53
 70
     1
102
RTVSPropertyOp54
 70
     1
102
RTVSPropertyOp55
 70
     1
102
RTVSPropertyOp56
 70
     1
102
RTVSPropertyOp57
 70
     1
102
RTVSPropertyOp58
 70
     1
102
RTVSPropertyOp59
 70
     1
102
RTVSPropertyOp60
 70
     1
102
RTVSPropertyOp61
 70
     1
102
RTVSPropertyOp62
 70
     1
  0
XRECORD
  5
5C1D
102
{ACAD_REACTORS
330
5C1C
102
}
330
5C1C
100
AcDbXrecord
280
     1
102
RTVSPost2010Prop28
280
     0
102
RTVSPost2010PropOp28
 70
     1
102
RTVSPost2010Prop29
280
     1
102
RTVSPost2010PropOp29
 70
     1
102
RTVSPost2010Prop30
280
     1
102
RTVSPost2010PropOp30
 70
     1
102
RTVSPost2010Prop31
280
     0
102
RTVSPost2010PropOp31
 70
     1
102
RTVSPost2010Prop32
280
     0
102
RTVSPost2010PropOp32
 70
     1
102
RTVSPost2010Prop33
280
     0
102
RTVSPost2010PropOp33
 70
     1
102
RTVSPost2010Prop34
280
     0
102
RTVSPost2010PropOp34
 70
     1
102
RTVSPost2010Prop35
280
     0
102
RTVSPost2010PropOp35
 70
     1
102
RTVSPost2010Prop36
280
     0
102
RTVSPost2010PropOp36
 70
     1
102
RTVSPost2010Prop37
 90
       50
102
RTVSPost2010PropOp37
 70
     1
102
RTVSPost2010Prop38
140
0.0
102
RTVSPost2010PropOp38
 70
     1
102
RTVSPost2010Prop39
140
1.0
102
RTVSPost2010PropOp39
 70
     1
102
RTVSPost2010Prop40
 90
        0
102
RTVSPost2010PropOp40
 70
     1
102
RTVSPost2010Prop41ColorIndex
 90
       18
102
RTVSPost2010Prop41ColorRGB
 90
        0
102
RTVSPost2010PropOp41
 70
     1
102
RTVSPost2010Prop42
 90
       50
102
RTVSPost2010PropOp42
 70
     1
102
RTVSPost2010Prop43
 90
        3
102
RTVSPost2010PropOp43
 70
     1
102
RTVSPost2010Prop44ColorIndex
 90
        5
102
RTVSPost2010Prop44ColorRGB
 90
      255
102
RTVSPost2010PropOp44
 70
     1
102
RTVSPost2010Prop45
280
     0
102
RTVSPost2010PropOp45
 70
     1
102
RTVSPost2010Prop46
 90
       50
102
RTVSPost2010PropOp46
 70
     1
102
RTVSPost2010Prop47
 90
       50
102
RTVSPost2010PropOp47
 70
     1
102
RTVSPost2010Prop48
 90
       50
102
RTVSPost2010PropOp48
 70
     1
102
RTVSPost2010Prop49
280
     0
102
RTVSPost2010PropOp49
 70
     1
102
RTVSPost2010Prop50
 90
       50
102
RTVSPost2010PropOp50
 70
     1
102
RTVSPost2010Prop51ColorIndex
 90
      256
102
RTVSPost2010Prop51ColorRGB
 90
-16777216
102
RTVSPost2010PropOp51
 70
     0
102
RTVSPost2010Prop52
140
1.0
102
RTVSPost2010PropOp52
 70
     0
102
RTVSPost2010Prop53
 90
        2
102
RTVSPost2010PropOp53
 70
     1
102
RTVSPost2010Prop54
  1
strokes_ogs.tif
102
RTVSPost2010PropOp54
 70
     1
102
RTVSPost2010Prop55
280
     0
102
RTVSPost2010PropOp55
 70
     1
102
RTVSPost2010Prop56
140
1.0
102
RTVSPost2010PropOp56
 70
     1
102
RTVSPost2010Prop57
140
1.0
102
RTVSPost2010PropOp57
 70
     1
102
RTVSPropertyOp0
 70
     1
102
RTVSPropertyOp1
 70
     1
102
RTVSPropertyOp2
 70
     1
102
RTVSPropertyOp3
 70
     1
102
RTVSPropertyOp4
 70
     1
102
RTVSPropertyOp5
 70
     1
102
RTVSPropertyOp6
 70
     1
102
RTVSPropertyOp7
 70
     1
102
RTVSPropertyOp8
 70
     1
102
RTVSPropertyOp9
 70
     1
102
RTVSPropertyOp10
 70
     1
102
RTVSPropertyOp11
 70
     1
102
RTVSPropertyOp12
 70
     1
102
RTVSPropertyOp13
 70
     1
102
RTVSPropertyOp14
 70
     1
102
RTVSPropertyOp15
 70
     1
102
RTVSPropertyOp16
 70
     1
102
RTVSPropertyOp17
 70
     1
102
RTVSPropertyOp18
 70
     1
102
RTVSPropertyOp19
 70
     1
102
RTVSPropertyOp20
 70
     1
102
RTVSPropertyOp21
 70
     1
102
RTVSPropertyOp22
 70
     1
102
RTVSPropertyOp23
 70
     1
102
RTVSPropertyOp24
 70
     1
102
RTVSPropertyOp25
 70
     1
102
RTVSPropertyOp26
 70
     1
102
RTVSPropertyOp27
 70
     1
102
RTVSPropertyOp28
 70
     1
102
RTVSPropertyOp29
 70
     1
102
RTVSPropertyOp30
 70
     1
102
RTVSPropertyOp31
 70
     1
102
RTVSPropertyOp32
 70
     1
102
RTVSPropertyOp33
 70
     1
102
RTVSPropertyOp34
 70
     1
102
RTVSPropertyOp35
 70
     1
102
RTVSPropertyOp36
 70
     1
102
RTVSPropertyOp37
 70
     1
102
RTVSPropertyOp38
 70
     1
102
RTVSPropertyOp39
 70
     1
102
RTVSPropertyOp40
 70
     1
102
RTVSPropertyOp41
 70
     1
102
RTVSPropertyOp42
 70
     1
102
RTVSPropertyOp43
 70
     1
102
RTVSPropertyOp44
 70
     1
102
RTVSPropertyOp45
 70
     1
102
RTVSPropertyOp46
 70
     1
102
RTVSPropertyOp47
 70
     1
102
RTVSPropertyOp48
 70
     1
102
RTVSPropertyOp49
 70
     1
102
RTVSPropertyOp50
 70
     1
102
RTVSPropertyOp51
 70
     0
102
RTVSPropertyOp52
 70
     0
102
RTVSPropertyOp53
 70
     1
102
RTVSPropertyOp54
 70
     1
102
RTVSPropertyOp55
 70
     1
102
RTVSPropertyOp56
 70
     1
102
RTVSPropertyOp57
 70
     1
102
RTVSPropertyOp58
 70
     1
102
RTVSPropertyOp59
 70
     1
102
RTVSPropertyOp60
 70
     1
102
RTVSPropertyOp61
 70
     1
102
RTVSPropertyOp62
 70
     1
  0
XRECORD
  5
5C35
102
{ACAD_REACTORS
330
5C34
102
}
330
5C34
100
AcDbXrecord
280
     1
102
RTVSPost2010Prop28
280
     0
102
RTVSPost2010PropOp28
 70
     1
102
RTVSPost2010Prop29
280
     1
102
RTVSPost2010PropOp29
 70
     1
102
RTVSPost2010Prop30
280
     1
102
RTVSPost2010PropOp30
 70
     1
102
RTVSPost2010Prop31
280
     0
102
RTVSPost2010PropOp31
 70
     1
102
RTVSPost2010Prop32
280
     0
102
RTVSPost2010PropOp32
 70
     1
102
RTVSPost2010Prop33
280
     0
102
RTVSPost2010PropOp33
 70
     1
102
RTVSPost2010Prop34
280
     0
102
RTVSPost2010PropOp34
 70
     1
102
RTVSPost2010Prop35
280
     0
102
RTVSPost2010PropOp35
 70
     1
102
RTVSPost2010Prop36
280
     0
102
RTVSPost2010PropOp36
 70
     1
102
RTVSPost2010Prop37
 90
       50
102
RTVSPost2010PropOp37
 70
     1
102
RTVSPost2010Prop38
140
0.0
102
RTVSPost2010PropOp38
 70
     1
102
RTVSPost2010Prop39
140
1.0
102
RTVSPost2010PropOp39
 70
     1
102
RTVSPost2010Prop40
 90
        0
102
RTVSPost2010PropOp40
 70
     1
102
RTVSPost2010Prop41ColorIndex
 90
       18
102
RTVSPost2010Prop41ColorRGB
 90
        0
102
RTVSPost2010PropOp41
 70
     1
102
RTVSPost2010Prop42
 90
       50
102
RTVSPost2010PropOp42
 70
     1
102
RTVSPost2010Prop43
 90
        3
102
RTVSPost2010PropOp43
 70
     1
102
RTVSPost2010Prop44ColorIndex
 90
        5
102
RTVSPost2010Prop44ColorRGB
 90
      255
102
RTVSPost2010PropOp44
 70
     1
102
RTVSPost2010Prop45
280
     0
102
RTVSPost2010PropOp45
 70
     1
102
RTVSPost2010Prop46
 90
       50
102
RTVSPost2010PropOp46
 70
     1
102
RTVSPost2010Prop47
 90
       50
102
RTVSPost2010PropOp47
 70
     1
102
RTVSPost2010Prop48
 90
       50
102
RTVSPost2010PropOp48
 70
     1
102
RTVSPost2010Prop49
280
     0
102
RTVSPost2010PropOp49
 70
     1
102
RTVSPost2010Prop50
 90
       50
102
RTVSPost2010PropOp50
 70
     1
102
RTVSPost2010Prop51ColorIndex
 90
      256
102
RTVSPost2010Prop51ColorRGB
 90
-16777216
102
RTVSPost2010PropOp51
 70
     0
102
RTVSPost2010Prop52
140
1.0
102
RTVSPost2010PropOp52
 70
     0
102
RTVSPost2010Prop53
 90
        2
102
RTVSPost2010PropOp53
 70
     1
102
RTVSPost2010Prop54
  1
strokes_ogs.tif
102
RTVSPost2010PropOp54
 70
     1
102
RTVSPost2010Prop55
280
     0
102
RTVSPost2010PropOp55
 70
     1
102
RTVSPost2010Prop56
140
1.0
102
RTVSPost2010PropOp56
 70
     1
102
RTVSPost2010Prop57
140
1.0
102
RTVSPost2010PropOp57
 70
     1
102
RTVSPropertyOp0
 70
     1
102
RTVSPropertyOp1
 70
     1
102
RTVSPropertyOp2
 70
     1
102
RTVSPropertyOp3
 70
     1
102
RTVSPropertyOp4
 70
     1
102
RTVSPropertyOp5
 70
     1
102
RTVSPropertyOp6
 70
     1
102
RTVSPropertyOp7
 70
     1
102
RTVSPropertyOp8
 70
     1
102
RTVSPropertyOp9
 70
     1
102
RTVSPropertyOp10
 70
     1
102
RTVSPropertyOp11
 70
     1
102
RTVSPropertyOp12
 70
     1
102
RTVSPropertyOp13
 70
     1
102
RTVSPropertyOp14
 70
     1
102
RTVSPropertyOp15
 70
     1
102
RTVSPropertyOp16
 70
     1
102
RTVSPropertyOp17
 70
     1
102
RTVSPropertyOp18
 70
     1
102
RTVSPropertyOp19
 70
     1
102
RTVSPropertyOp20
 70
     1
102
RTVSPropertyOp21
 70
     1
102
RTVSPropertyOp22
 70
     1
102
RTVSPropertyOp23
 70
     1
102
RTVSPropertyOp24
 70
     1
102
RTVSPropertyOp25
 70
     1
102
RTVSPropertyOp26
 70
     1
102
RTVSPropertyOp27
 70
     1
102
RTVSPropertyOp28
 70
     1
102
RTVSPropertyOp29
 70
     1
102
RTVSPropertyOp30
 70
     1
102
RTVSPropertyOp31
 70
     1
102
RTVSPropertyOp32
 70
     1
102
RTVSPropertyOp33
 70
     1
102
RTVSPropertyOp34
 70
     1
102
RTVSPropertyOp35
 70
     1
102
RTVSPropertyOp36
 70
     1
102
RTVSPropertyOp37
 70
     1
102
RTVSPropertyOp38
 70
     1
102
RTVSPropertyOp39
 70
     1
102
RTVSPropertyOp40
 70
     1
102
RTVSPropertyOp41
 70
     1
102
RTVSPropertyOp42
 70
     1
102
RTVSPropertyOp43
 70
     1
102
RTVSPropertyOp44
 70
     1
102
RTVSPropertyOp45
 70
     1
102
RTVSPropertyOp46
 70
     1
102
RTVSPropertyOp47
 70
     1
102
RTVSPropertyOp48
 70
     1
102
RTVSPropertyOp49
 70
     1
102
RTVSPropertyOp50
 70
     1
102
RTVSPropertyOp51
 70
     0
102
RTVSPropertyOp52
 70
     0
102
RTVSPropertyOp53
 70
     1
102
RTVSPropertyOp54
 70
     1
102
RTVSPropertyOp55
 70
     1
102
RTVSPropertyOp56
 70
     1
102
RTVSPropertyOp57
 70
     1
102
RTVSPropertyOp58
 70
     1
102
RTVSPropertyOp59
 70
     1
102
RTVSPropertyOp60
 70
     1
102
RTVSPropertyOp61
 70
     1
102
RTVSPropertyOp62
 70
     1
  0
ENDSEC
  0
EOF
