  0
SECTION
  2
HEADER
  9
$ACADVER
  1
AC1015
  9
$ACADMAINTVER
 70
    20
  9
$DWGCODEPAGE
  3
ANSI_932
  9
$INSBASE
 10
0.0
 20
0.0
 30
0.0
  9
$EXTMIN
 10
17345.59771503509
 20
2822.809791742034
 30
0.0
  9
$EXTMAX
 10
20495.59771503509
 20
7247.809791742034
 30
0.0
  9
$LIMMIN
 10
0.0
 20
0.0
  9
$LIMMAX
 10
297.0
 20
210.0
  9
$ORTHOMODE
 70
     1
  9
$REGENMODE
 70
     1
  9
$FILLMODE
 70
     1
  9
$QTEXTMODE
 70
     0
  9
$MIRRTEXT
 70
     0
  9
$LTSCALE
 40
75.0
  9
$ATTMODE
 70
     1
  9
$TEXTSIZE
 40
3.5
  9
$TRACEWID
 40
0.05
  9
$TEXTSTYLE
  7
STANDARD
  9
$CLAYER
  8
SP
  9
$CELTYPE
  6
BYLAYER
  9
$CECOLOR
 62
   256
  9
$CELTSCALE
 40
1.0
  9
$DISPSILH
 70
     0
  9
$DIMSCALE
 40
15.0
  9
$DIMASZ
 40
2.5
  9
$DIMEXO
 40
1.0
  9
$DIMDLI
 40
7.0
  9
$DIMRND
 40
0.0
  9
$DIMDLE
 40
0.0
  9
$DIMEXE
 40
1.0
  9
$DIMTP
 40
0.0
  9
$DIMTM
 40
0.0
  9
$DIMTXT
 40
3.0
  9
$DIMCEN
 40
0.0
  9
$DIMTSZ
 40
0.0
  9
$DIMTOL
 70
     0
  9
$DIMLIM
 70
     0
  9
$DIMTIH
 70
     0
  9
$DIMTOH
 70
     0
  9
$DIMSE1
 70
     0
  9
$DIMSE2
 70
     0
  9
$DIMTAD
 70
     1
  9
$DIMZIN
 70
     8
  9
$DIMBLK
  1

  9
$DIMASO
 70
     1
  9
$DIMSHO
 70
     1
  9
$DIMPOST
  1

  9
$DIMAPOST
  1

  9
$DIMALT
 70
     0
  9
$DIMALTD
 70
     2
  9
$DIMALTF
 40
0.03937
  9
$DIMLFAC
 40
1.0
  9
$DIMTOFL
 70
     1
  9
$DIMTVP
 40
0.0
  9
$DIMTIX
 70
     0
  9
$DIMSOXD
 70
     0
  9
$DIMSAH
 70
     1
  9
$DIMBLK1
  1
OPEN
  9
$DIMBLK2
  1
OPEN
  9
$DIMSTYLE
  2
GOD
  9
$DIMCLRD
 70
   256
  9
$DIMCLRE
 70
   256
  9
$DIMCLRT
 70
   256
  9
$DIMTFAC
 40
1.0
  9
$DIMGAP
 40
1.0
  9
$DIMJUST
 70
     0
  9
$DIMSD1
 70
     0
  9
$DIMSD2
 70
     0
  9
$DIMTOLJ
 70
     1
  9
$DIMTZIN
 70
     8
  9
$DIMALTZ
 70
     0
  9
$DIMALTTZ
 70
     0
  9
$DIMUPT
 70
     0
  9
$DIMDEC
 70
     2
  9
$DIMTDEC
 70
     2
  9
$DIMALTU
 70
     2
  9
$DIMALTTD
 70
     2
  9
$DIMTXSTY
  7
STANDARD
  9
$DIMAUNIT
 70
     0
  9
$DIMADEC
 70
     0
  9
$DIMALTRND
 40
0.0
  9
$DIMAZIN
 70
     0
  9
$DIMDSEP
 70
    46
  9
$DIMATFIT
 70
     0
  9
$DIMFRAC
 70
     0
  9
$DIMLDRBLK
  1
OPEN
  9
$DIMLUNIT
 70
     2
  9
$DIMLWD
 70
    -2
  9
$DIMLWE
 70
    -2
  9
$DIMTMOVE
 70
     0
  9
$LUNITS
 70
     2
  9
$LUPREC
 70
     3
  9
$SKETCHINC
 40
0.1
  9
$FILLETRAD
 40
15.0
  9
$AUNITS
 70
     0
  9
$AUPREC
 70
     2
  9
$MENU
  1
acad
  9
$ELEVATION
 40
0.0
  9
$PELEVATION
 40
0.0
  9
$THICKNESS
 40
0.0
  9
$LIMCHECK
 70
     0
  9
$CHAMFERA
 40
0.0
  9
$CHAMFERB
 40
0.0
  9
$CHAMFERC
 40
20.0
  9
$CHAMFERD
 40
0.0
  9
$SKPOLY
 70
     0
  9
$TDCREATE
 40
2454939.604632489
  9
$TDUCREATE
 40
2454939.229632489
  9
$TDUPDATE
 40
2459353.579935741
  9
$TDUUPDATE
 40
2459353.204935741
  9
$TDINDWG
 40
0.1205566898
  9
$TDUSRTIMER
 40
0.1205566898
  9
$USRTIMER
 70
     1
  9
$ANGBASE
 50
0.0
  9
$ANGDIR
 70
     0
  9
$PDMODE
 70
     0
  9
$PDSIZE
 40
1.0
  9
$PLINEWID
 40
0.0
  9
$SPLFRAME
 70
     0
  9
$SPLINETYPE
 70
     6
  9
$SPLINESEGS
 70
     8
  9
$HANDSEED
  5
5C49
  9
$SURFTAB1
 70
     6
  9
$SURFTAB2
 70
     6
  9
$SURFTYPE
 70
     6
  9
$SURFU
 70
     6
  9
$SURFV
 70
     6
  9
$UCSBASE
  2

  9
$UCSNAME
  2

  9
$UCSORG
 10
0.0
 20
0.0
 30
0.0
  9
$UCSXDIR
 10
1.0
 20
0.0
 30
0.0
  9
$UCSYDIR
 10
0.0
 20
1.0
 30
0.0
  9
$UCSORTHOREF
  2

  9
$UCSORTHOVIEW
 70
     0
  9
$UCSORGTOP
 10
0.0
 20
0.0
 30
0.0
  9
$UCSORGBOTTOM
 10
0.0
 20
0.0
 30
0.0
  9
$UCSORGLEFT
 10
0.0
 20
0.0
 30
0.0
  9
$UCSORGRIGHT
 10
0.0
 20
0.0
 30
0.0
  9
$UCSORGFRONT
 10
0.0
 20
0.0
 30
0.0
  9
$UCSORGBACK
 10
0.0
 20
0.0
 30
0.0
  9
$PUCSBASE
  2

  9
$PUCSNAME
  2

  9
$PUCSORG
 10
0.0
 20
0.0
 30
0.0
  9
$PUCSXDIR
 10
1.0
 20
0.0
 30
0.0
  9
$PUCSYDIR
 10
0.0
 20
1.0
 30
0.0
  9
$PUCSORTHOREF
  2

  9
$PUCSORTHOVIEW
 70
     0
  9
$PUCSORGTOP
 10
0.0
 20
0.0
 30
0.0
  9
$PUCSORGBOTTOM
 10
0.0
 20
0.0
 30
0.0
  9
$PUCSORGLEFT
 10
0.0
 20
0.0
 30
0.0
  9
$PUCSORGRIGHT
 10
0.0
 20
0.0
 30
0.0
  9
$PUCSORGFRONT
 10
0.0
 20
0.0
 30
0.0
  9
$PUCSORGBACK
 10
0.0
 20
0.0
 30
0.0
  9
$USERI1
 70
     0
  9
$USERI2
 70
     0
  9
$USERI3
 70
     0
  9
$USERI4
 70
     0
  9
$USERI5
 70
     0
  9
$USERR1
 40
0.0
  9
$USERR2
 40
0.0
  9
$USERR3
 40
0.0
  9
$USERR4
 40
0.0
  9
$USERR5
 40
0.0
  9
$WORLDVIEW
 70
     1
  9
$SHADEDGE
 70
     3
  9
$SHADEDIF
 70
    70
  9
$TILEMODE
 70
     1
  9
$MAXACTVP
 70
    16
  9
$PINSBASE
 10
0.0
 20
0.0
 30
0.0
  9
$PLIMCHECK
 70
     0
  9
$PEXTMIN
 10
1.000000000000000E+20
 20
1.000000000000000E+20
 30
1.000000000000000E+20
  9
$PEXTMAX
 10
-1.000000000000000E+20
 20
-1.000000000000000E+20
 30
-1.000000000000000E+20
  9
$PLIMMIN
 10
0.0
 20
0.0
  9
$PLIMMAX
 10
12.0
 20
9.0
  9
$UNITMODE
 70
     0
  9
$VISRETAIN
 70
     0
  9
$PLINEGEN
 70
     0
  9
$PSLTSCALE
 70
     0
  9
$TREEDEPTH
 70
  3020
  9
$CMLSTYLE
  2
STANDARD
  9
$CMLJUST
 70
     0
  9
$CMLSCALE
 40
20.0
  9
$PROXYGRAPHICS
 70
     1
  9
$MEASUREMENT
 70
     1
  9
$CELWEIGHT
370
    -1
  9
$ENDCAPS
280
     0
  9
$JOINSTYLE
280
     0
  9
$LWDISPLAY
290
     0
  9
$INSUNITS
 70
     0
  9
$HYPERLINKBASE
  1

  9
$STYLESHEET
  1

  9
$XEDIT
290
     1
  9
$CEPSNTYPE
380
     0
  9
$PSTYLEMODE
290
     1
  9
$FINGERPRINTGUID
  2
{A0F129D1-2BC8-11D4-BF85-004026350B0A}
  9
$VERSIONGUID
  2
{C16DBC20-94C0-A546-A184-2503B80AEA48}
  9
$EXTNAMES
290
     1
  9
$PSVPSCALE
 40
0.0
  9
$OLESTARTUP
290
     0
  0
ENDSEC
  0
SECTION
  2
CLASSES
  0
CLASS
  1
ACDBDICTIONARYWDFLT
  2
AcDbDictionaryWithDefault
  3
ObjectDBX Classes
 90
        0
280
     0
281
     0
  0
CLASS
  1
ACDBPLACEHOLDER
  2
AcDbPlaceHolder
  3
ObjectDBX Classes
 90
        0
280
     0
281
     0
  0
CLASS
  1
LAYOUT
  2
AcDbLayout
  3
ObjectDBX Classes
 90
        0
280
     0
281
     0
  0
CLASS
  1
MATERIAL
  2
AcDbMaterial
  3
ObjectDBX Classes
 90
     1153
280
     0
281
     0
  0
CLASS
  1
VISUALSTYLE
  2
AcDbVisualStyle
  3
ObjectDBX Classes
 90
     4095
280
     0
281
     0
  0
CLASS
  1
TABLESTYLE
  2
AcDbTableStyle
  3
ObjectDBX Classes
 90
     4095
280
     0
281
     0
  0
CLASS
  1
SCALE
  2
AcDbScale
  3
ObjectDBX Classes
 90
     1153
280
     0
281
     0
  0
CLASS
  1
MLEADERSTYLE
  2
AcDbMLeaderStyle
  3
ACDB_MLEADERSTYLE_CLASS
 90
     4095
280
     0
281
     0
  0
CLASS
  1
ACDBSECTIONVIEWSTYLE
  2
AcDbSectionViewStyle
  3
ObjectDBX Classes
 90
     1025
280
     0
281
     0
  0
CLASS
  1
ACDBDETAILVIEWSTYLE
  2
AcDbDetailViewStyle
  3
ObjectDBX Classes
 90
     1025
280
     0
281
     0
  0
CLASS
  1
SORTENTSTABLE
  2
AcDbSortentsTable
  3
ObjectDBX Classes
 90
        0
280
     0
281
     0
  0
CLASS
  1
DICTIONARYVAR
  2
AcDbDictionaryVar
  3
ObjectDBX Classes
 90
        0
280
     0
281
     0
  0
CLASS
  1
CELLSTYLEMAP
  2
AcDbCellStyleMap
  3
ObjectDBX Classes
 90
     1152
280
     0
281
     0
  0
ENDSEC
  0
SECTION
  2
TABLES
  0
TABLE
  2
VPORT
  5
8
330
0
100
AcDbSymbolTable
 70
     1
  0
VPORT
  5
5A0D
330
8
100
AcDbSymbolTableRecord
100
AcDbViewportTableRecord
  2
*Active
 70
     0
 10
0.0
 20
0.0
 11
1.0
 21
1.0
 12
19566.6095379391
 22
5347.510061844362
 13
0.0
 23
0.0
 14
5.0
 24
5.0
 15
0.0
 25
0.0
 16
0.0
 26
0.0
 36
1.0
 17
0.0
 27
0.0
 37
0.0
 40
5084.781566933291
 41
2.146341463414634
 42
50.0
 43
0.0
 44
0.0
 50
0.0
 51
0.0
 71
     0
 72
   100
 73
     1
 74
     0
 75
     0
 76
     0
 77
     0
 78
     0
281
     0
 65
     1
110
0.0
120
0.0
130
0.0
111
1.0
121
0.0
131
0.0
112
0.0
122
1.0
132
0.0
 79
     0
146
0.0
1001
ACAD_NAV_VCDISPLAY
1070
     3
  0
ENDTAB
  0
TABLE
  2
LTYPE
  5
5
330
0
100
AcDbSymbolTable
 70
     4
  0
LTYPE
  5
13
330
5
100
AcDbSymbolTableRecord
100
AcDbLinetypeTableRecord
  2
BYBLOCK
 70
     0
  3

 72
    65
 73
     0
 40
0.0
  0
LTYPE
  5
14
330
5
100
AcDbSymbolTableRecord
100
AcDbLinetypeTableRecord
  2
BYLAYER
 70
     0
  3

 72
    65
 73
     0
 40
0.0
  0
LTYPE
  5
15
330
5
100
AcDbSymbolTableRecord
100
AcDbLinetypeTableRecord
  2
CONTINUOUS
 70
     0
  3
Solid line
 72
    65
 73
     0
 40
0.0
  0
LTYPE
  5
1F
330
5
100
AcDbSymbolTableRecord
100
AcDbLinetypeTableRecord
  2
CENTER
 70
     0
  3
____ _ ____ _ ____ _ ____ _ ____ _ ____ _ ____ 
 72
    65
 73
     4
 40
2.0
 49
1.25
 74
     0
 49
-0.25
 74
     0
 49
0.25
 74
     0
 49
-0.25
 74
     0
  0
LTYPE
  5
20
330
5
100
AcDbSymbolTableRecord
100
AcDbLinetypeTableRecord
  2
HIDDEN
 70
     0
  3
__ __ __ __ __ __ __ __ __ __ __ __ __ __ __ __
 72
    65
 73
     2
 40
0.375
 49
0.25
 74
     0
 49
-0.125
 74
     0
  0
LTYPE
  5
21
330
5
100
AcDbSymbolTableRecord
100
AcDbLinetypeTableRecord
  2
PHANTOM
 70
     0
  3
______  __  __  ______  __  __  ______  __  __ 
 72
    65
 73
     6
 40
2.5
 49
1.25
 74
     0
 49
-0.25
 74
     0
 49
0.25
 74
     0
 49
-0.25
 74
     0
 49
0.25
 74
     0
 49
-0.25
 74
     0
  0
ENDTAB
  0
TABLE
  2
LAYER
  5
2
102
{ACAD_XDICTIONARY
360
5BBE
102
}
330
0
100
AcDbSymbolTable
 70
    13
  0
LAYER
  5
F
102
{ACAD_XDICTIONARY
360
5BA3
102
}
330
2
100
AcDbSymbolTableRecord
100
AcDbLayerTableRecord
  2
0
 70
     0
 62
     7
  6
CONTINUOUS
370
    -3
390
1E91
  0
LAYER
  5
2F
102
{ACAD_XDICTIONARY
360
5BA5
102
}
330
2
100
AcDbSymbolTableRecord
100
AcDbLayerTableRecord
  2
CT
 70
     0
 62
     3
  6
CENTER
370
    -3
390
1E91
  0
LAYER
  5
30
102
{ACAD_XDICTIONARY
360
5BA7
102
}
330
2
100
AcDbSymbolTableRecord
100
AcDbLayerTableRecord
  2
FUTO
 70
     0
 62
     4
  6
CONTINUOUS
370
    -3
390
1E91
  0
LAYER
  5
32
102
{ACAD_XDICTIONARY
360
5BA9
102
}
330
2
100
AcDbSymbolTableRecord
100
AcDbLayerTableRecord
  2
HOSO
 70
     0
 62
     7
  6
CONTINUOUS
370
    -3
390
1E91
  0
LAYER
  5
33
102
{ACAD_XDICTIONARY
360
5BAB
102
}
330
2
100
AcDbSymbolTableRecord
100
AcDbLayerTableRecord
  2
KL
 70
     0
 62
     7
  6
HIDDEN
370
    -3
390
1E91
  0
LAYER
  5
34
102
{ACAD_XDICTIONARY
360
5BAD
102
}
330
2
100
AcDbSymbolTableRecord
100
AcDbLayerTableRecord
  2
MOJI
 70
     0
 62
     3
  6
CONTINUOUS
370
    -3
390
1E91
  0
LAYER
  5
35
102
{ACAD_XDICTIONARY
360
5BAF
102
}
330
2
100
AcDbSymbolTableRecord
100
AcDbLayerTableRecord
  2
SL
 70
     0
 62
     1
  6
PHANTOM
370
    -3
390
1E91
  0
LAYER
  5
36
102
{ACAD_XDICTIONARY
360
5BB1
102
}
330
2
100
AcDbSymbolTableRecord
100
AcDbLayerTableRecord
  2
SP
 70
     0
 62
     2
  6
CONTINUOUS
370
    -3
390
1E91
  0
LAYER
  5
1E9B
330
2
100
AcDbSymbolTableRecord
100
AcDbLayerTableRecord
  2
Defpoints
 70
     0
 62
     7
  6
CONTINUOUS
290
     0
370
    -3
390
1E91
  0
LAYER
  5
1EEE
102
{ACAD_XDICTIONARY
360
5BB3
102
}
330
2
100
AcDbSymbolTableRecord
100
AcDbLayerTableRecord
  2
3
 70
     0
 62
    -2
  6
CONTINUOUS
370
    -3
390
1E91
  0
LAYER
  5
1EEF
102
{ACAD_XDICTIONARY
360
5BB5
102
}
330
2
100
AcDbSymbolTableRecord
100
AcDbLayerTableRecord
  2
2
 70
     0
 62
     3
  6
CENTER
370
    -3
390
1E91
  0
LAYER
  5
1EF0
102
{ACAD_XDICTIONARY
360
5BB7
102
}
330
2
100
AcDbSymbolTableRecord
100
AcDbLayerTableRecord
  2
1
 70
     0
 62
     4
  6
CONTINUOUS
370
    -3
390
1E91
  0
LAYER
  5
2188
102
{ACAD_XDICTIONARY
360
5BB9
102
}
330
2
100
AcDbSymbolTableRecord
100
AcDbLayerTableRecord
  2
4
 70
     0
 62
     7
  6
CONTINUOUS
370
    -3
390
1E91
  0
ENDTAB
  0
TABLE
  2
STYLE
  5
3
330
0
100
AcDbSymbolTable
 70
     1
  0
STYLE
  5
10
330
3
100
AcDbSymbolTableRecord
100
AcDbTextStyleTableRecord
  2
STANDARD
 70
     0
 40
0.0
 41
1.0
 50
15.0
 71
     0
 42
3.5
  3
C:\Program Files\AutoCAD LT\simplex.shx
  4
C:\Program Files\AutoCAD LT\extfont.shx
  0
ENDTAB
  0
TABLE
  2
VIEW
  5
6
330
0
100
AcDbSymbolTable
 70
     0
  0
ENDTAB
  0
TABLE
  2
UCS
  5
7
330
0
100
AcDbSymbolTable
 70
     0
  0
ENDTAB
  0
TABLE
  2
APPID
  5
9
330
0
100
AcDbSymbolTable
 70
     5
  0
APPID
  5
11
330
9
100
AcDbSymbolTableRecord
100
AcDbRegAppTableRecord
  2
ACAD
 70
     0
  0
APPID
  5
5B4F
330
9
100
AcDbSymbolTableRecord
100
AcDbRegAppTableRecord
  2
ACAD_EXEMPT_FROM_CAD_STANDARDS
 70
     0
  0
APPID
  5
5B8F
330
9
100
AcDbSymbolTableRecord
100
AcDbRegAppTableRecord
  2
AcadAnnoMonitorAlertIconDisabled
 70
     0
  0
APPID
  5
5BC4
330
9
100
AcDbSymbolTableRecord
100
AcDbRegAppTableRecord
  2
ACAD_NAV_VCDISPLAY
 70
     0
  0
APPID
  5
5C46
330
9
100
AcDbSymbolTableRecord
100
AcDbRegAppTableRecord
  2
ACAD_MLEADERVER
 70
     0
  0
ENDTAB
  0
TABLE
  2
DIMSTYLE
  5
A
330
0
100
AcDbSymbolTable
 70
     3
100
AcDbDimStyleTable
 71
     2
340
1E99
340
1D
  0
DIMSTYLE
105
1D
330
A
100
AcDbSymbolTableRecord
100
AcDbDimStyleTableRecord
  2
STANDARD
 70
     0
340
10
  0
DIMSTYLE
105
1E99
102
{ACAD_REACTORS
330
3F26
330
3F0E
330
3F3E
330
3F4B
330
3F58
330
469F
330
46A9
330
46D1
330
46E3
330
4D6D
330
4D74
330
4D73
330
5859
330
585A
330
585B
330
5B57
330
5B64
102
}
330
A
100
AcDbSymbolTableRecord
100
AcDbDimStyleTableRecord
  2
GOD
 70
     0
 40
15.0
 41
2.5
 42
1.0
 43
7.0
 44
1.0
 73
     0
 74
     0
 77
     1
 78
     8
140
3.0
141
0.0
143
0.03937
147
1.0
172
     1
173
     1
176
   256
177
   256
178
   256
271
     2
272
     2
284
     8
289
     0
340
10
341
1E7F
343
1E7F
344
1E7F
  0
DIMSTYLE
105
1EF1
330
A
100
AcDbSymbolTableRecord
100
AcDbDimStyleTableRecord
  2
IGA
 70
     0
 40
2.0
 41
2.0
 42
0.5
 43
10.0
 44
1.0
 47
1.0
 48
1.0
 73
     0
 74
     0
 77
     1
 78
     8
140
3.0
141
0.0
143
0.03937
146
10.0
147
1.0
173
     1
271
     1
272
     0
279
     2
284
     8
340
10
341
1E7F
343
1E7F
344
1E7F
  0
ENDTAB
  0
TABLE
  2
BLOCK_RECORD
  5
1
330
0
100
AcDbSymbolTable
 70
    29
  0
BLOCK_RECORD
  5
19
102
{ACAD_XDICTIONARY
360
5B32
102
}
330
1
100
AcDbSymbolTableRecord
100
AcDbBlockTableRecord
  2
*MODEL_SPACE
340
1E94
  0
BLOCK_RECORD
  5
16
330
1
100
AcDbSymbolTableRecord
100
AcDbBlockTableRecord
  2
*PAPER_SPACE
340
1E95
  0
BLOCK_RECORD
  5
1E7F
330
1
100
AcDbSymbolTableRecord
100
AcDbBlockTableRecord
  2
_OPEN
340
0
102
{BLKREFS
331
5B37
331
5B38
331
5B40
331
5B41
331
5B49
331
5B4A
331
5B8A
331
5B8B
331
5B9D
331
5B9E
331
4E11
331
4E12
331
4E1A
331
4E1B
331
5883
331
5884
331
588C
331
588D
331
5895
331
5896
331
49BA
331
49BB
331
49DE
331
49DF
331
4A02
331
4A03
331
4A0B
331
4A0C
331
4A14
331
4A15
331
4E08
331
4E09
331
49B1
331
49B2
102
}
  0
BLOCK_RECORD
  5
1EB4
330
1
100
AcDbSymbolTableRecord
100
AcDbBlockTableRecord
  2
_Dot
340
0
  0
BLOCK_RECORD
  5
22E5
330
1
100
AcDbSymbolTableRecord
100
AcDbBlockTableRecord
  2
A$C5EBD6DA5
340
0
  0
BLOCK_RECORD
  5
3F0F
330
1
100
AcDbSymbolTableRecord
100
AcDbBlockTableRecord
  2
*D3
340
0
  0
BLOCK_RECORD
  5
3F27
330
1
100
AcDbSymbolTableRecord
100
AcDbBlockTableRecord
  2
*D4
340
0
  0
BLOCK_RECORD
  5
3F3F
330
1
100
AcDbSymbolTableRecord
100
AcDbBlockTableRecord
  2
*D5
340
0
  0
BLOCK_RECORD
  5
3F4C
330
1
100
AcDbSymbolTableRecord
100
AcDbBlockTableRecord
  2
*D6
340
0
  0
BLOCK_RECORD
  5
3F59
330
1
100
AcDbSymbolTableRecord
100
AcDbBlockTableRecord
  2
*D7
340
0
  0
BLOCK_RECORD
  5
3F67
330
1
100
AcDbSymbolTableRecord
100
AcDbBlockTableRecord
  2
A$C2860434C
340
0
  0
BLOCK_RECORD
  5
46F6
330
1
100
AcDbSymbolTableRecord
100
AcDbBlockTableRecord
  2
*D10
340
0
  0
BLOCK_RECORD
  5
4702
330
1
100
AcDbSymbolTableRecord
100
AcDbBlockTableRecord
  2
*D11
340
0
  0
BLOCK_RECORD
  5
471A
330
1
100
AcDbSymbolTableRecord
100
AcDbBlockTableRecord
  2
*D13
340
0
  0
BLOCK_RECORD
  5
4726
330
1
100
AcDbSymbolTableRecord
100
AcDbBlockTableRecord
  2
*D14
340
0
  0
BLOCK_RECORD
  5
4DDD
330
1
100
AcDbSymbolTableRecord
100
AcDbBlockTableRecord
  2
*D15
340
0
  0
BLOCK_RECORD
  5
4DEB
330
1
100
AcDbSymbolTableRecord
100
AcDbBlockTableRecord
  2
*D16
340
0
  0
BLOCK_RECORD
  5
4DF7
330
1
100
AcDbSymbolTableRecord
100
AcDbBlockTableRecord
  2
*D17
340
0
  0
BLOCK_RECORD
  5
585C
330
1
100
AcDbSymbolTableRecord
100
AcDbBlockTableRecord
  2
*D18
340
0
  0
BLOCK_RECORD
  5
5868
330
1
100
AcDbSymbolTableRecord
100
AcDbBlockTableRecord
  2
*D19
340
0
  0
BLOCK_RECORD
  5
5874
330
1
100
AcDbSymbolTableRecord
100
AcDbBlockTableRecord
  2
*D20
340
0
  0
BLOCK_RECORD
  5
5B58
330
1
100
AcDbSymbolTableRecord
100
AcDbBlockTableRecord
  2
*D27
340
0
  0
BLOCK_RECORD
  5
5B65
330
1
100
AcDbSymbolTableRecord
100
AcDbBlockTableRecord
  2
*D28
340
0
  0
ENDTAB
  0
ENDSEC
  0
SECTION
  2
BLOCKS
  0
BLOCK
  5
1A
330
19
100
AcDbEntity
  8
0
100
AcDbBlockBegin
  2
*MODEL_SPACE
 70
     0
 10
0.0
 20
0.0
 30
0.0
  3
*MODEL_SPACE
  1

  0
ENDBLK
  5
1B
330
19
100
AcDbEntity
  8
0
100
AcDbBlockEnd
  0
BLOCK
  5
17
330
16
100
AcDbEntity
 67
     1
  8
0
100
AcDbBlockBegin
  2
*PAPER_SPACE
 70
     0
 10
0.0
 20
0.0
 30
0.0
  3
*PAPER_SPACE
  1

  0
ENDBLK
  5
18
330
16
100
AcDbEntity
 67
     1
  8
0
100
AcDbBlockEnd
  0
BLOCK
  5
1E80
330
1E7F
100
AcDbEntity
  8
0
100
AcDbBlockBegin
  2
_OPEN
 70
     0
 10
0.0
 20
0.0
 30
0.0
  3
_OPEN
  1

  0
LINE
  5
1E81
330
1E7F
100
AcDbEntity
  8
0
  6
ByBlock
 62
     0
100
AcDbLine
 10
-1.0
 20
0.1666666666666666
 30
0.0
 11
0.0
 21
0.0
 31
0.0
  0
LINE
  5
1E82
330
1E7F
100
AcDbEntity
  8
0
  6
ByBlock
 62
     0
100
AcDbLine
 10
0.0
 20
0.0
 30
0.0
 11
-1.0
 21
-0.1666666666666666
 31
0.0
  0
LINE
  5
1E83
330
1E7F
100
AcDbEntity
  8
0
  6
ByBlock
 62
     0
100
AcDbLine
 10
0.0
 20
0.0
 30
0.0
 11
-1.0
 21
0.0
 31
0.0
  0
ENDBLK
  5
1E84
330
1E7F
100
AcDbEntity
  8
0
100
AcDbBlockEnd
  0
BLOCK
  5
1EB7
330
1EB4
100
AcDbEntity
  8
0
100
AcDbBlockBegin
  2
_Dot
 70
     0
 10
0.0
 20
0.0
 30
0.0
  3
_Dot
  1

  0
LINE
  5
1EC3
330
1EB4
100
AcDbEntity
  8
0
  6
ByBlock
 62
     0
100
AcDbLine
 10
0.0
 20
0.0
 30
0.0
 11
-1.0
 21
-0.0000000000000284
 31
0.0
  0
LWPOLYLINE
  5
1EC4
330
1EB4
100
AcDbEntity
  8
0
  6
ByBlock
 62
     0
100
AcDbPolyline
 90
        2
 70
     1
 43
0.1666666666666666
 10
-0.0833333333333286
 20
-0.0000000000000284
 42
1.0
 10
0.0833333333333286
 20
-0.0000000000000284
 42
1.0
  0
ENDBLK
  5
1EB8
330
1EB4
100
AcDbEntity
  8
0
100
AcDbBlockEnd
  0
BLOCK
  5
22ED
330
22E5
100
AcDbEntity
  8
0
100
AcDbBlockBegin
  2
A$C5EBD6DA5
 70
     0
 10
0.0
 20
0.0
 30
0.0
  3
A$C5EBD6DA5
  1

  0
LWPOLYLINE
  5
22E6
330
22E5
100
AcDbEntity
  8
1
100
AcDbPolyline
 90
        2
 70
     0
 43
0.0
 10
8.000000000002728
 20
-181.5000000000009
 10
8.000000000000909
 20
181.5000000000009
  0
LINE
  5
22E7
330
22E5
100
AcDbEntity
  8
1
100
AcDbLine
 10
1.000000000000909
 20
182.5000000000009
 30
0.0
 11
7.000000000002728
 21
182.5000000000009
 31
0.0
  0
ARC
  5
22E8
330
22E5
100
AcDbEntity
  8
1
100
AcDbCircle
 10
1.000000000000909
 20
183.5000000000009
 30
0.0
 40
1.0
100
AcDbArc
 50
180.0
 51
270.0
  0
LINE
  5
22E9
330
22E5
100
AcDbEntity
  8
1
100
AcDbLine
 10
1.000000000000909
 20
-182.5000000000009
 30
0.0
 11
7.000000000002728
 21
-182.5000000000009
 31
0.0
  0
ARC
  5
22EA
330
22E5
100
AcDbEntity
  8
1
100
AcDbCircle
 10
1.000000000000909
 20
-183.5000000000009
 30
0.0
 40
1.0
100
AcDbArc
 50
90.0
 51
180.0
  0
ARC
  5
22EB
330
22E5
100
AcDbEntity
  8
1
100
AcDbCircle
 10
7.000000000000909
 20
-181.5000000000009
 30
0.0
 40
1.0
100
AcDbArc
 50
270.0
 51
0.0
  0
ARC
  5
22EC
330
22E5
100
AcDbEntity
  8
1
100
AcDbCircle
 10
7.000000000000909
 20
181.5000000000009
 30
0.0
 40
1.0
100
AcDbArc
 50
0.0
 51
90.0
  0
ENDBLK
  5
22EE
330
22E5
100
AcDbEntity
  8
0
100
AcDbBlockEnd
  0
BLOCK
  5
3F19
330
3F0F
100
AcDbEntity
  8
0
100
AcDbBlockBegin
  2
*D3
 70
     1
 10
0.0
 20
0.0
 30
0.0
  3
*D3
  1

  0
LINE
  5
49B7
330
3F0F
100
AcDbEntity
  8
SP
370
    -2
100
AcDbLine
 10
18322.76627709694
 20
4790.633820463165
 30
0.0
 11
18322.76627709694
 21
4853.89053619199
 31
0.0
  0
LINE
  5
49B8
330
3F0F
100
AcDbEntity
  8
SP
370
    -2
100
AcDbLine
 10
18058.53499546311
 20
4490.964871696695
 30
0.0
 11
18058.53499546311
 21
4853.89053619199
 31
0.0
  0
LINE
  5
49B9
330
3F0F
100
AcDbEntity
  8
SP
370
    -2
100
AcDbLine
 10
18285.26627709694
 20
4838.890536191989
 30
0.0
 11
18096.03499546311
 21
4838.890536191989
 31
0.0
  0
INSERT
  5
49BA
330
3F0F
100
AcDbEntity
  8
SP
370
    -2
100
AcDbBlockReference
  2
_OPEN
 10
18322.76627709694
 20
4838.890536191989
 30
0.0
 41
37.5
 42
37.5
 43
37.5
  0
INSERT
  5
49BB
330
3F0F
100
AcDbEntity
  8
SP
370
    -2
100
AcDbBlockReference
  2
_OPEN
 10
18058.53499546311
 20
4838.890536191989
 30
0.0
 41
37.5
 42
37.5
 43
37.5
 50
180.0
  0
MTEXT
  5
49BC
330
3F0F
100
AcDbEntity
  8
SP
100
AcDbMText
 10
18190.65063628003
 20
4876.39053619199
 30
0.0
 40
45.0
 41
0.0
 71
     5
 72
     1
  1
\A1;264
 73
     1
 44
1.0
1001
ACAD
1000
MTEXTBEGIN
1070
    73
1070
     1
1070
    44
1040
1.0
1070
    74
1070
     0
1000
MTEXTEND
  0
POINT
  5
49BD
330
3F0F
100
AcDbEntity
  8
Defpoints
 62
     0
100
AcDbPoint
 10
18322.76627709694
 20
4775.633820463164
 30
0.0
  0
POINT
  5
49BE
330
3F0F
100
AcDbEntity
  8
Defpoints
 62
     0
100
AcDbPoint
 10
18058.53499546311
 20
4475.964871696695
 30
0.0
  0
POINT
  5
49BF
330
3F0F
100
AcDbEntity
  8
Defpoints
 62
     0
100
AcDbPoint
 10
18058.53499546311
 20
4838.890536191989
 30
0.0
  0
ENDBLK
  5
3F1A
330
3F0F
100
AcDbEntity
  8
0
100
AcDbBlockEnd
  0
BLOCK
  5
3F31
330
3F27
100
AcDbEntity
  8
0
100
AcDbBlockBegin
  2
*D4
 70
     1
 10
0.0
 20
0.0
 30
0.0
  3
*D4
  1

  0
LINE
  5
49AE
330
3F27
100
AcDbEntity
  8
SP
370
    -2
100
AcDbLine
 10
18322.76627709694
 20
4790.633820463165
 30
0.0
 11
18322.76627709694
 21
4853.89053619199
 31
0.0
  0
LINE
  5
49AF
330
3F27
100
AcDbEntity
  8
SP
370
    -2
100
AcDbLine
 10
18572.76627709694
 20
4539.135294509086
 30
0.0
 11
18572.76627709694
 21
4853.89053619199
 31
0.0
  0
LINE
  5
49B0
330
3F27
100
AcDbEntity
  8
SP
370
    -2
100
AcDbLine
 10
18360.26627709694
 20
4838.890536191989
 30
0.0
 11
18535.26627709694
 21
4838.890536191989
 31
0.0
  0
INSERT
  5
49B1
330
3F27
100
AcDbEntity
  8
SP
370
    -2
100
AcDbBlockReference
  2
_OPEN
 10
18322.76627709694
 20
4838.890536191989
 30
0.0
 41
37.5
 42
37.5
 43
37.5
 50
180.0
  0
INSERT
  5
49B2
330
3F27
100
AcDbEntity
  8
SP
370
    -2
100
AcDbBlockReference
  2
_OPEN
 10
18572.76627709694
 20
4838.890536191989
 30
0.0
 41
37.5
 42
37.5
 43
37.5
  0
MTEXT
  5
49B3
330
3F27
100
AcDbEntity
  8
SP
100
AcDbMText
 10
18447.76627709694
 20
4876.39053619199
 30
0.0
 40
45.0
 41
0.0
 71
     5
 72
     1
  1
\A1;250
 73
     1
 44
1.0
1001
ACAD
1000
MTEXTBEGIN
1070
    73
1070
     1
1070
    44
1040
1.0
1070
    74
1070
     0
1000
MTEXTEND
  0
POINT
  5
49B4
330
3F27
100
AcDbEntity
  8
Defpoints
 62
     0
100
AcDbPoint
 10
18322.76627709694
 20
4775.633820463164
 30
0.0
  0
POINT
  5
49B5
330
3F27
100
AcDbEntity
  8
Defpoints
 62
     0
100
AcDbPoint
 10
18572.76627709694
 20
4524.135294509085
 30
0.0
  0
POINT
  5
49B6
330
3F27
100
AcDbEntity
  8
Defpoints
 62
     0
100
AcDbPoint
 10
18572.76627709694
 20
4838.890536191989
 30
0.0
  0
ENDBLK
  5
3F32
330
3F27
100
AcDbEntity
  8
0
100
AcDbBlockEnd
  0
BLOCK
  5
3F49
330
3F3F
100
AcDbEntity
  8
0
100
AcDbBlockBegin
  2
*D5
 70
     1
 10
0.0
 20
0.0
 30
0.0
  3
*D5
  1

  0
LINE
  5
49FF
330
3F3F
100
AcDbEntity
  8
SP
370
    -2
100
AcDbLine
 10
18642.70978694452
 20
4502.635294509082
 30
0.0
 11
18692.76627709695
 21
4502.635294509082
 31
0.0
  0
LINE
  5
4A00
330
3F3F
100
AcDbEntity
  8
SP
370
    -2
100
AcDbLine
 10
18587.76627709695
 20
4187.635294509084
 30
0.0
 11
18692.76627709695
 21
4187.635294509084
 31
0.0
  0
LINE
  5
4A01
330
3F3F
100
AcDbEntity
  8
SP
370
    -2
100
AcDbLine
 10
18677.76627709695
 20
4465.135294509082
 30
0.0
 11
18677.76627709695
 21
4225.135294509085
 31
0.0
  0
INSERT
  5
4A02
330
3F3F
100
AcDbEntity
  8
SP
370
    -2
100
AcDbBlockReference
  2
_OPEN
 10
18677.76627709695
 20
4502.635294509082
 30
0.0
 41
37.5
 42
37.5
 43
37.5
 50
90.0
  0
INSERT
  5
4A03
330
3F3F
100
AcDbEntity
  8
SP
370
    -2
100
AcDbBlockReference
  2
_OPEN
 10
18677.76627709695
 20
4187.635294509084
 30
0.0
 41
37.5
 42
37.5
 43
37.5
 50
270.0
  0
MTEXT
  5
4A04
330
3F3F
100
AcDbEntity
  8
SP
100
AcDbMText
 10
18640.26627709695
 20
4345.135294509087
 30
0.0
 40
45.0
 41
0.0
 71
     5
 72
     1
  1
\A1;315
 11
0.0000000000000001
 21
1.0
 31
0.0
 73
     1
 44
1.0
1001
ACAD
1000
MTEXTBEGIN
1070
    73
1070
     1
1070
    44
1040
1.0
1070
    74
1070
     0
1000
MTEXTEND
  0
POINT
  5
4A05
330
3F3F
100
AcDbEntity
  8
Defpoints
 62
     0
100
AcDbPoint
 10
18627.70978694451
 20
4502.635294509082
 30
0.0
  0
POINT
  5
4A06
330
3F3F
100
AcDbEntity
  8
Defpoints
 62
     0
100
AcDbPoint
 10
18572.76627709695
 20
4187.635294509084
 30
0.0
  0
POINT
  5
4A07
330
3F3F
100
AcDbEntity
  8
Defpoints
 62
     0
100
AcDbPoint
 10
18677.76627709695
 20
4187.635294509084
 30
0.0
  0
ENDBLK
  5
3F4A
330
3F3F
100
AcDbEntity
  8
0
100
AcDbBlockEnd
  0
BLOCK
  5
3F56
330
3F4C
100
AcDbEntity
  8
0
100
AcDbBlockBegin
  2
*D6
 70
     1
 10
0.0
 20
0.0
 30
0.0
  3
*D6
  1

  0
LINE
  5
4A08
330
3F4C
100
AcDbEntity
  8
SP
370
    -2
100
AcDbLine
 10
18587.76627709694
 20
4147.635294509082
 30
0.0
 11
18797.76627709694
 21
4147.635294509082
 31
0.0
  0
LINE
  5
4A09
330
3F4C
100
AcDbEntity
  8
SP
370
    -2
100
AcDbLine
 10
18642.70978694452
 20
4502.635294509082
 30
0.0
 11
18797.76627709694
 21
4502.635294509082
 31
0.0
  0
LINE
  5
4A0A
330
3F4C
100
AcDbEntity
  8
SP
370
    -2
100
AcDbLine
 10
18782.76627709694
 20
4185.135294509082
 30
0.0
 11
18782.76627709694
 21
4465.135294509082
 31
0.0
  0
INSERT
  5
4A0B
330
3F4C
100
AcDbEntity
  8
SP
370
    -2
100
AcDbBlockReference
  2
_OPEN
 10
18782.76627709694
 20
4147.635294509082
 30
0.0
 41
37.5
 42
37.5
 43
37.5
 50
270.0
  0
INSERT
  5
4A0C
330
3F4C
100
AcDbEntity
  8
SP
370
    -2
100
AcDbBlockReference
  2
_OPEN
 10
18782.76627709694
 20
4502.635294509082
 30
0.0
 41
37.5
 42
37.5
 43
37.5
 50
90.0
  0
MTEXT
  5
4A0D
330
3F4C
100
AcDbEntity
  8
SP
100
AcDbMText
 10
18745.26627709694
 20
4325.135294509085
 30
0.0
 40
45.0
 41
0.0
 71
     5
 72
     1
  1
\A1;355
 11
0.0000000000000001
 21
1.0
 31
0.0
 73
     1
 44
1.0
1001
ACAD
1000
MTEXTBEGIN
1070
    73
1070
     1
1070
    44
1040
1.0
1070
    74
1070
     0
1000
MTEXTEND
  0
POINT
  5
4A0E
330
3F4C
100
AcDbEntity
  8
Defpoints
 62
     0
100
AcDbPoint
 10
18572.76627709694
 20
4147.635294509082
 30
0.0
  0
POINT
  5
4A0F
330
3F4C
100
AcDbEntity
  8
Defpoints
 62
     0
100
AcDbPoint
 10
18627.70978694451
 20
4502.635294509082
 30
0.0
  0
POINT
  5
4A10
330
3F4C
100
AcDbEntity
  8
Defpoints
 62
     0
100
AcDbPoint
 10
18782.76627709694
 20
4502.635294509082
 30
0.0
  0
ENDBLK
  5
3F57
330
3F4C
100
AcDbEntity
  8
0
100
AcDbBlockEnd
  0
BLOCK
  5
3F65
330
3F59
100
AcDbEntity
  8
0
100
AcDbBlockBegin
  2
*D7
 70
     1
 10
0.0
 20
0.0
 30
0.0
  3
*D7
  1

  0
LINE
  5
49DB
330
3F59
100
AcDbEntity
  8
SP
370
    -2
100
AcDbLine
 10
18642.70978694452
 20
4502.635294509082
 30
0.0
 11
18797.76627709694
 21
4502.635294509082
 31
0.0
  0
LINE
  5
49DC
330
3F59
100
AcDbEntity
  8
SP
370
    -2
100
AcDbLine
 10
18314.91257323214
 20
4724.922514625554
 30
0.0
 11
18797.76627709694
 21
4724.922514625553
 31
0.0
  0
LINE
  5
49DD
330
3F59
100
AcDbEntity
  8
SP
370
    -2
100
AcDbLine
 10
18782.76627709694
 20
4540.135294509082
 30
0.0
 11
18782.76627709694
 21
4687.422514625553
 31
0.0
  0
INSERT
  5
49DE
330
3F59
100
AcDbEntity
  8
SP
370
    -2
100
AcDbBlockReference
  2
_OPEN
 10
18782.76627709694
 20
4502.635294509082
 30
0.0
 41
37.5
 42
37.5
 43
37.5
 50
270.0
  0
INSERT
  5
49DF
330
3F59
100
AcDbEntity
  8
SP
370
    -2
100
AcDbBlockReference
  2
_OPEN
 10
18782.76627709694
 20
4724.922514625553
 30
0.0
 41
37.5
 42
37.5
 43
37.5
 50
90.0
  0
MTEXT
  5
49E0
330
3F59
100
AcDbEntity
  8
SP
100
AcDbMText
 10
18745.26627709694
 20
4613.778904567321
 30
0.0
 40
45.0
 41
0.0
 71
     5
 72
     1
  1
\A1;222
 11
0.0000000000000001
 21
1.0
 31
0.0
 73
     1
 44
1.0
1001
ACAD
1000
MTEXTBEGIN
1070
    73
1070
     1
1070
    44
1040
1.0
1070
    74
1070
     0
1000
MTEXTEND
  0
POINT
  5
49E1
330
3F59
100
AcDbEntity
  8
Defpoints
 62
     0
100
AcDbPoint
 10
18627.70978694451
 20
4502.635294509082
 30
0.0
  0
POINT
  5
49E2
330
3F59
100
AcDbEntity
  8
Defpoints
 62
     0
100
AcDbPoint
 10
18299.91257323213
 20
4724.922514625554
 30
0.0
  0
POINT
  5
49E3
330
3F59
100
AcDbEntity
  8
Defpoints
 62
     0
100
AcDbPoint
 10
18782.76627709694
 20
4724.922514625553
 30
0.0
  0
ENDBLK
  5
3F66
330
3F59
100
AcDbEntity
  8
0
100
AcDbBlockEnd
  0
BLOCK
  5
3F70
330
3F67
100
AcDbEntity
  8
0
100
AcDbBlockBegin
  2
A$C2860434C
 70
     0
 10
0.0
 20
0.0
 30
0.0
  3
A$C2860434C
  1

  0
LINE
  5
3F68
330
3F67
100
AcDbEntity
  8
FUTO
100
AcDbLine
 10
46.80127011642617
 20
-0.0000088960860012
 30
0.0
 11
8.586023312103861
 21
70.14998454137458
 31
0.0
  0
LINE
  5
3F69
330
3F67
100
AcDbEntity
  8
FUTO
100
AcDbLine
 10
-0.0000161416137416
 20
53.3499845413753
 30
0.0
 11
1.599983858386622
 21
53.3499845413753
 31
0.0
  0
LINE
  5
3F6A
330
3F67
100
AcDbEntity
  8
FUTO
100
AcDbLine
 10
-0.0000161416137416
 20
53.3499845413753
 30
0.0
 11
-0.0000161416137416
 21
68.54998454137422
 31
0.0
  0
LINE
  5
3F6B
330
3F67
100
AcDbEntity
  8
FUTO
100
AcDbLine
 10
1.599983858386622
 20
53.3499845413753
 30
0.0
 11
1.599983858386622
 21
68.54998454137422
 31
0.0
  0
LINE
  5
3F6C
330
3F67
100
AcDbEntity
  8
FUTO
100
AcDbLine
 10
3.199983858386985
 20
70.14998454137458
 30
0.0
 11
91.76921462761674
 21
70.14998454137094
 31
0.0
  0
LINE
  5
3F6D
330
3F67
100
AcDbEntity
  8
FUTO
100
AcDbLine
 10
3.199983858386985
 20
71.74998454137313
 30
0.0
 11
92.79485565325741
 21
71.74998454137313
 31
0.0
  0
ARC
  5
3F6E
330
3F67
100
AcDbEntity
  8
FUTO
100
AcDbCircle
 10
3.199983858386985
 20
68.54998454137422
 30
0.0
 40
3.2
100
AcDbArc
 50
90.0
 51
180.0
  0
ARC
  5
3F6F
330
3F67
100
AcDbEntity
  8
FUTO
100
AcDbCircle
 10
3.199983858386985
 20
68.54998454137422
 30
0.0
 40
1.6
100
AcDbArc
 50
90.0
 51
180.0
  0
ENDBLK
  5
3F71
330
3F67
100
AcDbEntity
  8
0
100
AcDbBlockEnd
  0
BLOCK
  5
4700
330
46F6
100
AcDbEntity
  8
0
100
AcDbBlockBegin
  2
*D10
 70
     1
 10
0.0
 20
0.0
 30
0.0
  3
*D10
  1

  0
LINE
  5
5B34
330
46F6
100
AcDbEntity
  8
SP
370
    -2
100
AcDbLine
 10
19660.61370464045
 20
4914.89786701067
 30
0.0
 11
19660.61370464045
 21
4949.922514625554
 31
0.0
  0
LINE
  5
5B35
330
46F6
100
AcDbEntity
  8
SP
370
    -2
100
AcDbLine
 10
19781.61370464045
 20
4699.135294509079
 30
0.0
 11
19781.61370464045
 21
4949.922514625554
 31
0.0
  0
LINE
  5
5B36
330
46F6
100
AcDbEntity
  8
SP
370
    -2
100
AcDbLine
 10
19698.11370464045
 20
4934.922514625554
 30
0.0
 11
19744.11370464045
 21
4934.922514625554
 31
0.0
  0
INSERT
  5
5B37
330
46F6
100
AcDbEntity
  8
SP
370
    -2
100
AcDbBlockReference
  2
_OPEN
 10
19660.61370464045
 20
4934.922514625554
 30
0.0
 41
37.5
 42
37.5
 43
37.5
 50
180.0
  0
INSERT
  5
5B38
330
46F6
100
AcDbEntity
  8
SP
370
    -2
100
AcDbBlockReference
  2
_OPEN
 10
19781.61370464045
 20
4934.922514625554
 30
0.0
 41
37.5
 42
37.5
 43
37.5
  0
MTEXT
  5
5B39
330
46F6
100
AcDbEntity
  8
SP
100
AcDbMText
 10
19721.11370464045
 20
4972.422514625554
 30
0.0
 40
45.0
 41
0.0
 71
     5
 72
     1
  1
\A1;121
 73
     1
 44
1.0
1001
ACAD
1000
MTEXTBEGIN
1070
    73
1070
     1
1070
    44
1040
1.0
1070
    74
1070
     0
1000
MTEXTEND
  0
POINT
  5
5B3A
330
46F6
100
AcDbEntity
  8
Defpoints
 62
     0
100
AcDbPoint
 10
19660.61370464045
 20
4899.89786701067
 30
0.0
  0
POINT
  5
5B3B
330
46F6
100
AcDbEntity
  8
Defpoints
 62
     0
100
AcDbPoint
 10
19781.61370464045
 20
4684.135294509078
 30
0.0
  0
POINT
  5
5B3C
330
46F6
100
AcDbEntity
  8
Defpoints
 62
     0
100
AcDbPoint
 10
19781.61370464045
 20
4934.922514625554
 30
0.0
  0
ENDBLK
  5
4701
330
46F6
100
AcDbEntity
  8
0
100
AcDbBlockEnd
  0
BLOCK
  5
470C
330
4702
100
AcDbEntity
  8
0
100
AcDbBlockBegin
  2
*D11
 70
     1
 10
0.0
 20
0.0
 30
0.0
  3
*D11
  1

  0
LINE
  5
4A11
330
4702
100
AcDbEntity
  8
SP
370
    -2
100
AcDbLine
 10
19538.61370464045
 20
4135.83529450908
 30
0.0
 11
19538.61370464045
 21
3922.635294509083
 31
0.0
  0
LINE
  5
4A12
330
4702
100
AcDbEntity
  8
SP
370
    -2
100
AcDbLine
 10
19228.61370464045
 20
4132.63529450908
 30
0.0
 11
19228.61370464045
 21
3922.635294509083
 31
0.0
  0
LINE
  5
4A13
330
4702
100
AcDbEntity
  8
SP
370
    -2
100
AcDbLine
 10
19501.11370464045
 20
3937.635294509082
 30
0.0
 11
19266.11370464045
 21
3937.635294509082
 31
0.0
  0
INSERT
  5
4A14
330
4702
100
AcDbEntity
  8
SP
370
    -2
100
AcDbBlockReference
  2
_OPEN
 10
19538.61370464045
 20
3937.635294509082
 30
0.0
 41
37.5
 42
37.5
 43
37.5
  0
INSERT
  5
4A15
330
4702
100
AcDbEntity
  8
SP
370
    -2
100
AcDbBlockReference
  2
_OPEN
 10
19228.61370464045
 20
3937.635294509082
 30
0.0
 41
37.5
 42
37.5
 43
37.5
 50
180.0
  0
MTEXT
  5
4A16
330
4702
100
AcDbEntity
  8
SP
100
AcDbMText
 10
19383.61370464045
 20
3975.135294509082
 30
0.0
 40
45.0
 41
0.0
 71
     5
 72
     1
  1
\A1;310
 73
     1
 44
1.0
1001
ACAD
1000
MTEXTBEGIN
1070
    73
1070
     1
1070
    44
1040
1.0
1070
    74
1070
     0
1000
MTEXTEND
  0
POINT
  5
4A17
330
4702
100
AcDbEntity
  8
Defpoints
 62
     0
100
AcDbPoint
 10
19538.61370464045
 20
4150.83529450908
 30
0.0
  0
POINT
  5
4A18
330
4702
100
AcDbEntity
  8
Defpoints
 62
     0
100
AcDbPoint
 10
19228.61370464045
 20
4147.63529450908
 30
0.0
  0
POINT
  5
4A19
330
4702
100
AcDbEntity
  8
Defpoints
 62
     0
100
AcDbPoint
 10
19228.61370464045
 20
3937.635294509082
 30
0.0
  0
ENDBLK
  5
470D
330
4702
100
AcDbEntity
  8
0
100
AcDbBlockEnd
  0
BLOCK
  5
4724
330
471A
100
AcDbEntity
  8
0
100
AcDbBlockBegin
  2
*D13
 70
     1
 10
0.0
 20
0.0
 30
0.0
  3
*D13
  1

  0
LINE
  5
5B3D
330
471A
100
AcDbEntity
  8
SP
370
    -2
100
AcDbLine
 10
19796.61370464046
 20
4660.135294509081
 30
0.0
 11
19912.82829315223
 21
4660.135294509081
 31
0.0
  0
LINE
  5
5B3E
330
471A
100
AcDbEntity
  8
SP
370
    -2
100
AcDbLine
 10
19796.61370464046
 20
4345.135294509081
 30
0.0
 11
19912.82829315223
 21
4345.135294509081
 31
0.0
  0
LINE
  5
5B3F
330
471A
100
AcDbEntity
  8
SP
370
    -2
100
AcDbLine
 10
19897.82829315223
 20
4622.63529450908
 30
0.0
 11
19897.82829315223
 21
4382.635294509081
 31
0.0
  0
INSERT
  5
5B40
330
471A
100
AcDbEntity
  8
SP
370
    -2
100
AcDbBlockReference
  2
_OPEN
 10
19897.82829315223
 20
4660.135294509081
 30
0.0
 41
37.5
 42
37.5
 43
37.5
 50
90.0
  0
INSERT
  5
5B41
330
471A
100
AcDbEntity
  8
SP
370
    -2
100
AcDbBlockReference
  2
_OPEN
 10
19897.82829315223
 20
4345.135294509081
 30
0.0
 41
37.5
 42
37.5
 43
37.5
 50
270.0
  0
MTEXT
  5
5B42
330
471A
100
AcDbEntity
  8
SP
100
AcDbMText
 10
19860.32829315223
 20
4502.635294509075
 30
0.0
 40
45.0
 41
0.0
 71
     5
 72
     1
  1
\A1;\U+03C6315
 11
0.0000000000000001
 21
1.0
 31
0.0
 73
     1
 44
1.0
1001
ACAD
1000
MTEXTBEGIN
1070
    73
1070
     1
1070
    44
1040
1.0
1070
    74
1070
     0
1000
MTEXTEND
  0
POINT
  5
5B43
330
471A
100
AcDbEntity
  8
Defpoints
 62
     0
100
AcDbPoint
 10
19781.61370464046
 20
4660.135294509081
 30
0.0
  0
POINT
  5
5B44
330
471A
100
AcDbEntity
  8
Defpoints
 62
     0
100
AcDbPoint
 10
19781.61370464046
 20
4345.135294509081
 30
0.0
  0
POINT
  5
5B45
330
471A
100
AcDbEntity
  8
Defpoints
 62
     0
100
AcDbPoint
 10
19897.82829315223
 20
4345.135294509081
 30
0.0
  0
ENDBLK
  5
4725
330
471A
100
AcDbEntity
  8
0
100
AcDbBlockEnd
  0
BLOCK
  5
4730
330
4726
100
AcDbEntity
  8
0
100
AcDbBlockBegin
  2
*D14
 70
     1
 10
0.0
 20
0.0
 30
0.0
  3
*D14
  1

  0
LINE
  5
5B46
330
4726
100
AcDbEntity
  8
SP
370
    -2
100
AcDbLine
 10
19548.61370464045
 20
4724.922514625554
 30
0.0
 11
19548.61370464045
 21
4844.922514625555
 31
0.0
  0
LINE
  5
5B47
330
4726
100
AcDbEntity
  8
SP
370
    -2
100
AcDbLine
 10
19772.61370464045
 20
4724.922514625554
 30
0.0
 11
19772.61370464045
 21
4844.922514625555
 31
0.0
  0
LINE
  5
5B48
330
4726
100
AcDbEntity
  8
SP
370
    -2
100
AcDbLine
 10
19586.11370464045
 20
4829.922514625554
 30
0.0
 11
19735.11370464045
 21
4829.922514625554
 31
0.0
  0
INSERT
  5
5B49
330
4726
100
AcDbEntity
  8
SP
370
    -2
100
AcDbBlockReference
  2
_OPEN
 10
19548.61370464045
 20
4829.922514625554
 30
0.0
 41
37.5
 42
37.5
 43
37.5
 50
180.0
  0
INSERT
  5
5B4A
330
4726
100
AcDbEntity
  8
SP
370
    -2
100
AcDbBlockReference
  2
_OPEN
 10
19772.61370464045
 20
4829.922514625554
 30
0.0
 41
37.5
 42
37.5
 43
37.5
  0
MTEXT
  5
5B4B
330
4726
100
AcDbEntity
  8
SP
100
AcDbMText
 10
19660.61370464045
 20
4867.422514625554
 30
0.0
 40
45.0
 41
0.0
 71
     5
 72
     1
  1
\A1;224
 73
     1
 44
1.0
1001
ACAD
1000
MTEXTBEGIN
1070
    73
1070
     1
1070
    44
1040
1.0
1070
    74
1070
     0
1000
MTEXTEND
  0
POINT
  5
5B4C
330
4726
100
AcDbEntity
  8
Defpoints
 62
     0
100
AcDbPoint
 10
19548.61370464045
 20
4709.922514625555
 30
0.0
  0
POINT
  5
5B4D
330
4726
100
AcDbEntity
  8
Defpoints
 62
     0
100
AcDbPoint
 10
19772.61370464045
 20
4709.922514625554
 30
0.0
  0
POINT
  5
5B4E
330
4726
100
AcDbEntity
  8
Defpoints
 62
     0
100
AcDbPoint
 10
19772.61370464045
 20
4829.922514625554
 30
0.0
  0
ENDBLK
  5
4731
330
4726
100
AcDbEntity
  8
0
100
AcDbBlockEnd
  0
BLOCK
  5
4DE9
330
4DDD
100
AcDbEntity
  8
0
100
AcDbBlockBegin
  2
*D15
 70
     1
 10
0.0
 20
0.0
 30
0.0
  3
*D15
  1

  0
LINE
  5
4E03
330
4DDD
100
AcDbEntity
  8
SP
370
    -2
100
AcDbLine
 10
18587.76627709695
 20
5732.362935220167
 30
0.0
 11
18761.63897953312
 21
5732.362935220167
 31
0.0
  0
LINE
  5
4E04
330
4DDD
100
AcDbEntity
  8
SP
370
    -2
100
AcDbLine
 10
18635.38782536343
 20
5854.362935220169
 30
0.0
 11
18761.63897953312
 21
5854.362935220169
 31
0.0
  0
LINE
  5
4E05
330
4DDD
100
AcDbEntity
  8
SP
370
    -2
100
AcDbLine
 10
18746.63897953312
 20
5694.862935220167
 30
0.0
 11
18746.63897953312
 21
5657.362935220167
 31
0.0
  0
LINE
  5
4E06
330
4DDD
100
AcDbEntity
  8
SP
370
    -2
100
AcDbLine
 10
18746.63897953312
 20
5891.862935220169
 30
0.0
 11
18746.63897953312
 21
6064.362935220168
 31
0.0
  0
LINE
  5
4E07
330
4DDD
100
AcDbEntity
  8
SP
370
    -2
100
AcDbLine
 10
18746.63897953312
 20
5732.362935220167
 30
0.0
 11
18746.63897953312
 21
5854.362935220169
 31
0.0
  0
INSERT
  5
4E08
330
4DDD
100
AcDbEntity
  8
SP
370
    -2
100
AcDbBlockReference
  2
_OPEN
 10
18746.63897953312
 20
5732.362935220167
 30
0.0
 41
37.5
 42
37.5
 43
37.5
 50
90.0
  0
INSERT
  5
4E09
330
4DDD
100
AcDbEntity
  8
SP
370
    -2
100
AcDbBlockReference
  2
_OPEN
 10
18746.63897953312
 20
5854.362935220169
 30
0.0
 41
37.5
 42
37.5
 43
37.5
 50
270.0
  0
MTEXT
  5
4E0A
330
4DDD
100
AcDbEntity
  8
SP
100
AcDbMText
 10
18709.13897953312
 20
5996.862935220172
 30
0.0
 40
45.0
 41
0.0
 71
     5
 72
     1
  1
\A1;122
 11
0.0000000000000001
 21
1.0
 31
0.0
 73
     1
 44
1.0
1001
ACAD
1000
MTEXTBEGIN
1070
    73
1070
     1
1070
    44
1040
1.0
1070
    74
1070
     0
1000
MTEXTEND
  0
POINT
  5
4E0B
330
4DDD
100
AcDbEntity
  8
Defpoints
 62
     0
100
AcDbPoint
 10
18572.76627709694
 20
5732.362935220167
 30
0.0
  0
POINT
  5
4E0C
330
4DDD
100
AcDbEntity
  8
Defpoints
 62
     0
100
AcDbPoint
 10
18620.38782536343
 20
5854.362935220169
 30
0.0
  0
POINT
  5
4E0D
330
4DDD
100
AcDbEntity
  8
Defpoints
 62
     0
100
AcDbPoint
 10
18746.63897953312
 20
5854.362935220169
 30
0.0
  0
ENDBLK
  5
4DEA
330
4DDD
100
AcDbEntity
  8
0
100
AcDbBlockEnd
  0
BLOCK
  5
4DF5
330
4DEB
100
AcDbEntity
  8
0
100
AcDbBlockBegin
  2
*D16
 70
     1
 10
0.0
 20
0.0
 30
0.0
  3
*D16
  1

  0
LINE
  5
4E0E
330
4DEB
100
AcDbEntity
  8
SP
370
    -2
100
AcDbLine
 10
18587.76627709694
 20
5732.362935220167
 30
0.0
 11
18761.63897953312
 21
5732.362935220167
 31
0.0
  0
LINE
  5
4E0F
330
4DEB
100
AcDbEntity
  8
SP
370
    -2
100
AcDbLine
 10
18587.76627709694
 20
5422.362935220169
 30
0.0
 11
18761.63897953312
 21
5422.362935220169
 31
0.0
  0
LINE
  5
4E10
330
4DEB
100
AcDbEntity
  8
SP
370
    -2
100
AcDbLine
 10
18746.63897953312
 20
5694.862935220167
 30
0.0
 11
18746.63897953312
 21
5459.862935220169
 31
0.0
  0
INSERT
  5
4E11
330
4DEB
100
AcDbEntity
  8
SP
370
    -2
100
AcDbBlockReference
  2
_OPEN
 10
18746.63897953312
 20
5732.362935220167
 30
0.0
 41
37.5
 42
37.5
 43
37.5
 50
90.0
  0
INSERT
  5
4E12
330
4DEB
100
AcDbEntity
  8
SP
370
    -2
100
AcDbBlockReference
  2
_OPEN
 10
18746.63897953312
 20
5422.362935220169
 30
0.0
 41
37.5
 42
37.5
 43
37.5
 50
270.0
  0
MTEXT
  5
4E13
330
4DEB
100
AcDbEntity
  8
SP
100
AcDbMText
 10
18709.13897953312
 20
5577.362935220172
 30
0.0
 40
45.0
 41
0.0
 71
     5
 72
     1
  1
\A1;310
 11
0.0000000000000001
 21
1.0
 31
0.0
 73
     1
 44
1.0
1001
ACAD
1000
MTEXTBEGIN
1070
    73
1070
     1
1070
    44
1040
1.0
1070
    74
1070
     0
1000
MTEXTEND
  0
POINT
  5
4E14
330
4DEB
100
AcDbEntity
  8
Defpoints
 62
     0
100
AcDbPoint
 10
18572.76627709694
 20
5732.362935220167
 30
0.0
  0
POINT
  5
4E15
330
4DEB
100
AcDbEntity
  8
Defpoints
 62
     0
100
AcDbPoint
 10
18572.76627709694
 20
5422.362935220169
 30
0.0
  0
POINT
  5
4E16
330
4DEB
100
AcDbEntity
  8
Defpoints
 62
     0
100
AcDbPoint
 10
18746.63897953312
 20
5422.362935220169
 30
0.0
  0
ENDBLK
  5
4DF6
330
4DEB
100
AcDbEntity
  8
0
100
AcDbBlockEnd
  0
BLOCK
  5
4E01
330
4DF7
100
AcDbEntity
  8
0
100
AcDbBlockBegin
  2
*D17
 70
     1
 10
0.0
 20
0.0
 30
0.0
  3
*D17
  1

  0
LINE
  5
4E17
330
4DF7
100
AcDbEntity
  8
SP
370
    -2
100
AcDbLine
 10
18072.76627709694
 20
5407.362935220169
 30
0.0
 11
18072.76627709694
 21
5260.341501466711
 31
0.0
  0
LINE
  5
4E18
330
4DF7
100
AcDbEntity
  8
SP
370
    -2
100
AcDbLine
 10
18572.76627709694
 20
5407.362935220169
 30
0.0
 11
18572.76627709694
 21
5260.341501466711
 31
0.0
  0
LINE
  5
4E19
330
4DF7
100
AcDbEntity
  8
SP
370
    -2
100
AcDbLine
 10
18110.26627709694
 20
5275.34150146671
 30
0.0
 11
18535.26627709694
 21
5275.34150146671
 31
0.0
  0
INSERT
  5
4E1A
330
4DF7
100
AcDbEntity
  8
SP
370
    -2
100
AcDbBlockReference
  2
_OPEN
 10
18072.76627709694
 20
5275.34150146671
 30
0.0
 41
37.5
 42
37.5
 43
37.5
 50
180.0
  0
INSERT
  5
4E1B
330
4DF7
100
AcDbEntity
  8
SP
370
    -2
100
AcDbBlockReference
  2
_OPEN
 10
18572.76627709694
 20
5275.34150146671
 30
0.0
 41
37.5
 42
37.5
 43
37.5
  0
MTEXT
  5
4E1C
330
4DF7
100
AcDbEntity
  8
SP
100
AcDbMText
 10
18322.76627709694
 20
5312.84150146671
 30
0.0
 40
45.0
 41
0.0
 71
     5
 72
     1
  1
\A1;500
 73
     1
 44
1.0
1001
ACAD
1000
MTEXTBEGIN
1070
    73
1070
     1
1070
    44
1040
1.0
1070
    74
1070
     0
1000
MTEXTEND
  0
POINT
  5
4E1D
330
4DF7
100
AcDbEntity
  8
Defpoints
 62
     0
100
AcDbPoint
 10
18072.76627709694
 20
5422.362935220169
 30
0.0
  0
POINT
  5
4E1E
330
4DF7
100
AcDbEntity
  8
Defpoints
 62
     0
100
AcDbPoint
 10
18572.76627709694
 20
5422.362935220169
 30
0.0
  0
POINT
  5
4E1F
330
4DF7
100
AcDbEntity
  8
Defpoints
 62
     0
100
AcDbPoint
 10
18572.76627709694
 20
5275.34150146671
 30
0.0
  0
ENDBLK
  5
4E02
330
4DF7
100
AcDbEntity
  8
0
100
AcDbBlockEnd
  0
BLOCK
  5
5866
330
585C
100
AcDbEntity
  8
0
100
AcDbBlockBegin
  2
*D18
 70
     1
 10
0.0
 20
0.0
 30
0.0
  3
*D18
  1

  0
LINE
  5
5880
330
585C
100
AcDbEntity
  8
SP
370
    -2
100
AcDbLine
 10
18322.76627709695
 20
4102.479113442421
 30
0.0
 11
18322.76627709695
 21
4027.635294509084
 31
0.0
  0
LINE
  5
5881
330
585C
100
AcDbEntity
  8
SP
370
    -2
100
AcDbLine
 10
18072.76627709696
 20
4132.635294509082
 30
0.0
 11
18072.76627709696
 21
4027.635294509084
 31
0.0
  0
LINE
  5
5882
330
585C
100
AcDbEntity
  8
SP
370
    -2
100
AcDbLine
 10
18285.26627709695
 20
4042.635294509084
 30
0.0
 11
18110.26627709695
 21
4042.635294509084
 31
0.0
  0
INSERT
  5
5883
330
585C
100
AcDbEntity
  8
SP
370
    -2
100
AcDbBlockReference
  2
_OPEN
 10
18322.76627709695
 20
4042.635294509084
 30
0.0
 41
37.5
 42
37.5
 43
37.5
  0
INSERT
  5
5884
330
585C
100
AcDbEntity
  8
SP
370
    -2
100
AcDbBlockReference
  2
_OPEN
 10
18072.76627709696
 20
4042.635294509084
 30
0.0
 41
37.5
 42
37.5
 43
37.5
 50
180.0
  0
MTEXT
  5
5885
330
585C
100
AcDbEntity
  8
SP
100
AcDbMText
 10
18197.76627709695
 20
4080.135294509084
 30
0.0
 40
45.0
 41
0.0
 71
     5
 72
     1
  1
\A1;250
 73
     1
 44
1.0
1001
ACAD
1000
MTEXTBEGIN
1070
    73
1070
     1
1070
    44
1040
1.0
1070
    74
1070
     0
1000
MTEXTEND
  0
POINT
  5
5886
330
585C
100
AcDbEntity
  8
Defpoints
 62
     0
100
AcDbPoint
 10
18322.76627709695
 20
4117.479113442421
 30
0.0
  0
POINT
  5
5887
330
585C
100
AcDbEntity
  8
Defpoints
 62
     0
100
AcDbPoint
 10
18072.76627709696
 20
4147.635294509082
 30
0.0
  0
POINT
  5
5888
330
585C
100
AcDbEntity
  8
Defpoints
 62
     0
100
AcDbPoint
 10
18072.76627709696
 20
4042.635294509084
 30
0.0
  0
ENDBLK
  5
5867
330
585C
100
AcDbEntity
  8
0
100
AcDbBlockEnd
  0
BLOCK
  5
5872
330
5868
100
AcDbEntity
  8
0
100
AcDbBlockBegin
  2
*D19
 70
     1
 10
0.0
 20
0.0
 30
0.0
  3
*D19
  1

  0
LINE
  5
5889
330
5868
100
AcDbEntity
  8
SP
370
    -2
100
AcDbLine
 10
18072.76627709696
 20
4132.635294509082
 30
0.0
 11
18072.76627709696
 21
3922.635294509083
 31
0.0
  0
LINE
  5
588A
330
5868
100
AcDbEntity
  8
SP
370
    -2
100
AcDbLine
 10
18572.76627709695
 20
4132.635294509082
 30
0.0
 11
18572.76627709695
 21
3922.635294509083
 31
0.0
  0
LINE
  5
588B
330
5868
100
AcDbEntity
  8
SP
370
    -2
100
AcDbLine
 10
18110.26627709695
 20
3937.635294509082
 30
0.0
 11
18535.26627709695
 21
3937.635294509082
 31
0.0
  0
INSERT
  5
588C
330
5868
100
AcDbEntity
  8
SP
370
    -2
100
AcDbBlockReference
  2
_OPEN
 10
18072.76627709696
 20
3937.635294509082
 30
0.0
 41
37.5
 42
37.5
 43
37.5
 50
180.0
  0
INSERT
  5
588D
330
5868
100
AcDbEntity
  8
SP
370
    -2
100
AcDbBlockReference
  2
_OPEN
 10
18572.76627709695
 20
3937.635294509082
 30
0.0
 41
37.5
 42
37.5
 43
37.5
  0
MTEXT
  5
588E
330
5868
100
AcDbEntity
  8
SP
100
AcDbMText
 10
18322.76627709695
 20
3975.135294509082
 30
0.0
 40
45.0
 41
0.0
 71
     5
 72
     1
  1
\A1;500
 73
     1
 44
1.0
1001
ACAD
1000
MTEXTBEGIN
1070
    73
1070
     1
1070
    44
1040
1.0
1070
    74
1070
     0
1000
MTEXTEND
  0
POINT
  5
588F
330
5868
100
AcDbEntity
  8
Defpoints
 62
     0
100
AcDbPoint
 10
18072.76627709696
 20
4147.635294509082
 30
0.0
  0
POINT
  5
5890
330
5868
100
AcDbEntity
  8
Defpoints
 62
     0
100
AcDbPoint
 10
18572.76627709695
 20
4147.635294509082
 30
0.0
  0
POINT
  5
5891
330
5868
100
AcDbEntity
  8
Defpoints
 62
     0
100
AcDbPoint
 10
18572.76627709695
 20
3937.635294509082
 30
0.0
  0
ENDBLK
  5
5873
330
5868
100
AcDbEntity
  8
0
100
AcDbBlockEnd
  0
BLOCK
  5
587E
330
5874
100
AcDbEntity
  8
0
100
AcDbBlockBegin
  2
*D20
 70
     1
 10
0.0
 20
0.0
 30
0.0
  3
*D20
  1

  0
LINE
  5
5892
330
5874
100
AcDbEntity
  8
SP
370
    -2
100
AcDbLine
 10
18322.76627709695
 20
4102.479113442421
 30
0.0
 11
18322.76627709695
 21
4027.635294509084
 31
0.0
  0
LINE
  5
5893
330
5874
100
AcDbEntity
  8
SP
370
    -2
100
AcDbLine
 10
18572.76627709695
 20
4132.635294509082
 30
0.0
 11
18572.76627709695
 21
4027.635294509084
 31
0.0
  0
LINE
  5
5894
330
5874
100
AcDbEntity
  8
SP
370
    -2
100
AcDbLine
 10
18360.26627709695
 20
4042.635294509084
 30
0.0
 11
18535.26627709695
 21
4042.635294509084
 31
0.0
  0
INSERT
  5
5895
330
5874
100
AcDbEntity
  8
SP
370
    -2
100
AcDbBlockReference
  2
_OPEN
 10
18322.76627709695
 20
4042.635294509084
 30
0.0
 41
37.5
 42
37.5
 43
37.5
 50
180.0
  0
INSERT
  5
5896
330
5874
100
AcDbEntity
  8
SP
370
    -2
100
AcDbBlockReference
  2
_OPEN
 10
18572.76627709695
 20
4042.635294509084
 30
0.0
 41
37.5
 42
37.5
 43
37.5
  0
MTEXT
  5
5897
330
5874
100
AcDbEntity
  8
SP
100
AcDbMText
 10
18447.76627709695
 20
4080.135294509084
 30
0.0
 40
45.0
 41
0.0
 71
     5
 72
     1
  1
\A1;250
 73
     1
 44
1.0
1001
ACAD
1000
MTEXTBEGIN
1070
    73
1070
     1
1070
    44
1040
1.0
1070
    74
1070
     0
1000
MTEXTEND
  0
POINT
  5
5898
330
5874
100
AcDbEntity
  8
Defpoints
 62
     0
100
AcDbPoint
 10
18322.76627709695
 20
4117.479113442421
 30
0.0
  0
POINT
  5
5899
330
5874
100
AcDbEntity
  8
Defpoints
 62
     0
100
AcDbPoint
 10
18572.76627709695
 20
4147.635294509082
 30
0.0
  0
POINT
  5
589A
330
5874
100
AcDbEntity
  8
Defpoints
 62
     0
100
AcDbPoint
 10
18572.76627709695
 20
4042.635294509084
 30
0.0
  0
ENDBLK
  5
587F
330
5874
100
AcDbEntity
  8
0
100
AcDbBlockEnd
  0
BLOCK
  5
5B59
330
5B58
100
AcDbEntity
  8
0
100
AcDbBlockBegin
  2
*D27
 70
     1
 10
0.0
 20
0.0
 30
0.0
  3
*D27
  1

  0
LINE
  5
5B9A
330
5B58
100
AcDbEntity
  8
SP
370
    -2
100
AcDbLine
 10
19660.61370464045
 20
4914.89786701067
 30
0.0
 11
19660.61370464045
 21
4949.922514625554
 31
0.0
  0
LINE
  5
5B9B
330
5B58
100
AcDbEntity
  8
SP
370
    -2
100
AcDbLine
 10
19239.61370464045
 20
4601.21619450908
 30
0.0
 11
19239.61370464045
 21
4949.922514625554
 31
0.0
  0
LINE
  5
5B9C
330
5B58
100
AcDbEntity
  8
SP
370
    -2
100
AcDbLine
 10
19623.11370464045
 20
4934.922514625554
 30
0.0
 11
19277.11370464045
 21
4934.922514625554
 31
0.0
  0
INSERT
  5
5B9D
330
5B58
100
AcDbEntity
  8
SP
370
    -2
100
AcDbBlockReference
  2
_OPEN
 10
19660.61370464045
 20
4934.922514625554
 30
0.0
 41
37.5
 42
37.5
 43
37.5
  0
INSERT
  5
5B9E
330
5B58
100
AcDbEntity
  8
SP
370
    -2
100
AcDbBlockReference
  2
_OPEN
 10
19239.61370464045
 20
4934.922514625554
 30
0.0
 41
37.5
 42
37.5
 43
37.5
 50
180.0
  0
MTEXT
  5
5B9F
330
5B58
100
AcDbEntity
  8
SP
100
AcDbMText
 10
19450.11370464045
 20
4984.208228911269
 30
0.0
 40
45.0
 41
0.0
 71
     5
 72
     1
  1
\A1;(420)
 73
     1
 44
1.0
1001
ACAD
1000
MTEXTBEGIN
1070
    73
1070
     1
1070
    44
1040
1.0
1070
    74
1070
     0
1000
MTEXTEND
  0
POINT
  5
5BA0
330
5B58
100
AcDbEntity
  8
Defpoints
 62
     0
100
AcDbPoint
 10
19660.61370464045
 20
4899.89786701067
 30
0.0
  0
POINT
  5
5BA1
330
5B58
100
AcDbEntity
  8
Defpoints
 62
     0
100
AcDbPoint
 10
19239.61370464045
 20
4586.21619450908
 30
0.0
  0
POINT
  5
5BA2
330
5B58
100
AcDbEntity
  8
Defpoints
 62
     0
100
AcDbPoint
 10
19239.61370464045
 20
4934.922514625554
 30
0.0
  0
ENDBLK
  5
5B5A
330
5B58
100
AcDbEntity
  8
0
100
AcDbBlockEnd
  0
BLOCK
  5
5B66
330
5B65
100
AcDbEntity
  8
0
100
AcDbBlockBegin
  2
*D28
 70
     1
 10
0.0
 20
0.0
 30
0.0
  3
*D28
  1

  0
LINE
  5
5B84
330
5B65
100
AcDbEntity
  8
SP
370
    -2
100
AcDbLine
 10
19538.61370464045
 20
4135.83529450908
 30
0.0
 11
19538.61370464045
 21
3922.635294509083
 31
0.0
  0
LINE
  5
5B85
330
5B65
100
AcDbEntity
  8
SP
370
    -2
100
AcDbLine
 10
19660.61370464045
 20
4097.209413630673
 30
0.0
 11
19660.61370464045
 21
3922.635294509083
 31
0.0
  0
LINE
  5
5B86
330
5B65
100
AcDbEntity
  8
SP
370
    -2
100
AcDbLine
 10
19501.11370464045
 20
3937.635294509082
 30
0.0
 11
19463.61370464045
 21
3937.635294509082
 31
0.0
  0
LINE
  5
5B87
330
5B65
100
AcDbEntity
  8
SP
370
    -2
100
AcDbLine
 10
19698.11370464045
 20
3937.635294509082
 30
0.0
 11
19735.61370464045
 21
3937.635294509082
 31
0.0
  0
MTEXT
  5
5B88
330
5B65
100
AcDbEntity
  8
SP
100
AcDbMText
 10
19783.88089851132
 20
3968.160420333628
 30
0.0
 40
45.0
 41
0.0
 71
     5
 72
     1
  1
\A1;122
 73
     1
 44
1.0
1001
ACAD
1000
MTEXTBEGIN
1070
    73
1070
     1
1070
    44
1040
1.0
1070
    74
1070
     0
1000
MTEXTEND
  0
LINE
  5
5B89
330
5B65
100
AcDbEntity
  8
SP
370
    -2
100
AcDbLine
 10
19538.61370464045
 20
3937.635294509082
 30
0.0
 11
19660.61370464045
 21
3937.635294509082
 31
0.0
  0
INSERT
  5
5B8A
330
5B65
100
AcDbEntity
  8
SP
370
    -2
100
AcDbBlockReference
  2
_OPEN
 10
19538.61370464045
 20
3937.635294509082
 30
0.0
 41
37.5
 42
37.5
 43
37.5
  0
INSERT
  5
5B8B
330
5B65
100
AcDbEntity
  8
SP
370
    -2
100
AcDbBlockReference
  2
_OPEN
 10
19660.61370464045
 20
3937.635294509082
 30
0.0
 41
37.5
 42
37.5
 43
37.5
 50
180.0
  0
POINT
  5
5B8C
330
5B65
100
AcDbEntity
  8
Defpoints
 62
     0
100
AcDbPoint
 10
19538.61370464045
 20
4150.83529450908
 30
0.0
  0
POINT
  5
5B8D
330
5B65
100
AcDbEntity
  8
Defpoints
 62
     0
100
AcDbPoint
 10
19660.61370464045
 20
4112.209413630673
 30
0.0
  0
POINT
  5
5B8E
330
5B65
100
AcDbEntity
  8
Defpoints
 62
     0
100
AcDbPoint
 10
19660.61370464045
 20
3937.635294509082
 30
0.0
  0
ENDBLK
  5
5B67
330
5B65
100
AcDbEntity
  8
0
100
AcDbBlockEnd
  0
ENDSEC
  0
SECTION
  2
ENTITIES
  0
LINE
  5
2CF0
330
19
100
AcDbEntity
  8
4
100
AcDbLine
 10
17345.59771503509
 20
2822.809791742034
 30
0.0
 11
17345.59771503509
 21
7247.809791742034
 31
0.0
  0
LINE
  5
2CF1
330
19
100
AcDbEntity
  8
4
100
AcDbLine
 10
20495.59771503509
 20
7247.809791742034
 30
0.0
 11
20495.59771503509
 21
2822.809791742034
 31
0.0
  0
LINE
  5
2CF2
330
19
100
AcDbEntity
  8
4
100
AcDbLine
 10
20495.59771503509
 20
2822.809791742034
 30
0.0
 11
17345.59771503509
 21
2822.809791742034
 31
0.0
  0
TEXT
  5
2D01
330
19
100
AcDbEntity
  8
4
100
AcDbText
 10
18825.57945841331
 20
3298.549168161949
 30
0.0
 40
75.0
  1
MF＃2-7
100
AcDbText
  0
TEXT
  5
2D03
330
19
100
AcDbEntity
  8
4
100
AcDbText
 10
18812.11583326659
 20
3456.667445178387
 30
0.0
 40
75.0
  1
ミツヤ多翼送風機
100
AcDbText
  0
LINE
  5
2D04
330
19
100
AcDbEntity
  8
4
100
AcDbLine
 10
18020.59771503509
 20
3572.809791742034
 30
0.0
 11
19820.59771503509
 21
3572.809791742034
 31
0.0
  0
LINE
  5
2D05
330
19
100
AcDbEntity
  8
4
100
AcDbLine
 10
18020.59771503509
 20
3422.809791742034
 30
0.0
 11
19820.59771503509
 21
3422.809791742034
 31
0.0
  0
LINE
  5
2D06
330
19
100
AcDbEntity
  8
4
100
AcDbLine
 10
18020.59771503509
 20
3272.809791742034
 30
0.0
 11
19820.59771503509
 21
3272.809791742034
 31
0.0
  0
LINE
  5
2D09
330
19
100
AcDbEntity
  8
4
100
AcDbLine
 10
18020.59771503509
 20
3572.809791742034
 30
0.0
 11
18020.59771503509
 21
3272.809791742034
 31
0.0
  0
TEXT
  5
2D0A
330
19
100
AcDbEntity
  8
4
100
AcDbText
 10
18074.98487407229
 20
3305.27752684005
 30
0.0
 40
75.0
  1
機器型番
100
AcDbText
  0
TEXT
  5
2D0B
330
19
100
AcDbEntity
  8
4
100
AcDbText
 10
18078.35083630545
 20
3470.124330541953
 30
0.0
 40
75.0
  1
機器名称
100
AcDbText
  0
LINE
  5
2D0C
330
19
100
AcDbEntity
  8
4
100
AcDbLine
 10
18770.59771503509
 20
3572.809791742034
 30
0.0
 11
18770.59771503509
 21
3272.809791742034
 31
0.0
  0
LINE
  5
2D0D
330
19
100
AcDbEntity
  8
4
100
AcDbLine
 10
19820.59771503509
 20
3572.809791742034
 30
0.0
 11
19820.59771503509
 21
3272.809791742034
 31
0.0
  0
TEXT
  5
2D0E
330
19
100
AcDbEntity
  8
4
100
AcDbText
 10
17818.48108722505
 20
6396.289008061549
 30
0.0
 40
80.99999999999999
  1
左回転右横向
100
AcDbText
  0
LINE
  5
2D0F
330
19
100
AcDbEntity
  8
4
100
AcDbLine
 10
17345.59771503509
 20
7247.809791742034
 30
0.0
 11
20495.59771503509
 21
7247.809791742034
 31
0.0
  0
LINE
  5
2D10
330
19
100
AcDbEntity
  8
4
100
AcDbLine
 10
17720.59771503509
 20
6826.922923139242
 30
0.0
 11
20120.5977150351
 21
6826.922923139242
 31
0.0
  0
LINE
  5
2D11
330
19
100
AcDbEntity
  8
4
100
AcDbLine
 10
17720.59771503509
 20
6526.922923139242
 30
0.0
 11
20120.5977150351
 21
6526.922923139242
 31
0.0
  0
LINE
  5
2E4B
330
19
100
AcDbEntity
  8
4
100
AcDbLine
 10
17720.59771503509
 20
6826.922923139242
 30
0.0
 11
17720.59771503509
 21
6526.922923139242
 31
0.0
  0
LINE
  5
2F6C
330
19
100
AcDbEntity
  8
4
100
AcDbLine
 10
20120.5977150351
 20
6844.705166430135
 30
0.0
 11
19506.52384857489
 21
6844.705166430135
 31
0.0
  0
LINE
  5
2F6D
330
19
100
AcDbEntity
  8
4
100
AcDbLine
 10
19506.52384857489
 20
7002.788184066663
 30
0.0
 11
20120.5977150351
 21
7002.788184066663
 31
0.0
  0
TEXT
  5
2F6E
330
19
100
AcDbEntity
  8
4
100
AcDbText
 10
18610.15955435588
 20
6397.953053740807
 30
0.0
 40
80.99999999999999
  1
床置ベッド型
100
AcDbText
  0
TEXT
  5
2F6F
330
19
100
AcDbEntity
  8
4
100
AcDbText
 10
18077.69207095238
 20
6623.63125604098
 30
0.0
 40
108.0
  1
遠心式片吸込直動形多翼ファン
100
AcDbText
  0
TEXT
  5
2F7C
330
19
100
AcDbEntity
  8
4
100
AcDbText
 10
19399.98763246513
 20
6397.953053740807
 30
0.0
 40
80.99999999999999
  1
縮尺：1/15
100
AcDbText
  0
LINE
  5
2F7D
330
19
100
AcDbEntity
  8
4
100
AcDbLine
 10
19506.52384857489
 20
6844.705166430135
 30
0.0
 11
19506.52384857489
 21
7002.788184066663
 31
0.0
  0
TEXT
  5
2F7E
330
19
100
AcDbEntity
  8
4
100
AcDbText
 10
19549.05205390902
 20
6881.901413984997
 30
0.0
 40
84.00000000000002
  1
No.
100
AcDbText
  0
LINE
  5
2F7F
330
19
100
AcDbEntity
  8
4
100
AcDbLine
 10
20120.5977150351
 20
6826.922923139242
 30
0.0
 11
20120.5977150351
 21
6526.922923139242
 31
0.0
  0
LINE
  5
2F80
330
19
100
AcDbEntity
  8
4
100
AcDbLine
 10
20120.5977150351
 20
7002.788184066663
 30
0.0
 11
20120.5977150351
 21
6844.705166430135
 31
0.0
  0
LINE
  5
2F81
330
19
100
AcDbEntity
  8
4
100
AcDbLine
 10
20495.59771503509
 20
7247.809791742034
 30
0.0
 11
20495.59771503509
 21
7247.809791742034
 31
0.0
  0
LINE
  5
39EE
330
19
100
AcDbEntity
  8
2
100
AcDbLine
 10
18322.76627709694
 20
4117.47911344242
 30
0.0
 11
18322.76627709694
 21
4775.633820463164
 31
0.0
  0
LWPOLYLINE
  5
39EF
330
19
100
AcDbEntity
  8
CT
100
AcDbPolyline
 90
        2
 70
     0
 43
0.0
 10
18577.82944031193
 20
4514.135294509086
 10
18565.56113002799
 20
4514.135294509085
  0
LWPOLYLINE
  5
39F0
330
19
100
AcDbEntity
  8
CT
100
AcDbPolyline
 90
        2
 70
     0
 43
0.0
 10
18577.82944031194
 20
4176.135294509085
 10
18565.561130028
 20
4176.135294509085
  0
LWPOLYLINE
  5
3A02
330
19
100
AcDbEntity
  8
1
100
AcDbPolyline
 90
        2
 70
     0
 43
0.0
 10
18117.76627709694
 20
4641.885099501154
 42
-0.1174780416237573
 10
18209.78801879642
 20
4707.63529450908
 42
-0.3153658436290411
  0
LWPOLYLINE
  5
3A03
330
19
100
AcDbEntity
  8
1
100
AcDbPolyline
 90
        3
 70
     0
 43
0.0
 10
18111.97369970403
 20
4291.485007046475
 42
-0.2162335382726867
 10
18053.89878728727
 20
4532.436131657055
 42
-0.1298839697351506
 10
18110.18382132425
 20
4648.404790019522
 42
-0.1298839697351506
  0
LWPOLYLINE
  5
3A04
330
19
100
AcDbEntity
  8
1
100
AcDbPolyline
 90
        3
 70
     0
 43
0.0
 10
18209.78801879641
 20
4707.63529450908
 42
-0.1343280102757561
 10
18337.53630237723
 20
4721.999138718286
 42
-0.3163019945347412
 10
18506.14346363936
 20
4559.004927557354
 42
-0.3153658436290411
  0
LWPOLYLINE
  5
3A05
330
19
100
AcDbEntity
  8
1
100
AcDbPolyline
 90
        3
 70
     0
 43
0.0
 10
18206.08786299715
 20
4716.925549998637
 42
-0.1343314877425494
 10
18339.0844060907
 20
4731.878581335279
 42
-0.3163064660587118
 10
18515.96419721488
 20
4560.889918814261
 42
-0.3163064660587118
  0
LINE
  5
3A07
330
19
100
AcDbEntity
  8
2
100
AcDbLine
 10
18627.70978694451
 20
4502.635294509082
 30
0.0
 11
18033.46425159329
 21
4502.635294509082
 31
0.0
  0
CIRCLE
  5
3A0A
330
19
100
AcDbEntity
  8
CT
100
AcDbCircle
 10
18322.76627709695
 20
4502.635294509082
 30
0.0
 40
169.0
  0
LWPOLYLINE
  5
3A0B
330
19
100
AcDbEntity
  8
1
100
AcDbPolyline
 90
        3
 70
     0
 43
0.0
 10
18552.76627709695
 20
4177.635294509084
 10
18348.25410035826
 20
4177.635294509079
 42
-0.2269714708976296
 10
18112.05555736152
 20
4291.381476624911
  0
LWPOLYLINE
  5
3A0C
330
19
100
AcDbEntity
  8
1
100
AcDbPolyline
 90
        3
 70
     0
 43
0.0
 10
18572.76627709695
 20
4187.635294509084
 10
18348.26627709695
 20
4187.635294509079
 42
-0.2269607506063405
 10
18119.85874657309
 20
4297.63529450908
 42
-0.129402372482195
  0
ARC
  5
3A0D
330
19
100
AcDbEntity
  8
1
100
AcDbCircle
 10
18322.76627709695
 20
4502.635294509082
 30
0.0
 40
100.8
100
AcDbArc
 50
285.4276999999997
 51
180.0
  0
ARC
  5
3A0E
330
19
100
AcDbEntity
  8
1
100
AcDbCircle
 10
18322.76627709695
 20
4502.635294509082
 30
0.0
 40
100.8
100
AcDbArc
 50
180.0
 51
254.2028999999989
  0
LINE
  5
3A0F
330
19
100
AcDbEntity
  8
CT
100
AcDbLine
 10
18276.82589659124
 20
4331.183460342776
 30
0.0
 11
18280.93533237629
 21
4346.520083483043
 31
0.0
  0
LINE
  5
3A11
330
19
100
AcDbEntity
  8
CT
100
AcDbLine
 10
18368.70665760263
 20
4331.183460342773
 30
0.0
 11
18364.59722181757
 21
4346.52008348304
 31
0.0
  0
LWPOLYLINE
  5
3A12
330
19
100
AcDbEntity
  8
1
100
AcDbPolyline
 90
        3
 70
     0
 43
0.0
 10
18119.85874657309
 20
4297.63529450908
 42
-0.2162148363065116
 10
18063.7160658203
 20
4530.533111317133
 42
-0.1298622998199493
 10
18117.76627709694
 20
4641.885099501155
 42
-0.3153658436290411
  0
LINE
  5
3A14
330
19
100
AcDbEntity
  8
1
100
AcDbLine
 10
18376.21667709695
 20
4417.184994509081
 30
0.0
 11
18382.76627709695
 21
4410.635294509082
 31
0.0
  0
CIRCLE
  5
3A17
330
19
100
AcDbEntity
  8
1
100
AcDbCircle
 10
18486.00774173979
 20
4458.89487588675
 30
0.0
 40
4.0
  0
LINE
  5
3A18
330
19
100
AcDbEntity
  8
CT
100
AcDbLine
 10
18494.21811126324
 20
4456.694914003377
 30
0.0
 11
18478.88148812298
 21
4460.804349788433
 31
0.0
  0
CIRCLE
  5
3A19
330
19
100
AcDbEntity
  8
1
100
AcDbCircle
 10
18442.26732311746
 20
4383.134248488551
 30
0.0
 40
4.0
  0
LINE
  5
3A1A
330
19
100
AcDbEntity
  8
CT
100
AcDbLine
 10
18448.27773075755
 20
4377.123840848464
 30
0.0
 11
18437.05054340233
 21
4388.351028203676
 31
0.0
  0
LINE
  5
3A1B
330
19
100
AcDbEntity
  8
1
100
AcDbLine
 10
18420.76627709695
 20
4414.635294509081
 30
0.0
 11
18384.76627709695
 21
4414.635294509081
 31
0.0
  0
LINE
  5
3A1C
330
19
100
AcDbEntity
  8
1
100
AcDbLine
 10
18422.76627709695
 20
4402.635294509082
 30
0.0
 11
18382.76627709695
 21
4402.635294509082
 31
0.0
  0
LINE
  5
3A1D
330
19
100
AcDbEntity
  8
1
100
AcDbLine
 10
18421.87407709695
 20
4414.303394509082
 30
0.0
 11
18405.47327709695
 21
4444.965394509082
 31
0.0
  0
LINE
  5
3A1E
330
19
100
AcDbEntity
  8
1
100
AcDbLine
 10
18422.76627709695
 20
4402.635294509082
 30
0.0
 11
18422.76627709695
 21
4412.635294509082
 31
0.0
  0
ARC
  5
3A1F
330
19
100
AcDbEntity
  8
1
100
AcDbCircle
 10
18420.76627709695
 20
4412.635294509082
 30
0.0
 40
2.0
100
AcDbArc
 50
0.000000000000007
 51
90.0
  0
LINE
  5
3A20
330
19
100
AcDbEntity
  8
1
100
AcDbLine
 10
18408.76627709695
 20
4414.635294509081
 30
0.0
 11
18408.76627709695
 21
4402.635294509082
 31
0.0
  0
LINE
  5
3A21
330
19
100
AcDbEntity
  8
1
100
AcDbLine
 10
18396.76627709695
 20
4402.635294509082
 30
0.0
 11
18396.76627709695
 21
4414.635294509081
 31
0.0
  0
LINE
  5
3A22
330
19
100
AcDbEntity
  8
1
100
AcDbLine
 10
18382.76627709695
 20
4402.635294509082
 30
0.0
 11
18382.76627709695
 21
4412.635294509082
 31
0.0
  0
ARC
  5
3A23
330
19
100
AcDbEntity
  8
1
100
AcDbCircle
 10
18384.76627709695
 20
4412.635294509082
 30
0.0
 40
2.0
100
AcDbArc
 50
90.0
 51
180.0
  0
ARC
  5
3A24
330
19
100
AcDbEntity
  8
1
100
AcDbCircle
 10
18391.32267709695
 20
4417.635294509081
 30
0.0
 40
3.0
100
AcDbArc
 50
225.0
 51
270.0
  0
LINE
  5
3A25
330
19
100
AcDbEntity
  8
1
100
AcDbLine
 10
18382.96877709695
 20
4421.746494509082
 30
0.0
 11
18389.20127709695
 21
4415.513994509081
 31
0.0
  0
LINE
  5
3A26
330
19
100
AcDbEntity
  8
CT
100
AcDbLine
 10
18402.76627709695
 20
4416.015794509081
 30
0.0
 11
18402.76627709695
 21
4398.668694509082
 31
0.0
  0
LINE
  5
3A27
330
19
100
AcDbEntity
  8
1
100
AcDbLine
 10
18224.76627709695
 20
4414.635294509081
 30
0.0
 11
18260.76627709695
 21
4414.635294509081
 31
0.0
  0
LINE
  5
3A28
330
19
100
AcDbEntity
  8
1
100
AcDbLine
 10
18222.76627709695
 20
4402.635294509082
 30
0.0
 11
18262.76627709695
 21
4402.635294509082
 31
0.0
  0
CIRCLE
  5
3A29
330
19
100
AcDbEntity
  8
1
100
AcDbCircle
 10
18279.02585847461
 20
4339.393829866234
 30
0.0
 40
4.0
  0
ARC
  5
3A2A
330
19
100
AcDbEntity
  8
1
100
AcDbCircle
 10
18254.20987709695
 20
4417.635294509081
 30
0.0
 40
3.0
100
AcDbArc
 50
270.0
 51
315.0
  0
LINE
  5
3A2B
330
19
100
AcDbEntity
  8
1
100
AcDbLine
 10
18262.18417709695
 20
4421.366994509081
 30
0.0
 11
18256.33127709695
 21
4415.513994509081
 31
0.0
  0
LINE
  5
3A2C
330
19
100
AcDbEntity
  8
1
100
AcDbLine
 10
18262.76627709695
 20
4402.635294509082
 30
0.0
 11
18262.76627709695
 21
4412.635294509082
 31
0.0
  0
ARC
  5
3A2D
330
19
100
AcDbEntity
  8
1
100
AcDbCircle
 10
18260.76627709695
 20
4412.635294509082
 30
0.0
 40
2.0
100
AcDbArc
 50
0.000000000000007
 51
90.0
  0
LINE
  5
3A2E
330
19
100
AcDbEntity
  8
1
100
AcDbLine
 10
18269.01967709695
 20
4416.888794509082
 30
0.0
 11
18262.76627709695
 21
4410.635294509082
 31
0.0
  0
LINE
  5
3A2F
330
19
100
AcDbEntity
  8
1
100
AcDbLine
 10
18223.85707709695
 20
4414.674794509082
 30
0.0
 11
18239.97577709695
 21
4444.809094509081
 31
0.0
  0
LINE
  5
3A30
330
19
100
AcDbEntity
  8
1
100
AcDbLine
 10
18248.76627709695
 20
4402.635294509082
 30
0.0
 11
18248.76627709695
 21
4414.635294509081
 31
0.0
  0
LINE
  5
3A31
330
19
100
AcDbEntity
  8
1
100
AcDbLine
 10
18222.76627709695
 20
4402.635294509082
 30
0.0
 11
18222.76627709695
 21
4412.635294509082
 31
0.0
  0
LINE
  5
3A32
330
19
100
AcDbEntity
  8
1
100
AcDbLine
 10
18236.76627709695
 20
4414.635294509081
 30
0.0
 11
18236.76627709695
 21
4402.635294509082
 31
0.0
  0
ARC
  5
3A33
330
19
100
AcDbEntity
  8
1
100
AcDbCircle
 10
18224.76627709695
 20
4412.635294509082
 30
0.0
 40
2.0
100
AcDbArc
 50
90.0
 51
180.0
  0
LINE
  5
3A34
330
19
100
AcDbEntity
  8
CT
100
AcDbLine
 10
18242.76627709695
 20
4416.015794509081
 30
0.0
 11
18242.76627709695
 21
4398.668694509082
 31
0.0
  0
CIRCLE
  5
3A35
330
19
100
AcDbEntity
  8
1
100
AcDbCircle
 10
18203.26523107641
 20
4383.134248488562
 30
0.0
 40
4.0
  0
LINE
  5
3A36
330
19
100
AcDbEntity
  8
CT
100
AcDbLine
 10
18197.25482343633
 20
4377.123840848477
 30
0.0
 11
18208.48201079154
 21
4388.351028203689
 31
0.0
  0
CIRCLE
  5
3A37
330
19
100
AcDbEntity
  8
1
100
AcDbCircle
 10
18366.50669571926
 20
4339.393829866231
 30
0.0
 40
4.0
  0
LINE
  5
3A38
330
19
100
AcDbEntity
  8
1
100
AcDbLine
 10
18295.14857709695
 20
4405.635294509082
 30
0.0
 11
18350.03567709695
 21
4405.635294509082
 31
0.0
  0
LINE
  5
3A39
330
19
100
AcDbEntity
  8
FUTO
100
AcDbLine
 10
18571.56627709695
 20
4166.135294509085
 30
0.0
 11
18571.56627709694
 21
4524.135294509084
 31
0.0
  0
LINE
  5
3A3A
330
19
100
AcDbEntity
  8
FUTO
100
AcDbLine
 10
18572.76627709694
 20
4524.135294509085
 30
0.0
 11
18572.76627709695
 21
4166.135294509086
 31
0.0
  0
LINE
  5
3A3B
330
19
100
AcDbEntity
  8
1
100
AcDbLine
 10
18552.76627709694
 20
4205.035294509086
 30
0.0
 11
18552.76627709694
 21
4486.235294509086
 31
0.0
  0
LINE
  5
3A3C
330
19
100
AcDbEntity
  8
FUTO
100
AcDbLine
 10
18572.76627709695
 20
4166.135294509086
 30
0.0
 11
18571.56627709695
 21
4166.135294509085
 31
0.0
  0
LINE
  5
3A3D
330
19
100
AcDbEntity
  8
FUTO
100
AcDbLine
 10
18552.76627709695
 20
4177.635294509084
 30
0.0
 11
18552.76627709695
 21
4187.635294509084
 31
0.0
  0
ARC
  5
3A3E
330
19
100
AcDbEntity
  8
1
100
AcDbCircle
 10
18567.76627709695
 20
4188.635294509085
 30
0.0
 40
1.0
100
AcDbArc
 50
270.0
 51
53.13010235419508
  0
LINE
  5
3A3F
330
19
100
AcDbEntity
  8
1
100
AcDbLine
 10
18568.46627709695
 20
4189.335294509085
 30
0.0
 11
18552.76627709694
 21
4205.035294509086
 31
0.0
  0
CIRCLE
  5
3A41
330
19
100
AcDbEntity
  8
1
100
AcDbCircle
 10
18486.00774173979
 20
4546.375713131399
 30
0.0
 40
4.0
  0
LINE
  5
3A42
330
19
100
AcDbEntity
  8
CT
100
AcDbLine
 10
18494.21811126325
 20
4548.575675014771
 30
0.0
 11
18478.88148812298
 21
4544.466239229715
 31
0.0
  0
POINT
  5
3A44
330
19
100
AcDbEntity
  8
1
100
AcDbPoint
 10
18572.76627709696
 20
4345.13529450908
 30
0.0
  0
POINT
  5
3A45
330
19
100
AcDbEntity
  8
1
100
AcDbPoint
 10
18572.76627709696
 20
4345.13529450908
 30
0.0
  0
CIRCLE
  5
3A46
330
19
100
AcDbEntity
  8
1
100
AcDbCircle
 10
18442.26732311748
 20
4622.136340529601
 30
0.0
 40
4.0
  0
LINE
  5
3A47
330
19
100
AcDbEntity
  8
CT
100
AcDbLine
 10
18448.27773075756
 20
4628.146748169687
 30
0.0
 11
18437.05054340235
 21
4616.919560814475
 31
0.0
  0
LWPOLYLINE
  5
3A48
330
19
100
AcDbEntity
  8
1
100
AcDbPolyline
 90
        2
 70
     0
 43
0.0
 10
18527.76627709694
 20
4535.189709801488
 42
-0.0941668855597806
 10
18515.85487278859
 20
4561.395461599989
 42
-0.1987366729981355
  0
LWPOLYLINE
  5
3A49
330
19
100
AcDbEntity
  8
1
100
AcDbPolyline
 90
        2
 70
     0
 43
0.0
 10
18527.76627709694
 20
4519.490386162657
 42
-0.1315967463597435
 10
18506.13873734004
 20
4559.029724517096
 42
-0.2200089805681688
  0
LWPOLYLINE
  5
3A4A
330
19
100
AcDbEntity
  8
FUTO
100
AcDbPolyline
 90
        2
 70
     0
 43
0.0
 10
18572.76627709694
 20
4524.135294509085
 10
18571.56627709694
 20
4524.135294509085
  0
ARC
  5
3A4B
330
19
100
AcDbEntity
  8
1
100
AcDbCircle
 10
18567.76627709694
 20
4502.635294509085
 30
0.0
 40
1.0
100
AcDbArc
 50
306.8698976458049
 51
90.0
  0
POINT
  5
3A4C
330
19
100
AcDbEntity
  8
1
100
AcDbPoint
 10
18572.76627709694
 20
4502.635294509085
 30
0.0
  0
LINE
  5
3A4D
330
19
100
AcDbEntity
  8
1
100
AcDbLine
 10
18552.76627709694
 20
4503.63529450909
 30
0.0
 11
18552.76627709694
 21
4506.955104635922
 31
0.0
  0
LINE
  5
3A4E
330
19
100
AcDbEntity
  8
1
100
AcDbLine
 10
18572.76627709694
 20
4503.635294509084
 30
0.0
 11
18551.76627709694
 21
4503.635294509084
 31
0.0
  0
LINE
  5
3A4F
330
19
100
AcDbEntity
  8
1
100
AcDbLine
 10
18568.46627709694
 20
4501.935294509087
 30
0.0
 11
18552.76627709694
 21
4486.235294509088
 31
0.0
  0
LWPOLYLINE
  5
3A50
330
19
100
AcDbEntity
  8
1
100
AcDbPolyline
 90
        3
 70
     0
 43
0.0
 10
18551.76627709694
 20
4503.635294509084
 42
-0.101266720201501
 10
18546.26686661018
 20
4504.760649492694
 42
-0.0681921917069782
 10
18527.76627709694
 20
4519.490386162657
 42
-0.2200089805681688
  0
ARC
  5
3A51
330
19
100
AcDbEntity
  8
1
100
AcDbCircle
 10
18542.76627709694
 20
4506.955104635916
 30
0.0
 40
10.0
100
AcDbArc
 50
0.000000000000007
 51
56.5581282105191
  0
LWPOLYLINE
  5
3A52
330
19
100
AcDbEntity
  8
1
100
AcDbPolyline
 90
        2
 70
     0
 43
0.0
 10
18548.27718410038
 20
4515.299558123077
 42
-0.0934525219043797
 10
18527.76627709694
 20
4535.189709801488
 42
-0.1987366729981355
  0
CIRCLE
  5
3A53
330
19
100
AcDbEntity
  8
1
100
AcDbCircle
 10
18279.02585847462
 20
4665.876759151934
 30
0.0
 40
4.0
  0
LINE
  5
3A54
330
19
100
AcDbEntity
  8
CT
100
AcDbLine
 10
18276.82589659125
 20
4674.087128675392
 30
0.0
 11
18280.93533237631
 21
4658.750505535125
 31
0.0
  0
CIRCLE
  5
3A55
330
19
100
AcDbEntity
  8
1
100
AcDbCircle
 10
18203.26523107642
 20
4622.136340529612
 30
0.0
 40
4.0
  0
LINE
  5
3A56
330
19
100
AcDbEntity
  8
CT
100
AcDbLine
 10
18197.25482343634
 20
4628.146748169698
 30
0.0
 11
18208.48201079155
 21
4616.919560814486
 31
0.0
  0
CIRCLE
  5
3A57
330
19
100
AcDbEntity
  8
1
100
AcDbCircle
 10
18366.50669571927
 20
4665.87675915193
 30
0.0
 40
4.0
  0
LINE
  5
3A58
330
19
100
AcDbEntity
  8
CT
100
AcDbLine
 10
18368.70665760265
 20
4674.087128675387
 30
0.0
 11
18364.59722181759
 21
4658.750505535119
 31
0.0
  0
LWPOLYLINE
  5
3A59
330
19
100
AcDbEntity
  8
1
100
AcDbPolyline
 90
        2
 70
     0
 43
0.0
 10
18110.22529349038
 20
4648.452714459845
 42
-0.1174780416237576
 10
18206.01841804639
 20
4716.897589591048
 42
-0.1174780416237576
  0
CIRCLE
  5
3A5C
330
19
100
AcDbEntity
  8
1
100
AcDbCircle
 10
18159.52481245409
 20
4458.894875886764
 30
0.0
 40
4.0
  0
LINE
  5
3A5D
330
19
100
AcDbEntity
  8
CT
100
AcDbLine
 10
18151.31444293063
 20
4456.694914003391
 30
0.0
 11
18166.6510660709
 21
4460.804349788448
 31
0.0
  0
CIRCLE
  5
3A5F
330
19
100
AcDbEntity
  8
1
100
AcDbCircle
 10
18159.52481245409
 20
4546.375713131416
 30
0.0
 40
4.0
  0
LINE
  5
3A60
330
19
100
AcDbEntity
  8
CT
100
AcDbLine
 10
18151.31444293064
 20
4548.575675014786
 30
0.0
 11
18166.6510660709
 21
4544.466239229732
 31
0.0
  0
DIMENSION
  5
3F0E
330
19
100
AcDbEntity
  8
SP
100
AcDbDimension
  2
*D3
 10
18058.53499546311
 20
4838.890536191989
 30
0.0
 11
18190.65063628003
 21
4876.39053619199
 31
0.0
 70
    32
 71
     5
 42
264.2312816338344
  3
GOD
100
AcDbAlignedDimension
 13
18322.76627709694
 23
4775.633820463164
 33
0.0
 14
18058.53499546311
 24
4475.964871696695
 34
0.0
100
AcDbRotatedDimension
1001
ACAD
1000
DSTYLE
1002
{
1070
   271
1070
     0
1002
}
  0
DIMENSION
  5
3F26
330
19
100
AcDbEntity
  8
SP
100
AcDbDimension
  2
*D4
 10
18572.76627709694
 20
4838.890536191989
 30
0.0
 11
18447.76627709694
 21
4876.39053619199
 31
0.0
 70
    32
 71
     5
 42
249.9999999999964
  3
GOD
100
AcDbAlignedDimension
 13
18322.76627709694
 23
4775.633820463164
 33
0.0
 14
18572.76627709694
 24
4524.135294509085
 34
0.0
100
AcDbRotatedDimension
  0
DIMENSION
  5
3F3E
330
19
100
AcDbEntity
  8
SP
100
AcDbDimension
  2
*D5
 10
18677.76627709695
 20
4187.635294509084
 30
0.0
 11
18640.26627709695
 21
4345.135294509087
 31
0.0
 70
    32
 71
     5
 42
314.9999999999973
  3
GOD
100
AcDbAlignedDimension
 13
18627.70978694451
 23
4502.635294509082
 33
0.0
 14
18572.76627709695
 24
4187.635294509084
 34
0.0
 50
90.0
100
AcDbRotatedDimension
  0
DIMENSION
  5
3F4B
330
19
100
AcDbEntity
  8
SP
100
AcDbDimension
  2
*D6
 10
18782.76627709694
 20
4502.635294509082
 30
0.0
 11
18745.26627709694
 21
4325.135294509085
 31
0.0
 70
    32
 71
     5
 42
355.0
  3
GOD
100
AcDbAlignedDimension
 13
18572.76627709694
 23
4147.635294509082
 33
0.0
 14
18627.70978694451
 24
4502.635294509082
 34
0.0
 50
90.0
100
AcDbRotatedDimension
  0
DIMENSION
  5
3F58
330
19
100
AcDbEntity
  8
SP
100
AcDbDimension
  2
*D7
 10
18782.76627709694
 20
4724.922514625553
 30
0.0
 11
18745.26627709694
 21
4613.778904567321
 31
0.0
 70
    32
 71
     5
 42
222.2872201164709
  3
GOD
100
AcDbAlignedDimension
 13
18627.70978694451
 23
4502.635294509082
 33
0.0
 14
18299.91257323213
 24
4724.922514625554
 34
0.0
 50
90.0
100
AcDbRotatedDimension
1001
ACAD
1000
DSTYLE
1002
{
1070
   271
1070
     0
1002
}
  0
LINE
  5
469C
330
19
100
AcDbEntity
  8
1
100
AcDbLine
 10
19772.61370464045
 20
4709.922514625554
 30
0.0
 11
19772.61370464045
 21
4523.813219867592
 31
0.0
  0
LINE
  5
469D
330
19
100
AcDbEntity
  8
1
100
AcDbLine
 10
19548.61370464045
 20
4709.922514625555
 30
0.0
 11
19548.61370464045
 21
4523.813219867591
 31
0.0
  0
LINE
  5
469E
330
19
100
AcDbEntity
  8
2
100
AcDbLine
 10
19660.61370464045
 20
4813.688195434025
 30
0.0
 11
19660.61370464045
 21
4112.209413630673
 31
0.0
1001
ACAD
1000
ASC_BOUNDS
1002
{
1070
    19
1005
0
1005
0
1002
}
  0
DIMENSION
  5
469F
330
19
100
AcDbEntity
  8
SP
100
AcDbDimension
  2
*D10
 10
19781.61370464045
 20
4934.922514625554
 30
0.0
 11
19721.11370464045
 21
4972.422514625554
 31
0.0
 70
    32
 71
     5
 42
121.0
  3
GOD
100
AcDbAlignedDimension
 13
19660.61370464045
 23
4899.89786701067
 33
0.0
 14
19781.61370464045
 24
4684.135294509078
 34
0.0
100
AcDbRotatedDimension
  0
LINE
  5
46A1
330
19
100
AcDbEntity
  8
1
100
AcDbLine
 10
19793.61370464045
 20
4191.135294509086
 30
0.0
 11
19793.61370464045
 21
4499.135294509086
 31
0.0
  0
LINE
  5
46A2
330
19
100
AcDbEntity
  8
1
100
AcDbLine
 10
19527.61370464045
 20
4191.135294509086
 30
0.0
 11
19527.61370464045
 21
4499.135294509086
 31
0.0
  0
LWPOLYLINE
  5
46A3
330
19
100
AcDbEntity
  8
1
100
AcDbPolyline
 90
        2
 70
     0
 43
0.0
 10
19535.41370464045
 20
4694.51095586662
 10
19535.41370464045
 20
4147.63529450908
  0
LWPOLYLINE
  5
46A5
330
19
100
AcDbEntity
  8
1
100
AcDbPolyline
 90
        3
 70
     0
 43
0.0
 10
19538.61370464045
 20
4697.95340534661
 10
19538.61370464045
 20
4502.635294509079
 10
19538.61370464045
 20
4147.63529450908
  0
LINE
  5
46A6
330
19
100
AcDbEntity
  8
FUTO
100
AcDbLine
 10
19358.41370464045
 20
4502.635294509079
 30
0.0
 11
19228.61370464045
 21
4150.83529450908
 31
0.0
  0
LINE
  5
46A7
330
19
100
AcDbEntity
  8
1
100
AcDbLine
 10
19538.61370464045
 20
4150.83529450908
 30
0.0
 11
19578.61370464045
 21
4150.83529450908
 31
0.0
  0
LINE
  5
46A8
330
19
100
AcDbEntity
  8
1
100
AcDbLine
 10
19228.61370464045
 20
4147.63529450908
 30
0.0
 11
19578.61370464045
 21
4147.63529450908
 31
0.0
  0
DIMENSION
  5
46A9
330
19
100
AcDbEntity
  8
SP
100
AcDbDimension
  2
*D11
 10
19228.61370464045
 20
3937.635294509082
 30
0.0
 11
19383.61370464045
 21
3975.135294509082
 31
0.0
 70
    32
 71
     5
 42
310.0
  3
GOD
100
AcDbAlignedDimension
 13
19538.61370464045
 23
4150.83529450908
 33
0.0
 14
19228.61370464045
 24
4147.63529450908
 34
0.0
100
AcDbRotatedDimension
  0
LINE
  5
46AA
330
19
100
AcDbEntity
  8
FUTO
100
AcDbLine
 10
19228.61370464045
 20
4150.83529450908
 30
0.0
 11
19535.41370464045
 21
4150.83529450908
 31
0.0
  0
LINE
  5
46AB
330
19
100
AcDbEntity
  8
FUTO
100
AcDbLine
 10
19228.61370464045
 20
4147.63529450908
 30
0.0
 11
19228.61370464045
 21
4150.83529450908
 31
0.0
  0
LWPOLYLINE
  5
46AC
330
19
100
AcDbEntity
  8
1
100
AcDbPolyline
 90
        2
 70
     0
 43
0.0
 10
19578.61370464045
 20
4150.83529450908
 10
19578.61370464045
 20
4147.635294509079
  0
LINE
  5
46AE
330
19
100
AcDbEntity
  8
FUTO
100
AcDbLine
 10
19552.61370464045
 20
4166.135294509086
 30
0.0
 11
19768.61370464045
 21
4166.135294509086
 31
0.0
  0
LINE
  5
46AF
330
19
100
AcDbEntity
  8
2
100
AcDbLine
 10
19812.62568877617
 20
4502.635294509079
 30
0.0
 11
19199.22558407387
 21
4502.635294509079
 31
0.0
  0
LINE
  5
46B0
330
19
100
AcDbEntity
  8
1
100
AcDbLine
 10
19239.61370464045
 20
4419.08239450908
 30
0.0
 11
19239.61370464045
 21
4586.21619450908
 31
0.0
  0
LINE
  5
46B1
330
19
100
AcDbEntity
  8
1
100
AcDbLine
 10
19329.61370464045
 20
4603.43529450908
 30
0.0
 11
19329.61370464045
 21
4452.635294509079
 31
0.0
  0
LINE
  5
46B2
330
19
100
AcDbEntity
  8
1
100
AcDbLine
 10
19289.61370464045
 20
4406.635294509078
 30
0.0
 11
19289.61370464045
 21
4601.935294509081
 31
0.0
  0
LINE
  5
46B3
330
19
100
AcDbEntity
  8
FUTO
100
AcDbLine
 10
19288.09058761648
 20
4311.773623687131
 30
0.0
 11
19240.49276382103
 21
4399.146787701621
 31
0.0
  0
LINE
  5
46B7
330
19
100
AcDbEntity
  8
1
100
AcDbLine
 10
19315.61370464045
 20
4443.635294509079
 30
0.0
 11
19329.61370464045
 21
4452.635294509079
 31
0.0
  0
LINE
  5
46B8
330
19
100
AcDbEntity
  8
1
100
AcDbLine
 10
19315.51420464045
 20
4417.635294509079
 30
0.0
 11
19327.0953947813
 21
4417.635294509079
 31
0.0
  0
LINE
  5
46B9
330
19
100
AcDbEntity
  8
1
100
AcDbLine
 10
19315.61370464045
 20
4405.635294509079
 30
0.0
 11
19290.61370464045
 21
4405.635294509079
 31
0.0
  0
ARC
  5
46BA
330
19
100
AcDbEntity
  8
1
100
AcDbCircle
 10
19290.61380464045
 20
4406.635294509078
 30
0.0
 40
1.000099999999999
100
AcDbArc
 50
180.0
 51
269.9965000000103
  0
LINE
  5
46BB
330
19
100
AcDbEntity
  8
1
100
AcDbLine
 10
19315.61370464045
 20
4405.635294509079
 30
0.0
 11
19315.61370464045
 21
4443.635294509079
 31
0.0
  0
ARC
  5
46BC
330
19
100
AcDbEntity
  8
1
100
AcDbCircle
 10
19241.41350464045
 20
4419.08219450908
 30
0.0
 40
1.7998
100
AcDbArc
 50
179.9961000000213
 51
257.5983000000071
  0
LINE
  5
46BD
330
19
100
AcDbEntity
  8
FUTO
100
AcDbLine
 10
19227.61370464045
 20
4373.946787701622
 30
0.0
 11
19230.01370464045
 21
4373.946787701622
 31
0.0
  0
ARC
  5
46BE
330
19
100
AcDbEntity
  8
FUTO
100
AcDbCircle
 10
19232.41370464045
 20
4396.74678770162
 30
0.0
 40
2.4
100
AcDbArc
 50
89.99999999999998
 51
180.0
  0
ARC
  5
46BF
330
19
100
AcDbEntity
  8
FUTO
100
AcDbCircle
 10
19232.41370464045
 20
4396.74678770162
 30
0.0
 40
4.8
100
AcDbArc
 50
89.99999999999998
 51
180.0
  0
LINE
  5
46C0
330
19
100
AcDbEntity
  8
FUTO
100
AcDbLine
 10
19230.01370464045
 20
4373.946787701622
 30
0.0
 11
19230.01370464045
 21
4396.74678770162
 31
0.0
  0
LINE
  5
46C1
330
19
100
AcDbEntity
  8
FUTO
100
AcDbLine
 10
19227.61370464045
 20
4373.946787701622
 30
0.0
 11
19227.61370464045
 21
4396.74678770162
 31
0.0
  0
LINE
  5
46C2
330
19
100
AcDbEntity
  8
FUTO
100
AcDbLine
 10
19232.41370464045
 20
4399.146787701621
 30
0.0
 11
19320.28329142801
 21
4399.146787701617
 31
0.0
  0
LINE
  5
46C3
330
19
100
AcDbEntity
  8
FUTO
100
AcDbLine
 10
19232.41370464045
 20
4401.546787701619
 30
0.0
 11
19321.16757311816
 21
4401.546787701619
 31
0.0
  0
LINE
  5
46C4
330
19
100
AcDbEntity
  8
1
100
AcDbLine
 10
19289.61370464045
 20
4406.635294509078
 30
0.0
 11
19241.02700464045
 21
4417.324394509079
 31
0.0
  0
LINE
  5
46C6
330
19
100
AcDbEntity
  8
1
100
AcDbLine
 10
19412.61370464045
 20
4602.635294509079
 30
0.0
 11
19337.27400464045
 21
4602.635294509079
 31
0.0
  0
LINE
  5
46C7
330
19
100
AcDbEntity
  8
1
100
AcDbLine
 10
19329.61370464045
 20
4603.43529450908
 30
0.0
 11
19291.11370464045
 21
4603.43529450908
 31
0.0
  0
ARC
  5
46C8
330
19
100
AcDbEntity
  8
1
100
AcDbCircle
 10
19291.11370464045
 20
4601.935294509081
 30
0.0
 40
1.5
100
AcDbArc
 50
89.99999999999998
 51
180.0
  0
LINE
  5
46C9
330
19
100
AcDbEntity
  8
1
100
AcDbLine
 10
19329.44540464045
 20
4589.07599450908
 30
0.0
 11
19337.27400464045
 21
4602.635294509079
 31
0.0
  0
ARC
  5
46CA
330
19
100
AcDbEntity
  8
1
100
AcDbCircle
 10
19241.41360464045
 20
4586.216294509079
 30
0.0
 40
1.7999
100
AcDbArc
 50
103.4933999999954
 51
180.0018999999831
  0
LINE
  5
46CB
330
19
100
AcDbEntity
  8
1
100
AcDbLine
 10
19289.61370464045
 20
4599.635294509079
 30
0.0
 11
19240.99360464045
 21
4587.96649450908
 31
0.0
  0
LINE
  5
46CD
330
19
100
AcDbEntity
  8
1
100
AcDbLine
 10
19412.61370464045
 20
4602.635294509079
 30
0.0
 11
19450.00878641198
 21
4602.635294509079
 31
0.0
  0
ARC
  5
46CE
330
19
100
AcDbEntity
  8
1
100
AcDbCircle
 10
19540.61370464045
 20
4684.135294509078
 30
0.0
 40
1.0
100
AcDbArc
 50
89.99999999999998
 51
180.0
  0
ARC
  5
46CF
330
19
100
AcDbEntity
  8
1
100
AcDbCircle
 10
19546.61370464045
 20
4686.135294509078
 30
0.0
 40
1.0
100
AcDbArc
 50
270.0
 51
0.0
  0
LINE
  5
46D0
330
19
100
AcDbEntity
  8
1
100
AcDbLine
 10
19546.61370464045
 20
4685.13529450908
 30
0.0
 11
19540.61370464045
 21
4685.13529450908
 31
0.0
  0
DIMENSION
  5
46D1
330
19
100
AcDbEntity
  8
SP
100
AcDbDimension
  2
*D13
 10
19897.82829315223
 20
4345.135294509081
 30
0.0
 11
19860.32829315223
 21
4502.635294509075
 31
0.0
 70
    32
 71
     5
 42
315.0
  3
GOD
100
AcDbAlignedDimension
 13
19781.61370464045
 23
4660.135294509079
 33
0.0
 14
19781.61370464045
 24
4345.13529450908
 34
0.0
 50
90.0
100
AcDbRotatedDimension
1001
ACAD
1000
DSTYLE
1002
{
1070
     3
1000
\U+03C6<>
1002
}
  0
ARC
  5
46DB
330
19
100
AcDbEntity
  8
FUTO
100
AcDbCircle
 10
19768.61370464045
 20
4191.135294509087
 30
0.0
 40
25.0
100
AcDbArc
 50
270.0
 51
359.9999999999979
  0
DIMENSION
  5
46E3
330
19
100
AcDbEntity
  8
SP
100
AcDbDimension
  2
*D14
 10
19772.61370464045
 20
4829.922514625554
 30
0.0
 11
19660.61370464045
 21
4867.422514625554
 31
0.0
 70
    32
 71
     5
 42
223.9999999999927
  3
GOD
100
AcDbAlignedDimension
 13
19548.61370464045
 23
4709.922514625555
 33
0.0
 14
19772.61370464045
 24
4709.922514625554
 34
0.0
100
AcDbRotatedDimension
  0
LINE
  5
46E4
330
19
100
AcDbEntity
  8
FUTO
100
AcDbLine
 10
19563.61370464045
 20
4724.922514625554
 30
0.0
 11
19757.61370464045
 21
4724.922514625554
 31
0.0
  0
LINE
  5
46E5
330
19
100
AcDbEntity
  8
FUTO
100
AcDbLine
 10
19552.61370464045
 20
4524.135294509085
 30
0.0
 11
19768.61370464045
 21
4524.135294509085
 31
0.0
  0
ARC
  5
46E7
330
19
100
AcDbEntity
  8
FUTO
100
AcDbCircle
 10
19552.61370464045
 20
4499.135294509086
 30
0.0
 40
25.0
100
AcDbArc
 50
90.0
 51
180.0
  0
ARC
  5
476B
330
19
100
AcDbEntity
  8
FUTO
100
AcDbCircle
 10
19563.61370464045
 20
4709.922514625555
 30
0.0
 40
15.0
100
AcDbArc
 50
90.0
 51
180.0000000000002
  0
ARC
  5
476C
330
19
100
AcDbEntity
  8
FUTO
100
AcDbCircle
 10
19757.61370464045
 20
4709.922514625554
 30
0.0
 40
15.0
100
AcDbArc
 50
0.0000000000010178
 51
89.99999999999971
  0
ARC
  5
483C
330
19
100
AcDbEntity
  8
FUTO
100
AcDbCircle
 10
19768.61370464045
 20
4499.135294509086
 30
0.0
 40
25.0
100
AcDbArc
 50
0.0
 51
90.0
  0
LINE
  5
483D
330
19
100
AcDbEntity
  8
FUTO
100
AcDbLine
 10
19562.61370464045
 20
4504.135294509085
 30
0.0
 11
19758.61370464045
 21
4504.135294509086
 31
0.0
  0
LINE
  5
483E
330
19
100
AcDbEntity
  8
FUTO
100
AcDbLine
 10
19562.61370464045
 20
4186.135294509085
 30
0.0
 11
19758.61370464045
 21
4186.135294509085
 31
0.0
  0
LINE
  5
483F
330
19
100
AcDbEntity
  8
1
100
AcDbLine
 10
19773.61370464045
 20
4201.135294509085
 30
0.0
 11
19773.61370464045
 21
4489.135294509086
 31
0.0
  0
LINE
  5
4840
330
19
100
AcDbEntity
  8
1
100
AcDbLine
 10
19547.61370464045
 20
4201.135294509085
 30
0.0
 11
19547.61370464045
 21
4489.135294509085
 31
0.0
  0
ARC
  5
4841
330
19
100
AcDbEntity
  8
FUTO
100
AcDbCircle
 10
19562.61370464045
 20
4201.135294509085
 30
0.0
 40
15.0
100
AcDbArc
 50
180.0
 51
270.0
  0
ARC
  5
4842
330
19
100
AcDbEntity
  8
FUTO
100
AcDbCircle
 10
19758.61370464045
 20
4201.135294509085
 30
0.0
 40
15.0
100
AcDbArc
 50
270.0
 51
0.0
  0
ARC
  5
4843
330
19
100
AcDbEntity
  8
FUTO
100
AcDbCircle
 10
19758.61370464045
 20
4489.135294509086
 30
0.0
 40
15.0
100
AcDbArc
 50
0.0
 51
90.0
  0
ARC
  5
4844
330
19
100
AcDbEntity
  8
FUTO
100
AcDbCircle
 10
19562.61370464045
 20
4489.135294509085
 30
0.0
 40
15.0
100
AcDbArc
 50
90.00000000000026
 51
180.0
  0
ARC
  5
4845
330
19
100
AcDbEntity
  8
FUTO
100
AcDbCircle
 10
19552.61370464045
 20
4191.135294509086
 30
0.0
 40
25.0
100
AcDbArc
 50
180.0
 51
270.0
  0
LINE
  5
4A2C
330
19
100
AcDbEntity
  8
HOSO
100
AcDbLine
 10
19552.00710292265
 20
4499.741896226883
 30
0.0
 11
19769.22030635825
 21
4190.528692791287
 31
0.0
  0
LINE
  5
4A2D
330
19
100
AcDbEntity
  8
HOSO
100
AcDbLine
 10
19769.22030635825
 20
4499.741896226884
 30
0.0
 11
19552.00710292265
 21
4190.528692791287
 31
0.0
  0
DIMENSION
  5
4D6D
330
19
100
AcDbEntity
  8
SP
100
AcDbDimension
  2
*D15
 10
18746.63897953312
 20
5854.362935220169
 30
0.0
 11
18709.13897953312
 21
5996.862935220172
 31
0.0
 70
    32
 71
     5
 42
122.0000000000018
  3
GOD
100
AcDbAlignedDimension
 13
18572.76627709694
 23
5732.362935220167
 33
0.0
 14
18620.38782536343
 24
5854.362935220169
 34
0.0
 50
90.0
100
AcDbRotatedDimension
  0
LINE
  5
4D6E
330
19
100
AcDbEntity
  8
1
100
AcDbLine
 10
18572.76627709694
 20
5987.362935220167
 30
0.0
 11
18572.76627709694
 21
5721.362935220168
 31
0.0
  0
LINE
  5
4D6F
330
19
100
AcDbEntity
  8
1
100
AcDbLine
 10
18552.76627709694
 20
5948.56293522017
 30
0.0
 11
18552.76627709694
 21
5760.162935220169
 31
0.0
  0
LINE
  5
4D70
330
19
100
AcDbEntity
  8
1
100
AcDbLine
 10
18571.56627709695
 20
5987.362935220168
 30
0.0
 11
18571.56627709695
 21
5721.362935220168
 31
0.0
  0
LINE
  5
4D71
330
19
100
AcDbEntity
  8
2
100
AcDbLine
 10
18322.76627709695
 20
5368.182908544904
 30
0.0
 11
18322.76627709694
 21
5995.364287666135
 31
0.0
  0
LINE
  5
4D72
330
19
100
AcDbEntity
  8
1
100
AcDbLine
 10
18058.76627709694
 20
5952.362935220168
 30
0.0
 11
18058.76627709695
 21
5756.362935220169
 31
0.0
  0
DIMENSION
  5
4D73
330
19
100
AcDbEntity
  8
SP
100
AcDbDimension
  2
*D17
 10
18572.76627709694
 20
5275.34150146671
 30
0.0
 11
18322.76627709694
 21
5312.84150146671
 31
0.0
 70
    32
 71
     5
 42
500.0
  3
GOD
100
AcDbAlignedDimension
 13
18072.76627709694
 23
5422.362935220169
 33
0.0
 14
18572.76627709694
 24
5422.362935220169
 34
0.0
100
AcDbRotatedDimension
  0
DIMENSION
  5
4D74
330
19
100
AcDbEntity
  8
SP
100
AcDbDimension
  2
*D16
 10
18746.63897953312
 20
5422.362935220169
 30
0.0
 11
18709.13897953312
 21
5577.362935220172
 31
0.0
 70
    32
 71
     5
 42
309.9999999999982
  3
GOD
100
AcDbAlignedDimension
 13
18572.76627709694
 23
5732.362935220167
 33
0.0
 14
18572.76627709694
 24
5422.362935220169
 34
0.0
 50
90.0
100
AcDbRotatedDimension
  0
LINE
  5
4D75
330
19
100
AcDbEntity
  8
1
100
AcDbLine
 10
18222.76627709694
 20
5532.02323522017
 30
0.0
 11
18222.76627709694
 21
5682.702635220169
 31
0.0
  0
LINE
  5
4D76
330
19
100
AcDbEntity
  8
1
100
AcDbLine
 10
18422.76627709694
 20
5682.702635220169
 30
0.0
 11
18422.76627709694
 21
5532.02323522017
 31
0.0
  0
LINE
  5
4D7D
330
19
100
AcDbEntity
  8
1
100
AcDbLine
 10
18406.31917709694
 20
5434.362935220168
 30
0.0
 11
18239.18537709694
 21
5434.362935220168
 31
0.0
  0
LINE
  5
4D7E
330
19
100
AcDbEntity
  8
1
100
AcDbLine
 10
18406.31917709694
 20
5434.362935220168
 30
0.0
 11
18239.18537709694
 21
5434.362935220168
 31
0.0
  0
LINE
  5
4D7F
330
19
100
AcDbEntity
  8
1
100
AcDbLine
 10
18418.76627709694
 20
5484.362935220168
 30
0.0
 11
18223.46627709694
 21
5484.362935220168
 31
0.0
  0
LINE
  5
4D80
330
19
100
AcDbEntity
  8
1
100
AcDbLine
 10
18221.96627709694
 20
5524.362935220168
 30
0.0
 11
18423.56627709694
 21
5524.362935220168
 31
0.0
  0
LINE
  5
4D81
330
19
100
AcDbEntity
  8
1
100
AcDbLine
 10
18225.76627709694
 20
5484.362935220168
 30
0.0
 11
18237.43507709694
 21
5435.742835220168
 31
0.0
  0
ARC
  5
4D86
330
19
100
AcDbEntity
  8
1
100
AcDbCircle
 10
18239.18527709694
 20
5436.162835220169
 30
0.0
 40
1.7999
100
AcDbArc
 50
193.4933999999977
 51
270.0018999999994
  0
LINE
  5
4D88
330
19
100
AcDbEntity
  8
1
100
AcDbLine
 10
18221.96627709694
 20
5524.362935220168
 30
0.0
 11
18221.96627709694
 21
5485.862935220168
 31
0.0
  0
ARC
  5
4D89
330
19
100
AcDbEntity
  8
1
100
AcDbCircle
 10
18223.46627709694
 20
5485.862935220168
 30
0.0
 40
1.5
100
AcDbArc
 50
180.0
 51
270.0
  0
LINE
  5
4D8A
330
19
100
AcDbEntity
  8
1
100
AcDbLine
 10
18236.32557709694
 20
5524.194635220169
 30
0.0
 11
18222.76627709694
 21
5532.02323522017
 31
0.0
  0
LINE
  5
4D8B
330
19
100
AcDbEntity
  8
1
100
AcDbLine
 10
18419.76627709694
 20
5484.362935220168
 30
0.0
 11
18408.09747709694
 21
5435.742835220168
 31
0.0
  0
ARC
  5
4D8D
330
19
100
AcDbEntity
  8
1
100
AcDbCircle
 10
18406.34727709694
 20
5436.162835220169
 30
0.0
 40
1.7999
100
AcDbArc
 50
269.9981000000006
 51
346.5066000000023
  0
LINE
  5
4D92
330
19
100
AcDbEntity
  8
1
100
AcDbLine
 10
18423.56627709694
 20
5524.362935220168
 30
0.0
 11
18423.56627709694
 21
5485.862935220168
 31
0.0
  0
ARC
  5
4D93
330
19
100
AcDbEntity
  8
1
100
AcDbCircle
 10
18422.06627709694
 20
5485.862935220168
 30
0.0
 40
1.5
100
AcDbArc
 50
270.0
 51
0.0
  0
LINE
  5
4D94
330
19
100
AcDbEntity
  8
1
100
AcDbLine
 10
18409.20697709694
 20
5524.194635220169
 30
0.0
 11
18422.76627709694
 21
5532.02323522017
 31
0.0
  0
LINE
  5
4D96
330
19
100
AcDbEntity
  8
1
100
AcDbLine
 10
18407.76627709694
 20
5691.362935220169
 30
0.0
 11
18237.76627709694
 21
5691.362935220169
 31
0.0
  0
LINE
  5
4D97
330
19
100
AcDbEntity
  8
1
100
AcDbLine
 10
18240.76627709694
 20
5712.090614653588
 30
0.0
 11
18404.76627709694
 21
5712.090614653588
 31
0.0
  0
LINE
  5
4D98
330
19
100
AcDbEntity
  8
1
100
AcDbLine
 10
18359.76627709694
 20
5718.090614653588
 30
0.0
 11
18285.76627709694
 21
5718.090614653588
 31
0.0
  0
LWPOLYLINE
  5
4D99
330
19
100
AcDbEntity
  8
1
100
AcDbPolyline
 90
        2
 70
     0
 43
0.0
 10
18302.43597431712
 20
5733.362935220169
 10
18141.26627709694
 20
5733.362935220169
  0
LINE
  5
4D9A
330
19
100
AcDbEntity
  8
1
100
AcDbLine
 10
18322.76627709695
 20
5741.362935220172
 30
0.0
 11
18073.76627709695
 21
5741.362935220169
 31
0.0
  0
LINE
  5
4D9B
330
19
100
AcDbEntity
  8
2
100
AcDbLine
 10
17997.40314825103
 20
5854.362935220169
 30
0.0
 11
18620.38782536343
 21
5854.362935220169
 31
0.0
1001
ACAD
1000
ASC_BOUNDS
1002
{
1070
    19
1005
0
1005
0
1002
}
  0
ARC
  5
4D9C
330
19
100
AcDbEntity
  8
1
100
AcDbCircle
 10
18073.76627709695
 20
5756.362935220169
 30
0.0
 40
15.0
100
AcDbArc
 50
180.0
 51
270.0
  0
LINE
  5
4DA1
330
19
100
AcDbEntity
  8
1
100
AcDbLine
 10
18237.76627709694
 20
5691.362935220169
 30
0.0
 11
18237.76627709694
 21
5709.090614653588
 31
0.0
  0
LINE
  5
4DA2
330
19
100
AcDbEntity
  8
1
100
AcDbLine
 10
18237.76627709694
 20
5694.362935220169
 30
0.0
 11
18237.76627709694
 21
5691.362935220169
 31
0.0
  0
LINE
  5
4DA3
330
19
100
AcDbEntity
  8
1
100
AcDbLine
 10
18222.76627709694
 20
5682.702635220169
 30
0.0
 11
18237.76627709694
 21
5691.362935220169
 31
0.0
  0
ARC
  5
4DA4
330
19
100
AcDbEntity
  8
1
100
AcDbCircle
 10
18285.76617709694
 20
5715.090614653588
 30
0.0
 40
2.999899999999999
100
AcDbArc
 50
89.99879999999965
 51
180.0011999999971
  0
LINE
  5
4DA5
330
19
100
AcDbEntity
  8
1
100
AcDbLine
 10
18282.76627709694
 20
5712.090614653588
 30
0.0
 11
18282.76627709694
 21
5715.090614653588
 31
0.0
  0
ARC
  5
4DA6
330
19
100
AcDbEntity
  8
1
100
AcDbCircle
 10
18240.76617709694
 20
5709.090614653588
 30
0.0
 40
2.999899999999999
100
AcDbArc
 50
89.99879999999965
 51
180.0011999999971
  0
ARC
  5
4DA7
330
19
100
AcDbEntity
  8
1
100
AcDbCircle
 10
18143.11169690896
 20
5774.936788372067
 30
0.0
 40
48.65638419258441
100
AcDbArc
 50
303.5000336652645
 51
316.3683487231641
  0
ARC
  5
4DA8
330
19
100
AcDbEntity
  8
1
100
AcDbCircle
 10
18142.26627709695
 20
5735.362935220169
 30
0.0
 40
1.0
100
AcDbArc
 50
180.0
 51
270.0
  0
ARC
  5
4DA9
330
19
100
AcDbEntity
  8
1
100
AcDbCircle
 10
18141.26627709694
 20
5734.362935220168
 30
0.0
 40
1.0
100
AcDbArc
 50
180.0
 51
270.0
  0
LINE
  5
4DAA
330
19
100
AcDbEntity
  8
1
100
AcDbLine
 10
18141.26627709694
 20
5741.362935220166
 30
0.0
 11
18141.26627709694
 21
5735.362935220167
 31
0.0
  0
LINE
  5
4DAB
330
19
100
AcDbEntity
  8
1
100
AcDbLine
 10
18140.26627709695
 20
5740.362935220169
 30
0.0
 11
18140.26627709695
 21
5734.362935220167
 31
0.0
  0
ARC
  5
4DAC
330
19
100
AcDbEntity
  8
1
100
AcDbCircle
 10
18139.26627709695
 20
5740.362935220169
 30
0.0
 40
1.0
100
AcDbArc
 50
0.0
 51
90.0
  0
LINE
  5
4DAD
330
19
100
AcDbEntity
  8
1
100
AcDbLine
 10
18142.26627709695
 20
5734.362935220167
 30
0.0
 11
18169.96697875638
 21
5734.362935220168
 31
0.0
  0
LINE
  5
4DAE
330
19
100
AcDbEntity
  8
1
100
AcDbLine
 10
18571.56627709695
 20
5741.362935220169
 30
0.0
 11
18552.76627709694
 21
5760.162935220169
 31
0.0
  0
LINE
  5
4DB0
330
19
100
AcDbEntity
  8
1
100
AcDbLine
 10
18503.26627709694
 20
5734.362935220168
 30
0.0
 11
18475.56557543751
 21
5734.362935220168
 31
0.0
  0
LINE
  5
4DB1
330
19
100
AcDbEntity
  8
1
100
AcDbLine
 10
18572.76627709694
 20
5741.362935220169
 30
0.0
 11
18322.76627709695
 21
5741.362935220169
 31
0.0
  0
LWPOLYLINE
  5
4DB2
330
19
100
AcDbEntity
  8
1
100
AcDbPolyline
 90
        3
 70
     0
 43
0.0
 10
18504.26627709694
 20
5733.362935220169
 10
18322.76627709694
 20
5733.362935220169
 10
18302.43597431712
 20
5733.362935220169
  0
LINE
  5
4DB3
330
19
100
AcDbEntity
  8
1
100
AcDbLine
 10
18337.36617709694
 20
5718.090614653588
 30
0.0
 11
18337.36617709694
 21
5741.362935220169
 31
0.0
  0
LINE
  5
4DB4
330
19
100
AcDbEntity
  8
1
100
AcDbLine
 10
18308.16627709694
 20
5718.090614653588
 30
0.0
 11
18308.16627709694
 21
5741.362935220172
 31
0.0
  0
LINE
  5
4DB5
330
19
100
AcDbEntity
  8
1
100
AcDbLine
 10
18407.76627709694
 20
5691.362935220169
 30
0.0
 11
18407.76627709694
 21
5709.090614653588
 31
0.0
  0
LINE
  5
4DB6
330
19
100
AcDbEntity
  8
1
100
AcDbLine
 10
18407.76627709694
 20
5694.362935220169
 30
0.0
 11
18407.76627709694
 21
5691.362935220169
 31
0.0
  0
LINE
  5
4DB7
330
19
100
AcDbEntity
  8
1
100
AcDbLine
 10
18422.76627709694
 20
5682.702635220169
 30
0.0
 11
18407.76627709694
 21
5691.362935220169
 31
0.0
  0
ARC
  5
4DB8
330
19
100
AcDbEntity
  8
1
100
AcDbCircle
 10
18502.42085728493
 20
5774.936788372067
 30
0.0
 40
48.65638419258441
100
AcDbArc
 50
223.6316512768359
 51
236.4999663347355
  0
ARC
  5
4DB9
330
19
100
AcDbEntity
  8
1
100
AcDbCircle
 10
18404.76637709694
 20
5709.090614653588
 30
0.0
 40
2.999899999999999
100
AcDbArc
 50
359.9988000000029
 51
90.00120000000034
  0
LINE
  5
4DBA
330
19
100
AcDbEntity
  8
1
100
AcDbLine
 10
18362.76627709694
 20
5712.090614653588
 30
0.0
 11
18362.76627709694
 21
5715.090614653588
 31
0.0
  0
ARC
  5
4DBB
330
19
100
AcDbEntity
  8
1
100
AcDbCircle
 10
18359.76627709694
 20
5715.090614653588
 30
0.0
 40
2.999899999999999
100
AcDbArc
 50
359.9988000000029
 51
90.00120000000034
  0
LINE
  5
4DBD
330
19
100
AcDbEntity
  8
1
100
AcDbLine
 10
18572.76627709694
 20
5721.362935220168
 30
0.0
 11
18571.56627709695
 21
5721.362935220168
 31
0.0
1001
ACAD
1000
ASC_BOUNDS
1002
{
1070
    19
1002
}
  0
ARC
  5
4DC1
330
19
100
AcDbEntity
  8
1
100
AcDbCircle
 10
18506.26627709694
 20
5740.362935220169
 30
0.0
 40
1.0
100
AcDbArc
 50
90.0
 51
180.0
  0
LINE
  5
4DC2
330
19
100
AcDbEntity
  8
1
100
AcDbLine
 10
18505.26627709694
 20
5740.362935220169
 30
0.0
 11
18505.26627709694
 21
5734.362935220168
 31
0.0
  0
LINE
  5
4DC3
330
19
100
AcDbEntity
  8
1
100
AcDbLine
 10
18504.26627709694
 20
5741.362935220169
 30
0.0
 11
18504.26627709694
 21
5735.362935220169
 31
0.0
  0
ARC
  5
4DC4
330
19
100
AcDbEntity
  8
1
100
AcDbCircle
 10
18504.26627709694
 20
5734.362935220168
 30
0.0
 40
1.0
100
AcDbArc
 50
270.0
 51
0.0
  0
ARC
  5
4DC5
330
19
100
AcDbEntity
  8
1
100
AcDbCircle
 10
18503.26627709694
 20
5735.362935220169
 30
0.0
 40
1.0
100
AcDbArc
 50
270.0
 51
0.0
  0
ARC
  5
4DC6
330
19
100
AcDbEntity
  8
1
100
AcDbCircle
 10
18504.26627709694
 20
5734.362935220168
 30
0.0
 40
1.0
100
AcDbArc
 50
270.0
 51
0.0
  0
LWPOLYLINE
  5
4DC7
330
19
100
AcDbEntity
  8
1
100
AcDbPolyline
 90
        2
 70
     0
 43
0.0
 10
18302.43597431712
 20
5975.362935220169
 10
18141.26627709694
 20
5975.362935220169
  0
LINE
  5
4DC8
330
19
100
AcDbEntity
  8
1
100
AcDbLine
 10
18322.76627709694
 20
5967.362935220167
 30
0.0
 11
18073.76627709694
 21
5967.362935220169
 31
0.0
  0
ARC
  5
4DC9
330
19
100
AcDbEntity
  8
1
100
AcDbCircle
 10
18073.76627709694
 20
5952.362935220168
 30
0.0
 40
15.0
100
AcDbArc
 50
90.0
 51
180.0
  0
LINE
  5
4DCA
330
19
100
AcDbEntity
  8
1
100
AcDbLine
 10
18142.26627709695
 20
5974.36293522017
 30
0.0
 11
18169.96697875638
 21
5974.362935220169
 31
0.0
  0
ARC
  5
4DCB
330
19
100
AcDbEntity
  8
1
100
AcDbCircle
 10
18139.26627709695
 20
5968.362935220169
 30
0.0
 40
1.0
100
AcDbArc
 50
270.0
 51
0.0
  0
LINE
  5
4DCC
330
19
100
AcDbEntity
  8
1
100
AcDbLine
 10
18140.26627709695
 20
5968.362935220169
 30
0.0
 11
18140.26627709695
 21
5974.36293522017
 31
0.0
  0
LINE
  5
4DCD
330
19
100
AcDbEntity
  8
1
100
AcDbLine
 10
18141.26627709694
 20
5967.362935220171
 30
0.0
 11
18141.26627709694
 21
5973.362935220171
 31
0.0
  0
ARC
  5
4DCE
330
19
100
AcDbEntity
  8
1
100
AcDbCircle
 10
18141.26627709694
 20
5974.362935220169
 30
0.0
 40
1.0
100
AcDbArc
 50
90.00000000000003
 51
180.0
  0
ARC
  5
4DCF
330
19
100
AcDbEntity
  8
1
100
AcDbCircle
 10
18142.26627709695
 20
5973.362935220169
 30
0.0
 40
1.0
100
AcDbArc
 50
90.00000000000003
 51
180.0
  0
ARC
  5
4DD0
330
19
100
AcDbEntity
  8
1
100
AcDbCircle
 10
18143.11169690896
 20
5933.789082068271
 30
0.0
 40
48.65638419258441
100
AcDbArc
 50
43.63165127683587
 51
56.49996633473549
  0
LWPOLYLINE
  5
4DD1
330
19
100
AcDbEntity
  8
1
100
AcDbPolyline
 90
        3
 70
     0
 43
0.0
 10
18504.26627709694
 20
5975.362935220169
 10
18322.76627709694
 20
5975.362935220169
 10
18302.43597431712
 20
5975.362935220169
  0
LINE
  5
4DD2
330
19
100
AcDbEntity
  8
1
100
AcDbLine
 10
18503.26627709694
 20
5974.362935220169
 30
0.0
 11
18475.56557543751
 21
5974.362935220169
 31
0.0
  0
LINE
  5
4DD3
330
19
100
AcDbEntity
  8
1
100
AcDbLine
 10
18572.76627709694
 20
5967.362935220169
 30
0.0
 11
18322.76627709694
 21
5967.362935220169
 31
0.0
  0
ARC
  5
4DD4
330
19
100
AcDbEntity
  8
1
100
AcDbCircle
 10
18502.42085728493
 20
5933.789082068271
 30
0.0
 40
48.65638419258441
100
AcDbArc
 50
123.5000336652645
 51
136.3683487231641
  0
ARC
  5
4DD5
330
19
100
AcDbEntity
  8
1
100
AcDbCircle
 10
18504.26627709694
 20
5974.362935220169
 30
0.0
 40
1.0
100
AcDbArc
 50
0.0
 51
90.00000000000003
  0
ARC
  5
4DD6
330
19
100
AcDbEntity
  8
1
100
AcDbCircle
 10
18503.26627709694
 20
5973.362935220169
 30
0.0
 40
1.0
100
AcDbArc
 50
0.0
 51
90.00000000000003
  0
ARC
  5
4DD7
330
19
100
AcDbEntity
  8
1
100
AcDbCircle
 10
18504.26627709694
 20
5974.362935220169
 30
0.0
 40
1.0
100
AcDbArc
 50
0.0
 51
90.00000000000003
  0
LINE
  5
4DD8
330
19
100
AcDbEntity
  8
1
100
AcDbLine
 10
18504.26627709694
 20
5967.362935220169
 30
0.0
 11
18504.26627709694
 21
5973.362935220169
 31
0.0
  0
LINE
  5
4DD9
330
19
100
AcDbEntity
  8
1
100
AcDbLine
 10
18505.26627709694
 20
5968.362935220169
 30
0.0
 11
18505.26627709694
 21
5974.362935220169
 31
0.0
  0
ARC
  5
4DDA
330
19
100
AcDbEntity
  8
1
100
AcDbCircle
 10
18506.26627709694
 20
5968.362935220169
 30
0.0
 40
1.0
100
AcDbArc
 50
180.0
 51
270.0
  0
LINE
  5
4DDB
330
19
100
AcDbEntity
  8
1
100
AcDbLine
 10
18572.76627709694
 20
5987.362935220168
 30
0.0
 11
18571.56627709695
 21
5987.362935220168
 31
0.0
1001
ACAD
1000
ASC_BOUNDS
1002
{
1070
    19
1002
}
  0
LINE
  5
4DDC
330
19
100
AcDbEntity
  8
1
100
AcDbLine
 10
18571.56627709695
 20
5967.362935220169
 30
0.0
 11
18552.76627709694
 21
5948.56293522017
 31
0.0
  0
LINE
  5
5842
330
19
100
AcDbEntity
  8
FUTO
100
AcDbLine
 10
18072.76627709696
 20
4147.635294509082
 30
0.0
 11
18572.76627709694
 21
4147.635294509082
 31
0.0
  0
LINE
  5
5843
330
19
100
AcDbEntity
  8
1
100
AcDbLine
 10
18072.76627709696
 20
4149.935294509081
 30
0.0
 11
18110.46627709696
 21
4149.935294509081
 31
0.0
  0
LINE
  5
5844
330
19
100
AcDbEntity
  8
1
100
AcDbLine
 10
18072.76627709696
 20
4149.935294509081
 30
0.0
 11
18072.76627709696
 21
4147.635294509082
 31
0.0
  0
LINE
  5
5845
330
19
100
AcDbEntity
  8
2
100
AcDbLine
 10
18090.76627709695
 20
4138.731282845248
 30
0.0
 11
18090.76627709695
 21
4161.139306172914
 31
0.0
  0
LINE
  5
5846
330
19
100
AcDbEntity
  8
1
100
AcDbLine
 10
18572.76627709694
 20
4149.935294509081
 30
0.0
 11
18535.06627709694
 21
4149.935294509081
 31
0.0
  0
LINE
  5
5847
330
19
100
AcDbEntity
  8
1
100
AcDbLine
 10
18572.76627709694
 20
4149.935294509081
 30
0.0
 11
18572.76627709694
 21
4147.635294509082
 31
0.0
  0
LINE
  5
5848
330
19
100
AcDbEntity
  8
2
100
AcDbLine
 10
18554.76627709695
 20
4138.731282845248
 30
0.0
 11
18554.76627709695
 21
4161.139306172914
 31
0.0
  0
LINE
  5
5849
330
19
100
AcDbEntity
  8
1
100
AcDbLine
 10
18535.06627709694
 20
4585.735294509082
 30
0.0
 11
18535.06627709694
 21
4149.93529450908
 31
0.0
  0
LINE
  5
584A
330
19
100
AcDbEntity
  8
1
100
AcDbLine
 10
18532.76627709694
 20
4587.557616667709
 30
0.0
 11
18532.76627709694
 21
4147.635294509082
 31
0.0
  0
LINE
  5
584B
330
19
100
AcDbEntity
  8
1
100
AcDbLine
 10
18492.76627709694
 20
4402.635294509082
 30
0.0
 11
18492.76627709694
 21
4202.635294509081
 31
0.0
  0
LINE
  5
584C
330
19
100
AcDbEntity
  8
1
100
AcDbLine
 10
18532.76627709694
 20
4202.635294509081
 30
0.0
 11
18492.76627709694
 21
4202.635294509081
 31
0.0
  0
LINE
  5
584D
330
19
100
AcDbEntity
  8
1
100
AcDbLine
 10
18112.76627709696
 20
4587.557616667709
 30
0.0
 11
18112.76627709696
 21
4147.635294509082
 31
0.0
  0
LINE
  5
584E
330
19
100
AcDbEntity
  8
1
100
AcDbLine
 10
18110.46627709696
 20
4585.735294509082
 30
0.0
 11
18110.46627709696
 21
4149.93529450908
 31
0.0
  0
LINE
  5
584F
330
19
100
AcDbEntity
  8
1
100
AcDbLine
 10
18152.76627709696
 20
4402.635294509082
 30
0.0
 11
18152.76627709696
 21
4202.635294509081
 31
0.0
  0
LINE
  5
5850
330
19
100
AcDbEntity
  8
1
100
AcDbLine
 10
18112.76627709696
 20
4202.635294509081
 30
0.0
 11
18152.76627709696
 21
4202.635294509081
 31
0.0
  0
LINE
  5
5851
330
19
100
AcDbEntity
  8
1
100
AcDbLine
 10
18112.76627709696
 20
4402.635294509082
 30
0.0
 11
18532.76627709694
 21
4402.635294509081
 31
0.0
  0
LINE
  5
5852
330
19
100
AcDbEntity
  8
1
100
AcDbLine
 10
18152.76627709696
 20
4362.635294509082
 30
0.0
 11
18322.76627709695
 21
4362.635294509082
 31
0.0
  0
LINE
  5
5853
330
19
100
AcDbEntity
  8
FUTO
100
AcDbLine
 10
18112.76627709696
 20
4402.635294509082
 30
0.0
 11
18152.76627709696
 21
4362.635294509082
 31
0.0
  0
LINE
  5
5854
330
19
100
AcDbEntity
  8
FUTO
100
AcDbLine
 10
18532.76627709694
 20
4402.635294509082
 30
0.0
 11
18492.76627709694
 21
4362.635294509082
 31
0.0
  0
LINE
  5
5855
330
19
100
AcDbEntity
  8
1
100
AcDbLine
 10
18492.76627709694
 20
4362.635294509082
 30
0.0
 11
18322.76627709695
 21
4362.635294509082
 31
0.0
  0
LINE
  5
5856
330
19
100
AcDbEntity
  8
1
100
AcDbLine
 10
18412.76627709694
 20
4707.635294509082
 30
0.0
 11
18535.06627709694
 21
4585.735294509082
 31
0.0
  0
LINE
  5
5857
330
19
100
AcDbEntity
  8
1
100
AcDbLine
 10
18232.76627709694
 20
4707.635294509082
 30
0.0
 11
18110.46627709696
 21
4585.735294509082
 31
0.0
  0
LINE
  5
5858
330
19
100
AcDbEntity
  8
1
100
AcDbLine
 10
18232.76627709694
 20
4707.635294509084
 30
0.0
 11
18412.76627709694
 21
4707.635294509082
 31
0.0
  0
DIMENSION
  5
5859
330
19
100
AcDbEntity
  8
SP
100
AcDbDimension
  2
*D18
 10
18072.76627709696
 20
4042.635294509084
 30
0.0
 11
18197.76627709695
 21
4080.135294509084
 31
0.0
 70
    32
 71
     5
 42
249.9999999999927
  3
GOD
100
AcDbAlignedDimension
 13
18322.76627709695
 23
4117.479113442421
 33
0.0
 14
18072.76627709696
 24
4147.635294509082
 34
0.0
100
AcDbRotatedDimension
  0
DIMENSION
  5
585A
330
19
100
AcDbEntity
  8
SP
100
AcDbDimension
  2
*D19
 10
18572.76627709695
 20
3937.635294509082
 30
0.0
 11
18322.76627709695
 21
3975.135294509082
 31
0.0
 70
    32
 71
     5
 42
499.9999999999963
  3
GOD
100
AcDbAlignedDimension
 13
18072.76627709696
 23
4147.635294509082
 33
0.0
 14
18572.76627709695
 24
4147.635294509082
 34
0.0
100
AcDbRotatedDimension
  0
DIMENSION
  5
585B
330
19
100
AcDbEntity
  8
SP
100
AcDbDimension
  2
*D20
 10
18572.76627709695
 20
4042.635294509084
 30
0.0
 11
18447.76627709695
 21
4080.135294509084
 31
0.0
 70
    32
 71
     5
 42
250.0000000000036
  3
GOD
100
AcDbAlignedDimension
 13
18322.76627709695
 23
4117.479113442421
 33
0.0
 14
18572.76627709695
 24
4147.635294509082
 34
0.0
100
AcDbRotatedDimension
  0
LINE
  5
599C
330
19
100
AcDbEntity
  8
1
100
AcDbLine
 10
18072.76627709694
 20
5422.362935220169
 30
0.0
 11
18072.76627709694
 21
5732.36293522018
 31
0.0
  0
LINE
  5
599D
330
19
100
AcDbEntity
  8
1
100
AcDbLine
 10
18112.76627709694
 20
5422.362935220169
 30
0.0
 11
18112.76627709694
 21
5732.36293522018
 31
0.0
  0
LINE
  5
599E
330
19
100
AcDbEntity
  8
1
100
AcDbLine
 10
18112.76627709694
 20
5732.36293522018
 30
0.0
 11
18072.76627709694
 21
5732.36293522018
 31
0.0
  0
LINE
  5
599F
330
19
100
AcDbEntity
  8
CT
100
AcDbLine
 10
18075.0739889003
 20
5702.362935220168
 30
0.0
 11
18105.76627709694
 21
5702.362935220168
 31
0.0
  0
CIRCLE
  5
59A0
330
19
100
AcDbEntity
  8
1
100
AcDbCircle
 10
18090.76627709694
 20
5702.362935220168
 30
0.0
 40
6.0
  0
LINE
  5
59A1
330
19
100
AcDbEntity
  8
CT
100
AcDbLine
 10
18090.76627709694
 20
5718.497643102718
 30
0.0
 11
18090.76627709694
 21
5682.830563598277
 31
0.0
  0
LWPOLYLINE
  5
59A2
330
19
100
AcDbEntity
  8
1
100
AcDbPolyline
 90
        2
 70
     0
 43
0.0
 10
18112.76627709694
 20
5722.866971870885
 10
18308.16627709694
 20
5722.866971870885
  0
LWPOLYLINE
  5
59A3
330
19
100
AcDbEntity
  8
1
100
AcDbPolyline
 90
        2
 70
     0
 43
0.0
 10
18112.76627709694
 20
5470.762935220171
 10
18229.03027038367
 20
5470.762935220171
  0
LINE
  5
59A4
330
19
100
AcDbEntity
  8
CT
100
AcDbLine
 10
18090.76627709694
 20
5468.497643102718
 30
0.0
 11
18090.76627709694
 21
5432.830563598277
 31
0.0
  0
LINE
  5
59A5
330
19
100
AcDbEntity
  8
1
100
AcDbLine
 10
18072.76627709694
 20
5422.362935220169
 30
0.0
 11
18112.76627709694
 21
5422.362935220169
 31
0.0
  0
CIRCLE
  5
59A6
330
19
100
AcDbEntity
  8
1
100
AcDbCircle
 10
18090.76627709694
 20
5452.362935220168
 30
0.0
 40
6.0
  0
LINE
  5
59A7
330
19
100
AcDbEntity
  8
CT
100
AcDbLine
 10
18075.0739889003
 20
5452.362935220168
 30
0.0
 11
18105.76627709694
 21
5452.362935220168
 31
0.0
  0
LWPOLYLINE
  5
59A8
330
19
100
AcDbEntity
  8
1
100
AcDbPolyline
 90
        2
 70
     0
 43
0.0
 10
18416.50228381021
 20
5470.762935220171
 10
18532.76627709694
 20
5470.762935220168
  0
LINE
  5
59A9
330
19
100
AcDbEntity
  8
CT
100
AcDbLine
 10
18554.76627709694
 20
5468.497643102718
 30
0.0
 11
18554.76627709694
 21
5432.830563598277
 31
0.0
  0
LINE
  5
59AA
330
19
100
AcDbEntity
  8
1
100
AcDbLine
 10
18532.76627709694
 20
5422.362935220172
 30
0.0
 11
18572.76627709694
 21
5422.362935220169
 31
0.0
  0
LINE
  5
59AB
330
19
100
AcDbEntity
  8
CT
100
AcDbLine
 10
18570.45856529358
 20
5452.362935220168
 30
0.0
 11
18539.76627709694
 21
5452.362935220168
 31
0.0
  0
CIRCLE
  5
59AC
330
19
100
AcDbEntity
  8
1
100
AcDbCircle
 10
18554.76627709694
 20
5452.362935220168
 30
0.0
 40
6.0
  0
LINE
  5
59AD
330
19
100
AcDbEntity
  8
1
100
AcDbLine
 10
18572.76627709694
 20
5422.362935220169
 30
0.0
 11
18572.76627709694
 21
5732.362935220169
 31
0.0
  0
LINE
  5
59AE
330
19
100
AcDbEntity
  8
1
100
AcDbLine
 10
18532.76627709694
 20
5422.362935220169
 30
0.0
 11
18532.76627709694
 21
5732.362935220169
 31
0.0
  0
CIRCLE
  5
59AF
330
19
100
AcDbEntity
  8
1
100
AcDbCircle
 10
18554.76627709694
 20
5702.362935220168
 30
0.0
 40
6.0
  0
LINE
  5
59B0
330
19
100
AcDbEntity
  8
CT
100
AcDbLine
 10
18554.76627709694
 20
5718.497643102718
 30
0.0
 11
18554.76627709694
 21
5682.830563598277
 31
0.0
  0
LINE
  5
59B1
330
19
100
AcDbEntity
  8
FUTO
100
AcDbLine
 10
18532.76627709694
 20
5732.362935220169
 30
0.0
 11
18572.76627709694
 21
5732.362935220169
 31
0.0
  0
LWPOLYLINE
  5
59B2
330
19
100
AcDbEntity
  8
1
100
AcDbPolyline
 90
        2
 70
     0
 43
0.0
 10
18337.36617709694
 20
5722.866971870885
 10
18532.76627709694
 20
5722.866971870885
  0
LINE
  5
59B3
330
19
100
AcDbEntity
  8
CT
100
AcDbLine
 10
18570.45856529358
 20
5702.362935220168
 30
0.0
 11
18539.76627709694
 21
5702.362935220168
 31
0.0
  0
LWPOLYLINE
  5
59E3
330
19
100
AcDbEntity
  8
1
100
AcDbPolyline
 90
        3
 70
     0
 43
0.0
 10
19781.61370464045
 20
4684.135294509081
 10
19781.61370464045
 20
4502.635294509081
 10
19781.61370464045
 20
4321.135294509082
  0
LINE
  5
59E4
330
19
100
AcDbEntity
  8
1
100
AcDbLine
 10
19774.61370464045
 20
4320.135294509083
 30
0.0
 11
19780.61370464045
 21
4320.135294509083
 31
0.0
  0
ARC
  5
59E5
330
19
100
AcDbEntity
  8
1
100
AcDbCircle
 10
19774.61370464045
 20
4319.135294509082
 30
0.0
 40
1.0
100
AcDbArc
 50
90.0
 51
180.0
  0
ARC
  5
59E6
330
19
100
AcDbEntity
  8
1
100
AcDbCircle
 10
19780.61370464045
 20
4321.135294509082
 30
0.0
 40
1.0
100
AcDbArc
 50
270.0
 51
0.0
  0
LINE
  5
59E7
330
19
100
AcDbEntity
  8
FUTO
100
AcDbLine
 10
19781.61370464045
 20
4345.13529450908
 30
0.0
 11
19773.61370464045
 21
4345.13529450908
 31
0.0
  0
LINE
  5
59E8
330
19
100
AcDbEntity
  8
FUTO
100
AcDbLine
 10
19781.61370464045
 20
4660.135294509079
 30
0.0
 11
19773.61370464045
 21
4660.135294509079
 31
0.0
  0
LINE
  5
59E9
330
19
100
AcDbEntity
  8
1
100
AcDbLine
 10
19774.61370464045
 20
4685.13529450908
 30
0.0
 11
19780.61370464045
 21
4685.13529450908
 31
0.0
  0
ARC
  5
59EA
330
19
100
AcDbEntity
  8
1
100
AcDbCircle
 10
19774.61370464045
 20
4686.13529450908
 30
0.0
 40
1.0
100
AcDbArc
 50
180.0
 51
270.0
  0
ARC
  5
59EB
330
19
100
AcDbEntity
  8
1
100
AcDbCircle
 10
19780.61370464045
 20
4684.13529450908
 30
0.0
 40
1.0
100
AcDbArc
 50
0.0
 51
90.0
  0
LINE
  5
59EC
330
19
100
AcDbEntity
  8
FUTO
100
AcDbLine
 10
19563.61370464045
 20
4725.922514625555
 30
0.0
 11
19757.61370464045
 21
4725.922514625554
 31
0.0
  0
LINE
  5
59ED
330
19
100
AcDbEntity
  8
1
100
AcDbLine
 10
19773.61370464045
 20
4709.922514625554
 30
0.0
 11
19773.61370464045
 21
4523.813219867592
 31
0.0
  0
ARC
  5
59EE
330
19
100
AcDbEntity
  8
FUTO
100
AcDbCircle
 10
19757.61370464045
 20
4709.922514625554
 30
0.0
 40
16.0
100
AcDbArc
 50
0.0000000000010178
 51
89.99999999999971
  0
ARC
  5
59EF
330
19
100
AcDbEntity
  8
FUTO
100
AcDbCircle
 10
19563.61370464045
 20
4709.922514625555
 30
0.0
 40
16.0
100
AcDbArc
 50
90.0
 51
180.0000000000002
  0
LINE
  5
59F0
330
19
100
AcDbEntity
  8
1
100
AcDbLine
 10
19547.61370464045
 20
4709.922514625555
 30
0.0
 11
19547.61370464045
 21
4523.813219867591
 31
0.0
  0
LINE
  5
5B31
330
19
100
AcDbEntity
  8
1
100
AcDbLine
 10
19538.61370464045
 20
4697.95340534661
 30
0.0
 11
19357.0517214325
 21
4502.635294509079
 31
0.0
  0
LINE
  5
5B56
330
19
100
AcDbEntity
  8
1
100
AcDbLine
 10
19539.61370464045
 20
4684.135294509078
 30
0.0
 11
19539.61370464045
 21
4520.489451013148
 31
0.0
  0
DIMENSION
  5
5B57
330
19
100
AcDbEntity
  8
SP
100
AcDbDimension
  2
*D27
 10
19239.61370464045
 20
4934.922514625554
 30
0.0
 11
19450.11370464045
 21
4984.208228911269
 31
0.0
 70
    32
  1
(420)
 71
     5
 42
421.0
  3
GOD
100
AcDbAlignedDimension
 13
19660.61370464045
 23
4899.89786701067
 33
0.0
 14
19239.61370464045
 24
4586.21619450908
 34
0.0
100
AcDbRotatedDimension
1001
ACAD
1000
DSTYLE
1002
{
1070
   279
1070
     1
1002
}
  0
DIMENSION
  5
5B64
330
19
100
AcDbEntity
  8
SP
100
AcDbDimension
  2
*D28
 10
19660.61370464045
 20
3937.635294509082
 30
0.0
 11
19783.88089851132
 21
3930.660420333629
 31
0.0
 70
   160
 71
     5
 42
122.0
  3
GOD
100
AcDbAlignedDimension
 13
19538.61370464045
 23
4150.83529450908
 33
0.0
 14
19660.61370464045
 24
4112.209413630673
 34
0.0
100
AcDbRotatedDimension
1001
ACAD
1000
DSTYLE
1002
{
1070
   279
1070
     1
1002
}
  0
ENDSEC
  0
SECTION
  2
OBJECTS
  0
DICTIONARY
  5
C
330
0
100
AcDbDictionary
281
     1
  3
ACAD_CIP_PREVIOUS_PRODUCT_INFO
350
5A5F
  3
ACAD_COLOR
350
5A41
  3
ACAD_DETAILVIEWSTYLE
350
5A5A
  3
ACAD_GROUP
350
D
  3
ACAD_LAYOUT
350
1E92
  3
ACAD_MATERIAL
350
5A0F
  3
ACAD_MLEADERSTYLE
350
5A56
  3
ACAD_MLINESTYLE
350
E
  3
ACAD_PLOTSETTINGS
350
1E93
  3
ACAD_PLOTSTYLENAME
350
1E90
  3
ACAD_SCALELIST
350
5A44
  3
ACAD_SECTIONVIEWSTYLE
350
5A58
  3
ACAD_TABLESTYLE
350
5A42
  3
ACAD_VISUALSTYLE
350
5A28
  3
AcadDim
350
1EC5
  3
ACDB_RECOMPOSE_DATA
350
5C04
  3
AcDbVariableDictionary
350
5BEE
  3
AcDsDecomposeData
350
5C0B
  3
DWGPROPS
350
5C05
  0
DICTIONARY
  5
5BBE
330
2
100
AcDbDictionary
280
     1
281
     1
  3
ACAD_LAYERSTATES
360
5BBF
  0
DICTIONARY
  5
5BA3
330
F
100
AcDbDictionary
280
     1
281
     1
  3
ADSK_XREC_LAYER_RECONCILED
360
5BA4
  0
DICTIONARY
  5
5BA5
330
2F
100
AcDbDictionary
280
     1
281
     1
  3
ADSK_XREC_LAYER_RECONCILED
360
5BA6
  0
DICTIONARY
  5
5BA7
330
30
100
AcDbDictionary
280
     1
281
     1
  3
ADSK_XREC_LAYER_RECONCILED
360
5BA8
  0
DICTIONARY
  5
5BA9
330
32
100
AcDbDictionary
280
     1
281
     1
  3
ADSK_XREC_LAYER_RECONCILED
360
5BAA
  0
DICTIONARY
  5
5BAB
330
33
100
AcDbDictionary
280
     1
281
     1
  3
ADSK_XREC_LAYER_RECONCILED
360
5BAC
  0
DICTIONARY
  5
5BAD
330
34
100
AcDbDictionary
280
     1
281
     1
  3
ADSK_XREC_LAYER_RECONCILED
360
5BAE
  0
DICTIONARY
  5
5BAF
330
35
100
AcDbDictionary
280
     1
281
     1
  3
ADSK_XREC_LAYER_RECONCILED
360
5BB0
  0
DICTIONARY
  5
5BB1
330
36
100
AcDbDictionary
280
     1
281
     1
  3
ADSK_XREC_LAYER_RECONCILED
360
5BB2
  0
DICTIONARY
  5
5BB3
330
1EEE
100
AcDbDictionary
280
     1
281
     1
  3
ADSK_XREC_LAYER_RECONCILED
360
5BB4
  0
DICTIONARY
  5
5BB5
330
1EEF
100
AcDbDictionary
280
     1
281
     1
  3
ADSK_XREC_LAYER_RECONCILED
360
5BB6
  0
DICTIONARY
  5
5BB7
330
1EF0
100
AcDbDictionary
280
     1
281
     1
  3
ADSK_XREC_LAYER_RECONCILED
360
5BB8
  0
DICTIONARY
  5
5BB9
330
2188
100
AcDbDictionary
280
     1
281
     1
  3
ADSK_XREC_LAYER_RECONCILED
360
5BBA
  0
DICTIONARY
  5
5B32
330
19
100
AcDbDictionary
280
     1
281
     1
  3
ACAD_SORTENTS
360
5B33
  0
XRECORD
  5
5A5F
102
{ACAD_REACTORS
330
C
102
}
330
C
100
AcDbXrecord
280
     1
300
ACDLT
300
2015
300
INVLTS_F_S
  0
DICTIONARY
  5
5A41
102
{ACAD_REACTORS
330
C
102
}
330
C
100
AcDbDictionary
281
     1
  0
DICTIONARY
  5
5A5A
102
{ACAD_REACTORS
330
C
102
}
330
C
100
AcDbDictionary
281
     1
  3
Metric50
350
5A5B
  0
DICTIONARY
  5
D
102
{ACAD_REACTORS
330
C
102
}
330
C
100
AcDbDictionary
281
     1
  0
DICTIONARY
  5
1E92
102
{ACAD_REACTORS
330
C
102
}
330
C
100
AcDbDictionary
281
     1
  3
Model
350
1E94
  3
ﾚｲｱｳﾄ1
350
1E95
  0
DICTIONARY
  5
5A0F
102
{ACAD_REACTORS
330
C
102
}
330
C
100
AcDbDictionary
281
     1
  3
ByBlock
350
5A18
  3
ByLayer
350
5A10
  3
Global
350
5A20
  0
DICTIONARY
  5
5A56
102
{ACAD_REACTORS
330
C
102
}
330
C
100
AcDbDictionary
281
     1
  3
Standard
350
5A57
  0
DICTIONARY
  5
E
102
{ACAD_REACTORS
330
C
102
}
330
C
100
AcDbDictionary
281
     1
  3
STANDARD
350
1C
  0
DICTIONARY
  5
1E93
102
{ACAD_REACTORS
330
C
102
}
330
C
100
AcDbDictionary
281
     1
  0
ACDBDICTIONARYWDFLT
  5
1E90
102
{ACAD_REACTORS
330
C
102
}
330
C
100
AcDbDictionary
281
     1
  3
Normal
350
1E91
100
AcDbDictionaryWithDefault
340
1E91
  0
DICTIONARY
  5
5A44
102
{ACAD_REACTORS
330
C
102
}
330
C
100
AcDbDictionary
281
     1
  3
A0
350
5A45
  3
A1
350
5A46
  3
A2
350
5A47
  3
A3
350
5A48
  3
A4
350
5A49
  3
A5
350
5A4A
  3
A6
350
5A4B
  3
A7
350
5A4C
  3
A8
350
5A4D
  3
A9
350
5A4E
  3
B0
350
5A4F
  3
B1
350
5A50
  3
B2
350
5A51
  3
B3
350
5A52
  3
B4
350
5A53
  3
B5
350
5A54
  3
B6
350
5A55
  0
DICTIONARY
  5
5A58
102
{ACAD_REACTORS
330
C
102
}
330
C
100
AcDbDictionary
281
     1
  3
Metric50
350
5A59
  0
DICTIONARY
  5
5A42
102
{ACAD_REACTORS
330
C
102
}
330
C
100
AcDbDictionary
281
     1
  3
Standard
350
5A43
  0
DICTIONARY
  5
5A28
102
{ACAD_REACTORS
330
C
102
}
330
C
100
AcDbDictionary
281
     1
  3
2dWireframe
350
5A2E
  3
Basic
350
5A2D
  3
Brighten
350
5A34
  3
ColorChange
350
5A38
  3
Conceptual
350
5A31
  3
Dim
350
5A33
  3
EdgeColorOff
350
5A40
  3
Facepattern
350
5A37
  3
Flat
350
5A29
  3
FlatWithEdges
350
5A2A
  3
Gouraud
350
5A2B
  3
GouraudWithEdges
350
5A2C
  3
Hidden
350
5A30
  3
JitterOff
350
5A3E
  3
Linepattern
350
5A36
  3
OverhangOff
350
5A3F
  3
Realistic
350
5A32
  3
Shaded
350
5A3D
  3
Shaded with edges
350
5A3C
  3
Shades of Gray
350
5A39
  3
Sketchy
350
5A3A
  3
Thicken
350
5A35
  3
Wireframe
350
5A2F
  3
X-Ray
350
5A3B
  0
XRECORD
  5
1EC5
102
{ACAD_REACTORS
330
C
102
}
330
C
100
AcDbXrecord
280
     1
 90
   990106
  3

 60
     0
 61
     0
 62
     4
 63
     4
 64
     1
 65
     0
 66
     1
 67
     3
 68
     1
 69
     0
 70
     0
 71
     0
 72
     0
 40
0.0
170
     1
340
0
  0
XRECORD
  5
5C04
102
{ACAD_REACTORS
330
C
102
}
330
C
100
AcDbXrecord
280
     1
 90
        1
330
5A43
  0
DICTIONARY
  5
5BEE
102
{ACAD_REACTORS
330
C
102
}
330
C
100
AcDbDictionary
281
     1
  3
CANNOSCALE
350
5BF4
  3
CMLEADERSTYLE
350
5BF0
  3
CTABLESTYLE
350
5BEF
  3
CVIEWDETAILSTYLE
350
5BF1
  3
CVIEWSECTIONSTYLE
350
5BF2
  3
DIMASSOC
350
5C00
  3
INDEXCTL
350
5BFF
  3
LAYEREVAL
350
5BF6
  3
LAYERNOTIFY
350
5BF7
  3
LIGHTINGUNITS
350
5BF5
  3
MSLTSCALE
350
5BF3
  3
SORTENTS
350
5BFE
  3
XCLIPFRAME
350
5C01
  0
DICTIONARY
  5
5C0B
102
{ACAD_REACTORS
330
C
102
}
330
C
100
AcDbDictionary
281
     1
  3
AcDsRecords
350
5C0D
  3
AcDsSchemas
350
5C0C
1001
ACAD
1070
     2
  0
XRECORD
  5
5C05
102
{ACAD_REACTORS
330
C
102
}
330
C
100
AcDbXrecord
280
     1
  1
DWGPROPS COOKIE
  2

  3

  4

  6

  7

  8
toshiyuki.morita
  9

300
=
301
=
302
=
303
=
304
=
305
=
306
=
307
=
308
=
309
=
 40
0.1205557638888889
 41
2454939.604632489
 42
2459353.579935741
  1

 90
        0
  0
DICTIONARY
  5
5BBF
102
{ACAD_REACTORS
330
5BBE
102
}
330
5BBE
100
AcDbDictionary
281
     1
  0
XRECORD
  5
5BA4
102
{ACAD_REACTORS
330
5BA3
102
}
330
5BA3
100
AcDbXrecord
280
     1
290
     1
  0
XRECORD
  5
5BA6
102
{ACAD_REACTORS
330
5BA5
102
}
330
5BA5
100
AcDbXrecord
280
     1
290
     1
  0
XRECORD
  5
5BA8
102
{ACAD_REACTORS
330
5BA7
102
}
330
5BA7
100
AcDbXrecord
280
     1
290
     1
  0
XRECORD
  5
5BAA
102
{ACAD_REACTORS
330
5BA9
102
}
330
5BA9
100
AcDbXrecord
280
     1
290
     1
  0
XRECORD
  5
5BAC
102
{ACAD_REACTORS
330
5BAB
102
}
330
5BAB
100
AcDbXrecord
280
     1
290
     1
  0
XRECORD
  5
5BAE
102
{ACAD_REACTORS
330
5BAD
102
}
330
5BAD
100
AcDbXrecord
280
     1
290
     1
  0
XRECORD
  5
5BB0
102
{ACAD_REACTORS
330
5BAF
102
}
330
5BAF
100
AcDbXrecord
280
     1
290
     1
  0
XRECORD
  5
5BB2
102
{ACAD_REACTORS
330
5BB1
102
}
330
5BB1
100
AcDbXrecord
280
     1
290
     1
  0
XRECORD
  5
5BB4
102
{ACAD_REACTORS
330
5BB3
102
}
330
5BB3
100
AcDbXrecord
280
     1
290
     1
  0
XRECORD
  5
5BB6
102
{ACAD_REACTORS
330
5BB5
102
}
330
5BB5
100
AcDbXrecord
280
     1
290
     1
  0
XRECORD
  5
5BB8
102
{ACAD_REACTORS
330
5BB7
102
}
330
5BB7
100
AcDbXrecord
280
     1
290
     1
  0
XRECORD
  5
5BBA
102
{ACAD_REACTORS
330
5BB9
102
}
330
5BB9
100
AcDbXrecord
280
     1
290
     1
  0
SORTENTSTABLE
  5
5B33
102
{ACAD_REACTORS
330
5B32
102
}
330
5B32
100
AcDbSortentsTable
330
19
331
59E5
  5
59E6
331
585B
  5
599C
331
5B31
  5
46C6
331
5857
  5
5858
331
5853
  5
5854
331
46C7
  5
46C8
331
4845
  5
4A2C
331
4841
  5
4842
331
4DB5
  5
4DB6
331
4D7E
  5
4D7F
331
4DB1
  5
4DB2
331
4DAD
  5
4DAE
331
4D76
  5
4D7D
331
4DA9
  5
4DAA
331
4D72
  5
4D73
331
584F
  5
5850
331
584B
  5
584C
331
5847
  5
5848
331
59B1
  5
59B2
331
5843
  5
5844
331
483D
  5
483E
331
4DA5
  5
4DA6
331
4D6E
  5
4D6F
331
4DA1
  5
4DA2
331
4DDC
  5
5842
331
4DD8
  5
4DD9
331
4D99
  5
4D9A
331
59AD
  5
59AE
331
59A9
  5
59AA
331
59A5
  5
59A6
331
59A1
  5
59A2
331
4DD4
  5
4DD5
331
4DD0
  5
4DD1
331
4DCC
  5
4DCD
331
4D8D
  5
4D92
331
4DC8
  5
4DC9
331
4D89
  5
4D8A
331
59F0
  5
5A61
331
59EC
  5
59ED
331
599D
  5
599E
331
59E8
  5
59E9
331
46CE
  5
46CF
331
46CA
  5
46CB
331
4DC4
  5
4DC5
331
4DB8
  5
4DB9
331
4D81
  5
4D86
331
59E4
  5
59E5
331
585A
  5
585B
331
5856
  5
5857
331
5852
  5
5853
331
46C6
  5
46C7
331
4844
  5
4845
331
4840
  5
4841
331
4DB4
  5
4DB5
331
4D7D
  5
4D7E
331
4DB0
  5
4DB1
331
4DAC
  5
4DAD
331
4D75
  5
4D76
331
4DA8
  5
4DA9
331
4D71
  5
4D72
331
584E
  5
584F
331
584A
  5
584B
331
5846
  5
5847
331
59B0
  5
59B1
331
5842
  5
5843
331
483C
  5
483D
331
476C
  5
483C
331
46E5
  5
46E7
331
4DA4
  5
4DA5
331
4D6D
  5
4D6E
331
4DDB
  5
4DDC
331
4D9C
  5
4DA1
331
4A2D
  5
4D6D
331
4D98
  5
4D99
331
59AC
  5
59AD
331
59A8
  5
59A9
331
59A4
  5
59A5
331
59A0
  5
59A1
331
46D1
  5
46DB
331
4DD7
  5
4DD8
331
4DD3
  5
4DD4
331
4D94
  5
4D96
331
4DCF
  5
4DD0
331
4DCB
  5
4DCC
331
4D88
  5
4D89
331
59EF
  5
59F0
331
59EB
  5
59EC
331
599C
  5
599D
331
46CD
  5
46CE
331
46C9
  5
46CA
331
4DC7
  5
4DC8
331
4DC3
  5
4DC4
331
4DBB
  5
4DBD
331
4D80
  5
4D81
331
59E7
  5
59E8
331
59E3
  5
59E4
331
5859
  5
585A
331
5855
  5
5856
331
5851
  5
5852
331
4843
  5
4844
331
4DB7
  5
4DB8
331
4DB3
  5
4DB4
331
4DAB
  5
4DAC
331
4D74
  5
4D75
331
4D70
  5
4D71
331
584D
  5
584E
331
5849
  5
584A
331
59B3
  5
59E3
331
5845
  5
5846
331
483F
  5
4840
331
476B
  5
476C
331
46E4
  5
46E5
331
4DA7
  5
4DA8
331
4DA3
  5
4DA4
331
4DDA
  5
4DDB
331
4D9B
  5
4D9C
331
4A2C
  5
4A2D
331
59AF
  5
59B0
331
59AB
  5
59AC
331
59A7
  5
59A8
331
59A3
  5
59A4
331
46D0
  5
46D1
331
4DD6
  5
4DD7
331
4D97
  5
4D98
331
4DD2
  5
4DD3
331
4D93
  5
4D94
331
4DCE
  5
4DCF
331
4DCA
  5
4DCB
331
4D8B
  5
4D8D
331
59EE
  5
59EF
331
599F
  5
59A0
331
59EA
  5
59EB
331
46C8
  5
46C9
331
4DC6
  5
4DC7
331
4DC2
  5
4DC3
331
4DBA
  5
4DBB
331
59E6
  5
59E7
331
5858
  5
5859
331
5854
  5
5855
331
5850
  5
5851
331
4842
  5
4843
331
4DB6
  5
4DB7
331
4D7F
  5
4D80
331
4DB2
  5
4DB3
331
4DAE
  5
4DB0
331
4DAA
  5
4DAB
331
4D73
  5
4D74
331
584C
  5
584D
331
5848
  5
5849
331
59B2
  5
59B3
331
5844
  5
5845
331
483E
  5
483F
331
46E7
  5
476B
331
46E3
  5
46E4
331
4DA6
  5
4DA7
331
4D6F
  5
4D70
331
4DA2
  5
4DA3
331
4DD9
  5
4DDA
331
4D9A
  5
4D9B
331
59AE
  5
59AF
331
59AA
  5
59AB
331
59A6
  5
59A7
331
59A2
  5
59A3
331
46DB
  5
46E3
331
4DD5
  5
4DD6
331
4D96
  5
4D97
331
4DD1
  5
4DD2
331
4D92
  5
4D93
331
4DCD
  5
4DCE
331
4DC9
  5
4DCA
331
4D8A
  5
4D8B
331
59ED
  5
59EE
331
599E
  5
599F
331
59E9
  5
59EA
331
46CF
  5
46D0
331
46CB
  5
46CD
331
4DC5
  5
4DC6
331
4DC1
  5
4DC2
331
4DBD
  5
4DC1
331
4D86
  5
4D88
331
4DB9
  5
4DBA
  0
ACDBDETAILVIEWSTYLE
  5
5A5B
102
{ACAD_XDICTIONARY
360
5BEC
102
}
102
{ACAD_REACTORS
330
5A5A
102
}
330
5A5A
100
AcDbModelDocViewStyle
 70
     0
  3
Metric50
290
     0
100
AcDbDetailViewStyle
 70
     0
 71
     0
 90
        3
 71
     1
340
10
 40
5.0
340
0
 40
5.0
300

 40
0.0
280
     1
 71
     2
340
15
 90
       25
 71
     3
340
10
 40
5.0
 90
        0
 40
15.0
 90
        1
300
%<\AcVar ViewDetailId>% (%<\AcVar ViewScale \f "%sn">%)
 71
     4
340
15
 90
       25
340
15
 90
       25
280
     0
  0
LAYOUT
  5
1E94
102
{ACAD_XDICTIONARY
360
5C0E
102
}
102
{ACAD_REACTORS
330
1E92
102
}
330
1E92
100
AcDbPlotSettings
  1

  2
EPSON LP-9300
  4

  6

 40
0.0
 41
0.0
 42
0.0
 43
0.0
 44
0.0
 45
0.0
 46
0.0
 47
0.0
 48
0.0
 49
0.0
140
0.0
141
0.0
142
1.0
143
1.0
 70
  1712
 72
     0
 73
     0
 74
     0
  7
GOD2000TABLE.ctb
 75
     0
147
1.0
148
0.0
149
0.0
100
AcDbLayout
  1
Model
 70
     1
 71
     0
 10
0.0
 20
0.0
 11
12.0
 21
9.0
 12
0.0
 22
0.0
 32
0.0
 14
0.0
 24
0.0
 34
0.0
 15
0.0
 25
0.0
 35
0.0
146
0.0
 13
0.0
 23
0.0
 33
0.0
 16
1.0
 26
0.0
 36
0.0
 17
0.0
 27
1.0
 37
0.0
 76
     0
330
19
331
5A0D
  0
LAYOUT
  5
1E95
102
{ACAD_XDICTIONARY
360
5C10
102
}
102
{ACAD_REACTORS
330
1E92
102
}
330
1E92
100
AcDbPlotSettings
  1

  2
EPSON LP-9300
  4

  6

 40
0.0
 41
0.0
 42
0.0
 43
0.0
 44
0.0
 45
0.0
 46
0.0
 47
0.0
 48
0.0
 49
0.0
140
0.0
141
0.0
142
1.0
143
1.0
 70
   688
 72
     0
 73
     0
 74
     5
  7
GOD2000TABLE.ctb
 75
    16
147
1.0
148
0.0
149
0.0
100
AcDbLayout
  1
ﾚｲｱｳﾄ1
 70
     0
 71
     1
 10
0.0
 20
0.0
 11
12.0
 21
9.0
 12
0.0
 22
0.0
 32
0.0
 14
1.000000000000000E+20
 24
1.000000000000000E+20
 34
1.000000000000000E+20
 15
-1.000000000000000E+20
 25
-1.000000000000000E+20
 35
-1.000000000000000E+20
146
0.0
 13
0.0
 23
0.0
 33
0.0
 16
1.0
 26
0.0
 36
0.0
 17
0.0
 27
1.0
 37
0.0
 76
     0
330
16
  0
MATERIAL
  5
5A18
102
{ACAD_XDICTIONARY
360
5A19
102
}
102
{ACAD_REACTORS
330
5A0F
102
}
330
5A0F
100
AcDbMaterial
  1
ByBlock
 72
     0
 43
0.0208333333333333
 43
0.0
 43
0.0
 43
0.0
 43
0.0
 43
0.0208333333333333
 43
0.0
 43
0.0
 43
0.0
 43
0.0
 43
1.0
 43
0.0
 43
0.0
 43
0.0
 43
0.0
 43
1.0
 77
     0
 47
0.0208333333333333
 47
0.0
 47
0.0
 47
0.0
 47
0.0
 47
0.0208333333333333
 47
0.0
 47
0.0
 47
0.0
 47
0.0
 47
1.0
 47
0.0
 47
0.0
 47
0.0
 47
0.0
 47
1.0
171
     0
 49
0.0208333333333333
 49
0.0
 49
0.0
 49
0.0
 49
0.0
 49
0.0208333333333333
 49
0.0
 49
0.0
 49
0.0
 49
0.0
 49
1.0
 49
0.0
 49
0.0
 49
0.0
 49
0.0
 49
1.0
175
     0
142
0.0208333333333333
142
0.0
142
0.0
142
0.0
142
0.0
142
0.0208333333333333
142
0.0
142
0.0
142
0.0
142
0.0
142
1.0
142
0.0
142
0.0
142
0.0
142
0.0
142
1.0
179
     0
144
0.0208333333333333
144
0.0
144
0.0
144
0.0
144
0.0
144
0.0208333333333333
144
0.0
144
0.0
144
0.0
144
0.0
144
1.0
144
0.0
144
0.0
144
0.0
144
0.0
144
1.0
147
0.0208333333333333
147
0.0
147
0.0
147
0.0
147
0.0
147
0.0208333333333333
147
0.0
147
0.0
147
0.0
147
0.0
147
1.0
147
0.0
147
0.0
147
0.0
147
0.0
147
1.0
  0
MATERIAL
  5
5A10
102
{ACAD_XDICTIONARY
360
5A11
102
}
102
{ACAD_REACTORS
330
5A0F
102
}
330
5A0F
100
AcDbMaterial
  1
ByLayer
 72
     0
 43
0.0208333333333333
 43
0.0
 43
0.0
 43
0.0
 43
0.0
 43
0.0208333333333333
 43
0.0
 43
0.0
 43
0.0
 43
0.0
 43
1.0
 43
0.0
 43
0.0
 43
0.0
 43
0.0
 43
1.0
 77
     0
 47
0.0208333333333333
 47
0.0
 47
0.0
 47
0.0
 47
0.0
 47
0.0208333333333333
 47
0.0
 47
0.0
 47
0.0
 47
0.0
 47
1.0
 47
0.0
 47
0.0
 47
0.0
 47
0.0
 47
1.0
171
     0
 49
0.0208333333333333
 49
0.0
 49
0.0
 49
0.0
 49
0.0
 49
0.0208333333333333
 49
0.0
 49
0.0
 49
0.0
 49
0.0
 49
1.0
 49
0.0
 49
0.0
 49
0.0
 49
0.0
 49
1.0
175
     0
142
0.0208333333333333
142
0.0
142
0.0
142
0.0
142
0.0
142
0.0208333333333333
142
0.0
142
0.0
142
0.0
142
0.0
142
1.0
142
0.0
142
0.0
142
0.0
142
0.0
142
1.0
179
     0
144
0.0208333333333333
144
0.0
144
0.0
144
0.0
144
0.0
144
0.0208333333333333
144
0.0
144
0.0
144
0.0
144
0.0
144
1.0
144
0.0
144
0.0
144
0.0
144
0.0
144
1.0
147
0.0208333333333333
147
0.0
147
0.0
147
0.0
147
0.0
147
0.0208333333333333
147
0.0
147
0.0
147
0.0
147
0.0
147
1.0
147
0.0
147
0.0
147
0.0
147
0.0
147
1.0
  0
MATERIAL
  5
5A20
102
{ACAD_XDICTIONARY
360
5A21
102
}
102
{ACAD_REACTORS
330
5A0F
102
}
330
5A0F
100
AcDbMaterial
  1
Global
 72
     0
 43
0.0208333333333333
 43
0.0
 43
0.0
 43
0.0
 43
0.0
 43
0.0208333333333333
 43
0.0
 43
0.0
 43
0.0
 43
0.0
 43
1.0
 43
0.0
 43
0.0
 43
0.0
 43
0.0
 43
1.0
 77
     0
 47
0.0208333333333333
 47
0.0
 47
0.0
 47
0.0
 47
0.0
 47
0.0208333333333333
 47
0.0
 47
0.0
 47
0.0
 47
0.0
 47
1.0
 47
0.0
 47
0.0
 47
0.0
 47
0.0
 47
1.0
171
     0
 49
0.0208333333333333
 49
0.0
 49
0.0
 49
0.0
 49
0.0
 49
0.0208333333333333
 49
0.0
 49
0.0
 49
0.0
 49
0.0
 49
1.0
 49
0.0
 49
0.0
 49
0.0
 49
0.0
 49
1.0
175
     0
142
0.0208333333333333
142
0.0
142
0.0
142
0.0
142
0.0
142
0.0208333333333333
142
0.0
142
0.0
142
0.0
142
0.0
142
1.0
142
0.0
142
0.0
142
0.0
142
0.0
142
1.0
179
     0
144
0.0208333333333333
144
0.0
144
0.0
144
0.0
144
0.0
144
0.0208333333333333
144
0.0
144
0.0
144
0.0
144
0.0
144
1.0
144
0.0
144
0.0
144
0.0
144
0.0
144
1.0
147
0.0208333333333333
147
0.0
147
0.0
147
0.0
147
0.0
147
0.0208333333333333
147
0.0
147
0.0
147
0.0
147
0.0
147
1.0
147
0.0
147
0.0
147
0.0
147
0.0
147
1.0
  0
MLEADERSTYLE
  5
5A57
102
{ACAD_XDICTIONARY
360
5C47
102
}
102
{ACAD_REACTORS
330
5A56
102
}
330
5A56
100
AcDbMLeaderStyle
170
     2
171
     1
172
     0
 90
        2
 40
0.0
 41
0.0
173
     1
 91
-1056964608
340
13
 92
       -2
290
     1
 42
2.0
291
     1
 43
0.36
  3
Standard
 44
4.0
300

342
10
174
     1
178
     6
175
     1
176
     0
 93
-1056964608
 45
4.0
292
     0
297
     0
 46
4.0
 94
-1056964608
 47
1.0
 49
1.0
140
1.0
293
     1
141
0.0
294
     1
177
     0
142
1.0
295
     0
296
     0
143
0.125
1001
ACAD_MLEADERVER
1070
     2
  0
MLINESTYLE
  5
1C
102
{ACAD_REACTORS
330
E
102
}
330
E
100
AcDbMlineStyle
  2
STANDARD
 70
     0
  3

 62
     0
 51
90.0
 52
90.0
 71
     2
 49
0.5
 62
   256
  6
BYLAYER
 49
-0.5
 62
   256
  6
BYLAYER
  0
ACDBPLACEHOLDER
  5
1E91
102
{ACAD_REACTORS
330
1E90
102
}
330
1E90
  0
SCALE
  5
5A45
102
{ACAD_REACTORS
330
5A44
102
}
330
5A44
100
AcDbScale
 70
     0
300
1:1
140
1.0
141
1.0
290
     1
  0
SCALE
  5
5A46
102
{ACAD_REACTORS
330
5A44
102
}
330
5A44
100
AcDbScale
 70
     0
300
1:2
140
1.0
141
2.0
290
     0
  0
SCALE
  5
5A47
102
{ACAD_REACTORS
330
5A44
102
}
330
5A44
100
AcDbScale
 70
     0
300
1:4
140
1.0
141
4.0
290
     0
  0
SCALE
  5
5A48
102
{ACAD_REACTORS
330
5A44
102
}
330
5A44
100
AcDbScale
 70
     0
300
1:5
140
1.0
141
5.0
290
     0
  0
SCALE
  5
5A49
102
{ACAD_REACTORS
330
5A44
102
}
330
5A44
100
AcDbScale
 70
     0
300
1:8
140
1.0
141
8.0
290
     0
  0
SCALE
  5
5A4A
102
{ACAD_REACTORS
330
5A44
102
}
330
5A44
100
AcDbScale
 70
     0
300
1:10
140
1.0
141
10.0
290
     0
  0
SCALE
  5
5A4B
102
{ACAD_REACTORS
330
5A44
102
}
330
5A44
100
AcDbScale
 70
     0
300
1:16
140
1.0
141
16.0
290
     0
  0
SCALE
  5
5A4C
102
{ACAD_REACTORS
330
5A44
102
}
330
5A44
100
AcDbScale
 70
     0
300
1:20
140
1.0
141
20.0
290
     0
  0
SCALE
  5
5A4D
102
{ACAD_REACTORS
330
5A44
102
}
330
5A44
100
AcDbScale
 70
     0
300
1:30
140
1.0
141
30.0
290
     0
  0
SCALE
  5
5A4E
102
{ACAD_REACTORS
330
5A44
102
}
330
5A44
100
AcDbScale
 70
     0
300
1:40
140
1.0
141
40.0
290
     0
  0
SCALE
  5
5A4F
102
{ACAD_REACTORS
330
5A44
102
}
330
5A44
100
AcDbScale
 70
     0
300
1:50
140
1.0
141
50.0
290
     0
  0
SCALE
  5
5A50
102
{ACAD_REACTORS
330
5A44
102
}
330
5A44
100
AcDbScale
 70
     0
300
1:100
140
1.0
141
100.0
290
     0
  0
SCALE
  5
5A51
102
{ACAD_REACTORS
330
5A44
102
}
330
5A44
100
AcDbScale
 70
     0
300
2:1
140
2.0
141
1.0
290
     0
  0
SCALE
  5
5A52
102
{ACAD_REACTORS
330
5A44
102
}
330
5A44
100
AcDbScale
 70
     0
300
4:1
140
4.0
141
1.0
290
     0
  0
SCALE
  5
5A53
102
{ACAD_REACTORS
330
5A44
102
}
330
5A44
100
AcDbScale
 70
     0
300
8:1
140
8.0
141
1.0
290
     0
  0
SCALE
  5
5A54
102
{ACAD_REACTORS
330
5A44
102
}
330
5A44
100
AcDbScale
 70
     0
300
10:1
140
10.0
141
1.0
290
     0
  0
SCALE
  5
5A55
102
{ACAD_REACTORS
330
5A44
102
}
330
5A44
100
AcDbScale
 70
     0
300
100:1
140
100.0
141
1.0
290
     0
  0
ACDBSECTIONVIEWSTYLE
  5
5A59
102
{ACAD_XDICTIONARY
360
5BEA
102
}
102
{ACAD_REACTORS
330
5A58
102
}
330
5A58
100
AcDbModelDocViewStyle
 70
     0
  3
Metric50
290
     0
100
AcDbSectionViewStyle
 70
     0
 71
     0
 90
      102
 71
     1
340
10
 40
5.0
340
0
340
0
 40
5.0
300
I, O, Q, S, X, Z
 40
10.0
 90
        0
 40
2.5
 90
        0
 71
     2
340
15
 90
       25
340
15
 90
       50
 40
5.0
 40
2.5
 40
5.0
 71
     3
340
10
 40
5.0
 90
        0
 40
15.0
 90
        1
300
%<\AcVar ViewSectionStartId>%-%<\AcVar ViewSectionEndId>% (%<\AcVar ViewScale \f "%sn">%)
 71
     4
300
ANSI31
 40
1.0
 90
        0
290
     0
290
     0
 90
        6
 40
0.0
 40
1.570796326794896
 40
0.2617993877991494
 40
1.308996938995747
 40
-0.2617993877991494
 40
1.832595714594046
  0
TABLESTYLE
  5
5A43
102
{ACAD_XDICTIONARY
360
5C02
102
}
102
{ACAD_REACTORS
330
5A42
102
}
330
5A42
100
AcDbTableStyle
  3
Standard
 70
     0
 71
     0
 40
1.5
 41
1.5
280
     0
281
     0
  7
STANDARD
140
4.5
170
     2
 62
     0
 63
     7
283
     0
274
    -2
284
     1
 64
     0
275
    -2
285
     1
 65
     0
276
    -2
286
     1
 66
     0
277
    -2
287
     1
 67
     0
278
    -2
288
     1
 68
     0
279
    -2
289
     1
 69
     0
  7
STANDARD
140
6.0
170
     5
 62
     0
 63
     7
283
     0
274
    -2
284
     1
 64
     0
275
    -2
285
     1
 65
     0
276
    -2
286
     1
 66
     0
277
    -2
287
     1
 67
     0
278
    -2
288
     1
 68
     0
279
    -2
289
     1
 69
     0
  7
STANDARD
140
4.5
170
     5
 62
     0
 63
     7
283
     0
274
    -2
284
     1
 64
     0
275
    -2
285
     1
 65
     0
276
    -2
286
     1
 66
     0
277
    -2
287
     1
 67
     0
278
    -2
288
     1
 68
     0
279
    -2
289
     1
 69
     0
  0
VISUALSTYLE
  5
5A2E
102
{ACAD_XDICTIONARY
360
5C1F
102
}
102
{ACAD_REACTORS
330
5A28
102
}
330
5A28
100
AcDbVisualStyle
  2
2dWireframe
 70
     4
 71
     0
 72
     2
 73
     0
 90
        0
 40
-0.6
 41
-30.0
 62
     5
 63
     7
 74
     1
 91
        4
 64
     7
 65
   257
 75
     1
175
     1
 42
1.0
 92
        0
 66
   257
 43
1.0
 76
     1
 77
     6
 78
     2
 67
     7
 79
     5
170
     0
171
     0
290
     0
174
     0
 93
        1
 44
0.0
173
     0
291
     0
 45
0.0
1001
ACAD
1000
AcDbSavedByObjectVersion
1070
     0
  0
VISUALSTYLE
  5
5A2D
102
{ACAD_XDICTIONARY
360
5C1D
102
}
102
{ACAD_REACTORS
330
5A28
102
}
330
5A28
100
AcDbVisualStyle
  2
Basic
 70
     7
 71
     1
 72
     0
 73
     1
 90
        0
 40
-0.6
 41
-30.0
 62
     5
 63
     7
 74
     0
 91
        4
 64
     7
 65
   257
 75
     1
175
     1
 42
1.0
 92
        8
 66
     7
 43
1.0
 76
     1
 77
     6
 78
     2
 67
     7
 79
     5
170
     0
171
     0
290
     0
174
     0
 93
        1
 44
0.0
173
     0
291
     1
 45
0.0
1001
ACAD
1000
AcDbSavedByObjectVersion
1070
     0
  0
VISUALSTYLE
  5
5A34
102
{ACAD_XDICTIONARY
360
5C2B
102
}
102
{ACAD_REACTORS
330
5A28
102
}
330
5A28
100
AcDbVisualStyle
  2
Brighten
 70
    12
 71
     2
 72
     2
 73
     0
 90
        0
 40
-0.6
 41
-30.0
 62
     5
 63
     7
 74
     1
 91
        4
 64
     7
 65
   257
 75
     1
175
     1
 42
1.0
 92
        8
 66
     7
 43
1.0
 76
     1
 77
     6
 78
     2
 67
     7
 79
     5
170
     0
171
     0
290
     0
174
     0
 93
        1
 44
50.0
173
     0
291
     1
 45
0.0
1001
ACAD
1000
AcDbSavedByObjectVersion
1070
     0
  0
VISUALSTYLE
  5
5A38
102
{ACAD_XDICTIONARY
360
5C33
102
}
102
{ACAD_REACTORS
330
5A28
102
}
330
5A28
100
AcDbVisualStyle
  2
ColorChange
 70
    16
 71
     2
 72
     2
 73
     3
 90
        0
 40
-0.6
 41
-30.0
 62
     5
 63
     8
 74
     1
 91
        4
 64
     7
 65
   257
 75
     1
175
     1
 42
1.0
 92
        8
 66
     8
 43
1.0
 76
     1
 77
     6
 78
     2
 67
     7
 79
     5
170
     0
171
     0
290
     0
174
     0
 93
        1
 44
0.0
173
     0
291
     1
 45
0.0
1001
ACAD
1000
AcDbSavedByObjectVersion
1070
     0
  0
VISUALSTYLE
  5
5A31
102
{ACAD_XDICTIONARY
360
5C25
102
}
102
{ACAD_REACTORS
330
5A28
102
}
330
5A28
100
AcDbVisualStyle
  2
Conceptual
 70
     9
 71
     3
 72
     2
 73
     0
 90
        0
 40
-0.6
 41
-30.0
 62
     5
 63
     7
 74
     2
 91
        2
 64
     7
 65
   257
 75
     1
175
     1
 42
179.0
 92
        8
 66
     7
 43
1.0
 76
     1
 77
     6
 78
     2
 67
     7
 79
     3
170
     0
171
     0
290
     0
174
     0
 93
        1
 44
0.0
173
     0
291
     0
 45
0.0
1001
ACAD
1000
AcDbSavedByObjectVersion
1070
     0
  0
VISUALSTYLE
  5
5A33
102
{ACAD_XDICTIONARY
360
5C29
102
}
102
{ACAD_REACTORS
330
5A28
102
}
330
5A28
100
AcDbVisualStyle
  2
Dim
 70
    11
 71
     2
 72
     2
 73
     0
 90
        0
 40
-0.6
 41
-30.0
 62
     5
 63
     7
 74
     1
 91
        4
 64
     7
 65
   257
 75
     1
175
     1
 42
1.0
 92
        8
 66
     7
 43
1.0
 76
     1
 77
     6
 78
     2
 67
     7
 79
     5
170
     0
171
     0
290
     0
174
     0
 93
        1
 44
-50.0
173
     0
291
     1
 45
0.0
1001
ACAD
1000
AcDbSavedByObjectVersion
1070
     0
  0
VISUALSTYLE
  5
5A40
102
{ACAD_XDICTIONARY
360
5C43
102
}
102
{ACAD_REACTORS
330
5A28
102
}
330
5A28
100
AcDbVisualStyle
  2
EdgeColorOff
 70
    22
 71
     2
 72
     2
 73
     0
 90
        0
 40
-0.6
 41
-30.0
 62
     5
 63
     7
 74
     1
 91
        4
 64
     7
 65
   257
 75
     1
175
     1
 42
1.0
 92
        8
 66
     7
 43
1.0
 76
     1
 77
     6
 78
     2
 67
     7
 79
     5
170
     0
171
     0
290
     0
174
     0
 93
        1
 44
0.0
173
     0
291
     1
 45
0.0
1001
ACAD
1000
AcDbSavedByObjectVersion
1070
     0
  0
VISUALSTYLE
  5
5A37
102
{ACAD_XDICTIONARY
360
5C31
102
}
102
{ACAD_REACTORS
330
5A28
102
}
330
5A28
100
AcDbVisualStyle
  2
Facepattern
 70
    15
 71
     2
 72
     2
 73
     0
 90
        0
 40
-0.6
 41
-30.0
 62
     5
 63
     7
 74
     1
 91
        4
 64
     7
 65
   257
 75
     1
175
     1
 42
1.0
 92
        8
 66
     7
 43
1.0
 76
     1
 77
     6
 78
     2
 67
     7
 79
     5
170
     0
171
     0
290
     0
174
     0
 93
        1
 44
0.0
173
     0
291
     1
 45
0.0
1001
ACAD
1000
AcDbSavedByObjectVersion
1070
     0
  0
VISUALSTYLE
  5
5A29
102
{ACAD_XDICTIONARY
360
5C15
102
}
102
{ACAD_REACTORS
330
5A28
102
}
330
5A28
100
AcDbVisualStyle
  2
Flat
 70
     0
 71
     2
 72
     1
 73
     1
 90
        2
 40
-0.6
 41
30.0
 62
     5
 63
     7
 74
     0
 91
        0
 64
     7
 65
   257
 75
     1
175
     1
 42
1.0
 92
        8
 66
     7
 43
1.0
 76
     1
 77
     6
 78
     2
 67
     7
 79
     5
170
     0
171
     0
290
     0
174
     0
 93
       13
 44
0.0
173
     0
291
     1
 45
0.0
1001
ACAD
1000
AcDbSavedByObjectVersion
1070
     0
  0
VISUALSTYLE
  5
5A2A
102
{ACAD_XDICTIONARY
360
5C17
102
}
102
{ACAD_REACTORS
330
5A28
102
}
330
5A28
100
AcDbVisualStyle
  2
FlatWithEdges
 70
     1
 71
     2
 72
     1
 73
     1
 90
        2
 40
-0.6
 41
30.0
 62
     5
 63
     7
 74
     1
 91
        0
 64
     7
 65
   257
 75
     1
175
     1
 42
1.0
 92
        0
 66
   257
 43
1.0
 76
     1
 77
     6
 78
     2
 67
     7
 79
     5
170
     0
171
     0
290
     0
174
     0
 93
       13
 44
0.0
173
     0
291
     1
 45
0.0
1001
ACAD
1000
AcDbSavedByObjectVersion
1070
     0
  0
VISUALSTYLE
  5
5A2B
102
{ACAD_XDICTIONARY
360
5C19
102
}
102
{ACAD_REACTORS
330
5A28
102
}
330
5A28
100
AcDbVisualStyle
  2
Gouraud
 70
     2
 71
     2
 72
     2
 73
     1
 90
        2
 40
-0.6
 41
30.0
 62
     5
 63
     7
 74
     0
 91
        0
 64
     7
 65
   257
 75
     1
175
     1
 42
1.0
 92
        0
 66
     7
 43
1.0
 76
     1
 77
     6
 78
     2
 67
     7
 79
     5
170
     0
171
     0
290
     0
174
     0
 93
       13
 44
0.0
173
     0
291
     1
 45
0.0
1001
ACAD
1000
AcDbSavedByObjectVersion
1070
     0
  0
VISUALSTYLE
  5
5A2C
102
{ACAD_XDICTIONARY
360
5C1B
102
}
102
{ACAD_REACTORS
330
5A28
102
}
330
5A28
100
AcDbVisualStyle
  2
GouraudWithEdges
 70
     3
 71
     2
 72
     2
 73
     1
 90
        2
 40
-0.6
 41
30.0
 62
     5
 63
     7
 74
     1
 91
        0
 64
     7
 65
   257
 75
     1
175
     1
 42
1.0
 92
        0
 66
   257
 43
1.0
 76
     1
 77
     6
 78
     2
 67
     7
 79
     5
170
     0
171
     0
290
     0
174
     0
 93
       13
 44
0.0
173
     0
291
     1
 45
0.0
1001
ACAD
1000
AcDbSavedByObjectVersion
1070
     0
  0
VISUALSTYLE
  5
5A30
102
{ACAD_XDICTIONARY
360
5C23
102
}
102
{ACAD_REACTORS
330
5A28
102
}
330
5A28
100
AcDbVisualStyle
  2
Hidden
 70
     6
 71
     1
 72
     2
 73
     2
 90
        0
 40
-0.6
 41
-30.0
 62
     5
 63
     7
 74
     2
 91
        2
 64
     7
 65
   257
 75
     2
175
     1
 42
40.0
 92
        0
 66
   257
 43
1.0
 76
     1
 77
     6
 78
     2
 67
     7
 79
     3
170
     0
171
     0
290
     0
174
     0
 93
        1
 44
0.0
173
     0
291
     0
 45
0.0
1001
ACAD
1000
AcDbSavedByObjectVersion
1070
     0
  0
VISUALSTYLE
  5
5A3E
102
{ACAD_XDICTIONARY
360
5C3F
102
}
102
{ACAD_REACTORS
330
5A28
102
}
330
5A28
100
AcDbVisualStyle
  2
JitterOff
 70
    20
 71
     2
 72
     2
 73
     0
 90
        0
 40
-0.6
 41
-30.0
 62
     5
 63
     7
 74
     1
 91
        4
 64
     7
 65
   257
 75
     1
175
     1
 42
1.0
 92
       10
 66
     7
 43
1.0
 76
     1
 77
     6
 78
     2
 67
     7
 79
     5
170
     0
171
     0
290
     0
174
     0
 93
        1
 44
0.0
173
     0
291
     1
 45
0.0
1001
ACAD
1000
AcDbSavedByObjectVersion
1070
     0
  0
VISUALSTYLE
  5
5A36
102
{ACAD_XDICTIONARY
360
5C2F
102
}
102
{ACAD_REACTORS
330
5A28
102
}
330
5A28
100
AcDbVisualStyle
  2
Linepattern
 70
    14
 71
     2
 72
     2
 73
     0
 90
        0
 40
-0.6
 41
-30.0
 62
     5
 63
     7
 74
     1
 91
        4
 64
     7
 65
   257
 75
     7
175
     7
 42
1.0
 92
        8
 66
     7
 43
1.0
 76
     1
 77
     6
 78
     2
 67
     7
 79
     5
170
     0
171
     0
290
     0
174
     0
 93
        1
 44
0.0
173
     0
291
     1
 45
0.0
1001
ACAD
1000
AcDbSavedByObjectVersion
1070
     0
  0
VISUALSTYLE
  5
5A3F
102
{ACAD_XDICTIONARY
360
5C41
102
}
102
{ACAD_REACTORS
330
5A28
102
}
330
5A28
100
AcDbVisualStyle
  2
OverhangOff
 70
    21
 71
     2
 72
     2
 73
     0
 90
        0
 40
-0.6
 41
-30.0
 62
     5
 63
     7
 74
     1
 91
        4
 64
     7
 65
   257
 75
     1
175
     1
 42
1.0
 92
        9
 66
     7
 43
1.0
 76
     1
 77
     6
 78
     2
 67
     7
 79
     5
170
     0
171
     0
290
     0
174
     0
 93
        1
 44
0.0
173
     0
291
     1
 45
0.0
1001
ACAD
1000
AcDbSavedByObjectVersion
1070
     0
  0
VISUALSTYLE
  5
5A32
102
{ACAD_XDICTIONARY
360
5C27
102
}
102
{ACAD_REACTORS
330
5A28
102
}
330
5A28
100
AcDbVisualStyle
  2
Realistic
 70
     8
 71
     2
 72
     3
 73
     0
 90
        2
 40
-0.6
 41
30.0
 62
     5
 63
     7
 74
     0
 91
        0
 64
     7
 65
   257
 75
     1
175
     1
 42
1.0
 92
        8
 66
   257
 43
1.0
 76
     1
 77
     6
 78
     2
 67
     7
 79
     3
170
     0
171
     0
290
     0
174
     0
 93
       13
 44
0.0
173
     0
291
     0
 45
0.0
1001
ACAD
1000
AcDbSavedByObjectVersion
1070
     0
  0
VISUALSTYLE
  5
5A3D
102
{ACAD_XDICTIONARY
360
5C3D
102
}
102
{ACAD_REACTORS
330
5A28
102
}
330
5A28
100
AcDbVisualStyle
  2
Shaded
 70
    27
 71
     2
 72
     2
 73
     1
 90
        2
 40
-0.6
 41
30.0
 62
     5
 63
     7
 74
     0
 91
        4
 64
     7
 65
   257
 75
     1
175
     1
 42
1.0
 92
        8
 66
   257
 43
1.0
 76
     1
 77
     6
 78
     2
 67
     8
 79
     3
170
     0
171
     0
290
     0
174
     0
 93
        5
 44
0.0
173
     0
291
     0
 45
0.0
1001
ACAD
1000
AcDbSavedByObjectVersion
1070
     0
  0
VISUALSTYLE
  5
5A3C
102
{ACAD_XDICTIONARY
360
5C3B
102
}
102
{ACAD_REACTORS
330
5A28
102
}
330
5A28
100
AcDbVisualStyle
  2
Shaded with edges
 70
    26
 71
     2
 72
     2
 73
     1
 90
        2
 40
-0.6
 41
30.0
 62
     5
 63
     7
 74
     1
 91
        2
 64
     7
 65
   257
 75
     2
175
     1
 42
1.0
 92
        8
 66
   257
 43
1.0
 76
     1
 77
     6
 78
     2
 67
     7
 79
     3
170
     0
171
     0
290
     0
174
     0
 93
        5
 44
0.0
173
     0
291
     0
 45
0.0
1001
ACAD
1000
AcDbSavedByObjectVersion
1070
     0
  0
VISUALSTYLE
  5
5A39
102
{ACAD_XDICTIONARY
360
5C35
102
}
102
{ACAD_REACTORS
330
5A28
102
}
330
5A28
100
AcDbVisualStyle
  2
Shades of Gray
 70
    23
 71
     2
 72
     2
 73
     3
 90
        0
 40
-0.6
 41
-30.0
 62
     5
 63
     7
 74
     2
 91
        2
 64
     7
 65
     7
 75
     1
175
     1
 42
40.0
 92
        8
 66
     7
 43
1.0
 76
     1
 77
     6
 78
     2
 67
     7
 79
     3
170
     0
171
     0
290
     0
174
     0
 93
        1
 44
0.0
173
     0
291
     0
 45
0.0
1001
ACAD
1000
AcDbSavedByObjectVersion
1070
     0
  0
VISUALSTYLE
  5
5A3A
102
{ACAD_XDICTIONARY
360
5C37
102
}
102
{ACAD_REACTORS
330
5A28
102
}
330
5A28
100
AcDbVisualStyle
  2
Sketchy
 70
    24
 71
     1
 72
     2
 73
     2
 90
        0
 40
-0.6
 41
-30.0
 62
     5
 63
     7
 74
     2
 91
        2
 64
     7
 65
     7
 75
     1
175
     1
 42
40.0
 92
       11
 66
     7
 43
1.0
 76
     1
 77
     6
 78
     2
 67
     7
 79
     6
170
     0
171
     0
290
     0
174
     0
 93
        1
 44
0.0
173
     0
291
     0
 45
0.0
1001
ACAD
1000
AcDbSavedByObjectVersion
1070
     0
  0
VISUALSTYLE
  5
5A35
102
{ACAD_XDICTIONARY
360
5C2D
102
}
102
{ACAD_REACTORS
330
5A28
102
}
330
5A28
100
AcDbVisualStyle
  2
Thicken
 70
    13
 71
     2
 72
     2
 73
     0
 90
        0
 40
-0.6
 41
-30.0
 62
     5
 63
     7
 74
     1
 91
        4
 64
     7
 65
   257
 75
     1
175
     1
 42
1.0
 92
       12
 66
     7
 43
1.0
 76
     1
 77
     6
 78
     2
 67
     7
 79
     5
170
     0
171
     0
290
     0
174
     0
 93
        1
 44
0.0
173
     0
291
     1
 45
0.0
1001
ACAD
1000
AcDbSavedByObjectVersion
1070
     0
  0
VISUALSTYLE
  5
5A2F
102
{ACAD_XDICTIONARY
360
5C21
102
}
102
{ACAD_REACTORS
330
5A28
102
}
330
5A28
100
AcDbVisualStyle
  2
Wireframe
 70
     5
 71
     0
 72
     2
 73
     0
 90
        0
 40
-0.6
 41
-30.0
 62
     5
 63
     7
 74
     1
 91
        4
 64
     7
 65
   257
 75
     1
175
     1
 42
1.0
 92
        0
 66
   257
 43
1.0
 76
     1
 77
     6
 78
     2
 67
     7
 79
     3
170
     0
171
     0
290
     0
174
     0
 93
        1
 44
0.0
173
     0
291
     0
 45
0.0
1001
ACAD
1000
AcDbSavedByObjectVersion
1070
     0
  0
VISUALSTYLE
  5
5A3B
102
{ACAD_XDICTIONARY
360
5C39
102
}
102
{ACAD_REACTORS
330
5A28
102
}
330
5A28
100
AcDbVisualStyle
  2
X-Ray
 70
    25
 71
     2
 72
     2
 73
     1
 90
        1
 40
0.5
 41
-30.0
 62
     5
 63
     7
 74
     1
 91
        0
 64
     7
 65
   257
 75
     1
175
     1
 42
1.0
 92
        8
 66
     7
 43
1.0
 76
     1
 77
     6
 78
     2
 67
     7
 79
     3
170
     0
171
     0
290
     0
174
     0
 93
       13
 44
0.0
173
     0
291
     0
 45
0.0
1001
ACAD
1000
AcDbSavedByObjectVersion
1070
     0
  0
DICTIONARYVAR
  5
5BF4
102
{ACAD_REACTORS
330
5BEE
102
}
330
5BEE
100
DictionaryVariables
280
     0
  1
1:1
  0
DICTIONARYVAR
  5
5BF0
102
{ACAD_REACTORS
330
5BEE
102
}
330
5BEE
100
DictionaryVariables
280
     0
  1
STANDARD
  0
DICTIONARYVAR
  5
5BEF
102
{ACAD_REACTORS
330
5BEE
102
}
330
5BEE
100
DictionaryVariables
280
     0
  1
STANDARD
  0
DICTIONARYVAR
  5
5BF1
102
{ACAD_REACTORS
330
5BEE
102
}
330
5BEE
100
DictionaryVariables
280
     0
  1
Metric50
  0
DICTIONARYVAR
  5
5BF2
102
{ACAD_REACTORS
330
5BEE
102
}
330
5BEE
100
DictionaryVariables
280
     0
  1
Metric50
  0
DICTIONARYVAR
  5
5C00
102
{ACAD_REACTORS
330
5BEE
102
}
330
5BEE
100
DictionaryVariables
280
     0
  1
1
  0
DICTIONARYVAR
  5
5BFF
102
{ACAD_REACTORS
330
5BEE
102
}
330
5BEE
100
DictionaryVariables
280
     0
  1
0
  0
DICTIONARYVAR
  5
5BF6
102
{ACAD_REACTORS
330
5BEE
102
}
330
5BEE
100
DictionaryVariables
280
     0
  1
1
  0
DICTIONARYVAR
  5
5BF7
102
{ACAD_REACTORS
330
5BEE
102
}
330
5BEE
100
DictionaryVariables
280
     0
  1
15
  0
DICTIONARYVAR
  5
5BF5
102
{ACAD_REACTORS
330
5BEE
102
}
330
5BEE
100
DictionaryVariables
280
     0
  1
0
  0
DICTIONARYVAR
  5
5BF3
102
{ACAD_REACTORS
330
5BEE
102
}
330
5BEE
100
DictionaryVariables
280
     0
  1
0
  0
DICTIONARYVAR
  5
5BFE
102
{ACAD_REACTORS
330
5BEE
102
}
330
5BEE
100
DictionaryVariables
280
     0
  1
127
  0
DICTIONARYVAR
  5
5C01
102
{ACAD_REACTORS
330
5BEE
102
}
330
5BEE
100
DictionaryVariables
280
     0
  1
2
  0
DICTIONARY
  5
5C0D
102
{ACAD_REACTORS
330
5C0B
102
}
330
5C0B
100
AcDbDictionary
281
     1
  0
DICTIONARY
  5
5C0C
102
{ACAD_REACTORS
330
5C0B
102
}
330
5C0B
100
AcDbDictionary
281
     1
  3
140687754155232
350
5C06
  3
140687754155248
350
5C07
  3
140687754155264
350
5C08
  3
140687754155280
350
5C09
  3
140687754155296
350
5C0A
  0
DICTIONARY
  5
5BEC
330
5A5B
100
AcDbDictionary
280
     1
281
     1
  3
ACAD_XREC_ROUNDTRIP
360
5BED
  0
DICTIONARY
  5
5C0E
330
1E94
100
AcDbDictionary
280
     1
281
     1
  3
ACAD_XREC_ROUNDTRIP
360
5C0F
  0
DICTIONARY
  5
5C10
330
1E95
100
AcDbDictionary
280
     1
281
     1
  3
ACAD_XREC_ROUNDTRIP
360
5C11
  0
DICTIONARY
  5
5A19
330
5A18
100
AcDbDictionary
280
     1
281
     1
  3
ACAD_XREC_ROUNDTRIP
360
5C13
  3
BUMPTILE
360
5A1B
  3
DIFFUSETILE
360
5A1A
  3
OPACITYTILE
360
5A1E
  3
REFLECTIONTILE
360
5A1D
  3
REFRACTIONTILE
360
5A1F
  3
SPECULARTILE
360
5A1C
  0
DICTIONARY
  5
5A11
330
5A10
100
AcDbDictionary
280
     1
281
     1
  3
ACAD_XREC_ROUNDTRIP
360
5C12
  3
BUMPTILE
360
5A13
  3
DIFFUSETILE
360
5A12
  3
OPACITYTILE
360
5A16
  3
REFLECTIONTILE
360
5A15
  3
REFRACTIONTILE
360
5A17
  3
SPECULARTILE
360
5A14
  0
DICTIONARY
  5
5A21
330
5A20
100
AcDbDictionary
280
     1
281
     1
  3
ACAD_XREC_ROUNDTRIP
360
5C14
  3
BUMPTILE
360
5A23
  3
DIFFUSETILE
360
5A22
  3
OPACITYTILE
360
5A26
  3
REFLECTIONTILE
360
5A25
  3
REFRACTIONTILE
360
5A27
  3
SPECULARTILE
360
5A24
  0
DICTIONARY
  5
5C47
330
5A57
100
AcDbDictionary
280
     1
281
     1
  3
ACAD_XREC_ROUNDTRIP
360
5C48
  0
DICTIONARY
  5
5BEA
330
5A59
100
AcDbDictionary
280
     1
281
     1
  3
ACAD_XREC_ROUNDTRIP
360
5BEB
  0
DICTIONARY
  5
5C02
330
5A43
100
AcDbDictionary
280
     1
281
     1
  3
ACAD_ROUNDTRIP_2008_TABLESTYLE_CELLSTYLEMAP
360
5C03
  3
ACAD_XREC_ROUNDTRIP
360
5C45
  0
DICTIONARY
  5
5C1F
330
5A2E
100
AcDbDictionary
280
     1
281
     1
  3
ACAD_XREC_ROUNDTRIP
360
5C20
  0
DICTIONARY
  5
5C1D
330
5A2D
100
AcDbDictionary
280
     1
281
     1
  3
ACAD_XREC_ROUNDTRIP
360
5C1E
  0
DICTIONARY
  5
5C2B
330
5A34
100
AcDbDictionary
280
     1
281
     1
  3
ACAD_XREC_ROUNDTRIP
360
5C2C
  0
DICTIONARY
  5
5C33
330
5A38
100
AcDbDictionary
280
     1
281
     1
  3
ACAD_XREC_ROUNDTRIP
360
5C34
  0
DICTIONARY
  5
5C25
330
5A31
100
AcDbDictionary
280
     1
281
     1
  3
ACAD_XREC_ROUNDTRIP
360
5C26
  0
DICTIONARY
  5
5C29
330
5A33
100
AcDbDictionary
280
     1
281
     1
  3
ACAD_XREC_ROUNDTRIP
360
5C2A
  0
DICTIONARY
  5
5C43
330
5A40
100
AcDbDictionary
280
     1
281
     1
  3
ACAD_XREC_ROUNDTRIP
360
5C44
  0
DICTIONARY
  5
5C31
330
5A37
100
AcDbDictionary
280
     1
281
     1
  3
ACAD_XREC_ROUNDTRIP
360
5C32
  0
DICTIONARY
  5
5C15
330
5A29
100
AcDbDictionary
280
     1
281
     1
  3
ACAD_XREC_ROUNDTRIP
360
5C16
  0
DICTIONARY
  5
5C17
330
5A2A
100
AcDbDictionary
280
     1
281
     1
  3
ACAD_XREC_ROUNDTRIP
360
5C18
  0
DICTIONARY
  5
5C19
330
5A2B
100
AcDbDictionary
280
     1
281
     1
  3
ACAD_XREC_ROUNDTRIP
360
5C1A
  0
DICTIONARY
  5
5C1B
330
5A2C
100
AcDbDictionary
280
     1
281
     1
  3
ACAD_XREC_ROUNDTRIP
360
5C1C
  0
DICTIONARY
  5
5C23
330
5A30
100
AcDbDictionary
280
     1
281
     1
  3
ACAD_XREC_ROUNDTRIP
360
5C24
  0
DICTIONARY
  5
5C3F
330
5A3E
100
AcDbDictionary
280
     1
281
     1
  3
ACAD_XREC_ROUNDTRIP
360
5C40
  0
DICTIONARY
  5
5C2F
330
5A36
100
AcDbDictionary
280
     1
281
     1
  3
ACAD_XREC_ROUNDTRIP
360
5C30
  0
DICTIONARY
  5
5C41
330
5A3F
100
AcDbDictionary
280
     1
281
     1
  3
ACAD_XREC_ROUNDTRIP
360
5C42
  0
DICTIONARY
  5
5C27
330
5A32
100
AcDbDictionary
280
     1
281
     1
  3
ACAD_XREC_ROUNDTRIP
360
5C28
  0
DICTIONARY
  5
5C3D
330
5A3D
100
AcDbDictionary
280
     1
281
     1
  3
ACAD_XREC_ROUNDTRIP
360
5C3E
  0
DICTIONARY
  5
5C3B
330
5A3C
100
AcDbDictionary
280
     1
281
     1
  3
ACAD_XREC_ROUNDTRIP
360
5C3C
  0
DICTIONARY
  5
5C35
330
5A39
100
AcDbDictionary
280
     1
281
     1
  3
ACAD_XREC_ROUNDTRIP
360
5C36
  0
DICTIONARY
  5
5C37
330
5A3A
100
AcDbDictionary
280
     1
281
     1
  3
ACAD_XREC_ROUNDTRIP
360
5C38
  0
DICTIONARY
  5
5C2D
330
5A35
100
AcDbDictionary
280
     1
281
     1
  3
ACAD_XREC_ROUNDTRIP
360
5C2E
  0
DICTIONARY
  5
5C21
330
5A2F
100
AcDbDictionary
280
     1
281
     1
  3
ACAD_XREC_ROUNDTRIP
360
5C22
  0
DICTIONARY
  5
5C39
330
5A3B
100
AcDbDictionary
280
     1
281
     1
  3
ACAD_XREC_ROUNDTRIP
360
5C3A
  0
XRECORD
  5
5C06
102
{ACAD_REACTORS
330
5C0C
102
}
330
5C0C
100
AcDbXrecord
280
     1
  1
AcDb_Thumbnail_Schema
102
{ATTRRECORD
341
5C07
  2
AcDbDs::TreatedAsObjectData
280
     1
291
     1
102
ATTRRECORD}
102
{ATTRRECORD
341
5C08
  2
AcDbDs::Legacy
280
     1
291
     1
102
ATTRRECORD}
  2
AcDbDs::ID
280
    10
 91
        8
102
{ATTRRECORD
341
5C09
  2
AcDs:Indexable
280
     1
291
     1
102
ATTRRECORD}
102
{ATTRRECORD
341
5C0A
  2
AcDbDs::HandleAttribute
280
     7
282
     1
102
ATTRRECORD}
  2
Thumbnail_Data
280
    15
 91
        0
  0
XRECORD
  5
5C07
102
{ACAD_REACTORS
330
5C0C
102
}
330
5C0C
100
AcDbXrecord
280
     1
  1
AcDbDs::TreatedAsObjectDataSchema
  2
AcDbDs::TreatedAsObjectData
280
     1
 91
        0
  0
XRECORD
  5
5C08
102
{ACAD_REACTORS
330
5C0C
102
}
330
5C0C
100
AcDbXrecord
280
     1
  1
AcDbDs::LegacySchema
  2
AcDbDs::Legacy
280
     1
 91
        0
  0
XRECORD
  5
5C09
102
{ACAD_REACTORS
330
5C0C
102
}
330
5C0C
100
AcDbXrecord
280
     1
  1
AcDbDs::IndexedPropertySchema
  2
AcDs:Indexable
280
     1
 91
        0
  0
XRECORD
  5
5C0A
102
{ACAD_REACTORS
330
5C0C
102
}
330
5C0C
100
AcDbXrecord
280
     1
  1
AcDbDs::HandleAttributeSchema
  2
AcDbDs::HandleAttribute
280
     7
 91
        1
284
     1
  0
XRECORD
  5
5BED
102
{ACAD_REACTORS
330
5BEC
102
}
330
5BEC
100
AcDbXrecord
280
     1
102
DISPLAYNAME
  1
Metric50
102
FLAGS
 90
        0
  0
XRECORD
  5
5C0F
102
{ACAD_REACTORS
330
5C0E
102
}
330
5C0E
100
AcDbXrecord
280
     1
102
SHADEPLOT
 70
     0
102
SHADEPLOTRESLEVEL
 70
     2
102
SHADEPLOTCUSTOMDPI
 70
   300
  0
XRECORD
  5
5C11
102
{ACAD_REACTORS
330
5C10
102
}
330
5C10
100
AcDbXrecord
280
     1
102
SHADEPLOT
 70
     0
102
SHADEPLOTRESLEVEL
 70
     2
102
SHADEPLOTCUSTOMDPI
 70
   300
  0
XRECORD
  5
5C13
102
{ACAD_REACTORS
330
5A19
102
}
330
5A19
100
AcDbXrecord
280
     1
102
MATERIAL
148
0.0
149
0.0
149
0.0
 93
        0
 94
      127
282
     0
 72
     0
 77
     0
171
     0
175
     0
179
     0
273
     0
  0
XRECORD
  5
5A1B
102
{ACAD_REACTORS
330
5A19
102
}
330
5A19
100
AcDbXrecord
280
     1
270
     1
271
     1
  0
XRECORD
  5
5A1A
102
{ACAD_REACTORS
330
5A19
102
}
330
5A19
100
AcDbXrecord
280
     1
270
     1
271
     1
  0
XRECORD
  5
5A1E
102
{ACAD_REACTORS
330
5A19
102
}
330
5A19
100
AcDbXrecord
280
     1
270
     1
271
     1
  0
XRECORD
  5
5A1D
102
{ACAD_REACTORS
330
5A19
102
}
330
5A19
100
AcDbXrecord
280
     1
270
     1
271
     1
  0
XRECORD
  5
5A1F
102
{ACAD_REACTORS
330
5A19
102
}
330
5A19
100
AcDbXrecord
280
     1
270
     1
271
     1
  0
XRECORD
  5
5A1C
102
{ACAD_REACTORS
330
5A19
102
}
330
5A19
100
AcDbXrecord
280
     1
270
     1
271
     1
  0
XRECORD
  5
5C12
102
{ACAD_REACTORS
330
5A11
102
}
330
5A11
100
AcDbXrecord
280
     1
102
MATERIAL
148
0.0
149
0.0
149
0.0
 93
        0
 94
      127
282
     0
 72
     0
 77
     0
171
     0
175
     0
179
     0
273
     0
  0
XRECORD
  5
5A13
102
{ACAD_REACTORS
330
5A11
102
}
330
5A11
100
AcDbXrecord
280
     1
270
     1
271
     1
  0
XRECORD
  5
5A12
102
{ACAD_REACTORS
330
5A11
102
}
330
5A11
100
AcDbXrecord
280
     1
270
     1
271
     1
  0
XRECORD
  5
5A16
102
{ACAD_REACTORS
330
5A11
102
}
330
5A11
100
AcDbXrecord
280
     1
270
     1
271
     1
  0
XRECORD
  5
5A15
102
{ACAD_REACTORS
330
5A11
102
}
330
5A11
100
AcDbXrecord
280
     1
270
     1
271
     1
  0
XRECORD
  5
5A17
102
{ACAD_REACTORS
330
5A11
102
}
330
5A11
100
AcDbXrecord
280
     1
270
     1
271
     1
  0
XRECORD
  5
5A14
102
{ACAD_REACTORS
330
5A11
102
}
330
5A11
100
AcDbXrecord
280
     1
270
     1
271
     1
  0
XRECORD
  5
5C14
102
{ACAD_REACTORS
330
5A21
102
}
330
5A21
100
AcDbXrecord
280
     1
102
MATERIAL
148
0.0
149
0.0
149
0.0
 93
        0
 94
      127
282
     0
 72
     0
 77
     0
171
     0
175
     0
179
     0
273
     0
  0
XRECORD
  5
5A23
102
{ACAD_REACTORS
330
5A21
102
}
330
5A21
100
AcDbXrecord
280
     1
270
     1
271
     1
  0
XRECORD
  5
5A22
102
{ACAD_REACTORS
330
5A21
102
}
330
5A21
100
AcDbXrecord
280
     1
270
     1
271
     1
  0
XRECORD
  5
5A26
102
{ACAD_REACTORS
330
5A21
102
}
330
5A21
100
AcDbXrecord
280
     1
270
     1
271
     1
  0
XRECORD
  5
5A25
102
{ACAD_REACTORS
330
5A21
102
}
330
5A21
100
AcDbXrecord
280
     1
270
     1
271
     1
  0
XRECORD
  5
5A27
102
{ACAD_REACTORS
330
5A21
102
}
330
5A21
100
AcDbXrecord
280
     1
270
     1
271
     1
  0
XRECORD
  5
5A24
102
{ACAD_REACTORS
330
5A21
102
}
330
5A21
100
AcDbXrecord
280
     1
270
     1
271
     1
  0
XRECORD
  5
5C48
102
{ACAD_REACTORS
330
5C47
102
}
330
5C47
100
AcDbXrecord
280
     1
102
ACAD_ROUNDTRIP_2012_MLEADER_STYLE
298
     1
  0
XRECORD
  5
5BEB
102
{ACAD_REACTORS
330
5BEA
102
}
330
5BEA
100
AcDbXrecord
280
     1
102
DISPLAYNAME
  1
Metric50
102
FLAGS
 90
        0
  0
CELLSTYLEMAP
  5
5C03
102
{ACAD_REACTORS
330
5C02
102
}
330
5C02
100
AcDbCellStyleMap
 90
        3
300
CELLSTYLE
  1
TABLEFORMAT_BEGIN
 90
        5
170
     1
 91
        0
 92
    32768
 62
   257
 93
        1
300
CONTENTFORMAT
  1
CONTENTFORMAT_BEGIN
 90
        0
 91
        0
 92
      512
 93
        0
300

 40
0.0
140
1.0
 94
        5
 62
     0
340
10
144
6.0
309
CONTENTFORMAT_END
171
     1
301
MARGIN
  1
CELLMARGIN_BEGIN
 40
1.5
 40
1.5
 40
1.5
 40
1.5
 40
4.5
 40
4.5
309
CELLMARGIN_END
 94
        6
 95
        1
302
GRIDFORMAT
  1
GRIDFORMAT_BEGIN
 90
        0
 91
        1
 62
     0
 92
       -2
340
0
 93
        0
 40
1.125
309
GRIDFORMAT_END
 95
        2
302
GRIDFORMAT
  1
GRIDFORMAT_BEGIN
 90
        0
 91
        1
 62
     0
 92
       -2
340
0
 93
        0
 40
1.125
309
GRIDFORMAT_END
 95
        4
302
GRIDFORMAT
  1
GRIDFORMAT_BEGIN
 90
        0
 91
        1
 62
     0
 92
       -2
340
0
 93
        0
 40
1.125
309
GRIDFORMAT_END
 95
        8
302
GRIDFORMAT
  1
GRIDFORMAT_BEGIN
 90
        0
 91
        1
 62
     0
 92
       -2
340
0
 93
        0
 40
1.125
309
GRIDFORMAT_END
 95
       16
302
GRIDFORMAT
  1
GRIDFORMAT_BEGIN
 90
        0
 91
        1
 62
     0
 92
       -2
340
0
 93
        0
 40
1.125
309
GRIDFORMAT_END
 95
       32
302
GRIDFORMAT
  1
GRIDFORMAT_BEGIN
 90
        0
 91
        1
 62
     0
 92
       -2
340
0
 93
        0
 40
1.125
309
GRIDFORMAT_END
309
TABLEFORMAT_END
  1
CELLSTYLE_BEGIN
 90
        1
 91
        1
300
_TITLE
309
CELLSTYLE_END
300
CELLSTYLE
  1
TABLEFORMAT_BEGIN
 90
        5
170
     1
 91
        0
 92
        0
 62
   257
 93
        1
300
CONTENTFORMAT
  1
CONTENTFORMAT_BEGIN
 90
        0
 91
        0
 92
      512
 93
        0
300

 40
0.0
140
1.0
 94
        5
 62
     0
340
10
144
4.5
309
CONTENTFORMAT_END
171
     1
301
MARGIN
  1
CELLMARGIN_BEGIN
 40
1.5
 40
1.5
 40
1.5
 40
1.5
 40
4.5
 40
4.5
309
CELLMARGIN_END
 94
        6
 95
        1
302
GRIDFORMAT
  1
GRIDFORMAT_BEGIN
 90
        0
 91
        1
 62
     0
 92
       -2
340
0
 93
        0
 40
1.125
309
GRIDFORMAT_END
 95
        2
302
GRIDFORMAT
  1
GRIDFORMAT_BEGIN
 90
        0
 91
        1
 62
     0
 92
       -2
340
0
 93
        0
 40
1.125
309
GRIDFORMAT_END
 95
        4
302
GRIDFORMAT
  1
GRIDFORMAT_BEGIN
 90
        0
 91
        1
 62
     0
 92
       -2
340
0
 93
        0
 40
1.125
309
GRIDFORMAT_END
 95
        8
302
GRIDFORMAT
  1
GRIDFORMAT_BEGIN
 90
        0
 91
        1
 62
     0
 92
       -2
340
0
 93
        0
 40
1.125
309
GRIDFORMAT_END
 95
       16
302
GRIDFORMAT
  1
GRIDFORMAT_BEGIN
 90
        0
 91
        1
 62
     0
 92
       -2
340
0
 93
        0
 40
1.125
309
GRIDFORMAT_END
 95
       32
302
GRIDFORMAT
  1
GRIDFORMAT_BEGIN
 90
        0
 91
        1
 62
     0
 92
       -2
340
0
 93
        0
 40
1.125
309
GRIDFORMAT_END
309
TABLEFORMAT_END
  1
CELLSTYLE_BEGIN
 90
        2
 91
        1
300
_HEADER
309
CELLSTYLE_END
300
CELLSTYLE
  1
TABLEFORMAT_BEGIN
 90
        5
170
     1
 91
        0
 92
        0
 62
   257
 93
        1
300
CONTENTFORMAT
  1
CONTENTFORMAT_BEGIN
 90
        0
 91
        0
 92
      512
 93
        0
300

 40
0.0
140
1.0
 94
        2
 62
     0
340
10
144
4.5
309
CONTENTFORMAT_END
171
     1
301
MARGIN
  1
CELLMARGIN_BEGIN
 40
1.5
 40
1.5
 40
1.5
 40
1.5
 40
4.5
 40
4.5
309
CELLMARGIN_END
 94
        6
 95
        1
302
GRIDFORMAT
  1
GRIDFORMAT_BEGIN
 90
        0
 91
        1
 62
     0
 92
       -2
340
0
 93
        0
 40
1.125
309
GRIDFORMAT_END
 95
        2
302
GRIDFORMAT
  1
GRIDFORMAT_BEGIN
 90
        0
 91
        1
 62
     0
 92
       -2
340
0
 93
        0
 40
1.125
309
GRIDFORMAT_END
 95
        4
302
GRIDFORMAT
  1
GRIDFORMAT_BEGIN
 90
        0
 91
        1
 62
     0
 92
       -2
340
0
 93
        0
 40
1.125
309
GRIDFORMAT_END
 95
        8
302
GRIDFORMAT
  1
GRIDFORMAT_BEGIN
 90
        0
 91
        1
 62
     0
 92
       -2
340
0
 93
        0
 40
1.125
309
GRIDFORMAT_END
 95
       16
302
GRIDFORMAT
  1
GRIDFORMAT_BEGIN
 90
        0
 91
        1
 62
     0
 92
       -2
340
0
 93
        0
 40
1.125
309
GRIDFORMAT_END
 95
       32
302
GRIDFORMAT
  1
GRIDFORMAT_BEGIN
 90
        0
 91
        1
 62
     0
 92
       -2
340
0
 93
        0
 40
1.125
309
GRIDFORMAT_END
309
TABLEFORMAT_END
  1
CELLSTYLE_BEGIN
 90
        3
 91
        2
300
_DATA
309
CELLSTYLE_END
  0
XRECORD
  5
5C45
102
{ACAD_REACTORS
330
5C02
102
}
330
5C02
100
AcDbXrecord
280
     1
102
ACAD_ROUNDTRIP_PRE2007_TABLESTYLE
 90
      512
 91
        0
  1

 92
      512
 93
        0
  2

 94
      512
 95
        0
  3

  0
XRECORD
  5
5C20
102
{ACAD_REACTORS
330
5C1F
102
}
330
5C1F
100
AcDbXrecord
280
     1
102
RTVSPost2010Prop28
280
     1
102
RTVSPost2010PropOp28
 70
     1
102
RTVSPost2010Prop29
280
     1
102
RTVSPost2010PropOp29
 70
     1
102
RTVSPost2010Prop30
280
     0
102
RTVSPost2010PropOp30
 70
     1
102
RTVSPost2010Prop31
280
     0
102
RTVSPost2010PropOp31
 70
     1
102
RTVSPost2010Prop32
280
     0
102
RTVSPost2010PropOp32
 70
     1
102
RTVSPost2010Prop33
280
     0
102
RTVSPost2010PropOp33
 70
     1
102
RTVSPost2010Prop34
280
     0
102
RTVSPost2010PropOp34
 70
     1
102
RTVSPost2010Prop35
280
     0
102
RTVSPost2010PropOp35
 70
     1
102
RTVSPost2010Prop36
280
     0
102
RTVSPost2010PropOp36
 70
     1
102
RTVSPost2010Prop37
 90
       50
102
RTVSPost2010PropOp37
 70
     1
102
RTVSPost2010Prop38
140
0.0
102
RTVSPost2010PropOp38
 70
     1
102
RTVSPost2010Prop39
140
1.0
102
RTVSPost2010PropOp39
 70
     1
102
RTVSPost2010Prop40
 90
        0
102
RTVSPost2010PropOp40
 70
     1
102
RTVSPost2010Prop41ColorIndex
 90
       18
102
RTVSPost2010Prop41ColorRGB
 90
        0
102
RTVSPost2010PropOp41
 70
     1
102
RTVSPost2010Prop42
 90
       50
102
RTVSPost2010PropOp42
 70
     1
102
RTVSPost2010Prop43
 90
        3
102
RTVSPost2010PropOp43
 70
     1
102
RTVSPost2010Prop44ColorIndex
 90
        5
102
RTVSPost2010Prop44ColorRGB
 90
      255
102
RTVSPost2010PropOp44
 70
     1
102
RTVSPost2010Prop45
280
     0
102
RTVSPost2010PropOp45
 70
     1
102
RTVSPost2010Prop46
 90
       50
102
RTVSPost2010PropOp46
 70
     1
102
RTVSPost2010Prop47
 90
       50
102
RTVSPost2010PropOp47
 70
     1
102
RTVSPost2010Prop48
 90
       50
102
RTVSPost2010PropOp48
 70
     1
102
RTVSPost2010Prop49
280
     0
102
RTVSPost2010PropOp49
 70
     1
102
RTVSPost2010Prop50
 90
       50
102
RTVSPost2010PropOp50
 70
     1
102
RTVSPost2010Prop51ColorIndex
 90
      256
102
RTVSPost2010Prop51ColorRGB
 90
-16777216
102
RTVSPost2010PropOp51
 70
     0
102
RTVSPost2010Prop52
140
1.0
102
RTVSPost2010PropOp52
 70
     0
102
RTVSPost2010Prop53
 90
        2
102
RTVSPost2010PropOp53
 70
     1
102
RTVSPost2010Prop54
  1
strokes_ogs.tif
102
RTVSPost2010PropOp54
 70
     1
102
RTVSPost2010Prop55
280
     0
102
RTVSPost2010PropOp55
 70
     1
102
RTVSPost2010Prop56
140
1.0
102
RTVSPost2010PropOp56
 70
     1
102
RTVSPost2010Prop57
140
1.0
102
RTVSPost2010PropOp57
 70
     1
102
RTVSPropertyOp0
 70
     1
102
RTVSPropertyOp1
 70
     1
102
RTVSPropertyOp2
 70
     1
102
RTVSPropertyOp3
 70
     1
102
RTVSPropertyOp4
 70
     1
102
RTVSPropertyOp5
 70
     1
102
RTVSPropertyOp6
 70
     1
102
RTVSPropertyOp7
 70
     1
102
RTVSPropertyOp8
 70
     1
102
RTVSPropertyOp9
 70
     1
102
RTVSPropertyOp10
 70
     1
102
RTVSPropertyOp11
 70
     1
102
RTVSPropertyOp12
 70
     1
102
RTVSPropertyOp13
 70
     1
102
RTVSPropertyOp14
 70
     1
102
RTVSPropertyOp15
 70
     1
102
RTVSPropertyOp16
 70
     1
102
RTVSPropertyOp17
 70
     1
102
RTVSPropertyOp18
 70
     1
102
RTVSPropertyOp19
 70
     1
102
RTVSPropertyOp20
 70
     1
102
RTVSPropertyOp21
 70
     1
102
RTVSPropertyOp22
 70
     1
102
RTVSPropertyOp23
 70
     1
102
RTVSPropertyOp24
 70
     1
102
RTVSPropertyOp25
 70
     1
102
RTVSPropertyOp26
 70
     1
102
RTVSPropertyOp27
 70
     1
102
RTVSPropertyOp28
 70
     1
102
RTVSPropertyOp29
 70
     1
102
RTVSPropertyOp30
 70
     1
102
RTVSPropertyOp31
 70
     1
102
RTVSPropertyOp32
 70
     1
102
RTVSPropertyOp33
 70
     1
102
RTVSPropertyOp34
 70
     1
102
RTVSPropertyOp35
 70
     1
102
RTVSPropertyOp36
 70
     1
102
RTVSPropertyOp37
 70
     1
102
RTVSPropertyOp38
 70
     1
102
RTVSPropertyOp39
 70
     1
102
RTVSPropertyOp40
 70
     1
102
RTVSPropertyOp41
 70
     1
102
RTVSPropertyOp42
 70
     1
102
RTVSPropertyOp43
 70
     1
102
RTVSPropertyOp44
 70
     1
102
RTVSPropertyOp45
 70
     1
102
RTVSPropertyOp46
 70
     1
102
RTVSPropertyOp47
 70
     1
102
RTVSPropertyOp48
 70
     1
102
RTVSPropertyOp49
 70
     1
102
RTVSPropertyOp50
 70
     1
102
RTVSPropertyOp51
 70
     0
102
RTVSPropertyOp52
 70
     0
102
RTVSPropertyOp53
 70
     1
102
RTVSPropertyOp54
 70
     1
102
RTVSPropertyOp55
 70
     1
102
RTVSPropertyOp56
 70
     1
102
RTVSPropertyOp57
 70
     1
102
RTVSPropertyOp58
 70
     1
102
RTVSPropertyOp59
 70
     1
102
RTVSPropertyOp60
 70
     1
102
RTVSPropertyOp61
 70
     1
102
RTVSPropertyOp62
 70
     1
  0
XRECORD
  5
5C1E
102
{ACAD_REACTORS
330
5C1D
102
}
330
5C1D
100
AcDbXrecord
280
     1
102
RTVSPost2010Prop28
280
     0
102
RTVSPost2010PropOp28
 70
     1
102
RTVSPost2010Prop29
280
     1
102
RTVSPost2010PropOp29
 70
     1
102
RTVSPost2010Prop30
280
     1
102
RTVSPost2010PropOp30
 70
     1
102
RTVSPost2010Prop31
280
     0
102
RTVSPost2010PropOp31
 70
     1
102
RTVSPost2010Prop32
280
     0
102
RTVSPost2010PropOp32
 70
     1
102
RTVSPost2010Prop33
280
     0
102
RTVSPost2010PropOp33
 70
     1
102
RTVSPost2010Prop34
280
     0
102
RTVSPost2010PropOp34
 70
     1
102
RTVSPost2010Prop35
280
     0
102
RTVSPost2010PropOp35
 70
     1
102
RTVSPost2010Prop36
280
     0
102
RTVSPost2010PropOp36
 70
     1
102
RTVSPost2010Prop37
 90
       50
102
RTVSPost2010PropOp37
 70
     1
102
RTVSPost2010Prop38
140
0.0
102
RTVSPost2010PropOp38
 70
     1
102
RTVSPost2010Prop39
140
1.0
102
RTVSPost2010PropOp39
 70
     1
102
RTVSPost2010Prop40
 90
        0
102
RTVSPost2010PropOp40
 70
     1
102
RTVSPost2010Prop41ColorIndex
 90
       18
102
RTVSPost2010Prop41ColorRGB
 90
        0
102
RTVSPost2010PropOp41
 70
     1
102
RTVSPost2010Prop42
 90
       50
102
RTVSPost2010PropOp42
 70
     1
102
RTVSPost2010Prop43
 90
        3
102
RTVSPost2010PropOp43
 70
     1
102
RTVSPost2010Prop44ColorIndex
 90
        5
102
RTVSPost2010Prop44ColorRGB
 90
      255
102
RTVSPost2010PropOp44
 70
     1
102
RTVSPost2010Prop45
280
     0
102
RTVSPost2010PropOp45
 70
     1
102
RTVSPost2010Prop46
 90
       50
102
RTVSPost2010PropOp46
 70
     1
102
RTVSPost2010Prop47
 90
       50
102
RTVSPost2010PropOp47
 70
     1
102
RTVSPost2010Prop48
 90
       50
102
RTVSPost2010PropOp48
 70
     1
102
RTVSPost2010Prop49
280
     0
102
RTVSPost2010PropOp49
 70
     1
102
RTVSPost2010Prop50
 90
       50
102
RTVSPost2010PropOp50
 70
     1
102
RTVSPost2010Prop51ColorIndex
 90
      256
102
RTVSPost2010Prop51ColorRGB
 90
-16777216
102
RTVSPost2010PropOp51
 70
     0
102
RTVSPost2010Prop52
140
1.0
102
RTVSPost2010PropOp52
 70
     0
102
RTVSPost2010Prop53
 90
        2
102
RTVSPost2010PropOp53
 70
     1
102
RTVSPost2010Prop54
  1
strokes_ogs.tif
102
RTVSPost2010PropOp54
 70
     1
102
RTVSPost2010Prop55
280
     0
102
RTVSPost2010PropOp55
 70
     1
102
RTVSPost2010Prop56
140
1.0
102
RTVSPost2010PropOp56
 70
     1
102
RTVSPost2010Prop57
140
1.0
102
RTVSPost2010PropOp57
 70
     1
102
RTVSPropertyOp0
 70
     1
102
RTVSPropertyOp1
 70
     1
102
RTVSPropertyOp2
 70
     1
102
RTVSPropertyOp3
 70
     1
102
RTVSPropertyOp4
 70
     1
102
RTVSPropertyOp5
 70
     1
102
RTVSPropertyOp6
 70
     1
102
RTVSPropertyOp7
 70
     1
102
RTVSPropertyOp8
 70
     1
102
RTVSPropertyOp9
 70
     1
102
RTVSPropertyOp10
 70
     1
102
RTVSPropertyOp11
 70
     1
102
RTVSPropertyOp12
 70
     1
102
RTVSPropertyOp13
 70
     1
102
RTVSPropertyOp14
 70
     1
102
RTVSPropertyOp15
 70
     1
102
RTVSPropertyOp16
 70
     1
102
RTVSPropertyOp17
 70
     1
102
RTVSPropertyOp18
 70
     1
102
RTVSPropertyOp19
 70
     1
102
RTVSPropertyOp20
 70
     1
102
RTVSPropertyOp21
 70
     1
102
RTVSPropertyOp22
 70
     1
102
RTVSPropertyOp23
 70
     1
102
RTVSPropertyOp24
 70
     1
102
RTVSPropertyOp25
 70
     1
102
RTVSPropertyOp26
 70
     1
102
RTVSPropertyOp27
 70
     1
102
RTVSPropertyOp28
 70
     1
102
RTVSPropertyOp29
 70
     1
102
RTVSPropertyOp30
 70
     1
102
RTVSPropertyOp31
 70
     1
102
RTVSPropertyOp32
 70
     1
102
RTVSPropertyOp33
 70
     1
102
RTVSPropertyOp34
 70
     1
102
RTVSPropertyOp35
 70
     1
102
RTVSPropertyOp36
 70
     1
102
RTVSPropertyOp37
 70
     1
102
RTVSPropertyOp38
 70
     1
102
RTVSPropertyOp39
 70
     1
102
RTVSPropertyOp40
 70
     1
102
RTVSPropertyOp41
 70
     1
102
RTVSPropertyOp42
 70
     1
102
RTVSPropertyOp43
 70
     1
102
RTVSPropertyOp44
 70
     1
102
RTVSPropertyOp45
 70
     1
102
RTVSPropertyOp46
 70
     1
102
RTVSPropertyOp47
 70
     1
102
RTVSPropertyOp48
 70
     1
102
RTVSPropertyOp49
 70
     1
102
RTVSPropertyOp50
 70
     1
102
RTVSPropertyOp51
 70
     0
102
RTVSPropertyOp52
 70
     0
102
RTVSPropertyOp53
 70
     1
102
RTVSPropertyOp54
 70
     1
102
RTVSPropertyOp55
 70
     1
102
RTVSPropertyOp56
 70
     1
102
RTVSPropertyOp57
 70
     1
102
RTVSPropertyOp58
 70
     1
102
RTVSPropertyOp59
 70
     1
102
RTVSPropertyOp60
 70
     1
102
RTVSPropertyOp61
 70
     1
102
RTVSPropertyOp62
 70
     1
  0
XRECORD
  5
5C2C
102
{ACAD_REACTORS
330
5C2B
102
}
330
5C2B
100
AcDbXrecord
280
     1
102
RTVSPost2010Prop28
280
     0
102
RTVSPost2010PropOp28
 70
     1
102
RTVSPost2010Prop29
280
     1
102
RTVSPost2010PropOp29
 70
     1
102
RTVSPost2010Prop30
280
     1
102
RTVSPost2010PropOp30
 70
     1
102
RTVSPost2010Prop31
280
     0
102
RTVSPost2010PropOp31
 70
     1
102
RTVSPost2010Prop32
280
     0
102
RTVSPost2010PropOp32
 70
     1
102
RTVSPost2010Prop33
280
     0
102
RTVSPost2010PropOp33
 70
     1
102
RTVSPost2010Prop34
280
     0
102
RTVSPost2010PropOp34
 70
     1
102
RTVSPost2010Prop35
280
     0
102
RTVSPost2010PropOp35
 70
     1
102
RTVSPost2010Prop36
280
     0
102
RTVSPost2010PropOp36
 70
     1
102
RTVSPost2010Prop37
 90
       50
102
RTVSPost2010PropOp37
 70
     1
102
RTVSPost2010Prop38
140
0.0
102
RTVSPost2010PropOp38
 70
     1
102
RTVSPost2010Prop39
140
1.0
102
RTVSPost2010PropOp39
 70
     1
102
RTVSPost2010Prop40
 90
        0
102
RTVSPost2010PropOp40
 70
     1
102
RTVSPost2010Prop41ColorIndex
 90
       18
102
RTVSPost2010Prop41ColorRGB
 90
        0
102
RTVSPost2010PropOp41
 70
     1
102
RTVSPost2010Prop42
 90
       50
102
RTVSPost2010PropOp42
 70
     1
102
RTVSPost2010Prop43
 90
        3
102
RTVSPost2010PropOp43
 70
     1
102
RTVSPost2010Prop44ColorIndex
 90
        5
102
RTVSPost2010Prop44ColorRGB
 90
      255
102
RTVSPost2010PropOp44
 70
     1
102
RTVSPost2010Prop45
280
     0
102
RTVSPost2010PropOp45
 70
     1
102
RTVSPost2010Prop46
 90
       50
102
RTVSPost2010PropOp46
 70
     1
102
RTVSPost2010Prop47
 90
       50
102
RTVSPost2010PropOp47
 70
     1
102
RTVSPost2010Prop48
 90
       50
102
RTVSPost2010PropOp48
 70
     1
102
RTVSPost2010Prop49
280
     0
102
RTVSPost2010PropOp49
 70
     1
102
RTVSPost2010Prop50
 90
       50
102
RTVSPost2010PropOp50
 70
     1
102
RTVSPost2010Prop51ColorIndex
 90
      256
102
RTVSPost2010Prop51ColorRGB
 90
-16777216
102
RTVSPost2010PropOp51
 70
     0
102
RTVSPost2010Prop52
140
1.0
102
RTVSPost2010PropOp52
 70
     0
102
RTVSPost2010Prop53
 90
        2
102
RTVSPost2010PropOp53
 70
     1
102
RTVSPost2010Prop54
  1
strokes_ogs.tif
102
RTVSPost2010PropOp54
 70
     1
102
RTVSPost2010Prop55
280
     0
102
RTVSPost2010PropOp55
 70
     1
102
RTVSPost2010Prop56
140
1.0
102
RTVSPost2010PropOp56
 70
     1
102
RTVSPost2010Prop57
140
1.0
102
RTVSPost2010PropOp57
 70
     1
102
RTVSPropertyOp0
 70
     1
102
RTVSPropertyOp1
 70
     1
102
RTVSPropertyOp2
 70
     1
102
RTVSPropertyOp3
 70
     1
102
RTVSPropertyOp4
 70
     1
102
RTVSPropertyOp5
 70
     1
102
RTVSPropertyOp6
 70
     1
102
RTVSPropertyOp7
 70
     1
102
RTVSPropertyOp8
 70
     1
102
RTVSPropertyOp9
 70
     1
102
RTVSPropertyOp10
 70
     1
102
RTVSPropertyOp11
 70
     1
102
RTVSPropertyOp12
 70
     1
102
RTVSPropertyOp13
 70
     1
102
RTVSPropertyOp14
 70
     1
102
RTVSPropertyOp15
 70
     1
102
RTVSPropertyOp16
 70
     1
102
RTVSPropertyOp17
 70
     1
102
RTVSPropertyOp18
 70
     1
102
RTVSPropertyOp19
 70
     1
102
RTVSPropertyOp20
 70
     1
102
RTVSPropertyOp21
 70
     1
102
RTVSPropertyOp22
 70
     1
102
RTVSPropertyOp23
 70
     1
102
RTVSPropertyOp24
 70
     1
102
RTVSPropertyOp25
 70
     1
102
RTVSPropertyOp26
 70
     1
102
RTVSPropertyOp27
 70
     1
102
RTVSPropertyOp28
 70
     1
102
RTVSPropertyOp29
 70
     1
102
RTVSPropertyOp30
 70
     1
102
RTVSPropertyOp31
 70
     1
102
RTVSPropertyOp32
 70
     1
102
RTVSPropertyOp33
 70
     1
102
RTVSPropertyOp34
 70
     1
102
RTVSPropertyOp35
 70
     1
102
RTVSPropertyOp36
 70
     1
102
RTVSPropertyOp37
 70
     1
102
RTVSPropertyOp38
 70
     1
102
RTVSPropertyOp39
 70
     1
102
RTVSPropertyOp40
 70
     1
102
RTVSPropertyOp41
 70
     1
102
RTVSPropertyOp42
 70
     1
102
RTVSPropertyOp43
 70
     1
102
RTVSPropertyOp44
 70
     1
102
RTVSPropertyOp45
 70
     1
102
RTVSPropertyOp46
 70
     1
102
RTVSPropertyOp47
 70
     1
102
RTVSPropertyOp48
 70
     1
102
RTVSPropertyOp49
 70
     1
102
RTVSPropertyOp50
 70
     1
102
RTVSPropertyOp51
 70
     0
102
RTVSPropertyOp52
 70
     0
102
RTVSPropertyOp53
 70
     1
102
RTVSPropertyOp54
 70
     1
102
RTVSPropertyOp55
 70
     1
102
RTVSPropertyOp56
 70
     1
102
RTVSPropertyOp57
 70
     1
102
RTVSPropertyOp58
 70
     1
102
RTVSPropertyOp59
 70
     1
102
RTVSPropertyOp60
 70
     1
102
RTVSPropertyOp61
 70
     1
102
RTVSPropertyOp62
 70
     1
  0
XRECORD
  5
5C34
102
{ACAD_REACTORS
330
5C33
102
}
330
5C33
100
AcDbXrecord
280
     1
102
RTVSPost2010Prop28
280
     0
102
RTVSPost2010PropOp28
 70
     1
102
RTVSPost2010Prop29
280
     1
102
RTVSPost2010PropOp29
 70
     1
102
RTVSPost2010Prop30
280
     1
102
RTVSPost2010PropOp30
 70
     1
102
RTVSPost2010Prop31
280
     0
102
RTVSPost2010PropOp31
 70
     1
102
RTVSPost2010Prop32
280
     0
102
RTVSPost2010PropOp32
 70
     1
102
RTVSPost2010Prop33
280
     0
102
RTVSPost2010PropOp33
 70
     1
102
RTVSPost2010Prop34
280
     0
102
RTVSPost2010PropOp34
 70
     1
102
RTVSPost2010Prop35
280
     0
102
RTVSPost2010PropOp35
 70
     1
102
RTVSPost2010Prop36
280
     0
102
RTVSPost2010PropOp36
 70
     1
102
RTVSPost2010Prop37
 90
       50
102
RTVSPost2010PropOp37
 70
     1
102
RTVSPost2010Prop38
140
0.0
102
RTVSPost2010PropOp38
 70
     1
102
RTVSPost2010Prop39
140
1.0
102
RTVSPost2010PropOp39
 70
     1
102
RTVSPost2010Prop40
 90
        0
102
RTVSPost2010PropOp40
 70
     1
102
RTVSPost2010Prop41ColorIndex
 90
       18
102
RTVSPost2010Prop41ColorRGB
 90
        0
102
RTVSPost2010PropOp41
 70
     1
102
RTVSPost2010Prop42
 90
       50
102
RTVSPost2010PropOp42
 70
     1
102
RTVSPost2010Prop43
 90
        3
102
RTVSPost2010PropOp43
 70
     1
102
RTVSPost2010Prop44ColorIndex
 90
        5
102
RTVSPost2010Prop44ColorRGB
 90
      255
102
RTVSPost2010PropOp44
 70
     1
102
RTVSPost2010Prop45
280
     0
102
RTVSPost2010PropOp45
 70
     1
102
RTVSPost2010Prop46
 90
       50
102
RTVSPost2010PropOp46
 70
     1
102
RTVSPost2010Prop47
 90
       50
102
RTVSPost2010PropOp47
 70
     1
102
RTVSPost2010Prop48
 90
       50
102
RTVSPost2010PropOp48
 70
     1
102
RTVSPost2010Prop49
280
     0
102
RTVSPost2010PropOp49
 70
     1
102
RTVSPost2010Prop50
 90
       50
102
RTVSPost2010PropOp50
 70
     1
102
RTVSPost2010Prop51ColorIndex
 90
      256
102
RTVSPost2010Prop51ColorRGB
 90
-16777216
102
RTVSPost2010PropOp51
 70
     0
102
RTVSPost2010Prop52
140
1.0
102
RTVSPost2010PropOp52
 70
     0
102
RTVSPost2010Prop53
 90
        2
102
RTVSPost2010PropOp53
 70
     1
102
RTVSPost2010Prop54
  1
strokes_ogs.tif
102
RTVSPost2010PropOp54
 70
     1
102
RTVSPost2010Prop55
280
     0
102
RTVSPost2010PropOp55
 70
     1
102
RTVSPost2010Prop56
140
1.0
102
RTVSPost2010PropOp56
 70
     1
102
RTVSPost2010Prop57
140
1.0
102
RTVSPost2010PropOp57
 70
     1
102
RTVSPropertyOp0
 70
     1
102
RTVSPropertyOp1
 70
     1
102
RTVSPropertyOp2
 70
     1
102
RTVSPropertyOp3
 70
     1
102
RTVSPropertyOp4
 70
     1
102
RTVSPropertyOp5
 70
     1
102
RTVSPropertyOp6
 70
     1
102
RTVSPropertyOp7
 70
     1
102
RTVSPropertyOp8
 70
     1
102
RTVSPropertyOp9
 70
     1
102
RTVSPropertyOp10
 70
     1
102
RTVSPropertyOp11
 70
     1
102
RTVSPropertyOp12
 70
     1
102
RTVSPropertyOp13
 70
     1
102
RTVSPropertyOp14
 70
     1
102
RTVSPropertyOp15
 70
     1
102
RTVSPropertyOp16
 70
     1
102
RTVSPropertyOp17
 70
     1
102
RTVSPropertyOp18
 70
     1
102
RTVSPropertyOp19
 70
     1
102
RTVSPropertyOp20
 70
     1
102
RTVSPropertyOp21
 70
     1
102
RTVSPropertyOp22
 70
     1
102
RTVSPropertyOp23
 70
     1
102
RTVSPropertyOp24
 70
     1
102
RTVSPropertyOp25
 70
     1
102
RTVSPropertyOp26
 70
     1
102
RTVSPropertyOp27
 70
     1
102
RTVSPropertyOp28
 70
     1
102
RTVSPropertyOp29
 70
     1
102
RTVSPropertyOp30
 70
     1
102
RTVSPropertyOp31
 70
     1
102
RTVSPropertyOp32
 70
     1
102
RTVSPropertyOp33
 70
     1
102
RTVSPropertyOp34
 70
     1
102
RTVSPropertyOp35
 70
     1
102
RTVSPropertyOp36
 70
     1
102
RTVSPropertyOp37
 70
     1
102
RTVSPropertyOp38
 70
     1
102
RTVSPropertyOp39
 70
     1
102
RTVSPropertyOp40
 70
     1
102
RTVSPropertyOp41
 70
     1
102
RTVSPropertyOp42
 70
     1
102
RTVSPropertyOp43
 70
     1
102
RTVSPropertyOp44
 70
     1
102
RTVSPropertyOp45
 70
     1
102
RTVSPropertyOp46
 70
     1
102
RTVSPropertyOp47
 70
     1
102
RTVSPropertyOp48
 70
     1
102
RTVSPropertyOp49
 70
     1
102
RTVSPropertyOp50
 70
     1
102
RTVSPropertyOp51
 70
     0
102
RTVSPropertyOp52
 70
     0
102
RTVSPropertyOp53
 70
     1
102
RTVSPropertyOp54
 70
     1
102
RTVSPropertyOp55
 70
     1
102
RTVSPropertyOp56
 70
     1
102
RTVSPropertyOp57
 70
     1
102
RTVSPropertyOp58
 70
     1
102
RTVSPropertyOp59
 70
     1
102
RTVSPropertyOp60
 70
     1
102
RTVSPropertyOp61
 70
     1
102
RTVSPropertyOp62
 70
     1
  0
XRECORD
  5
5C26
102
{ACAD_REACTORS
330
5C25
102
}
330
5C25
100
AcDbXrecord
280
     1
102
RTVSPost2010Prop28
280
     0
102
RTVSPost2010PropOp28
 70
     1
102
RTVSPost2010Prop29
280
     1
102
RTVSPost2010PropOp29
 70
     1
102
RTVSPost2010Prop30
280
     1
102
RTVSPost2010PropOp30
 70
     1
102
RTVSPost2010Prop31
280
     0
102
RTVSPost2010PropOp31
 70
     1
102
RTVSPost2010Prop32
280
     0
102
RTVSPost2010PropOp32
 70
     1
102
RTVSPost2010Prop33
280
     0
102
RTVSPost2010PropOp33
 70
     1
102
RTVSPost2010Prop34
280
     0
102
RTVSPost2010PropOp34
 70
     1
102
RTVSPost2010Prop35
280
     0
102
RTVSPost2010PropOp35
 70
     1
102
RTVSPost2010Prop36
280
     0
102
RTVSPost2010PropOp36
 70
     1
102
RTVSPost2010Prop37
 90
       50
102
RTVSPost2010PropOp37
 70
     1
102
RTVSPost2010Prop38
140
0.0
102
RTVSPost2010PropOp38
 70
     1
102
RTVSPost2010Prop39
140
1.0
102
RTVSPost2010PropOp39
 70
     1
102
RTVSPost2010Prop40
 90
        0
102
RTVSPost2010PropOp40
 70
     1
102
RTVSPost2010Prop41ColorIndex
 90
       18
102
RTVSPost2010Prop41ColorRGB
 90
        0
102
RTVSPost2010PropOp41
 70
     1
102
RTVSPost2010Prop42
 90
       50
102
RTVSPost2010PropOp42
 70
     1
102
RTVSPost2010Prop43
 90
        3
102
RTVSPost2010PropOp43
 70
     1
102
RTVSPost2010Prop44ColorIndex
 90
        5
102
RTVSPost2010Prop44ColorRGB
 90
      255
102
RTVSPost2010PropOp44
 70
     1
102
RTVSPost2010Prop45
280
     0
102
RTVSPost2010PropOp45
 70
     1
102
RTVSPost2010Prop46
 90
       50
102
RTVSPost2010PropOp46
 70
     1
102
RTVSPost2010Prop47
 90
       50
102
RTVSPost2010PropOp47
 70
     1
102
RTVSPost2010Prop48
 90
       50
102
RTVSPost2010PropOp48
 70
     1
102
RTVSPost2010Prop49
280
     0
102
RTVSPost2010PropOp49
 70
     1
102
RTVSPost2010Prop50
 90
       50
102
RTVSPost2010PropOp50
 70
     1
102
RTVSPost2010Prop51ColorIndex
 90
      256
102
RTVSPost2010Prop51ColorRGB
 90
-16777216
102
RTVSPost2010PropOp51
 70
     0
102
RTVSPost2010Prop52
140
1.0
102
RTVSPost2010PropOp52
 70
     0
102
RTVSPost2010Prop53
 90
        2
102
RTVSPost2010PropOp53
 70
     1
102
RTVSPost2010Prop54
  1
strokes_ogs.tif
102
RTVSPost2010PropOp54
 70
     1
102
RTVSPost2010Prop55
280
     0
102
RTVSPost2010PropOp55
 70
     1
102
RTVSPost2010Prop56
140
1.0
102
RTVSPost2010PropOp56
 70
     1
102
RTVSPost2010Prop57
140
1.0
102
RTVSPost2010PropOp57
 70
     1
102
RTVSPropertyOp0
 70
     1
102
RTVSPropertyOp1
 70
     1
102
RTVSPropertyOp2
 70
     1
102
RTVSPropertyOp3
 70
     1
102
RTVSPropertyOp4
 70
     1
102
RTVSPropertyOp5
 70
     1
102
RTVSPropertyOp6
 70
     1
102
RTVSPropertyOp7
 70
     1
102
RTVSPropertyOp8
 70
     1
102
RTVSPropertyOp9
 70
     1
102
RTVSPropertyOp10
 70
     1
102
RTVSPropertyOp11
 70
     1
102
RTVSPropertyOp12
 70
     1
102
RTVSPropertyOp13
 70
     1
102
RTVSPropertyOp14
 70
     1
102
RTVSPropertyOp15
 70
     1
102
RTVSPropertyOp16
 70
     1
102
RTVSPropertyOp17
 70
     1
102
RTVSPropertyOp18
 70
     1
102
RTVSPropertyOp19
 70
     1
102
RTVSPropertyOp20
 70
     1
102
RTVSPropertyOp21
 70
     1
102
RTVSPropertyOp22
 70
     1
102
RTVSPropertyOp23
 70
     1
102
RTVSPropertyOp24
 70
     1
102
RTVSPropertyOp25
 70
     1
102
RTVSPropertyOp26
 70
     1
102
RTVSPropertyOp27
 70
     1
102
RTVSPropertyOp28
 70
     1
102
RTVSPropertyOp29
 70
     1
102
RTVSPropertyOp30
 70
     1
102
RTVSPropertyOp31
 70
     1
102
RTVSPropertyOp32
 70
     1
102
RTVSPropertyOp33
 70
     1
102
RTVSPropertyOp34
 70
     1
102
RTVSPropertyOp35
 70
     1
102
RTVSPropertyOp36
 70
     1
102
RTVSPropertyOp37
 70
     1
102
RTVSPropertyOp38
 70
     1
102
RTVSPropertyOp39
 70
     1
102
RTVSPropertyOp40
 70
     1
102
RTVSPropertyOp41
 70
     1
102
RTVSPropertyOp42
 70
     1
102
RTVSPropertyOp43
 70
     1
102
RTVSPropertyOp44
 70
     1
102
RTVSPropertyOp45
 70
     1
102
RTVSPropertyOp46
 70
     1
102
RTVSPropertyOp47
 70
     1
102
RTVSPropertyOp48
 70
     1
102
RTVSPropertyOp49
 70
     1
102
RTVSPropertyOp50
 70
     1
102
RTVSPropertyOp51
 70
     0
102
RTVSPropertyOp52
 70
     0
102
RTVSPropertyOp53
 70
     1
102
RTVSPropertyOp54
 70
     1
102
RTVSPropertyOp55
 70
     1
102
RTVSPropertyOp56
 70
     1
102
RTVSPropertyOp57
 70
     1
102
RTVSPropertyOp58
 70
     1
102
RTVSPropertyOp59
 70
     1
102
RTVSPropertyOp60
 70
     1
102
RTVSPropertyOp61
 70
     1
102
RTVSPropertyOp62
 70
     1
  0
XRECORD
  5
5C2A
102
{ACAD_REACTORS
330
5C29
102
}
330
5C29
100
AcDbXrecord
280
     1
102
RTVSPost2010Prop28
280
     0
102
RTVSPost2010PropOp28
 70
     1
102
RTVSPost2010Prop29
280
     1
102
RTVSPost2010PropOp29
 70
     1
102
RTVSPost2010Prop30
280
     1
102
RTVSPost2010PropOp30
 70
     1
102
RTVSPost2010Prop31
280
     0
102
RTVSPost2010PropOp31
 70
     1
102
RTVSPost2010Prop32
280
     0
102
RTVSPost2010PropOp32
 70
     1
102
RTVSPost2010Prop33
280
     0
102
RTVSPost2010PropOp33
 70
     1
102
RTVSPost2010Prop34
280
     0
102
RTVSPost2010PropOp34
 70
     1
102
RTVSPost2010Prop35
280
     0
102
RTVSPost2010PropOp35
 70
     1
102
RTVSPost2010Prop36
280
     0
102
RTVSPost2010PropOp36
 70
     1
102
RTVSPost2010Prop37
 90
       50
102
RTVSPost2010PropOp37
 70
     1
102
RTVSPost2010Prop38
140
0.0
102
RTVSPost2010PropOp38
 70
     1
102
RTVSPost2010Prop39
140
1.0
102
RTVSPost2010PropOp39
 70
     1
102
RTVSPost2010Prop40
 90
        0
102
RTVSPost2010PropOp40
 70
     1
102
RTVSPost2010Prop41ColorIndex
 90
       18
102
RTVSPost2010Prop41ColorRGB
 90
        0
102
RTVSPost2010PropOp41
 70
     1
102
RTVSPost2010Prop42
 90
       50
102
RTVSPost2010PropOp42
 70
     1
102
RTVSPost2010Prop43
 90
        3
102
RTVSPost2010PropOp43
 70
     1
102
RTVSPost2010Prop44ColorIndex
 90
        5
102
RTVSPost2010Prop44ColorRGB
 90
      255
102
RTVSPost2010PropOp44
 70
     1
102
RTVSPost2010Prop45
280
     0
102
RTVSPost2010PropOp45
 70
     1
102
RTVSPost2010Prop46
 90
       50
102
RTVSPost2010PropOp46
 70
     1
102
RTVSPost2010Prop47
 90
       50
102
RTVSPost2010PropOp47
 70
     1
102
RTVSPost2010Prop48
 90
       50
102
RTVSPost2010PropOp48
 70
     1
102
RTVSPost2010Prop49
280
     0
102
RTVSPost2010PropOp49
 70
     1
102
RTVSPost2010Prop50
 90
       50
102
RTVSPost2010PropOp50
 70
     1
102
RTVSPost2010Prop51ColorIndex
 90
      256
102
RTVSPost2010Prop51ColorRGB
 90
-16777216
102
RTVSPost2010PropOp51
 70
     0
102
RTVSPost2010Prop52
140
1.0
102
RTVSPost2010PropOp52
 70
     0
102
RTVSPost2010Prop53
 90
        2
102
RTVSPost2010PropOp53
 70
     1
102
RTVSPost2010Prop54
  1
strokes_ogs.tif
102
RTVSPost2010PropOp54
 70
     1
102
RTVSPost2010Prop55
280
     0
102
RTVSPost2010PropOp55
 70
     1
102
RTVSPost2010Prop56
140
1.0
102
RTVSPost2010PropOp56
 70
     1
102
RTVSPost2010Prop57
140
1.0
102
RTVSPost2010PropOp57
 70
     1
102
RTVSPropertyOp0
 70
     1
102
RTVSPropertyOp1
 70
     1
102
RTVSPropertyOp2
 70
     1
102
RTVSPropertyOp3
 70
     1
102
RTVSPropertyOp4
 70
     1
102
RTVSPropertyOp5
 70
     1
102
RTVSPropertyOp6
 70
     1
102
RTVSPropertyOp7
 70
     1
102
RTVSPropertyOp8
 70
     1
102
RTVSPropertyOp9
 70
     1
102
RTVSPropertyOp10
 70
     1
102
RTVSPropertyOp11
 70
     1
102
RTVSPropertyOp12
 70
     1
102
RTVSPropertyOp13
 70
     1
102
RTVSPropertyOp14
 70
     1
102
RTVSPropertyOp15
 70
     1
102
RTVSPropertyOp16
 70
     1
102
RTVSPropertyOp17
 70
     1
102
RTVSPropertyOp18
 70
     1
102
RTVSPropertyOp19
 70
     1
102
RTVSPropertyOp20
 70
     1
102
RTVSPropertyOp21
 70
     1
102
RTVSPropertyOp22
 70
     1
102
RTVSPropertyOp23
 70
     1
102
RTVSPropertyOp24
 70
     1
102
RTVSPropertyOp25
 70
     1
102
RTVSPropertyOp26
 70
     1
102
RTVSPropertyOp27
 70
     1
102
RTVSPropertyOp28
 70
     1
102
RTVSPropertyOp29
 70
     1
102
RTVSPropertyOp30
 70
     1
102
RTVSPropertyOp31
 70
     1
102
RTVSPropertyOp32
 70
     1
102
RTVSPropertyOp33
 70
     1
102
RTVSPropertyOp34
 70
     1
102
RTVSPropertyOp35
 70
     1
102
RTVSPropertyOp36
 70
     1
102
RTVSPropertyOp37
 70
     1
102
RTVSPropertyOp38
 70
     1
102
RTVSPropertyOp39
 70
     1
102
RTVSPropertyOp40
 70
     1
102
RTVSPropertyOp41
 70
     1
102
RTVSPropertyOp42
 70
     1
102
RTVSPropertyOp43
 70
     1
102
RTVSPropertyOp44
 70
     1
102
RTVSPropertyOp45
 70
     1
102
RTVSPropertyOp46
 70
     1
102
RTVSPropertyOp47
 70
     1
102
RTVSPropertyOp48
 70
     1
102
RTVSPropertyOp49
 70
     1
102
RTVSPropertyOp50
 70
     1
102
RTVSPropertyOp51
 70
     0
102
RTVSPropertyOp52
 70
     0
102
RTVSPropertyOp53
 70
     1
102
RTVSPropertyOp54
 70
     1
102
RTVSPropertyOp55
 70
     1
102
RTVSPropertyOp56
 70
     1
102
RTVSPropertyOp57
 70
     1
102
RTVSPropertyOp58
 70
     1
102
RTVSPropertyOp59
 70
     1
102
RTVSPropertyOp60
 70
     1
102
RTVSPropertyOp61
 70
     1
102
RTVSPropertyOp62
 70
     1
  0
XRECORD
  5
5C44
102
{ACAD_REACTORS
330
5C43
102
}
330
5C43
100
AcDbXrecord
280
     1
102
RTVSPost2010Prop28
280
     0
102
RTVSPost2010PropOp28
 70
     0
102
RTVSPost2010Prop29
280
     1
102
RTVSPost2010PropOp29
 70
     0
102
RTVSPost2010Prop30
280
     1
102
RTVSPost2010PropOp30
 70
     0
102
RTVSPost2010Prop31
280
     0
102
RTVSPost2010PropOp31
 70
     0
102
RTVSPost2010Prop32
280
     0
102
RTVSPost2010PropOp32
 70
     0
102
RTVSPost2010Prop33
280
     0
102
RTVSPost2010PropOp33
 70
     0
102
RTVSPost2010Prop34
280
     0
102
RTVSPost2010PropOp34
 70
     0
102
RTVSPost2010Prop35
280
     0
102
RTVSPost2010PropOp35
 70
     0
102
RTVSPost2010Prop36
280
     0
102
RTVSPost2010PropOp36
 70
     0
102
RTVSPost2010Prop37
 90
       50
102
RTVSPost2010PropOp37
 70
     0
102
RTVSPost2010Prop38
140
0.0
102
RTVSPost2010PropOp38
 70
     0
102
RTVSPost2010Prop39
140
1.0
102
RTVSPost2010PropOp39
 70
     0
102
RTVSPost2010Prop40
 90
        0
102
RTVSPost2010PropOp40
 70
     0
102
RTVSPost2010Prop41ColorIndex
 90
       18
102
RTVSPost2010Prop41ColorRGB
 90
        0
102
RTVSPost2010PropOp41
 70
     0
102
RTVSPost2010Prop42
 90
       50
102
RTVSPost2010PropOp42
 70
     0
102
RTVSPost2010Prop43
 90
        3
102
RTVSPost2010PropOp43
 70
     0
102
RTVSPost2010Prop44ColorIndex
 90
        5
102
RTVSPost2010Prop44ColorRGB
 90
      255
102
RTVSPost2010PropOp44
 70
     0
102
RTVSPost2010Prop45
280
     0
102
RTVSPost2010PropOp45
 70
     0
102
RTVSPost2010Prop46
 90
       50
102
RTVSPost2010PropOp46
 70
     0
102
RTVSPost2010Prop47
 90
       50
102
RTVSPost2010PropOp47
 70
     0
102
RTVSPost2010Prop48
 90
       50
102
RTVSPost2010PropOp48
 70
     0
102
RTVSPost2010Prop49
280
     0
102
RTVSPost2010PropOp49
 70
     0
102
RTVSPost2010Prop50
 90
       50
102
RTVSPost2010PropOp50
 70
     0
102
RTVSPost2010Prop51ColorIndex
 90
      256
102
RTVSPost2010Prop51ColorRGB
 90
-16777216
102
RTVSPost2010PropOp51
 70
     0
102
RTVSPost2010Prop52
140
1.0
102
RTVSPost2010PropOp52
 70
     0
102
RTVSPost2010Prop53
 90
        2
102
RTVSPost2010PropOp53
 70
     0
102
RTVSPost2010Prop54
  1
strokes_ogs.tif
102
RTVSPost2010PropOp54
 70
     0
102
RTVSPost2010Prop55
280
     0
102
RTVSPost2010PropOp55
 70
     0
102
RTVSPost2010Prop56
140
1.0
102
RTVSPost2010PropOp56
 70
     0
102
RTVSPost2010Prop57
140
1.0
102
RTVSPost2010PropOp57
 70
     0
102
RTVSPropertyOp0
 70
     0
102
RTVSPropertyOp1
 70
     0
102
RTVSPropertyOp2
 70
     0
102
RTVSPropertyOp3
 70
     0
102
RTVSPropertyOp4
 70
     0
102
RTVSPropertyOp5
 70
     0
102
RTVSPropertyOp6
 70
     0
102
RTVSPropertyOp7
 70
     0
102
RTVSPropertyOp8
 70
     0
102
RTVSPropertyOp9
 70
     0
102
RTVSPropertyOp10
 70
     0
102
RTVSPropertyOp11
 70
     0
102
RTVSPropertyOp12
 70
     0
102
RTVSPropertyOp13
 70
     0
102
RTVSPropertyOp14
 70
     2
102
RTVSPropertyOp15
 70
     0
102
RTVSPropertyOp16
 70
     0
102
RTVSPropertyOp17
 70
     0
102
RTVSPropertyOp18
 70
     0
102
RTVSPropertyOp19
 70
     0
102
RTVSPropertyOp20
 70
     0
102
RTVSPropertyOp21
 70
     0
102
RTVSPropertyOp22
 70
     0
102
RTVSPropertyOp23
 70
     0
102
RTVSPropertyOp24
 70
     0
102
RTVSPropertyOp25
 70
     0
102
RTVSPropertyOp26
 70
     0
102
RTVSPropertyOp27
 70
     0
102
RTVSPropertyOp28
 70
     0
102
RTVSPropertyOp29
 70
     0
102
RTVSPropertyOp30
 70
     0
102
RTVSPropertyOp31
 70
     0
102
RTVSPropertyOp32
 70
     0
102
RTVSPropertyOp33
 70
     0
102
RTVSPropertyOp34
 70
     0
102
RTVSPropertyOp35
 70
     0
102
RTVSPropertyOp36
 70
     0
102
RTVSPropertyOp37
 70
     0
102
RTVSPropertyOp38
 70
     0
102
RTVSPropertyOp39
 70
     0
102
RTVSPropertyOp40
 70
     0
102
RTVSPropertyOp41
 70
     0
102
RTVSPropertyOp42
 70
     0
102
RTVSPropertyOp43
 70
     0
102
RTVSPropertyOp44
 70
     0
102
RTVSPropertyOp45
 70
     0
102
RTVSPropertyOp46
 70
     0
102
RTVSPropertyOp47
 70
     0
102
RTVSPropertyOp48
 70
     0
102
RTVSPropertyOp49
 70
     0
102
RTVSPropertyOp50
 70
     0
102
RTVSPropertyOp51
 70
     0
102
RTVSPropertyOp52
 70
     0
102
RTVSPropertyOp53
 70
     0
102
RTVSPropertyOp54
 70
     0
102
RTVSPropertyOp55
 70
     0
102
RTVSPropertyOp56
 70
     0
102
RTVSPropertyOp57
 70
     0
102
RTVSPropertyOp58
 70
     1
102
RTVSPropertyOp59
 70
     1
102
RTVSPropertyOp60
 70
     1
102
RTVSPropertyOp61
 70
     1
102
RTVSPropertyOp62
 70
     1
  0
XRECORD
  5
5C32
102
{ACAD_REACTORS
330
5C31
102
}
330
5C31
100
AcDbXrecord
280
     1
102
RTVSPost2010Prop28
280
     0
102
RTVSPost2010PropOp28
 70
     1
102
RTVSPost2010Prop29
280
     1
102
RTVSPost2010PropOp29
 70
     1
102
RTVSPost2010Prop30
280
     1
102
RTVSPost2010PropOp30
 70
     1
102
RTVSPost2010Prop31
280
     0
102
RTVSPost2010PropOp31
 70
     1
102
RTVSPost2010Prop32
280
     0
102
RTVSPost2010PropOp32
 70
     1
102
RTVSPost2010Prop33
280
     0
102
RTVSPost2010PropOp33
 70
     1
102
RTVSPost2010Prop34
280
     0
102
RTVSPost2010PropOp34
 70
     1
102
RTVSPost2010Prop35
280
     0
102
RTVSPost2010PropOp35
 70
     1
102
RTVSPost2010Prop36
280
     0
102
RTVSPost2010PropOp36
 70
     1
102
RTVSPost2010Prop37
 90
       50
102
RTVSPost2010PropOp37
 70
     1
102
RTVSPost2010Prop38
140
0.0
102
RTVSPost2010PropOp38
 70
     1
102
RTVSPost2010Prop39
140
1.0
102
RTVSPost2010PropOp39
 70
     1
102
RTVSPost2010Prop40
 90
        0
102
RTVSPost2010PropOp40
 70
     1
102
RTVSPost2010Prop41ColorIndex
 90
       18
102
RTVSPost2010Prop41ColorRGB
 90
        0
102
RTVSPost2010PropOp41
 70
     1
102
RTVSPost2010Prop42
 90
       50
102
RTVSPost2010PropOp42
 70
     1
102
RTVSPost2010Prop43
 90
        3
102
RTVSPost2010PropOp43
 70
     1
102
RTVSPost2010Prop44ColorIndex
 90
        5
102
RTVSPost2010Prop44ColorRGB
 90
      255
102
RTVSPost2010PropOp44
 70
     1
102
RTVSPost2010Prop45
280
     0
102
RTVSPost2010PropOp45
 70
     1
102
RTVSPost2010Prop46
 90
       50
102
RTVSPost2010PropOp46
 70
     1
102
RTVSPost2010Prop47
 90
       50
102
RTVSPost2010PropOp47
 70
     1
102
RTVSPost2010Prop48
 90
       50
102
RTVSPost2010PropOp48
 70
     1
102
RTVSPost2010Prop49
280
     0
102
RTVSPost2010PropOp49
 70
     1
102
RTVSPost2010Prop50
 90
       50
102
RTVSPost2010PropOp50
 70
     1
102
RTVSPost2010Prop51ColorIndex
 90
      256
102
RTVSPost2010Prop51ColorRGB
 90
-16777216
102
RTVSPost2010PropOp51
 70
     0
102
RTVSPost2010Prop52
140
1.0
102
RTVSPost2010PropOp52
 70
     0
102
RTVSPost2010Prop53
 90
        2
102
RTVSPost2010PropOp53
 70
     1
102
RTVSPost2010Prop54
  1
strokes_ogs.tif
102
RTVSPost2010PropOp54
 70
     1
102
RTVSPost2010Prop55
280
     0
102
RTVSPost2010PropOp55
 70
     1
102
RTVSPost2010Prop56
140
1.0
102
RTVSPost2010PropOp56
 70
     1
102
RTVSPost2010Prop57
140
1.0
102
RTVSPost2010PropOp57
 70
     1
102
RTVSPropertyOp0
 70
     1
102
RTVSPropertyOp1
 70
     1
102
RTVSPropertyOp2
 70
     1
102
RTVSPropertyOp3
 70
     1
102
RTVSPropertyOp4
 70
     1
102
RTVSPropertyOp5
 70
     1
102
RTVSPropertyOp6
 70
     1
102
RTVSPropertyOp7
 70
     1
102
RTVSPropertyOp8
 70
     1
102
RTVSPropertyOp9
 70
     1
102
RTVSPropertyOp10
 70
     1
102
RTVSPropertyOp11
 70
     1
102
RTVSPropertyOp12
 70
     1
102
RTVSPropertyOp13
 70
     1
102
RTVSPropertyOp14
 70
     1
102
RTVSPropertyOp15
 70
     1
102
RTVSPropertyOp16
 70
     1
102
RTVSPropertyOp17
 70
     1
102
RTVSPropertyOp18
 70
     1
102
RTVSPropertyOp19
 70
     1
102
RTVSPropertyOp20
 70
     1
102
RTVSPropertyOp21
 70
     1
102
RTVSPropertyOp22
 70
     1
102
RTVSPropertyOp23
 70
     1
102
RTVSPropertyOp24
 70
     1
102
RTVSPropertyOp25
 70
     1
102
RTVSPropertyOp26
 70
     1
102
RTVSPropertyOp27
 70
     1
102
RTVSPropertyOp28
 70
     1
102
RTVSPropertyOp29
 70
     1
102
RTVSPropertyOp30
 70
     1
102
RTVSPropertyOp31
 70
     1
102
RTVSPropertyOp32
 70
     1
102
RTVSPropertyOp33
 70
     1
102
RTVSPropertyOp34
 70
     1
102
RTVSPropertyOp35
 70
     1
102
RTVSPropertyOp36
 70
     1
102
RTVSPropertyOp37
 70
     1
102
RTVSPropertyOp38
 70
     1
102
RTVSPropertyOp39
 70
     1
102
RTVSPropertyOp40
 70
     1
102
RTVSPropertyOp41
 70
     1
102
RTVSPropertyOp42
 70
     1
102
RTVSPropertyOp43
 70
     1
102
RTVSPropertyOp44
 70
     1
102
RTVSPropertyOp45
 70
     1
102
RTVSPropertyOp46
 70
     1
102
RTVSPropertyOp47
 70
     1
102
RTVSPropertyOp48
 70
     1
102
RTVSPropertyOp49
 70
     1
102
RTVSPropertyOp50
 70
     1
102
RTVSPropertyOp51
 70
     0
102
RTVSPropertyOp52
 70
     0
102
RTVSPropertyOp53
 70
     1
102
RTVSPropertyOp54
 70
     1
102
RTVSPropertyOp55
 70
     1
102
RTVSPropertyOp56
 70
     1
102
RTVSPropertyOp57
 70
     1
102
RTVSPropertyOp58
 70
     1
102
RTVSPropertyOp59
 70
     1
102
RTVSPropertyOp60
 70
     1
102
RTVSPropertyOp61
 70
     1
102
RTVSPropertyOp62
 70
     1
  0
XRECORD
  5
5C16
102
{ACAD_REACTORS
330
5C15
102
}
330
5C15
100
AcDbXrecord
280
     1
102
RTVSPost2010Prop28
280
     0
102
RTVSPost2010PropOp28
 70
     1
102
RTVSPost2010Prop29
280
     1
102
RTVSPost2010PropOp29
 70
     1
102
RTVSPost2010Prop30
280
     1
102
RTVSPost2010PropOp30
 70
     1
102
RTVSPost2010Prop31
280
     0
102
RTVSPost2010PropOp31
 70
     1
102
RTVSPost2010Prop32
280
     0
102
RTVSPost2010PropOp32
 70
     1
102
RTVSPost2010Prop33
280
     0
102
RTVSPost2010PropOp33
 70
     1
102
RTVSPost2010Prop34
280
     0
102
RTVSPost2010PropOp34
 70
     1
102
RTVSPost2010Prop35
280
     0
102
RTVSPost2010PropOp35
 70
     1
102
RTVSPost2010Prop36
280
     0
102
RTVSPost2010PropOp36
 70
     1
102
RTVSPost2010Prop37
 90
       50
102
RTVSPost2010PropOp37
 70
     1
102
RTVSPost2010Prop38
140
0.0
102
RTVSPost2010PropOp38
 70
     1
102
RTVSPost2010Prop39
140
1.0
102
RTVSPost2010PropOp39
 70
     1
102
RTVSPost2010Prop40
 90
        0
102
RTVSPost2010PropOp40
 70
     1
102
RTVSPost2010Prop41ColorIndex
 90
       18
102
RTVSPost2010Prop41ColorRGB
 90
        0
102
RTVSPost2010PropOp41
 70
     1
102
RTVSPost2010Prop42
 90
       50
102
RTVSPost2010PropOp42
 70
     1
102
RTVSPost2010Prop43
 90
        3
102
RTVSPost2010PropOp43
 70
     1
102
RTVSPost2010Prop44ColorIndex
 90
        5
102
RTVSPost2010Prop44ColorRGB
 90
      255
102
RTVSPost2010PropOp44
 70
     1
102
RTVSPost2010Prop45
280
     0
102
RTVSPost2010PropOp45
 70
     1
102
RTVSPost2010Prop46
 90
       50
102
RTVSPost2010PropOp46
 70
     1
102
RTVSPost2010Prop47
 90
       50
102
RTVSPost2010PropOp47
 70
     1
102
RTVSPost2010Prop48
 90
       50
102
RTVSPost2010PropOp48
 70
     1
102
RTVSPost2010Prop49
280
     0
102
RTVSPost2010PropOp49
 70
     1
102
RTVSPost2010Prop50
 90
       50
102
RTVSPost2010PropOp50
 70
     1
102
RTVSPost2010Prop51ColorIndex
 90
      256
102
RTVSPost2010Prop51ColorRGB
 90
-16777216
102
RTVSPost2010PropOp51
 70
     0
102
RTVSPost2010Prop52
140
1.0
102
RTVSPost2010PropOp52
 70
     0
102
RTVSPost2010Prop53
 90
        2
102
RTVSPost2010PropOp53
 70
     1
102
RTVSPost2010Prop54
  1
strokes_ogs.tif
102
RTVSPost2010PropOp54
 70
     1
102
RTVSPost2010Prop55
280
     0
102
RTVSPost2010PropOp55
 70
     1
102
RTVSPost2010Prop56
140
1.0
102
RTVSPost2010PropOp56
 70
     1
102
RTVSPost2010Prop57
140
1.0
102
RTVSPost2010PropOp57
 70
     1
102
RTVSPropertyOp0
 70
     1
102
RTVSPropertyOp1
 70
     1
102
RTVSPropertyOp2
 70
     1
102
RTVSPropertyOp3
 70
     1
102
RTVSPropertyOp4
 70
     1
102
RTVSPropertyOp5
 70
     1
102
RTVSPropertyOp6
 70
     1
102
RTVSPropertyOp7
 70
     1
102
RTVSPropertyOp8
 70
     1
102
RTVSPropertyOp9
 70
     1
102
RTVSPropertyOp10
 70
     1
102
RTVSPropertyOp11
 70
     1
102
RTVSPropertyOp12
 70
     1
102
RTVSPropertyOp13
 70
     1
102
RTVSPropertyOp14
 70
     1
102
RTVSPropertyOp15
 70
     1
102
RTVSPropertyOp16
 70
     1
102
RTVSPropertyOp17
 70
     1
102
RTVSPropertyOp18
 70
     1
102
RTVSPropertyOp19
 70
     1
102
RTVSPropertyOp20
 70
     1
102
RTVSPropertyOp21
 70
     1
102
RTVSPropertyOp22
 70
     1
102
RTVSPropertyOp23
 70
     1
102
RTVSPropertyOp24
 70
     1
102
RTVSPropertyOp25
 70
     1
102
RTVSPropertyOp26
 70
     1
102
RTVSPropertyOp27
 70
     1
102
RTVSPropertyOp28
 70
     1
102
RTVSPropertyOp29
 70
     1
102
RTVSPropertyOp30
 70
     1
102
RTVSPropertyOp31
 70
     1
102
RTVSPropertyOp32
 70
     1
102
RTVSPropertyOp33
 70
     1
102
RTVSPropertyOp34
 70
     1
102
RTVSPropertyOp35
 70
     1
102
RTVSPropertyOp36
 70
     1
102
RTVSPropertyOp37
 70
     1
102
RTVSPropertyOp38
 70
     1
102
RTVSPropertyOp39
 70
     1
102
RTVSPropertyOp40
 70
     1
102
RTVSPropertyOp41
 70
     1
102
RTVSPropertyOp42
 70
     1
102
RTVSPropertyOp43
 70
     1
102
RTVSPropertyOp44
 70
     1
102
RTVSPropertyOp45
 70
     1
102
RTVSPropertyOp46
 70
     1
102
RTVSPropertyOp47
 70
     1
102
RTVSPropertyOp48
 70
     1
102
RTVSPropertyOp49
 70
     1
102
RTVSPropertyOp50
 70
     1
102
RTVSPropertyOp51
 70
     0
102
RTVSPropertyOp52
 70
     0
102
RTVSPropertyOp53
 70
     1
102
RTVSPropertyOp54
 70
     1
102
RTVSPropertyOp55
 70
     1
102
RTVSPropertyOp56
 70
     1
102
RTVSPropertyOp57
 70
     1
102
RTVSPropertyOp58
 70
     1
102
RTVSPropertyOp59
 70
     1
102
RTVSPropertyOp60
 70
     1
102
RTVSPropertyOp61
 70
     1
102
RTVSPropertyOp62
 70
     1
  0
XRECORD
  5
5C18
102
{ACAD_REACTORS
330
5C17
102
}
330
5C17
100
AcDbXrecord
280
     1
102
RTVSPost2010Prop28
280
     0
102
RTVSPost2010PropOp28
 70
     1
102
RTVSPost2010Prop29
280
     1
102
RTVSPost2010PropOp29
 70
     1
102
RTVSPost2010Prop30
280
     1
102
RTVSPost2010PropOp30
 70
     1
102
RTVSPost2010Prop31
280
     0
102
RTVSPost2010PropOp31
 70
     1
102
RTVSPost2010Prop32
280
     0
102
RTVSPost2010PropOp32
 70
     1
102
RTVSPost2010Prop33
280
     0
102
RTVSPost2010PropOp33
 70
     1
102
RTVSPost2010Prop34
280
     0
102
RTVSPost2010PropOp34
 70
     1
102
RTVSPost2010Prop35
280
     0
102
RTVSPost2010PropOp35
 70
     1
102
RTVSPost2010Prop36
280
     0
102
RTVSPost2010PropOp36
 70
     1
102
RTVSPost2010Prop37
 90
       50
102
RTVSPost2010PropOp37
 70
     1
102
RTVSPost2010Prop38
140
0.0
102
RTVSPost2010PropOp38
 70
     1
102
RTVSPost2010Prop39
140
1.0
102
RTVSPost2010PropOp39
 70
     1
102
RTVSPost2010Prop40
 90
        0
102
RTVSPost2010PropOp40
 70
     1
102
RTVSPost2010Prop41ColorIndex
 90
       18
102
RTVSPost2010Prop41ColorRGB
 90
        0
102
RTVSPost2010PropOp41
 70
     1
102
RTVSPost2010Prop42
 90
       50
102
RTVSPost2010PropOp42
 70
     1
102
RTVSPost2010Prop43
 90
        3
102
RTVSPost2010PropOp43
 70
     1
102
RTVSPost2010Prop44ColorIndex
 90
        5
102
RTVSPost2010Prop44ColorRGB
 90
      255
102
RTVSPost2010PropOp44
 70
     1
102
RTVSPost2010Prop45
280
     0
102
RTVSPost2010PropOp45
 70
     1
102
RTVSPost2010Prop46
 90
       50
102
RTVSPost2010PropOp46
 70
     1
102
RTVSPost2010Prop47
 90
       50
102
RTVSPost2010PropOp47
 70
     1
102
RTVSPost2010Prop48
 90
       50
102
RTVSPost2010PropOp48
 70
     1
102
RTVSPost2010Prop49
280
     0
102
RTVSPost2010PropOp49
 70
     1
102
RTVSPost2010Prop50
 90
       50
102
RTVSPost2010PropOp50
 70
     1
102
RTVSPost2010Prop51ColorIndex
 90
      256
102
RTVSPost2010Prop51ColorRGB
 90
-16777216
102
RTVSPost2010PropOp51
 70
     0
102
RTVSPost2010Prop52
140
1.0
102
RTVSPost2010PropOp52
 70
     0
102
RTVSPost2010Prop53
 90
        2
102
RTVSPost2010PropOp53
 70
     1
102
RTVSPost2010Prop54
  1
strokes_ogs.tif
102
RTVSPost2010PropOp54
 70
     1
102
RTVSPost2010Prop55
280
     0
102
RTVSPost2010PropOp55
 70
     1
102
RTVSPost2010Prop56
140
1.0
102
RTVSPost2010PropOp56
 70
     1
102
RTVSPost2010Prop57
140
1.0
102
RTVSPost2010PropOp57
 70
     1
102
RTVSPropertyOp0
 70
     1
102
RTVSPropertyOp1
 70
     1
102
RTVSPropertyOp2
 70
     1
102
RTVSPropertyOp3
 70
     1
102
RTVSPropertyOp4
 70
     1
102
RTVSPropertyOp5
 70
     1
102
RTVSPropertyOp6
 70
     1
102
RTVSPropertyOp7
 70
     1
102
RTVSPropertyOp8
 70
     1
102
RTVSPropertyOp9
 70
     1
102
RTVSPropertyOp10
 70
     1
102
RTVSPropertyOp11
 70
     1
102
RTVSPropertyOp12
 70
     1
102
RTVSPropertyOp13
 70
     1
102
RTVSPropertyOp14
 70
     1
102
RTVSPropertyOp15
 70
     1
102
RTVSPropertyOp16
 70
     1
102
RTVSPropertyOp17
 70
     1
102
RTVSPropertyOp18
 70
     1
102
RTVSPropertyOp19
 70
     1
102
RTVSPropertyOp20
 70
     1
102
RTVSPropertyOp21
 70
     1
102
RTVSPropertyOp22
 70
     1
102
RTVSPropertyOp23
 70
     1
102
RTVSPropertyOp24
 70
     1
102
RTVSPropertyOp25
 70
     1
102
RTVSPropertyOp26
 70
     1
102
RTVSPropertyOp27
 70
     1
102
RTVSPropertyOp28
 70
     1
102
RTVSPropertyOp29
 70
     1
102
RTVSPropertyOp30
 70
     1
102
RTVSPropertyOp31
 70
     1
102
RTVSPropertyOp32
 70
     1
102
RTVSPropertyOp33
 70
     1
102
RTVSPropertyOp34
 70
     1
102
RTVSPropertyOp35
 70
     1
102
RTVSPropertyOp36
 70
     1
102
RTVSPropertyOp37
 70
     1
102
RTVSPropertyOp38
 70
     1
102
RTVSPropertyOp39
 70
     1
102
RTVSPropertyOp40
 70
     1
102
RTVSPropertyOp41
 70
     1
102
RTVSPropertyOp42
 70
     1
102
RTVSPropertyOp43
 70
     1
102
RTVSPropertyOp44
 70
     1
102
RTVSPropertyOp45
 70
     1
102
RTVSPropertyOp46
 70
     1
102
RTVSPropertyOp47
 70
     1
102
RTVSPropertyOp48
 70
     1
102
RTVSPropertyOp49
 70
     1
102
RTVSPropertyOp50
 70
     1
102
RTVSPropertyOp51
 70
     0
102
RTVSPropertyOp52
 70
     0
102
RTVSPropertyOp53
 70
     1
102
RTVSPropertyOp54
 70
     1
102
RTVSPropertyOp55
 70
     1
102
RTVSPropertyOp56
 70
     1
102
RTVSPropertyOp57
 70
     1
102
RTVSPropertyOp58
 70
     1
102
RTVSPropertyOp59
 70
     1
102
RTVSPropertyOp60
 70
     1
102
RTVSPropertyOp61
 70
     1
102
RTVSPropertyOp62
 70
     1
  0
XRECORD
  5
5C1A
102
{ACAD_REACTORS
330
5C19
102
}
330
5C19
100
AcDbXrecord
280
     1
102
RTVSPost2010Prop28
280
     0
102
RTVSPost2010PropOp28
 70
     1
102
RTVSPost2010Prop29
280
     1
102
RTVSPost2010PropOp29
 70
     1
102
RTVSPost2010Prop30
280
     1
102
RTVSPost2010PropOp30
 70
     1
102
RTVSPost2010Prop31
280
     0
102
RTVSPost2010PropOp31
 70
     1
102
RTVSPost2010Prop32
280
     0
102
RTVSPost2010PropOp32
 70
     1
102
RTVSPost2010Prop33
280
     0
102
RTVSPost2010PropOp33
 70
     1
102
RTVSPost2010Prop34
280
     0
102
RTVSPost2010PropOp34
 70
     1
102
RTVSPost2010Prop35
280
     0
102
RTVSPost2010PropOp35
 70
     1
102
RTVSPost2010Prop36
280
     0
102
RTVSPost2010PropOp36
 70
     1
102
RTVSPost2010Prop37
 90
       50
102
RTVSPost2010PropOp37
 70
     1
102
RTVSPost2010Prop38
140
0.0
102
RTVSPost2010PropOp38
 70
     1
102
RTVSPost2010Prop39
140
1.0
102
RTVSPost2010PropOp39
 70
     1
102
RTVSPost2010Prop40
 90
        0
102
RTVSPost2010PropOp40
 70
     1
102
RTVSPost2010Prop41ColorIndex
 90
       18
102
RTVSPost2010Prop41ColorRGB
 90
        0
102
RTVSPost2010PropOp41
 70
     1
102
RTVSPost2010Prop42
 90
       50
102
RTVSPost2010PropOp42
 70
     1
102
RTVSPost2010Prop43
 90
        3
102
RTVSPost2010PropOp43
 70
     1
102
RTVSPost2010Prop44ColorIndex
 90
        5
102
RTVSPost2010Prop44ColorRGB
 90
      255
102
RTVSPost2010PropOp44
 70
     1
102
RTVSPost2010Prop45
280
     0
102
RTVSPost2010PropOp45
 70
     1
102
RTVSPost2010Prop46
 90
       50
102
RTVSPost2010PropOp46
 70
     1
102
RTVSPost2010Prop47
 90
       50
102
RTVSPost2010PropOp47
 70
     1
102
RTVSPost2010Prop48
 90
       50
102
RTVSPost2010PropOp48
 70
     1
102
RTVSPost2010Prop49
280
     0
102
RTVSPost2010PropOp49
 70
     1
102
RTVSPost2010Prop50
 90
       50
102
RTVSPost2010PropOp50
 70
     1
102
RTVSPost2010Prop51ColorIndex
 90
      256
102
RTVSPost2010Prop51ColorRGB
 90
-16777216
102
RTVSPost2010PropOp51
 70
     0
102
RTVSPost2010Prop52
140
1.0
102
RTVSPost2010PropOp52
 70
     0
102
RTVSPost2010Prop53
 90
        2
102
RTVSPost2010PropOp53
 70
     1
102
RTVSPost2010Prop54
  1
strokes_ogs.tif
102
RTVSPost2010PropOp54
 70
     1
102
RTVSPost2010Prop55
280
     0
102
RTVSPost2010PropOp55
 70
     1
102
RTVSPost2010Prop56
140
1.0
102
RTVSPost2010PropOp56
 70
     1
102
RTVSPost2010Prop57
140
1.0
102
RTVSPost2010PropOp57
 70
     1
102
RTVSPropertyOp0
 70
     1
102
RTVSPropertyOp1
 70
     1
102
RTVSPropertyOp2
 70
     1
102
RTVSPropertyOp3
 70
     1
102
RTVSPropertyOp4
 70
     1
102
RTVSPropertyOp5
 70
     1
102
RTVSPropertyOp6
 70
     1
102
RTVSPropertyOp7
 70
     1
102
RTVSPropertyOp8
 70
     1
102
RTVSPropertyOp9
 70
     1
102
RTVSPropertyOp10
 70
     1
102
RTVSPropertyOp11
 70
     1
102
RTVSPropertyOp12
 70
     1
102
RTVSPropertyOp13
 70
     1
102
RTVSPropertyOp14
 70
     1
102
RTVSPropertyOp15
 70
     1
102
RTVSPropertyOp16
 70
     1
102
RTVSPropertyOp17
 70
     1
102
RTVSPropertyOp18
 70
     1
102
RTVSPropertyOp19
 70
     1
102
RTVSPropertyOp20
 70
     1
102
RTVSPropertyOp21
 70
     1
102
RTVSPropertyOp22
 70
     1
102
RTVSPropertyOp23
 70
     1
102
RTVSPropertyOp24
 70
     1
102
RTVSPropertyOp25
 70
     1
102
RTVSPropertyOp26
 70
     1
102
RTVSPropertyOp27
 70
     1
102
RTVSPropertyOp28
 70
     1
102
RTVSPropertyOp29
 70
     1
102
RTVSPropertyOp30
 70
     1
102
RTVSPropertyOp31
 70
     1
102
RTVSPropertyOp32
 70
     1
102
RTVSPropertyOp33
 70
     1
102
RTVSPropertyOp34
 70
     1
102
RTVSPropertyOp35
 70
     1
102
RTVSPropertyOp36
 70
     1
102
RTVSPropertyOp37
 70
     1
102
RTVSPropertyOp38
 70
     1
102
RTVSPropertyOp39
 70
     1
102
RTVSPropertyOp40
 70
     1
102
RTVSPropertyOp41
 70
     1
102
RTVSPropertyOp42
 70
     1
102
RTVSPropertyOp43
 70
     1
102
RTVSPropertyOp44
 70
     1
102
RTVSPropertyOp45
 70
     1
102
RTVSPropertyOp46
 70
     1
102
RTVSPropertyOp47
 70
     1
102
RTVSPropertyOp48
 70
     1
102
RTVSPropertyOp49
 70
     1
102
RTVSPropertyOp50
 70
     1
102
RTVSPropertyOp51
 70
     0
102
RTVSPropertyOp52
 70
     0
102
RTVSPropertyOp53
 70
     1
102
RTVSPropertyOp54
 70
     1
102
RTVSPropertyOp55
 70
     1
102
RTVSPropertyOp56
 70
     1
102
RTVSPropertyOp57
 70
     1
102
RTVSPropertyOp58
 70
     1
102
RTVSPropertyOp59
 70
     1
102
RTVSPropertyOp60
 70
     1
102
RTVSPropertyOp61
 70
     1
102
RTVSPropertyOp62
 70
     1
  0
XRECORD
  5
5C1C
102
{ACAD_REACTORS
330
5C1B
102
}
330
5C1B
100
AcDbXrecord
280
     1
102
RTVSPost2010Prop28
280
     0
102
RTVSPost2010PropOp28
 70
     1
102
RTVSPost2010Prop29
280
     1
102
RTVSPost2010PropOp29
 70
     1
102
RTVSPost2010Prop30
280
     1
102
RTVSPost2010PropOp30
 70
     1
102
RTVSPost2010Prop31
280
     0
102
RTVSPost2010PropOp31
 70
     1
102
RTVSPost2010Prop32
280
     0
102
RTVSPost2010PropOp32
 70
     1
102
RTVSPost2010Prop33
280
     0
102
RTVSPost2010PropOp33
 70
     1
102
RTVSPost2010Prop34
280
     0
102
RTVSPost2010PropOp34
 70
     1
102
RTVSPost2010Prop35
280
     0
102
RTVSPost2010PropOp35
 70
     1
102
RTVSPost2010Prop36
280
     0
102
RTVSPost2010PropOp36
 70
     1
102
RTVSPost2010Prop37
 90
       50
102
RTVSPost2010PropOp37
 70
     1
102
RTVSPost2010Prop38
140
0.0
102
RTVSPost2010PropOp38
 70
     1
102
RTVSPost2010Prop39
140
1.0
102
RTVSPost2010PropOp39
 70
     1
102
RTVSPost2010Prop40
 90
        0
102
RTVSPost2010PropOp40
 70
     1
102
RTVSPost2010Prop41ColorIndex
 90
       18
102
RTVSPost2010Prop41ColorRGB
 90
        0
102
RTVSPost2010PropOp41
 70
     1
102
RTVSPost2010Prop42
 90
       50
102
RTVSPost2010PropOp42
 70
     1
102
RTVSPost2010Prop43
 90
        3
102
RTVSPost2010PropOp43
 70
     1
102
RTVSPost2010Prop44ColorIndex
 90
        5
102
RTVSPost2010Prop44ColorRGB
 90
      255
102
RTVSPost2010PropOp44
 70
     1
102
RTVSPost2010Prop45
280
     0
102
RTVSPost2010PropOp45
 70
     1
102
RTVSPost2010Prop46
 90
       50
102
RTVSPost2010PropOp46
 70
     1
102
RTVSPost2010Prop47
 90
       50
102
RTVSPost2010PropOp47
 70
     1
102
RTVSPost2010Prop48
 90
       50
102
RTVSPost2010PropOp48
 70
     1
102
RTVSPost2010Prop49
280
     0
102
RTVSPost2010PropOp49
 70
     1
102
RTVSPost2010Prop50
 90
       50
102
RTVSPost2010PropOp50
 70
     1
102
RTVSPost2010Prop51ColorIndex
 90
      256
102
RTVSPost2010Prop51ColorRGB
 90
-16777216
102
RTVSPost2010PropOp51
 70
     0
102
RTVSPost2010Prop52
140
1.0
102
RTVSPost2010PropOp52
 70
     0
102
RTVSPost2010Prop53
 90
        2
102
RTVSPost2010PropOp53
 70
     1
102
RTVSPost2010Prop54
  1
strokes_ogs.tif
102
RTVSPost2010PropOp54
 70
     1
102
RTVSPost2010Prop55
280
     0
102
RTVSPost2010PropOp55
 70
     1
102
RTVSPost2010Prop56
140
1.0
102
RTVSPost2010PropOp56
 70
     1
102
RTVSPost2010Prop57
140
1.0
102
RTVSPost2010PropOp57
 70
     1
102
RTVSPropertyOp0
 70
     1
102
RTVSPropertyOp1
 70
     1
102
RTVSPropertyOp2
 70
     1
102
RTVSPropertyOp3
 70
     1
102
RTVSPropertyOp4
 70
     1
102
RTVSPropertyOp5
 70
     1
102
RTVSPropertyOp6
 70
     1
102
RTVSPropertyOp7
 70
     1
102
RTVSPropertyOp8
 70
     1
102
RTVSPropertyOp9
 70
     1
102
RTVSPropertyOp10
 70
     1
102
RTVSPropertyOp11
 70
     1
102
RTVSPropertyOp12
 70
     1
102
RTVSPropertyOp13
 70
     1
102
RTVSPropertyOp14
 70
     1
102
RTVSPropertyOp15
 70
     1
102
RTVSPropertyOp16
 70
     1
102
RTVSPropertyOp17
 70
     1
102
RTVSPropertyOp18
 70
     1
102
RTVSPropertyOp19
 70
     1
102
RTVSPropertyOp20
 70
     1
102
RTVSPropertyOp21
 70
     1
102
RTVSPropertyOp22
 70
     1
102
RTVSPropertyOp23
 70
     1
102
RTVSPropertyOp24
 70
     1
102
RTVSPropertyOp25
 70
     1
102
RTVSPropertyOp26
 70
     1
102
RTVSPropertyOp27
 70
     1
102
RTVSPropertyOp28
 70
     1
102
RTVSPropertyOp29
 70
     1
102
RTVSPropertyOp30
 70
     1
102
RTVSPropertyOp31
 70
     1
102
RTVSPropertyOp32
 70
     1
102
RTVSPropertyOp33
 70
     1
102
RTVSPropertyOp34
 70
     1
102
RTVSPropertyOp35
 70
     1
102
RTVSPropertyOp36
 70
     1
102
RTVSPropertyOp37
 70
     1
102
RTVSPropertyOp38
 70
     1
102
RTVSPropertyOp39
 70
     1
102
RTVSPropertyOp40
 70
     1
102
RTVSPropertyOp41
 70
     1
102
RTVSPropertyOp42
 70
     1
102
RTVSPropertyOp43
 70
     1
102
RTVSPropertyOp44
 70
     1
102
RTVSPropertyOp45
 70
     1
102
RTVSPropertyOp46
 70
     1
102
RTVSPropertyOp47
 70
     1
102
RTVSPropertyOp48
 70
     1
102
RTVSPropertyOp49
 70
     1
102
RTVSPropertyOp50
 70
     1
102
RTVSPropertyOp51
 70
     0
102
RTVSPropertyOp52
 70
     0
102
RTVSPropertyOp53
 70
     1
102
RTVSPropertyOp54
 70
     1
102
RTVSPropertyOp55
 70
     1
102
RTVSPropertyOp56
 70
     1
102
RTVSPropertyOp57
 70
     1
102
RTVSPropertyOp58
 70
     1
102
RTVSPropertyOp59
 70
     1
102
RTVSPropertyOp60
 70
     1
102
RTVSPropertyOp61
 70
     1
102
RTVSPropertyOp62
 70
     1
  0
XRECORD
  5
5C24
102
{ACAD_REACTORS
330
5C23
102
}
330
5C23
100
AcDbXrecord
280
     1
102
RTVSPost2010Prop28
280
     0
102
RTVSPost2010PropOp28
 70
     1
102
RTVSPost2010Prop29
280
     1
102
RTVSPost2010PropOp29
 70
     1
102
RTVSPost2010Prop30
280
     1
102
RTVSPost2010PropOp30
 70
     1
102
RTVSPost2010Prop31
280
     0
102
RTVSPost2010PropOp31
 70
     1
102
RTVSPost2010Prop32
280
     0
102
RTVSPost2010PropOp32
 70
     1
102
RTVSPost2010Prop33
280
     0
102
RTVSPost2010PropOp33
 70
     1
102
RTVSPost2010Prop34
280
     0
102
RTVSPost2010PropOp34
 70
     1
102
RTVSPost2010Prop35
280
     0
102
RTVSPost2010PropOp35
 70
     1
102
RTVSPost2010Prop36
280
     0
102
RTVSPost2010PropOp36
 70
     1
102
RTVSPost2010Prop37
 90
       50
102
RTVSPost2010PropOp37
 70
     1
102
RTVSPost2010Prop38
140
0.0
102
RTVSPost2010PropOp38
 70
     1
102
RTVSPost2010Prop39
140
1.0
102
RTVSPost2010PropOp39
 70
     1
102
RTVSPost2010Prop40
 90
        0
102
RTVSPost2010PropOp40
 70
     1
102
RTVSPost2010Prop41ColorIndex
 90
       18
102
RTVSPost2010Prop41ColorRGB
 90
        0
102
RTVSPost2010PropOp41
 70
     1
102
RTVSPost2010Prop42
 90
       50
102
RTVSPost2010PropOp42
 70
     1
102
RTVSPost2010Prop43
 90
        3
102
RTVSPost2010PropOp43
 70
     1
102
RTVSPost2010Prop44ColorIndex
 90
        5
102
RTVSPost2010Prop44ColorRGB
 90
      255
102
RTVSPost2010PropOp44
 70
     1
102
RTVSPost2010Prop45
280
     0
102
RTVSPost2010PropOp45
 70
     1
102
RTVSPost2010Prop46
 90
       50
102
RTVSPost2010PropOp46
 70
     1
102
RTVSPost2010Prop47
 90
       50
102
RTVSPost2010PropOp47
 70
     1
102
RTVSPost2010Prop48
 90
       50
102
RTVSPost2010PropOp48
 70
     1
102
RTVSPost2010Prop49
280
     0
102
RTVSPost2010PropOp49
 70
     1
102
RTVSPost2010Prop50
 90
       50
102
RTVSPost2010PropOp50
 70
     1
102
RTVSPost2010Prop51ColorIndex
 90
      256
102
RTVSPost2010Prop51ColorRGB
 90
-16777216
102
RTVSPost2010PropOp51
 70
     0
102
RTVSPost2010Prop52
140
1.0
102
RTVSPost2010PropOp52
 70
     0
102
RTVSPost2010Prop53
 90
        2
102
RTVSPost2010PropOp53
 70
     1
102
RTVSPost2010Prop54
  1
strokes_ogs.tif
102
RTVSPost2010PropOp54
 70
     1
102
RTVSPost2010Prop55
280
     0
102
RTVSPost2010PropOp55
 70
     1
102
RTVSPost2010Prop56
140
1.0
102
RTVSPost2010PropOp56
 70
     1
102
RTVSPost2010Prop57
140
1.0
102
RTVSPost2010PropOp57
 70
     1
102
RTVSPropertyOp0
 70
     1
102
RTVSPropertyOp1
 70
     1
102
RTVSPropertyOp2
 70
     1
102
RTVSPropertyOp3
 70
     1
102
RTVSPropertyOp4
 70
     1
102
RTVSPropertyOp5
 70
     1
102
RTVSPropertyOp6
 70
     1
102
RTVSPropertyOp7
 70
     1
102
RTVSPropertyOp8
 70
     1
102
RTVSPropertyOp9
 70
     1
102
RTVSPropertyOp10
 70
     1
102
RTVSPropertyOp11
 70
     1
102
RTVSPropertyOp12
 70
     1
102
RTVSPropertyOp13
 70
     1
102
RTVSPropertyOp14
 70
     1
102
RTVSPropertyOp15
 70
     1
102
RTVSPropertyOp16
 70
     1
102
RTVSPropertyOp17
 70
     1
102
RTVSPropertyOp18
 70
     1
102
RTVSPropertyOp19
 70
     1
102
RTVSPropertyOp20
 70
     1
102
RTVSPropertyOp21
 70
     1
102
RTVSPropertyOp22
 70
     1
102
RTVSPropertyOp23
 70
     1
102
RTVSPropertyOp24
 70
     1
102
RTVSPropertyOp25
 70
     1
102
RTVSPropertyOp26
 70
     1
102
RTVSPropertyOp27
 70
     1
102
RTVSPropertyOp28
 70
     1
102
RTVSPropertyOp29
 70
     1
102
RTVSPropertyOp30
 70
     1
102
RTVSPropertyOp31
 70
     1
102
RTVSPropertyOp32
 70
     1
102
RTVSPropertyOp33
 70
     1
102
RTVSPropertyOp34
 70
     1
102
RTVSPropertyOp35
 70
     1
102
RTVSPropertyOp36
 70
     1
102
RTVSPropertyOp37
 70
     1
102
RTVSPropertyOp38
 70
     1
102
RTVSPropertyOp39
 70
     1
102
RTVSPropertyOp40
 70
     1
102
RTVSPropertyOp41
 70
     1
102
RTVSPropertyOp42
 70
     1
102
RTVSPropertyOp43
 70
     1
102
RTVSPropertyOp44
 70
     1
102
RTVSPropertyOp45
 70
     1
102
RTVSPropertyOp46
 70
     1
102
RTVSPropertyOp47
 70
     1
102
RTVSPropertyOp48
 70
     1
102
RTVSPropertyOp49
 70
     1
102
RTVSPropertyOp50
 70
     1
102
RTVSPropertyOp51
 70
     0
102
RTVSPropertyOp52
 70
     0
102
RTVSPropertyOp53
 70
     1
102
RTVSPropertyOp54
 70
     1
102
RTVSPropertyOp55
 70
     1
102
RTVSPropertyOp56
 70
     1
102
RTVSPropertyOp57
 70
     1
102
RTVSPropertyOp58
 70
     1
102
RTVSPropertyOp59
 70
     1
102
RTVSPropertyOp60
 70
     1
102
RTVSPropertyOp61
 70
     1
102
RTVSPropertyOp62
 70
     1
  0
XRECORD
  5
5C40
102
{ACAD_REACTORS
330
5C3F
102
}
330
5C3F
100
AcDbXrecord
280
     1
102
RTVSPost2010Prop28
280
     0
102
RTVSPost2010PropOp28
 70
     0
102
RTVSPost2010Prop29
280
     1
102
RTVSPost2010PropOp29
 70
     0
102
RTVSPost2010Prop30
280
     1
102
RTVSPost2010PropOp30
 70
     0
102
RTVSPost2010Prop31
280
     0
102
RTVSPost2010PropOp31
 70
     0
102
RTVSPost2010Prop32
280
     0
102
RTVSPost2010PropOp32
 70
     0
102
RTVSPost2010Prop33
280
     0
102
RTVSPost2010PropOp33
 70
     0
102
RTVSPost2010Prop34
280
     0
102
RTVSPost2010PropOp34
 70
     0
102
RTVSPost2010Prop35
280
     0
102
RTVSPost2010PropOp35
 70
     0
102
RTVSPost2010Prop36
280
     0
102
RTVSPost2010PropOp36
 70
     0
102
RTVSPost2010Prop37
 90
       50
102
RTVSPost2010PropOp37
 70
     0
102
RTVSPost2010Prop38
140
0.0
102
RTVSPost2010PropOp38
 70
     0
102
RTVSPost2010Prop39
140
1.0
102
RTVSPost2010PropOp39
 70
     0
102
RTVSPost2010Prop40
 90
        0
102
RTVSPost2010PropOp40
 70
     0
102
RTVSPost2010Prop41ColorIndex
 90
       18
102
RTVSPost2010Prop41ColorRGB
 90
        0
102
RTVSPost2010PropOp41
 70
     0
102
RTVSPost2010Prop42
 90
       50
102
RTVSPost2010PropOp42
 70
     0
102
RTVSPost2010Prop43
 90
        3
102
RTVSPost2010PropOp43
 70
     0
102
RTVSPost2010Prop44ColorIndex
 90
        5
102
RTVSPost2010Prop44ColorRGB
 90
      255
102
RTVSPost2010PropOp44
 70
     0
102
RTVSPost2010Prop45
280
     0
102
RTVSPost2010PropOp45
 70
     0
102
RTVSPost2010Prop46
 90
       50
102
RTVSPost2010PropOp46
 70
     0
102
RTVSPost2010Prop47
 90
       50
102
RTVSPost2010PropOp47
 70
     0
102
RTVSPost2010Prop48
 90
       50
102
RTVSPost2010PropOp48
 70
     0
102
RTVSPost2010Prop49
280
     0
102
RTVSPost2010PropOp49
 70
     0
102
RTVSPost2010Prop50
 90
       50
102
RTVSPost2010PropOp50
 70
     0
102
RTVSPost2010Prop51ColorIndex
 90
      256
102
RTVSPost2010Prop51ColorRGB
 90
-16777216
102
RTVSPost2010PropOp51
 70
     0
102
RTVSPost2010Prop52
140
1.0
102
RTVSPost2010PropOp52
 70
     0
102
RTVSPost2010Prop53
 90
        2
102
RTVSPost2010PropOp53
 70
     0
102
RTVSPost2010Prop54
  1
strokes_ogs.tif
102
RTVSPost2010PropOp54
 70
     0
102
RTVSPost2010Prop55
280
     0
102
RTVSPost2010PropOp55
 70
     0
102
RTVSPost2010Prop56
140
1.0
102
RTVSPost2010PropOp56
 70
     0
102
RTVSPost2010Prop57
140
1.0
102
RTVSPost2010PropOp57
 70
     0
102
RTVSPropertyOp0
 70
     0
102
RTVSPropertyOp1
 70
     0
102
RTVSPropertyOp2
 70
     0
102
RTVSPropertyOp3
 70
     0
102
RTVSPropertyOp4
 70
     0
102
RTVSPropertyOp5
 70
     0
102
RTVSPropertyOp6
 70
     0
102
RTVSPropertyOp7
 70
     0
102
RTVSPropertyOp8
 70
     0
102
RTVSPropertyOp9
 70
     0
102
RTVSPropertyOp10
 70
     0
102
RTVSPropertyOp11
 70
     0
102
RTVSPropertyOp12
 70
     0
102
RTVSPropertyOp13
 70
     0
102
RTVSPropertyOp14
 70
     2
102
RTVSPropertyOp15
 70
     0
102
RTVSPropertyOp16
 70
     0
102
RTVSPropertyOp17
 70
     0
102
RTVSPropertyOp18
 70
     0
102
RTVSPropertyOp19
 70
     0
102
RTVSPropertyOp20
 70
     0
102
RTVSPropertyOp21
 70
     0
102
RTVSPropertyOp22
 70
     0
102
RTVSPropertyOp23
 70
     0
102
RTVSPropertyOp24
 70
     0
102
RTVSPropertyOp25
 70
     0
102
RTVSPropertyOp26
 70
     0
102
RTVSPropertyOp27
 70
     0
102
RTVSPropertyOp28
 70
     0
102
RTVSPropertyOp29
 70
     0
102
RTVSPropertyOp30
 70
     0
102
RTVSPropertyOp31
 70
     0
102
RTVSPropertyOp32
 70
     0
102
RTVSPropertyOp33
 70
     0
102
RTVSPropertyOp34
 70
     0
102
RTVSPropertyOp35
 70
     0
102
RTVSPropertyOp36
 70
     0
102
RTVSPropertyOp37
 70
     0
102
RTVSPropertyOp38
 70
     0
102
RTVSPropertyOp39
 70
     0
102
RTVSPropertyOp40
 70
     0
102
RTVSPropertyOp41
 70
     0
102
RTVSPropertyOp42
 70
     0
102
RTVSPropertyOp43
 70
     0
102
RTVSPropertyOp44
 70
     0
102
RTVSPropertyOp45
 70
     0
102
RTVSPropertyOp46
 70
     0
102
RTVSPropertyOp47
 70
     0
102
RTVSPropertyOp48
 70
     0
102
RTVSPropertyOp49
 70
     0
102
RTVSPropertyOp50
 70
     0
102
RTVSPropertyOp51
 70
     0
102
RTVSPropertyOp52
 70
     0
102
RTVSPropertyOp53
 70
     0
102
RTVSPropertyOp54
 70
     0
102
RTVSPropertyOp55
 70
     0
102
RTVSPropertyOp56
 70
     0
102
RTVSPropertyOp57
 70
     0
102
RTVSPropertyOp58
 70
     1
102
RTVSPropertyOp59
 70
     1
102
RTVSPropertyOp60
 70
     1
102
RTVSPropertyOp61
 70
     1
102
RTVSPropertyOp62
 70
     1
  0
XRECORD
  5
5C30
102
{ACAD_REACTORS
330
5C2F
102
}
330
5C2F
100
AcDbXrecord
280
     1
102
RTVSPost2010Prop28
280
     0
102
RTVSPost2010PropOp28
 70
     1
102
RTVSPost2010Prop29
280
     1
102
RTVSPost2010PropOp29
 70
     1
102
RTVSPost2010Prop30
280
     1
102
RTVSPost2010PropOp30
 70
     1
102
RTVSPost2010Prop31
280
     0
102
RTVSPost2010PropOp31
 70
     1
102
RTVSPost2010Prop32
280
     0
102
RTVSPost2010PropOp32
 70
     1
102
RTVSPost2010Prop33
280
     0
102
RTVSPost2010PropOp33
 70
     1
102
RTVSPost2010Prop34
280
     0
102
RTVSPost2010PropOp34
 70
     1
102
RTVSPost2010Prop35
280
     0
102
RTVSPost2010PropOp35
 70
     1
102
RTVSPost2010Prop36
280
     0
102
RTVSPost2010PropOp36
 70
     1
102
RTVSPost2010Prop37
 90
       50
102
RTVSPost2010PropOp37
 70
     1
102
RTVSPost2010Prop38
140
0.0
102
RTVSPost2010PropOp38
 70
     1
102
RTVSPost2010Prop39
140
1.0
102
RTVSPost2010PropOp39
 70
     1
102
RTVSPost2010Prop40
 90
        0
102
RTVSPost2010PropOp40
 70
     1
102
RTVSPost2010Prop41ColorIndex
 90
       18
102
RTVSPost2010Prop41ColorRGB
 90
        0
102
RTVSPost2010PropOp41
 70
     1
102
RTVSPost2010Prop42
 90
       50
102
RTVSPost2010PropOp42
 70
     1
102
RTVSPost2010Prop43
 90
        3
102
RTVSPost2010PropOp43
 70
     1
102
RTVSPost2010Prop44ColorIndex
 90
        5
102
RTVSPost2010Prop44ColorRGB
 90
      255
102
RTVSPost2010PropOp44
 70
     1
102
RTVSPost2010Prop45
280
     0
102
RTVSPost2010PropOp45
 70
     1
102
RTVSPost2010Prop46
 90
       50
102
RTVSPost2010PropOp46
 70
     1
102
RTVSPost2010Prop47
 90
       50
102
RTVSPost2010PropOp47
 70
     1
102
RTVSPost2010Prop48
 90
       50
102
RTVSPost2010PropOp48
 70
     1
102
RTVSPost2010Prop49
280
     0
102
RTVSPost2010PropOp49
 70
     1
102
RTVSPost2010Prop50
 90
       50
102
RTVSPost2010PropOp50
 70
     1
102
RTVSPost2010Prop51ColorIndex
 90
      256
102
RTVSPost2010Prop51ColorRGB
 90
-16777216
102
RTVSPost2010PropOp51
 70
     0
102
RTVSPost2010Prop52
140
1.0
102
RTVSPost2010PropOp52
 70
     0
102
RTVSPost2010Prop53
 90
        2
102
RTVSPost2010PropOp53
 70
     1
102
RTVSPost2010Prop54
  1
strokes_ogs.tif
102
RTVSPost2010PropOp54
 70
     1
102
RTVSPost2010Prop55
280
     0
102
RTVSPost2010PropOp55
 70
     1
102
RTVSPost2010Prop56
140
1.0
102
RTVSPost2010PropOp56
 70
     1
102
RTVSPost2010Prop57
140
1.0
102
RTVSPost2010PropOp57
 70
     1
102
RTVSPropertyOp0
 70
     1
102
RTVSPropertyOp1
 70
     1
102
RTVSPropertyOp2
 70
     1
102
RTVSPropertyOp3
 70
     1
102
RTVSPropertyOp4
 70
     1
102
RTVSPropertyOp5
 70
     1
102
RTVSPropertyOp6
 70
     1
102
RTVSPropertyOp7
 70
     1
102
RTVSPropertyOp8
 70
     1
102
RTVSPropertyOp9
 70
     1
102
RTVSPropertyOp10
 70
     1
102
RTVSPropertyOp11
 70
     1
102
RTVSPropertyOp12
 70
     1
102
RTVSPropertyOp13
 70
     1
102
RTVSPropertyOp14
 70
     1
102
RTVSPropertyOp15
 70
     1
102
RTVSPropertyOp16
 70
     1
102
RTVSPropertyOp17
 70
     1
102
RTVSPropertyOp18
 70
     1
102
RTVSPropertyOp19
 70
     1
102
RTVSPropertyOp20
 70
     1
102
RTVSPropertyOp21
 70
     1
102
RTVSPropertyOp22
 70
     1
102
RTVSPropertyOp23
 70
     1
102
RTVSPropertyOp24
 70
     1
102
RTVSPropertyOp25
 70
     1
102
RTVSPropertyOp26
 70
     1
102
RTVSPropertyOp27
 70
     1
102
RTVSPropertyOp28
 70
     1
102
RTVSPropertyOp29
 70
     1
102
RTVSPropertyOp30
 70
     1
102
RTVSPropertyOp31
 70
     1
102
RTVSPropertyOp32
 70
     1
102
RTVSPropertyOp33
 70
     1
102
RTVSPropertyOp34
 70
     1
102
RTVSPropertyOp35
 70
     1
102
RTVSPropertyOp36
 70
     1
102
RTVSPropertyOp37
 70
     1
102
RTVSPropertyOp38
 70
     1
102
RTVSPropertyOp39
 70
     1
102
RTVSPropertyOp40
 70
     1
102
RTVSPropertyOp41
 70
     1
102
RTVSPropertyOp42
 70
     1
102
RTVSPropertyOp43
 70
     1
102
RTVSPropertyOp44
 70
     1
102
RTVSPropertyOp45
 70
     1
102
RTVSPropertyOp46
 70
     1
102
RTVSPropertyOp47
 70
     1
102
RTVSPropertyOp48
 70
     1
102
RTVSPropertyOp49
 70
     1
102
RTVSPropertyOp50
 70
     1
102
RTVSPropertyOp51
 70
     0
102
RTVSPropertyOp52
 70
     0
102
RTVSPropertyOp53
 70
     1
102
RTVSPropertyOp54
 70
     1
102
RTVSPropertyOp55
 70
     1
102
RTVSPropertyOp56
 70
     1
102
RTVSPropertyOp57
 70
     1
102
RTVSPropertyOp58
 70
     1
102
RTVSPropertyOp59
 70
     1
102
RTVSPropertyOp60
 70
     1
102
RTVSPropertyOp61
 70
     1
102
RTVSPropertyOp62
 70
     1
  0
XRECORD
  5
5C42
102
{ACAD_REACTORS
330
5C41
102
}
330
5C41
100
AcDbXrecord
280
     1
102
RTVSPost2010Prop28
280
     0
102
RTVSPost2010PropOp28
 70
     0
102
RTVSPost2010Prop29
280
     1
102
RTVSPost2010PropOp29
 70
     0
102
RTVSPost2010Prop30
280
     1
102
RTVSPost2010PropOp30
 70
     0
102
RTVSPost2010Prop31
280
     0
102
RTVSPost2010PropOp31
 70
     0
102
RTVSPost2010Prop32
280
     0
102
RTVSPost2010PropOp32
 70
     0
102
RTVSPost2010Prop33
280
     0
102
RTVSPost2010PropOp33
 70
     0
102
RTVSPost2010Prop34
280
     0
102
RTVSPost2010PropOp34
 70
     0
102
RTVSPost2010Prop35
280
     0
102
RTVSPost2010PropOp35
 70
     0
102
RTVSPost2010Prop36
280
     0
102
RTVSPost2010PropOp36
 70
     0
102
RTVSPost2010Prop37
 90
       50
102
RTVSPost2010PropOp37
 70
     0
102
RTVSPost2010Prop38
140
0.0
102
RTVSPost2010PropOp38
 70
     0
102
RTVSPost2010Prop39
140
1.0
102
RTVSPost2010PropOp39
 70
     0
102
RTVSPost2010Prop40
 90
        0
102
RTVSPost2010PropOp40
 70
     0
102
RTVSPost2010Prop41ColorIndex
 90
       18
102
RTVSPost2010Prop41ColorRGB
 90
        0
102
RTVSPost2010PropOp41
 70
     0
102
RTVSPost2010Prop42
 90
       50
102
RTVSPost2010PropOp42
 70
     0
102
RTVSPost2010Prop43
 90
        3
102
RTVSPost2010PropOp43
 70
     0
102
RTVSPost2010Prop44ColorIndex
 90
        5
102
RTVSPost2010Prop44ColorRGB
 90
      255
102
RTVSPost2010PropOp44
 70
     0
102
RTVSPost2010Prop45
280
     0
102
RTVSPost2010PropOp45
 70
     0
102
RTVSPost2010Prop46
 90
       50
102
RTVSPost2010PropOp46
 70
     0
102
RTVSPost2010Prop47
 90
       50
102
RTVSPost2010PropOp47
 70
     0
102
RTVSPost2010Prop48
 90
       50
102
RTVSPost2010PropOp48
 70
     0
102
RTVSPost2010Prop49
280
     0
102
RTVSPost2010PropOp49
 70
     0
102
RTVSPost2010Prop50
 90
       50
102
RTVSPost2010PropOp50
 70
     0
102
RTVSPost2010Prop51ColorIndex
 90
      256
102
RTVSPost2010Prop51ColorRGB
 90
-16777216
102
RTVSPost2010PropOp51
 70
     0
102
RTVSPost2010Prop52
140
1.0
102
RTVSPost2010PropOp52
 70
     0
102
RTVSPost2010Prop53
 90
        2
102
RTVSPost2010PropOp53
 70
     0
102
RTVSPost2010Prop54
  1
strokes_ogs.tif
102
RTVSPost2010PropOp54
 70
     0
102
RTVSPost2010Prop55
280
     0
102
RTVSPost2010PropOp55
 70
     0
102
RTVSPost2010Prop56
140
1.0
102
RTVSPost2010PropOp56
 70
     0
102
RTVSPost2010Prop57
140
1.0
102
RTVSPost2010PropOp57
 70
     0
102
RTVSPropertyOp0
 70
     0
102
RTVSPropertyOp1
 70
     0
102
RTVSPropertyOp2
 70
     0
102
RTVSPropertyOp3
 70
     0
102
RTVSPropertyOp4
 70
     0
102
RTVSPropertyOp5
 70
     0
102
RTVSPropertyOp6
 70
     0
102
RTVSPropertyOp7
 70
     0
102
RTVSPropertyOp8
 70
     0
102
RTVSPropertyOp9
 70
     0
102
RTVSPropertyOp10
 70
     0
102
RTVSPropertyOp11
 70
     0
102
RTVSPropertyOp12
 70
     0
102
RTVSPropertyOp13
 70
     0
102
RTVSPropertyOp14
 70
     2
102
RTVSPropertyOp15
 70
     0
102
RTVSPropertyOp16
 70
     0
102
RTVSPropertyOp17
 70
     0
102
RTVSPropertyOp18
 70
     0
102
RTVSPropertyOp19
 70
     0
102
RTVSPropertyOp20
 70
     0
102
RTVSPropertyOp21
 70
     0
102
RTVSPropertyOp22
 70
     0
102
RTVSPropertyOp23
 70
     0
102
RTVSPropertyOp24
 70
     0
102
RTVSPropertyOp25
 70
     0
102
RTVSPropertyOp26
 70
     0
102
RTVSPropertyOp27
 70
     0
102
RTVSPropertyOp28
 70
     0
102
RTVSPropertyOp29
 70
     0
102
RTVSPropertyOp30
 70
     0
102
RTVSPropertyOp31
 70
     0
102
RTVSPropertyOp32
 70
     0
102
RTVSPropertyOp33
 70
     0
102
RTVSPropertyOp34
 70
     0
102
RTVSPropertyOp35
 70
     0
102
RTVSPropertyOp36
 70
     0
102
RTVSPropertyOp37
 70
     0
102
RTVSPropertyOp38
 70
     0
102
RTVSPropertyOp39
 70
     0
102
RTVSPropertyOp40
 70
     0
102
RTVSPropertyOp41
 70
     0
102
RTVSPropertyOp42
 70
     0
102
RTVSPropertyOp43
 70
     0
102
RTVSPropertyOp44
 70
     0
102
RTVSPropertyOp45
 70
     0
102
RTVSPropertyOp46
 70
     0
102
RTVSPropertyOp47
 70
     0
102
RTVSPropertyOp48
 70
     0
102
RTVSPropertyOp49
 70
     0
102
RTVSPropertyOp50
 70
     0
102
RTVSPropertyOp51
 70
     0
102
RTVSPropertyOp52
 70
     0
102
RTVSPropertyOp53
 70
     0
102
RTVSPropertyOp54
 70
     0
102
RTVSPropertyOp55
 70
     0
102
RTVSPropertyOp56
 70
     0
102
RTVSPropertyOp57
 70
     0
102
RTVSPropertyOp58
 70
     1
102
RTVSPropertyOp59
 70
     1
102
RTVSPropertyOp60
 70
     1
102
RTVSPropertyOp61
 70
     1
102
RTVSPropertyOp62
 70
     1
  0
XRECORD
  5
5C28
102
{ACAD_REACTORS
330
5C27
102
}
330
5C27
100
AcDbXrecord
280
     1
102
RTVSPost2010Prop28
280
     0
102
RTVSPost2010PropOp28
 70
     1
102
RTVSPost2010Prop29
280
     1
102
RTVSPost2010PropOp29
 70
     1
102
RTVSPost2010Prop30
280
     1
102
RTVSPost2010PropOp30
 70
     1
102
RTVSPost2010Prop31
280
     0
102
RTVSPost2010PropOp31
 70
     1
102
RTVSPost2010Prop32
280
     0
102
RTVSPost2010PropOp32
 70
     1
102
RTVSPost2010Prop33
280
     0
102
RTVSPost2010PropOp33
 70
     1
102
RTVSPost2010Prop34
280
     0
102
RTVSPost2010PropOp34
 70
     1
102
RTVSPost2010Prop35
280
     0
102
RTVSPost2010PropOp35
 70
     1
102
RTVSPost2010Prop36
280
     0
102
RTVSPost2010PropOp36
 70
     1
102
RTVSPost2010Prop37
 90
       50
102
RTVSPost2010PropOp37
 70
     1
102
RTVSPost2010Prop38
140
0.0
102
RTVSPost2010PropOp38
 70
     1
102
RTVSPost2010Prop39
140
1.0
102
RTVSPost2010PropOp39
 70
     1
102
RTVSPost2010Prop40
 90
        0
102
RTVSPost2010PropOp40
 70
     1
102
RTVSPost2010Prop41ColorIndex
 90
       18
102
RTVSPost2010Prop41ColorRGB
 90
        0
102
RTVSPost2010PropOp41
 70
     1
102
RTVSPost2010Prop42
 90
       50
102
RTVSPost2010PropOp42
 70
     1
102
RTVSPost2010Prop43
 90
        3
102
RTVSPost2010PropOp43
 70
     1
102
RTVSPost2010Prop44ColorIndex
 90
        5
102
RTVSPost2010Prop44ColorRGB
 90
      255
102
RTVSPost2010PropOp44
 70
     1
102
RTVSPost2010Prop45
280
     0
102
RTVSPost2010PropOp45
 70
     1
102
RTVSPost2010Prop46
 90
       50
102
RTVSPost2010PropOp46
 70
     1
102
RTVSPost2010Prop47
 90
       50
102
RTVSPost2010PropOp47
 70
     1
102
RTVSPost2010Prop48
 90
       50
102
RTVSPost2010PropOp48
 70
     1
102
RTVSPost2010Prop49
280
     0
102
RTVSPost2010PropOp49
 70
     1
102
RTVSPost2010Prop50
 90
       50
102
RTVSPost2010PropOp50
 70
     1
102
RTVSPost2010Prop51ColorIndex
 90
      256
102
RTVSPost2010Prop51ColorRGB
 90
-16777216
102
RTVSPost2010PropOp51
 70
     0
102
RTVSPost2010Prop52
140
1.0
102
RTVSPost2010PropOp52
 70
     0
102
RTVSPost2010Prop53
 90
        2
102
RTVSPost2010PropOp53
 70
     1
102
RTVSPost2010Prop54
  1
strokes_ogs.tif
102
RTVSPost2010PropOp54
 70
     1
102
RTVSPost2010Prop55
280
     0
102
RTVSPost2010PropOp55
 70
     1
102
RTVSPost2010Prop56
140
1.0
102
RTVSPost2010PropOp56
 70
     1
102
RTVSPost2010Prop57
140
1.0
102
RTVSPost2010PropOp57
 70
     1
102
RTVSPropertyOp0
 70
     1
102
RTVSPropertyOp1
 70
     1
102
RTVSPropertyOp2
 70
     1
102
RTVSPropertyOp3
 70
     1
102
RTVSPropertyOp4
 70
     1
102
RTVSPropertyOp5
 70
     1
102
RTVSPropertyOp6
 70
     1
102
RTVSPropertyOp7
 70
     1
102
RTVSPropertyOp8
 70
     1
102
RTVSPropertyOp9
 70
     1
102
RTVSPropertyOp10
 70
     1
102
RTVSPropertyOp11
 70
     1
102
RTVSPropertyOp12
 70
     1
102
RTVSPropertyOp13
 70
     1
102
RTVSPropertyOp14
 70
     1
102
RTVSPropertyOp15
 70
     1
102
RTVSPropertyOp16
 70
     1
102
RTVSPropertyOp17
 70
     1
102
RTVSPropertyOp18
 70
     1
102
RTVSPropertyOp19
 70
     1
102
RTVSPropertyOp20
 70
     1
102
RTVSPropertyOp21
 70
     1
102
RTVSPropertyOp22
 70
     1
102
RTVSPropertyOp23
 70
     1
102
RTVSPropertyOp24
 70
     1
102
RTVSPropertyOp25
 70
     1
102
RTVSPropertyOp26
 70
     1
102
RTVSPropertyOp27
 70
     1
102
RTVSPropertyOp28
 70
     1
102
RTVSPropertyOp29
 70
     1
102
RTVSPropertyOp30
 70
     1
102
RTVSPropertyOp31
 70
     1
102
RTVSPropertyOp32
 70
     1
102
RTVSPropertyOp33
 70
     1
102
RTVSPropertyOp34
 70
     1
102
RTVSPropertyOp35
 70
     1
102
RTVSPropertyOp36
 70
     1
102
RTVSPropertyOp37
 70
     1
102
RTVSPropertyOp38
 70
     1
102
RTVSPropertyOp39
 70
     1
102
RTVSPropertyOp40
 70
     1
102
RTVSPropertyOp41
 70
     1
102
RTVSPropertyOp42
 70
     1
102
RTVSPropertyOp43
 70
     1
102
RTVSPropertyOp44
 70
     1
102
RTVSPropertyOp45
 70
     1
102
RTVSPropertyOp46
 70
     1
102
RTVSPropertyOp47
 70
     1
102
RTVSPropertyOp48
 70
     1
102
RTVSPropertyOp49
 70
     1
102
RTVSPropertyOp50
 70
     1
102
RTVSPropertyOp51
 70
     0
102
RTVSPropertyOp52
 70
     0
102
RTVSPropertyOp53
 70
     1
102
RTVSPropertyOp54
 70
     1
102
RTVSPropertyOp55
 70
     1
102
RTVSPropertyOp56
 70
     1
102
RTVSPropertyOp57
 70
     1
102
RTVSPropertyOp58
 70
     1
102
RTVSPropertyOp59
 70
     1
102
RTVSPropertyOp60
 70
     1
102
RTVSPropertyOp61
 70
     1
102
RTVSPropertyOp62
 70
     1
  0
XRECORD
  5
5C3E
102
{ACAD_REACTORS
330
5C3D
102
}
330
5C3D
100
AcDbXrecord
280
     1
102
RTVSPost2010Prop28
280
     0
102
RTVSPost2010PropOp28
 70
     1
102
RTVSPost2010Prop29
280
     1
102
RTVSPost2010PropOp29
 70
     1
102
RTVSPost2010Prop30
280
     1
102
RTVSPost2010PropOp30
 70
     1
102
RTVSPost2010Prop31
280
     0
102
RTVSPost2010PropOp31
 70
     1
102
RTVSPost2010Prop32
280
     0
102
RTVSPost2010PropOp32
 70
     1
102
RTVSPost2010Prop33
280
     0
102
RTVSPost2010PropOp33
 70
     1
102
RTVSPost2010Prop34
280
     0
102
RTVSPost2010PropOp34
 70
     1
102
RTVSPost2010Prop35
280
     0
102
RTVSPost2010PropOp35
 70
     1
102
RTVSPost2010Prop36
280
     0
102
RTVSPost2010PropOp36
 70
     1
102
RTVSPost2010Prop37
 90
       50
102
RTVSPost2010PropOp37
 70
     1
102
RTVSPost2010Prop38
140
0.0
102
RTVSPost2010PropOp38
 70
     1
102
RTVSPost2010Prop39
140
1.0
102
RTVSPost2010PropOp39
 70
     1
102
RTVSPost2010Prop40
 90
        0
102
RTVSPost2010PropOp40
 70
     1
102
RTVSPost2010Prop41ColorIndex
 90
       18
102
RTVSPost2010Prop41ColorRGB
 90
        0
102
RTVSPost2010PropOp41
 70
     1
102
RTVSPost2010Prop42
 90
       50
102
RTVSPost2010PropOp42
 70
     1
102
RTVSPost2010Prop43
 90
        3
102
RTVSPost2010PropOp43
 70
     1
102
RTVSPost2010Prop44ColorIndex
 90
        5
102
RTVSPost2010Prop44ColorRGB
 90
      255
102
RTVSPost2010PropOp44
 70
     1
102
RTVSPost2010Prop45
280
     0
102
RTVSPost2010PropOp45
 70
     1
102
RTVSPost2010Prop46
 90
       50
102
RTVSPost2010PropOp46
 70
     1
102
RTVSPost2010Prop47
 90
       50
102
RTVSPost2010PropOp47
 70
     1
102
RTVSPost2010Prop48
 90
       50
102
RTVSPost2010PropOp48
 70
     1
102
RTVSPost2010Prop49
280
     0
102
RTVSPost2010PropOp49
 70
     1
102
RTVSPost2010Prop50
 90
       50
102
RTVSPost2010PropOp50
 70
     1
102
RTVSPost2010Prop51ColorIndex
 90
      256
102
RTVSPost2010Prop51ColorRGB
 90
-16777216
102
RTVSPost2010PropOp51
 70
     0
102
RTVSPost2010Prop52
140
1.0
102
RTVSPost2010PropOp52
 70
     0
102
RTVSPost2010Prop53
 90
        2
102
RTVSPost2010PropOp53
 70
     1
102
RTVSPost2010Prop54
  1
strokes_ogs.tif
102
RTVSPost2010PropOp54
 70
     1
102
RTVSPost2010Prop55
280
     0
102
RTVSPost2010PropOp55
 70
     1
102
RTVSPost2010Prop56
140
1.0
102
RTVSPost2010PropOp56
 70
     1
102
RTVSPost2010Prop57
140
1.0
102
RTVSPost2010PropOp57
 70
     1
102
RTVSPropertyOp0
 70
     1
102
RTVSPropertyOp1
 70
     1
102
RTVSPropertyOp2
 70
     1
102
RTVSPropertyOp3
 70
     1
102
RTVSPropertyOp4
 70
     1
102
RTVSPropertyOp5
 70
     1
102
RTVSPropertyOp6
 70
     1
102
RTVSPropertyOp7
 70
     1
102
RTVSPropertyOp8
 70
     1
102
RTVSPropertyOp9
 70
     1
102
RTVSPropertyOp10
 70
     1
102
RTVSPropertyOp11
 70
     1
102
RTVSPropertyOp12
 70
     1
102
RTVSPropertyOp13
 70
     1
102
RTVSPropertyOp14
 70
     1
102
RTVSPropertyOp15
 70
     1
102
RTVSPropertyOp16
 70
     1
102
RTVSPropertyOp17
 70
     1
102
RTVSPropertyOp18
 70
     1
102
RTVSPropertyOp19
 70
     1
102
RTVSPropertyOp20
 70
     1
102
RTVSPropertyOp21
 70
     1
102
RTVSPropertyOp22
 70
     1
102
RTVSPropertyOp23
 70
     1
102
RTVSPropertyOp24
 70
     1
102
RTVSPropertyOp25
 70
     1
102
RTVSPropertyOp26
 70
     1
102
RTVSPropertyOp27
 70
     1
102
RTVSPropertyOp28
 70
     1
102
RTVSPropertyOp29
 70
     1
102
RTVSPropertyOp30
 70
     1
102
RTVSPropertyOp31
 70
     1
102
RTVSPropertyOp32
 70
     1
102
RTVSPropertyOp33
 70
     1
102
RTVSPropertyOp34
 70
     1
102
RTVSPropertyOp35
 70
     1
102
RTVSPropertyOp36
 70
     1
102
RTVSPropertyOp37
 70
     1
102
RTVSPropertyOp38
 70
     1
102
RTVSPropertyOp39
 70
     1
102
RTVSPropertyOp40
 70
     1
102
RTVSPropertyOp41
 70
     1
102
RTVSPropertyOp42
 70
     1
102
RTVSPropertyOp43
 70
     1
102
RTVSPropertyOp44
 70
     1
102
RTVSPropertyOp45
 70
     1
102
RTVSPropertyOp46
 70
     1
102
RTVSPropertyOp47
 70
     1
102
RTVSPropertyOp48
 70
     1
102
RTVSPropertyOp49
 70
     1
102
RTVSPropertyOp50
 70
     1
102
RTVSPropertyOp51
 70
     0
102
RTVSPropertyOp52
 70
     0
102
RTVSPropertyOp53
 70
     1
102
RTVSPropertyOp54
 70
     1
102
RTVSPropertyOp55
 70
     1
102
RTVSPropertyOp56
 70
     1
102
RTVSPropertyOp57
 70
     1
102
RTVSPropertyOp58
 70
     1
102
RTVSPropertyOp59
 70
     1
102
RTVSPropertyOp60
 70
     1
102
RTVSPropertyOp61
 70
     1
102
RTVSPropertyOp62
 70
     1
  0
XRECORD
  5
5C3C
102
{ACAD_REACTORS
330
5C3B
102
}
330
5C3B
100
AcDbXrecord
280
     1
102
RTVSPost2010Prop28
280
     0
102
RTVSPost2010PropOp28
 70
     1
102
RTVSPost2010Prop29
280
     1
102
RTVSPost2010PropOp29
 70
     1
102
RTVSPost2010Prop30
280
     1
102
RTVSPost2010PropOp30
 70
     1
102
RTVSPost2010Prop31
280
     0
102
RTVSPost2010PropOp31
 70
     1
102
RTVSPost2010Prop32
280
     0
102
RTVSPost2010PropOp32
 70
     1
102
RTVSPost2010Prop33
280
     0
102
RTVSPost2010PropOp33
 70
     1
102
RTVSPost2010Prop34
280
     0
102
RTVSPost2010PropOp34
 70
     1
102
RTVSPost2010Prop35
280
     0
102
RTVSPost2010PropOp35
 70
     1
102
RTVSPost2010Prop36
280
     0
102
RTVSPost2010PropOp36
 70
     1
102
RTVSPost2010Prop37
 90
       50
102
RTVSPost2010PropOp37
 70
     1
102
RTVSPost2010Prop38
140
0.0
102
RTVSPost2010PropOp38
 70
     1
102
RTVSPost2010Prop39
140
1.0
102
RTVSPost2010PropOp39
 70
     1
102
RTVSPost2010Prop40
 90
        0
102
RTVSPost2010PropOp40
 70
     1
102
RTVSPost2010Prop41ColorIndex
 90
       18
102
RTVSPost2010Prop41ColorRGB
 90
        0
102
RTVSPost2010PropOp41
 70
     1
102
RTVSPost2010Prop42
 90
       50
102
RTVSPost2010PropOp42
 70
     1
102
RTVSPost2010Prop43
 90
        3
102
RTVSPost2010PropOp43
 70
     1
102
RTVSPost2010Prop44ColorIndex
 90
        5
102
RTVSPost2010Prop44ColorRGB
 90
      255
102
RTVSPost2010PropOp44
 70
     1
102
RTVSPost2010Prop45
280
     0
102
RTVSPost2010PropOp45
 70
     1
102
RTVSPost2010Prop46
 90
       50
102
RTVSPost2010PropOp46
 70
     1
102
RTVSPost2010Prop47
 90
       50
102
RTVSPost2010PropOp47
 70
     1
102
RTVSPost2010Prop48
 90
       50
102
RTVSPost2010PropOp48
 70
     1
102
RTVSPost2010Prop49
280
     0
102
RTVSPost2010PropOp49
 70
     1
102
RTVSPost2010Prop50
 90
       50
102
RTVSPost2010PropOp50
 70
     1
102
RTVSPost2010Prop51ColorIndex
 90
      256
102
RTVSPost2010Prop51ColorRGB
 90
-16777216
102
RTVSPost2010PropOp51
 70
     0
102
RTVSPost2010Prop52
140
1.0
102
RTVSPost2010PropOp52
 70
     0
102
RTVSPost2010Prop53
 90
        2
102
RTVSPost2010PropOp53
 70
     1
102
RTVSPost2010Prop54
  1
strokes_ogs.tif
102
RTVSPost2010PropOp54
 70
     1
102
RTVSPost2010Prop55
280
     0
102
RTVSPost2010PropOp55
 70
     1
102
RTVSPost2010Prop56
140
1.0
102
RTVSPost2010PropOp56
 70
     1
102
RTVSPost2010Prop57
140
1.0
102
RTVSPost2010PropOp57
 70
     1
102
RTVSPropertyOp0
 70
     1
102
RTVSPropertyOp1
 70
     1
102
RTVSPropertyOp2
 70
     1
102
RTVSPropertyOp3
 70
     1
102
RTVSPropertyOp4
 70
     1
102
RTVSPropertyOp5
 70
     1
102
RTVSPropertyOp6
 70
     1
102
RTVSPropertyOp7
 70
     1
102
RTVSPropertyOp8
 70
     1
102
RTVSPropertyOp9
 70
     1
102
RTVSPropertyOp10
 70
     1
102
RTVSPropertyOp11
 70
     1
102
RTVSPropertyOp12
 70
     1
102
RTVSPropertyOp13
 70
     1
102
RTVSPropertyOp14
 70
     1
102
RTVSPropertyOp15
 70
     1
102
RTVSPropertyOp16
 70
     1
102
RTVSPropertyOp17
 70
     1
102
RTVSPropertyOp18
 70
     1
102
RTVSPropertyOp19
 70
     1
102
RTVSPropertyOp20
 70
     1
102
RTVSPropertyOp21
 70
     1
102
RTVSPropertyOp22
 70
     1
102
RTVSPropertyOp23
 70
     1
102
RTVSPropertyOp24
 70
     1
102
RTVSPropertyOp25
 70
     1
102
RTVSPropertyOp26
 70
     1
102
RTVSPropertyOp27
 70
     1
102
RTVSPropertyOp28
 70
     1
102
RTVSPropertyOp29
 70
     1
102
RTVSPropertyOp30
 70
     1
102
RTVSPropertyOp31
 70
     1
102
RTVSPropertyOp32
 70
     1
102
RTVSPropertyOp33
 70
     1
102
RTVSPropertyOp34
 70
     1
102
RTVSPropertyOp35
 70
     1
102
RTVSPropertyOp36
 70
     1
102
RTVSPropertyOp37
 70
     1
102
RTVSPropertyOp38
 70
     1
102
RTVSPropertyOp39
 70
     1
102
RTVSPropertyOp40
 70
     1
102
RTVSPropertyOp41
 70
     1
102
RTVSPropertyOp42
 70
     1
102
RTVSPropertyOp43
 70
     1
102
RTVSPropertyOp44
 70
     1
102
RTVSPropertyOp45
 70
     1
102
RTVSPropertyOp46
 70
     1
102
RTVSPropertyOp47
 70
     1
102
RTVSPropertyOp48
 70
     1
102
RTVSPropertyOp49
 70
     1
102
RTVSPropertyOp50
 70
     1
102
RTVSPropertyOp51
 70
     0
102
RTVSPropertyOp52
 70
     0
102
RTVSPropertyOp53
 70
     1
102
RTVSPropertyOp54
 70
     1
102
RTVSPropertyOp55
 70
     1
102
RTVSPropertyOp56
 70
     1
102
RTVSPropertyOp57
 70
     1
102
RTVSPropertyOp58
 70
     1
102
RTVSPropertyOp59
 70
     1
102
RTVSPropertyOp60
 70
     1
102
RTVSPropertyOp61
 70
     1
102
RTVSPropertyOp62
 70
     1
  0
XRECORD
  5
5C36
102
{ACAD_REACTORS
330
5C35
102
}
330
5C35
100
AcDbXrecord
280
     1
102
RTVSPost2010Prop28
280
     0
102
RTVSPost2010PropOp28
 70
     1
102
RTVSPost2010Prop29
280
     1
102
RTVSPost2010PropOp29
 70
     1
102
RTVSPost2010Prop30
280
     1
102
RTVSPost2010PropOp30
 70
     1
102
RTVSPost2010Prop31
280
     0
102
RTVSPost2010PropOp31
 70
     1
102
RTVSPost2010Prop32
280
     0
102
RTVSPost2010PropOp32
 70
     1
102
RTVSPost2010Prop33
280
     0
102
RTVSPost2010PropOp33
 70
     1
102
RTVSPost2010Prop34
280
     0
102
RTVSPost2010PropOp34
 70
     1
102
RTVSPost2010Prop35
280
     0
102
RTVSPost2010PropOp35
 70
     1
102
RTVSPost2010Prop36
280
     0
102
RTVSPost2010PropOp36
 70
     1
102
RTVSPost2010Prop37
 90
       50
102
RTVSPost2010PropOp37
 70
     1
102
RTVSPost2010Prop38
140
0.0
102
RTVSPost2010PropOp38
 70
     1
102
RTVSPost2010Prop39
140
1.0
102
RTVSPost2010PropOp39
 70
     1
102
RTVSPost2010Prop40
 90
        0
102
RTVSPost2010PropOp40
 70
     1
102
RTVSPost2010Prop41ColorIndex
 90
       18
102
RTVSPost2010Prop41ColorRGB
 90
        0
102
RTVSPost2010PropOp41
 70
     1
102
RTVSPost2010Prop42
 90
       50
102
RTVSPost2010PropOp42
 70
     1
102
RTVSPost2010Prop43
 90
        3
102
RTVSPost2010PropOp43
 70
     1
102
RTVSPost2010Prop44ColorIndex
 90
        5
102
RTVSPost2010Prop44ColorRGB
 90
      255
102
RTVSPost2010PropOp44
 70
     1
102
RTVSPost2010Prop45
280
     0
102
RTVSPost2010PropOp45
 70
     1
102
RTVSPost2010Prop46
 90
       50
102
RTVSPost2010PropOp46
 70
     1
102
RTVSPost2010Prop47
 90
       50
102
RTVSPost2010PropOp47
 70
     1
102
RTVSPost2010Prop48
 90
       50
102
RTVSPost2010PropOp48
 70
     1
102
RTVSPost2010Prop49
280
     0
102
RTVSPost2010PropOp49
 70
     1
102
RTVSPost2010Prop50
 90
       50
102
RTVSPost2010PropOp50
 70
     1
102
RTVSPost2010Prop51ColorIndex
 90
      256
102
RTVSPost2010Prop51ColorRGB
 90
-16777216
102
RTVSPost2010PropOp51
 70
     0
102
RTVSPost2010Prop52
140
1.0
102
RTVSPost2010PropOp52
 70
     0
102
RTVSPost2010Prop53
 90
        2
102
RTVSPost2010PropOp53
 70
     1
102
RTVSPost2010Prop54
  1
strokes_ogs.tif
102
RTVSPost2010PropOp54
 70
     1
102
RTVSPost2010Prop55
280
     0
102
RTVSPost2010PropOp55
 70
     1
102
RTVSPost2010Prop56
140
1.0
102
RTVSPost2010PropOp56
 70
     1
102
RTVSPost2010Prop57
140
1.0
102
RTVSPost2010PropOp57
 70
     1
102
RTVSPropertyOp0
 70
     1
102
RTVSPropertyOp1
 70
     1
102
RTVSPropertyOp2
 70
     1
102
RTVSPropertyOp3
 70
     1
102
RTVSPropertyOp4
 70
     1
102
RTVSPropertyOp5
 70
     1
102
RTVSPropertyOp6
 70
     1
102
RTVSPropertyOp7
 70
     1
102
RTVSPropertyOp8
 70
     1
102
RTVSPropertyOp9
 70
     1
102
RTVSPropertyOp10
 70
     1
102
RTVSPropertyOp11
 70
     1
102
RTVSPropertyOp12
 70
     1
102
RTVSPropertyOp13
 70
     1
102
RTVSPropertyOp14
 70
     1
102
RTVSPropertyOp15
 70
     1
102
RTVSPropertyOp16
 70
     1
102
RTVSPropertyOp17
 70
     1
102
RTVSPropertyOp18
 70
     1
102
RTVSPropertyOp19
 70
     1
102
RTVSPropertyOp20
 70
     1
102
RTVSPropertyOp21
 70
     1
102
RTVSPropertyOp22
 70
     1
102
RTVSPropertyOp23
 70
     1
102
RTVSPropertyOp24
 70
     1
102
RTVSPropertyOp25
 70
     1
102
RTVSPropertyOp26
 70
     1
102
RTVSPropertyOp27
 70
     1
102
RTVSPropertyOp28
 70
     1
102
RTVSPropertyOp29
 70
     1
102
RTVSPropertyOp30
 70
     1
102
RTVSPropertyOp31
 70
     1
102
RTVSPropertyOp32
 70
     1
102
RTVSPropertyOp33
 70
     1
102
RTVSPropertyOp34
 70
     1
102
RTVSPropertyOp35
 70
     1
102
RTVSPropertyOp36
 70
     1
102
RTVSPropertyOp37
 70
     1
102
RTVSPropertyOp38
 70
     1
102
RTVSPropertyOp39
 70
     1
102
RTVSPropertyOp40
 70
     1
102
RTVSPropertyOp41
 70
     1
102
RTVSPropertyOp42
 70
     1
102
RTVSPropertyOp43
 70
     1
102
RTVSPropertyOp44
 70
     1
102
RTVSPropertyOp45
 70
     1
102
RTVSPropertyOp46
 70
     1
102
RTVSPropertyOp47
 70
     1
102
RTVSPropertyOp48
 70
     1
102
RTVSPropertyOp49
 70
     1
102
RTVSPropertyOp50
 70
     1
102
RTVSPropertyOp51
 70
     0
102
RTVSPropertyOp52
 70
     0
102
RTVSPropertyOp53
 70
     1
102
RTVSPropertyOp54
 70
     1
102
RTVSPropertyOp55
 70
     1
102
RTVSPropertyOp56
 70
     1
102
RTVSPropertyOp57
 70
     1
102
RTVSPropertyOp58
 70
     1
102
RTVSPropertyOp59
 70
     1
102
RTVSPropertyOp60
 70
     1
102
RTVSPropertyOp61
 70
     1
102
RTVSPropertyOp62
 70
     1
  0
XRECORD
  5
5C38
102
{ACAD_REACTORS
330
5C37
102
}
330
5C37
100
AcDbXrecord
280
     1
102
RTVSPost2010Prop28
280
     0
102
RTVSPost2010PropOp28
 70
     1
102
RTVSPost2010Prop29
280
     1
102
RTVSPost2010PropOp29
 70
     1
102
RTVSPost2010Prop30
280
     1
102
RTVSPost2010PropOp30
 70
     1
102
RTVSPost2010Prop31
280
     0
102
RTVSPost2010PropOp31
 70
     1
102
RTVSPost2010Prop32
280
     0
102
RTVSPost2010PropOp32
 70
     1
102
RTVSPost2010Prop33
280
     0
102
RTVSPost2010PropOp33
 70
     1
102
RTVSPost2010Prop34
280
     0
102
RTVSPost2010PropOp34
 70
     1
102
RTVSPost2010Prop35
280
     0
102
RTVSPost2010PropOp35
 70
     1
102
RTVSPost2010Prop36
280
     0
102
RTVSPost2010PropOp36
 70
     1
102
RTVSPost2010Prop37
 90
       50
102
RTVSPost2010PropOp37
 70
     1
102
RTVSPost2010Prop38
140
0.0
102
RTVSPost2010PropOp38
 70
     1
102
RTVSPost2010Prop39
140
1.0
102
RTVSPost2010PropOp39
 70
     1
102
RTVSPost2010Prop40
 90
        0
102
RTVSPost2010PropOp40
 70
     1
102
RTVSPost2010Prop41ColorIndex
 90
       18
102
RTVSPost2010Prop41ColorRGB
 90
        0
102
RTVSPost2010PropOp41
 70
     1
102
RTVSPost2010Prop42
 90
       50
102
RTVSPost2010PropOp42
 70
     1
102
RTVSPost2010Prop43
 90
        3
102
RTVSPost2010PropOp43
 70
     1
102
RTVSPost2010Prop44ColorIndex
 90
        5
102
RTVSPost2010Prop44ColorRGB
 90
      255
102
RTVSPost2010PropOp44
 70
     1
102
RTVSPost2010Prop45
280
     0
102
RTVSPost2010PropOp45
 70
     1
102
RTVSPost2010Prop46
 90
       50
102
RTVSPost2010PropOp46
 70
     1
102
RTVSPost2010Prop47
 90
       50
102
RTVSPost2010PropOp47
 70
     1
102
RTVSPost2010Prop48
 90
       50
102
RTVSPost2010PropOp48
 70
     1
102
RTVSPost2010Prop49
280
     0
102
RTVSPost2010PropOp49
 70
     1
102
RTVSPost2010Prop50
 90
       50
102
RTVSPost2010PropOp50
 70
     1
102
RTVSPost2010Prop51ColorIndex
 90
      256
102
RTVSPost2010Prop51ColorRGB
 90
-16777216
102
RTVSPost2010PropOp51
 70
     0
102
RTVSPost2010Prop52
140
1.0
102
RTVSPost2010PropOp52
 70
     0
102
RTVSPost2010Prop53
 90
        2
102
RTVSPost2010PropOp53
 70
     1
102
RTVSPost2010Prop54
  1
strokes_ogs.tif
102
RTVSPost2010PropOp54
 70
     1
102
RTVSPost2010Prop55
280
     0
102
RTVSPost2010PropOp55
 70
     1
102
RTVSPost2010Prop56
140
1.0
102
RTVSPost2010PropOp56
 70
     1
102
RTVSPost2010Prop57
140
1.0
102
RTVSPost2010PropOp57
 70
     1
102
RTVSPropertyOp0
 70
     1
102
RTVSPropertyOp1
 70
     1
102
RTVSPropertyOp2
 70
     1
102
RTVSPropertyOp3
 70
     1
102
RTVSPropertyOp4
 70
     1
102
RTVSPropertyOp5
 70
     1
102
RTVSPropertyOp6
 70
     1
102
RTVSPropertyOp7
 70
     1
102
RTVSPropertyOp8
 70
     1
102
RTVSPropertyOp9
 70
     1
102
RTVSPropertyOp10
 70
     1
102
RTVSPropertyOp11
 70
     1
102
RTVSPropertyOp12
 70
     1
102
RTVSPropertyOp13
 70
     1
102
RTVSPropertyOp14
 70
     1
102
RTVSPropertyOp15
 70
     1
102
RTVSPropertyOp16
 70
     1
102
RTVSPropertyOp17
 70
     1
102
RTVSPropertyOp18
 70
     1
102
RTVSPropertyOp19
 70
     1
102
RTVSPropertyOp20
 70
     1
102
RTVSPropertyOp21
 70
     1
102
RTVSPropertyOp22
 70
     1
102
RTVSPropertyOp23
 70
     1
102
RTVSPropertyOp24
 70
     1
102
RTVSPropertyOp25
 70
     1
102
RTVSPropertyOp26
 70
     1
102
RTVSPropertyOp27
 70
     1
102
RTVSPropertyOp28
 70
     1
102
RTVSPropertyOp29
 70
     1
102
RTVSPropertyOp30
 70
     1
102
RTVSPropertyOp31
 70
     1
102
RTVSPropertyOp32
 70
     1
102
RTVSPropertyOp33
 70
     1
102
RTVSPropertyOp34
 70
     1
102
RTVSPropertyOp35
 70
     1
102
RTVSPropertyOp36
 70
     1
102
RTVSPropertyOp37
 70
     1
102
RTVSPropertyOp38
 70
     1
102
RTVSPropertyOp39
 70
     1
102
RTVSPropertyOp40
 70
     1
102
RTVSPropertyOp41
 70
     1
102
RTVSPropertyOp42
 70
     1
102
RTVSPropertyOp43
 70
     1
102
RTVSPropertyOp44
 70
     1
102
RTVSPropertyOp45
 70
     1
102
RTVSPropertyOp46
 70
     1
102
RTVSPropertyOp47
 70
     1
102
RTVSPropertyOp48
 70
     1
102
RTVSPropertyOp49
 70
     1
102
RTVSPropertyOp50
 70
     1
102
RTVSPropertyOp51
 70
     0
102
RTVSPropertyOp52
 70
     0
102
RTVSPropertyOp53
 70
     1
102
RTVSPropertyOp54
 70
     1
102
RTVSPropertyOp55
 70
     1
102
RTVSPropertyOp56
 70
     1
102
RTVSPropertyOp57
 70
     1
102
RTVSPropertyOp58
 70
     1
102
RTVSPropertyOp59
 70
     1
102
RTVSPropertyOp60
 70
     1
102
RTVSPropertyOp61
 70
     1
102
RTVSPropertyOp62
 70
     1
  0
XRECORD
  5
5C2E
102
{ACAD_REACTORS
330
5C2D
102
}
330
5C2D
100
AcDbXrecord
280
     1
102
RTVSPost2010Prop28
280
     0
102
RTVSPost2010PropOp28
 70
     1
102
RTVSPost2010Prop29
280
     1
102
RTVSPost2010PropOp29
 70
     1
102
RTVSPost2010Prop30
280
     1
102
RTVSPost2010PropOp30
 70
     1
102
RTVSPost2010Prop31
280
     0
102
RTVSPost2010PropOp31
 70
     1
102
RTVSPost2010Prop32
280
     0
102
RTVSPost2010PropOp32
 70
     1
102
RTVSPost2010Prop33
280
     0
102
RTVSPost2010PropOp33
 70
     1
102
RTVSPost2010Prop34
280
     0
102
RTVSPost2010PropOp34
 70
     1
102
RTVSPost2010Prop35
280
     0
102
RTVSPost2010PropOp35
 70
     1
102
RTVSPost2010Prop36
280
     0
102
RTVSPost2010PropOp36
 70
     1
102
RTVSPost2010Prop37
 90
       50
102
RTVSPost2010PropOp37
 70
     1
102
RTVSPost2010Prop38
140
0.0
102
RTVSPost2010PropOp38
 70
     1
102
RTVSPost2010Prop39
140
1.0
102
RTVSPost2010PropOp39
 70
     1
102
RTVSPost2010Prop40
 90
        0
102
RTVSPost2010PropOp40
 70
     1
102
RTVSPost2010Prop41ColorIndex
 90
       18
102
RTVSPost2010Prop41ColorRGB
 90
        0
102
RTVSPost2010PropOp41
 70
     1
102
RTVSPost2010Prop42
 90
       50
102
RTVSPost2010PropOp42
 70
     1
102
RTVSPost2010Prop43
 90
        3
102
RTVSPost2010PropOp43
 70
     1
102
RTVSPost2010Prop44ColorIndex
 90
        5
102
RTVSPost2010Prop44ColorRGB
 90
      255
102
RTVSPost2010PropOp44
 70
     1
102
RTVSPost2010Prop45
280
     0
102
RTVSPost2010PropOp45
 70
     1
102
RTVSPost2010Prop46
 90
       50
102
RTVSPost2010PropOp46
 70
     1
102
RTVSPost2010Prop47
 90
       50
102
RTVSPost2010PropOp47
 70
     1
102
RTVSPost2010Prop48
 90
       50
102
RTVSPost2010PropOp48
 70
     1
102
RTVSPost2010Prop49
280
     0
102
RTVSPost2010PropOp49
 70
     1
102
RTVSPost2010Prop50
 90
       50
102
RTVSPost2010PropOp50
 70
     1
102
RTVSPost2010Prop51ColorIndex
 90
      256
102
RTVSPost2010Prop51ColorRGB
 90
-16777216
102
RTVSPost2010PropOp51
 70
     0
102
RTVSPost2010Prop52
140
1.0
102
RTVSPost2010PropOp52
 70
     0
102
RTVSPost2010Prop53
 90
        2
102
RTVSPost2010PropOp53
 70
     1
102
RTVSPost2010Prop54
  1
strokes_ogs.tif
102
RTVSPost2010PropOp54
 70
     1
102
RTVSPost2010Prop55
280
     0
102
RTVSPost2010PropOp55
 70
     1
102
RTVSPost2010Prop56
140
1.0
102
RTVSPost2010PropOp56
 70
     1
102
RTVSPost2010Prop57
140
1.0
102
RTVSPost2010PropOp57
 70
     1
102
RTVSPropertyOp0
 70
     1
102
RTVSPropertyOp1
 70
     1
102
RTVSPropertyOp2
 70
     1
102
RTVSPropertyOp3
 70
     1
102
RTVSPropertyOp4
 70
     1
102
RTVSPropertyOp5
 70
     1
102
RTVSPropertyOp6
 70
     1
102
RTVSPropertyOp7
 70
     1
102
RTVSPropertyOp8
 70
     1
102
RTVSPropertyOp9
 70
     1
102
RTVSPropertyOp10
 70
     1
102
RTVSPropertyOp11
 70
     1
102
RTVSPropertyOp12
 70
     1
102
RTVSPropertyOp13
 70
     1
102
RTVSPropertyOp14
 70
     1
102
RTVSPropertyOp15
 70
     1
102
RTVSPropertyOp16
 70
     1
102
RTVSPropertyOp17
 70
     1
102
RTVSPropertyOp18
 70
     1
102
RTVSPropertyOp19
 70
     1
102
RTVSPropertyOp20
 70
     1
102
RTVSPropertyOp21
 70
     1
102
RTVSPropertyOp22
 70
     1
102
RTVSPropertyOp23
 70
     1
102
RTVSPropertyOp24
 70
     1
102
RTVSPropertyOp25
 70
     1
102
RTVSPropertyOp26
 70
     1
102
RTVSPropertyOp27
 70
     1
102
RTVSPropertyOp28
 70
     1
102
RTVSPropertyOp29
 70
     1
102
RTVSPropertyOp30
 70
     1
102
RTVSPropertyOp31
 70
     1
102
RTVSPropertyOp32
 70
     1
102
RTVSPropertyOp33
 70
     1
102
RTVSPropertyOp34
 70
     1
102
RTVSPropertyOp35
 70
     1
102
RTVSPropertyOp36
 70
     1
102
RTVSPropertyOp37
 70
     1
102
RTVSPropertyOp38
 70
     1
102
RTVSPropertyOp39
 70
     1
102
RTVSPropertyOp40
 70
     1
102
RTVSPropertyOp41
 70
     1
102
RTVSPropertyOp42
 70
     1
102
RTVSPropertyOp43
 70
     1
102
RTVSPropertyOp44
 70
     1
102
RTVSPropertyOp45
 70
     1
102
RTVSPropertyOp46
 70
     1
102
RTVSPropertyOp47
 70
     1
102
RTVSPropertyOp48
 70
     1
102
RTVSPropertyOp49
 70
     1
102
RTVSPropertyOp50
 70
     1
102
RTVSPropertyOp51
 70
     0
102
RTVSPropertyOp52
 70
     0
102
RTVSPropertyOp53
 70
     1
102
RTVSPropertyOp54
 70
     1
102
RTVSPropertyOp55
 70
     1
102
RTVSPropertyOp56
 70
     1
102
RTVSPropertyOp57
 70
     1
102
RTVSPropertyOp58
 70
     1
102
RTVSPropertyOp59
 70
     1
102
RTVSPropertyOp60
 70
     1
102
RTVSPropertyOp61
 70
     1
102
RTVSPropertyOp62
 70
     1
  0
XRECORD
  5
5C22
102
{ACAD_REACTORS
330
5C21
102
}
330
5C21
100
AcDbXrecord
280
     1
102
RTVSPost2010Prop28
280
     0
102
RTVSPost2010PropOp28
 70
     1
102
RTVSPost2010Prop29
280
     1
102
RTVSPost2010PropOp29
 70
     1
102
RTVSPost2010Prop30
280
     1
102
RTVSPost2010PropOp30
 70
     1
102
RTVSPost2010Prop31
280
     0
102
RTVSPost2010PropOp31
 70
     1
102
RTVSPost2010Prop32
280
     0
102
RTVSPost2010PropOp32
 70
     1
102
RTVSPost2010Prop33
280
     0
102
RTVSPost2010PropOp33
 70
     1
102
RTVSPost2010Prop34
280
     0
102
RTVSPost2010PropOp34
 70
     1
102
RTVSPost2010Prop35
280
     0
102
RTVSPost2010PropOp35
 70
     1
102
RTVSPost2010Prop36
280
     0
102
RTVSPost2010PropOp36
 70
     1
102
RTVSPost2010Prop37
 90
       50
102
RTVSPost2010PropOp37
 70
     1
102
RTVSPost2010Prop38
140
0.0
102
RTVSPost2010PropOp38
 70
     1
102
RTVSPost2010Prop39
140
1.0
102
RTVSPost2010PropOp39
 70
     1
102
RTVSPost2010Prop40
 90
        0
102
RTVSPost2010PropOp40
 70
     1
102
RTVSPost2010Prop41ColorIndex
 90
       18
102
RTVSPost2010Prop41ColorRGB
 90
        0
102
RTVSPost2010PropOp41
 70
     1
102
RTVSPost2010Prop42
 90
       50
102
RTVSPost2010PropOp42
 70
     1
102
RTVSPost2010Prop43
 90
        3
102
RTVSPost2010PropOp43
 70
     1
102
RTVSPost2010Prop44ColorIndex
 90
        5
102
RTVSPost2010Prop44ColorRGB
 90
      255
102
RTVSPost2010PropOp44
 70
     1
102
RTVSPost2010Prop45
280
     0
102
RTVSPost2010PropOp45
 70
     1
102
RTVSPost2010Prop46
 90
       50
102
RTVSPost2010PropOp46
 70
     1
102
RTVSPost2010Prop47
 90
       50
102
RTVSPost2010PropOp47
 70
     1
102
RTVSPost2010Prop48
 90
       50
102
RTVSPost2010PropOp48
 70
     1
102
RTVSPost2010Prop49
280
     0
102
RTVSPost2010PropOp49
 70
     1
102
RTVSPost2010Prop50
 90
       50
102
RTVSPost2010PropOp50
 70
     1
102
RTVSPost2010Prop51ColorIndex
 90
      256
102
RTVSPost2010Prop51ColorRGB
 90
-16777216
102
RTVSPost2010PropOp51
 70
     0
102
RTVSPost2010Prop52
140
1.0
102
RTVSPost2010PropOp52
 70
     0
102
RTVSPost2010Prop53
 90
        2
102
RTVSPost2010PropOp53
 70
     1
102
RTVSPost2010Prop54
  1
strokes_ogs.tif
102
RTVSPost2010PropOp54
 70
     1
102
RTVSPost2010Prop55
280
     0
102
RTVSPost2010PropOp55
 70
     1
102
RTVSPost2010Prop56
140
1.0
102
RTVSPost2010PropOp56
 70
     1
102
RTVSPost2010Prop57
140
1.0
102
RTVSPost2010PropOp57
 70
     1
102
RTVSPropertyOp0
 70
     1
102
RTVSPropertyOp1
 70
     1
102
RTVSPropertyOp2
 70
     1
102
RTVSPropertyOp3
 70
     1
102
RTVSPropertyOp4
 70
     1
102
RTVSPropertyOp5
 70
     1
102
RTVSPropertyOp6
 70
     1
102
RTVSPropertyOp7
 70
     1
102
RTVSPropertyOp8
 70
     1
102
RTVSPropertyOp9
 70
     1
102
RTVSPropertyOp10
 70
     1
102
RTVSPropertyOp11
 70
     1
102
RTVSPropertyOp12
 70
     1
102
RTVSPropertyOp13
 70
     1
102
RTVSPropertyOp14
 70
     1
102
RTVSPropertyOp15
 70
     1
102
RTVSPropertyOp16
 70
     1
102
RTVSPropertyOp17
 70
     1
102
RTVSPropertyOp18
 70
     1
102
RTVSPropertyOp19
 70
     1
102
RTVSPropertyOp20
 70
     1
102
RTVSPropertyOp21
 70
     1
102
RTVSPropertyOp22
 70
     1
102
RTVSPropertyOp23
 70
     1
102
RTVSPropertyOp24
 70
     1
102
RTVSPropertyOp25
 70
     1
102
RTVSPropertyOp26
 70
     1
102
RTVSPropertyOp27
 70
     1
102
RTVSPropertyOp28
 70
     1
102
RTVSPropertyOp29
 70
     1
102
RTVSPropertyOp30
 70
     1
102
RTVSPropertyOp31
 70
     1
102
RTVSPropertyOp32
 70
     1
102
RTVSPropertyOp33
 70
     1
102
RTVSPropertyOp34
 70
     1
102
RTVSPropertyOp35
 70
     1
102
RTVSPropertyOp36
 70
     1
102
RTVSPropertyOp37
 70
     1
102
RTVSPropertyOp38
 70
     1
102
RTVSPropertyOp39
 70
     1
102
RTVSPropertyOp40
 70
     1
102
RTVSPropertyOp41
 70
     1
102
RTVSPropertyOp42
 70
     1
102
RTVSPropertyOp43
 70
     1
102
RTVSPropertyOp44
 70
     1
102
RTVSPropertyOp45
 70
     1
102
RTVSPropertyOp46
 70
     1
102
RTVSPropertyOp47
 70
     1
102
RTVSPropertyOp48
 70
     1
102
RTVSPropertyOp49
 70
     1
102
RTVSPropertyOp50
 70
     1
102
RTVSPropertyOp51
 70
     0
102
RTVSPropertyOp52
 70
     0
102
RTVSPropertyOp53
 70
     1
102
RTVSPropertyOp54
 70
     1
102
RTVSPropertyOp55
 70
     1
102
RTVSPropertyOp56
 70
     1
102
RTVSPropertyOp57
 70
     1
102
RTVSPropertyOp58
 70
     1
102
RTVSPropertyOp59
 70
     1
102
RTVSPropertyOp60
 70
     1
102
RTVSPropertyOp61
 70
     1
102
RTVSPropertyOp62
 70
     1
  0
XRECORD
  5
5C3A
102
{ACAD_REACTORS
330
5C39
102
}
330
5C39
100
AcDbXrecord
280
     1
102
RTVSPost2010Prop28
280
     0
102
RTVSPost2010PropOp28
 70
     1
102
RTVSPost2010Prop29
280
     1
102
RTVSPost2010PropOp29
 70
     1
102
RTVSPost2010Prop30
280
     1
102
RTVSPost2010PropOp30
 70
     1
102
RTVSPost2010Prop31
280
     0
102
RTVSPost2010PropOp31
 70
     1
102
RTVSPost2010Prop32
280
     0
102
RTVSPost2010PropOp32
 70
     1
102
RTVSPost2010Prop33
280
     0
102
RTVSPost2010PropOp33
 70
     1
102
RTVSPost2010Prop34
280
     0
102
RTVSPost2010PropOp34
 70
     1
102
RTVSPost2010Prop35
280
     0
102
RTVSPost2010PropOp35
 70
     1
102
RTVSPost2010Prop36
280
     0
102
RTVSPost2010PropOp36
 70
     1
102
RTVSPost2010Prop37
 90
       50
102
RTVSPost2010PropOp37
 70
     1
102
RTVSPost2010Prop38
140
0.0
102
RTVSPost2010PropOp38
 70
     1
102
RTVSPost2010Prop39
140
1.0
102
RTVSPost2010PropOp39
 70
     1
102
RTVSPost2010Prop40
 90
        0
102
RTVSPost2010PropOp40
 70
     1
102
RTVSPost2010Prop41ColorIndex
 90
       18
102
RTVSPost2010Prop41ColorRGB
 90
        0
102
RTVSPost2010PropOp41
 70
     1
102
RTVSPost2010Prop42
 90
       50
102
RTVSPost2010PropOp42
 70
     1
102
RTVSPost2010Prop43
 90
        3
102
RTVSPost2010PropOp43
 70
     1
102
RTVSPost2010Prop44ColorIndex
 90
        5
102
RTVSPost2010Prop44ColorRGB
 90
      255
102
RTVSPost2010PropOp44
 70
     1
102
RTVSPost2010Prop45
280
     0
102
RTVSPost2010PropOp45
 70
     1
102
RTVSPost2010Prop46
 90
       50
102
RTVSPost2010PropOp46
 70
     1
102
RTVSPost2010Prop47
 90
       50
102
RTVSPost2010PropOp47
 70
     1
102
RTVSPost2010Prop48
 90
       50
102
RTVSPost2010PropOp48
 70
     1
102
RTVSPost2010Prop49
280
     0
102
RTVSPost2010PropOp49
 70
     1
102
RTVSPost2010Prop50
 90
       50
102
RTVSPost2010PropOp50
 70
     1
102
RTVSPost2010Prop51ColorIndex
 90
      256
102
RTVSPost2010Prop51ColorRGB
 90
-16777216
102
RTVSPost2010PropOp51
 70
     0
102
RTVSPost2010Prop52
140
1.0
102
RTVSPost2010PropOp52
 70
     0
102
RTVSPost2010Prop53
 90
        2
102
RTVSPost2010PropOp53
 70
     1
102
RTVSPost2010Prop54
  1
strokes_ogs.tif
102
RTVSPost2010PropOp54
 70
     1
102
RTVSPost2010Prop55
280
     0
102
RTVSPost2010PropOp55
 70
     1
102
RTVSPost2010Prop56
140
1.0
102
RTVSPost2010PropOp56
 70
     1
102
RTVSPost2010Prop57
140
1.0
102
RTVSPost2010PropOp57
 70
     1
102
RTVSPropertyOp0
 70
     1
102
RTVSPropertyOp1
 70
     1
102
RTVSPropertyOp2
 70
     1
102
RTVSPropertyOp3
 70
     1
102
RTVSPropertyOp4
 70
     1
102
RTVSPropertyOp5
 70
     1
102
RTVSPropertyOp6
 70
     1
102
RTVSPropertyOp7
 70
     1
102
RTVSPropertyOp8
 70
     1
102
RTVSPropertyOp9
 70
     1
102
RTVSPropertyOp10
 70
     1
102
RTVSPropertyOp11
 70
     1
102
RTVSPropertyOp12
 70
     1
102
RTVSPropertyOp13
 70
     1
102
RTVSPropertyOp14
 70
     1
102
RTVSPropertyOp15
 70
     1
102
RTVSPropertyOp16
 70
     1
102
RTVSPropertyOp17
 70
     1
102
RTVSPropertyOp18
 70
     1
102
RTVSPropertyOp19
 70
     1
102
RTVSPropertyOp20
 70
     1
102
RTVSPropertyOp21
 70
     1
102
RTVSPropertyOp22
 70
     1
102
RTVSPropertyOp23
 70
     1
102
RTVSPropertyOp24
 70
     1
102
RTVSPropertyOp25
 70
     1
102
RTVSPropertyOp26
 70
     1
102
RTVSPropertyOp27
 70
     1
102
RTVSPropertyOp28
 70
     1
102
RTVSPropertyOp29
 70
     1
102
RTVSPropertyOp30
 70
     1
102
RTVSPropertyOp31
 70
     1
102
RTVSPropertyOp32
 70
     1
102
RTVSPropertyOp33
 70
     1
102
RTVSPropertyOp34
 70
     1
102
RTVSPropertyOp35
 70
     1
102
RTVSPropertyOp36
 70
     1
102
RTVSPropertyOp37
 70
     1
102
RTVSPropertyOp38
 70
     1
102
RTVSPropertyOp39
 70
     1
102
RTVSPropertyOp40
 70
     1
102
RTVSPropertyOp41
 70
     1
102
RTVSPropertyOp42
 70
     1
102
RTVSPropertyOp43
 70
     1
102
RTVSPropertyOp44
 70
     1
102
RTVSPropertyOp45
 70
     1
102
RTVSPropertyOp46
 70
     1
102
RTVSPropertyOp47
 70
     1
102
RTVSPropertyOp48
 70
     1
102
RTVSPropertyOp49
 70
     1
102
RTVSPropertyOp50
 70
     1
102
RTVSPropertyOp51
 70
     0
102
RTVSPropertyOp52
 70
     0
102
RTVSPropertyOp53
 70
     1
102
RTVSPropertyOp54
 70
     1
102
RTVSPropertyOp55
 70
     1
102
RTVSPropertyOp56
 70
     1
102
RTVSPropertyOp57
 70
     1
102
RTVSPropertyOp58
 70
     1
102
RTVSPropertyOp59
 70
     1
102
RTVSPropertyOp60
 70
     1
102
RTVSPropertyOp61
 70
     1
102
RTVSPropertyOp62
 70
     1
  0
ENDSEC
  0
EOF
