  0
SECTION
  2
HEADER
  9
$ACADVER
  1
AC1015
  9
$ACADMAINTVER
 70
    20
  9
$DWGCODEPAGE
  3
ANSI_932
  9
$INSBASE
 10
0.0
 20
0.0
 30
0.0
  9
$EXTMIN
 10
13845.59771503509
 20
2822.809791742034
 30
0.0
  9
$EXTMAX
 10
16995.59771503509
 20
7247.809791742034
 30
0.0
  9
$LIMMIN
 10
0.0
 20
0.0
  9
$LIMMAX
 10
297.0
 20
210.0
  9
$ORTHOMODE
 70
     1
  9
$REGENMODE
 70
     1
  9
$FILLMODE
 70
     1
  9
$QTEXTMODE
 70
     0
  9
$MIRRTEXT
 70
     0
  9
$LTSCALE
 40
75.0
  9
$ATTMODE
 70
     1
  9
$TEXTSIZE
 40
3.5
  9
$TRACEWID
 40
0.05
  9
$TEXTSTYLE
  7
STANDARD
  9
$CLAYER
  8
SP
  9
$CELTYPE
  6
BYLAYER
  9
$CECOLOR
 62
   256
  9
$CELTSCALE
 40
1.0
  9
$DISPSILH
 70
     0
  9
$DIMSCALE
 40
15.0
  9
$DIMASZ
 40
2.5
  9
$DIMEXO
 40
1.0
  9
$DIMDLI
 40
7.0
  9
$DIMRND
 40
0.0
  9
$DIMDLE
 40
0.0
  9
$DIMEXE
 40
1.0
  9
$DIMTP
 40
0.0
  9
$DIMTM
 40
0.0
  9
$DIMTXT
 40
3.0
  9
$DIMCEN
 40
0.0
  9
$DIMTSZ
 40
0.0
  9
$DIMTOL
 70
     0
  9
$DIMLIM
 70
     0
  9
$DIMTIH
 70
     0
  9
$DIMTOH
 70
     0
  9
$DIMSE1
 70
     0
  9
$DIMSE2
 70
     0
  9
$DIMTAD
 70
     1
  9
$DIMZIN
 70
     8
  9
$DIMBLK
  1

  9
$DIMASO
 70
     1
  9
$DIMSHO
 70
     1
  9
$DIMPOST
  1

  9
$DIMAPOST
  1

  9
$DIMALT
 70
     0
  9
$DIMALTD
 70
     2
  9
$DIMALTF
 40
0.03937
  9
$DIMLFAC
 40
1.0
  9
$DIMTOFL
 70
     1
  9
$DIMTVP
 40
0.0
  9
$DIMTIX
 70
     0
  9
$DIMSOXD
 70
     0
  9
$DIMSAH
 70
     1
  9
$DIMBLK1
  1
OPEN
  9
$DIMBLK2
  1
OPEN
  9
$DIMSTYLE
  2
GOD
  9
$DIMCLRD
 70
   256
  9
$DIMCLRE
 70
   256
  9
$DIMCLRT
 70
   256
  9
$DIMTFAC
 40
1.0
  9
$DIMGAP
 40
1.0
  9
$DIMJUST
 70
     0
  9
$DIMSD1
 70
     0
  9
$DIMSD2
 70
     0
  9
$DIMTOLJ
 70
     1
  9
$DIMTZIN
 70
     8
  9
$DIMALTZ
 70
     0
  9
$DIMALTTZ
 70
     0
  9
$DIMUPT
 70
     0
  9
$DIMDEC
 70
     2
  9
$DIMTDEC
 70
     2
  9
$DIMALTU
 70
     2
  9
$DIMALTTD
 70
     2
  9
$DIMTXSTY
  7
STANDARD
  9
$DIMAUNIT
 70
     0
  9
$DIMADEC
 70
     0
  9
$DIMALTRND
 40
0.0
  9
$DIMAZIN
 70
     0
  9
$DIMDSEP
 70
    46
  9
$DIMATFIT
 70
     0
  9
$DIMFRAC
 70
     0
  9
$DIMLDRBLK
  1
OPEN
  9
$DIMLUNIT
 70
     2
  9
$DIMLWD
 70
    -2
  9
$DIMLWE
 70
    -2
  9
$DIMTMOVE
 70
     0
  9
$LUNITS
 70
     2
  9
$LUPREC
 70
     3
  9
$SKETCHINC
 40
0.1
  9
$FILLETRAD
 40
1.0
  9
$AUNITS
 70
     0
  9
$AUPREC
 70
     2
  9
$MENU
  1
acad
  9
$ELEVATION
 40
0.0
  9
$PELEVATION
 40
0.0
  9
$THICKNESS
 40
0.0
  9
$LIMCHECK
 70
     0
  9
$CHAMFERA
 40
0.0
  9
$CHAMFERB
 40
0.0
  9
$CHAMFERC
 40
20.0
  9
$CHAMFERD
 40
0.0
  9
$SKPOLY
 70
     0
  9
$TDCREATE
 40
2454939.604632489
  9
$TDUCREATE
 40
2454939.229632489
  9
$TDUPDATE
 40
2459353.580094815
  9
$TDUUPDATE
 40
2459353.205094815
  9
$TDINDWG
 40
0.1450535185
  9
$TDUSRTIMER
 40
0.1450535185
  9
$USRTIMER
 70
     1
  9
$ANGBASE
 50
0.0
  9
$ANGDIR
 70
     0
  9
$PDMODE
 70
     0
  9
$PDSIZE
 40
1.0
  9
$PLINEWID
 40
0.0
  9
$SPLFRAME
 70
     0
  9
$SPLINETYPE
 70
     6
  9
$SPLINESEGS
 70
     8
  9
$HANDSEED
  5
5C21
  9
$SURFTAB1
 70
     6
  9
$SURFTAB2
 70
     6
  9
$SURFTYPE
 70
     6
  9
$SURFU
 70
     6
  9
$SURFV
 70
     6
  9
$UCSBASE
  2

  9
$UCSNAME
  2

  9
$UCSORG
 10
0.0
 20
0.0
 30
0.0
  9
$UCSXDIR
 10
1.0
 20
0.0
 30
0.0
  9
$UCSYDIR
 10
0.0
 20
1.0
 30
0.0
  9
$UCSORTHOREF
  2

  9
$UCSORTHOVIEW
 70
     0
  9
$UCSORGTOP
 10
0.0
 20
0.0
 30
0.0
  9
$UCSORGBOTTOM
 10
0.0
 20
0.0
 30
0.0
  9
$UCSORGLEFT
 10
0.0
 20
0.0
 30
0.0
  9
$UCSORGRIGHT
 10
0.0
 20
0.0
 30
0.0
  9
$UCSORGFRONT
 10
0.0
 20
0.0
 30
0.0
  9
$UCSORGBACK
 10
0.0
 20
0.0
 30
0.0
  9
$PUCSBASE
  2

  9
$PUCSNAME
  2

  9
$PUCSORG
 10
0.0
 20
0.0
 30
0.0
  9
$PUCSXDIR
 10
1.0
 20
0.0
 30
0.0
  9
$PUCSYDIR
 10
0.0
 20
1.0
 30
0.0
  9
$PUCSORTHOREF
  2

  9
$PUCSORTHOVIEW
 70
     0
  9
$PUCSORGTOP
 10
0.0
 20
0.0
 30
0.0
  9
$PUCSORGBOTTOM
 10
0.0
 20
0.0
 30
0.0
  9
$PUCSORGLEFT
 10
0.0
 20
0.0
 30
0.0
  9
$PUCSORGRIGHT
 10
0.0
 20
0.0
 30
0.0
  9
$PUCSORGFRONT
 10
0.0
 20
0.0
 30
0.0
  9
$PUCSORGBACK
 10
0.0
 20
0.0
 30
0.0
  9
$USERI1
 70
     0
  9
$USERI2
 70
     0
  9
$USERI3
 70
     0
  9
$USERI4
 70
     0
  9
$USERI5
 70
     0
  9
$USERR1
 40
0.0
  9
$USERR2
 40
0.0
  9
$USERR3
 40
0.0
  9
$USERR4
 40
0.0
  9
$USERR5
 40
0.0
  9
$WORLDVIEW
 70
     1
  9
$SHADEDGE
 70
     3
  9
$SHADEDIF
 70
    70
  9
$TILEMODE
 70
     1
  9
$MAXACTVP
 70
    16
  9
$PINSBASE
 10
0.0
 20
0.0
 30
0.0
  9
$PLIMCHECK
 70
     0
  9
$PEXTMIN
 10
1.000000000000000E+20
 20
1.000000000000000E+20
 30
1.000000000000000E+20
  9
$PEXTMAX
 10
-1.000000000000000E+20
 20
-1.000000000000000E+20
 30
-1.000000000000000E+20
  9
$PLIMMIN
 10
0.0
 20
0.0
  9
$PLIMMAX
 10
12.0
 20
9.0
  9
$UNITMODE
 70
     0
  9
$VISRETAIN
 70
     0
  9
$PLINEGEN
 70
     0
  9
$PSLTSCALE
 70
     0
  9
$TREEDEPTH
 70
  3020
  9
$CMLSTYLE
  2
STANDARD
  9
$CMLJUST
 70
     0
  9
$CMLSCALE
 40
20.0
  9
$PROXYGRAPHICS
 70
     1
  9
$MEASUREMENT
 70
     1
  9
$CELWEIGHT
370
    -1
  9
$ENDCAPS
280
     0
  9
$JOINSTYLE
280
     0
  9
$LWDISPLAY
290
     0
  9
$INSUNITS
 70
     0
  9
$HYPERLINKBASE
  1

  9
$STYLESHEET
  1

  9
$XEDIT
290
     1
  9
$CEPSNTYPE
380
     0
  9
$PSTYLEMODE
290
     1
  9
$FINGERPRINTGUID
  2
{A0F129D1-2BC8-11D4-BF85-004026350B0A}
  9
$VERSIONGUID
  2
{9443F436-2268-434C-BB1B-073BE0BD87A2}
  9
$EXTNAMES
290
     1
  9
$PSVPSCALE
 40
0.0
  9
$OLESTARTUP
290
     0
  0
ENDSEC
  0
SECTION
  2
CLASSES
  0
CLASS
  1
ACDBDICTIONARYWDFLT
  2
AcDbDictionaryWithDefault
  3
ObjectDBX Classes
 90
        0
280
     0
281
     0
  0
CLASS
  1
ACDBPLACEHOLDER
  2
AcDbPlaceHolder
  3
ObjectDBX Classes
 90
        0
280
     0
281
     0
  0
CLASS
  1
LAYOUT
  2
AcDbLayout
  3
ObjectDBX Classes
 90
        0
280
     0
281
     0
  0
CLASS
  1
MATERIAL
  2
AcDbMaterial
  3
ObjectDBX Classes
 90
     1153
280
     0
281
     0
  0
CLASS
  1
VISUALSTYLE
  2
AcDbVisualStyle
  3
ObjectDBX Classes
 90
     4095
280
     0
281
     0
  0
CLASS
  1
TABLESTYLE
  2
AcDbTableStyle
  3
ObjectDBX Classes
 90
     4095
280
     0
281
     0
  0
CLASS
  1
SCALE
  2
AcDbScale
  3
ObjectDBX Classes
 90
     1153
280
     0
281
     0
  0
CLASS
  1
MLEADERSTYLE
  2
AcDbMLeaderStyle
  3
ACDB_MLEADERSTYLE_CLASS
 90
     4095
280
     0
281
     0
  0
CLASS
  1
ACDBSECTIONVIEWSTYLE
  2
AcDbSectionViewStyle
  3
ObjectDBX Classes
 90
     1025
280
     0
281
     0
  0
CLASS
  1
ACDBDETAILVIEWSTYLE
  2
AcDbDetailViewStyle
  3
ObjectDBX Classes
 90
     1025
280
     0
281
     0
  0
CLASS
  1
DICTIONARYVAR
  2
AcDbDictionaryVar
  3
ObjectDBX Classes
 90
        0
280
     0
281
     0
  0
CLASS
  1
SORTENTSTABLE
  2
AcDbSortentsTable
  3
ObjectDBX Classes
 90
        0
280
     0
281
     0
  0
CLASS
  1
CELLSTYLEMAP
  2
AcDbCellStyleMap
  3
ObjectDBX Classes
 90
     1152
280
     0
281
     0
  0
ENDSEC
  0
SECTION
  2
TABLES
  0
TABLE
  2
VPORT
  5
8
330
0
100
AcDbSymbolTable
 70
     1
  0
VPORT
  5
5A01
330
8
100
AcDbSymbolTableRecord
100
AcDbViewportTableRecord
  2
*Active
 70
     0
 10
0.0
 20
0.0
 11
1.0
 21
1.0
 12
15420.67306595806
 22
5347.510061844362
 13
0.0
 23
0.0
 14
5.0
 24
5.0
 15
0.0
 25
0.0
 16
0.0
 26
0.0
 36
1.0
 17
0.0
 27
0.0
 37
0.0
 40
5086.910520883575
 41
2.146341463414634
 42
50.0
 43
0.0
 44
0.0
 50
0.0
 51
0.0
 71
     0
 72
   100
 73
     1
 74
     0
 75
     0
 76
     0
 77
     0
 78
     0
281
     0
 65
     1
110
0.0
120
0.0
130
0.0
111
1.0
121
0.0
131
0.0
112
0.0
122
1.0
132
0.0
 79
     0
146
0.0
1001
ACAD_NAV_VCDISPLAY
1070
     3
  0
ENDTAB
  0
TABLE
  2
LTYPE
  5
5
330
0
100
AcDbSymbolTable
 70
     4
  0
LTYPE
  5
13
330
5
100
AcDbSymbolTableRecord
100
AcDbLinetypeTableRecord
  2
BYBLOCK
 70
     0
  3

 72
    65
 73
     0
 40
0.0
  0
LTYPE
  5
14
330
5
100
AcDbSymbolTableRecord
100
AcDbLinetypeTableRecord
  2
BYLAYER
 70
     0
  3

 72
    65
 73
     0
 40
0.0
  0
LTYPE
  5
15
330
5
100
AcDbSymbolTableRecord
100
AcDbLinetypeTableRecord
  2
CONTINUOUS
 70
     0
  3
Solid line
 72
    65
 73
     0
 40
0.0
  0
LTYPE
  5
1F
330
5
100
AcDbSymbolTableRecord
100
AcDbLinetypeTableRecord
  2
CENTER
 70
     0
  3
____ _ ____ _ ____ _ ____ _ ____ _ ____ _ ____ 
 72
    65
 73
     4
 40
2.0
 49
1.25
 74
     0
 49
-0.25
 74
     0
 49
0.25
 74
     0
 49
-0.25
 74
     0
  0
LTYPE
  5
20
330
5
100
AcDbSymbolTableRecord
100
AcDbLinetypeTableRecord
  2
HIDDEN
 70
     0
  3
__ __ __ __ __ __ __ __ __ __ __ __ __ __ __ __
 72
    65
 73
     2
 40
0.375
 49
0.25
 74
     0
 49
-0.125
 74
     0
  0
LTYPE
  5
21
330
5
100
AcDbSymbolTableRecord
100
AcDbLinetypeTableRecord
  2
PHANTOM
 70
     0
  3
______  __  __  ______  __  __  ______  __  __ 
 72
    65
 73
     6
 40
2.5
 49
1.25
 74
     0
 49
-0.25
 74
     0
 49
0.25
 74
     0
 49
-0.25
 74
     0
 49
0.25
 74
     0
 49
-0.25
 74
     0
  0
ENDTAB
  0
TABLE
  2
LAYER
  5
2
102
{ACAD_XDICTIONARY
360
5BB4
102
}
330
0
100
AcDbSymbolTable
 70
    13
  0
LAYER
  5
F
102
{ACAD_XDICTIONARY
360
5B99
102
}
330
2
100
AcDbSymbolTableRecord
100
AcDbLayerTableRecord
  2
0
 70
     0
 62
     7
  6
CONTINUOUS
370
    -3
390
1E91
  0
LAYER
  5
2F
102
{ACAD_XDICTIONARY
360
5B9B
102
}
330
2
100
AcDbSymbolTableRecord
100
AcDbLayerTableRecord
  2
CT
 70
     0
 62
     3
  6
CENTER
370
    -3
390
1E91
  0
LAYER
  5
30
102
{ACAD_XDICTIONARY
360
5B9D
102
}
330
2
100
AcDbSymbolTableRecord
100
AcDbLayerTableRecord
  2
FUTO
 70
     0
 62
     4
  6
CONTINUOUS
370
    -3
390
1E91
  0
LAYER
  5
32
102
{ACAD_XDICTIONARY
360
5B9F
102
}
330
2
100
AcDbSymbolTableRecord
100
AcDbLayerTableRecord
  2
HOSO
 70
     0
 62
     7
  6
CONTINUOUS
370
    -3
390
1E91
  0
LAYER
  5
33
102
{ACAD_XDICTIONARY
360
5BA1
102
}
330
2
100
AcDbSymbolTableRecord
100
AcDbLayerTableRecord
  2
KL
 70
     0
 62
     7
  6
HIDDEN
370
    -3
390
1E91
  0
LAYER
  5
34
102
{ACAD_XDICTIONARY
360
5BA3
102
}
330
2
100
AcDbSymbolTableRecord
100
AcDbLayerTableRecord
  2
MOJI
 70
     0
 62
     3
  6
CONTINUOUS
370
    -3
390
1E91
  0
LAYER
  5
35
102
{ACAD_XDICTIONARY
360
5BA5
102
}
330
2
100
AcDbSymbolTableRecord
100
AcDbLayerTableRecord
  2
SL
 70
     0
 62
     1
  6
PHANTOM
370
    -3
390
1E91
  0
LAYER
  5
36
102
{ACAD_XDICTIONARY
360
5BA7
102
}
330
2
100
AcDbSymbolTableRecord
100
AcDbLayerTableRecord
  2
SP
 70
     0
 62
     2
  6
CONTINUOUS
370
    -3
390
1E91
  0
LAYER
  5
1E9B
330
2
100
AcDbSymbolTableRecord
100
AcDbLayerTableRecord
  2
Defpoints
 70
     0
 62
     7
  6
CONTINUOUS
290
     0
370
    -3
390
1E91
  0
LAYER
  5
1EEE
102
{ACAD_XDICTIONARY
360
5BA9
102
}
330
2
100
AcDbSymbolTableRecord
100
AcDbLayerTableRecord
  2
3
 70
     0
 62
    -2
  6
CONTINUOUS
370
    -3
390
1E91
  0
LAYER
  5
1EEF
102
{ACAD_XDICTIONARY
360
5BAB
102
}
330
2
100
AcDbSymbolTableRecord
100
AcDbLayerTableRecord
  2
2
 70
     0
 62
     3
  6
CENTER
370
    -3
390
1E91
  0
LAYER
  5
1EF0
102
{ACAD_XDICTIONARY
360
5BAD
102
}
330
2
100
AcDbSymbolTableRecord
100
AcDbLayerTableRecord
  2
1
 70
     0
 62
     4
  6
CONTINUOUS
370
    -3
390
1E91
  0
LAYER
  5
2188
102
{ACAD_XDICTIONARY
360
5BAF
102
}
330
2
100
AcDbSymbolTableRecord
100
AcDbLayerTableRecord
  2
4
 70
     0
 62
     7
  6
CONTINUOUS
370
    -3
390
1E91
  0
ENDTAB
  0
TABLE
  2
STYLE
  5
3
330
0
100
AcDbSymbolTable
 70
     1
  0
STYLE
  5
10
330
3
100
AcDbSymbolTableRecord
100
AcDbTextStyleTableRecord
  2
STANDARD
 70
     0
 40
0.0
 41
1.0
 50
15.0
 71
     0
 42
3.5
  3
C:\Program Files\AutoCAD LT\simplex.shx
  4
C:\Program Files\AutoCAD LT\extfont.shx
  0
ENDTAB
  0
TABLE
  2
VIEW
  5
6
330
0
100
AcDbSymbolTable
 70
     0
  0
ENDTAB
  0
TABLE
  2
UCS
  5
7
330
0
100
AcDbSymbolTable
 70
     0
  0
ENDTAB
  0
TABLE
  2
APPID
  5
9
330
0
100
AcDbSymbolTable
 70
     5
  0
APPID
  5
11
330
9
100
AcDbSymbolTableRecord
100
AcDbRegAppTableRecord
  2
ACAD
 70
     0
  0
APPID
  5
5B1C
330
9
100
AcDbSymbolTableRecord
100
AcDbRegAppTableRecord
  2
ACAD_NAV_VCDISPLAY
 70
     0
  0
APPID
  5
5B45
330
9
100
AcDbSymbolTableRecord
100
AcDbRegAppTableRecord
  2
ACAD_EXEMPT_FROM_CAD_STANDARDS
 70
     0
  0
APPID
  5
5B85
330
9
100
AcDbSymbolTableRecord
100
AcDbRegAppTableRecord
  2
AcadAnnoMonitorAlertIconDisabled
 70
     0
  0
APPID
  5
5C1E
330
9
100
AcDbSymbolTableRecord
100
AcDbRegAppTableRecord
  2
ACAD_MLEADERVER
 70
     0
  0
ENDTAB
  0
TABLE
  2
DIMSTYLE
  5
A
330
0
100
AcDbSymbolTable
 70
     3
100
AcDbDimStyleTable
 71
     2
340
1E99
340
1D
  0
DIMSTYLE
105
1D
330
A
100
AcDbSymbolTableRecord
100
AcDbDimStyleTableRecord
  2
STANDARD
 70
     0
340
10
  0
DIMSTYLE
105
1E99
102
{ACAD_REACTORS
330
40F7
330
40EB
330
40E8
330
40E7
330
40EE
330
40E3
330
40E2
330
4490
330
448E
330
4491
330
4CAC
330
4CE5
330
4CA3
330
57BE
330
57BF
330
57C0
330
59DF
330
5B4D
330
5B5A
102
}
330
A
100
AcDbSymbolTableRecord
100
AcDbDimStyleTableRecord
  2
GOD
 70
     0
 40
15.0
 41
2.5
 42
1.0
 43
7.0
 44
1.0
 73
     0
 74
     0
 77
     1
 78
     8
140
3.0
141
0.0
143
0.03937
147
1.0
172
     1
173
     1
176
   256
177
   256
178
   256
271
     2
272
     2
284
     8
289
     0
340
10
341
1E7F
343
1E7F
344
1E7F
  0
DIMSTYLE
105
1EF1
330
A
100
AcDbSymbolTableRecord
100
AcDbDimStyleTableRecord
  2
IGA
 70
     0
 40
2.0
 41
2.0
 42
0.5
 43
10.0
 44
1.0
 47
1.0
 48
1.0
 73
     0
 74
     0
 77
     1
 78
     8
140
3.0
141
0.0
143
0.03937
146
10.0
147
1.0
173
     1
271
     1
272
     0
279
     2
284
     8
340
10
341
1E7F
343
1E7F
344
1E7F
  0
ENDTAB
  0
TABLE
  2
BLOCK_RECORD
  5
1
330
0
100
AcDbSymbolTable
 70
    31
  0
BLOCK_RECORD
  5
19
102
{ACAD_XDICTIONARY
360
5B28
102
}
330
1
100
AcDbSymbolTableRecord
100
AcDbBlockTableRecord
  2
*MODEL_SPACE
340
1E94
  0
BLOCK_RECORD
  5
16
330
1
100
AcDbSymbolTableRecord
100
AcDbBlockTableRecord
  2
*PAPER_SPACE
340
1E95
  0
BLOCK_RECORD
  5
1E7F
330
1
100
AcDbSymbolTableRecord
100
AcDbBlockTableRecord
  2
_OPEN
340
0
102
{BLKREFS
331
422C
331
422D
331
4235
331
4236
331
4250
331
4251
331
4259
331
425A
331
4262
331
4263
331
4534
331
4535
331
4D54
331
4D55
331
4D5D
331
4D5E
331
4D66
331
4D67
331
57E8
331
57E9
331
57F1
331
57F2
331
57FA
331
57FB
331
589F
331
58A0
331
58A8
331
58A9
331
5B2D
331
5B2E
331
5B36
331
5B37
331
5B3F
331
5B40
331
5B80
331
5B81
331
5B93
331
5B94
102
}
  0
BLOCK_RECORD
  5
1EB4
330
1
100
AcDbSymbolTableRecord
100
AcDbBlockTableRecord
  2
_Dot
340
0
  0
BLOCK_RECORD
  5
22E5
330
1
100
AcDbSymbolTableRecord
100
AcDbBlockTableRecord
  2
A$C5EBD6DA5
340
0
  0
BLOCK_RECORD
  5
3F67
330
1
100
AcDbSymbolTableRecord
100
AcDbBlockTableRecord
  2
A$C2860434C
340
0
  0
BLOCK_RECORD
  5
4157
330
1
100
AcDbSymbolTableRecord
100
AcDbBlockTableRecord
  2
*D4
340
0
  0
BLOCK_RECORD
  5
4163
330
1
100
AcDbSymbolTableRecord
100
AcDbBlockTableRecord
  2
*D5
340
0
  0
BLOCK_RECORD
  5
416F
330
1
100
AcDbSymbolTableRecord
100
AcDbBlockTableRecord
  2
*D6
340
0
  0
BLOCK_RECORD
  5
417B
330
1
100
AcDbSymbolTableRecord
100
AcDbBlockTableRecord
  2
*D7
340
0
  0
BLOCK_RECORD
  5
4187
330
1
100
AcDbSymbolTableRecord
100
AcDbBlockTableRecord
  2
*D8
340
0
  0
BLOCK_RECORD
  5
4193
330
1
100
AcDbSymbolTableRecord
100
AcDbBlockTableRecord
  2
*D9
340
0
  0
BLOCK_RECORD
  5
419F
330
1
100
AcDbSymbolTableRecord
100
AcDbBlockTableRecord
  2
*D10
340
0
  0
BLOCK_RECORD
  5
44DA
330
1
100
AcDbSymbolTableRecord
100
AcDbBlockTableRecord
  2
*D11
340
0
  0
BLOCK_RECORD
  5
44E6
330
1
100
AcDbSymbolTableRecord
100
AcDbBlockTableRecord
  2
*D12
340
0
  0
BLOCK_RECORD
  5
44FE
330
1
100
AcDbSymbolTableRecord
100
AcDbBlockTableRecord
  2
*D14
340
0
  0
BLOCK_RECORD
  5
4D0B
330
1
100
AcDbSymbolTableRecord
100
AcDbBlockTableRecord
  2
*D16
340
0
  0
BLOCK_RECORD
  5
4D17
330
1
100
AcDbSymbolTableRecord
100
AcDbBlockTableRecord
  2
*D17
340
0
  0
BLOCK_RECORD
  5
4D23
330
1
100
AcDbSymbolTableRecord
100
AcDbBlockTableRecord
  2
*D18
340
0
  0
BLOCK_RECORD
  5
57C1
330
1
100
AcDbSymbolTableRecord
100
AcDbBlockTableRecord
  2
*D19
340
0
  0
BLOCK_RECORD
  5
57CD
330
1
100
AcDbSymbolTableRecord
100
AcDbBlockTableRecord
  2
*D20
340
0
  0
BLOCK_RECORD
  5
57D9
330
1
100
AcDbSymbolTableRecord
100
AcDbBlockTableRecord
  2
*D21
340
0
  0
BLOCK_RECORD
  5
59E0
330
1
100
AcDbSymbolTableRecord
100
AcDbBlockTableRecord
  2
*D22
340
0
  0
BLOCK_RECORD
  5
5B4E
330
1
100
AcDbSymbolTableRecord
100
AcDbBlockTableRecord
  2
*D29
340
0
  0
BLOCK_RECORD
  5
5B5B
330
1
100
AcDbSymbolTableRecord
100
AcDbBlockTableRecord
  2
*D30
340
0
  0
ENDTAB
  0
ENDSEC
  0
SECTION
  2
BLOCKS
  0
BLOCK
  5
1A
330
19
100
AcDbEntity
  8
0
100
AcDbBlockBegin
  2
*MODEL_SPACE
 70
     0
 10
0.0
 20
0.0
 30
0.0
  3
*MODEL_SPACE
  1

  0
ENDBLK
  5
1B
330
19
100
AcDbEntity
  8
0
100
AcDbBlockEnd
  0
BLOCK
  5
17
330
16
100
AcDbEntity
 67
     1
  8
0
100
AcDbBlockBegin
  2
*PAPER_SPACE
 70
     0
 10
0.0
 20
0.0
 30
0.0
  3
*PAPER_SPACE
  1

  0
ENDBLK
  5
18
330
16
100
AcDbEntity
 67
     1
  8
0
100
AcDbBlockEnd
  0
BLOCK
  5
1E80
330
1E7F
100
AcDbEntity
  8
0
100
AcDbBlockBegin
  2
_OPEN
 70
     0
 10
0.0
 20
0.0
 30
0.0
  3
_OPEN
  1

  0
LINE
  5
1E81
330
1E7F
100
AcDbEntity
  8
0
  6
ByBlock
 62
     0
100
AcDbLine
 10
-1.0
 20
0.1666666666666666
 30
0.0
 11
0.0
 21
0.0
 31
0.0
  0
LINE
  5
1E82
330
1E7F
100
AcDbEntity
  8
0
  6
ByBlock
 62
     0
100
AcDbLine
 10
0.0
 20
0.0
 30
0.0
 11
-1.0
 21
-0.1666666666666666
 31
0.0
  0
LINE
  5
1E83
330
1E7F
100
AcDbEntity
  8
0
  6
ByBlock
 62
     0
100
AcDbLine
 10
0.0
 20
0.0
 30
0.0
 11
-1.0
 21
0.0
 31
0.0
  0
ENDBLK
  5
1E84
330
1E7F
100
AcDbEntity
  8
0
100
AcDbBlockEnd
  0
BLOCK
  5
1EB7
330
1EB4
100
AcDbEntity
  8
0
100
AcDbBlockBegin
  2
_Dot
 70
     0
 10
0.0
 20
0.0
 30
0.0
  3
_Dot
  1

  0
LINE
  5
1EC3
330
1EB4
100
AcDbEntity
  8
0
  6
ByBlock
 62
     0
100
AcDbLine
 10
0.0
 20
0.0
 30
0.0
 11
-1.0
 21
-0.0000000000000284
 31
0.0
  0
LWPOLYLINE
  5
1EC4
330
1EB4
100
AcDbEntity
  8
0
  6
ByBlock
 62
     0
100
AcDbPolyline
 90
        2
 70
     1
 43
0.1666666666666666
 10
-0.0833333333333286
 20
-0.0000000000000284
 42
1.0
 10
0.0833333333333286
 20
-0.0000000000000284
 42
1.0
  0
ENDBLK
  5
1EB8
330
1EB4
100
AcDbEntity
  8
0
100
AcDbBlockEnd
  0
BLOCK
  5
22ED
330
22E5
100
AcDbEntity
  8
0
100
AcDbBlockBegin
  2
A$C5EBD6DA5
 70
     0
 10
0.0
 20
0.0
 30
0.0
  3
A$C5EBD6DA5
  1

  0
LWPOLYLINE
  5
22E6
330
22E5
100
AcDbEntity
  8
1
100
AcDbPolyline
 90
        2
 70
     0
 43
0.0
 10
8.000000000002728
 20
-181.5000000000009
 10
8.000000000000909
 20
181.5000000000009
  0
LINE
  5
22E7
330
22E5
100
AcDbEntity
  8
1
100
AcDbLine
 10
1.000000000000909
 20
182.5000000000009
 30
0.0
 11
7.000000000002728
 21
182.5000000000009
 31
0.0
  0
ARC
  5
22E8
330
22E5
100
AcDbEntity
  8
1
100
AcDbCircle
 10
1.000000000000909
 20
183.5000000000009
 30
0.0
 40
1.0
100
AcDbArc
 50
180.0
 51
270.0
  0
LINE
  5
22E9
330
22E5
100
AcDbEntity
  8
1
100
AcDbLine
 10
1.000000000000909
 20
-182.5000000000009
 30
0.0
 11
7.000000000002728
 21
-182.5000000000009
 31
0.0
  0
ARC
  5
22EA
330
22E5
100
AcDbEntity
  8
1
100
AcDbCircle
 10
1.000000000000909
 20
-183.5000000000009
 30
0.0
 40
1.0
100
AcDbArc
 50
90.0
 51
180.0
  0
ARC
  5
22EB
330
22E5
100
AcDbEntity
  8
1
100
AcDbCircle
 10
7.000000000000909
 20
-181.5000000000009
 30
0.0
 40
1.0
100
AcDbArc
 50
270.0
 51
0.0
  0
ARC
  5
22EC
330
22E5
100
AcDbEntity
  8
1
100
AcDbCircle
 10
7.000000000000909
 20
181.5000000000009
 30
0.0
 40
1.0
100
AcDbArc
 50
0.0
 51
90.0
  0
ENDBLK
  5
22EE
330
22E5
100
AcDbEntity
  8
0
100
AcDbBlockEnd
  0
BLOCK
  5
3F70
330
3F67
100
AcDbEntity
  8
0
100
AcDbBlockBegin
  2
A$C2860434C
 70
     0
 10
0.0
 20
0.0
 30
0.0
  3
A$C2860434C
  1

  0
LINE
  5
3F68
330
3F67
100
AcDbEntity
  8
FUTO
100
AcDbLine
 10
46.80127011642617
 20
-0.0000088960860012
 30
0.0
 11
8.586023312103861
 21
70.14998454137458
 31
0.0
  0
LINE
  5
3F69
330
3F67
100
AcDbEntity
  8
FUTO
100
AcDbLine
 10
-0.0000161416137416
 20
53.3499845413753
 30
0.0
 11
1.599983858386622
 21
53.3499845413753
 31
0.0
  0
LINE
  5
3F6A
330
3F67
100
AcDbEntity
  8
FUTO
100
AcDbLine
 10
-0.0000161416137416
 20
53.3499845413753
 30
0.0
 11
-0.0000161416137416
 21
68.54998454137422
 31
0.0
  0
LINE
  5
3F6B
330
3F67
100
AcDbEntity
  8
FUTO
100
AcDbLine
 10
1.599983858386622
 20
53.3499845413753
 30
0.0
 11
1.599983858386622
 21
68.54998454137422
 31
0.0
  0
LINE
  5
3F6C
330
3F67
100
AcDbEntity
  8
FUTO
100
AcDbLine
 10
3.199983858386985
 20
70.14998454137458
 30
0.0
 11
91.76921462761674
 21
70.14998454137094
 31
0.0
  0
LINE
  5
3F6D
330
3F67
100
AcDbEntity
  8
FUTO
100
AcDbLine
 10
3.199983858386985
 20
71.74998454137313
 30
0.0
 11
92.79485565325741
 21
71.74998454137313
 31
0.0
  0
ARC
  5
3F6E
330
3F67
100
AcDbEntity
  8
FUTO
100
AcDbCircle
 10
3.199983858386985
 20
68.54998454137422
 30
0.0
 40
3.2
100
AcDbArc
 50
90.0
 51
180.0
  0
ARC
  5
3F6F
330
3F67
100
AcDbEntity
  8
FUTO
100
AcDbCircle
 10
3.199983858386985
 20
68.54998454137422
 30
0.0
 40
1.6
100
AcDbArc
 50
90.0
 51
180.0
  0
ENDBLK
  5
3F71
330
3F67
100
AcDbEntity
  8
0
100
AcDbBlockEnd
  0
BLOCK
  5
4161
330
4157
100
AcDbEntity
  8
0
100
AcDbBlockBegin
  2
*D4
 70
     1
 10
0.0
 20
0.0
 30
0.0
  3
*D4
  1

  0
LINE
  5
425F
330
4157
100
AcDbEntity
  8
SP
370
    -2
100
AcDbLine
 10
14623.49800636368
 20
4502.635294509082
 30
0.0
 11
14557.80003186733
 21
4502.635294509082
 31
0.0
  0
LINE
  5
4260
330
4157
100
AcDbEntity
  8
SP
370
    -2
100
AcDbLine
 10
14891.30003186733
 20
4752.635294509075
 30
0.0
 11
14557.80003186733
 21
4752.635294509075
 31
0.0
  0
LINE
  5
4261
330
4157
100
AcDbEntity
  8
SP
370
    -2
100
AcDbLine
 10
14572.80003186733
 20
4540.135294509082
 30
0.0
 11
14572.80003186733
 21
4715.135294509075
 31
0.0
  0
INSERT
  5
4262
330
4157
100
AcDbEntity
  8
SP
370
    -2
100
AcDbBlockReference
  2
_OPEN
 10
14572.80003186733
 20
4502.635294509082
 30
0.0
 41
37.5
 42
37.5
 43
37.5
 50
270.0
  0
INSERT
  5
4263
330
4157
100
AcDbEntity
  8
SP
370
    -2
100
AcDbBlockReference
  2
_OPEN
 10
14572.80003186733
 20
4752.635294509075
 30
0.0
 41
37.5
 42
37.5
 43
37.5
 50
90.0
  0
MTEXT
  5
4264
330
4157
100
AcDbEntity
  8
SP
100
AcDbMText
 10
14535.30003186733
 20
4627.635294509081
 30
0.0
 40
45.0
 41
0.0
 71
     5
 72
     1
  1
\A1;250
 11
0.0000000000000001
 21
1.0
 31
0.0
 73
     1
 44
1.0
1001
ACAD
1000
MTEXTBEGIN
1070
    73
1070
     1
1070
    44
1040
1.0
1070
    74
1070
     0
1000
MTEXTEND
  0
POINT
  5
4265
330
4157
100
AcDbEntity
  8
Defpoints
 62
     0
100
AcDbPoint
 10
14638.49800636368
 20
4502.635294509082
 30
0.0
  0
POINT
  5
4266
330
4157
100
AcDbEntity
  8
Defpoints
 62
     0
100
AcDbPoint
 10
14906.30003186733
 20
4752.635294509075
 30
0.0
  0
POINT
  5
4267
330
4157
100
AcDbEntity
  8
Defpoints
 62
     0
100
AcDbPoint
 10
14572.80003186733
 20
4752.635294509075
 30
0.0
  0
ENDBLK
  5
4162
330
4157
100
AcDbEntity
  8
0
100
AcDbBlockEnd
  0
BLOCK
  5
416D
330
4163
100
AcDbEntity
  8
0
100
AcDbBlockBegin
  2
*D5
 70
     1
 10
0.0
 20
0.0
 30
0.0
  3
*D5
  1

  0
LINE
  5
424D
330
4163
100
AcDbEntity
  8
SP
370
    -2
100
AcDbLine
 10
14662.80003186733
 20
4147.635294509082
 30
0.0
 11
14557.80003186734
 21
4147.635294509082
 31
0.0
  0
LINE
  5
424E
330
4163
100
AcDbEntity
  8
SP
370
    -2
100
AcDbLine
 10
14623.49800636368
 20
4502.635294509082
 30
0.0
 11
14557.80003186734
 21
4502.635294509082
 31
0.0
  0
LINE
  5
424F
330
4163
100
AcDbEntity
  8
SP
370
    -2
100
AcDbLine
 10
14572.80003186734
 20
4185.135294509082
 30
0.0
 11
14572.80003186734
 21
4465.135294509082
 31
0.0
  0
INSERT
  5
4250
330
4163
100
AcDbEntity
  8
SP
370
    -2
100
AcDbBlockReference
  2
_OPEN
 10
14572.80003186734
 20
4147.635294509082
 30
0.0
 41
37.5
 42
37.5
 43
37.5
 50
270.0
  0
INSERT
  5
4251
330
4163
100
AcDbEntity
  8
SP
370
    -2
100
AcDbBlockReference
  2
_OPEN
 10
14572.80003186734
 20
4502.635294509082
 30
0.0
 41
37.5
 42
37.5
 43
37.5
 50
90.0
  0
MTEXT
  5
4252
330
4163
100
AcDbEntity
  8
SP
100
AcDbMText
 10
14535.30003186734
 20
4325.135294509085
 30
0.0
 40
45.0
 41
0.0
 71
     5
 72
     1
  1
\A1;355
 11
0.0000000000000001
 21
1.0
 31
0.0
 73
     1
 44
1.0
1001
ACAD
1000
MTEXTBEGIN
1070
    73
1070
     1
1070
    44
1040
1.0
1070
    74
1070
     0
1000
MTEXTEND
  0
POINT
  5
4253
330
4163
100
AcDbEntity
  8
Defpoints
 62
     0
100
AcDbPoint
 10
14677.80003186733
 20
4147.635294509082
 30
0.0
  0
POINT
  5
4254
330
4163
100
AcDbEntity
  8
Defpoints
 62
     0
100
AcDbPoint
 10
14638.49800636368
 20
4502.635294509082
 30
0.0
  0
POINT
  5
4255
330
4163
100
AcDbEntity
  8
Defpoints
 62
     0
100
AcDbPoint
 10
14572.80003186734
 20
4502.635294509082
 30
0.0
  0
ENDBLK
  5
416E
330
4163
100
AcDbEntity
  8
0
100
AcDbBlockEnd
  0
BLOCK
  5
4179
330
416F
100
AcDbEntity
  8
0
100
AcDbBlockBegin
  2
*D6
 70
     1
 10
0.0
 20
0.0
 30
0.0
  3
*D6
  1

  0
LINE
  5
58A5
330
416F
100
AcDbEntity
  8
SP
370
    -2
100
AcDbLine
 10
14927.80003186734
 20
4102.47911344242
 30
0.0
 11
14927.80003186734
 21
4027.635294509082
 31
0.0
  0
LINE
  5
58A6
330
416F
100
AcDbEntity
  8
SP
370
    -2
100
AcDbLine
 10
15177.80003186733
 20
4132.635294509082
 30
0.0
 11
15177.80003186733
 21
4027.635294509082
 31
0.0
  0
LINE
  5
58A7
330
416F
100
AcDbEntity
  8
SP
370
    -2
100
AcDbLine
 10
14965.30003186734
 20
4042.635294509083
 30
0.0
 11
15140.30003186733
 21
4042.635294509083
 31
0.0
  0
INSERT
  5
58A8
330
416F
100
AcDbEntity
  8
SP
370
    -2
100
AcDbBlockReference
  2
_OPEN
 10
14927.80003186734
 20
4042.635294509083
 30
0.0
 41
37.5
 42
37.5
 43
37.5
 50
180.0
  0
INSERT
  5
58A9
330
416F
100
AcDbEntity
  8
SP
370
    -2
100
AcDbBlockReference
  2
_OPEN
 10
15177.80003186733
 20
4042.635294509083
 30
0.0
 41
37.5
 42
37.5
 43
37.5
  0
MTEXT
  5
58AA
330
416F
100
AcDbEntity
  8
SP
100
AcDbMText
 10
15052.80003186733
 20
4080.135294509083
 30
0.0
 40
45.0
 41
0.0
 71
     5
 72
     1
  1
\A1;250
 73
     1
 44
1.0
1001
ACAD
1000
MTEXTBEGIN
1070
    73
1070
     1
1070
    44
1040
1.0
1070
    74
1070
     0
1000
MTEXTEND
  0
POINT
  5
58AB
330
416F
100
AcDbEntity
  8
Defpoints
 62
     0
100
AcDbPoint
 10
14927.80003186734
 20
4117.47911344242
 30
0.0
  0
POINT
  5
58AC
330
416F
100
AcDbEntity
  8
Defpoints
 62
     0
100
AcDbPoint
 10
15177.80003186733
 20
4147.635294509082
 30
0.0
  0
POINT
  5
58AD
330
416F
100
AcDbEntity
  8
Defpoints
 62
     0
100
AcDbPoint
 10
15177.80003186733
 20
4042.635294509083
 30
0.0
  0
ENDBLK
  5
417A
330
416F
100
AcDbEntity
  8
0
100
AcDbBlockEnd
  0
BLOCK
  5
4185
330
417B
100
AcDbEntity
  8
0
100
AcDbBlockBegin
  2
*D7
 70
     1
 10
0.0
 20
0.0
 30
0.0
  3
*D7
  1

  0
LINE
  5
589C
330
417B
100
AcDbEntity
  8
SP
370
    -2
100
AcDbLine
 10
14927.80003186734
 20
4102.47911344242
 30
0.0
 11
14927.80003186734
 21
4027.635294509082
 31
0.0
  0
LINE
  5
589D
330
417B
100
AcDbEntity
  8
SP
370
    -2
100
AcDbLine
 10
14677.80003186733
 20
4132.635294509082
 30
0.0
 11
14677.80003186733
 21
4027.635294509082
 31
0.0
  0
LINE
  5
589E
330
417B
100
AcDbEntity
  8
SP
370
    -2
100
AcDbLine
 10
14890.30003186734
 20
4042.635294509083
 30
0.0
 11
14715.30003186733
 21
4042.635294509083
 31
0.0
  0
INSERT
  5
589F
330
417B
100
AcDbEntity
  8
SP
370
    -2
100
AcDbBlockReference
  2
_OPEN
 10
14927.80003186734
 20
4042.635294509083
 30
0.0
 41
37.5
 42
37.5
 43
37.5
  0
INSERT
  5
58A0
330
417B
100
AcDbEntity
  8
SP
370
    -2
100
AcDbBlockReference
  2
_OPEN
 10
14677.80003186733
 20
4042.635294509083
 30
0.0
 41
37.5
 42
37.5
 43
37.5
 50
180.0
  0
MTEXT
  5
58A1
330
417B
100
AcDbEntity
  8
SP
100
AcDbMText
 10
14802.80003186734
 20
4080.135294509083
 30
0.0
 40
45.0
 41
0.0
 71
     5
 72
     1
  1
\A1;250
 73
     1
 44
1.0
1001
ACAD
1000
MTEXTBEGIN
1070
    73
1070
     1
1070
    44
1040
1.0
1070
    74
1070
     0
1000
MTEXTEND
  0
POINT
  5
58A2
330
417B
100
AcDbEntity
  8
Defpoints
 62
     0
100
AcDbPoint
 10
14927.80003186734
 20
4117.47911344242
 30
0.0
  0
POINT
  5
58A3
330
417B
100
AcDbEntity
  8
Defpoints
 62
     0
100
AcDbPoint
 10
14677.80003186733
 20
4147.635294509082
 30
0.0
  0
POINT
  5
58A4
330
417B
100
AcDbEntity
  8
Defpoints
 62
     0
100
AcDbPoint
 10
14677.80003186733
 20
4042.635294509083
 30
0.0
  0
ENDBLK
  5
4186
330
417B
100
AcDbEntity
  8
0
100
AcDbBlockEnd
  0
BLOCK
  5
4191
330
4187
100
AcDbEntity
  8
0
100
AcDbBlockBegin
  2
*D8
 70
     1
 10
0.0
 20
0.0
 30
0.0
  3
*D8
  1

  0
LINE
  5
4256
330
4187
100
AcDbEntity
  8
SP
370
    -2
100
AcDbLine
 10
15177.80003186733
 20
4132.635294509082
 30
0.0
 11
15177.80003186733
 21
3922.635294509083
 31
0.0
  0
LINE
  5
4257
330
4187
100
AcDbEntity
  8
SP
370
    -2
100
AcDbLine
 10
14677.80003186733
 20
4132.635294509082
 30
0.0
 11
14677.80003186733
 21
3922.635294509083
 31
0.0
  0
LINE
  5
4258
330
4187
100
AcDbEntity
  8
SP
370
    -2
100
AcDbLine
 10
15140.30003186733
 20
3937.635294509082
 30
0.0
 11
14715.30003186733
 21
3937.635294509082
 31
0.0
  0
INSERT
  5
4259
330
4187
100
AcDbEntity
  8
SP
370
    -2
100
AcDbBlockReference
  2
_OPEN
 10
15177.80003186733
 20
3937.635294509082
 30
0.0
 41
37.5
 42
37.5
 43
37.5
  0
INSERT
  5
425A
330
4187
100
AcDbEntity
  8
SP
370
    -2
100
AcDbBlockReference
  2
_OPEN
 10
14677.80003186733
 20
3937.635294509082
 30
0.0
 41
37.5
 42
37.5
 43
37.5
 50
180.0
  0
MTEXT
  5
425B
330
4187
100
AcDbEntity
  8
SP
100
AcDbMText
 10
14927.80003186733
 20
3975.135294509082
 30
0.0
 40
45.0
 41
0.0
 71
     5
 72
     1
  1
\A1;500
 73
     1
 44
1.0
1001
ACAD
1000
MTEXTBEGIN
1070
    73
1070
     1
1070
    44
1040
1.0
1070
    74
1070
     0
1000
MTEXTEND
  0
POINT
  5
425C
330
4187
100
AcDbEntity
  8
Defpoints
 62
     0
100
AcDbPoint
 10
15177.80003186733
 20
4147.635294509082
 30
0.0
  0
POINT
  5
425D
330
4187
100
AcDbEntity
  8
Defpoints
 62
     0
100
AcDbPoint
 10
14677.80003186733
 20
4147.635294509082
 30
0.0
  0
POINT
  5
425E
330
4187
100
AcDbEntity
  8
Defpoints
 62
     0
100
AcDbPoint
 10
14677.80003186733
 20
3937.635294509082
 30
0.0
  0
ENDBLK
  5
4192
330
4187
100
AcDbEntity
  8
0
100
AcDbBlockEnd
  0
BLOCK
  5
419D
330
4193
100
AcDbEntity
  8
0
100
AcDbBlockBegin
  2
*D9
 70
     1
 10
0.0
 20
0.0
 30
0.0
  3
*D9
  1

  0
LINE
  5
4232
330
4193
100
AcDbEntity
  8
SP
370
    -2
100
AcDbLine
 10
15242.80003186733
 20
4767.635294509086
 30
0.0
 11
15242.80003186733
 21
4872.635294509076
 31
0.0
  0
LINE
  5
4233
330
4193
100
AcDbEntity
  8
SP
370
    -2
100
AcDbLine
 10
14927.80003186734
 20
4790.633820463165
 30
0.0
 11
14927.80003186734
 21
4872.635294509076
 31
0.0
  0
LINE
  5
4234
330
4193
100
AcDbEntity
  8
SP
370
    -2
100
AcDbLine
 10
15205.30003186733
 20
4857.635294509076
 30
0.0
 11
14965.30003186734
 21
4857.635294509076
 31
0.0
  0
INSERT
  5
4235
330
4193
100
AcDbEntity
  8
SP
370
    -2
100
AcDbBlockReference
  2
_OPEN
 10
15242.80003186733
 20
4857.635294509076
 30
0.0
 41
37.5
 42
37.5
 43
37.5
  0
INSERT
  5
4236
330
4193
100
AcDbEntity
  8
SP
370
    -2
100
AcDbBlockReference
  2
_OPEN
 10
14927.80003186734
 20
4857.635294509076
 30
0.0
 41
37.5
 42
37.5
 43
37.5
 50
180.0
  0
MTEXT
  5
4237
330
4193
100
AcDbEntity
  8
SP
100
AcDbMText
 10
15085.30003186733
 20
4895.135294509076
 30
0.0
 40
45.0
 41
0.0
 71
     5
 72
     1
  1
\A1;315
 73
     1
 44
1.0
1001
ACAD
1000
MTEXTBEGIN
1070
    73
1070
     1
1070
    44
1040
1.0
1070
    74
1070
     0
1000
MTEXTEND
  0
POINT
  5
4238
330
4193
100
AcDbEntity
  8
Defpoints
 62
     0
100
AcDbPoint
 10
15242.80003186733
 20
4752.635294509087
 30
0.0
  0
POINT
  5
4239
330
4193
100
AcDbEntity
  8
Defpoints
 62
     0
100
AcDbPoint
 10
14927.80003186734
 20
4775.633820463164
 30
0.0
  0
POINT
  5
423A
330
4193
100
AcDbEntity
  8
Defpoints
 62
     0
100
AcDbPoint
 10
14927.80003186734
 20
4857.635294509076
 30
0.0
  0
ENDBLK
  5
419E
330
4193
100
AcDbEntity
  8
0
100
AcDbBlockEnd
  0
BLOCK
  5
41A9
330
419F
100
AcDbEntity
  8
0
100
AcDbBlockBegin
  2
*D10
 70
     1
 10
0.0
 20
0.0
 30
0.0
  3
*D10
  1

  0
LINE
  5
4229
330
419F
100
AcDbEntity
  8
SP
370
    -2
100
AcDbLine
 10
14927.80003186734
 20
4790.633820463165
 30
0.0
 11
14927.80003186734
 21
4872.635294509077
 31
0.0
  0
LINE
  5
422A
330
419F
100
AcDbEntity
  8
SP
370
    -2
100
AcDbLine
 10
14705.51281175086
 20
4494.781590644274
 30
0.0
 11
14705.51281175086
 21
4872.635294509077
 31
0.0
  0
LINE
  5
422B
330
419F
100
AcDbEntity
  8
SP
370
    -2
100
AcDbLine
 10
14890.30003186734
 20
4857.635294509076
 30
0.0
 11
14743.01281175086
 21
4857.635294509076
 31
0.0
  0
INSERT
  5
422C
330
419F
100
AcDbEntity
  8
SP
370
    -2
100
AcDbBlockReference
  2
_OPEN
 10
14927.80003186734
 20
4857.635294509076
 30
0.0
 41
37.5
 42
37.5
 43
37.5
  0
INSERT
  5
422D
330
419F
100
AcDbEntity
  8
SP
370
    -2
100
AcDbBlockReference
  2
_OPEN
 10
14705.51281175086
 20
4857.635294509076
 30
0.0
 41
37.5
 42
37.5
 43
37.5
 50
180.0
  0
MTEXT
  5
422E
330
419F
100
AcDbEntity
  8
SP
100
AcDbMText
 10
14816.6564218091
 20
4895.135294509077
 30
0.0
 40
45.0
 41
0.0
 71
     5
 72
     1
  1
\A1;222
 73
     1
 44
1.0
1001
ACAD
1000
MTEXTBEGIN
1070
    73
1070
     1
1070
    44
1040
1.0
1070
    74
1070
     0
1000
MTEXTEND
  0
POINT
  5
422F
330
419F
100
AcDbEntity
  8
Defpoints
 62
     0
100
AcDbPoint
 10
14927.80003186734
 20
4775.633820463164
 30
0.0
  0
POINT
  5
4230
330
419F
100
AcDbEntity
  8
Defpoints
 62
     0
100
AcDbPoint
 10
14705.51281175086
 20
4479.781590644273
 30
0.0
  0
POINT
  5
4231
330
419F
100
AcDbEntity
  8
Defpoints
 62
     0
100
AcDbPoint
 10
14705.51281175086
 20
4857.635294509076
 30
0.0
  0
ENDBLK
  5
41AA
330
419F
100
AcDbEntity
  8
0
100
AcDbBlockEnd
  0
BLOCK
  5
44E4
330
44DA
100
AcDbEntity
  8
0
100
AcDbBlockBegin
  2
*D11
 70
     1
 10
0.0
 20
0.0
 30
0.0
  3
*D11
  1

  0
LINE
  5
5B33
330
44DA
100
AcDbEntity
  8
SP
370
    -2
100
AcDbLine
 10
16066.37511013998
 20
4767.635294509084
 30
0.0
 11
16066.37511013998
 21
4872.75139915572
 31
0.0
  0
LINE
  5
5B34
330
44DA
100
AcDbEntity
  8
SP
370
    -2
100
AcDbLine
 10
16290.37511013998
 20
4767.635294509084
 30
0.0
 11
16290.37511013998
 21
4872.75139915572
 31
0.0
  0
LINE
  5
5B35
330
44DA
100
AcDbEntity
  8
SP
370
    -2
100
AcDbLine
 10
16103.87511013998
 20
4857.751399155721
 30
0.0
 11
16252.87511013998
 21
4857.751399155721
 31
0.0
  0
INSERT
  5
5B36
330
44DA
100
AcDbEntity
  8
SP
370
    -2
100
AcDbBlockReference
  2
_OPEN
 10
16066.37511013998
 20
4857.751399155721
 30
0.0
 41
37.5
 42
37.5
 43
37.5
 50
180.0
  0
INSERT
  5
5B37
330
44DA
100
AcDbEntity
  8
SP
370
    -2
100
AcDbBlockReference
  2
_OPEN
 10
16290.37511013998
 20
4857.751399155721
 30
0.0
 41
37.5
 42
37.5
 43
37.5
  0
MTEXT
  5
5B38
330
44DA
100
AcDbEntity
  8
SP
100
AcDbMText
 10
16178.37511013998
 20
4895.251399155721
 30
0.0
 40
45.0
 41
0.0
 71
     5
 72
     1
  1
\A1;224
 73
     1
 44
1.0
1001
ACAD
1000
MTEXTBEGIN
1070
    73
1070
     1
1070
    44
1040
1.0
1070
    74
1070
     0
1000
MTEXTEND
  0
POINT
  5
5B39
330
44DA
100
AcDbEntity
  8
Defpoints
 62
     0
100
AcDbPoint
 10
16066.37511013998
 20
4752.635294509084
 30
0.0
  0
POINT
  5
5B3A
330
44DA
100
AcDbEntity
  8
Defpoints
 62
     0
100
AcDbPoint
 10
16290.37511013998
 20
4752.635294509084
 30
0.0
  0
POINT
  5
5B3B
330
44DA
100
AcDbEntity
  8
Defpoints
 62
     0
100
AcDbPoint
 10
16290.37511013998
 20
4857.751399155721
 30
0.0
  0
ENDBLK
  5
44E5
330
44DA
100
AcDbEntity
  8
0
100
AcDbBlockEnd
  0
BLOCK
  5
44F0
330
44E6
100
AcDbEntity
  8
0
100
AcDbBlockBegin
  2
*D12
 70
     1
 10
0.0
 20
0.0
 30
0.0
  3
*D12
  1

  0
LINE
  5
5B2A
330
44E6
100
AcDbEntity
  8
SP
370
    -2
100
AcDbLine
 10
16178.37511013998
 20
4932.751399155721
 30
0.0
 11
16178.37511013998
 21
4977.635294509084
 31
0.0
  0
LINE
  5
5B2B
330
44E6
100
AcDbEntity
  8
SP
370
    -2
100
AcDbLine
 10
16299.37511013998
 20
4699.13529450908
 30
0.0
 11
16299.37511013998
 21
4977.635294509084
 31
0.0
  0
LINE
  5
5B2C
330
44E6
100
AcDbEntity
  8
SP
370
    -2
100
AcDbLine
 10
16215.87511013998
 20
4962.635294509084
 30
0.0
 11
16261.87511013998
 21
4962.635294509084
 31
0.0
  0
INSERT
  5
5B2D
330
44E6
100
AcDbEntity
  8
SP
370
    -2
100
AcDbBlockReference
  2
_OPEN
 10
16178.37511013998
 20
4962.635294509084
 30
0.0
 41
37.5
 42
37.5
 43
37.5
 50
180.0
  0
INSERT
  5
5B2E
330
44E6
100
AcDbEntity
  8
SP
370
    -2
100
AcDbBlockReference
  2
_OPEN
 10
16299.37511013998
 20
4962.635294509084
 30
0.0
 41
37.5
 42
37.5
 43
37.5
  0
MTEXT
  5
5B2F
330
44E6
100
AcDbEntity
  8
SP
100
AcDbMText
 10
16238.87511013998
 20
5000.135294509084
 30
0.0
 40
45.0
 41
0.0
 71
     5
 72
     1
  1
\A1;121
 73
     1
 44
1.0
1001
ACAD
1000
MTEXTBEGIN
1070
    73
1070
     1
1070
    44
1040
1.0
1070
    74
1070
     0
1000
MTEXTEND
  0
POINT
  5
5B30
330
44E6
100
AcDbEntity
  8
Defpoints
 62
     0
100
AcDbPoint
 10
16178.37511013998
 20
4917.75139915572
 30
0.0
  0
POINT
  5
5B31
330
44E6
100
AcDbEntity
  8
Defpoints
 62
     0
100
AcDbPoint
 10
16299.37511013998
 20
4684.13529450908
 30
0.0
  0
POINT
  5
5B32
330
44E6
100
AcDbEntity
  8
Defpoints
 62
     0
100
AcDbPoint
 10
16299.37511013998
 20
4962.635294509084
 30
0.0
  0
ENDBLK
  5
44F1
330
44E6
100
AcDbEntity
  8
0
100
AcDbBlockEnd
  0
BLOCK
  5
4508
330
44FE
100
AcDbEntity
  8
0
100
AcDbBlockBegin
  2
*D14
 70
     1
 10
0.0
 20
0.0
 30
0.0
  3
*D14
  1

  0
LINE
  5
4531
330
44FE
100
AcDbEntity
  8
SP
370
    -2
100
AcDbLine
 10
15746.37511013998
 20
4132.635294509083
 30
0.0
 11
15746.37511013998
 21
4027.635294509082
 31
0.0
  0
LINE
  5
4532
330
44FE
100
AcDbEntity
  8
SP
370
    -2
100
AcDbLine
 10
16056.37511013998
 20
4132.635294509083
 30
0.0
 11
16056.37511013998
 21
4027.635294509082
 31
0.0
  0
LINE
  5
4533
330
44FE
100
AcDbEntity
  8
SP
370
    -2
100
AcDbLine
 10
15783.87511013998
 20
4042.635294509083
 30
0.0
 11
16018.87511013998
 21
4042.635294509083
 31
0.0
  0
INSERT
  5
4534
330
44FE
100
AcDbEntity
  8
SP
370
    -2
100
AcDbBlockReference
  2
_OPEN
 10
15746.37511013998
 20
4042.635294509083
 30
0.0
 41
37.5
 42
37.5
 43
37.5
 50
180.0
  0
INSERT
  5
4535
330
44FE
100
AcDbEntity
  8
SP
370
    -2
100
AcDbBlockReference
  2
_OPEN
 10
16056.37511013998
 20
4042.635294509083
 30
0.0
 41
37.5
 42
37.5
 43
37.5
  0
MTEXT
  5
4536
330
44FE
100
AcDbEntity
  8
SP
100
AcDbMText
 10
15901.37511013998
 20
4080.135294509083
 30
0.0
 40
45.0
 41
0.0
 71
     5
 72
     1
  1
\A1;310
 73
     1
 44
1.0
1001
ACAD
1000
MTEXTBEGIN
1070
    73
1070
     1
1070
    44
1040
1.0
1070
    74
1070
     0
1000
MTEXTEND
  0
POINT
  5
4537
330
44FE
100
AcDbEntity
  8
Defpoints
 62
     0
100
AcDbPoint
 10
15746.37511013998
 20
4147.635294509083
 30
0.0
  0
POINT
  5
4538
330
44FE
100
AcDbEntity
  8
Defpoints
 62
     0
100
AcDbPoint
 10
16056.37511013998
 20
4147.635294509083
 30
0.0
  0
POINT
  5
4539
330
44FE
100
AcDbEntity
  8
Defpoints
 62
     0
100
AcDbPoint
 10
16056.37511013998
 20
4042.635294509083
 30
0.0
  0
ENDBLK
  5
4509
330
44FE
100
AcDbEntity
  8
0
100
AcDbBlockEnd
  0
BLOCK
  5
4D15
330
4D0B
100
AcDbEntity
  8
0
100
AcDbBlockBegin
  2
*D16
 70
     1
 10
0.0
 20
0.0
 30
0.0
  3
*D16
  1

  0
LINE
  5
4D5A
330
4D0B
100
AcDbEntity
  8
SP
370
    -2
100
AcDbLine
 10
15177.80003186734
 20
5407.362935220169
 30
0.0
 11
15177.80003186734
 21
5301.28545370638
 31
0.0
  0
LINE
  5
4D5B
330
4D0B
100
AcDbEntity
  8
SP
370
    -2
100
AcDbLine
 10
14677.80003186734
 20
5407.362935220169
 30
0.0
 11
14677.80003186734
 21
5301.28545370638
 31
0.0
  0
LINE
  5
4D5C
330
4D0B
100
AcDbEntity
  8
SP
370
    -2
100
AcDbLine
 10
15140.30003186734
 20
5316.285453706379
 30
0.0
 11
14715.30003186734
 21
5316.285453706379
 31
0.0
  0
INSERT
  5
4D5D
330
4D0B
100
AcDbEntity
  8
SP
370
    -2
100
AcDbBlockReference
  2
_OPEN
 10
15177.80003186734
 20
5316.285453706379
 30
0.0
 41
37.5
 42
37.5
 43
37.5
  0
INSERT
  5
4D5E
330
4D0B
100
AcDbEntity
  8
SP
370
    -2
100
AcDbBlockReference
  2
_OPEN
 10
14677.80003186734
 20
5316.285453706379
 30
0.0
 41
37.5
 42
37.5
 43
37.5
 50
180.0
  0
MTEXT
  5
4D5F
330
4D0B
100
AcDbEntity
  8
SP
100
AcDbMText
 10
14927.80003186734
 20
5353.785453706379
 30
0.0
 40
45.0
 41
0.0
 71
     5
 72
     1
  1
\A1;500
 73
     1
 44
1.0
1001
ACAD
1000
MTEXTBEGIN
1070
    73
1070
     1
1070
    44
1040
1.0
1070
    74
1070
     0
1000
MTEXTEND
  0
POINT
  5
4D60
330
4D0B
100
AcDbEntity
  8
Defpoints
 62
     0
100
AcDbPoint
 10
15177.80003186734
 20
5422.362935220169
 30
0.0
  0
POINT
  5
4D61
330
4D0B
100
AcDbEntity
  8
Defpoints
 62
     0
100
AcDbPoint
 10
14677.80003186734
 20
5422.362935220169
 30
0.0
  0
POINT
  5
4D62
330
4D0B
100
AcDbEntity
  8
Defpoints
 62
     0
100
AcDbPoint
 10
14677.80003186734
 20
5316.285453706379
 30
0.0
  0
ENDBLK
  5
4D16
330
4D0B
100
AcDbEntity
  8
0
100
AcDbBlockEnd
  0
BLOCK
  5
4D21
330
4D17
100
AcDbEntity
  8
0
100
AcDbBlockBegin
  2
*D17
 70
     1
 10
0.0
 20
0.0
 30
0.0
  3
*D17
  1

  0
LINE
  5
4D63
330
4D17
100
AcDbEntity
  8
SP
370
    -2
100
AcDbLine
 10
14662.80003186734
 20
5732.362935220167
 30
0.0
 11
14538.48209998095
 21
5732.362935220167
 31
0.0
  0
LINE
  5
4D64
330
4D17
100
AcDbEntity
  8
SP
370
    -2
100
AcDbLine
 10
14662.80003186734
 20
5422.362935220169
 30
0.0
 11
14538.48209998095
 21
5422.362935220169
 31
0.0
  0
LINE
  5
4D65
330
4D17
100
AcDbEntity
  8
SP
370
    -2
100
AcDbLine
 10
14553.48209998095
 20
5694.862935220167
 30
0.0
 11
14553.48209998095
 21
5459.862935220169
 31
0.0
  0
INSERT
  5
4D66
330
4D17
100
AcDbEntity
  8
SP
370
    -2
100
AcDbBlockReference
  2
_OPEN
 10
14553.48209998095
 20
5732.362935220167
 30
0.0
 41
37.5
 42
37.5
 43
37.5
 50
90.0
  0
INSERT
  5
4D67
330
4D17
100
AcDbEntity
  8
SP
370
    -2
100
AcDbBlockReference
  2
_OPEN
 10
14553.48209998095
 20
5422.362935220169
 30
0.0
 41
37.5
 42
37.5
 43
37.5
 50
270.0
  0
MTEXT
  5
4D68
330
4D17
100
AcDbEntity
  8
SP
100
AcDbMText
 10
14515.98209998095
 20
5577.362935220171
 30
0.0
 40
45.0
 41
0.0
 71
     5
 72
     1
  1
\A1;310
 11
0.0000000000000001
 21
1.0
 31
0.0
 73
     1
 44
1.0
1001
ACAD
1000
MTEXTBEGIN
1070
    73
1070
     1
1070
    44
1040
1.0
1070
    74
1070
     0
1000
MTEXTEND
  0
POINT
  5
4D69
330
4D17
100
AcDbEntity
  8
Defpoints
 62
     0
100
AcDbPoint
 10
14677.80003186734
 20
5732.362935220167
 30
0.0
  0
POINT
  5
4D6A
330
4D17
100
AcDbEntity
  8
Defpoints
 62
     0
100
AcDbPoint
 10
14677.80003186734
 20
5422.362935220169
 30
0.0
  0
POINT
  5
4D6B
330
4D17
100
AcDbEntity
  8
Defpoints
 62
     0
100
AcDbPoint
 10
14553.48209998095
 20
5422.362935220169
 30
0.0
  0
ENDBLK
  5
4D22
330
4D17
100
AcDbEntity
  8
0
100
AcDbBlockEnd
  0
BLOCK
  5
4D2F
330
4D23
100
AcDbEntity
  8
0
100
AcDbBlockBegin
  2
*D18
 70
     1
 10
0.0
 20
0.0
 30
0.0
  3
*D18
  1

  0
LINE
  5
4D4F
330
4D23
100
AcDbEntity
  8
SP
370
    -2
100
AcDbLine
 10
14662.80003186733
 20
5732.362935220169
 30
0.0
 11
14538.48209998095
 21
5732.362935220169
 31
0.0
  0
LINE
  5
4D50
330
4D23
100
AcDbEntity
  8
SP
370
    -2
100
AcDbLine
 10
14666.71647291018
 20
5854.362935220169
 30
0.0
 11
14538.48209998095
 21
5854.362935220169
 31
0.0
  0
LINE
  5
4D51
330
4D23
100
AcDbEntity
  8
SP
370
    -2
100
AcDbLine
 10
14553.48209998095
 20
5694.862935220169
 30
0.0
 11
14553.48209998095
 21
5657.362935220169
 31
0.0
  0
LINE
  5
4D52
330
4D23
100
AcDbEntity
  8
SP
370
    -2
100
AcDbLine
 10
14553.48209998095
 20
5891.862935220169
 30
0.0
 11
14553.48209998095
 21
6064.362935220168
 31
0.0
  0
LINE
  5
4D53
330
4D23
100
AcDbEntity
  8
SP
370
    -2
100
AcDbLine
 10
14553.48209998095
 20
5732.362935220169
 30
0.0
 11
14553.48209998095
 21
5854.362935220169
 31
0.0
  0
INSERT
  5
4D54
330
4D23
100
AcDbEntity
  8
SP
370
    -2
100
AcDbBlockReference
  2
_OPEN
 10
14553.48209998095
 20
5732.362935220169
 30
0.0
 41
37.5
 42
37.5
 43
37.5
 50
90.0
  0
INSERT
  5
4D55
330
4D23
100
AcDbEntity
  8
SP
370
    -2
100
AcDbBlockReference
  2
_OPEN
 10
14553.48209998095
 20
5854.362935220169
 30
0.0
 41
37.5
 42
37.5
 43
37.5
 50
270.0
  0
MTEXT
  5
4D56
330
4D23
100
AcDbEntity
  8
SP
100
AcDbMText
 10
14515.98209998095
 20
5996.862935220171
 30
0.0
 40
45.0
 41
0.0
 71
     5
 72
     1
  1
\A1;122
 11
0.0000000000000001
 21
1.0
 31
0.0
 73
     1
 44
1.0
1001
ACAD
1000
MTEXTBEGIN
1070
    73
1070
     1
1070
    44
1040
1.0
1070
    74
1070
     0
1000
MTEXTEND
  0
POINT
  5
4D57
330
4D23
100
AcDbEntity
  8
Defpoints
 62
     0
100
AcDbPoint
 10
14677.80003186733
 20
5732.362935220169
 30
0.0
  0
POINT
  5
4D58
330
4D23
100
AcDbEntity
  8
Defpoints
 62
     0
100
AcDbPoint
 10
14681.71647291018
 20
5854.362935220169
 30
0.0
  0
POINT
  5
4D59
330
4D23
100
AcDbEntity
  8
Defpoints
 62
     0
100
AcDbPoint
 10
14553.48209998095
 20
5854.362935220169
 30
0.0
  0
ENDBLK
  5
4D30
330
4D23
100
AcDbEntity
  8
0
100
AcDbBlockEnd
  0
BLOCK
  5
57CB
330
57C1
100
AcDbEntity
  8
0
100
AcDbBlockBegin
  2
*D19
 70
     1
 10
0.0
 20
0.0
 30
0.0
  3
*D19
  1

  0
LINE
  5
57E5
330
57C1
100
AcDbEntity
  8
SP
370
    -2
100
AcDbLine
 10
14927.80003186735
 20
4102.479113442421
 30
0.0
 11
14927.80003186735
 21
4027.635294509084
 31
0.0
  0
LINE
  5
57E6
330
57C1
100
AcDbEntity
  8
SP
370
    -2
100
AcDbLine
 10
14677.80003186735
 20
4132.635294509082
 30
0.0
 11
14677.80003186735
 21
4027.635294509084
 31
0.0
  0
LINE
  5
57E7
330
57C1
100
AcDbEntity
  8
SP
370
    -2
100
AcDbLine
 10
14890.30003186734
 20
4042.635294509084
 30
0.0
 11
14715.30003186735
 21
4042.635294509084
 31
0.0
  0
INSERT
  5
57E8
330
57C1
100
AcDbEntity
  8
SP
370
    -2
100
AcDbBlockReference
  2
_OPEN
 10
14927.80003186735
 20
4042.635294509084
 30
0.0
 41
37.5
 42
37.5
 43
37.5
  0
INSERT
  5
57E9
330
57C1
100
AcDbEntity
  8
SP
370
    -2
100
AcDbBlockReference
  2
_OPEN
 10
14677.80003186735
 20
4042.635294509084
 30
0.0
 41
37.5
 42
37.5
 43
37.5
 50
180.0
  0
MTEXT
  5
57EA
330
57C1
100
AcDbEntity
  8
SP
100
AcDbMText
 10
14802.80003186735
 20
4080.135294509084
 30
0.0
 40
45.0
 41
0.0
 71
     5
 72
     1
  1
\A1;250
 73
     1
 44
1.0
1001
ACAD
1000
MTEXTBEGIN
1070
    73
1070
     1
1070
    44
1040
1.0
1070
    74
1070
     0
1000
MTEXTEND
  0
POINT
  5
57EB
330
57C1
100
AcDbEntity
  8
Defpoints
 62
     0
100
AcDbPoint
 10
14927.80003186735
 20
4117.479113442421
 30
0.0
  0
POINT
  5
57EC
330
57C1
100
AcDbEntity
  8
Defpoints
 62
     0
100
AcDbPoint
 10
14677.80003186735
 20
4147.635294509082
 30
0.0
  0
POINT
  5
57ED
330
57C1
100
AcDbEntity
  8
Defpoints
 62
     0
100
AcDbPoint
 10
14677.80003186735
 20
4042.635294509084
 30
0.0
  0
ENDBLK
  5
57CC
330
57C1
100
AcDbEntity
  8
0
100
AcDbBlockEnd
  0
BLOCK
  5
57D7
330
57CD
100
AcDbEntity
  8
0
100
AcDbBlockBegin
  2
*D20
 70
     1
 10
0.0
 20
0.0
 30
0.0
  3
*D20
  1

  0
LINE
  5
57EE
330
57CD
100
AcDbEntity
  8
SP
370
    -2
100
AcDbLine
 10
14677.80003186735
 20
4132.635294509082
 30
0.0
 11
14677.80003186735
 21
3922.635294509083
 31
0.0
  0
LINE
  5
57EF
330
57CD
100
AcDbEntity
  8
SP
370
    -2
100
AcDbLine
 10
15177.80003186735
 20
4132.635294509082
 30
0.0
 11
15177.80003186735
 21
3922.635294509083
 31
0.0
  0
LINE
  5
57F0
330
57CD
100
AcDbEntity
  8
SP
370
    -2
100
AcDbLine
 10
14715.30003186735
 20
3937.635294509082
 30
0.0
 11
15140.30003186735
 21
3937.635294509082
 31
0.0
  0
INSERT
  5
57F1
330
57CD
100
AcDbEntity
  8
SP
370
    -2
100
AcDbBlockReference
  2
_OPEN
 10
14677.80003186735
 20
3937.635294509082
 30
0.0
 41
37.5
 42
37.5
 43
37.5
 50
180.0
  0
INSERT
  5
57F2
330
57CD
100
AcDbEntity
  8
SP
370
    -2
100
AcDbBlockReference
  2
_OPEN
 10
15177.80003186735
 20
3937.635294509082
 30
0.0
 41
37.5
 42
37.5
 43
37.5
  0
MTEXT
  5
57F3
330
57CD
100
AcDbEntity
  8
SP
100
AcDbMText
 10
14927.80003186735
 20
3975.135294509082
 30
0.0
 40
45.0
 41
0.0
 71
     5
 72
     1
  1
\A1;500
 73
     1
 44
1.0
1001
ACAD
1000
MTEXTBEGIN
1070
    73
1070
     1
1070
    44
1040
1.0
1070
    74
1070
     0
1000
MTEXTEND
  0
POINT
  5
57F4
330
57CD
100
AcDbEntity
  8
Defpoints
 62
     0
100
AcDbPoint
 10
14677.80003186735
 20
4147.635294509082
 30
0.0
  0
POINT
  5
57F5
330
57CD
100
AcDbEntity
  8
Defpoints
 62
     0
100
AcDbPoint
 10
15177.80003186735
 20
4147.635294509082
 30
0.0
  0
POINT
  5
57F6
330
57CD
100
AcDbEntity
  8
Defpoints
 62
     0
100
AcDbPoint
 10
15177.80003186735
 20
3937.635294509082
 30
0.0
  0
ENDBLK
  5
57D8
330
57CD
100
AcDbEntity
  8
0
100
AcDbBlockEnd
  0
BLOCK
  5
57E3
330
57D9
100
AcDbEntity
  8
0
100
AcDbBlockBegin
  2
*D21
 70
     1
 10
0.0
 20
0.0
 30
0.0
  3
*D21
  1

  0
LINE
  5
57F7
330
57D9
100
AcDbEntity
  8
SP
370
    -2
100
AcDbLine
 10
14927.80003186735
 20
4102.479113442421
 30
0.0
 11
14927.80003186735
 21
4027.635294509084
 31
0.0
  0
LINE
  5
57F8
330
57D9
100
AcDbEntity
  8
SP
370
    -2
100
AcDbLine
 10
15177.80003186735
 20
4132.635294509082
 30
0.0
 11
15177.80003186735
 21
4027.635294509084
 31
0.0
  0
LINE
  5
57F9
330
57D9
100
AcDbEntity
  8
SP
370
    -2
100
AcDbLine
 10
14965.30003186735
 20
4042.635294509084
 30
0.0
 11
15140.30003186735
 21
4042.635294509084
 31
0.0
  0
INSERT
  5
57FA
330
57D9
100
AcDbEntity
  8
SP
370
    -2
100
AcDbBlockReference
  2
_OPEN
 10
14927.80003186735
 20
4042.635294509084
 30
0.0
 41
37.5
 42
37.5
 43
37.5
 50
180.0
  0
INSERT
  5
57FB
330
57D9
100
AcDbEntity
  8
SP
370
    -2
100
AcDbBlockReference
  2
_OPEN
 10
15177.80003186735
 20
4042.635294509084
 30
0.0
 41
37.5
 42
37.5
 43
37.5
  0
MTEXT
  5
57FC
330
57D9
100
AcDbEntity
  8
SP
100
AcDbMText
 10
15052.80003186735
 20
4080.135294509084
 30
0.0
 40
45.0
 41
0.0
 71
     5
 72
     1
  1
\A1;250
 73
     1
 44
1.0
1001
ACAD
1000
MTEXTBEGIN
1070
    73
1070
     1
1070
    44
1040
1.0
1070
    74
1070
     0
1000
MTEXTEND
  0
POINT
  5
57FD
330
57D9
100
AcDbEntity
  8
Defpoints
 62
     0
100
AcDbPoint
 10
14927.80003186735
 20
4117.479113442421
 30
0.0
  0
POINT
  5
57FE
330
57D9
100
AcDbEntity
  8
Defpoints
 62
     0
100
AcDbPoint
 10
15177.80003186735
 20
4147.635294509082
 30
0.0
  0
POINT
  5
57FF
330
57D9
100
AcDbEntity
  8
Defpoints
 62
     0
100
AcDbPoint
 10
15177.80003186735
 20
4042.635294509084
 30
0.0
  0
ENDBLK
  5
57E4
330
57D9
100
AcDbEntity
  8
0
100
AcDbBlockEnd
  0
BLOCK
  5
59EA
330
59E0
100
AcDbEntity
  8
0
100
AcDbBlockBegin
  2
*D22
 70
     1
 10
0.0
 20
0.0
 30
0.0
  3
*D22
  1

  0
LINE
  5
5B3C
330
59E0
100
AcDbEntity
  8
SP
370
    -2
100
AcDbLine
 10
16314.37511013999
 20
4660.135294509082
 30
0.0
 11
16435.8045133158
 21
4660.135294509082
 31
0.0
  0
LINE
  5
5B3D
330
59E0
100
AcDbEntity
  8
SP
370
    -2
100
AcDbLine
 10
16314.37511013999
 20
4345.135294509082
 30
0.0
 11
16435.8045133158
 21
4345.135294509082
 31
0.0
  0
LINE
  5
5B3E
330
59E0
100
AcDbEntity
  8
SP
370
    -2
100
AcDbLine
 10
16420.8045133158
 20
4622.635294509082
 30
0.0
 11
16420.8045133158
 21
4382.635294509082
 31
0.0
  0
INSERT
  5
5B3F
330
59E0
100
AcDbEntity
  8
SP
370
    -2
100
AcDbBlockReference
  2
_OPEN
 10
16420.8045133158
 20
4660.135294509082
 30
0.0
 41
37.5
 42
37.5
 43
37.5
 50
90.0
  0
INSERT
  5
5B40
330
59E0
100
AcDbEntity
  8
SP
370
    -2
100
AcDbBlockReference
  2
_OPEN
 10
16420.8045133158
 20
4345.135294509082
 30
0.0
 41
37.5
 42
37.5
 43
37.5
 50
270.0
  0
MTEXT
  5
5B41
330
59E0
100
AcDbEntity
  8
SP
100
AcDbMText
 10
16383.30451331579
 20
4502.635294509076
 30
0.0
 40
45.0
 41
0.0
 71
     5
 72
     1
  1
\A1;\U+03C6315
 11
0.0000000000000001
 21
1.0
 31
0.0
 73
     1
 44
1.0
1001
ACAD
1000
MTEXTBEGIN
1070
    73
1070
     1
1070
    44
1040
1.0
1070
    74
1070
     0
1000
MTEXTEND
  0
POINT
  5
5B42
330
59E0
100
AcDbEntity
  8
Defpoints
 62
     0
100
AcDbPoint
 10
16299.37511013999
 20
4660.135294509082
 30
0.0
  0
POINT
  5
5B43
330
59E0
100
AcDbEntity
  8
Defpoints
 62
     0
100
AcDbPoint
 10
16299.37511013999
 20
4345.135294509082
 30
0.0
  0
POINT
  5
5B44
330
59E0
100
AcDbEntity
  8
Defpoints
 62
     0
100
AcDbPoint
 10
16420.8045133158
 20
4345.135294509082
 30
0.0
  0
ENDBLK
  5
59EB
330
59E0
100
AcDbEntity
  8
0
100
AcDbBlockEnd
  0
BLOCK
  5
5B4F
330
5B4E
100
AcDbEntity
  8
0
100
AcDbBlockBegin
  2
*D29
 70
     1
 10
0.0
 20
0.0
 30
0.0
  3
*D29
  1

  0
LINE
  5
5B90
330
5B4E
100
AcDbEntity
  8
SP
370
    -2
100
AcDbLine
 10
16178.37511013998
 20
4932.751399155721
 30
0.0
 11
16178.37511013998
 21
4977.635294509084
 31
0.0
  0
LINE
  5
5B91
330
5B4E
100
AcDbEntity
  8
SP
370
    -2
100
AcDbLine
 10
15757.37511014097
 20
4601.216234822138
 30
0.0
 11
15757.37511014097
 21
4977.635294509084
 31
0.0
  0
LINE
  5
5B92
330
5B4E
100
AcDbEntity
  8
SP
370
    -2
100
AcDbLine
 10
16140.87511013998
 20
4962.635294509084
 30
0.0
 11
15794.87511014097
 21
4962.635294509084
 31
0.0
  0
INSERT
  5
5B93
330
5B4E
100
AcDbEntity
  8
SP
370
    -2
100
AcDbBlockReference
  2
_OPEN
 10
16178.37511013998
 20
4962.635294509084
 30
0.0
 41
37.5
 42
37.5
 43
37.5
  0
INSERT
  5
5B94
330
5B4E
100
AcDbEntity
  8
SP
370
    -2
100
AcDbBlockReference
  2
_OPEN
 10
15757.37511014097
 20
4962.635294509084
 30
0.0
 41
37.5
 42
37.5
 43
37.5
 50
180.0
  0
MTEXT
  5
5B95
330
5B4E
100
AcDbEntity
  8
SP
100
AcDbMText
 10
15967.87511014047
 20
5011.921008794798
 30
0.0
 40
45.0
 41
0.0
 71
     5
 72
     1
  1
\A1;(420)
 73
     1
 44
1.0
1001
ACAD
1000
MTEXTBEGIN
1070
    73
1070
     1
1070
    44
1040
1.0
1070
    74
1070
     0
1000
MTEXTEND
  0
POINT
  5
5B96
330
5B4E
100
AcDbEntity
  8
Defpoints
 62
     0
100
AcDbPoint
 10
16178.37511013998
 20
4917.75139915572
 30
0.0
  0
POINT
  5
5B97
330
5B4E
100
AcDbEntity
  8
Defpoints
 62
     0
100
AcDbPoint
 10
15757.37511014097
 20
4586.216234822138
 30
0.0
  0
POINT
  5
5B98
330
5B4E
100
AcDbEntity
  8
Defpoints
 62
     0
100
AcDbPoint
 10
15757.37511014097
 20
4962.635294509084
 30
0.0
  0
ENDBLK
  5
5B50
330
5B4E
100
AcDbEntity
  8
0
100
AcDbBlockEnd
  0
BLOCK
  5
5B5C
330
5B5B
100
AcDbEntity
  8
0
100
AcDbBlockBegin
  2
*D30
 70
     1
 10
0.0
 20
0.0
 30
0.0
  3
*D30
  1

  0
LINE
  5
5B7A
330
5B5B
100
AcDbEntity
  8
SP
370
    -2
100
AcDbLine
 10
16056.37511013998
 20
4132.635294509083
 30
0.0
 11
16056.37511013998
 21
4027.635294509082
 31
0.0
  0
LINE
  5
5B7B
330
5B5B
100
AcDbEntity
  8
SP
370
    -2
100
AcDbLine
 10
16178.37511013998
 20
4180.689360228545
 30
0.0
 11
16178.37511013998
 21
4027.635294509082
 31
0.0
  0
LINE
  5
5B7C
330
5B5B
100
AcDbEntity
  8
SP
370
    -2
100
AcDbLine
 10
16018.87511013998
 20
4042.635294509083
 30
0.0
 11
15981.37511013998
 21
4042.635294509083
 31
0.0
  0
LINE
  5
5B7D
330
5B5B
100
AcDbEntity
  8
SP
370
    -2
100
AcDbLine
 10
16215.87511013998
 20
4042.635294509083
 30
0.0
 11
16253.37511013998
 21
4042.635294509083
 31
0.0
  0
MTEXT
  5
5B7E
330
5B5B
100
AcDbEntity
  8
SP
100
AcDbMText
 10
16299.69696054081
 20
4076.517439122648
 30
0.0
 40
45.0
 41
0.0
 71
     5
 72
     1
  1
\A1;122
 73
     1
 44
1.0
1001
ACAD
1000
MTEXTBEGIN
1070
    73
1070
     1
1070
    44
1040
1.0
1070
    74
1070
     0
1000
MTEXTEND
  0
LINE
  5
5B7F
330
5B5B
100
AcDbEntity
  8
SP
370
    -2
100
AcDbLine
 10
16056.37511013998
 20
4042.635294509083
 30
0.0
 11
16178.37511013998
 21
4042.635294509083
 31
0.0
  0
INSERT
  5
5B80
330
5B5B
100
AcDbEntity
  8
SP
370
    -2
100
AcDbBlockReference
  2
_OPEN
 10
16056.37511013998
 20
4042.635294509083
 30
0.0
 41
37.5
 42
37.5
 43
37.5
  0
INSERT
  5
5B81
330
5B5B
100
AcDbEntity
  8
SP
370
    -2
100
AcDbBlockReference
  2
_OPEN
 10
16178.37511013998
 20
4042.635294509083
 30
0.0
 41
37.5
 42
37.5
 43
37.5
 50
180.0
  0
POINT
  5
5B82
330
5B5B
100
AcDbEntity
  8
Defpoints
 62
     0
100
AcDbPoint
 10
16056.37511013998
 20
4147.635294509083
 30
0.0
  0
POINT
  5
5B83
330
5B5B
100
AcDbEntity
  8
Defpoints
 62
     0
100
AcDbPoint
 10
16178.37511013998
 20
4195.689360228545
 30
0.0
  0
POINT
  5
5B84
330
5B5B
100
AcDbEntity
  8
Defpoints
 62
     0
100
AcDbPoint
 10
16178.37511013998
 20
4042.635294509083
 30
0.0
  0
ENDBLK
  5
5B5D
330
5B5B
100
AcDbEntity
  8
0
100
AcDbBlockEnd
  0
ENDSEC
  0
SECTION
  2
ENTITIES
  0
LINE
  5
2CEE
330
19
100
AcDbEntity
  8
4
100
AcDbLine
 10
13845.59771503509
 20
2822.809791742034
 30
0.0
 11
13845.59771503509
 21
7247.809791742034
 31
0.0
  0
LINE
  5
2CEF
330
19
100
AcDbEntity
  8
4
100
AcDbLine
 10
16995.59771503509
 20
7247.809791742034
 30
0.0
 11
16995.59771503509
 21
2822.809791742034
 31
0.0
  0
TEXT
  5
2CF3
330
19
100
AcDbEntity
  8
4
100
AcDbText
 10
15312.11583326659
 20
3456.667445178387
 30
0.0
 40
75.0
  1
ミツヤ多翼送風機
100
AcDbText
  0
LINE
  5
2CF6
330
19
100
AcDbEntity
  8
4
100
AcDbLine
 10
14520.59771503509
 20
3272.809791742034
 30
0.0
 11
16320.59771503509
 21
3272.809791742034
 31
0.0
  0
LINE
  5
2CF7
330
19
100
AcDbEntity
  8
4
100
AcDbLine
 10
14520.59771503509
 20
3422.809791742034
 30
0.0
 11
16320.59771503509
 21
3422.809791742034
 31
0.0
  0
LINE
  5
2CF8
330
19
100
AcDbEntity
  8
4
100
AcDbLine
 10
14520.59771503509
 20
3572.809791742034
 30
0.0
 11
16320.59771503509
 21
3572.809791742034
 31
0.0
  0
LINE
  5
2CF9
330
19
100
AcDbEntity
  8
4
100
AcDbLine
 10
16995.59771503509
 20
2822.809791742034
 30
0.0
 11
13845.59771503509
 21
2822.809791742034
 31
0.0
  0
TEXT
  5
2CFA
330
19
100
AcDbEntity
  8
4
100
AcDbText
 10
14578.35083630544
 20
3470.124330541953
 30
0.0
 40
75.0
  1
機器名称
100
AcDbText
  0
TEXT
  5
2CFB
330
19
100
AcDbEntity
  8
4
100
AcDbText
 10
14574.98487407229
 20
3305.27752684005
 30
0.0
 40
75.0
  1
機器型番
100
AcDbText
  0
LINE
  5
2CFD
330
19
100
AcDbEntity
  8
4
100
AcDbLine
 10
14520.59771503509
 20
3572.809791742034
 30
0.0
 11
14520.59771503509
 21
3272.809791742034
 31
0.0
  0
TEXT
  5
2CFE
330
19
100
AcDbEntity
  8
4
100
AcDbText
 10
15325.57945841331
 20
3298.549168161949
 30
0.0
 40
75.0
  1
MF＃2-7
100
AcDbText
  0
LINE
  5
2CFF
330
19
100
AcDbEntity
  8
4
100
AcDbLine
 10
15270.59771503509
 20
3572.809791742034
 30
0.0
 11
15270.59771503509
 21
3272.809791742034
 31
0.0
  0
LINE
  5
2D00
330
19
100
AcDbEntity
  8
4
100
AcDbLine
 10
16320.59771503509
 20
3572.809791742034
 30
0.0
 11
16320.59771503509
 21
3272.809791742034
 31
0.0
  0
TEXT
  5
2E31
330
19
100
AcDbEntity
  8
4
100
AcDbText
 10
14577.69207095238
 20
6623.63125604098
 30
0.0
 40
108.0
  1
遠心式片吸込直動形多翼ファン
100
AcDbText
  0
LINE
  5
2E32
330
19
100
AcDbEntity
  8
4
100
AcDbLine
 10
14220.59771503509
 20
6526.922923139242
 30
0.0
 11
16620.59771503509
 21
6526.922923139242
 31
0.0
  0
LINE
  5
2E33
330
19
100
AcDbEntity
  8
4
100
AcDbLine
 10
14220.59771503509
 20
6826.922923139242
 30
0.0
 11
16620.59771503509
 21
6826.922923139242
 31
0.0
  0
LINE
  5
2E34
330
19
100
AcDbEntity
  8
4
100
AcDbLine
 10
13845.59771503509
 20
7247.809791742034
 30
0.0
 11
16995.59771503509
 21
7247.809791742034
 31
0.0
  0
TEXT
  5
2E37
330
19
100
AcDbEntity
  8
4
100
AcDbText
 10
14318.48108722505
 20
6396.289008061549
 30
0.0
 40
80.99999999999999
  1
左回転上向
100
AcDbText
  0
LINE
  5
2E3C
330
19
100
AcDbEntity
  8
4
100
AcDbLine
 10
14220.59771503509
 20
6826.922923139242
 30
0.0
 11
14220.59771503509
 21
6526.922923139242
 31
0.0
  0
TEXT
  5
2E3D
330
19
100
AcDbEntity
  8
4
100
AcDbText
 10
15110.15955435588
 20
6397.953053740807
 30
0.0
 40
80.99999999999999
  1
床置ベッド型
100
AcDbText
  0
TEXT
  5
2E44
330
19
100
AcDbEntity
  8
4
100
AcDbText
 10
15899.98763246512
 20
6397.953053740807
 30
0.0
 40
80.99999999999999
  1
縮尺：1/15
100
AcDbText
  0
LINE
  5
2E45
330
19
100
AcDbEntity
  8
4
100
AcDbLine
 10
16006.52384857489
 20
7002.788184066663
 30
0.0
 11
16620.59771503509
 21
7002.788184066663
 31
0.0
  0
LINE
  5
2E46
330
19
100
AcDbEntity
  8
4
100
AcDbLine
 10
16620.59771503509
 20
6844.705166430135
 30
0.0
 11
16006.52384857489
 21
6844.705166430135
 31
0.0
  0
TEXT
  5
2E47
330
19
100
AcDbEntity
  8
4
100
AcDbText
 10
16049.05205390903
 20
6881.901413984997
 30
0.0
 40
84.00000000000002
  1
No.
100
AcDbText
  0
LINE
  5
2E48
330
19
100
AcDbEntity
  8
4
100
AcDbLine
 10
16006.52384857489
 20
6844.705166430135
 30
0.0
 11
16006.52384857489
 21
7002.788184066663
 31
0.0
  0
LINE
  5
2E49
330
19
100
AcDbEntity
  8
4
100
AcDbLine
 10
16620.59771503509
 20
6826.922923139242
 30
0.0
 11
16620.59771503509
 21
6526.922923139242
 31
0.0
  0
LINE
  5
2E4A
330
19
100
AcDbEntity
  8
4
100
AcDbLine
 10
16620.59771503509
 20
7002.788184066663
 30
0.0
 11
16620.59771503509
 21
6844.705166430135
 31
0.0
  0
LINE
  5
2E4C
330
19
100
AcDbEntity
  8
4
100
AcDbLine
 10
16995.59771503509
 20
7247.809791742034
 30
0.0
 11
16995.59771503509
 21
7247.809791742034
 31
0.0
  0
DIMENSION
  5
40E2
330
19
100
AcDbEntity
  8
SP
100
AcDbDimension
  2
*D10
 10
14705.51281175086
 20
4857.635294509076
 30
0.0
 11
14816.6564218091
 21
4895.135294509077
 31
0.0
 70
    32
 71
     5
 42
222.2872201164755
  3
GOD
100
AcDbAlignedDimension
 13
14927.80003186734
 23
4775.633820463164
 33
0.0
 14
14705.51281175086
 24
4479.781590644273
 34
0.0
 50
180.0
100
AcDbRotatedDimension
1001
ACAD
1000
DSTYLE
1002
{
1070
   271
1070
     0
1002
}
  0
DIMENSION
  5
40E3
330
19
100
AcDbEntity
  8
SP
100
AcDbDimension
  2
*D9
 10
14927.80003186734
 20
4857.635294509076
 30
0.0
 11
15085.30003186733
 21
4895.135294509076
 31
0.0
 70
    32
 71
     5
 42
314.9999999999945
  3
GOD
100
AcDbAlignedDimension
 13
15242.80003186733
 23
4752.635294509087
 33
0.0
 14
14927.80003186734
 24
4775.633820463164
 34
0.0
 50
180.0
100
AcDbRotatedDimension
  0
LINE
  5
40E4
330
19
100
AcDbEntity
  8
2
100
AcDbLine
 10
14927.80003186734
 20
4117.47911344242
 30
0.0
 11
14927.80003186734
 21
4775.633820463164
 31
0.0
  0
LWPOLYLINE
  5
40E5
330
19
100
AcDbEntity
  8
CT
100
AcDbPolyline
 90
        2
 70
     0
 43
0.0
 10
14916.30003186733
 20
4757.698457724074
 10
14916.30003186733
 20
4745.430147440128
  0
LWPOLYLINE
  5
40E6
330
19
100
AcDbEntity
  8
CT
100
AcDbPolyline
 90
        2
 70
     0
 43
0.0
 10
15254.30003186733
 20
4757.698457724083
 10
15254.30003186733
 20
4745.430147440138
  0
DIMENSION
  5
40E7
330
19
100
AcDbEntity
  8
SP
100
AcDbDimension
  2
*D7
 10
14677.80003186733
 20
4042.635294509083
 30
0.0
 11
14802.80003186734
 21
4080.135294509083
 31
0.0
 70
    32
 71
     5
 42
250.0000000000073
  3
GOD
100
AcDbAlignedDimension
 13
14927.80003186734
 23
4117.47911344242
 33
0.0
 14
14677.80003186733
 24
4147.635294509082
 34
0.0
 50
180.0
100
AcDbRotatedDimension
  0
DIMENSION
  5
40E8
330
19
100
AcDbEntity
  8
SP
100
AcDbDimension
  2
*D6
 10
15177.80003186733
 20
4042.635294509083
 30
0.0
 11
15052.80003186733
 21
4080.135294509083
 31
0.0
 70
    32
 71
     5
 42
249.9999999999927
  3
GOD
100
AcDbAlignedDimension
 13
14927.80003186734
 23
4117.47911344242
 33
0.0
 14
15177.80003186733
 24
4147.635294509082
 34
0.0
 50
180.0
100
AcDbRotatedDimension
  0
DIMENSION
  5
40EB
330
19
100
AcDbEntity
  8
SP
100
AcDbDimension
  2
*D5
 10
14572.80003186734
 20
4502.635294509082
 30
0.0
 11
14535.30003186734
 21
4325.135294509085
 31
0.0
 70
    32
 71
     5
 42
355.0
  3
GOD
100
AcDbAlignedDimension
 13
14677.80003186733
 23
4147.635294509082
 33
0.0
 14
14638.49800636368
 24
4502.635294509082
 34
0.0
 50
90.0
100
AcDbRotatedDimension
  0
DIMENSION
  5
40EE
330
19
100
AcDbEntity
  8
SP
100
AcDbDimension
  2
*D8
 10
14677.80003186733
 20
3937.635294509082
 30
0.0
 11
14927.80003186733
 21
3975.135294509082
 31
0.0
 70
    32
 71
     5
 42
500.0
  3
GOD
100
AcDbAlignedDimension
 13
15177.80003186733
 23
4147.635294509082
 33
0.0
 14
14677.80003186733
 24
4147.635294509082
 34
0.0
 50
180.0
100
AcDbRotatedDimension
  0
DIMENSION
  5
40F7
330
19
100
AcDbEntity
  8
SP
100
AcDbDimension
  2
*D4
 10
14572.80003186733
 20
4752.635294509075
 30
0.0
 11
14535.30003186733
 21
4627.635294509081
 31
0.0
 70
    32
 71
     5
 42
249.9999999999936
  3
GOD
100
AcDbAlignedDimension
 13
14638.49800636368
 23
4502.635294509082
 33
0.0
 14
14906.30003186733
 24
4752.635294509075
 34
0.0
 50
90.0
100
AcDbRotatedDimension
  0
LWPOLYLINE
  5
40F8
330
19
100
AcDbEntity
  8
1
100
AcDbPolyline
 90
        2
 70
     0
 43
0.0
 10
14788.55022687526
 20
4297.635294509074
 42
-0.1174780416237573
 10
14722.80003186734
 20
4389.657036208552
 42
-0.3153658436290411
  0
LWPOLYLINE
  5
40F9
330
19
100
AcDbEntity
  8
1
100
AcDbPolyline
 90
        3
 70
     0
 43
0.0
 10
15138.95031932994
 20
4291.84271711617
 42
-0.2162335382726867
 10
14897.99919471936
 20
4233.767804699402
 42
-0.1298839697351506
 10
14782.0305363569
 20
4290.052838736391
 42
-0.1298839697351506
  0
LWPOLYLINE
  5
40FA
330
19
100
AcDbEntity
  8
1
100
AcDbPolyline
 90
        3
 70
     0
 43
0.0
 10
14722.80003186734
 20
4389.657036208551
 42
-0.1343280102757561
 10
14708.43618765813
 20
4517.40531978937
 42
-0.3163019945347412
 10
14871.43039881907
 20
4686.012481051496
 42
-0.3153658436290411
  0
LWPOLYLINE
  5
40FB
330
19
100
AcDbEntity
  8
1
100
AcDbPolyline
 90
        3
 70
     0
 43
0.0
 10
14713.50977637778
 20
4385.956880409293
 42
-0.1343314877425494
 10
14698.55674504114
 20
4518.953423502833
 42
-0.3163064660587118
 10
14869.54540756216
 20
4695.833214627018
 42
-0.3163064660587118
  0
LINE
  5
40FD
330
19
100
AcDbEntity
  8
2
100
AcDbLine
 10
15286.41264429078
 20
4502.635294509082
 30
0.0
 11
14638.49800636368
 21
4502.635294509082
 31
0.0
  0
CIRCLE
  5
4100
330
19
100
AcDbEntity
  8
CT
100
AcDbCircle
 10
14927.80003186735
 20
4502.635294509082
 30
0.0
 40
169.0
  0
LWPOLYLINE
  5
4101
330
19
100
AcDbEntity
  8
1
100
AcDbPolyline
 90
        3
 70
     0
 43
0.0
 10
15252.80003186733
 20
4732.635294509086
 10
15252.80003186734
 20
4528.123117770398
 42
-0.2269714708976296
 10
15139.05384975151
 20
4291.924574773659
  0
LWPOLYLINE
  5
4102
330
19
100
AcDbEntity
  8
1
100
AcDbPolyline
 90
        3
 70
     0
 43
0.0
 10
15242.80003186733
 20
4752.635294509087
 10
15242.80003186734
 20
4528.135294509087
 42
-0.2269607506063405
 10
15132.80003186734
 20
4299.727763985234
 42
-0.129402372482195
  0
ARC
  5
4103
330
19
100
AcDbEntity
  8
1
100
AcDbCircle
 10
14927.80003186735
 20
4502.635294509082
 30
0.0
 40
100.8
100
AcDbArc
 50
285.4276999999997
 51
180.0
  0
ARC
  5
4104
330
19
100
AcDbEntity
  8
1
100
AcDbCircle
 10
14927.80003186735
 20
4502.635294509082
 30
0.0
 40
100.8
100
AcDbArc
 50
180.0
 51
254.2028999999989
  0
LINE
  5
4105
330
19
100
AcDbEntity
  8
CT
100
AcDbLine
 10
14881.85965136163
 20
4331.183460342776
 30
0.0
 11
14885.96908714669
 21
4346.520083483043
 31
0.0
  0
LINE
  5
4107
330
19
100
AcDbEntity
  8
CT
100
AcDbLine
 10
14973.74041237303
 20
4331.183460342773
 30
0.0
 11
14969.63097658797
 21
4346.52008348304
 31
0.0
  0
LWPOLYLINE
  5
4108
330
19
100
AcDbEntity
  8
1
100
AcDbPolyline
 90
        3
 70
     0
 43
0.0
 10
15132.80003186734
 20
4299.727763985234
 42
-0.2162148363065116
 10
14899.90221505928
 20
4243.585083232438
 42
-0.1298622998199493
 10
14788.55022687526
 20
4297.635294509073
 42
-0.3153658436290411
  0
LINE
  5
410A
330
19
100
AcDbEntity
  8
1
100
AcDbLine
 10
14981.25043186734
 20
4417.184994509081
 30
0.0
 11
14987.80003186735
 21
4410.635294509082
 31
0.0
  0
CIRCLE
  5
410D
330
19
100
AcDbEntity
  8
1
100
AcDbCircle
 10
15091.04149651018
 20
4458.89487588675
 30
0.0
 40
4.0
  0
LINE
  5
410E
330
19
100
AcDbEntity
  8
CT
100
AcDbLine
 10
15099.25186603364
 20
4456.694914003377
 30
0.0
 11
15083.91524289337
 21
4460.804349788433
 31
0.0
  0
CIRCLE
  5
410F
330
19
100
AcDbEntity
  8
1
100
AcDbCircle
 10
15047.30107788786
 20
4383.134248488551
 30
0.0
 40
4.0
  0
LINE
  5
4110
330
19
100
AcDbEntity
  8
CT
100
AcDbLine
 10
15053.31148552794
 20
4377.123840848464
 30
0.0
 11
15042.08429817273
 21
4388.351028203676
 31
0.0
  0
LINE
  5
4111
330
19
100
AcDbEntity
  8
1
100
AcDbLine
 10
15025.80003186735
 20
4414.635294509081
 30
0.0
 11
14989.80003186735
 21
4414.635294509081
 31
0.0
  0
LINE
  5
4112
330
19
100
AcDbEntity
  8
1
100
AcDbLine
 10
15027.80003186735
 20
4402.635294509082
 30
0.0
 11
14987.80003186735
 21
4402.635294509082
 31
0.0
  0
LINE
  5
4113
330
19
100
AcDbEntity
  8
1
100
AcDbLine
 10
15026.90783186734
 20
4414.303394509082
 30
0.0
 11
15010.50703186734
 21
4444.965394509082
 31
0.0
  0
LINE
  5
4114
330
19
100
AcDbEntity
  8
1
100
AcDbLine
 10
15027.80003186735
 20
4402.635294509082
 30
0.0
 11
15027.80003186735
 21
4412.635294509082
 31
0.0
  0
ARC
  5
4115
330
19
100
AcDbEntity
  8
1
100
AcDbCircle
 10
15025.80003186735
 20
4412.635294509082
 30
0.0
 40
2.0
100
AcDbArc
 50
0.000000000000007
 51
90.0
  0
LINE
  5
4116
330
19
100
AcDbEntity
  8
1
100
AcDbLine
 10
15013.80003186735
 20
4414.635294509081
 30
0.0
 11
15013.80003186735
 21
4402.635294509082
 31
0.0
  0
LINE
  5
4117
330
19
100
AcDbEntity
  8
1
100
AcDbLine
 10
15001.80003186734
 20
4402.635294509082
 30
0.0
 11
15001.80003186734
 21
4414.635294509081
 31
0.0
  0
LINE
  5
4118
330
19
100
AcDbEntity
  8
1
100
AcDbLine
 10
14987.80003186735
 20
4402.635294509082
 30
0.0
 11
14987.80003186735
 21
4412.635294509082
 31
0.0
  0
ARC
  5
4119
330
19
100
AcDbEntity
  8
1
100
AcDbCircle
 10
14989.80003186735
 20
4412.635294509082
 30
0.0
 40
2.0
100
AcDbArc
 50
90.0
 51
180.0
  0
ARC
  5
411A
330
19
100
AcDbEntity
  8
1
100
AcDbCircle
 10
14996.35643186735
 20
4417.635294509081
 30
0.0
 40
3.0
100
AcDbArc
 50
225.0
 51
270.0
  0
LINE
  5
411B
330
19
100
AcDbEntity
  8
1
100
AcDbLine
 10
14988.00253186734
 20
4421.746494509082
 30
0.0
 11
14994.23503186734
 21
4415.513994509081
 31
0.0
  0
LINE
  5
411C
330
19
100
AcDbEntity
  8
CT
100
AcDbLine
 10
15007.80003186735
 20
4416.015794509081
 30
0.0
 11
15007.80003186735
 21
4398.668694509082
 31
0.0
  0
LINE
  5
411D
330
19
100
AcDbEntity
  8
1
100
AcDbLine
 10
14829.80003186735
 20
4414.635294509081
 30
0.0
 11
14865.80003186735
 21
4414.635294509081
 31
0.0
  0
LINE
  5
411E
330
19
100
AcDbEntity
  8
1
100
AcDbLine
 10
14827.80003186735
 20
4402.635294509082
 30
0.0
 11
14867.80003186735
 21
4402.635294509082
 31
0.0
  0
CIRCLE
  5
411F
330
19
100
AcDbEntity
  8
1
100
AcDbCircle
 10
14884.059613245
 20
4339.393829866234
 30
0.0
 40
4.0
  0
ARC
  5
4120
330
19
100
AcDbEntity
  8
1
100
AcDbCircle
 10
14859.24363186734
 20
4417.635294509081
 30
0.0
 40
3.0
100
AcDbArc
 50
270.0
 51
315.0
  0
LINE
  5
4121
330
19
100
AcDbEntity
  8
1
100
AcDbLine
 10
14867.21793186735
 20
4421.366994509081
 30
0.0
 11
14861.36503186734
 21
4415.513994509081
 31
0.0
  0
LINE
  5
4122
330
19
100
AcDbEntity
  8
1
100
AcDbLine
 10
14867.80003186735
 20
4402.635294509082
 30
0.0
 11
14867.80003186735
 21
4412.635294509082
 31
0.0
  0
ARC
  5
4123
330
19
100
AcDbEntity
  8
1
100
AcDbCircle
 10
14865.80003186735
 20
4412.635294509082
 30
0.0
 40
2.0
100
AcDbArc
 50
0.000000000000007
 51
90.0
  0
LINE
  5
4124
330
19
100
AcDbEntity
  8
1
100
AcDbLine
 10
14874.05343186734
 20
4416.888794509082
 30
0.0
 11
14867.80003186735
 21
4410.635294509082
 31
0.0
  0
LINE
  5
4125
330
19
100
AcDbEntity
  8
1
100
AcDbLine
 10
14828.89083186734
 20
4414.674794509082
 30
0.0
 11
14845.00953186735
 21
4444.809094509081
 31
0.0
  0
LINE
  5
4126
330
19
100
AcDbEntity
  8
1
100
AcDbLine
 10
14853.80003186735
 20
4402.635294509082
 30
0.0
 11
14853.80003186735
 21
4414.635294509081
 31
0.0
  0
LINE
  5
4127
330
19
100
AcDbEntity
  8
1
100
AcDbLine
 10
14827.80003186735
 20
4402.635294509082
 30
0.0
 11
14827.80003186735
 21
4412.635294509082
 31
0.0
  0
LINE
  5
4128
330
19
100
AcDbEntity
  8
1
100
AcDbLine
 10
14841.80003186735
 20
4414.635294509081
 30
0.0
 11
14841.80003186735
 21
4402.635294509082
 31
0.0
  0
ARC
  5
4129
330
19
100
AcDbEntity
  8
1
100
AcDbCircle
 10
14829.80003186735
 20
4412.635294509082
 30
0.0
 40
2.0
100
AcDbArc
 50
90.0
 51
180.0
  0
LINE
  5
412A
330
19
100
AcDbEntity
  8
CT
100
AcDbLine
 10
14847.80003186735
 20
4416.015794509081
 30
0.0
 11
14847.80003186735
 21
4398.668694509082
 31
0.0
  0
CIRCLE
  5
412B
330
19
100
AcDbEntity
  8
1
100
AcDbCircle
 10
14808.29898584681
 20
4383.134248488562
 30
0.0
 40
4.0
  0
LINE
  5
412C
330
19
100
AcDbEntity
  8
CT
100
AcDbLine
 10
14802.28857820672
 20
4377.123840848477
 30
0.0
 11
14813.51576556193
 21
4388.351028203689
 31
0.0
  0
CIRCLE
  5
412D
330
19
100
AcDbEntity
  8
1
100
AcDbCircle
 10
14971.54045048965
 20
4339.393829866231
 30
0.0
 40
4.0
  0
LINE
  5
412E
330
19
100
AcDbEntity
  8
1
100
AcDbLine
 10
14900.18233186734
 20
4405.635294509082
 30
0.0
 11
14955.06943186734
 21
4405.635294509082
 31
0.0
  0
LINE
  5
412F
330
19
100
AcDbEntity
  8
FUTO
100
AcDbLine
 10
15264.30003186733
 20
4751.435294509086
 30
0.0
 11
14906.30003186733
 21
4751.435294509075
 31
0.0
  0
LINE
  5
4130
330
19
100
AcDbEntity
  8
FUTO
100
AcDbLine
 10
14906.30003186733
 20
4752.635294509075
 30
0.0
 11
15264.30003186733
 21
4752.635294509087
 31
0.0
  0
LINE
  5
4131
330
19
100
AcDbEntity
  8
1
100
AcDbLine
 10
15225.40003186733
 20
4732.635294509084
 30
0.0
 11
14944.20003186733
 21
4732.635294509077
 31
0.0
  0
LINE
  5
4132
330
19
100
AcDbEntity
  8
FUTO
100
AcDbLine
 10
15264.30003186733
 20
4752.635294509087
 30
0.0
 11
15264.30003186733
 21
4751.435294509086
 31
0.0
  0
LINE
  5
4133
330
19
100
AcDbEntity
  8
FUTO
100
AcDbLine
 10
15252.80003186733
 20
4732.635294509086
 30
0.0
 11
15242.80003186734
 21
4732.635294509086
 31
0.0
  0
ARC
  5
4134
330
19
100
AcDbEntity
  8
1
100
AcDbCircle
 10
15241.80003186733
 20
4747.635294509087
 30
0.0
 40
1.0
100
AcDbArc
 50
0.000000000000007
 51
143.130102354195
  0
LINE
  5
4135
330
19
100
AcDbEntity
  8
1
100
AcDbLine
 10
15241.10003186733
 20
4748.335294509085
 30
0.0
 11
15225.40003186733
 21
4732.635294509084
 31
0.0
  0
CIRCLE
  5
4137
330
19
100
AcDbEntity
  8
1
100
AcDbCircle
 10
15091.04149651019
 20
4546.375713131399
 30
0.0
 40
4.0
  0
LINE
  5
4138
330
19
100
AcDbEntity
  8
CT
100
AcDbLine
 10
15099.25186603365
 20
4548.575675014771
 30
0.0
 11
15083.91524289338
 21
4544.466239229715
 31
0.0
  0
POINT
  5
413A
330
19
100
AcDbEntity
  8
1
100
AcDbPoint
 10
15085.30003186734
 20
4752.635294509093
 30
0.0
  0
POINT
  5
413B
330
19
100
AcDbEntity
  8
1
100
AcDbPoint
 10
15085.30003186734
 20
4752.635294509093
 30
0.0
  0
CIRCLE
  5
413C
330
19
100
AcDbEntity
  8
1
100
AcDbCircle
 10
15047.30107788787
 20
4622.136340529601
 30
0.0
 40
4.0
  0
LINE
  5
413D
330
19
100
AcDbEntity
  8
CT
100
AcDbLine
 10
15053.31148552795
 20
4628.146748169687
 30
0.0
 11
15042.08429817274
 21
4616.919560814475
 31
0.0
  0
LWPOLYLINE
  5
413E
330
19
100
AcDbEntity
  8
1
100
AcDbPolyline
 90
        2
 70
     0
 43
0.0
 10
14895.24561657493
 20
4707.635294509077
 42
-0.0941668855597806
 10
14869.03986477643
 20
4695.72389020073
 42
-0.1987366729981355
  0
LWPOLYLINE
  5
413F
330
19
100
AcDbEntity
  8
1
100
AcDbPolyline
 90
        2
 70
     0
 43
0.0
 10
14910.94494021376
 20
4707.635294509077
 42
-0.1315967463597435
 10
14871.40560185932
 20
4686.007754752177
 42
-0.2200089805681688
  0
LWPOLYLINE
  5
4140
330
19
100
AcDbEntity
  8
FUTO
100
AcDbPolyline
 90
        2
 70
     0
 43
0.0
 10
14906.30003186733
 20
4752.635294509075
 10
14906.30003186733
 20
4751.435294509075
  0
ARC
  5
4141
330
19
100
AcDbEntity
  8
1
100
AcDbCircle
 10
14927.80003186733
 20
4747.635294509079
 30
0.0
 40
1.0
100
AcDbArc
 50
36.86989764580494
 51
180.0
  0
POINT
  5
4142
330
19
100
AcDbEntity
  8
1
100
AcDbPoint
 10
14927.80003186733
 20
4752.635294509075
 30
0.0
  0
LINE
  5
4143
330
19
100
AcDbEntity
  8
1
100
AcDbLine
 10
14926.80003186733
 20
4732.635294509076
 30
0.0
 11
14923.4802217405
 21
4732.635294509074
 31
0.0
  0
LINE
  5
4144
330
19
100
AcDbEntity
  8
1
100
AcDbLine
 10
14926.80003186733
 20
4752.635294509078
 30
0.0
 11
14926.80003186733
 21
4731.635294509078
 31
0.0
  0
LINE
  5
4145
330
19
100
AcDbEntity
  8
1
100
AcDbLine
 10
14928.50003186733
 20
4748.335294509076
 30
0.0
 11
14944.20003186733
 21
4732.635294509077
 31
0.0
  0
LWPOLYLINE
  5
4146
330
19
100
AcDbEntity
  8
1
100
AcDbPolyline
 90
        3
 70
     0
 43
0.0
 10
14926.80003186733
 20
4731.635294509078
 42
-0.101266720201501
 10
14925.67467688372
 20
4726.135884022314
 42
-0.0681921917069782
 10
14910.94494021376
 20
4707.635294509077
 42
-0.2200089805681688
  0
ARC
  5
4147
330
19
100
AcDbEntity
  8
1
100
AcDbCircle
 10
14923.4802217405
 20
4722.635294509078
 30
0.0
 40
10.0
100
AcDbArc
 50
90.0
 51
146.5581282105191
  0
LWPOLYLINE
  5
4148
330
19
100
AcDbEntity
  8
1
100
AcDbPolyline
 90
        2
 70
     0
 43
0.0
 10
14915.13576825334
 20
4728.146201512522
 42
-0.0934525219043797
 10
14895.24561657493
 20
4707.635294509077
 42
-0.1987366729981355
  0
CIRCLE
  5
4149
330
19
100
AcDbEntity
  8
1
100
AcDbCircle
 10
14884.05961324502
 20
4665.876759151934
 30
0.0
 40
4.0
  0
LINE
  5
414A
330
19
100
AcDbEntity
  8
CT
100
AcDbLine
 10
14881.85965136165
 20
4674.087128675392
 30
0.0
 11
14885.9690871467
 21
4658.750505535125
 31
0.0
  0
CIRCLE
  5
414B
330
19
100
AcDbEntity
  8
1
100
AcDbCircle
 10
14808.29898584682
 20
4622.136340529612
 30
0.0
 40
4.0
  0
LINE
  5
414C
330
19
100
AcDbEntity
  8
CT
100
AcDbLine
 10
14802.28857820673
 20
4628.146748169698
 30
0.0
 11
14813.51576556194
 21
4616.919560814486
 31
0.0
  0
CIRCLE
  5
414D
330
19
100
AcDbEntity
  8
1
100
AcDbCircle
 10
14971.54045048967
 20
4665.87675915193
 30
0.0
 40
4.0
  0
LINE
  5
414E
330
19
100
AcDbEntity
  8
CT
100
AcDbLine
 10
14973.74041237304
 20
4674.087128675387
 30
0.0
 11
14969.63097658799
 21
4658.750505535119
 31
0.0
  0
LWPOLYLINE
  5
414F
330
19
100
AcDbEntity
  8
1
100
AcDbPolyline
 90
        2
 70
     0
 43
0.0
 10
14781.98261191657
 20
4290.094310902517
 42
-0.1174780416237576
 10
14713.53773678537
 20
4385.88743545853
 42
-0.1174780416237576
  0
CIRCLE
  5
4152
330
19
100
AcDbEntity
  8
1
100
AcDbCircle
 10
14764.55856722449
 20
4458.894875886764
 30
0.0
 40
4.0
  0
LINE
  5
4153
330
19
100
AcDbEntity
  8
CT
100
AcDbLine
 10
14756.34819770103
 20
4456.694914003391
 30
0.0
 11
14771.68482084129
 21
4460.804349788448
 31
0.0
  0
CIRCLE
  5
4155
330
19
100
AcDbEntity
  8
1
100
AcDbCircle
 10
14764.55856722449
 20
4546.375713131416
 30
0.0
 40
4.0
  0
LINE
  5
4156
330
19
100
AcDbEntity
  8
CT
100
AcDbLine
 10
14756.34819770103
 20
4548.575675014786
 30
0.0
 11
14771.6848208413
 21
4544.466239229732
 31
0.0
  0
DIMENSION
  5
448E
330
19
100
AcDbEntity
  8
SP
100
AcDbDimension
  2
*D12
 10
16299.37511013998
 20
4962.635294509084
 30
0.0
 11
16238.87511013998
 21
5000.135294509084
 31
0.0
 70
    32
 71
     5
 42
121.0
  3
GOD
100
AcDbAlignedDimension
 13
16178.37511013998
 23
4917.75139915572
 33
0.0
 14
16299.37511013998
 24
4684.13529450908
 34
0.0
100
AcDbRotatedDimension
  0
LINE
  5
448F
330
19
100
AcDbEntity
  8
2
100
AcDbLine
 10
16178.37511013998
 20
4839.821085121053
 30
0.0
 11
16178.37511013998
 21
4195.689360228545
 31
0.0
1001
ACAD
1000
ASC_BOUNDS
1002
{
1070
    19
1005
0
1005
0
1002
}
  0
DIMENSION
  5
4490
330
19
100
AcDbEntity
  8
SP
100
AcDbDimension
  2
*D11
 10
16290.37511013998
 20
4857.751399155721
 30
0.0
 11
16178.37511013998
 21
4895.251399155721
 31
0.0
 70
    32
 71
     5
 42
224.0
  3
GOD
100
AcDbAlignedDimension
 13
16066.37511013998
 23
4752.635294509084
 33
0.0
 14
16290.37511013998
 24
4752.635294509084
 34
0.0
100
AcDbRotatedDimension
  0
DIMENSION
  5
4491
330
19
100
AcDbEntity
  8
SP
100
AcDbDimension
  2
*D14
 10
16056.37511013998
 20
4042.635294509083
 30
0.0
 11
15901.37511013998
 21
4080.135294509083
 31
0.0
 70
    32
 71
     5
 42
309.9999999999964
  3
GOD
100
AcDbAlignedDimension
 13
15746.37511013998
 23
4147.635294509083
 33
0.0
 14
16056.37511013998
 24
4147.635294509083
 34
0.0
100
AcDbRotatedDimension
  0
LINE
  5
4492
330
19
100
AcDbEntity
  8
FUTO
100
AcDbLine
 10
15876.17511013998
 20
4502.635294509082
 30
0.0
 11
15746.37511013998
 21
4150.835294509082
 31
0.0
  0
LINE
  5
4493
330
19
100
AcDbEntity
  8
FUTO
100
AcDbLine
 10
15746.37511013998
 20
4150.835294509082
 30
0.0
 11
16053.17511013998
 21
4150.835294509082
 31
0.0
  0
LINE
  5
4494
330
19
100
AcDbEntity
  8
1
100
AcDbLine
 10
15746.37511013998
 20
4147.635294509083
 30
0.0
 11
16096.37511013998
 21
4147.635294509083
 31
0.0
  0
LINE
  5
4495
330
19
100
AcDbEntity
  8
1
100
AcDbLine
 10
15930.37511013998
 20
4602.635294509082
 30
0.0
 11
15855.03541013998
 21
4602.635294509082
 31
0.0
  0
LINE
  5
4496
330
19
100
AcDbEntity
  8
2
100
AcDbLine
 10
16343.247130187
 20
4502.63529450908
 30
0.0
 11
15715.9869895734
 21
4502.63529450908
 31
0.0
  0
LINE
  5
4497
330
19
100
AcDbEntity
  8
FUTO
100
AcDbLine
 10
15746.37511013998
 20
4147.635294509083
 30
0.0
 11
15746.37511013998
 21
4150.835294509082
 31
0.0
  0
LINE
  5
4498
330
19
100
AcDbEntity
  8
1
100
AcDbLine
 10
15757.37511013998
 20
4419.082394509082
 30
0.0
 11
15757.37511013998
 21
4586.216194509083
 31
0.0
  0
LINE
  5
4499
330
19
100
AcDbEntity
  8
1
100
AcDbLine
 10
15847.37511013998
 20
4603.435294509083
 30
0.0
 11
15847.37511013998
 21
4452.635294509081
 31
0.0
  0
LINE
  5
449A
330
19
100
AcDbEntity
  8
1
100
AcDbLine
 10
15807.37511013998
 20
4406.635294509082
 30
0.0
 11
15807.37511013998
 21
4601.935294509083
 31
0.0
  0
LINE
  5
449B
330
19
100
AcDbEntity
  8
FUTO
100
AcDbLine
 10
15805.85199311601
 20
4311.773623687134
 30
0.0
 11
15758.25416932056
 21
4399.146787701623
 31
0.0
  0
LINE
  5
449C
330
19
100
AcDbEntity
  8
1
100
AcDbLine
 10
15833.37511013998
 20
4443.635294509082
 30
0.0
 11
15847.37511013998
 21
4452.635294509081
 31
0.0
  0
LINE
  5
449D
330
19
100
AcDbEntity
  8
1
100
AcDbLine
 10
15833.27561013998
 20
4417.635294509081
 30
0.0
 11
15844.85680028083
 21
4417.635294509081
 31
0.0
  0
LINE
  5
449E
330
19
100
AcDbEntity
  8
1
100
AcDbLine
 10
15833.37511013998
 20
4405.635294509082
 30
0.0
 11
15808.37511013998
 21
4405.635294509082
 31
0.0
  0
ARC
  5
449F
330
19
100
AcDbEntity
  8
1
100
AcDbCircle
 10
15808.37521013998
 20
4406.635294509082
 30
0.0
 40
1.000099999999999
100
AcDbArc
 50
180.0
 51
269.9965000000103
  0
LINE
  5
44A0
330
19
100
AcDbEntity
  8
1
100
AcDbLine
 10
15833.37511013998
 20
4405.635294509082
 30
0.0
 11
15833.37511013998
 21
4443.635294509082
 31
0.0
  0
ARC
  5
44A1
330
19
100
AcDbEntity
  8
1
100
AcDbCircle
 10
15759.17491013998
 20
4419.082194509083
 30
0.0
 40
1.7998
100
AcDbArc
 50
179.9961000000213
 51
257.5983000000071
  0
LINE
  5
44A2
330
19
100
AcDbEntity
  8
FUTO
100
AcDbLine
 10
15745.37511013998
 20
4373.946787701625
 30
0.0
 11
15747.77511013998
 21
4373.946787701625
 31
0.0
  0
ARC
  5
44A3
330
19
100
AcDbEntity
  8
FUTO
100
AcDbCircle
 10
15750.17511013998
 20
4396.746787701623
 30
0.0
 40
2.4
100
AcDbArc
 50
89.99999999999998
 51
180.0
  0
ARC
  5
44A4
330
19
100
AcDbEntity
  8
FUTO
100
AcDbCircle
 10
15750.17511013998
 20
4396.746787701623
 30
0.0
 40
4.8
100
AcDbArc
 50
89.99999999999998
 51
180.0
  0
LINE
  5
44A5
330
19
100
AcDbEntity
  8
FUTO
100
AcDbLine
 10
15747.77511013998
 20
4373.946787701625
 30
0.0
 11
15747.77511013998
 21
4396.746787701623
 31
0.0
  0
LINE
  5
44A6
330
19
100
AcDbEntity
  8
FUTO
100
AcDbLine
 10
15745.37511013998
 20
4373.946787701625
 30
0.0
 11
15745.37511013998
 21
4396.746787701623
 31
0.0
  0
LINE
  5
44A7
330
19
100
AcDbEntity
  8
FUTO
100
AcDbLine
 10
15750.17511013998
 20
4399.146787701623
 30
0.0
 11
15838.04469692754
 21
4399.14678770162
 31
0.0
  0
LINE
  5
44A8
330
19
100
AcDbEntity
  8
FUTO
100
AcDbLine
 10
15750.17511013998
 20
4401.546787701621
 30
0.0
 11
15838.92897861768
 21
4401.546787701621
 31
0.0
  0
LINE
  5
44A9
330
19
100
AcDbEntity
  8
1
100
AcDbLine
 10
15807.37511013998
 20
4406.635294509082
 30
0.0
 11
15758.78841013998
 21
4417.324394509082
 31
0.0
  0
LINE
  5
44AA
330
19
100
AcDbEntity
  8
1
100
AcDbLine
 10
15847.37511013998
 20
4603.435294509083
 30
0.0
 11
15808.87511013998
 21
4603.435294509083
 31
0.0
  0
ARC
  5
44AB
330
19
100
AcDbEntity
  8
1
100
AcDbCircle
 10
15808.87511013998
 20
4601.935294509083
 30
0.0
 40
1.5
100
AcDbArc
 50
89.99999999999998
 51
180.0
  0
LINE
  5
44AC
330
19
100
AcDbEntity
  8
1
100
AcDbLine
 10
15847.20681013998
 20
4589.075994509083
 30
0.0
 11
15855.03541013998
 21
4602.635294509082
 31
0.0
  0
ARC
  5
44AD
330
19
100
AcDbEntity
  8
1
100
AcDbCircle
 10
15759.17501013998
 20
4586.216294509082
 30
0.0
 40
1.7999
100
AcDbArc
 50
103.4933999999954
 51
180.0018999999831
  0
LINE
  5
44AE
330
19
100
AcDbEntity
  8
1
100
AcDbLine
 10
15807.37511013998
 20
4599.635294509082
 30
0.0
 11
15758.75501013998
 21
4587.966494509083
 31
0.0
  0
LWPOLYLINE
  5
44AF
330
19
100
AcDbEntity
  8
1
100
AcDbPolyline
 90
        2
 70
     0
 43
0.0
 10
16053.17511013998
 20
4694.510955866618
 10
16053.17511013998
 20
4147.635294509083
  0
LWPOLYLINE
  5
44B0
330
19
100
AcDbEntity
  8
1
100
AcDbPolyline
 90
        3
 70
     0
 43
0.0
 10
16056.37511013998
 20
4697.953405346608
 10
16056.37511013998
 20
4502.635294509082
 10
16056.37511013998
 20
4147.635294509083
  0
LINE
  5
44B2
330
19
100
AcDbEntity
  8
1
100
AcDbLine
 10
16056.37511013998
 20
4150.835294509082
 30
0.0
 11
16096.37511013998
 21
4150.835294509082
 31
0.0
  0
LWPOLYLINE
  5
44B3
330
19
100
AcDbEntity
  8
1
100
AcDbPolyline
 90
        2
 70
     0
 43
0.0
 10
16096.37511013998
 20
4150.835294509082
 10
16096.37511013998
 20
4147.635294509082
  0
LWPOLYLINE
  5
44B4
330
19
100
AcDbEntity
  8
1
100
AcDbPolyline
 90
        3
 70
     0
 43
0.0
 10
16299.37511013998
 20
4684.135294509082
 10
16299.37511013998
 20
4502.635294509082
 10
16299.37511013998
 20
4321.135294509082
  0
LINE
  5
44B7
330
19
100
AcDbEntity
  8
1
100
AcDbLine
 10
16080.37511013998
 20
4238.404012875247
 30
0.0
 11
16276.37511013998
 21
4238.404012875247
 31
0.0
  0
LINE
  5
44B9
330
19
100
AcDbEntity
  8
1
100
AcDbLine
 10
16065.37511013998
 20
4320.135294509082
 30
0.0
 11
16058.37511013998
 21
4320.135294509082
 31
0.0
  0
ARC
  5
44BA
330
19
100
AcDbEntity
  8
1
100
AcDbCircle
 10
16058.37511013998
 20
4321.135294509081
 30
0.0
 40
1.0
100
AcDbArc
 50
180.0
 51
270.0
  0
ARC
  5
44BC
330
19
100
AcDbEntity
  8
1
100
AcDbCircle
 10
16298.37511013998
 20
4321.135294509082
 30
0.0
 40
1.0
100
AcDbArc
 50
270.0
 51
0.0
  0
ARC
  5
44BE
330
19
100
AcDbEntity
  8
1
100
AcDbCircle
 10
16292.37511013998
 20
4319.135294509083
 30
0.0
 40
1.0
100
AcDbArc
 50
89.99999999999998
 51
180.0
  0
LINE
  5
44BF
330
19
100
AcDbEntity
  8
1
100
AcDbLine
 10
16292.37511013998
 20
4320.135294509084
 30
0.0
 11
16298.37511013998
 21
4320.135294509084
 31
0.0
  0
LINE
  5
44C3
330
19
100
AcDbEntity
  8
1
100
AcDbLine
 10
16291.37511013998
 20
4751.435294509084
 30
0.0
 11
16272.57511013998
 21
4732.635294509083
 31
0.0
  0
LINE
  5
44C4
330
19
100
AcDbEntity
  8
1
100
AcDbLine
 10
16045.37511013998
 20
4752.635294509084
 30
0.0
 11
16311.37511013998
 21
4752.635294509084
 31
0.0
  0
LINE
  5
44C5
330
19
100
AcDbEntity
  8
1
100
AcDbLine
 10
16045.37511013998
 20
4751.435294509084
 30
0.0
 11
16311.37511013998
 21
4751.435294509084
 31
0.0
  0
LINE
  5
44C7
330
19
100
AcDbEntity
  8
1
100
AcDbLine
 10
16066.37511013998
 20
4752.635294509084
 30
0.0
 11
16066.37511013998
 21
4253.404012875248
 31
0.0
  0
LINE
  5
44C8
330
19
100
AcDbEntity
  8
1
100
AcDbLine
 10
16065.37511013998
 20
4752.635294509084
 30
0.0
 11
16065.37511013998
 21
4253.404012875248
 31
0.0
  0
LINE
  5
44C9
330
19
100
AcDbEntity
  8
1
100
AcDbLine
 10
15930.37511013998
 20
4602.635294509082
 30
0.0
 11
15967.77019191151
 21
4602.635294509082
 31
0.0
  0
LINE
  5
44CA
330
19
100
AcDbEntity
  8
1
100
AcDbLine
 10
16065.37511013998
 20
4751.435294509084
 30
0.0
 11
16084.17511013998
 21
4732.635294509083
 31
0.0
  0
ARC
  5
44CB
330
19
100
AcDbEntity
  8
1
100
AcDbCircle
 10
16058.37511013998
 20
4684.135294509081
 30
0.0
 40
1.0
100
AcDbArc
 50
89.99999999999998
 51
180.0
  0
ARC
  5
44CC
330
19
100
AcDbEntity
  8
1
100
AcDbCircle
 10
16064.37511013998
 20
4686.135294509081
 30
0.0
 40
1.0
100
AcDbArc
 50
270.0
 51
0.0
  0
LINE
  5
44CD
330
19
100
AcDbEntity
  8
1
100
AcDbLine
 10
16064.37511013998
 20
4685.135294509082
 30
0.0
 11
16058.37511013998
 21
4685.135294509082
 31
0.0
  0
LINE
  5
44CE
330
19
100
AcDbEntity
  8
1
100
AcDbLine
 10
16045.37511013998
 20
4752.635294509084
 30
0.0
 11
16045.37511013998
 21
4751.435294509084
 31
0.0
1001
ACAD
1000
ASC_BOUNDS
1002
{
1070
    19
1002
}
  0
LINE
  5
44CF
330
19
100
AcDbEntity
  8
1
100
AcDbLine
 10
16084.17511013998
 20
4732.635294509083
 30
0.0
 11
16272.57511013998
 21
4732.635294509083
 31
0.0
  0
ARC
  5
44D4
330
19
100
AcDbEntity
  8
1
100
AcDbCircle
 10
16298.37511013998
 20
4684.135294509081
 30
0.0
 40
1.0
100
AcDbArc
 50
0.0
 51
89.99999999999998
  0
ARC
  5
44D6
330
19
100
AcDbEntity
  8
1
100
AcDbCircle
 10
16292.37511013998
 20
4686.135294509081
 30
0.0
 40
1.0
100
AcDbArc
 50
180.0
 51
270.0
  0
LINE
  5
44D8
330
19
100
AcDbEntity
  8
1
100
AcDbLine
 10
16292.37511013998
 20
4685.135294509082
 30
0.0
 11
16298.37511013998
 21
4685.135294509082
 31
0.0
  0
LINE
  5
44D9
330
19
100
AcDbEntity
  8
1
100
AcDbLine
 10
16311.37511013998
 20
4752.635294509084
 30
0.0
 11
16311.37511013998
 21
4751.435294509084
 31
0.0
1001
ACAD
1000
ASC_BOUNDS
1002
{
1070
    19
1002
}
  0
ARC
  5
4691
330
19
100
AcDbEntity
  8
1
100
AcDbCircle
 10
16080.37511013998
 20
4253.404012875248
 30
0.0
 40
15.0
100
AcDbArc
 50
179.9999999999995
 51
270.0
  0
DIMENSION
  5
4CA3
330
19
100
AcDbEntity
  8
SP
100
AcDbDimension
  2
*D18
 10
14553.48209998095
 20
5854.362935220169
 30
0.0
 11
14515.98209998095
 21
5996.862935220171
 31
0.0
 70
    32
 71
     5
 42
122.0
  3
GOD
100
AcDbAlignedDimension
 13
14677.80003186733
 23
5732.362935220169
 33
0.0
 14
14681.71647291018
 24
5854.362935220169
 34
0.0
 50
90.0
100
AcDbRotatedDimension
  0
LINE
  5
4CA4
330
19
100
AcDbEntity
  8
2
100
AcDbLine
 10
14927.80003186734
 20
5393.259398171078
 30
0.0
 11
14927.80003186734
 21
6048.10375393326
 31
0.0
  0
LINE
  5
4CA5
330
19
100
AcDbEntity
  8
HOSO
100
AcDbLine
 10
15239.90663358513
 20
5745.75633350237
 30
0.0
 11
14930.69343014953
 21
5962.969536937967
 31
0.0
  0
LINE
  5
4CA6
330
19
100
AcDbEntity
  8
HOSO
100
AcDbLine
 10
15239.90663358513
 20
5962.969536937967
 30
0.0
 11
14930.69343014953
 21
5745.75633350237
 31
0.0
  0
LINE
  5
4CA7
330
19
100
AcDbEntity
  8
FUTO
100
AcDbLine
 10
14926.30003186733
 20
5952.362935220168
 30
0.0
 11
14926.30003186733
 21
5756.362935220169
 31
0.0
  0
LINE
  5
4CA8
330
19
100
AcDbEntity
  8
FUTO
100
AcDbLine
 10
15244.30003186733
 20
5756.362935220169
 30
0.0
 11
15244.30003186733
 21
5952.362935220168
 31
0.0
  0
LINE
  5
4CA9
330
19
100
AcDbEntity
  8
FUTO
100
AcDbLine
 10
15264.30003186733
 20
5746.362935220169
 30
0.0
 11
15264.30003186733
 21
5962.362935220169
 31
0.0
  0
LINE
  5
4CAA
330
19
100
AcDbEntity
  8
FUTO
100
AcDbLine
 10
14906.30003186733
 20
5962.362935220169
 30
0.0
 11
14906.30003186733
 21
5746.362935220169
 31
0.0
  0
LINE
  5
4CAB
330
19
100
AcDbEntity
  8
1
100
AcDbLine
 10
14704.80003186734
 20
5756.362935220169
 30
0.0
 11
14704.80003186734
 21
5952.362935220168
 31
0.0
  0
DIMENSION
  5
4CAC
330
19
100
AcDbEntity
  8
SP
100
AcDbDimension
  2
*D16
 10
14677.80003186734
 20
5316.285453706379
 30
0.0
 11
14927.80003186734
 21
5353.785453706379
 31
0.0
 70
    32
 71
     5
 42
500.0
  3
GOD
100
AcDbAlignedDimension
 13
15177.80003186734
 23
5422.362935220169
 33
0.0
 14
14677.80003186734
 24
5422.362935220169
 34
0.0
 50
180.0
100
AcDbRotatedDimension
  0
LINE
  5
4CAF
330
19
100
AcDbEntity
  8
1
100
AcDbLine
 10
14906.67267143401
 20
5741.362935220171
 30
0.0
 11
14719.80003186734
 21
5741.362935220169
 31
0.0
  0
LINE
  5
4CB0
330
19
100
AcDbEntity
  8
2
100
AcDbLine
 10
15284.28490655211
 20
5854.362935220169
 30
0.0
 11
14681.71647291018
 21
5854.362935220169
 31
0.0
1001
ACAD
1000
ASC_BOUNDS
1002
{
1070
    19
1005
0
1005
0
1002
}
  0
LINE
  5
4CB1
330
19
100
AcDbEntity
  8
1
100
AcDbLine
 10
15027.80003186734
 20
5532.02323522017
 30
0.0
 11
15027.80003186734
 21
5682.702635220169
 31
0.0
  0
LINE
  5
4CB2
330
19
100
AcDbEntity
  8
1
100
AcDbLine
 10
14827.80003186734
 20
5682.702635220169
 30
0.0
 11
14827.80003186734
 21
5532.02323522017
 31
0.0
  0
LINE
  5
4CB6
330
19
100
AcDbEntity
  8
1
100
AcDbLine
 10
14830.80003186734
 20
5484.362935220168
 30
0.0
 11
14842.46883186734
 21
5435.742835220168
 31
0.0
  0
LINE
  5
4CB7
330
19
100
AcDbEntity
  8
1
100
AcDbLine
 10
15024.80003186734
 20
5484.362935220168
 30
0.0
 11
15013.13123186734
 21
5435.742835220168
 31
0.0
  0
LINE
  5
4CB9
330
19
100
AcDbEntity
  8
1
100
AcDbLine
 10
14844.24713186734
 20
5434.362935220168
 30
0.0
 11
15011.38093186733
 21
5434.362935220168
 31
0.0
  0
LINE
  5
4CBA
330
19
100
AcDbEntity
  8
1
100
AcDbLine
 10
14844.24713186734
 20
5434.362935220168
 30
0.0
 11
15011.38093186734
 21
5434.362935220168
 31
0.0
  0
ARC
  5
4CBB
330
19
100
AcDbEntity
  8
1
100
AcDbCircle
 10
15011.38103186734
 20
5436.162835220169
 30
0.0
 40
1.7999
100
AcDbArc
 50
269.9981000000006
 51
346.5066000000023
  0
ARC
  5
4CBF
330
19
100
AcDbEntity
  8
1
100
AcDbCircle
 10
14844.21903186734
 20
5436.162835220169
 30
0.0
 40
1.7999
100
AcDbArc
 50
193.4933999999977
 51
270.0018999999994
  0
LINE
  5
4CC0
330
19
100
AcDbEntity
  8
1
100
AcDbLine
 10
15028.60003186734
 20
5524.362935220168
 30
0.0
 11
14827.00003186734
 21
5524.362935220168
 31
0.0
  0
LINE
  5
4CC1
330
19
100
AcDbEntity
  8
1
100
AcDbLine
 10
14831.80003186734
 20
5484.362935220168
 30
0.0
 11
15027.10003186734
 21
5484.362935220168
 31
0.0
  0
LINE
  5
4CC2
330
19
100
AcDbEntity
  8
1
100
AcDbLine
 10
15014.24073186734
 20
5524.194635220169
 30
0.0
 11
15027.80003186734
 21
5532.02323522017
 31
0.0
  0
ARC
  5
4CC3
330
19
100
AcDbEntity
  8
1
100
AcDbCircle
 10
15027.10003186734
 20
5485.862935220168
 30
0.0
 40
1.5
100
AcDbArc
 50
270.0
 51
0.000000000000007
  0
LINE
  5
4CC4
330
19
100
AcDbEntity
  8
1
100
AcDbLine
 10
15028.60003186734
 20
5524.362935220168
 30
0.0
 11
15028.60003186734
 21
5485.862935220168
 31
0.0
  0
LINE
  5
4CC6
330
19
100
AcDbEntity
  8
1
100
AcDbLine
 10
14841.35933186734
 20
5524.194635220169
 30
0.0
 11
14827.80003186734
 21
5532.02323522017
 31
0.0
  0
ARC
  5
4CC7
330
19
100
AcDbEntity
  8
1
100
AcDbCircle
 10
14828.50003186734
 20
5485.862935220168
 30
0.0
 40
1.5
100
AcDbArc
 50
180.0
 51
270.0
  0
LINE
  5
4CC8
330
19
100
AcDbEntity
  8
1
100
AcDbLine
 10
14827.00003186734
 20
5524.362935220168
 30
0.0
 11
14827.00003186734
 21
5485.862935220168
 31
0.0
  0
LINE
  5
4CC9
330
19
100
AcDbEntity
  8
FUTO
100
AcDbLine
 10
15229.30003186733
 20
5741.362935220169
 30
0.0
 11
14941.30003186733
 21
5741.362935220169
 31
0.0
1001
ACAD
1000
ASC_BOUNDS
1002
{
1070
    19
1005
0
1005
0
1002
}
  0
LINE
  5
4CCA
330
19
100
AcDbEntity
  8
FUTO
100
AcDbLine
 10
15239.30003186733
 20
5721.362935220168
 30
0.0
 11
14931.30003186733
 21
5721.362935220168
 31
0.0
1001
ACAD
1000
ASC_BOUNDS
1002
{
1070
    19
1005
0
1005
0
1002
}
  0
ARC
  5
4CCB
330
19
100
AcDbEntity
  8
FUTO
100
AcDbCircle
 10
15229.30003186733
 20
5756.362935220169
 30
0.0
 40
15.0
100
AcDbArc
 50
270.0
 51
0.0000000000001342
  0
ARC
  5
4CCC
330
19
100
AcDbEntity
  8
FUTO
100
AcDbCircle
 10
15239.30003186733
 20
5746.36293522017
 30
0.0
 40
25.0
100
AcDbArc
 50
270.000000000001
 51
359.9999999999979
  0
ARC
  5
4CCD
330
19
100
AcDbEntity
  8
FUTO
100
AcDbCircle
 10
14941.30003186733
 20
5756.362935220169
 30
0.0
 40
15.0
100
AcDbArc
 50
180.0
 51
270.0
  0
LINE
  5
4CCE
330
19
100
AcDbEntity
  8
1
100
AcDbLine
 10
15009.80003186734
 20
5712.090614653588
 30
0.0
 11
14845.80003186734
 21
5712.090614653588
 31
0.0
  0
LINE
  5
4CCF
330
19
100
AcDbEntity
  8
1
100
AcDbLine
 10
14842.80003186734
 20
5691.362935220169
 30
0.0
 11
15012.80003186734
 21
5691.362935220169
 31
0.0
  0
ARC
  5
4CD1
330
19
100
AcDbEntity
  8
1
100
AcDbCircle
 10
15009.80013186734
 20
5709.090614653588
 30
0.0
 40
2.999899999999999
100
AcDbArc
 50
359.9988000000029
 51
90.00120000000034
  0
LINE
  5
4CD2
330
19
100
AcDbEntity
  8
1
100
AcDbLine
 10
15027.80003186734
 20
5682.702635220169
 30
0.0
 11
15012.80003186734
 21
5691.362935220169
 31
0.0
  0
LINE
  5
4CD3
330
19
100
AcDbEntity
  8
1
100
AcDbLine
 10
15012.80003186734
 20
5694.362935220169
 30
0.0
 11
15012.80003186734
 21
5691.362935220169
 31
0.0
  0
LINE
  5
4CD4
330
19
100
AcDbEntity
  8
1
100
AcDbLine
 10
15012.80003186734
 20
5691.362935220169
 30
0.0
 11
15012.80003186734
 21
5709.090614653588
 31
0.0
  0
LINE
  5
4CD9
330
19
100
AcDbEntity
  8
1
100
AcDbLine
 10
14942.40003186734
 20
5718.090614653588
 30
0.0
 11
14942.40003186734
 21
5741.362935220172
 31
0.0
  0
LINE
  5
4CDA
330
19
100
AcDbEntity
  8
1
100
AcDbLine
 10
14913.20013186734
 20
5718.090614653588
 30
0.0
 11
14913.20013186734
 21
5741.362935220169
 31
0.0
  0
ARC
  5
4CDB
330
19
100
AcDbEntity
  8
1
100
AcDbCircle
 10
14890.80003186734
 20
5715.090614653588
 30
0.0
 40
2.999899999999999
100
AcDbArc
 50
89.99879999999967
 51
180.0011999999971
  0
LINE
  5
4CDC
330
19
100
AcDbEntity
  8
1
100
AcDbLine
 10
14887.80003186734
 20
5712.090614653588
 30
0.0
 11
14887.80003186734
 21
5715.090614653588
 31
0.0
  0
ARC
  5
4CDD
330
19
100
AcDbEntity
  8
1
100
AcDbCircle
 10
14845.79993186734
 20
5709.090614653588
 30
0.0
 40
2.999899999999999
100
AcDbArc
 50
89.99879999999967
 51
180.0011999999971
  0
LINE
  5
4CDE
330
19
100
AcDbEntity
  8
1
100
AcDbLine
 10
14827.80003186734
 20
5682.702635220169
 30
0.0
 11
14842.80003186734
 21
5691.362935220169
 31
0.0
  0
LINE
  5
4CDF
330
19
100
AcDbEntity
  8
1
100
AcDbLine
 10
14842.80003186734
 20
5694.362935220169
 30
0.0
 11
14842.80003186734
 21
5691.362935220169
 31
0.0
  0
LINE
  5
4CE0
330
19
100
AcDbEntity
  8
1
100
AcDbLine
 10
14842.80003186734
 20
5691.362935220169
 30
0.0
 11
14842.80003186734
 21
5709.090614653588
 31
0.0
  0
LINE
  5
4CE1
330
19
100
AcDbEntity
  8
1
100
AcDbLine
 10
14967.80003186734
 20
5712.090614653588
 30
0.0
 11
14967.80003186734
 21
5715.090614653588
 31
0.0
  0
ARC
  5
4CE2
330
19
100
AcDbEntity
  8
1
100
AcDbCircle
 10
14964.80013186734
 20
5715.090614653588
 30
0.0
 40
2.999899999999999
100
AcDbArc
 50
359.9988000000029
 51
90.00120000000034
  0
LINE
  5
4CE3
330
19
100
AcDbEntity
  8
1
100
AcDbLine
 10
14890.80003186734
 20
5718.090614653588
 30
0.0
 11
14964.80003186734
 21
5718.090614653588
 31
0.0
  0
ARC
  5
4CE4
330
19
100
AcDbEntity
  8
FUTO
100
AcDbCircle
 10
14931.30003186733
 20
5746.362935220169
 30
0.0
 40
25.0
100
AcDbArc
 50
180.0
 51
270.0
  0
DIMENSION
  5
4CE5
330
19
100
AcDbEntity
  8
SP
100
AcDbDimension
  2
*D17
 10
14553.48209998095
 20
5422.362935220169
 30
0.0
 11
14515.98209998095
 21
5577.362935220171
 31
0.0
 70
    32
 71
     5
 42
309.9999999999982
  3
GOD
100
AcDbAlignedDimension
 13
14677.80003186734
 23
5732.362935220167
 33
0.0
 14
14677.80003186734
 24
5422.362935220169
 34
0.0
 50
90.0
100
AcDbRotatedDimension
  0
ARC
  5
4CED
330
19
100
AcDbEntity
  8
1
100
AcDbCircle
 10
14719.80003186734
 20
5756.362935220169
 30
0.0
 40
15.0
100
AcDbArc
 50
180.0
 51
270.0
  0
ARC
  5
4CF2
330
19
100
AcDbEntity
  8
1
100
AcDbCircle
 10
14748.14545167935
 20
5933.789082068271
 30
0.0
 40
48.65638419258441
100
AcDbArc
 50
43.63165127683589
 51
56.49996633473549
  0
LWPOLYLINE
  5
4CF3
330
19
100
AcDbEntity
  8
1
100
AcDbPolyline
 90
        3
 70
     0
 43
0.0
 10
14746.30003186734
 20
5975.362935220169
 10
14927.80003186734
 20
5975.362935220169
 10
14948.13033464716
 20
5975.362935220169
  0
LINE
  5
4CF4
330
19
100
AcDbEntity
  8
1
100
AcDbLine
 10
14906.30003186749
 20
5967.362935220165
 30
0.0
 11
14719.80003186734
 21
5967.362935220169
 31
0.0
  0
LINE
  5
4CF5
330
19
100
AcDbEntity
  8
FUTO
100
AcDbLine
 10
15229.30003186733
 20
5967.362935220169
 30
0.0
 11
14941.30003186733
 21
5967.362935220169
 31
0.0
1001
ACAD
1000
ASC_BOUNDS
1002
{
1070
    19
1005
0
1005
0
1002
}
  0
LINE
  5
4CF6
330
19
100
AcDbEntity
  8
FUTO
100
AcDbLine
 10
15239.30003186733
 20
5987.362935220168
 30
0.0
 11
14931.30003186733
 21
5987.362935220168
 31
0.0
1001
ACAD
1000
ASC_BOUNDS
1002
{
1070
    19
1005
0
1005
0
1002
}
  0
ARC
  5
4CF7
330
19
100
AcDbEntity
  8
FUTO
100
AcDbCircle
 10
15229.30003186733
 20
5952.362935220168
 30
0.0
 40
15.0
100
AcDbArc
 50
0.000000000000007
 51
90.0
  0
ARC
  5
4CF8
330
19
100
AcDbEntity
  8
FUTO
100
AcDbCircle
 10
15239.30003186733
 20
5962.362935220166
 30
0.0
 40
25.0
100
AcDbArc
 50
0.0000000000041799
 51
89.99999999999896
  0
LWPOLYLINE
  5
4CF9
330
19
100
AcDbEntity
  8
1
100
AcDbPolyline
 90
        2
 70
     0
 43
0.0
 10
14948.13033464716
 20
5975.362935220169
 10
15109.30003186734
 20
5975.362935220169
  0
ARC
  5
4CFA
330
19
100
AcDbEntity
  8
1
100
AcDbCircle
 10
15107.45461205533
 20
5933.789082068271
 30
0.0
 40
48.65638419258441
100
AcDbArc
 50
123.5000336652645
 51
136.3683487231641
  0
ARC
  5
4CFB
330
19
100
AcDbEntity
  8
1
100
AcDbCircle
 10
15108.30003186734
 20
5973.362935220169
 30
0.0
 40
1.0
100
AcDbArc
 50
0.000000000000007
 51
89.99999999999998
  0
ARC
  5
4CFC
330
19
100
AcDbEntity
  8
1
100
AcDbCircle
 10
15109.30003186734
 20
5974.362935220169
 30
0.0
 40
1.0
100
AcDbArc
 50
0.000000000000007
 51
89.99999999999998
  0
LINE
  5
4CFD
330
19
100
AcDbEntity
  8
1
100
AcDbLine
 10
15109.30003186734
 20
5967.362935220171
 30
0.0
 11
15109.30003186734
 21
5973.362935220171
 31
0.0
  0
LINE
  5
4CFE
330
19
100
AcDbEntity
  8
1
100
AcDbLine
 10
15110.30003186734
 20
5968.362935220169
 30
0.0
 11
15110.30003186734
 21
5974.36293522017
 31
0.0
  0
ARC
  5
4CFF
330
19
100
AcDbEntity
  8
1
100
AcDbCircle
 10
15111.30003186734
 20
5968.362935220169
 30
0.0
 40
1.0
100
AcDbArc
 50
180.0
 51
270.0
  0
LINE
  5
4D00
330
19
100
AcDbEntity
  8
1
100
AcDbLine
 10
15108.30003186734
 20
5974.36293522017
 30
0.0
 11
15080.59933020791
 21
5974.362935220169
 31
0.0
  0
ARC
  5
4D01
330
19
100
AcDbEntity
  8
FUTO
100
AcDbCircle
 10
14941.30003186733
 20
5952.362935220168
 30
0.0
 40
15.0
100
AcDbArc
 50
90.0
 51
180.0
  0
ARC
  5
4D02
330
19
100
AcDbEntity
  8
FUTO
100
AcDbCircle
 10
14931.30003186733
 20
5962.36293522017
 30
0.0
 40
25.0
100
AcDbArc
 50
89.99999999999586
 51
180.0000000000021
  0
ARC
  5
4D03
330
19
100
AcDbEntity
  8
1
100
AcDbCircle
 10
14744.30003186734
 20
5968.362935220169
 30
0.0
 40
1.0
100
AcDbArc
 50
270.0
 51
0.000000000000007
  0
LINE
  5
4D04
330
19
100
AcDbEntity
  8
1
100
AcDbLine
 10
14745.30003186734
 20
5968.362935220169
 30
0.0
 11
14745.30003186734
 21
5974.362935220169
 31
0.0
  0
LINE
  5
4D05
330
19
100
AcDbEntity
  8
1
100
AcDbLine
 10
14746.30003186734
 20
5967.362935220169
 30
0.0
 11
14746.30003186734
 21
5973.362935220169
 31
0.0
  0
ARC
  5
4D06
330
19
100
AcDbEntity
  8
1
100
AcDbCircle
 10
14746.30003186734
 20
5974.362935220169
 30
0.0
 40
1.0
100
AcDbArc
 50
89.99999999999998
 51
180.0
  0
ARC
  5
4D07
330
19
100
AcDbEntity
  8
1
100
AcDbCircle
 10
14747.30003186734
 20
5973.362935220169
 30
0.0
 40
1.0
100
AcDbArc
 50
89.99999999999998
 51
180.0
  0
ARC
  5
4D08
330
19
100
AcDbEntity
  8
1
100
AcDbCircle
 10
14746.30003186734
 20
5974.362935220169
 30
0.0
 40
1.0
100
AcDbArc
 50
89.99999999999998
 51
180.0
  0
LINE
  5
4D09
330
19
100
AcDbEntity
  8
1
100
AcDbLine
 10
14747.30003186734
 20
5974.362935220169
 30
0.0
 11
14775.00073352677
 21
5974.362935220169
 31
0.0
  0
ARC
  5
4D0A
330
19
100
AcDbEntity
  8
1
100
AcDbCircle
 10
14719.80003186734
 20
5952.362935220168
 30
0.0
 40
15.0
100
AcDbArc
 50
90.0
 51
180.0
  0
LINE
  5
57A7
330
19
100
AcDbEntity
  8
FUTO
100
AcDbLine
 10
14677.80003186735
 20
4147.635294509082
 30
0.0
 11
15177.80003186734
 21
4147.635294509082
 31
0.0
  0
LINE
  5
57A8
330
19
100
AcDbEntity
  8
1
100
AcDbLine
 10
14677.80003186735
 20
4149.935294509081
 30
0.0
 11
14715.50003186736
 21
4149.935294509081
 31
0.0
  0
LINE
  5
57A9
330
19
100
AcDbEntity
  8
1
100
AcDbLine
 10
14677.80003186735
 20
4149.935294509081
 30
0.0
 11
14677.80003186735
 21
4147.635294509082
 31
0.0
  0
LINE
  5
57AA
330
19
100
AcDbEntity
  8
2
100
AcDbLine
 10
14695.80003186734
 20
4138.731282845248
 30
0.0
 11
14695.80003186734
 21
4161.139306172914
 31
0.0
  0
LINE
  5
57AB
330
19
100
AcDbEntity
  8
1
100
AcDbLine
 10
15177.80003186734
 20
4149.935294509081
 30
0.0
 11
15140.10003186733
 21
4149.935294509081
 31
0.0
  0
LINE
  5
57AC
330
19
100
AcDbEntity
  8
1
100
AcDbLine
 10
15177.80003186734
 20
4149.935294509081
 30
0.0
 11
15177.80003186734
 21
4147.635294509082
 31
0.0
  0
LINE
  5
57AD
330
19
100
AcDbEntity
  8
2
100
AcDbLine
 10
15159.80003186735
 20
4138.731282845248
 30
0.0
 11
15159.80003186735
 21
4161.139306172914
 31
0.0
  0
LINE
  5
57AE
330
19
100
AcDbEntity
  8
1
100
AcDbLine
 10
15140.10003186733
 20
4585.735294509082
 30
0.0
 11
15140.10003186733
 21
4149.93529450908
 31
0.0
  0
LINE
  5
57AF
330
19
100
AcDbEntity
  8
1
100
AcDbLine
 10
15137.80003186733
 20
4587.557616667709
 30
0.0
 11
15137.80003186734
 21
4147.635294509082
 31
0.0
  0
LINE
  5
57B0
330
19
100
AcDbEntity
  8
1
100
AcDbLine
 10
15097.80003186734
 20
4402.635294509082
 30
0.0
 11
15097.80003186734
 21
4202.635294509081
 31
0.0
  0
LINE
  5
57B1
330
19
100
AcDbEntity
  8
1
100
AcDbLine
 10
15137.80003186734
 20
4202.635294509081
 30
0.0
 11
15097.80003186734
 21
4202.635294509081
 31
0.0
  0
LINE
  5
57B2
330
19
100
AcDbEntity
  8
1
100
AcDbLine
 10
14717.80003186736
 20
4587.557616667709
 30
0.0
 11
14717.80003186735
 21
4147.635294509082
 31
0.0
  0
LINE
  5
57B3
330
19
100
AcDbEntity
  8
1
100
AcDbLine
 10
14715.50003186736
 20
4585.735294509082
 30
0.0
 11
14715.50003186736
 21
4149.93529450908
 31
0.0
  0
LINE
  5
57B4
330
19
100
AcDbEntity
  8
1
100
AcDbLine
 10
14757.80003186735
 20
4402.635294509082
 30
0.0
 11
14757.80003186735
 21
4202.635294509081
 31
0.0
  0
LINE
  5
57B5
330
19
100
AcDbEntity
  8
1
100
AcDbLine
 10
14717.80003186735
 20
4202.635294509081
 30
0.0
 11
14757.80003186735
 21
4202.635294509081
 31
0.0
  0
LINE
  5
57B6
330
19
100
AcDbEntity
  8
1
100
AcDbLine
 10
14717.80003186735
 20
4402.635294509082
 30
0.0
 11
15137.80003186734
 21
4402.635294509081
 31
0.0
  0
LINE
  5
57B7
330
19
100
AcDbEntity
  8
1
100
AcDbLine
 10
14757.80003186735
 20
4362.635294509082
 30
0.0
 11
14927.80003186735
 21
4362.635294509082
 31
0.0
  0
LINE
  5
57B8
330
19
100
AcDbEntity
  8
FUTO
100
AcDbLine
 10
14717.80003186735
 20
4402.635294509082
 30
0.0
 11
14757.80003186735
 21
4362.635294509082
 31
0.0
  0
LINE
  5
57B9
330
19
100
AcDbEntity
  8
FUTO
100
AcDbLine
 10
15137.80003186734
 20
4402.635294509082
 30
0.0
 11
15097.80003186734
 21
4362.635294509082
 31
0.0
  0
LINE
  5
57BA
330
19
100
AcDbEntity
  8
1
100
AcDbLine
 10
15097.80003186734
 20
4362.635294509082
 30
0.0
 11
14927.80003186735
 21
4362.635294509082
 31
0.0
  0
LINE
  5
57BB
330
19
100
AcDbEntity
  8
1
100
AcDbLine
 10
15017.80003186734
 20
4707.635294509082
 30
0.0
 11
15140.10003186733
 21
4585.735294509082
 31
0.0
  0
LINE
  5
57BC
330
19
100
AcDbEntity
  8
1
100
AcDbLine
 10
14837.80003186734
 20
4707.635294509082
 30
0.0
 11
14715.50003186736
 21
4585.735294509082
 31
0.0
  0
LINE
  5
57BD
330
19
100
AcDbEntity
  8
1
100
AcDbLine
 10
14837.80003186734
 20
4707.635294509084
 30
0.0
 11
15017.80003186734
 21
4707.635294509082
 31
0.0
  0
DIMENSION
  5
57BE
330
19
100
AcDbEntity
  8
SP
100
AcDbDimension
  2
*D19
 10
14677.80003186735
 20
4042.635294509084
 30
0.0
 11
14802.80003186735
 21
4080.135294509084
 31
0.0
 70
    32
 71
     5
 42
249.9999999999927
  3
GOD
100
AcDbAlignedDimension
 13
14927.80003186735
 23
4117.479113442421
 33
0.0
 14
14677.80003186735
 24
4147.635294509082
 34
0.0
100
AcDbRotatedDimension
  0
DIMENSION
  5
57BF
330
19
100
AcDbEntity
  8
SP
100
AcDbDimension
  2
*D20
 10
15177.80003186735
 20
3937.635294509082
 30
0.0
 11
14927.80003186735
 21
3975.135294509082
 31
0.0
 70
    32
 71
     5
 42
499.9999999999982
  3
GOD
100
AcDbAlignedDimension
 13
14677.80003186735
 23
4147.635294509082
 33
0.0
 14
15177.80003186735
 24
4147.635294509082
 34
0.0
100
AcDbRotatedDimension
  0
DIMENSION
  5
57C0
330
19
100
AcDbEntity
  8
SP
100
AcDbDimension
  2
*D21
 10
15177.80003186735
 20
4042.635294509084
 30
0.0
 11
15052.80003186735
 21
4080.135294509084
 31
0.0
 70
    32
 71
     5
 42
250.0000000000055
  3
GOD
100
AcDbAlignedDimension
 13
14927.80003186735
 23
4117.479113442421
 33
0.0
 14
15177.80003186735
 24
4147.635294509082
 34
0.0
100
AcDbRotatedDimension
  0
LINE
  5
5968
330
19
100
AcDbEntity
  8
1
100
AcDbLine
 10
14677.80003186734
 20
5422.362935220169
 30
0.0
 11
14677.80003186734
 21
5732.36293522018
 31
0.0
  0
LINE
  5
5969
330
19
100
AcDbEntity
  8
1
100
AcDbLine
 10
14717.80003186734
 20
5422.362935220169
 30
0.0
 11
14717.80003186734
 21
5732.36293522018
 31
0.0
  0
LINE
  5
596A
330
19
100
AcDbEntity
  8
1
100
AcDbLine
 10
14717.80003186734
 20
5732.36293522018
 30
0.0
 11
14677.80003186734
 21
5732.36293522018
 31
0.0
  0
LINE
  5
596B
330
19
100
AcDbEntity
  8
CT
100
AcDbLine
 10
14680.1077436707
 20
5702.362935220168
 30
0.0
 11
14710.80003186734
 21
5702.362935220168
 31
0.0
  0
CIRCLE
  5
596C
330
19
100
AcDbEntity
  8
1
100
AcDbCircle
 10
14695.80003186734
 20
5702.362935220168
 30
0.0
 40
6.0
  0
LINE
  5
596D
330
19
100
AcDbEntity
  8
CT
100
AcDbLine
 10
14695.80003186734
 20
5718.497643102718
 30
0.0
 11
14695.80003186734
 21
5682.830563598277
 31
0.0
  0
LWPOLYLINE
  5
596E
330
19
100
AcDbEntity
  8
1
100
AcDbPolyline
 90
        2
 70
     0
 43
0.0
 10
14717.80003186734
 20
5722.866971870885
 10
14913.20003186734
 20
5722.866971870885
  0
LWPOLYLINE
  5
596F
330
19
100
AcDbEntity
  8
1
100
AcDbPolyline
 90
        2
 70
     0
 43
0.0
 10
14717.80003186734
 20
5470.762935220171
 10
14834.06402515406
 20
5470.762935220171
  0
LINE
  5
5970
330
19
100
AcDbEntity
  8
CT
100
AcDbLine
 10
14695.80003186734
 20
5468.497643102718
 30
0.0
 11
14695.80003186734
 21
5432.830563598277
 31
0.0
  0
LINE
  5
5971
330
19
100
AcDbEntity
  8
1
100
AcDbLine
 10
14677.80003186734
 20
5422.362935220169
 30
0.0
 11
14717.80003186734
 21
5422.362935220169
 31
0.0
  0
CIRCLE
  5
5972
330
19
100
AcDbEntity
  8
1
100
AcDbCircle
 10
14695.80003186734
 20
5452.362935220168
 30
0.0
 40
6.0
  0
LINE
  5
5973
330
19
100
AcDbEntity
  8
CT
100
AcDbLine
 10
14680.1077436707
 20
5452.362935220168
 30
0.0
 11
14710.80003186734
 21
5452.362935220168
 31
0.0
  0
LWPOLYLINE
  5
5974
330
19
100
AcDbEntity
  8
1
100
AcDbPolyline
 90
        2
 70
     0
 43
0.0
 10
15021.53603858061
 20
5470.762935220171
 10
15137.80003186734
 20
5470.762935220168
  0
LINE
  5
5975
330
19
100
AcDbEntity
  8
CT
100
AcDbLine
 10
15159.80003186734
 20
5468.497643102718
 30
0.0
 11
15159.80003186734
 21
5432.830563598277
 31
0.0
  0
LINE
  5
5976
330
19
100
AcDbEntity
  8
1
100
AcDbLine
 10
15137.80003186734
 20
5422.362935220172
 30
0.0
 11
15177.80003186734
 21
5422.362935220169
 31
0.0
  0
LINE
  5
5977
330
19
100
AcDbEntity
  8
CT
100
AcDbLine
 10
15175.49232006398
 20
5452.362935220168
 30
0.0
 11
15144.80003186734
 21
5452.362935220168
 31
0.0
  0
CIRCLE
  5
5978
330
19
100
AcDbEntity
  8
1
100
AcDbCircle
 10
15159.80003186734
 20
5452.362935220168
 30
0.0
 40
6.0
  0
LINE
  5
5979
330
19
100
AcDbEntity
  8
1
100
AcDbLine
 10
15177.80003186734
 20
5422.362935220169
 30
0.0
 11
15177.80003186734
 21
5732.362935220169
 31
0.0
  0
LINE
  5
597A
330
19
100
AcDbEntity
  8
1
100
AcDbLine
 10
15137.80003186734
 20
5422.362935220169
 30
0.0
 11
15137.80003186734
 21
5732.362935220169
 31
0.0
  0
CIRCLE
  5
597B
330
19
100
AcDbEntity
  8
1
100
AcDbCircle
 10
15159.80003186734
 20
5702.362935220168
 30
0.0
 40
6.0
  0
LINE
  5
597C
330
19
100
AcDbEntity
  8
CT
100
AcDbLine
 10
15159.80003186734
 20
5718.497643102718
 30
0.0
 11
15159.80003186734
 21
5682.830563598277
 31
0.0
  0
LINE
  5
597D
330
19
100
AcDbEntity
  8
FUTO
100
AcDbLine
 10
15137.80003186734
 20
5732.362935220169
 30
0.0
 11
15177.80003186734
 21
5732.362935220169
 31
0.0
  0
LWPOLYLINE
  5
597E
330
19
100
AcDbEntity
  8
1
100
AcDbPolyline
 90
        2
 70
     0
 43
0.0
 10
14942.39993186734
 20
5722.866971870885
 10
15137.80003186734
 20
5722.866971870885
  0
LINE
  5
597F
330
19
100
AcDbEntity
  8
CT
100
AcDbLine
 10
15175.49232006398
 20
5702.362935220168
 30
0.0
 11
15144.80003186734
 21
5702.362935220168
 31
0.0
  0
LINE
  5
59D6
330
19
100
AcDbEntity
  8
FUTO
100
AcDbLine
 10
16299.37511013998
 20
4660.13529450908
 30
0.0
 11
16291.37511013998
 21
4660.13529450908
 31
0.0
  0
LINE
  5
59D7
330
19
100
AcDbEntity
  8
FUTO
100
AcDbLine
 10
16299.37511013998
 20
4345.13529450908
 30
0.0
 11
16291.37511013998
 21
4345.13529450908
 31
0.0
  0
LINE
  5
59D8
330
19
100
AcDbEntity
  8
1
100
AcDbLine
 10
16080.37511013998
 20
4239.404012875247
 30
0.0
 11
16276.37511013998
 21
4239.404012875247
 31
0.0
  0
ARC
  5
59DA
330
19
100
AcDbEntity
  8
1
100
AcDbCircle
 10
16080.37511013998
 20
4253.404012875248
 30
0.0
 40
14.0
100
AcDbArc
 50
179.9999999999995
 51
270.0
  0
LINE
  5
59DB
330
19
100
AcDbEntity
  8
1
100
AcDbLine
 10
16290.37511013998
 20
4752.635294509084
 30
0.0
 11
16290.37511013998
 21
4253.404012875248
 31
0.0
  0
LINE
  5
59DC
330
19
100
AcDbEntity
  8
1
100
AcDbLine
 10
16291.37511013998
 20
4752.635294509084
 30
0.0
 11
16291.37511013998
 21
4253.404012875248
 31
0.0
  0
ARC
  5
59DD
330
19
100
AcDbEntity
  8
1
100
AcDbCircle
 10
16276.37511013998
 20
4253.404012875248
 30
0.0
 40
14.0
100
AcDbArc
 50
270.0
 51
0.0000000000005159
  0
ARC
  5
59DE
330
19
100
AcDbEntity
  8
1
100
AcDbCircle
 10
16276.37511013998
 20
4253.404012875248
 30
0.0
 40
15.0
100
AcDbArc
 50
270.0
 51
0.0000000000005159
  0
DIMENSION
  5
59DF
330
19
100
AcDbEntity
  8
SP
100
AcDbDimension
  2
*D22
 10
16420.8045133158
 20
4345.135294509082
 30
0.0
 11
16383.30451331579
 21
4502.635294509076
 31
0.0
 70
    32
 71
     5
 42
315.0
  3
GOD
100
AcDbAlignedDimension
 13
16299.37511013998
 23
4660.13529450908
 33
0.0
 14
16299.37511013998
 24
4345.13529450908
 34
0.0
 50
90.0
100
AcDbRotatedDimension
1001
ACAD
1000
DSTYLE
1002
{
1070
     3
1000
\U+03C6<>
1002
}
  0
LINE
  5
5B27
330
19
100
AcDbEntity
  8
1
100
AcDbLine
 10
16056.37511013998
 20
4697.953405346608
 30
0.0
 11
15874.81312693203
 21
4502.635294509082
 31
0.0
  0
LINE
  5
5B4C
330
19
100
AcDbEntity
  8
1
100
AcDbLine
 10
16057.37511013998
 20
4321.135294509081
 30
0.0
 11
16057.37511013998
 21
4684.135294509081
 31
0.0
  0
DIMENSION
  5
5B4D
330
19
100
AcDbEntity
  8
SP
100
AcDbDimension
  2
*D29
 10
15757.37511014097
 20
4962.635294509084
 30
0.0
 11
15967.87511014047
 21
5011.921008794798
 31
0.0
 70
    32
  1
(420)
 71
     5
 42
420.9999999990104
  3
GOD
100
AcDbAlignedDimension
 13
16178.37511013998
 23
4917.75139915572
 33
0.0
 14
15757.37511014097
 24
4586.216234822138
 34
0.0
100
AcDbRotatedDimension
1001
ACAD
1000
DSTYLE
1002
{
1070
   279
1070
     1
1002
}
  0
DIMENSION
  5
5B5A
330
19
100
AcDbEntity
  8
SP
100
AcDbDimension
  2
*D30
 10
16178.37511013998
 20
4042.635294509083
 30
0.0
 11
16299.69696054081
 21
4039.017439122647
 31
0.0
 70
   160
 71
     5
 42
122.0000000000018
  3
GOD
100
AcDbAlignedDimension
 13
16056.37511013998
 23
4147.635294509083
 33
0.0
 14
16178.37511013998
 24
4195.689360228545
 34
0.0
100
AcDbRotatedDimension
1001
ACAD
1000
DSTYLE
1002
{
1070
   279
1070
     1
1002
}
  0
ENDSEC
  0
SECTION
  2
OBJECTS
  0
DICTIONARY
  5
C
330
0
100
AcDbDictionary
281
     1
  3
ACAD_CIP_PREVIOUS_PRODUCT_INFO
350
5A53
  3
ACAD_COLOR
350
5A35
  3
ACAD_DETAILVIEWSTYLE
350
5A4E
  3
ACAD_GROUP
350
D
  3
ACAD_LAYOUT
350
1E92
  3
ACAD_MATERIAL
350
5A03
  3
ACAD_MLEADERSTYLE
350
5A4A
  3
ACAD_MLINESTYLE
350
E
  3
ACAD_PLOTSETTINGS
350
1E93
  3
ACAD_PLOTSTYLENAME
350
1E90
  3
ACAD_SCALELIST
350
5A38
  3
ACAD_SECTIONVIEWSTYLE
350
5A4C
  3
ACAD_TABLESTYLE
350
5A36
  3
ACAD_VISUALSTYLE
350
5A1C
  3
AcadDim
350
1EC5
  3
ACDB_RECOMPOSE_DATA
350
5BDC
  3
AcDbVariableDictionary
350
5BC6
  3
AcDsDecomposeData
350
5BE3
  3
DWGPROPS
350
5BDD
  0
DICTIONARY
  5
5BB4
330
2
100
AcDbDictionary
280
     1
281
     1
  3
ACAD_LAYERSTATES
360
5BB5
  0
DICTIONARY
  5
5B99
330
F
100
AcDbDictionary
280
     1
281
     1
  3
ADSK_XREC_LAYER_RECONCILED
360
5B9A
  0
DICTIONARY
  5
5B9B
330
2F
100
AcDbDictionary
280
     1
281
     1
  3
ADSK_XREC_LAYER_RECONCILED
360
5B9C
  0
DICTIONARY
  5
5B9D
330
30
100
AcDbDictionary
280
     1
281
     1
  3
ADSK_XREC_LAYER_RECONCILED
360
5B9E
  0
DICTIONARY
  5
5B9F
330
32
100
AcDbDictionary
280
     1
281
     1
  3
ADSK_XREC_LAYER_RECONCILED
360
5BA0
  0
DICTIONARY
  5
5BA1
330
33
100
AcDbDictionary
280
     1
281
     1
  3
ADSK_XREC_LAYER_RECONCILED
360
5BA2
  0
DICTIONARY
  5
5BA3
330
34
100
AcDbDictionary
280
     1
281
     1
  3
ADSK_XREC_LAYER_RECONCILED
360
5BA4
  0
DICTIONARY
  5
5BA5
330
35
100
AcDbDictionary
280
     1
281
     1
  3
ADSK_XREC_LAYER_RECONCILED
360
5BA6
  0
DICTIONARY
  5
5BA7
330
36
100
AcDbDictionary
280
     1
281
     1
  3
ADSK_XREC_LAYER_RECONCILED
360
5BA8
  0
DICTIONARY
  5
5BA9
330
1EEE
100
AcDbDictionary
280
     1
281
     1
  3
ADSK_XREC_LAYER_RECONCILED
360
5BAA
  0
DICTIONARY
  5
5BAB
330
1EEF
100
AcDbDictionary
280
     1
281
     1
  3
ADSK_XREC_LAYER_RECONCILED
360
5BAC
  0
DICTIONARY
  5
5BAD
330
1EF0
100
AcDbDictionary
280
     1
281
     1
  3
ADSK_XREC_LAYER_RECONCILED
360
5BAE
  0
DICTIONARY
  5
5BAF
330
2188
100
AcDbDictionary
280
     1
281
     1
  3
ADSK_XREC_LAYER_RECONCILED
360
5BB0
  0
DICTIONARY
  5
5B28
330
19
100
AcDbDictionary
280
     1
281
     1
  3
ACAD_SORTENTS
360
5B29
  0
XRECORD
  5
5A53
102
{ACAD_REACTORS
330
C
102
}
330
C
100
AcDbXrecord
280
     1
300
ACDLT
300
2015
300
INVLTS_F_S
  0
DICTIONARY
  5
5A35
102
{ACAD_REACTORS
330
C
102
}
330
C
100
AcDbDictionary
281
     1
  0
DICTIONARY
  5
5A4E
102
{ACAD_REACTORS
330
C
102
}
330
C
100
AcDbDictionary
281
     1
  3
Metric50
350
5A4F
  0
DICTIONARY
  5
D
102
{ACAD_REACTORS
330
C
102
}
330
C
100
AcDbDictionary
281
     1
  0
DICTIONARY
  5
1E92
102
{ACAD_REACTORS
330
C
102
}
330
C
100
AcDbDictionary
281
     1
  3
Model
350
1E94
  3
ﾚｲｱｳﾄ1
350
1E95
  0
DICTIONARY
  5
5A03
102
{ACAD_REACTORS
330
C
102
}
330
C
100
AcDbDictionary
281
     1
  3
ByBlock
350
5A0C
  3
ByLayer
350
5A04
  3
Global
350
5A14
  0
DICTIONARY
  5
5A4A
102
{ACAD_REACTORS
330
C
102
}
330
C
100
AcDbDictionary
281
     1
  3
Standard
350
5A4B
  0
DICTIONARY
  5
E
102
{ACAD_REACTORS
330
C
102
}
330
C
100
AcDbDictionary
281
     1
  3
STANDARD
350
1C
  0
DICTIONARY
  5
1E93
102
{ACAD_REACTORS
330
C
102
}
330
C
100
AcDbDictionary
281
     1
  0
ACDBDICTIONARYWDFLT
  5
1E90
102
{ACAD_REACTORS
330
C
102
}
330
C
100
AcDbDictionary
281
     1
  3
Normal
350
1E91
100
AcDbDictionaryWithDefault
340
1E91
  0
DICTIONARY
  5
5A38
102
{ACAD_REACTORS
330
C
102
}
330
C
100
AcDbDictionary
281
     1
  3
A0
350
5A39
  3
A1
350
5A3A
  3
A2
350
5A3B
  3
A3
350
5A3C
  3
A4
350
5A3D
  3
A5
350
5A3E
  3
A6
350
5A3F
  3
A7
350
5A40
  3
A8
350
5A41
  3
A9
350
5A42
  3
B0
350
5A43
  3
B1
350
5A44
  3
B2
350
5A45
  3
B3
350
5A46
  3
B4
350
5A47
  3
B5
350
5A48
  3
B6
350
5A49
  0
DICTIONARY
  5
5A4C
102
{ACAD_REACTORS
330
C
102
}
330
C
100
AcDbDictionary
281
     1
  3
Metric50
350
5A4D
  0
DICTIONARY
  5
5A36
102
{ACAD_REACTORS
330
C
102
}
330
C
100
AcDbDictionary
281
     1
  3
Standard
350
5A37
  0
DICTIONARY
  5
5A1C
102
{ACAD_REACTORS
330
C
102
}
330
C
100
AcDbDictionary
281
     1
  3
2dWireframe
350
5A22
  3
Basic
350
5A21
  3
Brighten
350
5A28
  3
ColorChange
350
5A2C
  3
Conceptual
350
5A25
  3
Dim
350
5A27
  3
EdgeColorOff
350
5A34
  3
Facepattern
350
5A2B
  3
Flat
350
5A1D
  3
FlatWithEdges
350
5A1E
  3
Gouraud
350
5A1F
  3
GouraudWithEdges
350
5A20
  3
Hidden
350
5A24
  3
JitterOff
350
5A32
  3
Linepattern
350
5A2A
  3
OverhangOff
350
5A33
  3
Realistic
350
5A26
  3
Shaded
350
5A31
  3
Shaded with edges
350
5A30
  3
Shades of Gray
350
5A2D
  3
Sketchy
350
5A2E
  3
Thicken
350
5A29
  3
Wireframe
350
5A23
  3
X-Ray
350
5A2F
  0
XRECORD
  5
1EC5
102
{ACAD_REACTORS
330
C
102
}
330
C
100
AcDbXrecord
280
     1
 90
   990106
  3

 60
     0
 61
     0
 62
     4
 63
     4
 64
     1
 65
     0
 66
     1
 67
     3
 68
     1
 69
     0
 70
     0
 71
     0
 72
     0
 40
0.0
170
     1
340
0
  0
XRECORD
  5
5BDC
102
{ACAD_REACTORS
330
C
102
}
330
C
100
AcDbXrecord
280
     1
 90
        1
330
5A37
  0
DICTIONARY
  5
5BC6
102
{ACAD_REACTORS
330
C
102
}
330
C
100
AcDbDictionary
281
     1
  3
CANNOSCALE
350
5BCC
  3
CMLEADERSTYLE
350
5BC8
  3
CTABLESTYLE
350
5BC7
  3
CVIEWDETAILSTYLE
350
5BC9
  3
CVIEWSECTIONSTYLE
350
5BCA
  3
DIMASSOC
350
5BD8
  3
INDEXCTL
350
5BD7
  3
LAYEREVAL
350
5BCE
  3
LAYERNOTIFY
350
5BCF
  3
LIGHTINGUNITS
350
5BCD
  3
MSLTSCALE
350
5BCB
  3
SORTENTS
350
5BD6
  3
XCLIPFRAME
350
5BD9
  0
DICTIONARY
  5
5BE3
102
{ACAD_REACTORS
330
C
102
}
330
C
100
AcDbDictionary
281
     1
  3
AcDsRecords
350
5BE5
  3
AcDsSchemas
350
5BE4
1001
ACAD
1070
     2
  0
XRECORD
  5
5BDD
102
{ACAD_REACTORS
330
C
102
}
330
C
100
AcDbXrecord
280
     1
  1
DWGPROPS COOKIE
  2

  3

  4

  6

  7

  8
toshiyuki.morita
  9

300
=
301
=
302
=
303
=
304
=
305
=
306
=
307
=
308
=
309
=
 40
0.1450525925925926
 41
2454939.604632489
 42
2459353.580094815
  1

 90
        0
  0
DICTIONARY
  5
5BB5
102
{ACAD_REACTORS
330
5BB4
102
}
330
5BB4
100
AcDbDictionary
281
     1
  0
XRECORD
  5
5B9A
102
{ACAD_REACTORS
330
5B99
102
}
330
5B99
100
AcDbXrecord
280
     1
290
     1
  0
XRECORD
  5
5B9C
102
{ACAD_REACTORS
330
5B9B
102
}
330
5B9B
100
AcDbXrecord
280
     1
290
     1
  0
XRECORD
  5
5B9E
102
{ACAD_REACTORS
330
5B9D
102
}
330
5B9D
100
AcDbXrecord
280
     1
290
     1
  0
XRECORD
  5
5BA0
102
{ACAD_REACTORS
330
5B9F
102
}
330
5B9F
100
AcDbXrecord
280
     1
290
     1
  0
XRECORD
  5
5BA2
102
{ACAD_REACTORS
330
5BA1
102
}
330
5BA1
100
AcDbXrecord
280
     1
290
     1
  0
XRECORD
  5
5BA4
102
{ACAD_REACTORS
330
5BA3
102
}
330
5BA3
100
AcDbXrecord
280
     1
290
     1
  0
XRECORD
  5
5BA6
102
{ACAD_REACTORS
330
5BA5
102
}
330
5BA5
100
AcDbXrecord
280
     1
290
     1
  0
XRECORD
  5
5BA8
102
{ACAD_REACTORS
330
5BA7
102
}
330
5BA7
100
AcDbXrecord
280
     1
290
     1
  0
XRECORD
  5
5BAA
102
{ACAD_REACTORS
330
5BA9
102
}
330
5BA9
100
AcDbXrecord
280
     1
290
     1
  0
XRECORD
  5
5BAC
102
{ACAD_REACTORS
330
5BAB
102
}
330
5BAB
100
AcDbXrecord
280
     1
290
     1
  0
XRECORD
  5
5BAE
102
{ACAD_REACTORS
330
5BAD
102
}
330
5BAD
100
AcDbXrecord
280
     1
290
     1
  0
XRECORD
  5
5BB0
102
{ACAD_REACTORS
330
5BAF
102
}
330
5BAF
100
AcDbXrecord
280
     1
290
     1
  0
SORTENTSTABLE
  5
5B29
102
{ACAD_REACTORS
330
5B28
102
}
330
5B28
100
AcDbSortentsTable
330
19
331
596C
  5
596D
331
5968
  5
5969
331
4CE4
  5
4CE5
331
4CA5
  5
4CA6
331
4CE0
  5
4CE1
331
4CDC
  5
4CDD
331
5B27
  5
44C7
331
59DF
  5
5A55
331
59DB
  5
59DC
331
4CD4
  5
4CD9
331
4D07
  5
4D08
331
4691
  5
4CA3
331
4D03
  5
4D04
331
4CCC
  5
4CCD
331
4CC8
  5
4CC9
331
59D7
  5
59D8
331
57BD
  5
57BE
331
597F
  5
59D6
331
57B9
  5
57BA
331
4CFF
  5
4D00
331
597B
  5
597C
331
57B5
  5
57B6
331
4CFB
  5
4CFC
331
4CC4
  5
4CC6
331
57B1
  5
57B2
331
4CF7
  5
4CF8
331
4CC0
  5
4CC1
331
4CF3
  5
4CF4
331
44D6
  5
44D8
331
5977
  5
5978
331
5973
  5
5974
331
57AD
  5
57AE
331
4CB0
  5
4CB1
331
44CE
  5
44CF
331
57A9
  5
57AA
331
4CAC
  5
4CAF
331
44CA
  5
44CB
331
4CA8
  5
4CA9
331
596F
  5
5970
331
596B
  5
596C
331
4CE3
  5
4CE4
331
4CA4
  5
4CA5
331
4CDF
  5
4CE0
331
4CDB
  5
4CDC
331
59DE
  5
59DF
331
59DA
  5
59DB
331
4D0A
  5
57A7
331
4CD3
  5
4CD4
331
57C0
  5
5968
331
4D06
  5
4D07
331
4CCF
  5
4CD1
331
4D02
  5
4D03
331
4CCB
  5
4CCC
331
59D6
  5
59D7
331
57BC
  5
57BD
331
597E
  5
597F
331
57B8
  5
57B9
331
4CFE
  5
4CFF
331
4CC7
  5
4CC8
331
597A
  5
597B
331
57B4
  5
57B5
331
4CFA
  5
4CFB
331
4CC3
  5
4CC4
331
57B0
  5
57B1
331
4CF6
  5
4CF7
331
4CBF
  5
4CC0
331
4CF2
  5
4CF3
331
4CBB
  5
4CBF
331
44D9
  5
4691
331
5976
  5
5977
331
4CB7
  5
4CB9
331
5972
  5
5973
331
57AC
  5
57AD
331
4CAF
  5
4CB0
331
44CD
  5
44CE
331
57A8
  5
57A9
331
4CAB
  5
4CAC
331
44C9
  5
44CA
331
596E
  5
596F
331
596A
  5
596B
331
4CA7
  5
4CA8
331
4CE2
  5
4CE3
331
4CA3
  5
4CA4
331
4CDE
  5
4CDF
331
4CDA
  5
4CDB
331
59DD
  5
59DE
331
4D09
  5
4D0A
331
4CD2
  5
4CD3
331
4D05
  5
4D06
331
4CCE
  5
4CCF
331
4D01
  5
4D02
331
4CCA
  5
4CCB
331
57BF
  5
57C0
331
57BB
  5
57BC
331
597D
  5
597E
331
57B7
  5
57B8
331
4CFD
  5
4CFE
331
4CC6
  5
4CC7
331
5979
  5
597A
331
57B3
  5
57B4
331
4CF9
  5
4CFA
331
4CC2
  5
4CC3
331
4CF5
  5
4CF6
331
4CBA
  5
4CBB
331
44D8
  5
44D9
331
44D4
  5
44D6
331
5975
  5
5976
331
4CB6
  5
4CB7
331
5971
  5
5972
331
57AF
  5
57B0
331
4CB2
  5
4CB6
331
57AB
  5
57AC
331
4CED
  5
4CF2
331
44CC
  5
44CD
331
4CAA
  5
4CAB
331
44C8
  5
44C9
331
596D
  5
596E
331
5969
  5
596A
331
57A7
  5
57A8
331
4CE5
  5
4CED
331
4CA6
  5
4CA7
331
4CE1
  5
4CE2
331
4CDD
  5
4CDE
331
4CD9
  5
4CDA
331
59DC
  5
59DD
331
59D8
  5
59DA
331
4D08
  5
4D09
331
4CD1
  5
4CD2
331
4D04
  5
4D05
331
4CCD
  5
4CCE
331
4D00
  5
4D01
331
4CC9
  5
4CCA
331
57BE
  5
57BF
331
57BA
  5
57BB
331
597C
  5
597D
331
57B6
  5
57B7
331
4CFC
  5
4CFD
331
5978
  5
5979
331
57B2
  5
57B3
331
4CF8
  5
4CF9
331
4CC1
  5
4CC2
331
4CF4
  5
4CF5
331
4CB9
  5
4CBA
331
5974
  5
5975
331
5970
  5
5971
331
57AE
  5
57AF
331
4CB1
  5
4CB2
331
44CF
  5
44D4
331
57AA
  5
57AB
331
44CB
  5
44CC
331
4CA9
  5
4CAA
331
44C7
  5
44C8
  0
ACDBDETAILVIEWSTYLE
  5
5A4F
102
{ACAD_XDICTIONARY
360
5BC4
102
}
102
{ACAD_REACTORS
330
5A4E
102
}
330
5A4E
100
AcDbModelDocViewStyle
 70
     0
  3
Metric50
290
     0
100
AcDbDetailViewStyle
 70
     0
 71
     0
 90
        3
 71
     1
340
10
 40
5.0
340
0
 40
5.0
300

 40
0.0
280
     1
 71
     2
340
15
 90
       25
 71
     3
340
10
 40
5.0
 90
        0
 40
15.0
 90
        1
300
%<\AcVar ViewDetailId>% (%<\AcVar ViewScale \f "%sn">%)
 71
     4
340
15
 90
       25
340
15
 90
       25
280
     0
  0
LAYOUT
  5
1E94
102
{ACAD_XDICTIONARY
360
5BE6
102
}
102
{ACAD_REACTORS
330
1E92
102
}
330
1E92
100
AcDbPlotSettings
  1

  2
EPSON LP-9300
  4

  6

 40
0.0
 41
0.0
 42
0.0
 43
0.0
 44
0.0
 45
0.0
 46
0.0
 47
0.0
 48
0.0
 49
0.0
140
0.0
141
0.0
142
1.0
143
1.0
 70
  1712
 72
     0
 73
     0
 74
     0
  7
GOD2000TABLE.ctb
 75
     0
147
1.0
148
0.0
149
0.0
100
AcDbLayout
  1
Model
 70
     1
 71
     0
 10
0.0
 20
0.0
 11
12.0
 21
9.0
 12
0.0
 22
0.0
 32
0.0
 14
0.0
 24
0.0
 34
0.0
 15
0.0
 25
0.0
 35
0.0
146
0.0
 13
0.0
 23
0.0
 33
0.0
 16
1.0
 26
0.0
 36
0.0
 17
0.0
 27
1.0
 37
0.0
 76
     0
330
19
331
5A01
  0
LAYOUT
  5
1E95
102
{ACAD_XDICTIONARY
360
5BE8
102
}
102
{ACAD_REACTORS
330
1E92
102
}
330
1E92
100
AcDbPlotSettings
  1

  2
EPSON LP-9300
  4

  6

 40
0.0
 41
0.0
 42
0.0
 43
0.0
 44
0.0
 45
0.0
 46
0.0
 47
0.0
 48
0.0
 49
0.0
140
0.0
141
0.0
142
1.0
143
1.0
 70
   688
 72
     0
 73
     0
 74
     5
  7
GOD2000TABLE.ctb
 75
    16
147
1.0
148
0.0
149
0.0
100
AcDbLayout
  1
ﾚｲｱｳﾄ1
 70
     0
 71
     1
 10
0.0
 20
0.0
 11
12.0
 21
9.0
 12
0.0
 22
0.0
 32
0.0
 14
1.000000000000000E+20
 24
1.000000000000000E+20
 34
1.000000000000000E+20
 15
-1.000000000000000E+20
 25
-1.000000000000000E+20
 35
-1.000000000000000E+20
146
0.0
 13
0.0
 23
0.0
 33
0.0
 16
1.0
 26
0.0
 36
0.0
 17
0.0
 27
1.0
 37
0.0
 76
     0
330
16
  0
MATERIAL
  5
5A0C
102
{ACAD_XDICTIONARY
360
5A0D
102
}
102
{ACAD_REACTORS
330
5A03
102
}
330
5A03
100
AcDbMaterial
  1
ByBlock
 72
     0
 43
0.0208333333333333
 43
0.0
 43
0.0
 43
0.0
 43
0.0
 43
0.0208333333333333
 43
0.0
 43
0.0
 43
0.0
 43
0.0
 43
1.0
 43
0.0
 43
0.0
 43
0.0
 43
0.0
 43
1.0
 77
     0
 47
0.0208333333333333
 47
0.0
 47
0.0
 47
0.0
 47
0.0
 47
0.0208333333333333
 47
0.0
 47
0.0
 47
0.0
 47
0.0
 47
1.0
 47
0.0
 47
0.0
 47
0.0
 47
0.0
 47
1.0
171
     0
 49
0.0208333333333333
 49
0.0
 49
0.0
 49
0.0
 49
0.0
 49
0.0208333333333333
 49
0.0
 49
0.0
 49
0.0
 49
0.0
 49
1.0
 49
0.0
 49
0.0
 49
0.0
 49
0.0
 49
1.0
175
     0
142
0.0208333333333333
142
0.0
142
0.0
142
0.0
142
0.0
142
0.0208333333333333
142
0.0
142
0.0
142
0.0
142
0.0
142
1.0
142
0.0
142
0.0
142
0.0
142
0.0
142
1.0
179
     0
144
0.0208333333333333
144
0.0
144
0.0
144
0.0
144
0.0
144
0.0208333333333333
144
0.0
144
0.0
144
0.0
144
0.0
144
1.0
144
0.0
144
0.0
144
0.0
144
0.0
144
1.0
147
0.0208333333333333
147
0.0
147
0.0
147
0.0
147
0.0
147
0.0208333333333333
147
0.0
147
0.0
147
0.0
147
0.0
147
1.0
147
0.0
147
0.0
147
0.0
147
0.0
147
1.0
  0
MATERIAL
  5
5A04
102
{ACAD_XDICTIONARY
360
5A05
102
}
102
{ACAD_REACTORS
330
5A03
102
}
330
5A03
100
AcDbMaterial
  1
ByLayer
 72
     0
 43
0.0208333333333333
 43
0.0
 43
0.0
 43
0.0
 43
0.0
 43
0.0208333333333333
 43
0.0
 43
0.0
 43
0.0
 43
0.0
 43
1.0
 43
0.0
 43
0.0
 43
0.0
 43
0.0
 43
1.0
 77
     0
 47
0.0208333333333333
 47
0.0
 47
0.0
 47
0.0
 47
0.0
 47
0.0208333333333333
 47
0.0
 47
0.0
 47
0.0
 47
0.0
 47
1.0
 47
0.0
 47
0.0
 47
0.0
 47
0.0
 47
1.0
171
     0
 49
0.0208333333333333
 49
0.0
 49
0.0
 49
0.0
 49
0.0
 49
0.0208333333333333
 49
0.0
 49
0.0
 49
0.0
 49
0.0
 49
1.0
 49
0.0
 49
0.0
 49
0.0
 49
0.0
 49
1.0
175
     0
142
0.0208333333333333
142
0.0
142
0.0
142
0.0
142
0.0
142
0.0208333333333333
142
0.0
142
0.0
142
0.0
142
0.0
142
1.0
142
0.0
142
0.0
142
0.0
142
0.0
142
1.0
179
     0
144
0.0208333333333333
144
0.0
144
0.0
144
0.0
144
0.0
144
0.0208333333333333
144
0.0
144
0.0
144
0.0
144
0.0
144
1.0
144
0.0
144
0.0
144
0.0
144
0.0
144
1.0
147
0.0208333333333333
147
0.0
147
0.0
147
0.0
147
0.0
147
0.0208333333333333
147
0.0
147
0.0
147
0.0
147
0.0
147
1.0
147
0.0
147
0.0
147
0.0
147
0.0
147
1.0
  0
MATERIAL
  5
5A14
102
{ACAD_XDICTIONARY
360
5A15
102
}
102
{ACAD_REACTORS
330
5A03
102
}
330
5A03
100
AcDbMaterial
  1
Global
 72
     0
 43
0.0208333333333333
 43
0.0
 43
0.0
 43
0.0
 43
0.0
 43
0.0208333333333333
 43
0.0
 43
0.0
 43
0.0
 43
0.0
 43
1.0
 43
0.0
 43
0.0
 43
0.0
 43
0.0
 43
1.0
 77
     0
 47
0.0208333333333333
 47
0.0
 47
0.0
 47
0.0
 47
0.0
 47
0.0208333333333333
 47
0.0
 47
0.0
 47
0.0
 47
0.0
 47
1.0
 47
0.0
 47
0.0
 47
0.0
 47
0.0
 47
1.0
171
     0
 49
0.0208333333333333
 49
0.0
 49
0.0
 49
0.0
 49
0.0
 49
0.0208333333333333
 49
0.0
 49
0.0
 49
0.0
 49
0.0
 49
1.0
 49
0.0
 49
0.0
 49
0.0
 49
0.0
 49
1.0
175
     0
142
0.0208333333333333
142
0.0
142
0.0
142
0.0
142
0.0
142
0.0208333333333333
142
0.0
142
0.0
142
0.0
142
0.0
142
1.0
142
0.0
142
0.0
142
0.0
142
0.0
142
1.0
179
     0
144
0.0208333333333333
144
0.0
144
0.0
144
0.0
144
0.0
144
0.0208333333333333
144
0.0
144
0.0
144
0.0
144
0.0
144
1.0
144
0.0
144
0.0
144
0.0
144
0.0
144
1.0
147
0.0208333333333333
147
0.0
147
0.0
147
0.0
147
0.0
147
0.0208333333333333
147
0.0
147
0.0
147
0.0
147
0.0
147
1.0
147
0.0
147
0.0
147
0.0
147
0.0
147
1.0
  0
MLEADERSTYLE
  5
5A4B
102
{ACAD_XDICTIONARY
360
5C1F
102
}
102
{ACAD_REACTORS
330
5A4A
102
}
330
5A4A
100
AcDbMLeaderStyle
170
     2
171
     1
172
     0
 90
        2
 40
0.0
 41
0.0
173
     1
 91
-1056964608
340
13
 92
       -2
290
     1
 42
2.0
291
     1
 43
0.36
  3
Standard
 44
4.0
300

342
10
174
     1
178
     6
175
     1
176
     0
 93
-1056964608
 45
4.0
292
     0
297
     0
 46
4.0
 94
-1056964608
 47
1.0
 49
1.0
140
1.0
293
     1
141
0.0
294
     1
177
     0
142
1.0
295
     0
296
     0
143
0.125
1001
ACAD_MLEADERVER
1070
     2
  0
MLINESTYLE
  5
1C
102
{ACAD_REACTORS
330
E
102
}
330
E
100
AcDbMlineStyle
  2
STANDARD
 70
     0
  3

 62
     0
 51
90.0
 52
90.0
 71
     2
 49
0.5
 62
   256
  6
BYLAYER
 49
-0.5
 62
   256
  6
BYLAYER
  0
ACDBPLACEHOLDER
  5
1E91
102
{ACAD_REACTORS
330
1E90
102
}
330
1E90
  0
SCALE
  5
5A39
102
{ACAD_REACTORS
330
5A38
102
}
330
5A38
100
AcDbScale
 70
     0
300
1:1
140
1.0
141
1.0
290
     1
  0
SCALE
  5
5A3A
102
{ACAD_REACTORS
330
5A38
102
}
330
5A38
100
AcDbScale
 70
     0
300
1:2
140
1.0
141
2.0
290
     0
  0
SCALE
  5
5A3B
102
{ACAD_REACTORS
330
5A38
102
}
330
5A38
100
AcDbScale
 70
     0
300
1:4
140
1.0
141
4.0
290
     0
  0
SCALE
  5
5A3C
102
{ACAD_REACTORS
330
5A38
102
}
330
5A38
100
AcDbScale
 70
     0
300
1:5
140
1.0
141
5.0
290
     0
  0
SCALE
  5
5A3D
102
{ACAD_REACTORS
330
5A38
102
}
330
5A38
100
AcDbScale
 70
     0
300
1:8
140
1.0
141
8.0
290
     0
  0
SCALE
  5
5A3E
102
{ACAD_REACTORS
330
5A38
102
}
330
5A38
100
AcDbScale
 70
     0
300
1:10
140
1.0
141
10.0
290
     0
  0
SCALE
  5
5A3F
102
{ACAD_REACTORS
330
5A38
102
}
330
5A38
100
AcDbScale
 70
     0
300
1:16
140
1.0
141
16.0
290
     0
  0
SCALE
  5
5A40
102
{ACAD_REACTORS
330
5A38
102
}
330
5A38
100
AcDbScale
 70
     0
300
1:20
140
1.0
141
20.0
290
     0
  0
SCALE
  5
5A41
102
{ACAD_REACTORS
330
5A38
102
}
330
5A38
100
AcDbScale
 70
     0
300
1:30
140
1.0
141
30.0
290
     0
  0
SCALE
  5
5A42
102
{ACAD_REACTORS
330
5A38
102
}
330
5A38
100
AcDbScale
 70
     0
300
1:40
140
1.0
141
40.0
290
     0
  0
SCALE
  5
5A43
102
{ACAD_REACTORS
330
5A38
102
}
330
5A38
100
AcDbScale
 70
     0
300
1:50
140
1.0
141
50.0
290
     0
  0
SCALE
  5
5A44
102
{ACAD_REACTORS
330
5A38
102
}
330
5A38
100
AcDbScale
 70
     0
300
1:100
140
1.0
141
100.0
290
     0
  0
SCALE
  5
5A45
102
{ACAD_REACTORS
330
5A38
102
}
330
5A38
100
AcDbScale
 70
     0
300
2:1
140
2.0
141
1.0
290
     0
  0
SCALE
  5
5A46
102
{ACAD_REACTORS
330
5A38
102
}
330
5A38
100
AcDbScale
 70
     0
300
4:1
140
4.0
141
1.0
290
     0
  0
SCALE
  5
5A47
102
{ACAD_REACTORS
330
5A38
102
}
330
5A38
100
AcDbScale
 70
     0
300
8:1
140
8.0
141
1.0
290
     0
  0
SCALE
  5
5A48
102
{ACAD_REACTORS
330
5A38
102
}
330
5A38
100
AcDbScale
 70
     0
300
10:1
140
10.0
141
1.0
290
     0
  0
SCALE
  5
5A49
102
{ACAD_REACTORS
330
5A38
102
}
330
5A38
100
AcDbScale
 70
     0
300
100:1
140
100.0
141
1.0
290
     0
  0
ACDBSECTIONVIEWSTYLE
  5
5A4D
102
{ACAD_XDICTIONARY
360
5BC2
102
}
102
{ACAD_REACTORS
330
5A4C
102
}
330
5A4C
100
AcDbModelDocViewStyle
 70
     0
  3
Metric50
290
     0
100
AcDbSectionViewStyle
 70
     0
 71
     0
 90
      102
 71
     1
340
10
 40
5.0
340
0
340
0
 40
5.0
300
I, O, Q, S, X, Z
 40
10.0
 90
        0
 40
2.5
 90
        0
 71
     2
340
15
 90
       25
340
15
 90
       50
 40
5.0
 40
2.5
 40
5.0
 71
     3
340
10
 40
5.0
 90
        0
 40
15.0
 90
        1
300
%<\AcVar ViewSectionStartId>%-%<\AcVar ViewSectionEndId>% (%<\AcVar ViewScale \f "%sn">%)
 71
     4
300
ANSI31
 40
1.0
 90
        0
290
     0
290
     0
 90
        6
 40
0.0
 40
1.570796326794896
 40
0.2617993877991494
 40
1.308996938995747
 40
-0.2617993877991494
 40
1.832595714594046
  0
TABLESTYLE
  5
5A37
102
{ACAD_XDICTIONARY
360
5BDA
102
}
102
{ACAD_REACTORS
330
5A36
102
}
330
5A36
100
AcDbTableStyle
  3
Standard
 70
     0
 71
     0
 40
1.5
 41
1.5
280
     0
281
     0
  7
STANDARD
140
4.5
170
     2
 62
     0
 63
     7
283
     0
274
    -2
284
     1
 64
     0
275
    -2
285
     1
 65
     0
276
    -2
286
     1
 66
     0
277
    -2
287
     1
 67
     0
278
    -2
288
     1
 68
     0
279
    -2
289
     1
 69
     0
  7
STANDARD
140
6.0
170
     5
 62
     0
 63
     7
283
     0
274
    -2
284
     1
 64
     0
275
    -2
285
     1
 65
     0
276
    -2
286
     1
 66
     0
277
    -2
287
     1
 67
     0
278
    -2
288
     1
 68
     0
279
    -2
289
     1
 69
     0
  7
STANDARD
140
4.5
170
     5
 62
     0
 63
     7
283
     0
274
    -2
284
     1
 64
     0
275
    -2
285
     1
 65
     0
276
    -2
286
     1
 66
     0
277
    -2
287
     1
 67
     0
278
    -2
288
     1
 68
     0
279
    -2
289
     1
 69
     0
  0
VISUALSTYLE
  5
5A22
102
{ACAD_XDICTIONARY
360
5BF7
102
}
102
{ACAD_REACTORS
330
5A1C
102
}
330
5A1C
100
AcDbVisualStyle
  2
2dWireframe
 70
     4
 71
     0
 72
     2
 73
     0
 90
        0
 40
-0.6
 41
-30.0
 62
     5
 63
     7
 74
     1
 91
        4
 64
     7
 65
   257
 75
     1
175
     1
 42
1.0
 92
        0
 66
   257
 43
1.0
 76
     1
 77
     6
 78
     2
 67
     7
 79
     5
170
     0
171
     0
290
     0
174
     0
 93
        1
 44
0.0
173
     0
291
     0
 45
0.0
1001
ACAD
1000
AcDbSavedByObjectVersion
1070
     0
  0
VISUALSTYLE
  5
5A21
102
{ACAD_XDICTIONARY
360
5BF5
102
}
102
{ACAD_REACTORS
330
5A1C
102
}
330
5A1C
100
AcDbVisualStyle
  2
Basic
 70
     7
 71
     1
 72
     0
 73
     1
 90
        0
 40
-0.6
 41
-30.0
 62
     5
 63
     7
 74
     0
 91
        4
 64
     7
 65
   257
 75
     1
175
     1
 42
1.0
 92
        8
 66
     7
 43
1.0
 76
     1
 77
     6
 78
     2
 67
     7
 79
     5
170
     0
171
     0
290
     0
174
     0
 93
        1
 44
0.0
173
     0
291
     1
 45
0.0
1001
ACAD
1000
AcDbSavedByObjectVersion
1070
     0
  0
VISUALSTYLE
  5
5A28
102
{ACAD_XDICTIONARY
360
5C03
102
}
102
{ACAD_REACTORS
330
5A1C
102
}
330
5A1C
100
AcDbVisualStyle
  2
Brighten
 70
    12
 71
     2
 72
     2
 73
     0
 90
        0
 40
-0.6
 41
-30.0
 62
     5
 63
     7
 74
     1
 91
        4
 64
     7
 65
   257
 75
     1
175
     1
 42
1.0
 92
        8
 66
     7
 43
1.0
 76
     1
 77
     6
 78
     2
 67
     7
 79
     5
170
     0
171
     0
290
     0
174
     0
 93
        1
 44
50.0
173
     0
291
     1
 45
0.0
1001
ACAD
1000
AcDbSavedByObjectVersion
1070
     0
  0
VISUALSTYLE
  5
5A2C
102
{ACAD_XDICTIONARY
360
5C0B
102
}
102
{ACAD_REACTORS
330
5A1C
102
}
330
5A1C
100
AcDbVisualStyle
  2
ColorChange
 70
    16
 71
     2
 72
     2
 73
     3
 90
        0
 40
-0.6
 41
-30.0
 62
     5
 63
     8
 74
     1
 91
        4
 64
     7
 65
   257
 75
     1
175
     1
 42
1.0
 92
        8
 66
     8
 43
1.0
 76
     1
 77
     6
 78
     2
 67
     7
 79
     5
170
     0
171
     0
290
     0
174
     0
 93
        1
 44
0.0
173
     0
291
     1
 45
0.0
1001
ACAD
1000
AcDbSavedByObjectVersion
1070
     0
  0
VISUALSTYLE
  5
5A25
102
{ACAD_XDICTIONARY
360
5BFD
102
}
102
{ACAD_REACTORS
330
5A1C
102
}
330
5A1C
100
AcDbVisualStyle
  2
Conceptual
 70
     9
 71
     3
 72
     2
 73
     0
 90
        0
 40
-0.6
 41
-30.0
 62
     5
 63
     7
 74
     2
 91
        2
 64
     7
 65
   257
 75
     1
175
     1
 42
179.0
 92
        8
 66
     7
 43
1.0
 76
     1
 77
     6
 78
     2
 67
     7
 79
     3
170
     0
171
     0
290
     0
174
     0
 93
        1
 44
0.0
173
     0
291
     0
 45
0.0
1001
ACAD
1000
AcDbSavedByObjectVersion
1070
     0
  0
VISUALSTYLE
  5
5A27
102
{ACAD_XDICTIONARY
360
5C01
102
}
102
{ACAD_REACTORS
330
5A1C
102
}
330
5A1C
100
AcDbVisualStyle
  2
Dim
 70
    11
 71
     2
 72
     2
 73
     0
 90
        0
 40
-0.6
 41
-30.0
 62
     5
 63
     7
 74
     1
 91
        4
 64
     7
 65
   257
 75
     1
175
     1
 42
1.0
 92
        8
 66
     7
 43
1.0
 76
     1
 77
     6
 78
     2
 67
     7
 79
     5
170
     0
171
     0
290
     0
174
     0
 93
        1
 44
-50.0
173
     0
291
     1
 45
0.0
1001
ACAD
1000
AcDbSavedByObjectVersion
1070
     0
  0
VISUALSTYLE
  5
5A34
102
{ACAD_XDICTIONARY
360
5C1B
102
}
102
{ACAD_REACTORS
330
5A1C
102
}
330
5A1C
100
AcDbVisualStyle
  2
EdgeColorOff
 70
    22
 71
     2
 72
     2
 73
     0
 90
        0
 40
-0.6
 41
-30.0
 62
     5
 63
     7
 74
     1
 91
        4
 64
     7
 65
   257
 75
     1
175
     1
 42
1.0
 92
        8
 66
     7
 43
1.0
 76
     1
 77
     6
 78
     2
 67
     7
 79
     5
170
     0
171
     0
290
     0
174
     0
 93
        1
 44
0.0
173
     0
291
     1
 45
0.0
1001
ACAD
1000
AcDbSavedByObjectVersion
1070
     0
  0
VISUALSTYLE
  5
5A2B
102
{ACAD_XDICTIONARY
360
5C09
102
}
102
{ACAD_REACTORS
330
5A1C
102
}
330
5A1C
100
AcDbVisualStyle
  2
Facepattern
 70
    15
 71
     2
 72
     2
 73
     0
 90
        0
 40
-0.6
 41
-30.0
 62
     5
 63
     7
 74
     1
 91
        4
 64
     7
 65
   257
 75
     1
175
     1
 42
1.0
 92
        8
 66
     7
 43
1.0
 76
     1
 77
     6
 78
     2
 67
     7
 79
     5
170
     0
171
     0
290
     0
174
     0
 93
        1
 44
0.0
173
     0
291
     1
 45
0.0
1001
ACAD
1000
AcDbSavedByObjectVersion
1070
     0
  0
VISUALSTYLE
  5
5A1D
102
{ACAD_XDICTIONARY
360
5BED
102
}
102
{ACAD_REACTORS
330
5A1C
102
}
330
5A1C
100
AcDbVisualStyle
  2
Flat
 70
     0
 71
     2
 72
     1
 73
     1
 90
        2
 40
-0.6
 41
30.0
 62
     5
 63
     7
 74
     0
 91
        0
 64
     7
 65
   257
 75
     1
175
     1
 42
1.0
 92
        8
 66
     7
 43
1.0
 76
     1
 77
     6
 78
     2
 67
     7
 79
     5
170
     0
171
     0
290
     0
174
     0
 93
       13
 44
0.0
173
     0
291
     1
 45
0.0
1001
ACAD
1000
AcDbSavedByObjectVersion
1070
     0
  0
VISUALSTYLE
  5
5A1E
102
{ACAD_XDICTIONARY
360
5BEF
102
}
102
{ACAD_REACTORS
330
5A1C
102
}
330
5A1C
100
AcDbVisualStyle
  2
FlatWithEdges
 70
     1
 71
     2
 72
     1
 73
     1
 90
        2
 40
-0.6
 41
30.0
 62
     5
 63
     7
 74
     1
 91
        0
 64
     7
 65
   257
 75
     1
175
     1
 42
1.0
 92
        0
 66
   257
 43
1.0
 76
     1
 77
     6
 78
     2
 67
     7
 79
     5
170
     0
171
     0
290
     0
174
     0
 93
       13
 44
0.0
173
     0
291
     1
 45
0.0
1001
ACAD
1000
AcDbSavedByObjectVersion
1070
     0
  0
VISUALSTYLE
  5
5A1F
102
{ACAD_XDICTIONARY
360
5BF1
102
}
102
{ACAD_REACTORS
330
5A1C
102
}
330
5A1C
100
AcDbVisualStyle
  2
Gouraud
 70
     2
 71
     2
 72
     2
 73
     1
 90
        2
 40
-0.6
 41
30.0
 62
     5
 63
     7
 74
     0
 91
        0
 64
     7
 65
   257
 75
     1
175
     1
 42
1.0
 92
        0
 66
     7
 43
1.0
 76
     1
 77
     6
 78
     2
 67
     7
 79
     5
170
     0
171
     0
290
     0
174
     0
 93
       13
 44
0.0
173
     0
291
     1
 45
0.0
1001
ACAD
1000
AcDbSavedByObjectVersion
1070
     0
  0
VISUALSTYLE
  5
5A20
102
{ACAD_XDICTIONARY
360
5BF3
102
}
102
{ACAD_REACTORS
330
5A1C
102
}
330
5A1C
100
AcDbVisualStyle
  2
GouraudWithEdges
 70
     3
 71
     2
 72
     2
 73
     1
 90
        2
 40
-0.6
 41
30.0
 62
     5
 63
     7
 74
     1
 91
        0
 64
     7
 65
   257
 75
     1
175
     1
 42
1.0
 92
        0
 66
   257
 43
1.0
 76
     1
 77
     6
 78
     2
 67
     7
 79
     5
170
     0
171
     0
290
     0
174
     0
 93
       13
 44
0.0
173
     0
291
     1
 45
0.0
1001
ACAD
1000
AcDbSavedByObjectVersion
1070
     0
  0
VISUALSTYLE
  5
5A24
102
{ACAD_XDICTIONARY
360
5BFB
102
}
102
{ACAD_REACTORS
330
5A1C
102
}
330
5A1C
100
AcDbVisualStyle
  2
Hidden
 70
     6
 71
     1
 72
     2
 73
     2
 90
        0
 40
-0.6
 41
-30.0
 62
     5
 63
     7
 74
     2
 91
        2
 64
     7
 65
   257
 75
     2
175
     1
 42
40.0
 92
        0
 66
   257
 43
1.0
 76
     1
 77
     6
 78
     2
 67
     7
 79
     3
170
     0
171
     0
290
     0
174
     0
 93
        1
 44
0.0
173
     0
291
     0
 45
0.0
1001
ACAD
1000
AcDbSavedByObjectVersion
1070
     0
  0
VISUALSTYLE
  5
5A32
102
{ACAD_XDICTIONARY
360
5C17
102
}
102
{ACAD_REACTORS
330
5A1C
102
}
330
5A1C
100
AcDbVisualStyle
  2
JitterOff
 70
    20
 71
     2
 72
     2
 73
     0
 90
        0
 40
-0.6
 41
-30.0
 62
     5
 63
     7
 74
     1
 91
        4
 64
     7
 65
   257
 75
     1
175
     1
 42
1.0
 92
       10
 66
     7
 43
1.0
 76
     1
 77
     6
 78
     2
 67
     7
 79
     5
170
     0
171
     0
290
     0
174
     0
 93
        1
 44
0.0
173
     0
291
     1
 45
0.0
1001
ACAD
1000
AcDbSavedByObjectVersion
1070
     0
  0
VISUALSTYLE
  5
5A2A
102
{ACAD_XDICTIONARY
360
5C07
102
}
102
{ACAD_REACTORS
330
5A1C
102
}
330
5A1C
100
AcDbVisualStyle
  2
Linepattern
 70
    14
 71
     2
 72
     2
 73
     0
 90
        0
 40
-0.6
 41
-30.0
 62
     5
 63
     7
 74
     1
 91
        4
 64
     7
 65
   257
 75
     7
175
     7
 42
1.0
 92
        8
 66
     7
 43
1.0
 76
     1
 77
     6
 78
     2
 67
     7
 79
     5
170
     0
171
     0
290
     0
174
     0
 93
        1
 44
0.0
173
     0
291
     1
 45
0.0
1001
ACAD
1000
AcDbSavedByObjectVersion
1070
     0
  0
VISUALSTYLE
  5
5A33
102
{ACAD_XDICTIONARY
360
5C19
102
}
102
{ACAD_REACTORS
330
5A1C
102
}
330
5A1C
100
AcDbVisualStyle
  2
OverhangOff
 70
    21
 71
     2
 72
     2
 73
     0
 90
        0
 40
-0.6
 41
-30.0
 62
     5
 63
     7
 74
     1
 91
        4
 64
     7
 65
   257
 75
     1
175
     1
 42
1.0
 92
        9
 66
     7
 43
1.0
 76
     1
 77
     6
 78
     2
 67
     7
 79
     5
170
     0
171
     0
290
     0
174
     0
 93
        1
 44
0.0
173
     0
291
     1
 45
0.0
1001
ACAD
1000
AcDbSavedByObjectVersion
1070
     0
  0
VISUALSTYLE
  5
5A26
102
{ACAD_XDICTIONARY
360
5BFF
102
}
102
{ACAD_REACTORS
330
5A1C
102
}
330
5A1C
100
AcDbVisualStyle
  2
Realistic
 70
     8
 71
     2
 72
     3
 73
     0
 90
        2
 40
-0.6
 41
30.0
 62
     5
 63
     7
 74
     0
 91
        0
 64
     7
 65
   257
 75
     1
175
     1
 42
1.0
 92
        8
 66
   257
 43
1.0
 76
     1
 77
     6
 78
     2
 67
     7
 79
     3
170
     0
171
     0
290
     0
174
     0
 93
       13
 44
0.0
173
     0
291
     0
 45
0.0
1001
ACAD
1000
AcDbSavedByObjectVersion
1070
     0
  0
VISUALSTYLE
  5
5A31
102
{ACAD_XDICTIONARY
360
5C15
102
}
102
{ACAD_REACTORS
330
5A1C
102
}
330
5A1C
100
AcDbVisualStyle
  2
Shaded
 70
    27
 71
     2
 72
     2
 73
     1
 90
        2
 40
-0.6
 41
30.0
 62
     5
 63
     7
 74
     0
 91
        4
 64
     7
 65
   257
 75
     1
175
     1
 42
1.0
 92
        8
 66
   257
 43
1.0
 76
     1
 77
     6
 78
     2
 67
     8
 79
     3
170
     0
171
     0
290
     0
174
     0
 93
        5
 44
0.0
173
     0
291
     0
 45
0.0
1001
ACAD
1000
AcDbSavedByObjectVersion
1070
     0
  0
VISUALSTYLE
  5
5A30
102
{ACAD_XDICTIONARY
360
5C13
102
}
102
{ACAD_REACTORS
330
5A1C
102
}
330
5A1C
100
AcDbVisualStyle
  2
Shaded with edges
 70
    26
 71
     2
 72
     2
 73
     1
 90
        2
 40
-0.6
 41
30.0
 62
     5
 63
     7
 74
     1
 91
        2
 64
     7
 65
   257
 75
     2
175
     1
 42
1.0
 92
        8
 66
   257
 43
1.0
 76
     1
 77
     6
 78
     2
 67
     7
 79
     3
170
     0
171
     0
290
     0
174
     0
 93
        5
 44
0.0
173
     0
291
     0
 45
0.0
1001
ACAD
1000
AcDbSavedByObjectVersion
1070
     0
  0
VISUALSTYLE
  5
5A2D
102
{ACAD_XDICTIONARY
360
5C0D
102
}
102
{ACAD_REACTORS
330
5A1C
102
}
330
5A1C
100
AcDbVisualStyle
  2
Shades of Gray
 70
    23
 71
     2
 72
     2
 73
     3
 90
        0
 40
-0.6
 41
-30.0
 62
     5
 63
     7
 74
     2
 91
        2
 64
     7
 65
     7
 75
     1
175
     1
 42
40.0
 92
        8
 66
     7
 43
1.0
 76
     1
 77
     6
 78
     2
 67
     7
 79
     3
170
     0
171
     0
290
     0
174
     0
 93
        1
 44
0.0
173
     0
291
     0
 45
0.0
1001
ACAD
1000
AcDbSavedByObjectVersion
1070
     0
  0
VISUALSTYLE
  5
5A2E
102
{ACAD_XDICTIONARY
360
5C0F
102
}
102
{ACAD_REACTORS
330
5A1C
102
}
330
5A1C
100
AcDbVisualStyle
  2
Sketchy
 70
    24
 71
     1
 72
     2
 73
     2
 90
        0
 40
-0.6
 41
-30.0
 62
     5
 63
     7
 74
     2
 91
        2
 64
     7
 65
     7
 75
     1
175
     1
 42
40.0
 92
       11
 66
     7
 43
1.0
 76
     1
 77
     6
 78
     2
 67
     7
 79
     6
170
     0
171
     0
290
     0
174
     0
 93
        1
 44
0.0
173
     0
291
     0
 45
0.0
1001
ACAD
1000
AcDbSavedByObjectVersion
1070
     0
  0
VISUALSTYLE
  5
5A29
102
{ACAD_XDICTIONARY
360
5C05
102
}
102
{ACAD_REACTORS
330
5A1C
102
}
330
5A1C
100
AcDbVisualStyle
  2
Thicken
 70
    13
 71
     2
 72
     2
 73
     0
 90
        0
 40
-0.6
 41
-30.0
 62
     5
 63
     7
 74
     1
 91
        4
 64
     7
 65
   257
 75
     1
175
     1
 42
1.0
 92
       12
 66
     7
 43
1.0
 76
     1
 77
     6
 78
     2
 67
     7
 79
     5
170
     0
171
     0
290
     0
174
     0
 93
        1
 44
0.0
173
     0
291
     1
 45
0.0
1001
ACAD
1000
AcDbSavedByObjectVersion
1070
     0
  0
VISUALSTYLE
  5
5A23
102
{ACAD_XDICTIONARY
360
5BF9
102
}
102
{ACAD_REACTORS
330
5A1C
102
}
330
5A1C
100
AcDbVisualStyle
  2
Wireframe
 70
     5
 71
     0
 72
     2
 73
     0
 90
        0
 40
-0.6
 41
-30.0
 62
     5
 63
     7
 74
     1
 91
        4
 64
     7
 65
   257
 75
     1
175
     1
 42
1.0
 92
        0
 66
   257
 43
1.0
 76
     1
 77
     6
 78
     2
 67
     7
 79
     3
170
     0
171
     0
290
     0
174
     0
 93
        1
 44
0.0
173
     0
291
     0
 45
0.0
1001
ACAD
1000
AcDbSavedByObjectVersion
1070
     0
  0
VISUALSTYLE
  5
5A2F
102
{ACAD_XDICTIONARY
360
5C11
102
}
102
{ACAD_REACTORS
330
5A1C
102
}
330
5A1C
100
AcDbVisualStyle
  2
X-Ray
 70
    25
 71
     2
 72
     2
 73
     1
 90
        1
 40
0.5
 41
-30.0
 62
     5
 63
     7
 74
     1
 91
        0
 64
     7
 65
   257
 75
     1
175
     1
 42
1.0
 92
        8
 66
     7
 43
1.0
 76
     1
 77
     6
 78
     2
 67
     7
 79
     3
170
     0
171
     0
290
     0
174
     0
 93
       13
 44
0.0
173
     0
291
     0
 45
0.0
1001
ACAD
1000
AcDbSavedByObjectVersion
1070
     0
  0
DICTIONARYVAR
  5
5BCC
102
{ACAD_REACTORS
330
5BC6
102
}
330
5BC6
100
DictionaryVariables
280
     0
  1
1:1
  0
DICTIONARYVAR
  5
5BC8
102
{ACAD_REACTORS
330
5BC6
102
}
330
5BC6
100
DictionaryVariables
280
     0
  1
STANDARD
  0
DICTIONARYVAR
  5
5BC7
102
{ACAD_REACTORS
330
5BC6
102
}
330
5BC6
100
DictionaryVariables
280
     0
  1
STANDARD
  0
DICTIONARYVAR
  5
5BC9
102
{ACAD_REACTORS
330
5BC6
102
}
330
5BC6
100
DictionaryVariables
280
     0
  1
Metric50
  0
DICTIONARYVAR
  5
5BCA
102
{ACAD_REACTORS
330
5BC6
102
}
330
5BC6
100
DictionaryVariables
280
     0
  1
Metric50
  0
DICTIONARYVAR
  5
5BD8
102
{ACAD_REACTORS
330
5BC6
102
}
330
5BC6
100
DictionaryVariables
280
     0
  1
1
  0
DICTIONARYVAR
  5
5BD7
102
{ACAD_REACTORS
330
5BC6
102
}
330
5BC6
100
DictionaryVariables
280
     0
  1
0
  0
DICTIONARYVAR
  5
5BCE
102
{ACAD_REACTORS
330
5BC6
102
}
330
5BC6
100
DictionaryVariables
280
     0
  1
1
  0
DICTIONARYVAR
  5
5BCF
102
{ACAD_REACTORS
330
5BC6
102
}
330
5BC6
100
DictionaryVariables
280
     0
  1
15
  0
DICTIONARYVAR
  5
5BCD
102
{ACAD_REACTORS
330
5BC6
102
}
330
5BC6
100
DictionaryVariables
280
     0
  1
0
  0
DICTIONARYVAR
  5
5BCB
102
{ACAD_REACTORS
330
5BC6
102
}
330
5BC6
100
DictionaryVariables
280
     0
  1
0
  0
DICTIONARYVAR
  5
5BD6
102
{ACAD_REACTORS
330
5BC6
102
}
330
5BC6
100
DictionaryVariables
280
     0
  1
127
  0
DICTIONARYVAR
  5
5BD9
102
{ACAD_REACTORS
330
5BC6
102
}
330
5BC6
100
DictionaryVariables
280
     0
  1
2
  0
DICTIONARY
  5
5BE5
102
{ACAD_REACTORS
330
5BE3
102
}
330
5BE3
100
AcDbDictionary
281
     1
  0
DICTIONARY
  5
5BE4
102
{ACAD_REACTORS
330
5BE3
102
}
330
5BE3
100
AcDbDictionary
281
     1
  3
140687754068960
350
5BDE
  3
140687754068976
350
5BDF
  3
140687754068992
350
5BE0
  3
140687754069008
350
5BE1
  3
140687754069024
350
5BE2
  0
DICTIONARY
  5
5BC4
330
5A4F
100
AcDbDictionary
280
     1
281
     1
  3
ACAD_XREC_ROUNDTRIP
360
5BC5
  0
DICTIONARY
  5
5BE6
330
1E94
100
AcDbDictionary
280
     1
281
     1
  3
ACAD_XREC_ROUNDTRIP
360
5BE7
  0
DICTIONARY
  5
5BE8
330
1E95
100
AcDbDictionary
280
     1
281
     1
  3
ACAD_XREC_ROUNDTRIP
360
5BE9
  0
DICTIONARY
  5
5A0D
330
5A0C
100
AcDbDictionary
280
     1
281
     1
  3
ACAD_XREC_ROUNDTRIP
360
5BEB
  3
BUMPTILE
360
5A0F
  3
DIFFUSETILE
360
5A0E
  3
OPACITYTILE
360
5A12
  3
REFLECTIONTILE
360
5A11
  3
REFRACTIONTILE
360
5A13
  3
SPECULARTILE
360
5A10
  0
DICTIONARY
  5
5A05
330
5A04
100
AcDbDictionary
280
     1
281
     1
  3
ACAD_XREC_ROUNDTRIP
360
5BEA
  3
BUMPTILE
360
5A07
  3
DIFFUSETILE
360
5A06
  3
OPACITYTILE
360
5A0A
  3
REFLECTIONTILE
360
5A09
  3
REFRACTIONTILE
360
5A0B
  3
SPECULARTILE
360
5A08
  0
DICTIONARY
  5
5A15
330
5A14
100
AcDbDictionary
280
     1
281
     1
  3
ACAD_XREC_ROUNDTRIP
360
5BEC
  3
BUMPTILE
360
5A17
  3
DIFFUSETILE
360
5A16
  3
OPACITYTILE
360
5A1A
  3
REFLECTIONTILE
360
5A19
  3
REFRACTIONTILE
360
5A1B
  3
SPECULARTILE
360
5A18
  0
DICTIONARY
  5
5C1F
330
5A4B
100
AcDbDictionary
280
     1
281
     1
  3
ACAD_XREC_ROUNDTRIP
360
5C20
  0
DICTIONARY
  5
5BC2
330
5A4D
100
AcDbDictionary
280
     1
281
     1
  3
ACAD_XREC_ROUNDTRIP
360
5BC3
  0
DICTIONARY
  5
5BDA
330
5A37
100
AcDbDictionary
280
     1
281
     1
  3
ACAD_ROUNDTRIP_2008_TABLESTYLE_CELLSTYLEMAP
360
5BDB
  3
ACAD_XREC_ROUNDTRIP
360
5C1D
  0
DICTIONARY
  5
5BF7
330
5A22
100
AcDbDictionary
280
     1
281
     1
  3
ACAD_XREC_ROUNDTRIP
360
5BF8
  0
DICTIONARY
  5
5BF5
330
5A21
100
AcDbDictionary
280
     1
281
     1
  3
ACAD_XREC_ROUNDTRIP
360
5BF6
  0
DICTIONARY
  5
5C03
330
5A28
100
AcDbDictionary
280
     1
281
     1
  3
ACAD_XREC_ROUNDTRIP
360
5C04
  0
DICTIONARY
  5
5C0B
330
5A2C
100
AcDbDictionary
280
     1
281
     1
  3
ACAD_XREC_ROUNDTRIP
360
5C0C
  0
DICTIONARY
  5
5BFD
330
5A25
100
AcDbDictionary
280
     1
281
     1
  3
ACAD_XREC_ROUNDTRIP
360
5BFE
  0
DICTIONARY
  5
5C01
330
5A27
100
AcDbDictionary
280
     1
281
     1
  3
ACAD_XREC_ROUNDTRIP
360
5C02
  0
DICTIONARY
  5
5C1B
330
5A34
100
AcDbDictionary
280
     1
281
     1
  3
ACAD_XREC_ROUNDTRIP
360
5C1C
  0
DICTIONARY
  5
5C09
330
5A2B
100
AcDbDictionary
280
     1
281
     1
  3
ACAD_XREC_ROUNDTRIP
360
5C0A
  0
DICTIONARY
  5
5BED
330
5A1D
100
AcDbDictionary
280
     1
281
     1
  3
ACAD_XREC_ROUNDTRIP
360
5BEE
  0
DICTIONARY
  5
5BEF
330
5A1E
100
AcDbDictionary
280
     1
281
     1
  3
ACAD_XREC_ROUNDTRIP
360
5BF0
  0
DICTIONARY
  5
5BF1
330
5A1F
100
AcDbDictionary
280
     1
281
     1
  3
ACAD_XREC_ROUNDTRIP
360
5BF2
  0
DICTIONARY
  5
5BF3
330
5A20
100
AcDbDictionary
280
     1
281
     1
  3
ACAD_XREC_ROUNDTRIP
360
5BF4
  0
DICTIONARY
  5
5BFB
330
5A24
100
AcDbDictionary
280
     1
281
     1
  3
ACAD_XREC_ROUNDTRIP
360
5BFC
  0
DICTIONARY
  5
5C17
330
5A32
100
AcDbDictionary
280
     1
281
     1
  3
ACAD_XREC_ROUNDTRIP
360
5C18
  0
DICTIONARY
  5
5C07
330
5A2A
100
AcDbDictionary
280
     1
281
     1
  3
ACAD_XREC_ROUNDTRIP
360
5C08
  0
DICTIONARY
  5
5C19
330
5A33
100
AcDbDictionary
280
     1
281
     1
  3
ACAD_XREC_ROUNDTRIP
360
5C1A
  0
DICTIONARY
  5
5BFF
330
5A26
100
AcDbDictionary
280
     1
281
     1
  3
ACAD_XREC_ROUNDTRIP
360
5C00
  0
DICTIONARY
  5
5C15
330
5A31
100
AcDbDictionary
280
     1
281
     1
  3
ACAD_XREC_ROUNDTRIP
360
5C16
  0
DICTIONARY
  5
5C13
330
5A30
100
AcDbDictionary
280
     1
281
     1
  3
ACAD_XREC_ROUNDTRIP
360
5C14
  0
DICTIONARY
  5
5C0D
330
5A2D
100
AcDbDictionary
280
     1
281
     1
  3
ACAD_XREC_ROUNDTRIP
360
5C0E
  0
DICTIONARY
  5
5C0F
330
5A2E
100
AcDbDictionary
280
     1
281
     1
  3
ACAD_XREC_ROUNDTRIP
360
5C10
  0
DICTIONARY
  5
5C05
330
5A29
100
AcDbDictionary
280
     1
281
     1
  3
ACAD_XREC_ROUNDTRIP
360
5C06
  0
DICTIONARY
  5
5BF9
330
5A23
100
AcDbDictionary
280
     1
281
     1
  3
ACAD_XREC_ROUNDTRIP
360
5BFA
  0
DICTIONARY
  5
5C11
330
5A2F
100
AcDbDictionary
280
     1
281
     1
  3
ACAD_XREC_ROUNDTRIP
360
5C12
  0
XRECORD
  5
5BDE
102
{ACAD_REACTORS
330
5BE4
102
}
330
5BE4
100
AcDbXrecord
280
     1
  1
AcDb_Thumbnail_Schema
102
{ATTRRECORD
341
5BDF
  2
AcDbDs::TreatedAsObjectData
280
     1
291
     1
102
ATTRRECORD}
102
{ATTRRECORD
341
5BE0
  2
AcDbDs::Legacy
280
     1
291
     1
102
ATTRRECORD}
  2
AcDbDs::ID
280
    10
 91
        8
102
{ATTRRECORD
341
5BE1
  2
AcDs:Indexable
280
     1
291
     1
102
ATTRRECORD}
102
{ATTRRECORD
341
5BE2
  2
AcDbDs::HandleAttribute
280
     7
282
     1
102
ATTRRECORD}
  2
Thumbnail_Data
280
    15
 91
        0
  0
XRECORD
  5
5BDF
102
{ACAD_REACTORS
330
5BE4
102
}
330
5BE4
100
AcDbXrecord
280
     1
  1
AcDbDs::TreatedAsObjectDataSchema
  2
AcDbDs::TreatedAsObjectData
280
     1
 91
        0
  0
XRECORD
  5
5BE0
102
{ACAD_REACTORS
330
5BE4
102
}
330
5BE4
100
AcDbXrecord
280
     1
  1
AcDbDs::LegacySchema
  2
AcDbDs::Legacy
280
     1
 91
        0
  0
XRECORD
  5
5BE1
102
{ACAD_REACTORS
330
5BE4
102
}
330
5BE4
100
AcDbXrecord
280
     1
  1
AcDbDs::IndexedPropertySchema
  2
AcDs:Indexable
280
     1
 91
        0
  0
XRECORD
  5
5BE2
102
{ACAD_REACTORS
330
5BE4
102
}
330
5BE4
100
AcDbXrecord
280
     1
  1
AcDbDs::HandleAttributeSchema
  2
AcDbDs::HandleAttribute
280
     7
 91
        1
284
     1
  0
XRECORD
  5
5BC5
102
{ACAD_REACTORS
330
5BC4
102
}
330
5BC4
100
AcDbXrecord
280
     1
102
DISPLAYNAME
  1
Metric50
102
FLAGS
 90
        0
  0
XRECORD
  5
5BE7
102
{ACAD_REACTORS
330
5BE6
102
}
330
5BE6
100
AcDbXrecord
280
     1
102
SHADEPLOT
 70
     0
102
SHADEPLOTRESLEVEL
 70
     2
102
SHADEPLOTCUSTOMDPI
 70
   300
  0
XRECORD
  5
5BE9
102
{ACAD_REACTORS
330
5BE8
102
}
330
5BE8
100
AcDbXrecord
280
     1
102
SHADEPLOT
 70
     0
102
SHADEPLOTRESLEVEL
 70
     2
102
SHADEPLOTCUSTOMDPI
 70
   300
  0
XRECORD
  5
5BEB
102
{ACAD_REACTORS
330
5A0D
102
}
330
5A0D
100
AcDbXrecord
280
     1
102
MATERIAL
148
0.0
149
0.0
149
0.0
 93
        0
 94
      127
282
     0
 72
     0
 77
     0
171
     0
175
     0
179
     0
273
     0
  0
XRECORD
  5
5A0F
102
{ACAD_REACTORS
330
5A0D
102
}
330
5A0D
100
AcDbXrecord
280
     1
270
     1
271
     1
  0
XRECORD
  5
5A0E
102
{ACAD_REACTORS
330
5A0D
102
}
330
5A0D
100
AcDbXrecord
280
     1
270
     1
271
     1
  0
XRECORD
  5
5A12
102
{ACAD_REACTORS
330
5A0D
102
}
330
5A0D
100
AcDbXrecord
280
     1
270
     1
271
     1
  0
XRECORD
  5
5A11
102
{ACAD_REACTORS
330
5A0D
102
}
330
5A0D
100
AcDbXrecord
280
     1
270
     1
271
     1
  0
XRECORD
  5
5A13
102
{ACAD_REACTORS
330
5A0D
102
}
330
5A0D
100
AcDbXrecord
280
     1
270
     1
271
     1
  0
XRECORD
  5
5A10
102
{ACAD_REACTORS
330
5A0D
102
}
330
5A0D
100
AcDbXrecord
280
     1
270
     1
271
     1
  0
XRECORD
  5
5BEA
102
{ACAD_REACTORS
330
5A05
102
}
330
5A05
100
AcDbXrecord
280
     1
102
MATERIAL
148
0.0
149
0.0
149
0.0
 93
        0
 94
      127
282
     0
 72
     0
 77
     0
171
     0
175
     0
179
     0
273
     0
  0
XRECORD
  5
5A07
102
{ACAD_REACTORS
330
5A05
102
}
330
5A05
100
AcDbXrecord
280
     1
270
     1
271
     1
  0
XRECORD
  5
5A06
102
{ACAD_REACTORS
330
5A05
102
}
330
5A05
100
AcDbXrecord
280
     1
270
     1
271
     1
  0
XRECORD
  5
5A0A
102
{ACAD_REACTORS
330
5A05
102
}
330
5A05
100
AcDbXrecord
280
     1
270
     1
271
     1
  0
XRECORD
  5
5A09
102
{ACAD_REACTORS
330
5A05
102
}
330
5A05
100
AcDbXrecord
280
     1
270
     1
271
     1
  0
XRECORD
  5
5A0B
102
{ACAD_REACTORS
330
5A05
102
}
330
5A05
100
AcDbXrecord
280
     1
270
     1
271
     1
  0
XRECORD
  5
5A08
102
{ACAD_REACTORS
330
5A05
102
}
330
5A05
100
AcDbXrecord
280
     1
270
     1
271
     1
  0
XRECORD
  5
5BEC
102
{ACAD_REACTORS
330
5A15
102
}
330
5A15
100
AcDbXrecord
280
     1
102
MATERIAL
148
0.0
149
0.0
149
0.0
 93
        0
 94
      127
282
     0
 72
     0
 77
     0
171
     0
175
     0
179
     0
273
     0
  0
XRECORD
  5
5A17
102
{ACAD_REACTORS
330
5A15
102
}
330
5A15
100
AcDbXrecord
280
     1
270
     1
271
     1
  0
XRECORD
  5
5A16
102
{ACAD_REACTORS
330
5A15
102
}
330
5A15
100
AcDbXrecord
280
     1
270
     1
271
     1
  0
XRECORD
  5
5A1A
102
{ACAD_REACTORS
330
5A15
102
}
330
5A15
100
AcDbXrecord
280
     1
270
     1
271
     1
  0
XRECORD
  5
5A19
102
{ACAD_REACTORS
330
5A15
102
}
330
5A15
100
AcDbXrecord
280
     1
270
     1
271
     1
  0
XRECORD
  5
5A1B
102
{ACAD_REACTORS
330
5A15
102
}
330
5A15
100
AcDbXrecord
280
     1
270
     1
271
     1
  0
XRECORD
  5
5A18
102
{ACAD_REACTORS
330
5A15
102
}
330
5A15
100
AcDbXrecord
280
     1
270
     1
271
     1
  0
XRECORD
  5
5C20
102
{ACAD_REACTORS
330
5C1F
102
}
330
5C1F
100
AcDbXrecord
280
     1
102
ACAD_ROUNDTRIP_2012_MLEADER_STYLE
298
     1
  0
XRECORD
  5
5BC3
102
{ACAD_REACTORS
330
5BC2
102
}
330
5BC2
100
AcDbXrecord
280
     1
102
DISPLAYNAME
  1
Metric50
102
FLAGS
 90
        0
  0
CELLSTYLEMAP
  5
5BDB
102
{ACAD_REACTORS
330
5BDA
102
}
330
5BDA
100
AcDbCellStyleMap
 90
        3
300
CELLSTYLE
  1
TABLEFORMAT_BEGIN
 90
        5
170
     1
 91
        0
 92
    32768
 62
   257
 93
        1
300
CONTENTFORMAT
  1
CONTENTFORMAT_BEGIN
 90
        0
 91
        0
 92
      512
 93
        0
300

 40
0.0
140
1.0
 94
        5
 62
     0
340
10
144
6.0
309
CONTENTFORMAT_END
171
     1
301
MARGIN
  1
CELLMARGIN_BEGIN
 40
1.5
 40
1.5
 40
1.5
 40
1.5
 40
4.5
 40
4.5
309
CELLMARGIN_END
 94
        6
 95
        1
302
GRIDFORMAT
  1
GRIDFORMAT_BEGIN
 90
        0
 91
        1
 62
     0
 92
       -2
340
0
 93
        0
 40
1.125
309
GRIDFORMAT_END
 95
        2
302
GRIDFORMAT
  1
GRIDFORMAT_BEGIN
 90
        0
 91
        1
 62
     0
 92
       -2
340
0
 93
        0
 40
1.125
309
GRIDFORMAT_END
 95
        4
302
GRIDFORMAT
  1
GRIDFORMAT_BEGIN
 90
        0
 91
        1
 62
     0
 92
       -2
340
0
 93
        0
 40
1.125
309
GRIDFORMAT_END
 95
        8
302
GRIDFORMAT
  1
GRIDFORMAT_BEGIN
 90
        0
 91
        1
 62
     0
 92
       -2
340
0
 93
        0
 40
1.125
309
GRIDFORMAT_END
 95
       16
302
GRIDFORMAT
  1
GRIDFORMAT_BEGIN
 90
        0
 91
        1
 62
     0
 92
       -2
340
0
 93
        0
 40
1.125
309
GRIDFORMAT_END
 95
       32
302
GRIDFORMAT
  1
GRIDFORMAT_BEGIN
 90
        0
 91
        1
 62
     0
 92
       -2
340
0
 93
        0
 40
1.125
309
GRIDFORMAT_END
309
TABLEFORMAT_END
  1
CELLSTYLE_BEGIN
 90
        1
 91
        1
300
_TITLE
309
CELLSTYLE_END
300
CELLSTYLE
  1
TABLEFORMAT_BEGIN
 90
        5
170
     1
 91
        0
 92
        0
 62
   257
 93
        1
300
CONTENTFORMAT
  1
CONTENTFORMAT_BEGIN
 90
        0
 91
        0
 92
      512
 93
        0
300

 40
0.0
140
1.0
 94
        5
 62
     0
340
10
144
4.5
309
CONTENTFORMAT_END
171
     1
301
MARGIN
  1
CELLMARGIN_BEGIN
 40
1.5
 40
1.5
 40
1.5
 40
1.5
 40
4.5
 40
4.5
309
CELLMARGIN_END
 94
        6
 95
        1
302
GRIDFORMAT
  1
GRIDFORMAT_BEGIN
 90
        0
 91
        1
 62
     0
 92
       -2
340
0
 93
        0
 40
1.125
309
GRIDFORMAT_END
 95
        2
302
GRIDFORMAT
  1
GRIDFORMAT_BEGIN
 90
        0
 91
        1
 62
     0
 92
       -2
340
0
 93
        0
 40
1.125
309
GRIDFORMAT_END
 95
        4
302
GRIDFORMAT
  1
GRIDFORMAT_BEGIN
 90
        0
 91
        1
 62
     0
 92
       -2
340
0
 93
        0
 40
1.125
309
GRIDFORMAT_END
 95
        8
302
GRIDFORMAT
  1
GRIDFORMAT_BEGIN
 90
        0
 91
        1
 62
     0
 92
       -2
340
0
 93
        0
 40
1.125
309
GRIDFORMAT_END
 95
       16
302
GRIDFORMAT
  1
GRIDFORMAT_BEGIN
 90
        0
 91
        1
 62
     0
 92
       -2
340
0
 93
        0
 40
1.125
309
GRIDFORMAT_END
 95
       32
302
GRIDFORMAT
  1
GRIDFORMAT_BEGIN
 90
        0
 91
        1
 62
     0
 92
       -2
340
0
 93
        0
 40
1.125
309
GRIDFORMAT_END
309
TABLEFORMAT_END
  1
CELLSTYLE_BEGIN
 90
        2
 91
        1
300
_HEADER
309
CELLSTYLE_END
300
CELLSTYLE
  1
TABLEFORMAT_BEGIN
 90
        5
170
     1
 91
        0
 92
        0
 62
   257
 93
        1
300
CONTENTFORMAT
  1
CONTENTFORMAT_BEGIN
 90
        0
 91
        0
 92
      512
 93
        0
300

 40
0.0
140
1.0
 94
        2
 62
     0
340
10
144
4.5
309
CONTENTFORMAT_END
171
     1
301
MARGIN
  1
CELLMARGIN_BEGIN
 40
1.5
 40
1.5
 40
1.5
 40
1.5
 40
4.5
 40
4.5
309
CELLMARGIN_END
 94
        6
 95
        1
302
GRIDFORMAT
  1
GRIDFORMAT_BEGIN
 90
        0
 91
        1
 62
     0
 92
       -2
340
0
 93
        0
 40
1.125
309
GRIDFORMAT_END
 95
        2
302
GRIDFORMAT
  1
GRIDFORMAT_BEGIN
 90
        0
 91
        1
 62
     0
 92
       -2
340
0
 93
        0
 40
1.125
309
GRIDFORMAT_END
 95
        4
302
GRIDFORMAT
  1
GRIDFORMAT_BEGIN
 90
        0
 91
        1
 62
     0
 92
       -2
340
0
 93
        0
 40
1.125
309
GRIDFORMAT_END
 95
        8
302
GRIDFORMAT
  1
GRIDFORMAT_BEGIN
 90
        0
 91
        1
 62
     0
 92
       -2
340
0
 93
        0
 40
1.125
309
GRIDFORMAT_END
 95
       16
302
GRIDFORMAT
  1
GRIDFORMAT_BEGIN
 90
        0
 91
        1
 62
     0
 92
       -2
340
0
 93
        0
 40
1.125
309
GRIDFORMAT_END
 95
       32
302
GRIDFORMAT
  1
GRIDFORMAT_BEGIN
 90
        0
 91
        1
 62
     0
 92
       -2
340
0
 93
        0
 40
1.125
309
GRIDFORMAT_END
309
TABLEFORMAT_END
  1
CELLSTYLE_BEGIN
 90
        3
 91
        2
300
_DATA
309
CELLSTYLE_END
  0
XRECORD
  5
5C1D
102
{ACAD_REACTORS
330
5BDA
102
}
330
5BDA
100
AcDbXrecord
280
     1
102
ACAD_ROUNDTRIP_PRE2007_TABLESTYLE
 90
      512
 91
        0
  1

 92
      512
 93
        0
  2

 94
      512
 95
        0
  3

  0
XRECORD
  5
5BF8
102
{ACAD_REACTORS
330
5BF7
102
}
330
5BF7
100
AcDbXrecord
280
     1
102
RTVSPost2010Prop28
280
     1
102
RTVSPost2010PropOp28
 70
     1
102
RTVSPost2010Prop29
280
     1
102
RTVSPost2010PropOp29
 70
     1
102
RTVSPost2010Prop30
280
     0
102
RTVSPost2010PropOp30
 70
     1
102
RTVSPost2010Prop31
280
     0
102
RTVSPost2010PropOp31
 70
     1
102
RTVSPost2010Prop32
280
     0
102
RTVSPost2010PropOp32
 70
     1
102
RTVSPost2010Prop33
280
     0
102
RTVSPost2010PropOp33
 70
     1
102
RTVSPost2010Prop34
280
     0
102
RTVSPost2010PropOp34
 70
     1
102
RTVSPost2010Prop35
280
     0
102
RTVSPost2010PropOp35
 70
     1
102
RTVSPost2010Prop36
280
     0
102
RTVSPost2010PropOp36
 70
     1
102
RTVSPost2010Prop37
 90
       50
102
RTVSPost2010PropOp37
 70
     1
102
RTVSPost2010Prop38
140
0.0
102
RTVSPost2010PropOp38
 70
     1
102
RTVSPost2010Prop39
140
1.0
102
RTVSPost2010PropOp39
 70
     1
102
RTVSPost2010Prop40
 90
        0
102
RTVSPost2010PropOp40
 70
     1
102
RTVSPost2010Prop41ColorIndex
 90
       18
102
RTVSPost2010Prop41ColorRGB
 90
        0
102
RTVSPost2010PropOp41
 70
     1
102
RTVSPost2010Prop42
 90
       50
102
RTVSPost2010PropOp42
 70
     1
102
RTVSPost2010Prop43
 90
        3
102
RTVSPost2010PropOp43
 70
     1
102
RTVSPost2010Prop44ColorIndex
 90
        5
102
RTVSPost2010Prop44ColorRGB
 90
      255
102
RTVSPost2010PropOp44
 70
     1
102
RTVSPost2010Prop45
280
     0
102
RTVSPost2010PropOp45
 70
     1
102
RTVSPost2010Prop46
 90
       50
102
RTVSPost2010PropOp46
 70
     1
102
RTVSPost2010Prop47
 90
       50
102
RTVSPost2010PropOp47
 70
     1
102
RTVSPost2010Prop48
 90
       50
102
RTVSPost2010PropOp48
 70
     1
102
RTVSPost2010Prop49
280
     0
102
RTVSPost2010PropOp49
 70
     1
102
RTVSPost2010Prop50
 90
       50
102
RTVSPost2010PropOp50
 70
     1
102
RTVSPost2010Prop51ColorIndex
 90
      256
102
RTVSPost2010Prop51ColorRGB
 90
-16777216
102
RTVSPost2010PropOp51
 70
     0
102
RTVSPost2010Prop52
140
1.0
102
RTVSPost2010PropOp52
 70
     0
102
RTVSPost2010Prop53
 90
        2
102
RTVSPost2010PropOp53
 70
     1
102
RTVSPost2010Prop54
  1
strokes_ogs.tif
102
RTVSPost2010PropOp54
 70
     1
102
RTVSPost2010Prop55
280
     0
102
RTVSPost2010PropOp55
 70
     1
102
RTVSPost2010Prop56
140
1.0
102
RTVSPost2010PropOp56
 70
     1
102
RTVSPost2010Prop57
140
1.0
102
RTVSPost2010PropOp57
 70
     1
102
RTVSPropertyOp0
 70
     1
102
RTVSPropertyOp1
 70
     1
102
RTVSPropertyOp2
 70
     1
102
RTVSPropertyOp3
 70
     1
102
RTVSPropertyOp4
 70
     1
102
RTVSPropertyOp5
 70
     1
102
RTVSPropertyOp6
 70
     1
102
RTVSPropertyOp7
 70
     1
102
RTVSPropertyOp8
 70
     1
102
RTVSPropertyOp9
 70
     1
102
RTVSPropertyOp10
 70
     1
102
RTVSPropertyOp11
 70
     1
102
RTVSPropertyOp12
 70
     1
102
RTVSPropertyOp13
 70
     1
102
RTVSPropertyOp14
 70
     1
102
RTVSPropertyOp15
 70
     1
102
RTVSPropertyOp16
 70
     1
102
RTVSPropertyOp17
 70
     1
102
RTVSPropertyOp18
 70
     1
102
RTVSPropertyOp19
 70
     1
102
RTVSPropertyOp20
 70
     1
102
RTVSPropertyOp21
 70
     1
102
RTVSPropertyOp22
 70
     1
102
RTVSPropertyOp23
 70
     1
102
RTVSPropertyOp24
 70
     1
102
RTVSPropertyOp25
 70
     1
102
RTVSPropertyOp26
 70
     1
102
RTVSPropertyOp27
 70
     1
102
RTVSPropertyOp28
 70
     1
102
RTVSPropertyOp29
 70
     1
102
RTVSPropertyOp30
 70
     1
102
RTVSPropertyOp31
 70
     1
102
RTVSPropertyOp32
 70
     1
102
RTVSPropertyOp33
 70
     1
102
RTVSPropertyOp34
 70
     1
102
RTVSPropertyOp35
 70
     1
102
RTVSPropertyOp36
 70
     1
102
RTVSPropertyOp37
 70
     1
102
RTVSPropertyOp38
 70
     1
102
RTVSPropertyOp39
 70
     1
102
RTVSPropertyOp40
 70
     1
102
RTVSPropertyOp41
 70
     1
102
RTVSPropertyOp42
 70
     1
102
RTVSPropertyOp43
 70
     1
102
RTVSPropertyOp44
 70
     1
102
RTVSPropertyOp45
 70
     1
102
RTVSPropertyOp46
 70
     1
102
RTVSPropertyOp47
 70
     1
102
RTVSPropertyOp48
 70
     1
102
RTVSPropertyOp49
 70
     1
102
RTVSPropertyOp50
 70
     1
102
RTVSPropertyOp51
 70
     0
102
RTVSPropertyOp52
 70
     0
102
RTVSPropertyOp53
 70
     1
102
RTVSPropertyOp54
 70
     1
102
RTVSPropertyOp55
 70
     1
102
RTVSPropertyOp56
 70
     1
102
RTVSPropertyOp57
 70
     1
102
RTVSPropertyOp58
 70
     1
102
RTVSPropertyOp59
 70
     1
102
RTVSPropertyOp60
 70
     1
102
RTVSPropertyOp61
 70
     1
102
RTVSPropertyOp62
 70
     1
  0
XRECORD
  5
5BF6
102
{ACAD_REACTORS
330
5BF5
102
}
330
5BF5
100
AcDbXrecord
280
     1
102
RTVSPost2010Prop28
280
     0
102
RTVSPost2010PropOp28
 70
     1
102
RTVSPost2010Prop29
280
     1
102
RTVSPost2010PropOp29
 70
     1
102
RTVSPost2010Prop30
280
     1
102
RTVSPost2010PropOp30
 70
     1
102
RTVSPost2010Prop31
280
     0
102
RTVSPost2010PropOp31
 70
     1
102
RTVSPost2010Prop32
280
     0
102
RTVSPost2010PropOp32
 70
     1
102
RTVSPost2010Prop33
280
     0
102
RTVSPost2010PropOp33
 70
     1
102
RTVSPost2010Prop34
280
     0
102
RTVSPost2010PropOp34
 70
     1
102
RTVSPost2010Prop35
280
     0
102
RTVSPost2010PropOp35
 70
     1
102
RTVSPost2010Prop36
280
     0
102
RTVSPost2010PropOp36
 70
     1
102
RTVSPost2010Prop37
 90
       50
102
RTVSPost2010PropOp37
 70
     1
102
RTVSPost2010Prop38
140
0.0
102
RTVSPost2010PropOp38
 70
     1
102
RTVSPost2010Prop39
140
1.0
102
RTVSPost2010PropOp39
 70
     1
102
RTVSPost2010Prop40
 90
        0
102
RTVSPost2010PropOp40
 70
     1
102
RTVSPost2010Prop41ColorIndex
 90
       18
102
RTVSPost2010Prop41ColorRGB
 90
        0
102
RTVSPost2010PropOp41
 70
     1
102
RTVSPost2010Prop42
 90
       50
102
RTVSPost2010PropOp42
 70
     1
102
RTVSPost2010Prop43
 90
        3
102
RTVSPost2010PropOp43
 70
     1
102
RTVSPost2010Prop44ColorIndex
 90
        5
102
RTVSPost2010Prop44ColorRGB
 90
      255
102
RTVSPost2010PropOp44
 70
     1
102
RTVSPost2010Prop45
280
     0
102
RTVSPost2010PropOp45
 70
     1
102
RTVSPost2010Prop46
 90
       50
102
RTVSPost2010PropOp46
 70
     1
102
RTVSPost2010Prop47
 90
       50
102
RTVSPost2010PropOp47
 70
     1
102
RTVSPost2010Prop48
 90
       50
102
RTVSPost2010PropOp48
 70
     1
102
RTVSPost2010Prop49
280
     0
102
RTVSPost2010PropOp49
 70
     1
102
RTVSPost2010Prop50
 90
       50
102
RTVSPost2010PropOp50
 70
     1
102
RTVSPost2010Prop51ColorIndex
 90
      256
102
RTVSPost2010Prop51ColorRGB
 90
-16777216
102
RTVSPost2010PropOp51
 70
     0
102
RTVSPost2010Prop52
140
1.0
102
RTVSPost2010PropOp52
 70
     0
102
RTVSPost2010Prop53
 90
        2
102
RTVSPost2010PropOp53
 70
     1
102
RTVSPost2010Prop54
  1
strokes_ogs.tif
102
RTVSPost2010PropOp54
 70
     1
102
RTVSPost2010Prop55
280
     0
102
RTVSPost2010PropOp55
 70
     1
102
RTVSPost2010Prop56
140
1.0
102
RTVSPost2010PropOp56
 70
     1
102
RTVSPost2010Prop57
140
1.0
102
RTVSPost2010PropOp57
 70
     1
102
RTVSPropertyOp0
 70
     1
102
RTVSPropertyOp1
 70
     1
102
RTVSPropertyOp2
 70
     1
102
RTVSPropertyOp3
 70
     1
102
RTVSPropertyOp4
 70
     1
102
RTVSPropertyOp5
 70
     1
102
RTVSPropertyOp6
 70
     1
102
RTVSPropertyOp7
 70
     1
102
RTVSPropertyOp8
 70
     1
102
RTVSPropertyOp9
 70
     1
102
RTVSPropertyOp10
 70
     1
102
RTVSPropertyOp11
 70
     1
102
RTVSPropertyOp12
 70
     1
102
RTVSPropertyOp13
 70
     1
102
RTVSPropertyOp14
 70
     1
102
RTVSPropertyOp15
 70
     1
102
RTVSPropertyOp16
 70
     1
102
RTVSPropertyOp17
 70
     1
102
RTVSPropertyOp18
 70
     1
102
RTVSPropertyOp19
 70
     1
102
RTVSPropertyOp20
 70
     1
102
RTVSPropertyOp21
 70
     1
102
RTVSPropertyOp22
 70
     1
102
RTVSPropertyOp23
 70
     1
102
RTVSPropertyOp24
 70
     1
102
RTVSPropertyOp25
 70
     1
102
RTVSPropertyOp26
 70
     1
102
RTVSPropertyOp27
 70
     1
102
RTVSPropertyOp28
 70
     1
102
RTVSPropertyOp29
 70
     1
102
RTVSPropertyOp30
 70
     1
102
RTVSPropertyOp31
 70
     1
102
RTVSPropertyOp32
 70
     1
102
RTVSPropertyOp33
 70
     1
102
RTVSPropertyOp34
 70
     1
102
RTVSPropertyOp35
 70
     1
102
RTVSPropertyOp36
 70
     1
102
RTVSPropertyOp37
 70
     1
102
RTVSPropertyOp38
 70
     1
102
RTVSPropertyOp39
 70
     1
102
RTVSPropertyOp40
 70
     1
102
RTVSPropertyOp41
 70
     1
102
RTVSPropertyOp42
 70
     1
102
RTVSPropertyOp43
 70
     1
102
RTVSPropertyOp44
 70
     1
102
RTVSPropertyOp45
 70
     1
102
RTVSPropertyOp46
 70
     1
102
RTVSPropertyOp47
 70
     1
102
RTVSPropertyOp48
 70
     1
102
RTVSPropertyOp49
 70
     1
102
RTVSPropertyOp50
 70
     1
102
RTVSPropertyOp51
 70
     0
102
RTVSPropertyOp52
 70
     0
102
RTVSPropertyOp53
 70
     1
102
RTVSPropertyOp54
 70
     1
102
RTVSPropertyOp55
 70
     1
102
RTVSPropertyOp56
 70
     1
102
RTVSPropertyOp57
 70
     1
102
RTVSPropertyOp58
 70
     1
102
RTVSPropertyOp59
 70
     1
102
RTVSPropertyOp60
 70
     1
102
RTVSPropertyOp61
 70
     1
102
RTVSPropertyOp62
 70
     1
  0
XRECORD
  5
5C04
102
{ACAD_REACTORS
330
5C03
102
}
330
5C03
100
AcDbXrecord
280
     1
102
RTVSPost2010Prop28
280
     0
102
RTVSPost2010PropOp28
 70
     1
102
RTVSPost2010Prop29
280
     1
102
RTVSPost2010PropOp29
 70
     1
102
RTVSPost2010Prop30
280
     1
102
RTVSPost2010PropOp30
 70
     1
102
RTVSPost2010Prop31
280
     0
102
RTVSPost2010PropOp31
 70
     1
102
RTVSPost2010Prop32
280
     0
102
RTVSPost2010PropOp32
 70
     1
102
RTVSPost2010Prop33
280
     0
102
RTVSPost2010PropOp33
 70
     1
102
RTVSPost2010Prop34
280
     0
102
RTVSPost2010PropOp34
 70
     1
102
RTVSPost2010Prop35
280
     0
102
RTVSPost2010PropOp35
 70
     1
102
RTVSPost2010Prop36
280
     0
102
RTVSPost2010PropOp36
 70
     1
102
RTVSPost2010Prop37
 90
       50
102
RTVSPost2010PropOp37
 70
     1
102
RTVSPost2010Prop38
140
0.0
102
RTVSPost2010PropOp38
 70
     1
102
RTVSPost2010Prop39
140
1.0
102
RTVSPost2010PropOp39
 70
     1
102
RTVSPost2010Prop40
 90
        0
102
RTVSPost2010PropOp40
 70
     1
102
RTVSPost2010Prop41ColorIndex
 90
       18
102
RTVSPost2010Prop41ColorRGB
 90
        0
102
RTVSPost2010PropOp41
 70
     1
102
RTVSPost2010Prop42
 90
       50
102
RTVSPost2010PropOp42
 70
     1
102
RTVSPost2010Prop43
 90
        3
102
RTVSPost2010PropOp43
 70
     1
102
RTVSPost2010Prop44ColorIndex
 90
        5
102
RTVSPost2010Prop44ColorRGB
 90
      255
102
RTVSPost2010PropOp44
 70
     1
102
RTVSPost2010Prop45
280
     0
102
RTVSPost2010PropOp45
 70
     1
102
RTVSPost2010Prop46
 90
       50
102
RTVSPost2010PropOp46
 70
     1
102
RTVSPost2010Prop47
 90
       50
102
RTVSPost2010PropOp47
 70
     1
102
RTVSPost2010Prop48
 90
       50
102
RTVSPost2010PropOp48
 70
     1
102
RTVSPost2010Prop49
280
     0
102
RTVSPost2010PropOp49
 70
     1
102
RTVSPost2010Prop50
 90
       50
102
RTVSPost2010PropOp50
 70
     1
102
RTVSPost2010Prop51ColorIndex
 90
      256
102
RTVSPost2010Prop51ColorRGB
 90
-16777216
102
RTVSPost2010PropOp51
 70
     0
102
RTVSPost2010Prop52
140
1.0
102
RTVSPost2010PropOp52
 70
     0
102
RTVSPost2010Prop53
 90
        2
102
RTVSPost2010PropOp53
 70
     1
102
RTVSPost2010Prop54
  1
strokes_ogs.tif
102
RTVSPost2010PropOp54
 70
     1
102
RTVSPost2010Prop55
280
     0
102
RTVSPost2010PropOp55
 70
     1
102
RTVSPost2010Prop56
140
1.0
102
RTVSPost2010PropOp56
 70
     1
102
RTVSPost2010Prop57
140
1.0
102
RTVSPost2010PropOp57
 70
     1
102
RTVSPropertyOp0
 70
     1
102
RTVSPropertyOp1
 70
     1
102
RTVSPropertyOp2
 70
     1
102
RTVSPropertyOp3
 70
     1
102
RTVSPropertyOp4
 70
     1
102
RTVSPropertyOp5
 70
     1
102
RTVSPropertyOp6
 70
     1
102
RTVSPropertyOp7
 70
     1
102
RTVSPropertyOp8
 70
     1
102
RTVSPropertyOp9
 70
     1
102
RTVSPropertyOp10
 70
     1
102
RTVSPropertyOp11
 70
     1
102
RTVSPropertyOp12
 70
     1
102
RTVSPropertyOp13
 70
     1
102
RTVSPropertyOp14
 70
     1
102
RTVSPropertyOp15
 70
     1
102
RTVSPropertyOp16
 70
     1
102
RTVSPropertyOp17
 70
     1
102
RTVSPropertyOp18
 70
     1
102
RTVSPropertyOp19
 70
     1
102
RTVSPropertyOp20
 70
     1
102
RTVSPropertyOp21
 70
     1
102
RTVSPropertyOp22
 70
     1
102
RTVSPropertyOp23
 70
     1
102
RTVSPropertyOp24
 70
     1
102
RTVSPropertyOp25
 70
     1
102
RTVSPropertyOp26
 70
     1
102
RTVSPropertyOp27
 70
     1
102
RTVSPropertyOp28
 70
     1
102
RTVSPropertyOp29
 70
     1
102
RTVSPropertyOp30
 70
     1
102
RTVSPropertyOp31
 70
     1
102
RTVSPropertyOp32
 70
     1
102
RTVSPropertyOp33
 70
     1
102
RTVSPropertyOp34
 70
     1
102
RTVSPropertyOp35
 70
     1
102
RTVSPropertyOp36
 70
     1
102
RTVSPropertyOp37
 70
     1
102
RTVSPropertyOp38
 70
     1
102
RTVSPropertyOp39
 70
     1
102
RTVSPropertyOp40
 70
     1
102
RTVSPropertyOp41
 70
     1
102
RTVSPropertyOp42
 70
     1
102
RTVSPropertyOp43
 70
     1
102
RTVSPropertyOp44
 70
     1
102
RTVSPropertyOp45
 70
     1
102
RTVSPropertyOp46
 70
     1
102
RTVSPropertyOp47
 70
     1
102
RTVSPropertyOp48
 70
     1
102
RTVSPropertyOp49
 70
     1
102
RTVSPropertyOp50
 70
     1
102
RTVSPropertyOp51
 70
     0
102
RTVSPropertyOp52
 70
     0
102
RTVSPropertyOp53
 70
     1
102
RTVSPropertyOp54
 70
     1
102
RTVSPropertyOp55
 70
     1
102
RTVSPropertyOp56
 70
     1
102
RTVSPropertyOp57
 70
     1
102
RTVSPropertyOp58
 70
     1
102
RTVSPropertyOp59
 70
     1
102
RTVSPropertyOp60
 70
     1
102
RTVSPropertyOp61
 70
     1
102
RTVSPropertyOp62
 70
     1
  0
XRECORD
  5
5C0C
102
{ACAD_REACTORS
330
5C0B
102
}
330
5C0B
100
AcDbXrecord
280
     1
102
RTVSPost2010Prop28
280
     0
102
RTVSPost2010PropOp28
 70
     1
102
RTVSPost2010Prop29
280
     1
102
RTVSPost2010PropOp29
 70
     1
102
RTVSPost2010Prop30
280
     1
102
RTVSPost2010PropOp30
 70
     1
102
RTVSPost2010Prop31
280
     0
102
RTVSPost2010PropOp31
 70
     1
102
RTVSPost2010Prop32
280
     0
102
RTVSPost2010PropOp32
 70
     1
102
RTVSPost2010Prop33
280
     0
102
RTVSPost2010PropOp33
 70
     1
102
RTVSPost2010Prop34
280
     0
102
RTVSPost2010PropOp34
 70
     1
102
RTVSPost2010Prop35
280
     0
102
RTVSPost2010PropOp35
 70
     1
102
RTVSPost2010Prop36
280
     0
102
RTVSPost2010PropOp36
 70
     1
102
RTVSPost2010Prop37
 90
       50
102
RTVSPost2010PropOp37
 70
     1
102
RTVSPost2010Prop38
140
0.0
102
RTVSPost2010PropOp38
 70
     1
102
RTVSPost2010Prop39
140
1.0
102
RTVSPost2010PropOp39
 70
     1
102
RTVSPost2010Prop40
 90
        0
102
RTVSPost2010PropOp40
 70
     1
102
RTVSPost2010Prop41ColorIndex
 90
       18
102
RTVSPost2010Prop41ColorRGB
 90
        0
102
RTVSPost2010PropOp41
 70
     1
102
RTVSPost2010Prop42
 90
       50
102
RTVSPost2010PropOp42
 70
     1
102
RTVSPost2010Prop43
 90
        3
102
RTVSPost2010PropOp43
 70
     1
102
RTVSPost2010Prop44ColorIndex
 90
        5
102
RTVSPost2010Prop44ColorRGB
 90
      255
102
RTVSPost2010PropOp44
 70
     1
102
RTVSPost2010Prop45
280
     0
102
RTVSPost2010PropOp45
 70
     1
102
RTVSPost2010Prop46
 90
       50
102
RTVSPost2010PropOp46
 70
     1
102
RTVSPost2010Prop47
 90
       50
102
RTVSPost2010PropOp47
 70
     1
102
RTVSPost2010Prop48
 90
       50
102
RTVSPost2010PropOp48
 70
     1
102
RTVSPost2010Prop49
280
     0
102
RTVSPost2010PropOp49
 70
     1
102
RTVSPost2010Prop50
 90
       50
102
RTVSPost2010PropOp50
 70
     1
102
RTVSPost2010Prop51ColorIndex
 90
      256
102
RTVSPost2010Prop51ColorRGB
 90
-16777216
102
RTVSPost2010PropOp51
 70
     0
102
RTVSPost2010Prop52
140
1.0
102
RTVSPost2010PropOp52
 70
     0
102
RTVSPost2010Prop53
 90
        2
102
RTVSPost2010PropOp53
 70
     1
102
RTVSPost2010Prop54
  1
strokes_ogs.tif
102
RTVSPost2010PropOp54
 70
     1
102
RTVSPost2010Prop55
280
     0
102
RTVSPost2010PropOp55
 70
     1
102
RTVSPost2010Prop56
140
1.0
102
RTVSPost2010PropOp56
 70
     1
102
RTVSPost2010Prop57
140
1.0
102
RTVSPost2010PropOp57
 70
     1
102
RTVSPropertyOp0
 70
     1
102
RTVSPropertyOp1
 70
     1
102
RTVSPropertyOp2
 70
     1
102
RTVSPropertyOp3
 70
     1
102
RTVSPropertyOp4
 70
     1
102
RTVSPropertyOp5
 70
     1
102
RTVSPropertyOp6
 70
     1
102
RTVSPropertyOp7
 70
     1
102
RTVSPropertyOp8
 70
     1
102
RTVSPropertyOp9
 70
     1
102
RTVSPropertyOp10
 70
     1
102
RTVSPropertyOp11
 70
     1
102
RTVSPropertyOp12
 70
     1
102
RTVSPropertyOp13
 70
     1
102
RTVSPropertyOp14
 70
     1
102
RTVSPropertyOp15
 70
     1
102
RTVSPropertyOp16
 70
     1
102
RTVSPropertyOp17
 70
     1
102
RTVSPropertyOp18
 70
     1
102
RTVSPropertyOp19
 70
     1
102
RTVSPropertyOp20
 70
     1
102
RTVSPropertyOp21
 70
     1
102
RTVSPropertyOp22
 70
     1
102
RTVSPropertyOp23
 70
     1
102
RTVSPropertyOp24
 70
     1
102
RTVSPropertyOp25
 70
     1
102
RTVSPropertyOp26
 70
     1
102
RTVSPropertyOp27
 70
     1
102
RTVSPropertyOp28
 70
     1
102
RTVSPropertyOp29
 70
     1
102
RTVSPropertyOp30
 70
     1
102
RTVSPropertyOp31
 70
     1
102
RTVSPropertyOp32
 70
     1
102
RTVSPropertyOp33
 70
     1
102
RTVSPropertyOp34
 70
     1
102
RTVSPropertyOp35
 70
     1
102
RTVSPropertyOp36
 70
     1
102
RTVSPropertyOp37
 70
     1
102
RTVSPropertyOp38
 70
     1
102
RTVSPropertyOp39
 70
     1
102
RTVSPropertyOp40
 70
     1
102
RTVSPropertyOp41
 70
     1
102
RTVSPropertyOp42
 70
     1
102
RTVSPropertyOp43
 70
     1
102
RTVSPropertyOp44
 70
     1
102
RTVSPropertyOp45
 70
     1
102
RTVSPropertyOp46
 70
     1
102
RTVSPropertyOp47
 70
     1
102
RTVSPropertyOp48
 70
     1
102
RTVSPropertyOp49
 70
     1
102
RTVSPropertyOp50
 70
     1
102
RTVSPropertyOp51
 70
     0
102
RTVSPropertyOp52
 70
     0
102
RTVSPropertyOp53
 70
     1
102
RTVSPropertyOp54
 70
     1
102
RTVSPropertyOp55
 70
     1
102
RTVSPropertyOp56
 70
     1
102
RTVSPropertyOp57
 70
     1
102
RTVSPropertyOp58
 70
     1
102
RTVSPropertyOp59
 70
     1
102
RTVSPropertyOp60
 70
     1
102
RTVSPropertyOp61
 70
     1
102
RTVSPropertyOp62
 70
     1
  0
XRECORD
  5
5BFE
102
{ACAD_REACTORS
330
5BFD
102
}
330
5BFD
100
AcDbXrecord
280
     1
102
RTVSPost2010Prop28
280
     0
102
RTVSPost2010PropOp28
 70
     1
102
RTVSPost2010Prop29
280
     1
102
RTVSPost2010PropOp29
 70
     1
102
RTVSPost2010Prop30
280
     1
102
RTVSPost2010PropOp30
 70
     1
102
RTVSPost2010Prop31
280
     0
102
RTVSPost2010PropOp31
 70
     1
102
RTVSPost2010Prop32
280
     0
102
RTVSPost2010PropOp32
 70
     1
102
RTVSPost2010Prop33
280
     0
102
RTVSPost2010PropOp33
 70
     1
102
RTVSPost2010Prop34
280
     0
102
RTVSPost2010PropOp34
 70
     1
102
RTVSPost2010Prop35
280
     0
102
RTVSPost2010PropOp35
 70
     1
102
RTVSPost2010Prop36
280
     0
102
RTVSPost2010PropOp36
 70
     1
102
RTVSPost2010Prop37
 90
       50
102
RTVSPost2010PropOp37
 70
     1
102
RTVSPost2010Prop38
140
0.0
102
RTVSPost2010PropOp38
 70
     1
102
RTVSPost2010Prop39
140
1.0
102
RTVSPost2010PropOp39
 70
     1
102
RTVSPost2010Prop40
 90
        0
102
RTVSPost2010PropOp40
 70
     1
102
RTVSPost2010Prop41ColorIndex
 90
       18
102
RTVSPost2010Prop41ColorRGB
 90
        0
102
RTVSPost2010PropOp41
 70
     1
102
RTVSPost2010Prop42
 90
       50
102
RTVSPost2010PropOp42
 70
     1
102
RTVSPost2010Prop43
 90
        3
102
RTVSPost2010PropOp43
 70
     1
102
RTVSPost2010Prop44ColorIndex
 90
        5
102
RTVSPost2010Prop44ColorRGB
 90
      255
102
RTVSPost2010PropOp44
 70
     1
102
RTVSPost2010Prop45
280
     0
102
RTVSPost2010PropOp45
 70
     1
102
RTVSPost2010Prop46
 90
       50
102
RTVSPost2010PropOp46
 70
     1
102
RTVSPost2010Prop47
 90
       50
102
RTVSPost2010PropOp47
 70
     1
102
RTVSPost2010Prop48
 90
       50
102
RTVSPost2010PropOp48
 70
     1
102
RTVSPost2010Prop49
280
     0
102
RTVSPost2010PropOp49
 70
     1
102
RTVSPost2010Prop50
 90
       50
102
RTVSPost2010PropOp50
 70
     1
102
RTVSPost2010Prop51ColorIndex
 90
      256
102
RTVSPost2010Prop51ColorRGB
 90
-16777216
102
RTVSPost2010PropOp51
 70
     0
102
RTVSPost2010Prop52
140
1.0
102
RTVSPost2010PropOp52
 70
     0
102
RTVSPost2010Prop53
 90
        2
102
RTVSPost2010PropOp53
 70
     1
102
RTVSPost2010Prop54
  1
strokes_ogs.tif
102
RTVSPost2010PropOp54
 70
     1
102
RTVSPost2010Prop55
280
     0
102
RTVSPost2010PropOp55
 70
     1
102
RTVSPost2010Prop56
140
1.0
102
RTVSPost2010PropOp56
 70
     1
102
RTVSPost2010Prop57
140
1.0
102
RTVSPost2010PropOp57
 70
     1
102
RTVSPropertyOp0
 70
     1
102
RTVSPropertyOp1
 70
     1
102
RTVSPropertyOp2
 70
     1
102
RTVSPropertyOp3
 70
     1
102
RTVSPropertyOp4
 70
     1
102
RTVSPropertyOp5
 70
     1
102
RTVSPropertyOp6
 70
     1
102
RTVSPropertyOp7
 70
     1
102
RTVSPropertyOp8
 70
     1
102
RTVSPropertyOp9
 70
     1
102
RTVSPropertyOp10
 70
     1
102
RTVSPropertyOp11
 70
     1
102
RTVSPropertyOp12
 70
     1
102
RTVSPropertyOp13
 70
     1
102
RTVSPropertyOp14
 70
     1
102
RTVSPropertyOp15
 70
     1
102
RTVSPropertyOp16
 70
     1
102
RTVSPropertyOp17
 70
     1
102
RTVSPropertyOp18
 70
     1
102
RTVSPropertyOp19
 70
     1
102
RTVSPropertyOp20
 70
     1
102
RTVSPropertyOp21
 70
     1
102
RTVSPropertyOp22
 70
     1
102
RTVSPropertyOp23
 70
     1
102
RTVSPropertyOp24
 70
     1
102
RTVSPropertyOp25
 70
     1
102
RTVSPropertyOp26
 70
     1
102
RTVSPropertyOp27
 70
     1
102
RTVSPropertyOp28
 70
     1
102
RTVSPropertyOp29
 70
     1
102
RTVSPropertyOp30
 70
     1
102
RTVSPropertyOp31
 70
     1
102
RTVSPropertyOp32
 70
     1
102
RTVSPropertyOp33
 70
     1
102
RTVSPropertyOp34
 70
     1
102
RTVSPropertyOp35
 70
     1
102
RTVSPropertyOp36
 70
     1
102
RTVSPropertyOp37
 70
     1
102
RTVSPropertyOp38
 70
     1
102
RTVSPropertyOp39
 70
     1
102
RTVSPropertyOp40
 70
     1
102
RTVSPropertyOp41
 70
     1
102
RTVSPropertyOp42
 70
     1
102
RTVSPropertyOp43
 70
     1
102
RTVSPropertyOp44
 70
     1
102
RTVSPropertyOp45
 70
     1
102
RTVSPropertyOp46
 70
     1
102
RTVSPropertyOp47
 70
     1
102
RTVSPropertyOp48
 70
     1
102
RTVSPropertyOp49
 70
     1
102
RTVSPropertyOp50
 70
     1
102
RTVSPropertyOp51
 70
     0
102
RTVSPropertyOp52
 70
     0
102
RTVSPropertyOp53
 70
     1
102
RTVSPropertyOp54
 70
     1
102
RTVSPropertyOp55
 70
     1
102
RTVSPropertyOp56
 70
     1
102
RTVSPropertyOp57
 70
     1
102
RTVSPropertyOp58
 70
     1
102
RTVSPropertyOp59
 70
     1
102
RTVSPropertyOp60
 70
     1
102
RTVSPropertyOp61
 70
     1
102
RTVSPropertyOp62
 70
     1
  0
XRECORD
  5
5C02
102
{ACAD_REACTORS
330
5C01
102
}
330
5C01
100
AcDbXrecord
280
     1
102
RTVSPost2010Prop28
280
     0
102
RTVSPost2010PropOp28
 70
     1
102
RTVSPost2010Prop29
280
     1
102
RTVSPost2010PropOp29
 70
     1
102
RTVSPost2010Prop30
280
     1
102
RTVSPost2010PropOp30
 70
     1
102
RTVSPost2010Prop31
280
     0
102
RTVSPost2010PropOp31
 70
     1
102
RTVSPost2010Prop32
280
     0
102
RTVSPost2010PropOp32
 70
     1
102
RTVSPost2010Prop33
280
     0
102
RTVSPost2010PropOp33
 70
     1
102
RTVSPost2010Prop34
280
     0
102
RTVSPost2010PropOp34
 70
     1
102
RTVSPost2010Prop35
280
     0
102
RTVSPost2010PropOp35
 70
     1
102
RTVSPost2010Prop36
280
     0
102
RTVSPost2010PropOp36
 70
     1
102
RTVSPost2010Prop37
 90
       50
102
RTVSPost2010PropOp37
 70
     1
102
RTVSPost2010Prop38
140
0.0
102
RTVSPost2010PropOp38
 70
     1
102
RTVSPost2010Prop39
140
1.0
102
RTVSPost2010PropOp39
 70
     1
102
RTVSPost2010Prop40
 90
        0
102
RTVSPost2010PropOp40
 70
     1
102
RTVSPost2010Prop41ColorIndex
 90
       18
102
RTVSPost2010Prop41ColorRGB
 90
        0
102
RTVSPost2010PropOp41
 70
     1
102
RTVSPost2010Prop42
 90
       50
102
RTVSPost2010PropOp42
 70
     1
102
RTVSPost2010Prop43
 90
        3
102
RTVSPost2010PropOp43
 70
     1
102
RTVSPost2010Prop44ColorIndex
 90
        5
102
RTVSPost2010Prop44ColorRGB
 90
      255
102
RTVSPost2010PropOp44
 70
     1
102
RTVSPost2010Prop45
280
     0
102
RTVSPost2010PropOp45
 70
     1
102
RTVSPost2010Prop46
 90
       50
102
RTVSPost2010PropOp46
 70
     1
102
RTVSPost2010Prop47
 90
       50
102
RTVSPost2010PropOp47
 70
     1
102
RTVSPost2010Prop48
 90
       50
102
RTVSPost2010PropOp48
 70
     1
102
RTVSPost2010Prop49
280
     0
102
RTVSPost2010PropOp49
 70
     1
102
RTVSPost2010Prop50
 90
       50
102
RTVSPost2010PropOp50
 70
     1
102
RTVSPost2010Prop51ColorIndex
 90
      256
102
RTVSPost2010Prop51ColorRGB
 90
-16777216
102
RTVSPost2010PropOp51
 70
     0
102
RTVSPost2010Prop52
140
1.0
102
RTVSPost2010PropOp52
 70
     0
102
RTVSPost2010Prop53
 90
        2
102
RTVSPost2010PropOp53
 70
     1
102
RTVSPost2010Prop54
  1
strokes_ogs.tif
102
RTVSPost2010PropOp54
 70
     1
102
RTVSPost2010Prop55
280
     0
102
RTVSPost2010PropOp55
 70
     1
102
RTVSPost2010Prop56
140
1.0
102
RTVSPost2010PropOp56
 70
     1
102
RTVSPost2010Prop57
140
1.0
102
RTVSPost2010PropOp57
 70
     1
102
RTVSPropertyOp0
 70
     1
102
RTVSPropertyOp1
 70
     1
102
RTVSPropertyOp2
 70
     1
102
RTVSPropertyOp3
 70
     1
102
RTVSPropertyOp4
 70
     1
102
RTVSPropertyOp5
 70
     1
102
RTVSPropertyOp6
 70
     1
102
RTVSPropertyOp7
 70
     1
102
RTVSPropertyOp8
 70
     1
102
RTVSPropertyOp9
 70
     1
102
RTVSPropertyOp10
 70
     1
102
RTVSPropertyOp11
 70
     1
102
RTVSPropertyOp12
 70
     1
102
RTVSPropertyOp13
 70
     1
102
RTVSPropertyOp14
 70
     1
102
RTVSPropertyOp15
 70
     1
102
RTVSPropertyOp16
 70
     1
102
RTVSPropertyOp17
 70
     1
102
RTVSPropertyOp18
 70
     1
102
RTVSPropertyOp19
 70
     1
102
RTVSPropertyOp20
 70
     1
102
RTVSPropertyOp21
 70
     1
102
RTVSPropertyOp22
 70
     1
102
RTVSPropertyOp23
 70
     1
102
RTVSPropertyOp24
 70
     1
102
RTVSPropertyOp25
 70
     1
102
RTVSPropertyOp26
 70
     1
102
RTVSPropertyOp27
 70
     1
102
RTVSPropertyOp28
 70
     1
102
RTVSPropertyOp29
 70
     1
102
RTVSPropertyOp30
 70
     1
102
RTVSPropertyOp31
 70
     1
102
RTVSPropertyOp32
 70
     1
102
RTVSPropertyOp33
 70
     1
102
RTVSPropertyOp34
 70
     1
102
RTVSPropertyOp35
 70
     1
102
RTVSPropertyOp36
 70
     1
102
RTVSPropertyOp37
 70
     1
102
RTVSPropertyOp38
 70
     1
102
RTVSPropertyOp39
 70
     1
102
RTVSPropertyOp40
 70
     1
102
RTVSPropertyOp41
 70
     1
102
RTVSPropertyOp42
 70
     1
102
RTVSPropertyOp43
 70
     1
102
RTVSPropertyOp44
 70
     1
102
RTVSPropertyOp45
 70
     1
102
RTVSPropertyOp46
 70
     1
102
RTVSPropertyOp47
 70
     1
102
RTVSPropertyOp48
 70
     1
102
RTVSPropertyOp49
 70
     1
102
RTVSPropertyOp50
 70
     1
102
RTVSPropertyOp51
 70
     0
102
RTVSPropertyOp52
 70
     0
102
RTVSPropertyOp53
 70
     1
102
RTVSPropertyOp54
 70
     1
102
RTVSPropertyOp55
 70
     1
102
RTVSPropertyOp56
 70
     1
102
RTVSPropertyOp57
 70
     1
102
RTVSPropertyOp58
 70
     1
102
RTVSPropertyOp59
 70
     1
102
RTVSPropertyOp60
 70
     1
102
RTVSPropertyOp61
 70
     1
102
RTVSPropertyOp62
 70
     1
  0
XRECORD
  5
5C1C
102
{ACAD_REACTORS
330
5C1B
102
}
330
5C1B
100
AcDbXrecord
280
     1
102
RTVSPost2010Prop28
280
     0
102
RTVSPost2010PropOp28
 70
     0
102
RTVSPost2010Prop29
280
     1
102
RTVSPost2010PropOp29
 70
     0
102
RTVSPost2010Prop30
280
     1
102
RTVSPost2010PropOp30
 70
     0
102
RTVSPost2010Prop31
280
     0
102
RTVSPost2010PropOp31
 70
     0
102
RTVSPost2010Prop32
280
     0
102
RTVSPost2010PropOp32
 70
     0
102
RTVSPost2010Prop33
280
     0
102
RTVSPost2010PropOp33
 70
     0
102
RTVSPost2010Prop34
280
     0
102
RTVSPost2010PropOp34
 70
     0
102
RTVSPost2010Prop35
280
     0
102
RTVSPost2010PropOp35
 70
     0
102
RTVSPost2010Prop36
280
     0
102
RTVSPost2010PropOp36
 70
     0
102
RTVSPost2010Prop37
 90
       50
102
RTVSPost2010PropOp37
 70
     0
102
RTVSPost2010Prop38
140
0.0
102
RTVSPost2010PropOp38
 70
     0
102
RTVSPost2010Prop39
140
1.0
102
RTVSPost2010PropOp39
 70
     0
102
RTVSPost2010Prop40
 90
        0
102
RTVSPost2010PropOp40
 70
     0
102
RTVSPost2010Prop41ColorIndex
 90
       18
102
RTVSPost2010Prop41ColorRGB
 90
        0
102
RTVSPost2010PropOp41
 70
     0
102
RTVSPost2010Prop42
 90
       50
102
RTVSPost2010PropOp42
 70
     0
102
RTVSPost2010Prop43
 90
        3
102
RTVSPost2010PropOp43
 70
     0
102
RTVSPost2010Prop44ColorIndex
 90
        5
102
RTVSPost2010Prop44ColorRGB
 90
      255
102
RTVSPost2010PropOp44
 70
     0
102
RTVSPost2010Prop45
280
     0
102
RTVSPost2010PropOp45
 70
     0
102
RTVSPost2010Prop46
 90
       50
102
RTVSPost2010PropOp46
 70
     0
102
RTVSPost2010Prop47
 90
       50
102
RTVSPost2010PropOp47
 70
     0
102
RTVSPost2010Prop48
 90
       50
102
RTVSPost2010PropOp48
 70
     0
102
RTVSPost2010Prop49
280
     0
102
RTVSPost2010PropOp49
 70
     0
102
RTVSPost2010Prop50
 90
       50
102
RTVSPost2010PropOp50
 70
     0
102
RTVSPost2010Prop51ColorIndex
 90
      256
102
RTVSPost2010Prop51ColorRGB
 90
-16777216
102
RTVSPost2010PropOp51
 70
     0
102
RTVSPost2010Prop52
140
1.0
102
RTVSPost2010PropOp52
 70
     0
102
RTVSPost2010Prop53
 90
        2
102
RTVSPost2010PropOp53
 70
     0
102
RTVSPost2010Prop54
  1
strokes_ogs.tif
102
RTVSPost2010PropOp54
 70
     0
102
RTVSPost2010Prop55
280
     0
102
RTVSPost2010PropOp55
 70
     0
102
RTVSPost2010Prop56
140
1.0
102
RTVSPost2010PropOp56
 70
     0
102
RTVSPost2010Prop57
140
1.0
102
RTVSPost2010PropOp57
 70
     0
102
RTVSPropertyOp0
 70
     0
102
RTVSPropertyOp1
 70
     0
102
RTVSPropertyOp2
 70
     0
102
RTVSPropertyOp3
 70
     0
102
RTVSPropertyOp4
 70
     0
102
RTVSPropertyOp5
 70
     0
102
RTVSPropertyOp6
 70
     0
102
RTVSPropertyOp7
 70
     0
102
RTVSPropertyOp8
 70
     0
102
RTVSPropertyOp9
 70
     0
102
RTVSPropertyOp10
 70
     0
102
RTVSPropertyOp11
 70
     0
102
RTVSPropertyOp12
 70
     0
102
RTVSPropertyOp13
 70
     0
102
RTVSPropertyOp14
 70
     2
102
RTVSPropertyOp15
 70
     0
102
RTVSPropertyOp16
 70
     0
102
RTVSPropertyOp17
 70
     0
102
RTVSPropertyOp18
 70
     0
102
RTVSPropertyOp19
 70
     0
102
RTVSPropertyOp20
 70
     0
102
RTVSPropertyOp21
 70
     0
102
RTVSPropertyOp22
 70
     0
102
RTVSPropertyOp23
 70
     0
102
RTVSPropertyOp24
 70
     0
102
RTVSPropertyOp25
 70
     0
102
RTVSPropertyOp26
 70
     0
102
RTVSPropertyOp27
 70
     0
102
RTVSPropertyOp28
 70
     0
102
RTVSPropertyOp29
 70
     0
102
RTVSPropertyOp30
 70
     0
102
RTVSPropertyOp31
 70
     0
102
RTVSPropertyOp32
 70
     0
102
RTVSPropertyOp33
 70
     0
102
RTVSPropertyOp34
 70
     0
102
RTVSPropertyOp35
 70
     0
102
RTVSPropertyOp36
 70
     0
102
RTVSPropertyOp37
 70
     0
102
RTVSPropertyOp38
 70
     0
102
RTVSPropertyOp39
 70
     0
102
RTVSPropertyOp40
 70
     0
102
RTVSPropertyOp41
 70
     0
102
RTVSPropertyOp42
 70
     0
102
RTVSPropertyOp43
 70
     0
102
RTVSPropertyOp44
 70
     0
102
RTVSPropertyOp45
 70
     0
102
RTVSPropertyOp46
 70
     0
102
RTVSPropertyOp47
 70
     0
102
RTVSPropertyOp48
 70
     0
102
RTVSPropertyOp49
 70
     0
102
RTVSPropertyOp50
 70
     0
102
RTVSPropertyOp51
 70
     0
102
RTVSPropertyOp52
 70
     0
102
RTVSPropertyOp53
 70
     0
102
RTVSPropertyOp54
 70
     0
102
RTVSPropertyOp55
 70
     0
102
RTVSPropertyOp56
 70
     0
102
RTVSPropertyOp57
 70
     0
102
RTVSPropertyOp58
 70
     1
102
RTVSPropertyOp59
 70
     1
102
RTVSPropertyOp60
 70
     1
102
RTVSPropertyOp61
 70
     1
102
RTVSPropertyOp62
 70
     1
  0
XRECORD
  5
5C0A
102
{ACAD_REACTORS
330
5C09
102
}
330
5C09
100
AcDbXrecord
280
     1
102
RTVSPost2010Prop28
280
     0
102
RTVSPost2010PropOp28
 70
     1
102
RTVSPost2010Prop29
280
     1
102
RTVSPost2010PropOp29
 70
     1
102
RTVSPost2010Prop30
280
     1
102
RTVSPost2010PropOp30
 70
     1
102
RTVSPost2010Prop31
280
     0
102
RTVSPost2010PropOp31
 70
     1
102
RTVSPost2010Prop32
280
     0
102
RTVSPost2010PropOp32
 70
     1
102
RTVSPost2010Prop33
280
     0
102
RTVSPost2010PropOp33
 70
     1
102
RTVSPost2010Prop34
280
     0
102
RTVSPost2010PropOp34
 70
     1
102
RTVSPost2010Prop35
280
     0
102
RTVSPost2010PropOp35
 70
     1
102
RTVSPost2010Prop36
280
     0
102
RTVSPost2010PropOp36
 70
     1
102
RTVSPost2010Prop37
 90
       50
102
RTVSPost2010PropOp37
 70
     1
102
RTVSPost2010Prop38
140
0.0
102
RTVSPost2010PropOp38
 70
     1
102
RTVSPost2010Prop39
140
1.0
102
RTVSPost2010PropOp39
 70
     1
102
RTVSPost2010Prop40
 90
        0
102
RTVSPost2010PropOp40
 70
     1
102
RTVSPost2010Prop41ColorIndex
 90
       18
102
RTVSPost2010Prop41ColorRGB
 90
        0
102
RTVSPost2010PropOp41
 70
     1
102
RTVSPost2010Prop42
 90
       50
102
RTVSPost2010PropOp42
 70
     1
102
RTVSPost2010Prop43
 90
        3
102
RTVSPost2010PropOp43
 70
     1
102
RTVSPost2010Prop44ColorIndex
 90
        5
102
RTVSPost2010Prop44ColorRGB
 90
      255
102
RTVSPost2010PropOp44
 70
     1
102
RTVSPost2010Prop45
280
     0
102
RTVSPost2010PropOp45
 70
     1
102
RTVSPost2010Prop46
 90
       50
102
RTVSPost2010PropOp46
 70
     1
102
RTVSPost2010Prop47
 90
       50
102
RTVSPost2010PropOp47
 70
     1
102
RTVSPost2010Prop48
 90
       50
102
RTVSPost2010PropOp48
 70
     1
102
RTVSPost2010Prop49
280
     0
102
RTVSPost2010PropOp49
 70
     1
102
RTVSPost2010Prop50
 90
       50
102
RTVSPost2010PropOp50
 70
     1
102
RTVSPost2010Prop51ColorIndex
 90
      256
102
RTVSPost2010Prop51ColorRGB
 90
-16777216
102
RTVSPost2010PropOp51
 70
     0
102
RTVSPost2010Prop52
140
1.0
102
RTVSPost2010PropOp52
 70
     0
102
RTVSPost2010Prop53
 90
        2
102
RTVSPost2010PropOp53
 70
     1
102
RTVSPost2010Prop54
  1
strokes_ogs.tif
102
RTVSPost2010PropOp54
 70
     1
102
RTVSPost2010Prop55
280
     0
102
RTVSPost2010PropOp55
 70
     1
102
RTVSPost2010Prop56
140
1.0
102
RTVSPost2010PropOp56
 70
     1
102
RTVSPost2010Prop57
140
1.0
102
RTVSPost2010PropOp57
 70
     1
102
RTVSPropertyOp0
 70
     1
102
RTVSPropertyOp1
 70
     1
102
RTVSPropertyOp2
 70
     1
102
RTVSPropertyOp3
 70
     1
102
RTVSPropertyOp4
 70
     1
102
RTVSPropertyOp5
 70
     1
102
RTVSPropertyOp6
 70
     1
102
RTVSPropertyOp7
 70
     1
102
RTVSPropertyOp8
 70
     1
102
RTVSPropertyOp9
 70
     1
102
RTVSPropertyOp10
 70
     1
102
RTVSPropertyOp11
 70
     1
102
RTVSPropertyOp12
 70
     1
102
RTVSPropertyOp13
 70
     1
102
RTVSPropertyOp14
 70
     1
102
RTVSPropertyOp15
 70
     1
102
RTVSPropertyOp16
 70
     1
102
RTVSPropertyOp17
 70
     1
102
RTVSPropertyOp18
 70
     1
102
RTVSPropertyOp19
 70
     1
102
RTVSPropertyOp20
 70
     1
102
RTVSPropertyOp21
 70
     1
102
RTVSPropertyOp22
 70
     1
102
RTVSPropertyOp23
 70
     1
102
RTVSPropertyOp24
 70
     1
102
RTVSPropertyOp25
 70
     1
102
RTVSPropertyOp26
 70
     1
102
RTVSPropertyOp27
 70
     1
102
RTVSPropertyOp28
 70
     1
102
RTVSPropertyOp29
 70
     1
102
RTVSPropertyOp30
 70
     1
102
RTVSPropertyOp31
 70
     1
102
RTVSPropertyOp32
 70
     1
102
RTVSPropertyOp33
 70
     1
102
RTVSPropertyOp34
 70
     1
102
RTVSPropertyOp35
 70
     1
102
RTVSPropertyOp36
 70
     1
102
RTVSPropertyOp37
 70
     1
102
RTVSPropertyOp38
 70
     1
102
RTVSPropertyOp39
 70
     1
102
RTVSPropertyOp40
 70
     1
102
RTVSPropertyOp41
 70
     1
102
RTVSPropertyOp42
 70
     1
102
RTVSPropertyOp43
 70
     1
102
RTVSPropertyOp44
 70
     1
102
RTVSPropertyOp45
 70
     1
102
RTVSPropertyOp46
 70
     1
102
RTVSPropertyOp47
 70
     1
102
RTVSPropertyOp48
 70
     1
102
RTVSPropertyOp49
 70
     1
102
RTVSPropertyOp50
 70
     1
102
RTVSPropertyOp51
 70
     0
102
RTVSPropertyOp52
 70
     0
102
RTVSPropertyOp53
 70
     1
102
RTVSPropertyOp54
 70
     1
102
RTVSPropertyOp55
 70
     1
102
RTVSPropertyOp56
 70
     1
102
RTVSPropertyOp57
 70
     1
102
RTVSPropertyOp58
 70
     1
102
RTVSPropertyOp59
 70
     1
102
RTVSPropertyOp60
 70
     1
102
RTVSPropertyOp61
 70
     1
102
RTVSPropertyOp62
 70
     1
  0
XRECORD
  5
5BEE
102
{ACAD_REACTORS
330
5BED
102
}
330
5BED
100
AcDbXrecord
280
     1
102
RTVSPost2010Prop28
280
     0
102
RTVSPost2010PropOp28
 70
     1
102
RTVSPost2010Prop29
280
     1
102
RTVSPost2010PropOp29
 70
     1
102
RTVSPost2010Prop30
280
     1
102
RTVSPost2010PropOp30
 70
     1
102
RTVSPost2010Prop31
280
     0
102
RTVSPost2010PropOp31
 70
     1
102
RTVSPost2010Prop32
280
     0
102
RTVSPost2010PropOp32
 70
     1
102
RTVSPost2010Prop33
280
     0
102
RTVSPost2010PropOp33
 70
     1
102
RTVSPost2010Prop34
280
     0
102
RTVSPost2010PropOp34
 70
     1
102
RTVSPost2010Prop35
280
     0
102
RTVSPost2010PropOp35
 70
     1
102
RTVSPost2010Prop36
280
     0
102
RTVSPost2010PropOp36
 70
     1
102
RTVSPost2010Prop37
 90
       50
102
RTVSPost2010PropOp37
 70
     1
102
RTVSPost2010Prop38
140
0.0
102
RTVSPost2010PropOp38
 70
     1
102
RTVSPost2010Prop39
140
1.0
102
RTVSPost2010PropOp39
 70
     1
102
RTVSPost2010Prop40
 90
        0
102
RTVSPost2010PropOp40
 70
     1
102
RTVSPost2010Prop41ColorIndex
 90
       18
102
RTVSPost2010Prop41ColorRGB
 90
        0
102
RTVSPost2010PropOp41
 70
     1
102
RTVSPost2010Prop42
 90
       50
102
RTVSPost2010PropOp42
 70
     1
102
RTVSPost2010Prop43
 90
        3
102
RTVSPost2010PropOp43
 70
     1
102
RTVSPost2010Prop44ColorIndex
 90
        5
102
RTVSPost2010Prop44ColorRGB
 90
      255
102
RTVSPost2010PropOp44
 70
     1
102
RTVSPost2010Prop45
280
     0
102
RTVSPost2010PropOp45
 70
     1
102
RTVSPost2010Prop46
 90
       50
102
RTVSPost2010PropOp46
 70
     1
102
RTVSPost2010Prop47
 90
       50
102
RTVSPost2010PropOp47
 70
     1
102
RTVSPost2010Prop48
 90
       50
102
RTVSPost2010PropOp48
 70
     1
102
RTVSPost2010Prop49
280
     0
102
RTVSPost2010PropOp49
 70
     1
102
RTVSPost2010Prop50
 90
       50
102
RTVSPost2010PropOp50
 70
     1
102
RTVSPost2010Prop51ColorIndex
 90
      256
102
RTVSPost2010Prop51ColorRGB
 90
-16777216
102
RTVSPost2010PropOp51
 70
     0
102
RTVSPost2010Prop52
140
1.0
102
RTVSPost2010PropOp52
 70
     0
102
RTVSPost2010Prop53
 90
        2
102
RTVSPost2010PropOp53
 70
     1
102
RTVSPost2010Prop54
  1
strokes_ogs.tif
102
RTVSPost2010PropOp54
 70
     1
102
RTVSPost2010Prop55
280
     0
102
RTVSPost2010PropOp55
 70
     1
102
RTVSPost2010Prop56
140
1.0
102
RTVSPost2010PropOp56
 70
     1
102
RTVSPost2010Prop57
140
1.0
102
RTVSPost2010PropOp57
 70
     1
102
RTVSPropertyOp0
 70
     1
102
RTVSPropertyOp1
 70
     1
102
RTVSPropertyOp2
 70
     1
102
RTVSPropertyOp3
 70
     1
102
RTVSPropertyOp4
 70
     1
102
RTVSPropertyOp5
 70
     1
102
RTVSPropertyOp6
 70
     1
102
RTVSPropertyOp7
 70
     1
102
RTVSPropertyOp8
 70
     1
102
RTVSPropertyOp9
 70
     1
102
RTVSPropertyOp10
 70
     1
102
RTVSPropertyOp11
 70
     1
102
RTVSPropertyOp12
 70
     1
102
RTVSPropertyOp13
 70
     1
102
RTVSPropertyOp14
 70
     1
102
RTVSPropertyOp15
 70
     1
102
RTVSPropertyOp16
 70
     1
102
RTVSPropertyOp17
 70
     1
102
RTVSPropertyOp18
 70
     1
102
RTVSPropertyOp19
 70
     1
102
RTVSPropertyOp20
 70
     1
102
RTVSPropertyOp21
 70
     1
102
RTVSPropertyOp22
 70
     1
102
RTVSPropertyOp23
 70
     1
102
RTVSPropertyOp24
 70
     1
102
RTVSPropertyOp25
 70
     1
102
RTVSPropertyOp26
 70
     1
102
RTVSPropertyOp27
 70
     1
102
RTVSPropertyOp28
 70
     1
102
RTVSPropertyOp29
 70
     1
102
RTVSPropertyOp30
 70
     1
102
RTVSPropertyOp31
 70
     1
102
RTVSPropertyOp32
 70
     1
102
RTVSPropertyOp33
 70
     1
102
RTVSPropertyOp34
 70
     1
102
RTVSPropertyOp35
 70
     1
102
RTVSPropertyOp36
 70
     1
102
RTVSPropertyOp37
 70
     1
102
RTVSPropertyOp38
 70
     1
102
RTVSPropertyOp39
 70
     1
102
RTVSPropertyOp40
 70
     1
102
RTVSPropertyOp41
 70
     1
102
RTVSPropertyOp42
 70
     1
102
RTVSPropertyOp43
 70
     1
102
RTVSPropertyOp44
 70
     1
102
RTVSPropertyOp45
 70
     1
102
RTVSPropertyOp46
 70
     1
102
RTVSPropertyOp47
 70
     1
102
RTVSPropertyOp48
 70
     1
102
RTVSPropertyOp49
 70
     1
102
RTVSPropertyOp50
 70
     1
102
RTVSPropertyOp51
 70
     0
102
RTVSPropertyOp52
 70
     0
102
RTVSPropertyOp53
 70
     1
102
RTVSPropertyOp54
 70
     1
102
RTVSPropertyOp55
 70
     1
102
RTVSPropertyOp56
 70
     1
102
RTVSPropertyOp57
 70
     1
102
RTVSPropertyOp58
 70
     1
102
RTVSPropertyOp59
 70
     1
102
RTVSPropertyOp60
 70
     1
102
RTVSPropertyOp61
 70
     1
102
RTVSPropertyOp62
 70
     1
  0
XRECORD
  5
5BF0
102
{ACAD_REACTORS
330
5BEF
102
}
330
5BEF
100
AcDbXrecord
280
     1
102
RTVSPost2010Prop28
280
     0
102
RTVSPost2010PropOp28
 70
     1
102
RTVSPost2010Prop29
280
     1
102
RTVSPost2010PropOp29
 70
     1
102
RTVSPost2010Prop30
280
     1
102
RTVSPost2010PropOp30
 70
     1
102
RTVSPost2010Prop31
280
     0
102
RTVSPost2010PropOp31
 70
     1
102
RTVSPost2010Prop32
280
     0
102
RTVSPost2010PropOp32
 70
     1
102
RTVSPost2010Prop33
280
     0
102
RTVSPost2010PropOp33
 70
     1
102
RTVSPost2010Prop34
280
     0
102
RTVSPost2010PropOp34
 70
     1
102
RTVSPost2010Prop35
280
     0
102
RTVSPost2010PropOp35
 70
     1
102
RTVSPost2010Prop36
280
     0
102
RTVSPost2010PropOp36
 70
     1
102
RTVSPost2010Prop37
 90
       50
102
RTVSPost2010PropOp37
 70
     1
102
RTVSPost2010Prop38
140
0.0
102
RTVSPost2010PropOp38
 70
     1
102
RTVSPost2010Prop39
140
1.0
102
RTVSPost2010PropOp39
 70
     1
102
RTVSPost2010Prop40
 90
        0
102
RTVSPost2010PropOp40
 70
     1
102
RTVSPost2010Prop41ColorIndex
 90
       18
102
RTVSPost2010Prop41ColorRGB
 90
        0
102
RTVSPost2010PropOp41
 70
     1
102
RTVSPost2010Prop42
 90
       50
102
RTVSPost2010PropOp42
 70
     1
102
RTVSPost2010Prop43
 90
        3
102
RTVSPost2010PropOp43
 70
     1
102
RTVSPost2010Prop44ColorIndex
 90
        5
102
RTVSPost2010Prop44ColorRGB
 90
      255
102
RTVSPost2010PropOp44
 70
     1
102
RTVSPost2010Prop45
280
     0
102
RTVSPost2010PropOp45
 70
     1
102
RTVSPost2010Prop46
 90
       50
102
RTVSPost2010PropOp46
 70
     1
102
RTVSPost2010Prop47
 90
       50
102
RTVSPost2010PropOp47
 70
     1
102
RTVSPost2010Prop48
 90
       50
102
RTVSPost2010PropOp48
 70
     1
102
RTVSPost2010Prop49
280
     0
102
RTVSPost2010PropOp49
 70
     1
102
RTVSPost2010Prop50
 90
       50
102
RTVSPost2010PropOp50
 70
     1
102
RTVSPost2010Prop51ColorIndex
 90
      256
102
RTVSPost2010Prop51ColorRGB
 90
-16777216
102
RTVSPost2010PropOp51
 70
     0
102
RTVSPost2010Prop52
140
1.0
102
RTVSPost2010PropOp52
 70
     0
102
RTVSPost2010Prop53
 90
        2
102
RTVSPost2010PropOp53
 70
     1
102
RTVSPost2010Prop54
  1
strokes_ogs.tif
102
RTVSPost2010PropOp54
 70
     1
102
RTVSPost2010Prop55
280
     0
102
RTVSPost2010PropOp55
 70
     1
102
RTVSPost2010Prop56
140
1.0
102
RTVSPost2010PropOp56
 70
     1
102
RTVSPost2010Prop57
140
1.0
102
RTVSPost2010PropOp57
 70
     1
102
RTVSPropertyOp0
 70
     1
102
RTVSPropertyOp1
 70
     1
102
RTVSPropertyOp2
 70
     1
102
RTVSPropertyOp3
 70
     1
102
RTVSPropertyOp4
 70
     1
102
RTVSPropertyOp5
 70
     1
102
RTVSPropertyOp6
 70
     1
102
RTVSPropertyOp7
 70
     1
102
RTVSPropertyOp8
 70
     1
102
RTVSPropertyOp9
 70
     1
102
RTVSPropertyOp10
 70
     1
102
RTVSPropertyOp11
 70
     1
102
RTVSPropertyOp12
 70
     1
102
RTVSPropertyOp13
 70
     1
102
RTVSPropertyOp14
 70
     1
102
RTVSPropertyOp15
 70
     1
102
RTVSPropertyOp16
 70
     1
102
RTVSPropertyOp17
 70
     1
102
RTVSPropertyOp18
 70
     1
102
RTVSPropertyOp19
 70
     1
102
RTVSPropertyOp20
 70
     1
102
RTVSPropertyOp21
 70
     1
102
RTVSPropertyOp22
 70
     1
102
RTVSPropertyOp23
 70
     1
102
RTVSPropertyOp24
 70
     1
102
RTVSPropertyOp25
 70
     1
102
RTVSPropertyOp26
 70
     1
102
RTVSPropertyOp27
 70
     1
102
RTVSPropertyOp28
 70
     1
102
RTVSPropertyOp29
 70
     1
102
RTVSPropertyOp30
 70
     1
102
RTVSPropertyOp31
 70
     1
102
RTVSPropertyOp32
 70
     1
102
RTVSPropertyOp33
 70
     1
102
RTVSPropertyOp34
 70
     1
102
RTVSPropertyOp35
 70
     1
102
RTVSPropertyOp36
 70
     1
102
RTVSPropertyOp37
 70
     1
102
RTVSPropertyOp38
 70
     1
102
RTVSPropertyOp39
 70
     1
102
RTVSPropertyOp40
 70
     1
102
RTVSPropertyOp41
 70
     1
102
RTVSPropertyOp42
 70
     1
102
RTVSPropertyOp43
 70
     1
102
RTVSPropertyOp44
 70
     1
102
RTVSPropertyOp45
 70
     1
102
RTVSPropertyOp46
 70
     1
102
RTVSPropertyOp47
 70
     1
102
RTVSPropertyOp48
 70
     1
102
RTVSPropertyOp49
 70
     1
102
RTVSPropertyOp50
 70
     1
102
RTVSPropertyOp51
 70
     0
102
RTVSPropertyOp52
 70
     0
102
RTVSPropertyOp53
 70
     1
102
RTVSPropertyOp54
 70
     1
102
RTVSPropertyOp55
 70
     1
102
RTVSPropertyOp56
 70
     1
102
RTVSPropertyOp57
 70
     1
102
RTVSPropertyOp58
 70
     1
102
RTVSPropertyOp59
 70
     1
102
RTVSPropertyOp60
 70
     1
102
RTVSPropertyOp61
 70
     1
102
RTVSPropertyOp62
 70
     1
  0
XRECORD
  5
5BF2
102
{ACAD_REACTORS
330
5BF1
102
}
330
5BF1
100
AcDbXrecord
280
     1
102
RTVSPost2010Prop28
280
     0
102
RTVSPost2010PropOp28
 70
     1
102
RTVSPost2010Prop29
280
     1
102
RTVSPost2010PropOp29
 70
     1
102
RTVSPost2010Prop30
280
     1
102
RTVSPost2010PropOp30
 70
     1
102
RTVSPost2010Prop31
280
     0
102
RTVSPost2010PropOp31
 70
     1
102
RTVSPost2010Prop32
280
     0
102
RTVSPost2010PropOp32
 70
     1
102
RTVSPost2010Prop33
280
     0
102
RTVSPost2010PropOp33
 70
     1
102
RTVSPost2010Prop34
280
     0
102
RTVSPost2010PropOp34
 70
     1
102
RTVSPost2010Prop35
280
     0
102
RTVSPost2010PropOp35
 70
     1
102
RTVSPost2010Prop36
280
     0
102
RTVSPost2010PropOp36
 70
     1
102
RTVSPost2010Prop37
 90
       50
102
RTVSPost2010PropOp37
 70
     1
102
RTVSPost2010Prop38
140
0.0
102
RTVSPost2010PropOp38
 70
     1
102
RTVSPost2010Prop39
140
1.0
102
RTVSPost2010PropOp39
 70
     1
102
RTVSPost2010Prop40
 90
        0
102
RTVSPost2010PropOp40
 70
     1
102
RTVSPost2010Prop41ColorIndex
 90
       18
102
RTVSPost2010Prop41ColorRGB
 90
        0
102
RTVSPost2010PropOp41
 70
     1
102
RTVSPost2010Prop42
 90
       50
102
RTVSPost2010PropOp42
 70
     1
102
RTVSPost2010Prop43
 90
        3
102
RTVSPost2010PropOp43
 70
     1
102
RTVSPost2010Prop44ColorIndex
 90
        5
102
RTVSPost2010Prop44ColorRGB
 90
      255
102
RTVSPost2010PropOp44
 70
     1
102
RTVSPost2010Prop45
280
     0
102
RTVSPost2010PropOp45
 70
     1
102
RTVSPost2010Prop46
 90
       50
102
RTVSPost2010PropOp46
 70
     1
102
RTVSPost2010Prop47
 90
       50
102
RTVSPost2010PropOp47
 70
     1
102
RTVSPost2010Prop48
 90
       50
102
RTVSPost2010PropOp48
 70
     1
102
RTVSPost2010Prop49
280
     0
102
RTVSPost2010PropOp49
 70
     1
102
RTVSPost2010Prop50
 90
       50
102
RTVSPost2010PropOp50
 70
     1
102
RTVSPost2010Prop51ColorIndex
 90
      256
102
RTVSPost2010Prop51ColorRGB
 90
-16777216
102
RTVSPost2010PropOp51
 70
     0
102
RTVSPost2010Prop52
140
1.0
102
RTVSPost2010PropOp52
 70
     0
102
RTVSPost2010Prop53
 90
        2
102
RTVSPost2010PropOp53
 70
     1
102
RTVSPost2010Prop54
  1
strokes_ogs.tif
102
RTVSPost2010PropOp54
 70
     1
102
RTVSPost2010Prop55
280
     0
102
RTVSPost2010PropOp55
 70
     1
102
RTVSPost2010Prop56
140
1.0
102
RTVSPost2010PropOp56
 70
     1
102
RTVSPost2010Prop57
140
1.0
102
RTVSPost2010PropOp57
 70
     1
102
RTVSPropertyOp0
 70
     1
102
RTVSPropertyOp1
 70
     1
102
RTVSPropertyOp2
 70
     1
102
RTVSPropertyOp3
 70
     1
102
RTVSPropertyOp4
 70
     1
102
RTVSPropertyOp5
 70
     1
102
RTVSPropertyOp6
 70
     1
102
RTVSPropertyOp7
 70
     1
102
RTVSPropertyOp8
 70
     1
102
RTVSPropertyOp9
 70
     1
102
RTVSPropertyOp10
 70
     1
102
RTVSPropertyOp11
 70
     1
102
RTVSPropertyOp12
 70
     1
102
RTVSPropertyOp13
 70
     1
102
RTVSPropertyOp14
 70
     1
102
RTVSPropertyOp15
 70
     1
102
RTVSPropertyOp16
 70
     1
102
RTVSPropertyOp17
 70
     1
102
RTVSPropertyOp18
 70
     1
102
RTVSPropertyOp19
 70
     1
102
RTVSPropertyOp20
 70
     1
102
RTVSPropertyOp21
 70
     1
102
RTVSPropertyOp22
 70
     1
102
RTVSPropertyOp23
 70
     1
102
RTVSPropertyOp24
 70
     1
102
RTVSPropertyOp25
 70
     1
102
RTVSPropertyOp26
 70
     1
102
RTVSPropertyOp27
 70
     1
102
RTVSPropertyOp28
 70
     1
102
RTVSPropertyOp29
 70
     1
102
RTVSPropertyOp30
 70
     1
102
RTVSPropertyOp31
 70
     1
102
RTVSPropertyOp32
 70
     1
102
RTVSPropertyOp33
 70
     1
102
RTVSPropertyOp34
 70
     1
102
RTVSPropertyOp35
 70
     1
102
RTVSPropertyOp36
 70
     1
102
RTVSPropertyOp37
 70
     1
102
RTVSPropertyOp38
 70
     1
102
RTVSPropertyOp39
 70
     1
102
RTVSPropertyOp40
 70
     1
102
RTVSPropertyOp41
 70
     1
102
RTVSPropertyOp42
 70
     1
102
RTVSPropertyOp43
 70
     1
102
RTVSPropertyOp44
 70
     1
102
RTVSPropertyOp45
 70
     1
102
RTVSPropertyOp46
 70
     1
102
RTVSPropertyOp47
 70
     1
102
RTVSPropertyOp48
 70
     1
102
RTVSPropertyOp49
 70
     1
102
RTVSPropertyOp50
 70
     1
102
RTVSPropertyOp51
 70
     0
102
RTVSPropertyOp52
 70
     0
102
RTVSPropertyOp53
 70
     1
102
RTVSPropertyOp54
 70
     1
102
RTVSPropertyOp55
 70
     1
102
RTVSPropertyOp56
 70
     1
102
RTVSPropertyOp57
 70
     1
102
RTVSPropertyOp58
 70
     1
102
RTVSPropertyOp59
 70
     1
102
RTVSPropertyOp60
 70
     1
102
RTVSPropertyOp61
 70
     1
102
RTVSPropertyOp62
 70
     1
  0
XRECORD
  5
5BF4
102
{ACAD_REACTORS
330
5BF3
102
}
330
5BF3
100
AcDbXrecord
280
     1
102
RTVSPost2010Prop28
280
     0
102
RTVSPost2010PropOp28
 70
     1
102
RTVSPost2010Prop29
280
     1
102
RTVSPost2010PropOp29
 70
     1
102
RTVSPost2010Prop30
280
     1
102
RTVSPost2010PropOp30
 70
     1
102
RTVSPost2010Prop31
280
     0
102
RTVSPost2010PropOp31
 70
     1
102
RTVSPost2010Prop32
280
     0
102
RTVSPost2010PropOp32
 70
     1
102
RTVSPost2010Prop33
280
     0
102
RTVSPost2010PropOp33
 70
     1
102
RTVSPost2010Prop34
280
     0
102
RTVSPost2010PropOp34
 70
     1
102
RTVSPost2010Prop35
280
     0
102
RTVSPost2010PropOp35
 70
     1
102
RTVSPost2010Prop36
280
     0
102
RTVSPost2010PropOp36
 70
     1
102
RTVSPost2010Prop37
 90
       50
102
RTVSPost2010PropOp37
 70
     1
102
RTVSPost2010Prop38
140
0.0
102
RTVSPost2010PropOp38
 70
     1
102
RTVSPost2010Prop39
140
1.0
102
RTVSPost2010PropOp39
 70
     1
102
RTVSPost2010Prop40
 90
        0
102
RTVSPost2010PropOp40
 70
     1
102
RTVSPost2010Prop41ColorIndex
 90
       18
102
RTVSPost2010Prop41ColorRGB
 90
        0
102
RTVSPost2010PropOp41
 70
     1
102
RTVSPost2010Prop42
 90
       50
102
RTVSPost2010PropOp42
 70
     1
102
RTVSPost2010Prop43
 90
        3
102
RTVSPost2010PropOp43
 70
     1
102
RTVSPost2010Prop44ColorIndex
 90
        5
102
RTVSPost2010Prop44ColorRGB
 90
      255
102
RTVSPost2010PropOp44
 70
     1
102
RTVSPost2010Prop45
280
     0
102
RTVSPost2010PropOp45
 70
     1
102
RTVSPost2010Prop46
 90
       50
102
RTVSPost2010PropOp46
 70
     1
102
RTVSPost2010Prop47
 90
       50
102
RTVSPost2010PropOp47
 70
     1
102
RTVSPost2010Prop48
 90
       50
102
RTVSPost2010PropOp48
 70
     1
102
RTVSPost2010Prop49
280
     0
102
RTVSPost2010PropOp49
 70
     1
102
RTVSPost2010Prop50
 90
       50
102
RTVSPost2010PropOp50
 70
     1
102
RTVSPost2010Prop51ColorIndex
 90
      256
102
RTVSPost2010Prop51ColorRGB
 90
-16777216
102
RTVSPost2010PropOp51
 70
     0
102
RTVSPost2010Prop52
140
1.0
102
RTVSPost2010PropOp52
 70
     0
102
RTVSPost2010Prop53
 90
        2
102
RTVSPost2010PropOp53
 70
     1
102
RTVSPost2010Prop54
  1
strokes_ogs.tif
102
RTVSPost2010PropOp54
 70
     1
102
RTVSPost2010Prop55
280
     0
102
RTVSPost2010PropOp55
 70
     1
102
RTVSPost2010Prop56
140
1.0
102
RTVSPost2010PropOp56
 70
     1
102
RTVSPost2010Prop57
140
1.0
102
RTVSPost2010PropOp57
 70
     1
102
RTVSPropertyOp0
 70
     1
102
RTVSPropertyOp1
 70
     1
102
RTVSPropertyOp2
 70
     1
102
RTVSPropertyOp3
 70
     1
102
RTVSPropertyOp4
 70
     1
102
RTVSPropertyOp5
 70
     1
102
RTVSPropertyOp6
 70
     1
102
RTVSPropertyOp7
 70
     1
102
RTVSPropertyOp8
 70
     1
102
RTVSPropertyOp9
 70
     1
102
RTVSPropertyOp10
 70
     1
102
RTVSPropertyOp11
 70
     1
102
RTVSPropertyOp12
 70
     1
102
RTVSPropertyOp13
 70
     1
102
RTVSPropertyOp14
 70
     1
102
RTVSPropertyOp15
 70
     1
102
RTVSPropertyOp16
 70
     1
102
RTVSPropertyOp17
 70
     1
102
RTVSPropertyOp18
 70
     1
102
RTVSPropertyOp19
 70
     1
102
RTVSPropertyOp20
 70
     1
102
RTVSPropertyOp21
 70
     1
102
RTVSPropertyOp22
 70
     1
102
RTVSPropertyOp23
 70
     1
102
RTVSPropertyOp24
 70
     1
102
RTVSPropertyOp25
 70
     1
102
RTVSPropertyOp26
 70
     1
102
RTVSPropertyOp27
 70
     1
102
RTVSPropertyOp28
 70
     1
102
RTVSPropertyOp29
 70
     1
102
RTVSPropertyOp30
 70
     1
102
RTVSPropertyOp31
 70
     1
102
RTVSPropertyOp32
 70
     1
102
RTVSPropertyOp33
 70
     1
102
RTVSPropertyOp34
 70
     1
102
RTVSPropertyOp35
 70
     1
102
RTVSPropertyOp36
 70
     1
102
RTVSPropertyOp37
 70
     1
102
RTVSPropertyOp38
 70
     1
102
RTVSPropertyOp39
 70
     1
102
RTVSPropertyOp40
 70
     1
102
RTVSPropertyOp41
 70
     1
102
RTVSPropertyOp42
 70
     1
102
RTVSPropertyOp43
 70
     1
102
RTVSPropertyOp44
 70
     1
102
RTVSPropertyOp45
 70
     1
102
RTVSPropertyOp46
 70
     1
102
RTVSPropertyOp47
 70
     1
102
RTVSPropertyOp48
 70
     1
102
RTVSPropertyOp49
 70
     1
102
RTVSPropertyOp50
 70
     1
102
RTVSPropertyOp51
 70
     0
102
RTVSPropertyOp52
 70
     0
102
RTVSPropertyOp53
 70
     1
102
RTVSPropertyOp54
 70
     1
102
RTVSPropertyOp55
 70
     1
102
RTVSPropertyOp56
 70
     1
102
RTVSPropertyOp57
 70
     1
102
RTVSPropertyOp58
 70
     1
102
RTVSPropertyOp59
 70
     1
102
RTVSPropertyOp60
 70
     1
102
RTVSPropertyOp61
 70
     1
102
RTVSPropertyOp62
 70
     1
  0
XRECORD
  5
5BFC
102
{ACAD_REACTORS
330
5BFB
102
}
330
5BFB
100
AcDbXrecord
280
     1
102
RTVSPost2010Prop28
280
     0
102
RTVSPost2010PropOp28
 70
     1
102
RTVSPost2010Prop29
280
     1
102
RTVSPost2010PropOp29
 70
     1
102
RTVSPost2010Prop30
280
     1
102
RTVSPost2010PropOp30
 70
     1
102
RTVSPost2010Prop31
280
     0
102
RTVSPost2010PropOp31
 70
     1
102
RTVSPost2010Prop32
280
     0
102
RTVSPost2010PropOp32
 70
     1
102
RTVSPost2010Prop33
280
     0
102
RTVSPost2010PropOp33
 70
     1
102
RTVSPost2010Prop34
280
     0
102
RTVSPost2010PropOp34
 70
     1
102
RTVSPost2010Prop35
280
     0
102
RTVSPost2010PropOp35
 70
     1
102
RTVSPost2010Prop36
280
     0
102
RTVSPost2010PropOp36
 70
     1
102
RTVSPost2010Prop37
 90
       50
102
RTVSPost2010PropOp37
 70
     1
102
RTVSPost2010Prop38
140
0.0
102
RTVSPost2010PropOp38
 70
     1
102
RTVSPost2010Prop39
140
1.0
102
RTVSPost2010PropOp39
 70
     1
102
RTVSPost2010Prop40
 90
        0
102
RTVSPost2010PropOp40
 70
     1
102
RTVSPost2010Prop41ColorIndex
 90
       18
102
RTVSPost2010Prop41ColorRGB
 90
        0
102
RTVSPost2010PropOp41
 70
     1
102
RTVSPost2010Prop42
 90
       50
102
RTVSPost2010PropOp42
 70
     1
102
RTVSPost2010Prop43
 90
        3
102
RTVSPost2010PropOp43
 70
     1
102
RTVSPost2010Prop44ColorIndex
 90
        5
102
RTVSPost2010Prop44ColorRGB
 90
      255
102
RTVSPost2010PropOp44
 70
     1
102
RTVSPost2010Prop45
280
     0
102
RTVSPost2010PropOp45
 70
     1
102
RTVSPost2010Prop46
 90
       50
102
RTVSPost2010PropOp46
 70
     1
102
RTVSPost2010Prop47
 90
       50
102
RTVSPost2010PropOp47
 70
     1
102
RTVSPost2010Prop48
 90
       50
102
RTVSPost2010PropOp48
 70
     1
102
RTVSPost2010Prop49
280
     0
102
RTVSPost2010PropOp49
 70
     1
102
RTVSPost2010Prop50
 90
       50
102
RTVSPost2010PropOp50
 70
     1
102
RTVSPost2010Prop51ColorIndex
 90
      256
102
RTVSPost2010Prop51ColorRGB
 90
-16777216
102
RTVSPost2010PropOp51
 70
     0
102
RTVSPost2010Prop52
140
1.0
102
RTVSPost2010PropOp52
 70
     0
102
RTVSPost2010Prop53
 90
        2
102
RTVSPost2010PropOp53
 70
     1
102
RTVSPost2010Prop54
  1
strokes_ogs.tif
102
RTVSPost2010PropOp54
 70
     1
102
RTVSPost2010Prop55
280
     0
102
RTVSPost2010PropOp55
 70
     1
102
RTVSPost2010Prop56
140
1.0
102
RTVSPost2010PropOp56
 70
     1
102
RTVSPost2010Prop57
140
1.0
102
RTVSPost2010PropOp57
 70
     1
102
RTVSPropertyOp0
 70
     1
102
RTVSPropertyOp1
 70
     1
102
RTVSPropertyOp2
 70
     1
102
RTVSPropertyOp3
 70
     1
102
RTVSPropertyOp4
 70
     1
102
RTVSPropertyOp5
 70
     1
102
RTVSPropertyOp6
 70
     1
102
RTVSPropertyOp7
 70
     1
102
RTVSPropertyOp8
 70
     1
102
RTVSPropertyOp9
 70
     1
102
RTVSPropertyOp10
 70
     1
102
RTVSPropertyOp11
 70
     1
102
RTVSPropertyOp12
 70
     1
102
RTVSPropertyOp13
 70
     1
102
RTVSPropertyOp14
 70
     1
102
RTVSPropertyOp15
 70
     1
102
RTVSPropertyOp16
 70
     1
102
RTVSPropertyOp17
 70
     1
102
RTVSPropertyOp18
 70
     1
102
RTVSPropertyOp19
 70
     1
102
RTVSPropertyOp20
 70
     1
102
RTVSPropertyOp21
 70
     1
102
RTVSPropertyOp22
 70
     1
102
RTVSPropertyOp23
 70
     1
102
RTVSPropertyOp24
 70
     1
102
RTVSPropertyOp25
 70
     1
102
RTVSPropertyOp26
 70
     1
102
RTVSPropertyOp27
 70
     1
102
RTVSPropertyOp28
 70
     1
102
RTVSPropertyOp29
 70
     1
102
RTVSPropertyOp30
 70
     1
102
RTVSPropertyOp31
 70
     1
102
RTVSPropertyOp32
 70
     1
102
RTVSPropertyOp33
 70
     1
102
RTVSPropertyOp34
 70
     1
102
RTVSPropertyOp35
 70
     1
102
RTVSPropertyOp36
 70
     1
102
RTVSPropertyOp37
 70
     1
102
RTVSPropertyOp38
 70
     1
102
RTVSPropertyOp39
 70
     1
102
RTVSPropertyOp40
 70
     1
102
RTVSPropertyOp41
 70
     1
102
RTVSPropertyOp42
 70
     1
102
RTVSPropertyOp43
 70
     1
102
RTVSPropertyOp44
 70
     1
102
RTVSPropertyOp45
 70
     1
102
RTVSPropertyOp46
 70
     1
102
RTVSPropertyOp47
 70
     1
102
RTVSPropertyOp48
 70
     1
102
RTVSPropertyOp49
 70
     1
102
RTVSPropertyOp50
 70
     1
102
RTVSPropertyOp51
 70
     0
102
RTVSPropertyOp52
 70
     0
102
RTVSPropertyOp53
 70
     1
102
RTVSPropertyOp54
 70
     1
102
RTVSPropertyOp55
 70
     1
102
RTVSPropertyOp56
 70
     1
102
RTVSPropertyOp57
 70
     1
102
RTVSPropertyOp58
 70
     1
102
RTVSPropertyOp59
 70
     1
102
RTVSPropertyOp60
 70
     1
102
RTVSPropertyOp61
 70
     1
102
RTVSPropertyOp62
 70
     1
  0
XRECORD
  5
5C18
102
{ACAD_REACTORS
330
5C17
102
}
330
5C17
100
AcDbXrecord
280
     1
102
RTVSPost2010Prop28
280
     0
102
RTVSPost2010PropOp28
 70
     0
102
RTVSPost2010Prop29
280
     1
102
RTVSPost2010PropOp29
 70
     0
102
RTVSPost2010Prop30
280
     1
102
RTVSPost2010PropOp30
 70
     0
102
RTVSPost2010Prop31
280
     0
102
RTVSPost2010PropOp31
 70
     0
102
RTVSPost2010Prop32
280
     0
102
RTVSPost2010PropOp32
 70
     0
102
RTVSPost2010Prop33
280
     0
102
RTVSPost2010PropOp33
 70
     0
102
RTVSPost2010Prop34
280
     0
102
RTVSPost2010PropOp34
 70
     0
102
RTVSPost2010Prop35
280
     0
102
RTVSPost2010PropOp35
 70
     0
102
RTVSPost2010Prop36
280
     0
102
RTVSPost2010PropOp36
 70
     0
102
RTVSPost2010Prop37
 90
       50
102
RTVSPost2010PropOp37
 70
     0
102
RTVSPost2010Prop38
140
0.0
102
RTVSPost2010PropOp38
 70
     0
102
RTVSPost2010Prop39
140
1.0
102
RTVSPost2010PropOp39
 70
     0
102
RTVSPost2010Prop40
 90
        0
102
RTVSPost2010PropOp40
 70
     0
102
RTVSPost2010Prop41ColorIndex
 90
       18
102
RTVSPost2010Prop41ColorRGB
 90
        0
102
RTVSPost2010PropOp41
 70
     0
102
RTVSPost2010Prop42
 90
       50
102
RTVSPost2010PropOp42
 70
     0
102
RTVSPost2010Prop43
 90
        3
102
RTVSPost2010PropOp43
 70
     0
102
RTVSPost2010Prop44ColorIndex
 90
        5
102
RTVSPost2010Prop44ColorRGB
 90
      255
102
RTVSPost2010PropOp44
 70
     0
102
RTVSPost2010Prop45
280
     0
102
RTVSPost2010PropOp45
 70
     0
102
RTVSPost2010Prop46
 90
       50
102
RTVSPost2010PropOp46
 70
     0
102
RTVSPost2010Prop47
 90
       50
102
RTVSPost2010PropOp47
 70
     0
102
RTVSPost2010Prop48
 90
       50
102
RTVSPost2010PropOp48
 70
     0
102
RTVSPost2010Prop49
280
     0
102
RTVSPost2010PropOp49
 70
     0
102
RTVSPost2010Prop50
 90
       50
102
RTVSPost2010PropOp50
 70
     0
102
RTVSPost2010Prop51ColorIndex
 90
      256
102
RTVSPost2010Prop51ColorRGB
 90
-16777216
102
RTVSPost2010PropOp51
 70
     0
102
RTVSPost2010Prop52
140
1.0
102
RTVSPost2010PropOp52
 70
     0
102
RTVSPost2010Prop53
 90
        2
102
RTVSPost2010PropOp53
 70
     0
102
RTVSPost2010Prop54
  1
strokes_ogs.tif
102
RTVSPost2010PropOp54
 70
     0
102
RTVSPost2010Prop55
280
     0
102
RTVSPost2010PropOp55
 70
     0
102
RTVSPost2010Prop56
140
1.0
102
RTVSPost2010PropOp56
 70
     0
102
RTVSPost2010Prop57
140
1.0
102
RTVSPost2010PropOp57
 70
     0
102
RTVSPropertyOp0
 70
     0
102
RTVSPropertyOp1
 70
     0
102
RTVSPropertyOp2
 70
     0
102
RTVSPropertyOp3
 70
     0
102
RTVSPropertyOp4
 70
     0
102
RTVSPropertyOp5
 70
     0
102
RTVSPropertyOp6
 70
     0
102
RTVSPropertyOp7
 70
     0
102
RTVSPropertyOp8
 70
     0
102
RTVSPropertyOp9
 70
     0
102
RTVSPropertyOp10
 70
     0
102
RTVSPropertyOp11
 70
     0
102
RTVSPropertyOp12
 70
     0
102
RTVSPropertyOp13
 70
     0
102
RTVSPropertyOp14
 70
     2
102
RTVSPropertyOp15
 70
     0
102
RTVSPropertyOp16
 70
     0
102
RTVSPropertyOp17
 70
     0
102
RTVSPropertyOp18
 70
     0
102
RTVSPropertyOp19
 70
     0
102
RTVSPropertyOp20
 70
     0
102
RTVSPropertyOp21
 70
     0
102
RTVSPropertyOp22
 70
     0
102
RTVSPropertyOp23
 70
     0
102
RTVSPropertyOp24
 70
     0
102
RTVSPropertyOp25
 70
     0
102
RTVSPropertyOp26
 70
     0
102
RTVSPropertyOp27
 70
     0
102
RTVSPropertyOp28
 70
     0
102
RTVSPropertyOp29
 70
     0
102
RTVSPropertyOp30
 70
     0
102
RTVSPropertyOp31
 70
     0
102
RTVSPropertyOp32
 70
     0
102
RTVSPropertyOp33
 70
     0
102
RTVSPropertyOp34
 70
     0
102
RTVSPropertyOp35
 70
     0
102
RTVSPropertyOp36
 70
     0
102
RTVSPropertyOp37
 70
     0
102
RTVSPropertyOp38
 70
     0
102
RTVSPropertyOp39
 70
     0
102
RTVSPropertyOp40
 70
     0
102
RTVSPropertyOp41
 70
     0
102
RTVSPropertyOp42
 70
     0
102
RTVSPropertyOp43
 70
     0
102
RTVSPropertyOp44
 70
     0
102
RTVSPropertyOp45
 70
     0
102
RTVSPropertyOp46
 70
     0
102
RTVSPropertyOp47
 70
     0
102
RTVSPropertyOp48
 70
     0
102
RTVSPropertyOp49
 70
     0
102
RTVSPropertyOp50
 70
     0
102
RTVSPropertyOp51
 70
     0
102
RTVSPropertyOp52
 70
     0
102
RTVSPropertyOp53
 70
     0
102
RTVSPropertyOp54
 70
     0
102
RTVSPropertyOp55
 70
     0
102
RTVSPropertyOp56
 70
     0
102
RTVSPropertyOp57
 70
     0
102
RTVSPropertyOp58
 70
     1
102
RTVSPropertyOp59
 70
     1
102
RTVSPropertyOp60
 70
     1
102
RTVSPropertyOp61
 70
     1
102
RTVSPropertyOp62
 70
     1
  0
XRECORD
  5
5C08
102
{ACAD_REACTORS
330
5C07
102
}
330
5C07
100
AcDbXrecord
280
     1
102
RTVSPost2010Prop28
280
     0
102
RTVSPost2010PropOp28
 70
     1
102
RTVSPost2010Prop29
280
     1
102
RTVSPost2010PropOp29
 70
     1
102
RTVSPost2010Prop30
280
     1
102
RTVSPost2010PropOp30
 70
     1
102
RTVSPost2010Prop31
280
     0
102
RTVSPost2010PropOp31
 70
     1
102
RTVSPost2010Prop32
280
     0
102
RTVSPost2010PropOp32
 70
     1
102
RTVSPost2010Prop33
280
     0
102
RTVSPost2010PropOp33
 70
     1
102
RTVSPost2010Prop34
280
     0
102
RTVSPost2010PropOp34
 70
     1
102
RTVSPost2010Prop35
280
     0
102
RTVSPost2010PropOp35
 70
     1
102
RTVSPost2010Prop36
280
     0
102
RTVSPost2010PropOp36
 70
     1
102
RTVSPost2010Prop37
 90
       50
102
RTVSPost2010PropOp37
 70
     1
102
RTVSPost2010Prop38
140
0.0
102
RTVSPost2010PropOp38
 70
     1
102
RTVSPost2010Prop39
140
1.0
102
RTVSPost2010PropOp39
 70
     1
102
RTVSPost2010Prop40
 90
        0
102
RTVSPost2010PropOp40
 70
     1
102
RTVSPost2010Prop41ColorIndex
 90
       18
102
RTVSPost2010Prop41ColorRGB
 90
        0
102
RTVSPost2010PropOp41
 70
     1
102
RTVSPost2010Prop42
 90
       50
102
RTVSPost2010PropOp42
 70
     1
102
RTVSPost2010Prop43
 90
        3
102
RTVSPost2010PropOp43
 70
     1
102
RTVSPost2010Prop44ColorIndex
 90
        5
102
RTVSPost2010Prop44ColorRGB
 90
      255
102
RTVSPost2010PropOp44
 70
     1
102
RTVSPost2010Prop45
280
     0
102
RTVSPost2010PropOp45
 70
     1
102
RTVSPost2010Prop46
 90
       50
102
RTVSPost2010PropOp46
 70
     1
102
RTVSPost2010Prop47
 90
       50
102
RTVSPost2010PropOp47
 70
     1
102
RTVSPost2010Prop48
 90
       50
102
RTVSPost2010PropOp48
 70
     1
102
RTVSPost2010Prop49
280
     0
102
RTVSPost2010PropOp49
 70
     1
102
RTVSPost2010Prop50
 90
       50
102
RTVSPost2010PropOp50
 70
     1
102
RTVSPost2010Prop51ColorIndex
 90
      256
102
RTVSPost2010Prop51ColorRGB
 90
-16777216
102
RTVSPost2010PropOp51
 70
     0
102
RTVSPost2010Prop52
140
1.0
102
RTVSPost2010PropOp52
 70
     0
102
RTVSPost2010Prop53
 90
        2
102
RTVSPost2010PropOp53
 70
     1
102
RTVSPost2010Prop54
  1
strokes_ogs.tif
102
RTVSPost2010PropOp54
 70
     1
102
RTVSPost2010Prop55
280
     0
102
RTVSPost2010PropOp55
 70
     1
102
RTVSPost2010Prop56
140
1.0
102
RTVSPost2010PropOp56
 70
     1
102
RTVSPost2010Prop57
140
1.0
102
RTVSPost2010PropOp57
 70
     1
102
RTVSPropertyOp0
 70
     1
102
RTVSPropertyOp1
 70
     1
102
RTVSPropertyOp2
 70
     1
102
RTVSPropertyOp3
 70
     1
102
RTVSPropertyOp4
 70
     1
102
RTVSPropertyOp5
 70
     1
102
RTVSPropertyOp6
 70
     1
102
RTVSPropertyOp7
 70
     1
102
RTVSPropertyOp8
 70
     1
102
RTVSPropertyOp9
 70
     1
102
RTVSPropertyOp10
 70
     1
102
RTVSPropertyOp11
 70
     1
102
RTVSPropertyOp12
 70
     1
102
RTVSPropertyOp13
 70
     1
102
RTVSPropertyOp14
 70
     1
102
RTVSPropertyOp15
 70
     1
102
RTVSPropertyOp16
 70
     1
102
RTVSPropertyOp17
 70
     1
102
RTVSPropertyOp18
 70
     1
102
RTVSPropertyOp19
 70
     1
102
RTVSPropertyOp20
 70
     1
102
RTVSPropertyOp21
 70
     1
102
RTVSPropertyOp22
 70
     1
102
RTVSPropertyOp23
 70
     1
102
RTVSPropertyOp24
 70
     1
102
RTVSPropertyOp25
 70
     1
102
RTVSPropertyOp26
 70
     1
102
RTVSPropertyOp27
 70
     1
102
RTVSPropertyOp28
 70
     1
102
RTVSPropertyOp29
 70
     1
102
RTVSPropertyOp30
 70
     1
102
RTVSPropertyOp31
 70
     1
102
RTVSPropertyOp32
 70
     1
102
RTVSPropertyOp33
 70
     1
102
RTVSPropertyOp34
 70
     1
102
RTVSPropertyOp35
 70
     1
102
RTVSPropertyOp36
 70
     1
102
RTVSPropertyOp37
 70
     1
102
RTVSPropertyOp38
 70
     1
102
RTVSPropertyOp39
 70
     1
102
RTVSPropertyOp40
 70
     1
102
RTVSPropertyOp41
 70
     1
102
RTVSPropertyOp42
 70
     1
102
RTVSPropertyOp43
 70
     1
102
RTVSPropertyOp44
 70
     1
102
RTVSPropertyOp45
 70
     1
102
RTVSPropertyOp46
 70
     1
102
RTVSPropertyOp47
 70
     1
102
RTVSPropertyOp48
 70
     1
102
RTVSPropertyOp49
 70
     1
102
RTVSPropertyOp50
 70
     1
102
RTVSPropertyOp51
 70
     0
102
RTVSPropertyOp52
 70
     0
102
RTVSPropertyOp53
 70
     1
102
RTVSPropertyOp54
 70
     1
102
RTVSPropertyOp55
 70
     1
102
RTVSPropertyOp56
 70
     1
102
RTVSPropertyOp57
 70
     1
102
RTVSPropertyOp58
 70
     1
102
RTVSPropertyOp59
 70
     1
102
RTVSPropertyOp60
 70
     1
102
RTVSPropertyOp61
 70
     1
102
RTVSPropertyOp62
 70
     1
  0
XRECORD
  5
5C1A
102
{ACAD_REACTORS
330
5C19
102
}
330
5C19
100
AcDbXrecord
280
     1
102
RTVSPost2010Prop28
280
     0
102
RTVSPost2010PropOp28
 70
     0
102
RTVSPost2010Prop29
280
     1
102
RTVSPost2010PropOp29
 70
     0
102
RTVSPost2010Prop30
280
     1
102
RTVSPost2010PropOp30
 70
     0
102
RTVSPost2010Prop31
280
     0
102
RTVSPost2010PropOp31
 70
     0
102
RTVSPost2010Prop32
280
     0
102
RTVSPost2010PropOp32
 70
     0
102
RTVSPost2010Prop33
280
     0
102
RTVSPost2010PropOp33
 70
     0
102
RTVSPost2010Prop34
280
     0
102
RTVSPost2010PropOp34
 70
     0
102
RTVSPost2010Prop35
280
     0
102
RTVSPost2010PropOp35
 70
     0
102
RTVSPost2010Prop36
280
     0
102
RTVSPost2010PropOp36
 70
     0
102
RTVSPost2010Prop37
 90
       50
102
RTVSPost2010PropOp37
 70
     0
102
RTVSPost2010Prop38
140
0.0
102
RTVSPost2010PropOp38
 70
     0
102
RTVSPost2010Prop39
140
1.0
102
RTVSPost2010PropOp39
 70
     0
102
RTVSPost2010Prop40
 90
        0
102
RTVSPost2010PropOp40
 70
     0
102
RTVSPost2010Prop41ColorIndex
 90
       18
102
RTVSPost2010Prop41ColorRGB
 90
        0
102
RTVSPost2010PropOp41
 70
     0
102
RTVSPost2010Prop42
 90
       50
102
RTVSPost2010PropOp42
 70
     0
102
RTVSPost2010Prop43
 90
        3
102
RTVSPost2010PropOp43
 70
     0
102
RTVSPost2010Prop44ColorIndex
 90
        5
102
RTVSPost2010Prop44ColorRGB
 90
      255
102
RTVSPost2010PropOp44
 70
     0
102
RTVSPost2010Prop45
280
     0
102
RTVSPost2010PropOp45
 70
     0
102
RTVSPost2010Prop46
 90
       50
102
RTVSPost2010PropOp46
 70
     0
102
RTVSPost2010Prop47
 90
       50
102
RTVSPost2010PropOp47
 70
     0
102
RTVSPost2010Prop48
 90
       50
102
RTVSPost2010PropOp48
 70
     0
102
RTVSPost2010Prop49
280
     0
102
RTVSPost2010PropOp49
 70
     0
102
RTVSPost2010Prop50
 90
       50
102
RTVSPost2010PropOp50
 70
     0
102
RTVSPost2010Prop51ColorIndex
 90
      256
102
RTVSPost2010Prop51ColorRGB
 90
-16777216
102
RTVSPost2010PropOp51
 70
     0
102
RTVSPost2010Prop52
140
1.0
102
RTVSPost2010PropOp52
 70
     0
102
RTVSPost2010Prop53
 90
        2
102
RTVSPost2010PropOp53
 70
     0
102
RTVSPost2010Prop54
  1
strokes_ogs.tif
102
RTVSPost2010PropOp54
 70
     0
102
RTVSPost2010Prop55
280
     0
102
RTVSPost2010PropOp55
 70
     0
102
RTVSPost2010Prop56
140
1.0
102
RTVSPost2010PropOp56
 70
     0
102
RTVSPost2010Prop57
140
1.0
102
RTVSPost2010PropOp57
 70
     0
102
RTVSPropertyOp0
 70
     0
102
RTVSPropertyOp1
 70
     0
102
RTVSPropertyOp2
 70
     0
102
RTVSPropertyOp3
 70
     0
102
RTVSPropertyOp4
 70
     0
102
RTVSPropertyOp5
 70
     0
102
RTVSPropertyOp6
 70
     0
102
RTVSPropertyOp7
 70
     0
102
RTVSPropertyOp8
 70
     0
102
RTVSPropertyOp9
 70
     0
102
RTVSPropertyOp10
 70
     0
102
RTVSPropertyOp11
 70
     0
102
RTVSPropertyOp12
 70
     0
102
RTVSPropertyOp13
 70
     0
102
RTVSPropertyOp14
 70
     2
102
RTVSPropertyOp15
 70
     0
102
RTVSPropertyOp16
 70
     0
102
RTVSPropertyOp17
 70
     0
102
RTVSPropertyOp18
 70
     0
102
RTVSPropertyOp19
 70
     0
102
RTVSPropertyOp20
 70
     0
102
RTVSPropertyOp21
 70
     0
102
RTVSPropertyOp22
 70
     0
102
RTVSPropertyOp23
 70
     0
102
RTVSPropertyOp24
 70
     0
102
RTVSPropertyOp25
 70
     0
102
RTVSPropertyOp26
 70
     0
102
RTVSPropertyOp27
 70
     0
102
RTVSPropertyOp28
 70
     0
102
RTVSPropertyOp29
 70
     0
102
RTVSPropertyOp30
 70
     0
102
RTVSPropertyOp31
 70
     0
102
RTVSPropertyOp32
 70
     0
102
RTVSPropertyOp33
 70
     0
102
RTVSPropertyOp34
 70
     0
102
RTVSPropertyOp35
 70
     0
102
RTVSPropertyOp36
 70
     0
102
RTVSPropertyOp37
 70
     0
102
RTVSPropertyOp38
 70
     0
102
RTVSPropertyOp39
 70
     0
102
RTVSPropertyOp40
 70
     0
102
RTVSPropertyOp41
 70
     0
102
RTVSPropertyOp42
 70
     0
102
RTVSPropertyOp43
 70
     0
102
RTVSPropertyOp44
 70
     0
102
RTVSPropertyOp45
 70
     0
102
RTVSPropertyOp46
 70
     0
102
RTVSPropertyOp47
 70
     0
102
RTVSPropertyOp48
 70
     0
102
RTVSPropertyOp49
 70
     0
102
RTVSPropertyOp50
 70
     0
102
RTVSPropertyOp51
 70
     0
102
RTVSPropertyOp52
 70
     0
102
RTVSPropertyOp53
 70
     0
102
RTVSPropertyOp54
 70
     0
102
RTVSPropertyOp55
 70
     0
102
RTVSPropertyOp56
 70
     0
102
RTVSPropertyOp57
 70
     0
102
RTVSPropertyOp58
 70
     1
102
RTVSPropertyOp59
 70
     1
102
RTVSPropertyOp60
 70
     1
102
RTVSPropertyOp61
 70
     1
102
RTVSPropertyOp62
 70
     1
  0
XRECORD
  5
5C00
102
{ACAD_REACTORS
330
5BFF
102
}
330
5BFF
100
AcDbXrecord
280
     1
102
RTVSPost2010Prop28
280
     0
102
RTVSPost2010PropOp28
 70
     1
102
RTVSPost2010Prop29
280
     1
102
RTVSPost2010PropOp29
 70
     1
102
RTVSPost2010Prop30
280
     1
102
RTVSPost2010PropOp30
 70
     1
102
RTVSPost2010Prop31
280
     0
102
RTVSPost2010PropOp31
 70
     1
102
RTVSPost2010Prop32
280
     0
102
RTVSPost2010PropOp32
 70
     1
102
RTVSPost2010Prop33
280
     0
102
RTVSPost2010PropOp33
 70
     1
102
RTVSPost2010Prop34
280
     0
102
RTVSPost2010PropOp34
 70
     1
102
RTVSPost2010Prop35
280
     0
102
RTVSPost2010PropOp35
 70
     1
102
RTVSPost2010Prop36
280
     0
102
RTVSPost2010PropOp36
 70
     1
102
RTVSPost2010Prop37
 90
       50
102
RTVSPost2010PropOp37
 70
     1
102
RTVSPost2010Prop38
140
0.0
102
RTVSPost2010PropOp38
 70
     1
102
RTVSPost2010Prop39
140
1.0
102
RTVSPost2010PropOp39
 70
     1
102
RTVSPost2010Prop40
 90
        0
102
RTVSPost2010PropOp40
 70
     1
102
RTVSPost2010Prop41ColorIndex
 90
       18
102
RTVSPost2010Prop41ColorRGB
 90
        0
102
RTVSPost2010PropOp41
 70
     1
102
RTVSPost2010Prop42
 90
       50
102
RTVSPost2010PropOp42
 70
     1
102
RTVSPost2010Prop43
 90
        3
102
RTVSPost2010PropOp43
 70
     1
102
RTVSPost2010Prop44ColorIndex
 90
        5
102
RTVSPost2010Prop44ColorRGB
 90
      255
102
RTVSPost2010PropOp44
 70
     1
102
RTVSPost2010Prop45
280
     0
102
RTVSPost2010PropOp45
 70
     1
102
RTVSPost2010Prop46
 90
       50
102
RTVSPost2010PropOp46
 70
     1
102
RTVSPost2010Prop47
 90
       50
102
RTVSPost2010PropOp47
 70
     1
102
RTVSPost2010Prop48
 90
       50
102
RTVSPost2010PropOp48
 70
     1
102
RTVSPost2010Prop49
280
     0
102
RTVSPost2010PropOp49
 70
     1
102
RTVSPost2010Prop50
 90
       50
102
RTVSPost2010PropOp50
 70
     1
102
RTVSPost2010Prop51ColorIndex
 90
      256
102
RTVSPost2010Prop51ColorRGB
 90
-16777216
102
RTVSPost2010PropOp51
 70
     0
102
RTVSPost2010Prop52
140
1.0
102
RTVSPost2010PropOp52
 70
     0
102
RTVSPost2010Prop53
 90
        2
102
RTVSPost2010PropOp53
 70
     1
102
RTVSPost2010Prop54
  1
strokes_ogs.tif
102
RTVSPost2010PropOp54
 70
     1
102
RTVSPost2010Prop55
280
     0
102
RTVSPost2010PropOp55
 70
     1
102
RTVSPost2010Prop56
140
1.0
102
RTVSPost2010PropOp56
 70
     1
102
RTVSPost2010Prop57
140
1.0
102
RTVSPost2010PropOp57
 70
     1
102
RTVSPropertyOp0
 70
     1
102
RTVSPropertyOp1
 70
     1
102
RTVSPropertyOp2
 70
     1
102
RTVSPropertyOp3
 70
     1
102
RTVSPropertyOp4
 70
     1
102
RTVSPropertyOp5
 70
     1
102
RTVSPropertyOp6
 70
     1
102
RTVSPropertyOp7
 70
     1
102
RTVSPropertyOp8
 70
     1
102
RTVSPropertyOp9
 70
     1
102
RTVSPropertyOp10
 70
     1
102
RTVSPropertyOp11
 70
     1
102
RTVSPropertyOp12
 70
     1
102
RTVSPropertyOp13
 70
     1
102
RTVSPropertyOp14
 70
     1
102
RTVSPropertyOp15
 70
     1
102
RTVSPropertyOp16
 70
     1
102
RTVSPropertyOp17
 70
     1
102
RTVSPropertyOp18
 70
     1
102
RTVSPropertyOp19
 70
     1
102
RTVSPropertyOp20
 70
     1
102
RTVSPropertyOp21
 70
     1
102
RTVSPropertyOp22
 70
     1
102
RTVSPropertyOp23
 70
     1
102
RTVSPropertyOp24
 70
     1
102
RTVSPropertyOp25
 70
     1
102
RTVSPropertyOp26
 70
     1
102
RTVSPropertyOp27
 70
     1
102
RTVSPropertyOp28
 70
     1
102
RTVSPropertyOp29
 70
     1
102
RTVSPropertyOp30
 70
     1
102
RTVSPropertyOp31
 70
     1
102
RTVSPropertyOp32
 70
     1
102
RTVSPropertyOp33
 70
     1
102
RTVSPropertyOp34
 70
     1
102
RTVSPropertyOp35
 70
     1
102
RTVSPropertyOp36
 70
     1
102
RTVSPropertyOp37
 70
     1
102
RTVSPropertyOp38
 70
     1
102
RTVSPropertyOp39
 70
     1
102
RTVSPropertyOp40
 70
     1
102
RTVSPropertyOp41
 70
     1
102
RTVSPropertyOp42
 70
     1
102
RTVSPropertyOp43
 70
     1
102
RTVSPropertyOp44
 70
     1
102
RTVSPropertyOp45
 70
     1
102
RTVSPropertyOp46
 70
     1
102
RTVSPropertyOp47
 70
     1
102
RTVSPropertyOp48
 70
     1
102
RTVSPropertyOp49
 70
     1
102
RTVSPropertyOp50
 70
     1
102
RTVSPropertyOp51
 70
     0
102
RTVSPropertyOp52
 70
     0
102
RTVSPropertyOp53
 70
     1
102
RTVSPropertyOp54
 70
     1
102
RTVSPropertyOp55
 70
     1
102
RTVSPropertyOp56
 70
     1
102
RTVSPropertyOp57
 70
     1
102
RTVSPropertyOp58
 70
     1
102
RTVSPropertyOp59
 70
     1
102
RTVSPropertyOp60
 70
     1
102
RTVSPropertyOp61
 70
     1
102
RTVSPropertyOp62
 70
     1
  0
XRECORD
  5
5C16
102
{ACAD_REACTORS
330
5C15
102
}
330
5C15
100
AcDbXrecord
280
     1
102
RTVSPost2010Prop28
280
     0
102
RTVSPost2010PropOp28
 70
     1
102
RTVSPost2010Prop29
280
     1
102
RTVSPost2010PropOp29
 70
     1
102
RTVSPost2010Prop30
280
     1
102
RTVSPost2010PropOp30
 70
     1
102
RTVSPost2010Prop31
280
     0
102
RTVSPost2010PropOp31
 70
     1
102
RTVSPost2010Prop32
280
     0
102
RTVSPost2010PropOp32
 70
     1
102
RTVSPost2010Prop33
280
     0
102
RTVSPost2010PropOp33
 70
     1
102
RTVSPost2010Prop34
280
     0
102
RTVSPost2010PropOp34
 70
     1
102
RTVSPost2010Prop35
280
     0
102
RTVSPost2010PropOp35
 70
     1
102
RTVSPost2010Prop36
280
     0
102
RTVSPost2010PropOp36
 70
     1
102
RTVSPost2010Prop37
 90
       50
102
RTVSPost2010PropOp37
 70
     1
102
RTVSPost2010Prop38
140
0.0
102
RTVSPost2010PropOp38
 70
     1
102
RTVSPost2010Prop39
140
1.0
102
RTVSPost2010PropOp39
 70
     1
102
RTVSPost2010Prop40
 90
        0
102
RTVSPost2010PropOp40
 70
     1
102
RTVSPost2010Prop41ColorIndex
 90
       18
102
RTVSPost2010Prop41ColorRGB
 90
        0
102
RTVSPost2010PropOp41
 70
     1
102
RTVSPost2010Prop42
 90
       50
102
RTVSPost2010PropOp42
 70
     1
102
RTVSPost2010Prop43
 90
        3
102
RTVSPost2010PropOp43
 70
     1
102
RTVSPost2010Prop44ColorIndex
 90
        5
102
RTVSPost2010Prop44ColorRGB
 90
      255
102
RTVSPost2010PropOp44
 70
     1
102
RTVSPost2010Prop45
280
     0
102
RTVSPost2010PropOp45
 70
     1
102
RTVSPost2010Prop46
 90
       50
102
RTVSPost2010PropOp46
 70
     1
102
RTVSPost2010Prop47
 90
       50
102
RTVSPost2010PropOp47
 70
     1
102
RTVSPost2010Prop48
 90
       50
102
RTVSPost2010PropOp48
 70
     1
102
RTVSPost2010Prop49
280
     0
102
RTVSPost2010PropOp49
 70
     1
102
RTVSPost2010Prop50
 90
       50
102
RTVSPost2010PropOp50
 70
     1
102
RTVSPost2010Prop51ColorIndex
 90
      256
102
RTVSPost2010Prop51ColorRGB
 90
-16777216
102
RTVSPost2010PropOp51
 70
     0
102
RTVSPost2010Prop52
140
1.0
102
RTVSPost2010PropOp52
 70
     0
102
RTVSPost2010Prop53
 90
        2
102
RTVSPost2010PropOp53
 70
     1
102
RTVSPost2010Prop54
  1
strokes_ogs.tif
102
RTVSPost2010PropOp54
 70
     1
102
RTVSPost2010Prop55
280
     0
102
RTVSPost2010PropOp55
 70
     1
102
RTVSPost2010Prop56
140
1.0
102
RTVSPost2010PropOp56
 70
     1
102
RTVSPost2010Prop57
140
1.0
102
RTVSPost2010PropOp57
 70
     1
102
RTVSPropertyOp0
 70
     1
102
RTVSPropertyOp1
 70
     1
102
RTVSPropertyOp2
 70
     1
102
RTVSPropertyOp3
 70
     1
102
RTVSPropertyOp4
 70
     1
102
RTVSPropertyOp5
 70
     1
102
RTVSPropertyOp6
 70
     1
102
RTVSPropertyOp7
 70
     1
102
RTVSPropertyOp8
 70
     1
102
RTVSPropertyOp9
 70
     1
102
RTVSPropertyOp10
 70
     1
102
RTVSPropertyOp11
 70
     1
102
RTVSPropertyOp12
 70
     1
102
RTVSPropertyOp13
 70
     1
102
RTVSPropertyOp14
 70
     1
102
RTVSPropertyOp15
 70
     1
102
RTVSPropertyOp16
 70
     1
102
RTVSPropertyOp17
 70
     1
102
RTVSPropertyOp18
 70
     1
102
RTVSPropertyOp19
 70
     1
102
RTVSPropertyOp20
 70
     1
102
RTVSPropertyOp21
 70
     1
102
RTVSPropertyOp22
 70
     1
102
RTVSPropertyOp23
 70
     1
102
RTVSPropertyOp24
 70
     1
102
RTVSPropertyOp25
 70
     1
102
RTVSPropertyOp26
 70
     1
102
RTVSPropertyOp27
 70
     1
102
RTVSPropertyOp28
 70
     1
102
RTVSPropertyOp29
 70
     1
102
RTVSPropertyOp30
 70
     1
102
RTVSPropertyOp31
 70
     1
102
RTVSPropertyOp32
 70
     1
102
RTVSPropertyOp33
 70
     1
102
RTVSPropertyOp34
 70
     1
102
RTVSPropertyOp35
 70
     1
102
RTVSPropertyOp36
 70
     1
102
RTVSPropertyOp37
 70
     1
102
RTVSPropertyOp38
 70
     1
102
RTVSPropertyOp39
 70
     1
102
RTVSPropertyOp40
 70
     1
102
RTVSPropertyOp41
 70
     1
102
RTVSPropertyOp42
 70
     1
102
RTVSPropertyOp43
 70
     1
102
RTVSPropertyOp44
 70
     1
102
RTVSPropertyOp45
 70
     1
102
RTVSPropertyOp46
 70
     1
102
RTVSPropertyOp47
 70
     1
102
RTVSPropertyOp48
 70
     1
102
RTVSPropertyOp49
 70
     1
102
RTVSPropertyOp50
 70
     1
102
RTVSPropertyOp51
 70
     0
102
RTVSPropertyOp52
 70
     0
102
RTVSPropertyOp53
 70
     1
102
RTVSPropertyOp54
 70
     1
102
RTVSPropertyOp55
 70
     1
102
RTVSPropertyOp56
 70
     1
102
RTVSPropertyOp57
 70
     1
102
RTVSPropertyOp58
 70
     1
102
RTVSPropertyOp59
 70
     1
102
RTVSPropertyOp60
 70
     1
102
RTVSPropertyOp61
 70
     1
102
RTVSPropertyOp62
 70
     1
  0
XRECORD
  5
5C14
102
{ACAD_REACTORS
330
5C13
102
}
330
5C13
100
AcDbXrecord
280
     1
102
RTVSPost2010Prop28
280
     0
102
RTVSPost2010PropOp28
 70
     1
102
RTVSPost2010Prop29
280
     1
102
RTVSPost2010PropOp29
 70
     1
102
RTVSPost2010Prop30
280
     1
102
RTVSPost2010PropOp30
 70
     1
102
RTVSPost2010Prop31
280
     0
102
RTVSPost2010PropOp31
 70
     1
102
RTVSPost2010Prop32
280
     0
102
RTVSPost2010PropOp32
 70
     1
102
RTVSPost2010Prop33
280
     0
102
RTVSPost2010PropOp33
 70
     1
102
RTVSPost2010Prop34
280
     0
102
RTVSPost2010PropOp34
 70
     1
102
RTVSPost2010Prop35
280
     0
102
RTVSPost2010PropOp35
 70
     1
102
RTVSPost2010Prop36
280
     0
102
RTVSPost2010PropOp36
 70
     1
102
RTVSPost2010Prop37
 90
       50
102
RTVSPost2010PropOp37
 70
     1
102
RTVSPost2010Prop38
140
0.0
102
RTVSPost2010PropOp38
 70
     1
102
RTVSPost2010Prop39
140
1.0
102
RTVSPost2010PropOp39
 70
     1
102
RTVSPost2010Prop40
 90
        0
102
RTVSPost2010PropOp40
 70
     1
102
RTVSPost2010Prop41ColorIndex
 90
       18
102
RTVSPost2010Prop41ColorRGB
 90
        0
102
RTVSPost2010PropOp41
 70
     1
102
RTVSPost2010Prop42
 90
       50
102
RTVSPost2010PropOp42
 70
     1
102
RTVSPost2010Prop43
 90
        3
102
RTVSPost2010PropOp43
 70
     1
102
RTVSPost2010Prop44ColorIndex
 90
        5
102
RTVSPost2010Prop44ColorRGB
 90
      255
102
RTVSPost2010PropOp44
 70
     1
102
RTVSPost2010Prop45
280
     0
102
RTVSPost2010PropOp45
 70
     1
102
RTVSPost2010Prop46
 90
       50
102
RTVSPost2010PropOp46
 70
     1
102
RTVSPost2010Prop47
 90
       50
102
RTVSPost2010PropOp47
 70
     1
102
RTVSPost2010Prop48
 90
       50
102
RTVSPost2010PropOp48
 70
     1
102
RTVSPost2010Prop49
280
     0
102
RTVSPost2010PropOp49
 70
     1
102
RTVSPost2010Prop50
 90
       50
102
RTVSPost2010PropOp50
 70
     1
102
RTVSPost2010Prop51ColorIndex
 90
      256
102
RTVSPost2010Prop51ColorRGB
 90
-16777216
102
RTVSPost2010PropOp51
 70
     0
102
RTVSPost2010Prop52
140
1.0
102
RTVSPost2010PropOp52
 70
     0
102
RTVSPost2010Prop53
 90
        2
102
RTVSPost2010PropOp53
 70
     1
102
RTVSPost2010Prop54
  1
strokes_ogs.tif
102
RTVSPost2010PropOp54
 70
     1
102
RTVSPost2010Prop55
280
     0
102
RTVSPost2010PropOp55
 70
     1
102
RTVSPost2010Prop56
140
1.0
102
RTVSPost2010PropOp56
 70
     1
102
RTVSPost2010Prop57
140
1.0
102
RTVSPost2010PropOp57
 70
     1
102
RTVSPropertyOp0
 70
     1
102
RTVSPropertyOp1
 70
     1
102
RTVSPropertyOp2
 70
     1
102
RTVSPropertyOp3
 70
     1
102
RTVSPropertyOp4
 70
     1
102
RTVSPropertyOp5
 70
     1
102
RTVSPropertyOp6
 70
     1
102
RTVSPropertyOp7
 70
     1
102
RTVSPropertyOp8
 70
     1
102
RTVSPropertyOp9
 70
     1
102
RTVSPropertyOp10
 70
     1
102
RTVSPropertyOp11
 70
     1
102
RTVSPropertyOp12
 70
     1
102
RTVSPropertyOp13
 70
     1
102
RTVSPropertyOp14
 70
     1
102
RTVSPropertyOp15
 70
     1
102
RTVSPropertyOp16
 70
     1
102
RTVSPropertyOp17
 70
     1
102
RTVSPropertyOp18
 70
     1
102
RTVSPropertyOp19
 70
     1
102
RTVSPropertyOp20
 70
     1
102
RTVSPropertyOp21
 70
     1
102
RTVSPropertyOp22
 70
     1
102
RTVSPropertyOp23
 70
     1
102
RTVSPropertyOp24
 70
     1
102
RTVSPropertyOp25
 70
     1
102
RTVSPropertyOp26
 70
     1
102
RTVSPropertyOp27
 70
     1
102
RTVSPropertyOp28
 70
     1
102
RTVSPropertyOp29
 70
     1
102
RTVSPropertyOp30
 70
     1
102
RTVSPropertyOp31
 70
     1
102
RTVSPropertyOp32
 70
     1
102
RTVSPropertyOp33
 70
     1
102
RTVSPropertyOp34
 70
     1
102
RTVSPropertyOp35
 70
     1
102
RTVSPropertyOp36
 70
     1
102
RTVSPropertyOp37
 70
     1
102
RTVSPropertyOp38
 70
     1
102
RTVSPropertyOp39
 70
     1
102
RTVSPropertyOp40
 70
     1
102
RTVSPropertyOp41
 70
     1
102
RTVSPropertyOp42
 70
     1
102
RTVSPropertyOp43
 70
     1
102
RTVSPropertyOp44
 70
     1
102
RTVSPropertyOp45
 70
     1
102
RTVSPropertyOp46
 70
     1
102
RTVSPropertyOp47
 70
     1
102
RTVSPropertyOp48
 70
     1
102
RTVSPropertyOp49
 70
     1
102
RTVSPropertyOp50
 70
     1
102
RTVSPropertyOp51
 70
     0
102
RTVSPropertyOp52
 70
     0
102
RTVSPropertyOp53
 70
     1
102
RTVSPropertyOp54
 70
     1
102
RTVSPropertyOp55
 70
     1
102
RTVSPropertyOp56
 70
     1
102
RTVSPropertyOp57
 70
     1
102
RTVSPropertyOp58
 70
     1
102
RTVSPropertyOp59
 70
     1
102
RTVSPropertyOp60
 70
     1
102
RTVSPropertyOp61
 70
     1
102
RTVSPropertyOp62
 70
     1
  0
XRECORD
  5
5C0E
102
{ACAD_REACTORS
330
5C0D
102
}
330
5C0D
100
AcDbXrecord
280
     1
102
RTVSPost2010Prop28
280
     0
102
RTVSPost2010PropOp28
 70
     1
102
RTVSPost2010Prop29
280
     1
102
RTVSPost2010PropOp29
 70
     1
102
RTVSPost2010Prop30
280
     1
102
RTVSPost2010PropOp30
 70
     1
102
RTVSPost2010Prop31
280
     0
102
RTVSPost2010PropOp31
 70
     1
102
RTVSPost2010Prop32
280
     0
102
RTVSPost2010PropOp32
 70
     1
102
RTVSPost2010Prop33
280
     0
102
RTVSPost2010PropOp33
 70
     1
102
RTVSPost2010Prop34
280
     0
102
RTVSPost2010PropOp34
 70
     1
102
RTVSPost2010Prop35
280
     0
102
RTVSPost2010PropOp35
 70
     1
102
RTVSPost2010Prop36
280
     0
102
RTVSPost2010PropOp36
 70
     1
102
RTVSPost2010Prop37
 90
       50
102
RTVSPost2010PropOp37
 70
     1
102
RTVSPost2010Prop38
140
0.0
102
RTVSPost2010PropOp38
 70
     1
102
RTVSPost2010Prop39
140
1.0
102
RTVSPost2010PropOp39
 70
     1
102
RTVSPost2010Prop40
 90
        0
102
RTVSPost2010PropOp40
 70
     1
102
RTVSPost2010Prop41ColorIndex
 90
       18
102
RTVSPost2010Prop41ColorRGB
 90
        0
102
RTVSPost2010PropOp41
 70
     1
102
RTVSPost2010Prop42
 90
       50
102
RTVSPost2010PropOp42
 70
     1
102
RTVSPost2010Prop43
 90
        3
102
RTVSPost2010PropOp43
 70
     1
102
RTVSPost2010Prop44ColorIndex
 90
        5
102
RTVSPost2010Prop44ColorRGB
 90
      255
102
RTVSPost2010PropOp44
 70
     1
102
RTVSPost2010Prop45
280
     0
102
RTVSPost2010PropOp45
 70
     1
102
RTVSPost2010Prop46
 90
       50
102
RTVSPost2010PropOp46
 70
     1
102
RTVSPost2010Prop47
 90
       50
102
RTVSPost2010PropOp47
 70
     1
102
RTVSPost2010Prop48
 90
       50
102
RTVSPost2010PropOp48
 70
     1
102
RTVSPost2010Prop49
280
     0
102
RTVSPost2010PropOp49
 70
     1
102
RTVSPost2010Prop50
 90
       50
102
RTVSPost2010PropOp50
 70
     1
102
RTVSPost2010Prop51ColorIndex
 90
      256
102
RTVSPost2010Prop51ColorRGB
 90
-16777216
102
RTVSPost2010PropOp51
 70
     0
102
RTVSPost2010Prop52
140
1.0
102
RTVSPost2010PropOp52
 70
     0
102
RTVSPost2010Prop53
 90
        2
102
RTVSPost2010PropOp53
 70
     1
102
RTVSPost2010Prop54
  1
strokes_ogs.tif
102
RTVSPost2010PropOp54
 70
     1
102
RTVSPost2010Prop55
280
     0
102
RTVSPost2010PropOp55
 70
     1
102
RTVSPost2010Prop56
140
1.0
102
RTVSPost2010PropOp56
 70
     1
102
RTVSPost2010Prop57
140
1.0
102
RTVSPost2010PropOp57
 70
     1
102
RTVSPropertyOp0
 70
     1
102
RTVSPropertyOp1
 70
     1
102
RTVSPropertyOp2
 70
     1
102
RTVSPropertyOp3
 70
     1
102
RTVSPropertyOp4
 70
     1
102
RTVSPropertyOp5
 70
     1
102
RTVSPropertyOp6
 70
     1
102
RTVSPropertyOp7
 70
     1
102
RTVSPropertyOp8
 70
     1
102
RTVSPropertyOp9
 70
     1
102
RTVSPropertyOp10
 70
     1
102
RTVSPropertyOp11
 70
     1
102
RTVSPropertyOp12
 70
     1
102
RTVSPropertyOp13
 70
     1
102
RTVSPropertyOp14
 70
     1
102
RTVSPropertyOp15
 70
     1
102
RTVSPropertyOp16
 70
     1
102
RTVSPropertyOp17
 70
     1
102
RTVSPropertyOp18
 70
     1
102
RTVSPropertyOp19
 70
     1
102
RTVSPropertyOp20
 70
     1
102
RTVSPropertyOp21
 70
     1
102
RTVSPropertyOp22
 70
     1
102
RTVSPropertyOp23
 70
     1
102
RTVSPropertyOp24
 70
     1
102
RTVSPropertyOp25
 70
     1
102
RTVSPropertyOp26
 70
     1
102
RTVSPropertyOp27
 70
     1
102
RTVSPropertyOp28
 70
     1
102
RTVSPropertyOp29
 70
     1
102
RTVSPropertyOp30
 70
     1
102
RTVSPropertyOp31
 70
     1
102
RTVSPropertyOp32
 70
     1
102
RTVSPropertyOp33
 70
     1
102
RTVSPropertyOp34
 70
     1
102
RTVSPropertyOp35
 70
     1
102
RTVSPropertyOp36
 70
     1
102
RTVSPropertyOp37
 70
     1
102
RTVSPropertyOp38
 70
     1
102
RTVSPropertyOp39
 70
     1
102
RTVSPropertyOp40
 70
     1
102
RTVSPropertyOp41
 70
     1
102
RTVSPropertyOp42
 70
     1
102
RTVSPropertyOp43
 70
     1
102
RTVSPropertyOp44
 70
     1
102
RTVSPropertyOp45
 70
     1
102
RTVSPropertyOp46
 70
     1
102
RTVSPropertyOp47
 70
     1
102
RTVSPropertyOp48
 70
     1
102
RTVSPropertyOp49
 70
     1
102
RTVSPropertyOp50
 70
     1
102
RTVSPropertyOp51
 70
     0
102
RTVSPropertyOp52
 70
     0
102
RTVSPropertyOp53
 70
     1
102
RTVSPropertyOp54
 70
     1
102
RTVSPropertyOp55
 70
     1
102
RTVSPropertyOp56
 70
     1
102
RTVSPropertyOp57
 70
     1
102
RTVSPropertyOp58
 70
     1
102
RTVSPropertyOp59
 70
     1
102
RTVSPropertyOp60
 70
     1
102
RTVSPropertyOp61
 70
     1
102
RTVSPropertyOp62
 70
     1
  0
XRECORD
  5
5C10
102
{ACAD_REACTORS
330
5C0F
102
}
330
5C0F
100
AcDbXrecord
280
     1
102
RTVSPost2010Prop28
280
     0
102
RTVSPost2010PropOp28
 70
     1
102
RTVSPost2010Prop29
280
     1
102
RTVSPost2010PropOp29
 70
     1
102
RTVSPost2010Prop30
280
     1
102
RTVSPost2010PropOp30
 70
     1
102
RTVSPost2010Prop31
280
     0
102
RTVSPost2010PropOp31
 70
     1
102
RTVSPost2010Prop32
280
     0
102
RTVSPost2010PropOp32
 70
     1
102
RTVSPost2010Prop33
280
     0
102
RTVSPost2010PropOp33
 70
     1
102
RTVSPost2010Prop34
280
     0
102
RTVSPost2010PropOp34
 70
     1
102
RTVSPost2010Prop35
280
     0
102
RTVSPost2010PropOp35
 70
     1
102
RTVSPost2010Prop36
280
     0
102
RTVSPost2010PropOp36
 70
     1
102
RTVSPost2010Prop37
 90
       50
102
RTVSPost2010PropOp37
 70
     1
102
RTVSPost2010Prop38
140
0.0
102
RTVSPost2010PropOp38
 70
     1
102
RTVSPost2010Prop39
140
1.0
102
RTVSPost2010PropOp39
 70
     1
102
RTVSPost2010Prop40
 90
        0
102
RTVSPost2010PropOp40
 70
     1
102
RTVSPost2010Prop41ColorIndex
 90
       18
102
RTVSPost2010Prop41ColorRGB
 90
        0
102
RTVSPost2010PropOp41
 70
     1
102
RTVSPost2010Prop42
 90
       50
102
RTVSPost2010PropOp42
 70
     1
102
RTVSPost2010Prop43
 90
        3
102
RTVSPost2010PropOp43
 70
     1
102
RTVSPost2010Prop44ColorIndex
 90
        5
102
RTVSPost2010Prop44ColorRGB
 90
      255
102
RTVSPost2010PropOp44
 70
     1
102
RTVSPost2010Prop45
280
     0
102
RTVSPost2010PropOp45
 70
     1
102
RTVSPost2010Prop46
 90
       50
102
RTVSPost2010PropOp46
 70
     1
102
RTVSPost2010Prop47
 90
       50
102
RTVSPost2010PropOp47
 70
     1
102
RTVSPost2010Prop48
 90
       50
102
RTVSPost2010PropOp48
 70
     1
102
RTVSPost2010Prop49
280
     0
102
RTVSPost2010PropOp49
 70
     1
102
RTVSPost2010Prop50
 90
       50
102
RTVSPost2010PropOp50
 70
     1
102
RTVSPost2010Prop51ColorIndex
 90
      256
102
RTVSPost2010Prop51ColorRGB
 90
-16777216
102
RTVSPost2010PropOp51
 70
     0
102
RTVSPost2010Prop52
140
1.0
102
RTVSPost2010PropOp52
 70
     0
102
RTVSPost2010Prop53
 90
        2
102
RTVSPost2010PropOp53
 70
     1
102
RTVSPost2010Prop54
  1
strokes_ogs.tif
102
RTVSPost2010PropOp54
 70
     1
102
RTVSPost2010Prop55
280
     0
102
RTVSPost2010PropOp55
 70
     1
102
RTVSPost2010Prop56
140
1.0
102
RTVSPost2010PropOp56
 70
     1
102
RTVSPost2010Prop57
140
1.0
102
RTVSPost2010PropOp57
 70
     1
102
RTVSPropertyOp0
 70
     1
102
RTVSPropertyOp1
 70
     1
102
RTVSPropertyOp2
 70
     1
102
RTVSPropertyOp3
 70
     1
102
RTVSPropertyOp4
 70
     1
102
RTVSPropertyOp5
 70
     1
102
RTVSPropertyOp6
 70
     1
102
RTVSPropertyOp7
 70
     1
102
RTVSPropertyOp8
 70
     1
102
RTVSPropertyOp9
 70
     1
102
RTVSPropertyOp10
 70
     1
102
RTVSPropertyOp11
 70
     1
102
RTVSPropertyOp12
 70
     1
102
RTVSPropertyOp13
 70
     1
102
RTVSPropertyOp14
 70
     1
102
RTVSPropertyOp15
 70
     1
102
RTVSPropertyOp16
 70
     1
102
RTVSPropertyOp17
 70
     1
102
RTVSPropertyOp18
 70
     1
102
RTVSPropertyOp19
 70
     1
102
RTVSPropertyOp20
 70
     1
102
RTVSPropertyOp21
 70
     1
102
RTVSPropertyOp22
 70
     1
102
RTVSPropertyOp23
 70
     1
102
RTVSPropertyOp24
 70
     1
102
RTVSPropertyOp25
 70
     1
102
RTVSPropertyOp26
 70
     1
102
RTVSPropertyOp27
 70
     1
102
RTVSPropertyOp28
 70
     1
102
RTVSPropertyOp29
 70
     1
102
RTVSPropertyOp30
 70
     1
102
RTVSPropertyOp31
 70
     1
102
RTVSPropertyOp32
 70
     1
102
RTVSPropertyOp33
 70
     1
102
RTVSPropertyOp34
 70
     1
102
RTVSPropertyOp35
 70
     1
102
RTVSPropertyOp36
 70
     1
102
RTVSPropertyOp37
 70
     1
102
RTVSPropertyOp38
 70
     1
102
RTVSPropertyOp39
 70
     1
102
RTVSPropertyOp40
 70
     1
102
RTVSPropertyOp41
 70
     1
102
RTVSPropertyOp42
 70
     1
102
RTVSPropertyOp43
 70
     1
102
RTVSPropertyOp44
 70
     1
102
RTVSPropertyOp45
 70
     1
102
RTVSPropertyOp46
 70
     1
102
RTVSPropertyOp47
 70
     1
102
RTVSPropertyOp48
 70
     1
102
RTVSPropertyOp49
 70
     1
102
RTVSPropertyOp50
 70
     1
102
RTVSPropertyOp51
 70
     0
102
RTVSPropertyOp52
 70
     0
102
RTVSPropertyOp53
 70
     1
102
RTVSPropertyOp54
 70
     1
102
RTVSPropertyOp55
 70
     1
102
RTVSPropertyOp56
 70
     1
102
RTVSPropertyOp57
 70
     1
102
RTVSPropertyOp58
 70
     1
102
RTVSPropertyOp59
 70
     1
102
RTVSPropertyOp60
 70
     1
102
RTVSPropertyOp61
 70
     1
102
RTVSPropertyOp62
 70
     1
  0
XRECORD
  5
5C06
102
{ACAD_REACTORS
330
5C05
102
}
330
5C05
100
AcDbXrecord
280
     1
102
RTVSPost2010Prop28
280
     0
102
RTVSPost2010PropOp28
 70
     1
102
RTVSPost2010Prop29
280
     1
102
RTVSPost2010PropOp29
 70
     1
102
RTVSPost2010Prop30
280
     1
102
RTVSPost2010PropOp30
 70
     1
102
RTVSPost2010Prop31
280
     0
102
RTVSPost2010PropOp31
 70
     1
102
RTVSPost2010Prop32
280
     0
102
RTVSPost2010PropOp32
 70
     1
102
RTVSPost2010Prop33
280
     0
102
RTVSPost2010PropOp33
 70
     1
102
RTVSPost2010Prop34
280
     0
102
RTVSPost2010PropOp34
 70
     1
102
RTVSPost2010Prop35
280
     0
102
RTVSPost2010PropOp35
 70
     1
102
RTVSPost2010Prop36
280
     0
102
RTVSPost2010PropOp36
 70
     1
102
RTVSPost2010Prop37
 90
       50
102
RTVSPost2010PropOp37
 70
     1
102
RTVSPost2010Prop38
140
0.0
102
RTVSPost2010PropOp38
 70
     1
102
RTVSPost2010Prop39
140
1.0
102
RTVSPost2010PropOp39
 70
     1
102
RTVSPost2010Prop40
 90
        0
102
RTVSPost2010PropOp40
 70
     1
102
RTVSPost2010Prop41ColorIndex
 90
       18
102
RTVSPost2010Prop41ColorRGB
 90
        0
102
RTVSPost2010PropOp41
 70
     1
102
RTVSPost2010Prop42
 90
       50
102
RTVSPost2010PropOp42
 70
     1
102
RTVSPost2010Prop43
 90
        3
102
RTVSPost2010PropOp43
 70
     1
102
RTVSPost2010Prop44ColorIndex
 90
        5
102
RTVSPost2010Prop44ColorRGB
 90
      255
102
RTVSPost2010PropOp44
 70
     1
102
RTVSPost2010Prop45
280
     0
102
RTVSPost2010PropOp45
 70
     1
102
RTVSPost2010Prop46
 90
       50
102
RTVSPost2010PropOp46
 70
     1
102
RTVSPost2010Prop47
 90
       50
102
RTVSPost2010PropOp47
 70
     1
102
RTVSPost2010Prop48
 90
       50
102
RTVSPost2010PropOp48
 70
     1
102
RTVSPost2010Prop49
280
     0
102
RTVSPost2010PropOp49
 70
     1
102
RTVSPost2010Prop50
 90
       50
102
RTVSPost2010PropOp50
 70
     1
102
RTVSPost2010Prop51ColorIndex
 90
      256
102
RTVSPost2010Prop51ColorRGB
 90
-16777216
102
RTVSPost2010PropOp51
 70
     0
102
RTVSPost2010Prop52
140
1.0
102
RTVSPost2010PropOp52
 70
     0
102
RTVSPost2010Prop53
 90
        2
102
RTVSPost2010PropOp53
 70
     1
102
RTVSPost2010Prop54
  1
strokes_ogs.tif
102
RTVSPost2010PropOp54
 70
     1
102
RTVSPost2010Prop55
280
     0
102
RTVSPost2010PropOp55
 70
     1
102
RTVSPost2010Prop56
140
1.0
102
RTVSPost2010PropOp56
 70
     1
102
RTVSPost2010Prop57
140
1.0
102
RTVSPost2010PropOp57
 70
     1
102
RTVSPropertyOp0
 70
     1
102
RTVSPropertyOp1
 70
     1
102
RTVSPropertyOp2
 70
     1
102
RTVSPropertyOp3
 70
     1
102
RTVSPropertyOp4
 70
     1
102
RTVSPropertyOp5
 70
     1
102
RTVSPropertyOp6
 70
     1
102
RTVSPropertyOp7
 70
     1
102
RTVSPropertyOp8
 70
     1
102
RTVSPropertyOp9
 70
     1
102
RTVSPropertyOp10
 70
     1
102
RTVSPropertyOp11
 70
     1
102
RTVSPropertyOp12
 70
     1
102
RTVSPropertyOp13
 70
     1
102
RTVSPropertyOp14
 70
     1
102
RTVSPropertyOp15
 70
     1
102
RTVSPropertyOp16
 70
     1
102
RTVSPropertyOp17
 70
     1
102
RTVSPropertyOp18
 70
     1
102
RTVSPropertyOp19
 70
     1
102
RTVSPropertyOp20
 70
     1
102
RTVSPropertyOp21
 70
     1
102
RTVSPropertyOp22
 70
     1
102
RTVSPropertyOp23
 70
     1
102
RTVSPropertyOp24
 70
     1
102
RTVSPropertyOp25
 70
     1
102
RTVSPropertyOp26
 70
     1
102
RTVSPropertyOp27
 70
     1
102
RTVSPropertyOp28
 70
     1
102
RTVSPropertyOp29
 70
     1
102
RTVSPropertyOp30
 70
     1
102
RTVSPropertyOp31
 70
     1
102
RTVSPropertyOp32
 70
     1
102
RTVSPropertyOp33
 70
     1
102
RTVSPropertyOp34
 70
     1
102
RTVSPropertyOp35
 70
     1
102
RTVSPropertyOp36
 70
     1
102
RTVSPropertyOp37
 70
     1
102
RTVSPropertyOp38
 70
     1
102
RTVSPropertyOp39
 70
     1
102
RTVSPropertyOp40
 70
     1
102
RTVSPropertyOp41
 70
     1
102
RTVSPropertyOp42
 70
     1
102
RTVSPropertyOp43
 70
     1
102
RTVSPropertyOp44
 70
     1
102
RTVSPropertyOp45
 70
     1
102
RTVSPropertyOp46
 70
     1
102
RTVSPropertyOp47
 70
     1
102
RTVSPropertyOp48
 70
     1
102
RTVSPropertyOp49
 70
     1
102
RTVSPropertyOp50
 70
     1
102
RTVSPropertyOp51
 70
     0
102
RTVSPropertyOp52
 70
     0
102
RTVSPropertyOp53
 70
     1
102
RTVSPropertyOp54
 70
     1
102
RTVSPropertyOp55
 70
     1
102
RTVSPropertyOp56
 70
     1
102
RTVSPropertyOp57
 70
     1
102
RTVSPropertyOp58
 70
     1
102
RTVSPropertyOp59
 70
     1
102
RTVSPropertyOp60
 70
     1
102
RTVSPropertyOp61
 70
     1
102
RTVSPropertyOp62
 70
     1
  0
XRECORD
  5
5BFA
102
{ACAD_REACTORS
330
5BF9
102
}
330
5BF9
100
AcDbXrecord
280
     1
102
RTVSPost2010Prop28
280
     0
102
RTVSPost2010PropOp28
 70
     1
102
RTVSPost2010Prop29
280
     1
102
RTVSPost2010PropOp29
 70
     1
102
RTVSPost2010Prop30
280
     1
102
RTVSPost2010PropOp30
 70
     1
102
RTVSPost2010Prop31
280
     0
102
RTVSPost2010PropOp31
 70
     1
102
RTVSPost2010Prop32
280
     0
102
RTVSPost2010PropOp32
 70
     1
102
RTVSPost2010Prop33
280
     0
102
RTVSPost2010PropOp33
 70
     1
102
RTVSPost2010Prop34
280
     0
102
RTVSPost2010PropOp34
 70
     1
102
RTVSPost2010Prop35
280
     0
102
RTVSPost2010PropOp35
 70
     1
102
RTVSPost2010Prop36
280
     0
102
RTVSPost2010PropOp36
 70
     1
102
RTVSPost2010Prop37
 90
       50
102
RTVSPost2010PropOp37
 70
     1
102
RTVSPost2010Prop38
140
0.0
102
RTVSPost2010PropOp38
 70
     1
102
RTVSPost2010Prop39
140
1.0
102
RTVSPost2010PropOp39
 70
     1
102
RTVSPost2010Prop40
 90
        0
102
RTVSPost2010PropOp40
 70
     1
102
RTVSPost2010Prop41ColorIndex
 90
       18
102
RTVSPost2010Prop41ColorRGB
 90
        0
102
RTVSPost2010PropOp41
 70
     1
102
RTVSPost2010Prop42
 90
       50
102
RTVSPost2010PropOp42
 70
     1
102
RTVSPost2010Prop43
 90
        3
102
RTVSPost2010PropOp43
 70
     1
102
RTVSPost2010Prop44ColorIndex
 90
        5
102
RTVSPost2010Prop44ColorRGB
 90
      255
102
RTVSPost2010PropOp44
 70
     1
102
RTVSPost2010Prop45
280
     0
102
RTVSPost2010PropOp45
 70
     1
102
RTVSPost2010Prop46
 90
       50
102
RTVSPost2010PropOp46
 70
     1
102
RTVSPost2010Prop47
 90
       50
102
RTVSPost2010PropOp47
 70
     1
102
RTVSPost2010Prop48
 90
       50
102
RTVSPost2010PropOp48
 70
     1
102
RTVSPost2010Prop49
280
     0
102
RTVSPost2010PropOp49
 70
     1
102
RTVSPost2010Prop50
 90
       50
102
RTVSPost2010PropOp50
 70
     1
102
RTVSPost2010Prop51ColorIndex
 90
      256
102
RTVSPost2010Prop51ColorRGB
 90
-16777216
102
RTVSPost2010PropOp51
 70
     0
102
RTVSPost2010Prop52
140
1.0
102
RTVSPost2010PropOp52
 70
     0
102
RTVSPost2010Prop53
 90
        2
102
RTVSPost2010PropOp53
 70
     1
102
RTVSPost2010Prop54
  1
strokes_ogs.tif
102
RTVSPost2010PropOp54
 70
     1
102
RTVSPost2010Prop55
280
     0
102
RTVSPost2010PropOp55
 70
     1
102
RTVSPost2010Prop56
140
1.0
102
RTVSPost2010PropOp56
 70
     1
102
RTVSPost2010Prop57
140
1.0
102
RTVSPost2010PropOp57
 70
     1
102
RTVSPropertyOp0
 70
     1
102
RTVSPropertyOp1
 70
     1
102
RTVSPropertyOp2
 70
     1
102
RTVSPropertyOp3
 70
     1
102
RTVSPropertyOp4
 70
     1
102
RTVSPropertyOp5
 70
     1
102
RTVSPropertyOp6
 70
     1
102
RTVSPropertyOp7
 70
     1
102
RTVSPropertyOp8
 70
     1
102
RTVSPropertyOp9
 70
     1
102
RTVSPropertyOp10
 70
     1
102
RTVSPropertyOp11
 70
     1
102
RTVSPropertyOp12
 70
     1
102
RTVSPropertyOp13
 70
     1
102
RTVSPropertyOp14
 70
     1
102
RTVSPropertyOp15
 70
     1
102
RTVSPropertyOp16
 70
     1
102
RTVSPropertyOp17
 70
     1
102
RTVSPropertyOp18
 70
     1
102
RTVSPropertyOp19
 70
     1
102
RTVSPropertyOp20
 70
     1
102
RTVSPropertyOp21
 70
     1
102
RTVSPropertyOp22
 70
     1
102
RTVSPropertyOp23
 70
     1
102
RTVSPropertyOp24
 70
     1
102
RTVSPropertyOp25
 70
     1
102
RTVSPropertyOp26
 70
     1
102
RTVSPropertyOp27
 70
     1
102
RTVSPropertyOp28
 70
     1
102
RTVSPropertyOp29
 70
     1
102
RTVSPropertyOp30
 70
     1
102
RTVSPropertyOp31
 70
     1
102
RTVSPropertyOp32
 70
     1
102
RTVSPropertyOp33
 70
     1
102
RTVSPropertyOp34
 70
     1
102
RTVSPropertyOp35
 70
     1
102
RTVSPropertyOp36
 70
     1
102
RTVSPropertyOp37
 70
     1
102
RTVSPropertyOp38
 70
     1
102
RTVSPropertyOp39
 70
     1
102
RTVSPropertyOp40
 70
     1
102
RTVSPropertyOp41
 70
     1
102
RTVSPropertyOp42
 70
     1
102
RTVSPropertyOp43
 70
     1
102
RTVSPropertyOp44
 70
     1
102
RTVSPropertyOp45
 70
     1
102
RTVSPropertyOp46
 70
     1
102
RTVSPropertyOp47
 70
     1
102
RTVSPropertyOp48
 70
     1
102
RTVSPropertyOp49
 70
     1
102
RTVSPropertyOp50
 70
     1
102
RTVSPropertyOp51
 70
     0
102
RTVSPropertyOp52
 70
     0
102
RTVSPropertyOp53
 70
     1
102
RTVSPropertyOp54
 70
     1
102
RTVSPropertyOp55
 70
     1
102
RTVSPropertyOp56
 70
     1
102
RTVSPropertyOp57
 70
     1
102
RTVSPropertyOp58
 70
     1
102
RTVSPropertyOp59
 70
     1
102
RTVSPropertyOp60
 70
     1
102
RTVSPropertyOp61
 70
     1
102
RTVSPropertyOp62
 70
     1
  0
XRECORD
  5
5C12
102
{ACAD_REACTORS
330
5C11
102
}
330
5C11
100
AcDbXrecord
280
     1
102
RTVSPost2010Prop28
280
     0
102
RTVSPost2010PropOp28
 70
     1
102
RTVSPost2010Prop29
280
     1
102
RTVSPost2010PropOp29
 70
     1
102
RTVSPost2010Prop30
280
     1
102
RTVSPost2010PropOp30
 70
     1
102
RTVSPost2010Prop31
280
     0
102
RTVSPost2010PropOp31
 70
     1
102
RTVSPost2010Prop32
280
     0
102
RTVSPost2010PropOp32
 70
     1
102
RTVSPost2010Prop33
280
     0
102
RTVSPost2010PropOp33
 70
     1
102
RTVSPost2010Prop34
280
     0
102
RTVSPost2010PropOp34
 70
     1
102
RTVSPost2010Prop35
280
     0
102
RTVSPost2010PropOp35
 70
     1
102
RTVSPost2010Prop36
280
     0
102
RTVSPost2010PropOp36
 70
     1
102
RTVSPost2010Prop37
 90
       50
102
RTVSPost2010PropOp37
 70
     1
102
RTVSPost2010Prop38
140
0.0
102
RTVSPost2010PropOp38
 70
     1
102
RTVSPost2010Prop39
140
1.0
102
RTVSPost2010PropOp39
 70
     1
102
RTVSPost2010Prop40
 90
        0
102
RTVSPost2010PropOp40
 70
     1
102
RTVSPost2010Prop41ColorIndex
 90
       18
102
RTVSPost2010Prop41ColorRGB
 90
        0
102
RTVSPost2010PropOp41
 70
     1
102
RTVSPost2010Prop42
 90
       50
102
RTVSPost2010PropOp42
 70
     1
102
RTVSPost2010Prop43
 90
        3
102
RTVSPost2010PropOp43
 70
     1
102
RTVSPost2010Prop44ColorIndex
 90
        5
102
RTVSPost2010Prop44ColorRGB
 90
      255
102
RTVSPost2010PropOp44
 70
     1
102
RTVSPost2010Prop45
280
     0
102
RTVSPost2010PropOp45
 70
     1
102
RTVSPost2010Prop46
 90
       50
102
RTVSPost2010PropOp46
 70
     1
102
RTVSPost2010Prop47
 90
       50
102
RTVSPost2010PropOp47
 70
     1
102
RTVSPost2010Prop48
 90
       50
102
RTVSPost2010PropOp48
 70
     1
102
RTVSPost2010Prop49
280
     0
102
RTVSPost2010PropOp49
 70
     1
102
RTVSPost2010Prop50
 90
       50
102
RTVSPost2010PropOp50
 70
     1
102
RTVSPost2010Prop51ColorIndex
 90
      256
102
RTVSPost2010Prop51ColorRGB
 90
-16777216
102
RTVSPost2010PropOp51
 70
     0
102
RTVSPost2010Prop52
140
1.0
102
RTVSPost2010PropOp52
 70
     0
102
RTVSPost2010Prop53
 90
        2
102
RTVSPost2010PropOp53
 70
     1
102
RTVSPost2010Prop54
  1
strokes_ogs.tif
102
RTVSPost2010PropOp54
 70
     1
102
RTVSPost2010Prop55
280
     0
102
RTVSPost2010PropOp55
 70
     1
102
RTVSPost2010Prop56
140
1.0
102
RTVSPost2010PropOp56
 70
     1
102
RTVSPost2010Prop57
140
1.0
102
RTVSPost2010PropOp57
 70
     1
102
RTVSPropertyOp0
 70
     1
102
RTVSPropertyOp1
 70
     1
102
RTVSPropertyOp2
 70
     1
102
RTVSPropertyOp3
 70
     1
102
RTVSPropertyOp4
 70
     1
102
RTVSPropertyOp5
 70
     1
102
RTVSPropertyOp6
 70
     1
102
RTVSPropertyOp7
 70
     1
102
RTVSPropertyOp8
 70
     1
102
RTVSPropertyOp9
 70
     1
102
RTVSPropertyOp10
 70
     1
102
RTVSPropertyOp11
 70
     1
102
RTVSPropertyOp12
 70
     1
102
RTVSPropertyOp13
 70
     1
102
RTVSPropertyOp14
 70
     1
102
RTVSPropertyOp15
 70
     1
102
RTVSPropertyOp16
 70
     1
102
RTVSPropertyOp17
 70
     1
102
RTVSPropertyOp18
 70
     1
102
RTVSPropertyOp19
 70
     1
102
RTVSPropertyOp20
 70
     1
102
RTVSPropertyOp21
 70
     1
102
RTVSPropertyOp22
 70
     1
102
RTVSPropertyOp23
 70
     1
102
RTVSPropertyOp24
 70
     1
102
RTVSPropertyOp25
 70
     1
102
RTVSPropertyOp26
 70
     1
102
RTVSPropertyOp27
 70
     1
102
RTVSPropertyOp28
 70
     1
102
RTVSPropertyOp29
 70
     1
102
RTVSPropertyOp30
 70
     1
102
RTVSPropertyOp31
 70
     1
102
RTVSPropertyOp32
 70
     1
102
RTVSPropertyOp33
 70
     1
102
RTVSPropertyOp34
 70
     1
102
RTVSPropertyOp35
 70
     1
102
RTVSPropertyOp36
 70
     1
102
RTVSPropertyOp37
 70
     1
102
RTVSPropertyOp38
 70
     1
102
RTVSPropertyOp39
 70
     1
102
RTVSPropertyOp40
 70
     1
102
RTVSPropertyOp41
 70
     1
102
RTVSPropertyOp42
 70
     1
102
RTVSPropertyOp43
 70
     1
102
RTVSPropertyOp44
 70
     1
102
RTVSPropertyOp45
 70
     1
102
RTVSPropertyOp46
 70
     1
102
RTVSPropertyOp47
 70
     1
102
RTVSPropertyOp48
 70
     1
102
RTVSPropertyOp49
 70
     1
102
RTVSPropertyOp50
 70
     1
102
RTVSPropertyOp51
 70
     0
102
RTVSPropertyOp52
 70
     0
102
RTVSPropertyOp53
 70
     1
102
RTVSPropertyOp54
 70
     1
102
RTVSPropertyOp55
 70
     1
102
RTVSPropertyOp56
 70
     1
102
RTVSPropertyOp57
 70
     1
102
RTVSPropertyOp58
 70
     1
102
RTVSPropertyOp59
 70
     1
102
RTVSPropertyOp60
 70
     1
102
RTVSPropertyOp61
 70
     1
102
RTVSPropertyOp62
 70
     1
  0
ENDSEC
  0
EOF
