  0
SECTION
  2
HEADER
  9
$ACADVER
  1
AC1015
  9
$ACADMAINTVER
 70
    20
  9
$DWGCODEPAGE
  3
ANSI_932
  9
$INSBASE
 10
0.0
 20
0.0
 30
0.0
  9
$EXTMIN
 10
10345.59771503509
 20
2822.809791742034
 30
0.0
  9
$EXTMAX
 10
13495.59771503509
 20
7247.809791742034
 30
0.0
  9
$LIMMIN
 10
0.0
 20
0.0
  9
$LIMMAX
 10
297.0
 20
210.0
  9
$ORTHOMODE
 70
     1
  9
$REGENMODE
 70
     1
  9
$FILLMODE
 70
     1
  9
$QTEXTMODE
 70
     0
  9
$MIRRTEXT
 70
     0
  9
$LTSCALE
 40
75.0
  9
$ATTMODE
 70
     1
  9
$TEXTSIZE
 40
3.5
  9
$TRACEWID
 40
0.05
  9
$TEXTSTYLE
  7
STANDARD
  9
$CLAYER
  8
SP
  9
$CELTYPE
  6
BYLAYER
  9
$CECOLOR
 62
   256
  9
$CELTSCALE
 40
1.0
  9
$DISPSILH
 70
     0
  9
$DIMSCALE
 40
15.0
  9
$DIMASZ
 40
2.5
  9
$DIMEXO
 40
1.0
  9
$DIMDLI
 40
7.0
  9
$DIMRND
 40
0.0
  9
$DIMDLE
 40
0.0
  9
$DIMEXE
 40
1.0
  9
$DIMTP
 40
0.0
  9
$DIMTM
 40
0.0
  9
$DIMTXT
 40
3.0
  9
$DIMCEN
 40
0.0
  9
$DIMTSZ
 40
0.0
  9
$DIMTOL
 70
     0
  9
$DIMLIM
 70
     0
  9
$DIMTIH
 70
     0
  9
$DIMTOH
 70
     0
  9
$DIMSE1
 70
     0
  9
$DIMSE2
 70
     0
  9
$DIMTAD
 70
     1
  9
$DIMZIN
 70
     8
  9
$DIMBLK
  1

  9
$DIMASO
 70
     1
  9
$DIMSHO
 70
     1
  9
$DIMPOST
  1

  9
$DIMAPOST
  1

  9
$DIMALT
 70
     0
  9
$DIMALTD
 70
     2
  9
$DIMALTF
 40
0.03937
  9
$DIMLFAC
 40
1.0
  9
$DIMTOFL
 70
     1
  9
$DIMTVP
 40
0.0
  9
$DIMTIX
 70
     0
  9
$DIMSOXD
 70
     0
  9
$DIMSAH
 70
     1
  9
$DIMBLK1
  1
OPEN
  9
$DIMBLK2
  1
OPEN
  9
$DIMSTYLE
  2
GOD
  9
$DIMCLRD
 70
   256
  9
$DIMCLRE
 70
   256
  9
$DIMCLRT
 70
   256
  9
$DIMTFAC
 40
1.0
  9
$DIMGAP
 40
1.0
  9
$DIMJUST
 70
     0
  9
$DIMSD1
 70
     0
  9
$DIMSD2
 70
     0
  9
$DIMTOLJ
 70
     1
  9
$DIMTZIN
 70
     8
  9
$DIMALTZ
 70
     0
  9
$DIMALTTZ
 70
     0
  9
$DIMUPT
 70
     0
  9
$DIMDEC
 70
     2
  9
$DIMTDEC
 70
     2
  9
$DIMALTU
 70
     2
  9
$DIMALTTD
 70
     2
  9
$DIMTXSTY
  7
STANDARD
  9
$DIMAUNIT
 70
     0
  9
$DIMADEC
 70
     0
  9
$DIMALTRND
 40
0.0
  9
$DIMAZIN
 70
     0
  9
$DIMDSEP
 70
    46
  9
$DIMATFIT
 70
     0
  9
$DIMFRAC
 70
     0
  9
$DIMLDRBLK
  1
OPEN
  9
$DIMLUNIT
 70
     2
  9
$DIMLWD
 70
    -2
  9
$DIMLWE
 70
    -2
  9
$DIMTMOVE
 70
     0
  9
$LUNITS
 70
     2
  9
$LUPREC
 70
     3
  9
$SKETCHINC
 40
0.1
  9
$FILLETRAD
 40
15.0
  9
$AUNITS
 70
     0
  9
$AUPREC
 70
     2
  9
$MENU
  1
acad
  9
$ELEVATION
 40
0.0
  9
$PELEVATION
 40
0.0
  9
$THICKNESS
 40
0.0
  9
$LIMCHECK
 70
     0
  9
$CHAMFERA
 40
0.0
  9
$CHAMFERB
 40
0.0
  9
$CHAMFERC
 40
20.0
  9
$CHAMFERD
 40
0.0
  9
$SKPOLY
 70
     0
  9
$TDCREATE
 40
2454939.604632489
  9
$TDUCREATE
 40
2454939.229632489
  9
$TDUPDATE
 40
2459353.580239074
  9
$TDUUPDATE
 40
2459353.205239075
  9
$TDINDWG
 40
0.1439786921
  9
$TDUSRTIMER
 40
0.1439786921
  9
$USRTIMER
 70
     1
  9
$ANGBASE
 50
0.0
  9
$ANGDIR
 70
     0
  9
$PDMODE
 70
     0
  9
$PDSIZE
 40
1.0
  9
$PLINEWID
 40
0.0
  9
$SPLFRAME
 70
     0
  9
$SPLINETYPE
 70
     6
  9
$SPLINESEGS
 70
     8
  9
$HANDSEED
  5
5C26
  9
$SURFTAB1
 70
     6
  9
$SURFTAB2
 70
     6
  9
$SURFTYPE
 70
     6
  9
$SURFU
 70
     6
  9
$SURFV
 70
     6
  9
$UCSBASE
  2

  9
$UCSNAME
  2

  9
$UCSORG
 10
0.0
 20
0.0
 30
0.0
  9
$UCSXDIR
 10
1.0
 20
0.0
 30
0.0
  9
$UCSYDIR
 10
0.0
 20
1.0
 30
0.0
  9
$UCSORTHOREF
  2

  9
$UCSORTHOVIEW
 70
     0
  9
$UCSORGTOP
 10
0.0
 20
0.0
 30
0.0
  9
$UCSORGBOTTOM
 10
0.0
 20
0.0
 30
0.0
  9
$UCSORGLEFT
 10
0.0
 20
0.0
 30
0.0
  9
$UCSORGRIGHT
 10
0.0
 20
0.0
 30
0.0
  9
$UCSORGFRONT
 10
0.0
 20
0.0
 30
0.0
  9
$UCSORGBACK
 10
0.0
 20
0.0
 30
0.0
  9
$PUCSBASE
  2

  9
$PUCSNAME
  2

  9
$PUCSORG
 10
0.0
 20
0.0
 30
0.0
  9
$PUCSXDIR
 10
1.0
 20
0.0
 30
0.0
  9
$PUCSYDIR
 10
0.0
 20
1.0
 30
0.0
  9
$PUCSORTHOREF
  2

  9
$PUCSORTHOVIEW
 70
     0
  9
$PUCSORGTOP
 10
0.0
 20
0.0
 30
0.0
  9
$PUCSORGBOTTOM
 10
0.0
 20
0.0
 30
0.0
  9
$PUCSORGLEFT
 10
0.0
 20
0.0
 30
0.0
  9
$PUCSORGRIGHT
 10
0.0
 20
0.0
 30
0.0
  9
$PUCSORGFRONT
 10
0.0
 20
0.0
 30
0.0
  9
$PUCSORGBACK
 10
0.0
 20
0.0
 30
0.0
  9
$USERI1
 70
     0
  9
$USERI2
 70
     0
  9
$USERI3
 70
     0
  9
$USERI4
 70
     0
  9
$USERI5
 70
     0
  9
$USERR1
 40
0.0
  9
$USERR2
 40
0.0
  9
$USERR3
 40
0.0
  9
$USERR4
 40
0.0
  9
$USERR5
 40
0.0
  9
$WORLDVIEW
 70
     1
  9
$SHADEDGE
 70
     3
  9
$SHADEDIF
 70
    70
  9
$TILEMODE
 70
     1
  9
$MAXACTVP
 70
    16
  9
$PINSBASE
 10
0.0
 20
0.0
 30
0.0
  9
$PLIMCHECK
 70
     0
  9
$PEXTMIN
 10
1.000000000000000E+20
 20
1.000000000000000E+20
 30
1.000000000000000E+20
  9
$PEXTMAX
 10
-1.000000000000000E+20
 20
-1.000000000000000E+20
 30
-1.000000000000000E+20
  9
$PLIMMIN
 10
0.0
 20
0.0
  9
$PLIMMAX
 10
12.0
 20
9.0
  9
$UNITMODE
 70
     0
  9
$VISRETAIN
 70
     0
  9
$PLINEGEN
 70
     0
  9
$PSLTSCALE
 70
     0
  9
$TREEDEPTH
 70
  3020
  9
$CMLSTYLE
  2
STANDARD
  9
$CMLJUST
 70
     0
  9
$CMLSCALE
 40
20.0
  9
$PROXYGRAPHICS
 70
     1
  9
$MEASUREMENT
 70
     1
  9
$CELWEIGHT
370
    -1
  9
$ENDCAPS
280
     0
  9
$JOINSTYLE
280
     0
  9
$LWDISPLAY
290
     0
  9
$INSUNITS
 70
     0
  9
$HYPERLINKBASE
  1

  9
$STYLESHEET
  1

  9
$XEDIT
290
     1
  9
$CEPSNTYPE
380
     0
  9
$PSTYLEMODE
290
     1
  9
$FINGERPRINTGUID
  2
{A0F129D1-2BC8-11D4-BF85-004026350B0A}
  9
$VERSIONGUID
  2
{FC1570DE-597D-164B-86EA-DC1F7D640D58}
  9
$EXTNAMES
290
     1
  9
$PSVPSCALE
 40
0.0
  9
$OLESTARTUP
290
     0
  0
ENDSEC
  0
SECTION
  2
CLASSES
  0
CLASS
  1
ACDBDICTIONARYWDFLT
  2
AcDbDictionaryWithDefault
  3
ObjectDBX Classes
 90
        0
280
     0
281
     0
  0
CLASS
  1
ACDBPLACEHOLDER
  2
AcDbPlaceHolder
  3
ObjectDBX Classes
 90
        0
280
     0
281
     0
  0
CLASS
  1
LAYOUT
  2
AcDbLayout
  3
ObjectDBX Classes
 90
        0
280
     0
281
     0
  0
CLASS
  1
MATERIAL
  2
AcDbMaterial
  3
ObjectDBX Classes
 90
     1153
280
     0
281
     0
  0
CLASS
  1
VISUALSTYLE
  2
AcDbVisualStyle
  3
ObjectDBX Classes
 90
     4095
280
     0
281
     0
  0
CLASS
  1
TABLESTYLE
  2
AcDbTableStyle
  3
ObjectDBX Classes
 90
     4095
280
     0
281
     0
  0
CLASS
  1
SCALE
  2
AcDbScale
  3
ObjectDBX Classes
 90
     1153
280
     0
281
     0
  0
CLASS
  1
MLEADERSTYLE
  2
AcDbMLeaderStyle
  3
ACDB_MLEADERSTYLE_CLASS
 90
     4095
280
     0
281
     0
  0
CLASS
  1
ACDBSECTIONVIEWSTYLE
  2
AcDbSectionViewStyle
  3
ObjectDBX Classes
 90
     1025
280
     0
281
     0
  0
CLASS
  1
ACDBDETAILVIEWSTYLE
  2
AcDbDetailViewStyle
  3
ObjectDBX Classes
 90
     1025
280
     0
281
     0
  0
CLASS
  1
SORTENTSTABLE
  2
AcDbSortentsTable
  3
ObjectDBX Classes
 90
        0
280
     0
281
     0
  0
CLASS
  1
DICTIONARYVAR
  2
AcDbDictionaryVar
  3
ObjectDBX Classes
 90
        0
280
     0
281
     0
  0
CLASS
  1
CELLSTYLEMAP
  2
AcDbCellStyleMap
  3
ObjectDBX Classes
 90
     1152
280
     0
281
     0
  0
ENDSEC
  0
SECTION
  2
TABLES
  0
TABLE
  2
VPORT
  5
8
330
0
100
AcDbSymbolTable
 70
     1
  0
VPORT
  5
5A0B
330
8
100
AcDbSymbolTableRecord
100
AcDbViewportTableRecord
  2
*Active
 70
     0
 10
0.0
 20
0.0
 11
1.0
 21
1.0
 12
11920.67204257012
 22
5347.510061844362
 13
0.0
 23
0.0
 14
5.0
 24
5.0
 15
0.0
 25
0.0
 16
0.0
 26
0.0
 36
1.0
 17
0.0
 27
0.0
 37
0.0
 40
5086.596626869984
 41
2.146341463414634
 42
50.0
 43
0.0
 44
0.0
 50
0.0
 51
0.0
 71
     0
 72
   100
 73
     1
 74
     0
 75
     0
 76
     0
 77
     0
 78
     0
281
     0
 65
     1
110
0.0
120
0.0
130
0.0
111
1.0
121
0.0
131
0.0
112
0.0
122
1.0
132
0.0
 79
     0
146
0.0
1001
ACAD_NAV_VCDISPLAY
1070
     3
  0
ENDTAB
  0
TABLE
  2
LTYPE
  5
5
330
0
100
AcDbSymbolTable
 70
     4
  0
LTYPE
  5
13
330
5
100
AcDbSymbolTableRecord
100
AcDbLinetypeTableRecord
  2
BYBLOCK
 70
     0
  3

 72
    65
 73
     0
 40
0.0
  0
LTYPE
  5
14
330
5
100
AcDbSymbolTableRecord
100
AcDbLinetypeTableRecord
  2
BYLAYER
 70
     0
  3

 72
    65
 73
     0
 40
0.0
  0
LTYPE
  5
15
330
5
100
AcDbSymbolTableRecord
100
AcDbLinetypeTableRecord
  2
CONTINUOUS
 70
     0
  3
Solid line
 72
    65
 73
     0
 40
0.0
  0
LTYPE
  5
1F
330
5
100
AcDbSymbolTableRecord
100
AcDbLinetypeTableRecord
  2
CENTER
 70
     0
  3
____ _ ____ _ ____ _ ____ _ ____ _ ____ _ ____ 
 72
    65
 73
     4
 40
2.0
 49
1.25
 74
     0
 49
-0.25
 74
     0
 49
0.25
 74
     0
 49
-0.25
 74
     0
  0
LTYPE
  5
20
330
5
100
AcDbSymbolTableRecord
100
AcDbLinetypeTableRecord
  2
HIDDEN
 70
     0
  3
__ __ __ __ __ __ __ __ __ __ __ __ __ __ __ __
 72
    65
 73
     2
 40
0.375
 49
0.25
 74
     0
 49
-0.125
 74
     0
  0
LTYPE
  5
21
330
5
100
AcDbSymbolTableRecord
100
AcDbLinetypeTableRecord
  2
PHANTOM
 70
     0
  3
______  __  __  ______  __  __  ______  __  __ 
 72
    65
 73
     6
 40
2.5
 49
1.25
 74
     0
 49
-0.25
 74
     0
 49
0.25
 74
     0
 49
-0.25
 74
     0
 49
0.25
 74
     0
 49
-0.25
 74
     0
  0
ENDTAB
  0
TABLE
  2
LAYER
  5
2
102
{ACAD_XDICTIONARY
360
5BB8
102
}
330
0
100
AcDbSymbolTable
 70
    13
  0
LAYER
  5
F
102
{ACAD_XDICTIONARY
360
5B9D
102
}
330
2
100
AcDbSymbolTableRecord
100
AcDbLayerTableRecord
  2
0
 70
     0
 62
     7
  6
CONTINUOUS
370
    -3
390
1E91
  0
LAYER
  5
2F
102
{ACAD_XDICTIONARY
360
5B9F
102
}
330
2
100
AcDbSymbolTableRecord
100
AcDbLayerTableRecord
  2
CT
 70
     0
 62
     3
  6
CENTER
370
    -3
390
1E91
  0
LAYER
  5
30
102
{ACAD_XDICTIONARY
360
5BA1
102
}
330
2
100
AcDbSymbolTableRecord
100
AcDbLayerTableRecord
  2
FUTO
 70
     0
 62
     4
  6
CONTINUOUS
370
    -3
390
1E91
  0
LAYER
  5
32
102
{ACAD_XDICTIONARY
360
5BA3
102
}
330
2
100
AcDbSymbolTableRecord
100
AcDbLayerTableRecord
  2
HOSO
 70
     0
 62
     7
  6
CONTINUOUS
370
    -3
390
1E91
  0
LAYER
  5
33
102
{ACAD_XDICTIONARY
360
5BA5
102
}
330
2
100
AcDbSymbolTableRecord
100
AcDbLayerTableRecord
  2
KL
 70
     0
 62
     7
  6
HIDDEN
370
    -3
390
1E91
  0
LAYER
  5
34
102
{ACAD_XDICTIONARY
360
5BA7
102
}
330
2
100
AcDbSymbolTableRecord
100
AcDbLayerTableRecord
  2
MOJI
 70
     0
 62
     3
  6
CONTINUOUS
370
    -3
390
1E91
  0
LAYER
  5
35
102
{ACAD_XDICTIONARY
360
5BA9
102
}
330
2
100
AcDbSymbolTableRecord
100
AcDbLayerTableRecord
  2
SL
 70
     0
 62
     1
  6
PHANTOM
370
    -3
390
1E91
  0
LAYER
  5
36
102
{ACAD_XDICTIONARY
360
5BAB
102
}
330
2
100
AcDbSymbolTableRecord
100
AcDbLayerTableRecord
  2
SP
 70
     0
 62
     2
  6
CONTINUOUS
370
    -3
390
1E91
  0
LAYER
  5
1E9B
330
2
100
AcDbSymbolTableRecord
100
AcDbLayerTableRecord
  2
Defpoints
 70
     0
 62
     7
  6
CONTINUOUS
290
     0
370
    -3
390
1E91
  0
LAYER
  5
1EEE
102
{ACAD_XDICTIONARY
360
5BAD
102
}
330
2
100
AcDbSymbolTableRecord
100
AcDbLayerTableRecord
  2
3
 70
     0
 62
    -2
  6
CONTINUOUS
370
    -3
390
1E91
  0
LAYER
  5
1EEF
102
{ACAD_XDICTIONARY
360
5BAF
102
}
330
2
100
AcDbSymbolTableRecord
100
AcDbLayerTableRecord
  2
2
 70
     0
 62
     3
  6
CENTER
370
    -3
390
1E91
  0
LAYER
  5
1EF0
102
{ACAD_XDICTIONARY
360
5BB1
102
}
330
2
100
AcDbSymbolTableRecord
100
AcDbLayerTableRecord
  2
1
 70
     0
 62
     4
  6
CONTINUOUS
370
    -3
390
1E91
  0
LAYER
  5
2188
102
{ACAD_XDICTIONARY
360
5BB3
102
}
330
2
100
AcDbSymbolTableRecord
100
AcDbLayerTableRecord
  2
4
 70
     0
 62
     7
  6
CONTINUOUS
370
    -3
390
1E91
  0
ENDTAB
  0
TABLE
  2
STYLE
  5
3
330
0
100
AcDbSymbolTable
 70
     1
  0
STYLE
  5
10
330
3
100
AcDbSymbolTableRecord
100
AcDbTextStyleTableRecord
  2
STANDARD
 70
     0
 40
0.0
 41
1.0
 50
15.0
 71
     0
 42
3.5
  3
C:\Program Files\AutoCAD LT\simplex.shx
  4
C:\Program Files\AutoCAD LT\extfont.shx
  0
ENDTAB
  0
TABLE
  2
VIEW
  5
6
330
0
100
AcDbSymbolTable
 70
     0
  0
ENDTAB
  0
TABLE
  2
UCS
  5
7
330
0
100
AcDbSymbolTable
 70
     0
  0
ENDTAB
  0
TABLE
  2
APPID
  5
9
330
0
100
AcDbSymbolTable
 70
     5
  0
APPID
  5
11
330
9
100
AcDbSymbolTableRecord
100
AcDbRegAppTableRecord
  2
ACAD
 70
     0
  0
APPID
  5
5B49
330
9
100
AcDbSymbolTableRecord
100
AcDbRegAppTableRecord
  2
ACAD_EXEMPT_FROM_CAD_STANDARDS
 70
     0
  0
APPID
  5
5B89
330
9
100
AcDbSymbolTableRecord
100
AcDbRegAppTableRecord
  2
AcadAnnoMonitorAlertIconDisabled
 70
     0
  0
APPID
  5
5BBE
330
9
100
AcDbSymbolTableRecord
100
AcDbRegAppTableRecord
  2
ACAD_NAV_VCDISPLAY
 70
     0
  0
APPID
  5
5C23
330
9
100
AcDbSymbolTableRecord
100
AcDbRegAppTableRecord
  2
ACAD_MLEADERVER
 70
     0
  0
ENDTAB
  0
TABLE
  2
DIMSTYLE
  5
A
330
0
100
AcDbSymbolTable
 70
     3
100
AcDbDimStyleTable
 71
     2
340
1E99
340
1D
  0
DIMSTYLE
105
1D
330
A
100
AcDbSymbolTableRecord
100
AcDbDimStyleTableRecord
  2
STANDARD
 70
     0
340
10
  0
DIMSTYLE
105
1E99
102
{ACAD_REACTORS
330
4268
330
42D6
330
426B
330
4588
330
45CE
330
4580
330
45AE
330
4BEF
330
4BF5
330
4BFE
330
4271
330
5723
330
5724
330
5725
330
5B51
330
5B5E
102
}
330
A
100
AcDbSymbolTableRecord
100
AcDbDimStyleTableRecord
  2
GOD
 70
     0
 40
15.0
 41
2.5
 42
1.0
 43
7.0
 44
1.0
 73
     0
 74
     0
 77
     1
 78
     8
140
3.0
141
0.0
143
0.03937
147
1.0
172
     1
173
     1
176
   256
177
   256
178
   256
271
     2
272
     2
284
     8
289
     0
340
10
341
1E7F
343
1E7F
344
1E7F
  0
DIMSTYLE
105
1EF1
330
A
100
AcDbSymbolTableRecord
100
AcDbDimStyleTableRecord
  2
IGA
 70
     0
 40
2.0
 41
2.0
 42
0.5
 43
10.0
 44
1.0
 47
1.0
 48
1.0
 73
     0
 74
     0
 77
     1
 78
     8
140
3.0
141
0.0
143
0.03937
146
10.0
147
1.0
173
     1
271
     1
272
     0
279
     2
284
     8
340
10
341
1E7F
343
1E7F
344
1E7F
  0
ENDTAB
  0
TABLE
  2
BLOCK_RECORD
  5
1
330
0
100
AcDbSymbolTable
 70
    28
  0
BLOCK_RECORD
  5
19
102
{ACAD_XDICTIONARY
360
5B2C
102
}
330
1
100
AcDbSymbolTableRecord
100
AcDbBlockTableRecord
  2
*MODEL_SPACE
340
1E94
  0
BLOCK_RECORD
  5
16
330
1
100
AcDbSymbolTableRecord
100
AcDbBlockTableRecord
  2
*PAPER_SPACE
340
1E95
  0
BLOCK_RECORD
  5
1E7F
330
1
100
AcDbSymbolTableRecord
100
AcDbBlockTableRecord
  2
_OPEN
340
0
102
{BLKREFS
331
4371
331
4372
331
438C
331
438D
331
4395
331
4396
331
439E
331
439F
331
4629
331
462A
331
4C8A
331
4C8B
331
4C93
331
4C94
331
4C9C
331
4C9D
331
574D
331
574E
331
5756
331
5757
331
575F
331
5760
331
5B31
331
5B32
331
5B3A
331
5B3B
331
5B43
331
5B44
331
5B84
331
5B85
331
5B97
331
5B98
102
}
  0
BLOCK_RECORD
  5
1EB4
330
1
100
AcDbSymbolTableRecord
100
AcDbBlockTableRecord
  2
_Dot
340
0
  0
BLOCK_RECORD
  5
22E5
330
1
100
AcDbSymbolTableRecord
100
AcDbBlockTableRecord
  2
A$C5EBD6DA5
340
0
  0
BLOCK_RECORD
  5
3F67
330
1
100
AcDbSymbolTableRecord
100
AcDbBlockTableRecord
  2
A$C2860434C
340
0
  0
BLOCK_RECORD
  5
42FF
330
1
100
AcDbSymbolTableRecord
100
AcDbBlockTableRecord
  2
*D4
340
0
  0
BLOCK_RECORD
  5
430B
330
1
100
AcDbSymbolTableRecord
100
AcDbBlockTableRecord
  2
*D5
340
0
  0
BLOCK_RECORD
  5
4317
330
1
100
AcDbSymbolTableRecord
100
AcDbBlockTableRecord
  2
*D6
340
0
  0
BLOCK_RECORD
  5
4323
330
1
100
AcDbSymbolTableRecord
100
AcDbBlockTableRecord
  2
*D7
340
0
  0
BLOCK_RECORD
  5
45E1
330
1
100
AcDbSymbolTableRecord
100
AcDbBlockTableRecord
  2
*D9
340
0
  0
BLOCK_RECORD
  5
45ED
330
1
100
AcDbSymbolTableRecord
100
AcDbBlockTableRecord
  2
*D10
340
0
  0
BLOCK_RECORD
  5
45F9
330
1
100
AcDbSymbolTableRecord
100
AcDbBlockTableRecord
  2
*D11
340
0
  0
BLOCK_RECORD
  5
4611
330
1
100
AcDbSymbolTableRecord
100
AcDbBlockTableRecord
  2
*D13
340
0
  0
BLOCK_RECORD
  5
4C5F
330
1
100
AcDbSymbolTableRecord
100
AcDbBlockTableRecord
  2
*D14
340
0
  0
BLOCK_RECORD
  5
4C6D
330
1
100
AcDbSymbolTableRecord
100
AcDbBlockTableRecord
  2
*D15
340
0
  0
BLOCK_RECORD
  5
4C79
330
1
100
AcDbSymbolTableRecord
100
AcDbBlockTableRecord
  2
*D16
340
0
  0
BLOCK_RECORD
  5
5726
330
1
100
AcDbSymbolTableRecord
100
AcDbBlockTableRecord
  2
*D17
340
0
  0
BLOCK_RECORD
  5
5732
330
1
100
AcDbSymbolTableRecord
100
AcDbBlockTableRecord
  2
*D18
340
0
  0
BLOCK_RECORD
  5
573E
330
1
100
AcDbSymbolTableRecord
100
AcDbBlockTableRecord
  2
*D19
340
0
  0
BLOCK_RECORD
  5
5B52
330
1
100
AcDbSymbolTableRecord
100
AcDbBlockTableRecord
  2
*D26
340
0
  0
BLOCK_RECORD
  5
5B5F
330
1
100
AcDbSymbolTableRecord
100
AcDbBlockTableRecord
  2
*D27
340
0
  0
ENDTAB
  0
ENDSEC
  0
SECTION
  2
BLOCKS
  0
BLOCK
  5
1A
330
19
100
AcDbEntity
  8
0
100
AcDbBlockBegin
  2
*MODEL_SPACE
 70
     0
 10
0.0
 20
0.0
 30
0.0
  3
*MODEL_SPACE
  1

  0
ENDBLK
  5
1B
330
19
100
AcDbEntity
  8
0
100
AcDbBlockEnd
  0
BLOCK
  5
17
330
16
100
AcDbEntity
 67
     1
  8
0
100
AcDbBlockBegin
  2
*PAPER_SPACE
 70
     0
 10
0.0
 20
0.0
 30
0.0
  3
*PAPER_SPACE
  1

  0
ENDBLK
  5
18
330
16
100
AcDbEntity
 67
     1
  8
0
100
AcDbBlockEnd
  0
BLOCK
  5
1E80
330
1E7F
100
AcDbEntity
  8
0
100
AcDbBlockBegin
  2
_OPEN
 70
     0
 10
0.0
 20
0.0
 30
0.0
  3
_OPEN
  1

  0
LINE
  5
1E81
330
1E7F
100
AcDbEntity
  8
0
  6
ByBlock
 62
     0
100
AcDbLine
 10
-1.0
 20
0.1666666666666666
 30
0.0
 11
0.0
 21
0.0
 31
0.0
  0
LINE
  5
1E82
330
1E7F
100
AcDbEntity
  8
0
  6
ByBlock
 62
     0
100
AcDbLine
 10
0.0
 20
0.0
 30
0.0
 11
-1.0
 21
-0.1666666666666666
 31
0.0
  0
LINE
  5
1E83
330
1E7F
100
AcDbEntity
  8
0
  6
ByBlock
 62
     0
100
AcDbLine
 10
0.0
 20
0.0
 30
0.0
 11
-1.0
 21
0.0
 31
0.0
  0
ENDBLK
  5
1E84
330
1E7F
100
AcDbEntity
  8
0
100
AcDbBlockEnd
  0
BLOCK
  5
1EB7
330
1EB4
100
AcDbEntity
  8
0
100
AcDbBlockBegin
  2
_Dot
 70
     0
 10
0.0
 20
0.0
 30
0.0
  3
_Dot
  1

  0
LINE
  5
1EC3
330
1EB4
100
AcDbEntity
  8
0
  6
ByBlock
 62
     0
100
AcDbLine
 10
0.0
 20
0.0
 30
0.0
 11
-1.0
 21
-0.0000000000000284
 31
0.0
  0
LWPOLYLINE
  5
1EC4
330
1EB4
100
AcDbEntity
  8
0
  6
ByBlock
 62
     0
100
AcDbPolyline
 90
        2
 70
     1
 43
0.1666666666666666
 10
-0.0833333333333286
 20
-0.0000000000000284
 42
1.0
 10
0.0833333333333286
 20
-0.0000000000000284
 42
1.0
  0
ENDBLK
  5
1EB8
330
1EB4
100
AcDbEntity
  8
0
100
AcDbBlockEnd
  0
BLOCK
  5
22ED
330
22E5
100
AcDbEntity
  8
0
100
AcDbBlockBegin
  2
A$C5EBD6DA5
 70
     0
 10
0.0
 20
0.0
 30
0.0
  3
A$C5EBD6DA5
  1

  0
LWPOLYLINE
  5
22E6
330
22E5
100
AcDbEntity
  8
1
100
AcDbPolyline
 90
        2
 70
     0
 43
0.0
 10
8.000000000002728
 20
-181.5000000000009
 10
8.000000000000909
 20
181.5000000000009
  0
LINE
  5
22E7
330
22E5
100
AcDbEntity
  8
1
100
AcDbLine
 10
1.000000000000909
 20
182.5000000000009
 30
0.0
 11
7.000000000002728
 21
182.5000000000009
 31
0.0
  0
ARC
  5
22E8
330
22E5
100
AcDbEntity
  8
1
100
AcDbCircle
 10
1.000000000000909
 20
183.5000000000009
 30
0.0
 40
1.0
100
AcDbArc
 50
180.0
 51
270.0
  0
LINE
  5
22E9
330
22E5
100
AcDbEntity
  8
1
100
AcDbLine
 10
1.000000000000909
 20
-182.5000000000009
 30
0.0
 11
7.000000000002728
 21
-182.5000000000009
 31
0.0
  0
ARC
  5
22EA
330
22E5
100
AcDbEntity
  8
1
100
AcDbCircle
 10
1.000000000000909
 20
-183.5000000000009
 30
0.0
 40
1.0
100
AcDbArc
 50
90.0
 51
180.0
  0
ARC
  5
22EB
330
22E5
100
AcDbEntity
  8
1
100
AcDbCircle
 10
7.000000000000909
 20
-181.5000000000009
 30
0.0
 40
1.0
100
AcDbArc
 50
270.0
 51
0.0
  0
ARC
  5
22EC
330
22E5
100
AcDbEntity
  8
1
100
AcDbCircle
 10
7.000000000000909
 20
181.5000000000009
 30
0.0
 40
1.0
100
AcDbArc
 50
0.0
 51
90.0
  0
ENDBLK
  5
22EE
330
22E5
100
AcDbEntity
  8
0
100
AcDbBlockEnd
  0
BLOCK
  5
3F70
330
3F67
100
AcDbEntity
  8
0
100
AcDbBlockBegin
  2
A$C2860434C
 70
     0
 10
0.0
 20
0.0
 30
0.0
  3
A$C2860434C
  1

  0
LINE
  5
3F68
330
3F67
100
AcDbEntity
  8
FUTO
100
AcDbLine
 10
46.80127011642617
 20
-0.0000088960860012
 30
0.0
 11
8.586023312103861
 21
70.14998454137458
 31
0.0
  0
LINE
  5
3F69
330
3F67
100
AcDbEntity
  8
FUTO
100
AcDbLine
 10
-0.0000161416137416
 20
53.3499845413753
 30
0.0
 11
1.599983858386622
 21
53.3499845413753
 31
0.0
  0
LINE
  5
3F6A
330
3F67
100
AcDbEntity
  8
FUTO
100
AcDbLine
 10
-0.0000161416137416
 20
53.3499845413753
 30
0.0
 11
-0.0000161416137416
 21
68.54998454137422
 31
0.0
  0
LINE
  5
3F6B
330
3F67
100
AcDbEntity
  8
FUTO
100
AcDbLine
 10
1.599983858386622
 20
53.3499845413753
 30
0.0
 11
1.599983858386622
 21
68.54998454137422
 31
0.0
  0
LINE
  5
3F6C
330
3F67
100
AcDbEntity
  8
FUTO
100
AcDbLine
 10
3.199983858386985
 20
70.14998454137458
 30
0.0
 11
91.76921462761674
 21
70.14998454137094
 31
0.0
  0
LINE
  5
3F6D
330
3F67
100
AcDbEntity
  8
FUTO
100
AcDbLine
 10
3.199983858386985
 20
71.74998454137313
 30
0.0
 11
92.79485565325741
 21
71.74998454137313
 31
0.0
  0
ARC
  5
3F6E
330
3F67
100
AcDbEntity
  8
FUTO
100
AcDbCircle
 10
3.199983858386985
 20
68.54998454137422
 30
0.0
 40
3.2
100
AcDbArc
 50
90.0
 51
180.0
  0
ARC
  5
3F6F
330
3F67
100
AcDbEntity
  8
FUTO
100
AcDbCircle
 10
3.199983858386985
 20
68.54998454137422
 30
0.0
 40
1.6
100
AcDbArc
 50
90.0
 51
180.0
  0
ENDBLK
  5
3F71
330
3F67
100
AcDbEntity
  8
0
100
AcDbBlockEnd
  0
BLOCK
  5
4309
330
42FF
100
AcDbEntity
  8
0
100
AcDbBlockBegin
  2
*D4
 70
     1
 10
0.0
 20
0.0
 30
0.0
  3
*D4
  1

  0
LINE
  5
4389
330
42FF
100
AcDbEntity
  8
SP
370
    -2
100
AcDbLine
 10
11070.75356201801
 20
4502.635294509079
 30
0.0
 11
11005.05558752166
 21
4502.635294509079
 31
0.0
  0
LINE
  5
438A
330
42FF
100
AcDbEntity
  8
SP
370
    -2
100
AcDbLine
 10
11110.05558752166
 20
4817.635294509075
 30
0.0
 11
11005.05558752166
 21
4817.635294509075
 31
0.0
  0
LINE
  5
438B
330
42FF
100
AcDbEntity
  8
SP
370
    -2
100
AcDbLine
 10
11020.05558752166
 20
4540.135294509079
 30
0.0
 11
11020.05558752166
 21
4780.135294509075
 31
0.0
  0
INSERT
  5
438C
330
42FF
100
AcDbEntity
  8
SP
370
    -2
100
AcDbBlockReference
  2
_OPEN
 10
11020.05558752166
 20
4502.635294509079
 30
0.0
 41
37.5
 42
37.5
 43
37.5
 50
270.0
  0
INSERT
  5
438D
330
42FF
100
AcDbEntity
  8
SP
370
    -2
100
AcDbBlockReference
  2
_OPEN
 10
11020.05558752166
 20
4817.635294509075
 30
0.0
 41
37.5
 42
37.5
 43
37.5
 50
90.0
  0
MTEXT
  5
438E
330
42FF
100
AcDbEntity
  8
SP
100
AcDbMText
 10
10982.55558752166
 20
4660.135294509079
 30
0.0
 40
45.0
 41
0.0
 71
     5
 72
     1
  1
\A1;315
 11
0.0000000000000001
 21
1.0
 31
0.0
 73
     1
 44
1.0
1001
ACAD
1000
MTEXTBEGIN
1070
    73
1070
     1
1070
    44
1040
1.0
1070
    74
1070
     0
1000
MTEXTEND
  0
POINT
  5
438F
330
42FF
100
AcDbEntity
  8
Defpoints
 62
     0
100
AcDbPoint
 10
11085.75356201801
 20
4502.635294509079
 30
0.0
  0
POINT
  5
4390
330
42FF
100
AcDbEntity
  8
Defpoints
 62
     0
100
AcDbPoint
 10
11125.05558752166
 20
4817.635294509075
 30
0.0
  0
POINT
  5
4391
330
42FF
100
AcDbEntity
  8
Defpoints
 62
     0
100
AcDbPoint
 10
11020.05558752166
 20
4817.635294509075
 30
0.0
  0
ENDBLK
  5
430A
330
42FF
100
AcDbEntity
  8
0
100
AcDbBlockEnd
  0
BLOCK
  5
4315
330
430B
100
AcDbEntity
  8
0
100
AcDbBlockBegin
  2
*D5
 70
     1
 10
0.0
 20
0.0
 30
0.0
  3
*D5
  1

  0
LINE
  5
4392
330
430B
100
AcDbEntity
  8
SP
370
    -2
100
AcDbLine
 10
11110.05558752166
 20
4147.635294509079
 30
0.0
 11
11005.05558752167
 21
4147.635294509079
 31
0.0
  0
LINE
  5
4393
330
430B
100
AcDbEntity
  8
SP
370
    -2
100
AcDbLine
 10
11070.75356201801
 20
4502.635294509079
 30
0.0
 11
11005.05558752167
 21
4502.635294509079
 31
0.0
  0
LINE
  5
4394
330
430B
100
AcDbEntity
  8
SP
370
    -2
100
AcDbLine
 10
11020.05558752167
 20
4185.13529450908
 30
0.0
 11
11020.05558752167
 21
4465.135294509079
 31
0.0
  0
INSERT
  5
4395
330
430B
100
AcDbEntity
  8
SP
370
    -2
100
AcDbBlockReference
  2
_OPEN
 10
11020.05558752167
 20
4147.635294509079
 30
0.0
 41
37.5
 42
37.5
 43
37.5
 50
270.0
  0
INSERT
  5
4396
330
430B
100
AcDbEntity
  8
SP
370
    -2
100
AcDbBlockReference
  2
_OPEN
 10
11020.05558752167
 20
4502.635294509079
 30
0.0
 41
37.5
 42
37.5
 43
37.5
 50
90.0
  0
MTEXT
  5
4397
330
430B
100
AcDbEntity
  8
SP
100
AcDbMText
 10
10982.55558752167
 20
4325.135294509081
 30
0.0
 40
45.0
 41
0.0
 71
     5
 72
     1
  1
\A1;355
 11
0.0000000000000001
 21
1.0
 31
0.0
 73
     1
 44
1.0
1001
ACAD
1000
MTEXTBEGIN
1070
    73
1070
     1
1070
    44
1040
1.0
1070
    74
1070
     0
1000
MTEXTEND
  0
POINT
  5
4398
330
430B
100
AcDbEntity
  8
Defpoints
 62
     0
100
AcDbPoint
 10
11125.05558752166
 20
4147.635294509079
 30
0.0
  0
POINT
  5
4399
330
430B
100
AcDbEntity
  8
Defpoints
 62
     0
100
AcDbPoint
 10
11085.75356201801
 20
4502.635294509079
 30
0.0
  0
POINT
  5
439A
330
430B
100
AcDbEntity
  8
Defpoints
 62
     0
100
AcDbPoint
 10
11020.05558752167
 20
4502.635294509079
 30
0.0
  0
ENDBLK
  5
4316
330
430B
100
AcDbEntity
  8
0
100
AcDbBlockEnd
  0
BLOCK
  5
4321
330
4317
100
AcDbEntity
  8
0
100
AcDbBlockBegin
  2
*D6
 70
     1
 10
0.0
 20
0.0
 30
0.0
  3
*D6
  1

  0
LINE
  5
436E
330
4317
100
AcDbEntity
  8
SP
370
    -2
100
AcDbLine
 10
11375.05558752167
 20
4889.1712074726
 30
0.0
 11
11375.05558752167
 21
4948.635294509075
 31
0.0
  0
LINE
  5
436F
330
4317
100
AcDbEntity
  8
SP
370
    -2
100
AcDbLine
 10
11125.05558752166
 20
4853.635294509075
 30
0.0
 11
11125.05558752166
 21
4948.635294509075
 31
0.0
  0
LINE
  5
4370
330
4317
100
AcDbEntity
  8
SP
370
    -2
100
AcDbLine
 10
11337.55558752167
 20
4933.635294509075
 30
0.0
 11
11162.55558752166
 21
4933.635294509075
 31
0.0
  0
INSERT
  5
4371
330
4317
100
AcDbEntity
  8
SP
370
    -2
100
AcDbBlockReference
  2
_OPEN
 10
11375.05558752167
 20
4933.635294509075
 30
0.0
 41
37.5
 42
37.5
 43
37.5
  0
INSERT
  5
4372
330
4317
100
AcDbEntity
  8
SP
370
    -2
100
AcDbBlockReference
  2
_OPEN
 10
11125.05558752166
 20
4933.635294509075
 30
0.0
 41
37.5
 42
37.5
 43
37.5
 50
180.0
  0
MTEXT
  5
4373
330
4317
100
AcDbEntity
  8
SP
100
AcDbMText
 10
11250.05558752167
 20
4971.135294509075
 30
0.0
 40
45.0
 41
0.0
 71
     5
 72
     1
  1
\A1;250
 73
     1
 44
1.0
1001
ACAD
1000
MTEXTBEGIN
1070
    73
1070
     1
1070
    44
1040
1.0
1070
    74
1070
     0
1000
MTEXTEND
  0
POINT
  5
4374
330
4317
100
AcDbEntity
  8
Defpoints
 62
     0
100
AcDbPoint
 10
11375.05558752167
 20
4874.1712074726
 30
0.0
  0
POINT
  5
4375
330
4317
100
AcDbEntity
  8
Defpoints
 62
     0
100
AcDbPoint
 10
11125.05558752166
 20
4838.635294509075
 30
0.0
  0
POINT
  5
4376
330
4317
100
AcDbEntity
  8
Defpoints
 62
     0
100
AcDbPoint
 10
11125.05558752166
 20
4933.635294509075
 30
0.0
  0
ENDBLK
  5
4322
330
4317
100
AcDbEntity
  8
0
100
AcDbBlockEnd
  0
BLOCK
  5
432D
330
4323
100
AcDbEntity
  8
0
100
AcDbBlockBegin
  2
*D7
 70
     1
 10
0.0
 20
0.0
 30
0.0
  3
*D7
  1

  0
LINE
  5
439B
330
4323
100
AcDbEntity
  8
SP
370
    -2
100
AcDbLine
 10
11375.05558752167
 20
4889.1712074726
 30
0.0
 11
11375.05558752167
 21
4948.635294509075
 31
0.0
  0
LINE
  5
439C
330
4323
100
AcDbEntity
  8
SP
370
    -2
100
AcDbLine
 10
11639.2868691555
 20
4544.305717321466
 30
0.0
 11
11639.2868691555
 21
4948.635294509075
 31
0.0
  0
LINE
  5
439D
330
4323
100
AcDbEntity
  8
SP
370
    -2
100
AcDbLine
 10
11412.55558752167
 20
4933.635294509075
 30
0.0
 11
11601.7868691555
 21
4933.635294509075
 31
0.0
  0
INSERT
  5
439E
330
4323
100
AcDbEntity
  8
SP
370
    -2
100
AcDbBlockReference
  2
_OPEN
 10
11375.05558752167
 20
4933.635294509075
 30
0.0
 41
37.5
 42
37.5
 43
37.5
 50
180.0
  0
INSERT
  5
439F
330
4323
100
AcDbEntity
  8
SP
370
    -2
100
AcDbBlockReference
  2
_OPEN
 10
11639.2868691555
 20
4933.635294509075
 30
0.0
 41
37.5
 42
37.5
 43
37.5
  0
MTEXT
  5
43A0
330
4323
100
AcDbEntity
  8
SP
100
AcDbMText
 10
11507.17122833858
 20
4971.135294509075
 30
0.0
 40
45.0
 41
0.0
 71
     5
 72
     1
  1
\A1;264
 73
     1
 44
1.0
1001
ACAD
1000
MTEXTBEGIN
1070
    73
1070
     1
1070
    44
1040
1.0
1070
    74
1070
     0
1000
MTEXTEND
  0
POINT
  5
43A1
330
4323
100
AcDbEntity
  8
Defpoints
 62
     0
100
AcDbPoint
 10
11375.05558752167
 20
4874.1712074726
 30
0.0
  0
POINT
  5
43A2
330
4323
100
AcDbEntity
  8
Defpoints
 62
     0
100
AcDbPoint
 10
11639.2868691555
 20
4529.305717321466
 30
0.0
  0
POINT
  5
43A3
330
4323
100
AcDbEntity
  8
Defpoints
 62
     0
100
AcDbPoint
 10
11639.2868691555
 20
4933.635294509075
 30
0.0
  0
ENDBLK
  5
432E
330
4323
100
AcDbEntity
  8
0
100
AcDbBlockEnd
  0
BLOCK
  5
45EB
330
45E1
100
AcDbEntity
  8
0
100
AcDbBlockBegin
  2
*D9
 70
     1
 10
0.0
 20
0.0
 30
0.0
  3
*D9
  1

  0
LINE
  5
4626
330
45E1
100
AcDbEntity
  8
SP
370
    -2
100
AcDbLine
 10
12563.45460744111
 20
4135.83529450908
 30
0.0
 11
12563.45460744111
 21
4027.635294509081
 31
0.0
  0
LINE
  5
4627
330
45E1
100
AcDbEntity
  8
SP
370
    -2
100
AcDbLine
 10
12253.45460744111
 20
4132.63529450908
 30
0.0
 11
12253.45460744111
 21
4027.635294509081
 31
0.0
  0
LINE
  5
4628
330
45E1
100
AcDbEntity
  8
SP
370
    -2
100
AcDbLine
 10
12525.95460744111
 20
4042.63529450908
 30
0.0
 11
12290.95460744111
 21
4042.63529450908
 31
0.0
  0
INSERT
  5
4629
330
45E1
100
AcDbEntity
  8
SP
370
    -2
100
AcDbBlockReference
  2
_OPEN
 10
12563.45460744111
 20
4042.63529450908
 30
0.0
 41
37.5
 42
37.5
 43
37.5
  0
INSERT
  5
462A
330
45E1
100
AcDbEntity
  8
SP
370
    -2
100
AcDbBlockReference
  2
_OPEN
 10
12253.45460744111
 20
4042.63529450908
 30
0.0
 41
37.5
 42
37.5
 43
37.5
 50
180.0
  0
MTEXT
  5
462B
330
45E1
100
AcDbEntity
  8
SP
100
AcDbMText
 10
12408.45460744111
 20
4080.13529450908
 30
0.0
 40
45.0
 41
0.0
 71
     5
 72
     1
  1
\A1;310
 73
     1
 44
1.0
1001
ACAD
1000
MTEXTBEGIN
1070
    73
1070
     1
1070
    44
1040
1.0
1070
    74
1070
     0
1000
MTEXTEND
  0
POINT
  5
462C
330
45E1
100
AcDbEntity
  8
Defpoints
 62
     0
100
AcDbPoint
 10
12563.45460744111
 20
4150.83529450908
 30
0.0
  0
POINT
  5
462D
330
45E1
100
AcDbEntity
  8
Defpoints
 62
     0
100
AcDbPoint
 10
12253.45460744111
 20
4147.63529450908
 30
0.0
  0
POINT
  5
462E
330
45E1
100
AcDbEntity
  8
Defpoints
 62
     0
100
AcDbPoint
 10
12253.45460744111
 20
4042.63529450908
 30
0.0
  0
ENDBLK
  5
45EC
330
45E1
100
AcDbEntity
  8
0
100
AcDbBlockEnd
  0
BLOCK
  5
45F7
330
45ED
100
AcDbEntity
  8
0
100
AcDbBlockBegin
  2
*D10
 70
     1
 10
0.0
 20
0.0
 30
0.0
  3
*D10
  1

  0
LINE
  5
5B40
330
45ED
100
AcDbEntity
  8
SP
370
    -2
100
AcDbLine
 10
12573.45460744111
 20
4817.635294509081
 30
0.0
 11
12573.45460744111
 21
4948.635294509075
 31
0.0
  0
LINE
  5
5B41
330
45ED
100
AcDbEntity
  8
SP
370
    -2
100
AcDbLine
 10
12797.4546074411
 20
4817.635294509081
 30
0.0
 11
12797.4546074411
 21
4948.635294509075
 31
0.0
  0
LINE
  5
5B42
330
45ED
100
AcDbEntity
  8
SP
370
    -2
100
AcDbLine
 10
12610.95460744111
 20
4933.635294509075
 30
0.0
 11
12759.9546074411
 21
4933.635294509075
 31
0.0
  0
INSERT
  5
5B43
330
45ED
100
AcDbEntity
  8
SP
370
    -2
100
AcDbBlockReference
  2
_OPEN
 10
12573.45460744111
 20
4933.635294509075
 30
0.0
 41
37.5
 42
37.5
 43
37.5
 50
180.0
  0
INSERT
  5
5B44
330
45ED
100
AcDbEntity
  8
SP
370
    -2
100
AcDbBlockReference
  2
_OPEN
 10
12797.4546074411
 20
4933.635294509075
 30
0.0
 41
37.5
 42
37.5
 43
37.5
  0
MTEXT
  5
5B45
330
45ED
100
AcDbEntity
  8
SP
100
AcDbMText
 10
12685.4546074411
 20
4971.135294509075
 30
0.0
 40
45.0
 41
0.0
 71
     5
 72
     1
  1
\A1;224
 73
     1
 44
1.0
1001
ACAD
1000
MTEXTBEGIN
1070
    73
1070
     1
1070
    44
1040
1.0
1070
    74
1070
     0
1000
MTEXTEND
  0
POINT
  5
5B46
330
45ED
100
AcDbEntity
  8
Defpoints
 62
     0
100
AcDbPoint
 10
12573.45460744111
 20
4802.635294509081
 30
0.0
  0
POINT
  5
5B47
330
45ED
100
AcDbEntity
  8
Defpoints
 62
     0
100
AcDbPoint
 10
12797.4546074411
 20
4802.635294509081
 30
0.0
  0
POINT
  5
5B48
330
45ED
100
AcDbEntity
  8
Defpoints
 62
     0
100
AcDbPoint
 10
12797.4546074411
 20
4933.635294509075
 30
0.0
  0
ENDBLK
  5
45F8
330
45ED
100
AcDbEntity
  8
0
100
AcDbBlockEnd
  0
BLOCK
  5
4603
330
45F9
100
AcDbEntity
  8
0
100
AcDbBlockBegin
  2
*D11
 70
     1
 10
0.0
 20
0.0
 30
0.0
  3
*D11
  1

  0
LINE
  5
5B2E
330
45F9
100
AcDbEntity
  8
SP
370
    -2
100
AcDbLine
 10
12685.45460744111
 20
5008.635294509075
 30
0.0
 11
12685.45460744111
 21
5053.635294509074
 31
0.0
  0
LINE
  5
5B2F
330
45F9
100
AcDbEntity
  8
SP
370
    -2
100
AcDbLine
 10
12806.45460744111
 20
4699.135294509079
 30
0.0
 11
12806.45460744111
 21
5053.635294509074
 31
0.0
  0
LINE
  5
5B30
330
45F9
100
AcDbEntity
  8
SP
370
    -2
100
AcDbLine
 10
12722.95460744111
 20
5038.635294509075
 30
0.0
 11
12768.95460744111
 21
5038.635294509075
 31
0.0
  0
INSERT
  5
5B31
330
45F9
100
AcDbEntity
  8
SP
370
    -2
100
AcDbBlockReference
  2
_OPEN
 10
12685.45460744111
 20
5038.635294509075
 30
0.0
 41
37.5
 42
37.5
 43
37.5
 50
180.0
  0
INSERT
  5
5B32
330
45F9
100
AcDbEntity
  8
SP
370
    -2
100
AcDbBlockReference
  2
_OPEN
 10
12806.45460744111
 20
5038.635294509075
 30
0.0
 41
37.5
 42
37.5
 43
37.5
  0
MTEXT
  5
5B33
330
45F9
100
AcDbEntity
  8
SP
100
AcDbMText
 10
12745.95460744111
 20
5076.135294509075
 30
0.0
 40
45.0
 41
0.0
 71
     5
 72
     1
  1
\A1;121
 73
     1
 44
1.0
1001
ACAD
1000
MTEXTBEGIN
1070
    73
1070
     1
1070
    44
1040
1.0
1070
    74
1070
     0
1000
MTEXTEND
  0
POINT
  5
5B34
330
45F9
100
AcDbEntity
  8
Defpoints
 62
     0
100
AcDbPoint
 10
12685.45460744111
 20
4993.635294509075
 30
0.0
  0
POINT
  5
5B35
330
45F9
100
AcDbEntity
  8
Defpoints
 62
     0
100
AcDbPoint
 10
12806.45460744111
 20
4684.135294509078
 30
0.0
  0
POINT
  5
5B36
330
45F9
100
AcDbEntity
  8
Defpoints
 62
     0
100
AcDbPoint
 10
12806.45460744111
 20
5038.635294509075
 30
0.0
  0
ENDBLK
  5
4604
330
45F9
100
AcDbEntity
  8
0
100
AcDbBlockEnd
  0
BLOCK
  5
461B
330
4611
100
AcDbEntity
  8
0
100
AcDbBlockBegin
  2
*D13
 70
     1
 10
0.0
 20
0.0
 30
0.0
  3
*D13
  1

  0
LINE
  5
5B37
330
4611
100
AcDbEntity
  8
SP
370
    -2
100
AcDbLine
 10
12821.45460744112
 20
4660.135294509081
 30
0.0
 11
12937.66919595289
 21
4660.135294509081
 31
0.0
  0
LINE
  5
5B38
330
4611
100
AcDbEntity
  8
SP
370
    -2
100
AcDbLine
 10
12821.45460744112
 20
4345.135294509081
 30
0.0
 11
12937.66919595289
 21
4345.135294509081
 31
0.0
  0
LINE
  5
5B39
330
4611
100
AcDbEntity
  8
SP
370
    -2
100
AcDbLine
 10
12922.66919595289
 20
4622.63529450908
 30
0.0
 11
12922.66919595289
 21
4382.635294509081
 31
0.0
  0
INSERT
  5
5B3A
330
4611
100
AcDbEntity
  8
SP
370
    -2
100
AcDbBlockReference
  2
_OPEN
 10
12922.66919595289
 20
4660.135294509081
 30
0.0
 41
37.5
 42
37.5
 43
37.5
 50
90.0
  0
INSERT
  5
5B3B
330
4611
100
AcDbEntity
  8
SP
370
    -2
100
AcDbBlockReference
  2
_OPEN
 10
12922.66919595289
 20
4345.135294509081
 30
0.0
 41
37.5
 42
37.5
 43
37.5
 50
270.0
  0
MTEXT
  5
5B3C
330
4611
100
AcDbEntity
  8
SP
100
AcDbMText
 10
12885.16919595289
 20
4502.635294509076
 30
0.0
 40
45.0
 41
0.0
 71
     5
 72
     1
  1
\A1;\U+03C6315
 11
0.0000000000000001
 21
1.0
 31
0.0
 73
     1
 44
1.0
1001
ACAD
1000
MTEXTBEGIN
1070
    73
1070
     1
1070
    44
1040
1.0
1070
    74
1070
     0
1000
MTEXTEND
  0
POINT
  5
5B3D
330
4611
100
AcDbEntity
  8
Defpoints
 62
     0
100
AcDbPoint
 10
12806.45460744112
 20
4660.135294509081
 30
0.0
  0
POINT
  5
5B3E
330
4611
100
AcDbEntity
  8
Defpoints
 62
     0
100
AcDbPoint
 10
12806.45460744112
 20
4345.135294509081
 30
0.0
  0
POINT
  5
5B3F
330
4611
100
AcDbEntity
  8
Defpoints
 62
     0
100
AcDbPoint
 10
12922.66919595289
 20
4345.135294509081
 30
0.0
  0
ENDBLK
  5
461C
330
4611
100
AcDbEntity
  8
0
100
AcDbBlockEnd
  0
BLOCK
  5
4C6B
330
4C5F
100
AcDbEntity
  8
0
100
AcDbBlockBegin
  2
*D14
 70
     1
 10
0.0
 20
0.0
 30
0.0
  3
*D14
  1

  0
LINE
  5
4C85
330
4C5F
100
AcDbEntity
  8
SP
370
    -2
100
AcDbLine
 10
11110.05558752166
 20
5732.362935220167
 30
0.0
 11
10936.18288508549
 21
5732.362935220167
 31
0.0
  0
LINE
  5
4C86
330
4C5F
100
AcDbEntity
  8
SP
370
    -2
100
AcDbLine
 10
11062.43403925518
 20
5854.362935220169
 30
0.0
 11
10936.18288508549
 21
5854.362935220169
 31
0.0
  0
LINE
  5
4C87
330
4C5F
100
AcDbEntity
  8
SP
370
    -2
100
AcDbLine
 10
10951.18288508549
 20
5694.862935220167
 30
0.0
 11
10951.18288508549
 21
5657.362935220167
 31
0.0
  0
LINE
  5
4C88
330
4C5F
100
AcDbEntity
  8
SP
370
    -2
100
AcDbLine
 10
10951.18288508549
 20
5891.862935220169
 30
0.0
 11
10951.18288508549
 21
6064.362935220168
 31
0.0
  0
LINE
  5
4C89
330
4C5F
100
AcDbEntity
  8
SP
370
    -2
100
AcDbLine
 10
10951.18288508549
 20
5732.362935220167
 30
0.0
 11
10951.18288508549
 21
5854.362935220169
 31
0.0
  0
INSERT
  5
4C8A
330
4C5F
100
AcDbEntity
  8
SP
370
    -2
100
AcDbBlockReference
  2
_OPEN
 10
10951.18288508549
 20
5732.362935220167
 30
0.0
 41
37.5
 42
37.5
 43
37.5
 50
90.0
  0
INSERT
  5
4C8B
330
4C5F
100
AcDbEntity
  8
SP
370
    -2
100
AcDbBlockReference
  2
_OPEN
 10
10951.18288508549
 20
5854.362935220169
 30
0.0
 41
37.5
 42
37.5
 43
37.5
 50
270.0
  0
MTEXT
  5
4C8C
330
4C5F
100
AcDbEntity
  8
SP
100
AcDbMText
 10
10913.68288508549
 20
5996.862935220171
 30
0.0
 40
45.0
 41
0.0
 71
     5
 72
     1
  1
\A1;122
 11
0.0000000000000001
 21
1.0
 31
0.0
 73
     1
 44
1.0
1001
ACAD
1000
MTEXTBEGIN
1070
    73
1070
     1
1070
    44
1040
1.0
1070
    74
1070
     0
1000
MTEXTEND
  0
POINT
  5
4C8D
330
4C5F
100
AcDbEntity
  8
Defpoints
 62
     0
100
AcDbPoint
 10
11125.05558752167
 20
5732.362935220167
 30
0.0
  0
POINT
  5
4C8E
330
4C5F
100
AcDbEntity
  8
Defpoints
 62
     0
100
AcDbPoint
 10
11077.43403925518
 20
5854.362935220169
 30
0.0
  0
POINT
  5
4C8F
330
4C5F
100
AcDbEntity
  8
Defpoints
 62
     0
100
AcDbPoint
 10
10951.18288508549
 20
5854.362935220169
 30
0.0
  0
ENDBLK
  5
4C6C
330
4C5F
100
AcDbEntity
  8
0
100
AcDbBlockEnd
  0
BLOCK
  5
4C77
330
4C6D
100
AcDbEntity
  8
0
100
AcDbBlockBegin
  2
*D15
 70
     1
 10
0.0
 20
0.0
 30
0.0
  3
*D15
  1

  0
LINE
  5
4C90
330
4C6D
100
AcDbEntity
  8
SP
370
    -2
100
AcDbLine
 10
11625.05558752167
 20
5407.362935220169
 30
0.0
 11
11625.05558752167
 21
5260.341501466711
 31
0.0
  0
LINE
  5
4C91
330
4C6D
100
AcDbEntity
  8
SP
370
    -2
100
AcDbLine
 10
11125.05558752167
 20
5407.362935220169
 30
0.0
 11
11125.05558752167
 21
5260.341501466711
 31
0.0
  0
LINE
  5
4C92
330
4C6D
100
AcDbEntity
  8
SP
370
    -2
100
AcDbLine
 10
11587.55558752167
 20
5275.34150146671
 30
0.0
 11
11162.55558752167
 21
5275.34150146671
 31
0.0
  0
INSERT
  5
4C93
330
4C6D
100
AcDbEntity
  8
SP
370
    -2
100
AcDbBlockReference
  2
_OPEN
 10
11625.05558752167
 20
5275.34150146671
 30
0.0
 41
37.5
 42
37.5
 43
37.5
  0
INSERT
  5
4C94
330
4C6D
100
AcDbEntity
  8
SP
370
    -2
100
AcDbBlockReference
  2
_OPEN
 10
11125.05558752167
 20
5275.34150146671
 30
0.0
 41
37.5
 42
37.5
 43
37.5
 50
180.0
  0
MTEXT
  5
4C95
330
4C6D
100
AcDbEntity
  8
SP
100
AcDbMText
 10
11375.05558752167
 20
5312.84150146671
 30
0.0
 40
45.0
 41
0.0
 71
     5
 72
     1
  1
\A1;500
 73
     1
 44
1.0
1001
ACAD
1000
MTEXTBEGIN
1070
    73
1070
     1
1070
    44
1040
1.0
1070
    74
1070
     0
1000
MTEXTEND
  0
POINT
  5
4C96
330
4C6D
100
AcDbEntity
  8
Defpoints
 62
     0
100
AcDbPoint
 10
11625.05558752167
 20
5422.362935220169
 30
0.0
  0
POINT
  5
4C97
330
4C6D
100
AcDbEntity
  8
Defpoints
 62
     0
100
AcDbPoint
 10
11125.05558752167
 20
5422.362935220169
 30
0.0
  0
POINT
  5
4C98
330
4C6D
100
AcDbEntity
  8
Defpoints
 62
     0
100
AcDbPoint
 10
11125.05558752167
 20
5275.34150146671
 30
0.0
  0
ENDBLK
  5
4C78
330
4C6D
100
AcDbEntity
  8
0
100
AcDbBlockEnd
  0
BLOCK
  5
4C83
330
4C79
100
AcDbEntity
  8
0
100
AcDbBlockBegin
  2
*D16
 70
     1
 10
0.0
 20
0.0
 30
0.0
  3
*D16
  1

  0
LINE
  5
4C99
330
4C79
100
AcDbEntity
  8
SP
370
    -2
100
AcDbLine
 10
11110.05558752167
 20
5732.362935220167
 30
0.0
 11
10936.18288508549
 21
5732.362935220167
 31
0.0
  0
LINE
  5
4C9A
330
4C79
100
AcDbEntity
  8
SP
370
    -2
100
AcDbLine
 10
11110.05558752167
 20
5422.362935220169
 30
0.0
 11
10936.18288508549
 21
5422.362935220169
 31
0.0
  0
LINE
  5
4C9B
330
4C79
100
AcDbEntity
  8
SP
370
    -2
100
AcDbLine
 10
10951.18288508549
 20
5694.862935220167
 30
0.0
 11
10951.18288508549
 21
5459.862935220169
 31
0.0
  0
INSERT
  5
4C9C
330
4C79
100
AcDbEntity
  8
SP
370
    -2
100
AcDbBlockReference
  2
_OPEN
 10
10951.18288508549
 20
5732.362935220167
 30
0.0
 41
37.5
 42
37.5
 43
37.5
 50
90.0
  0
INSERT
  5
4C9D
330
4C79
100
AcDbEntity
  8
SP
370
    -2
100
AcDbBlockReference
  2
_OPEN
 10
10951.18288508549
 20
5422.362935220169
 30
0.0
 41
37.5
 42
37.5
 43
37.5
 50
270.0
  0
MTEXT
  5
4C9E
330
4C79
100
AcDbEntity
  8
SP
100
AcDbMText
 10
10913.68288508549
 20
5577.362935220169
 30
0.0
 40
45.0
 41
0.0
 71
     5
 72
     1
  1
\A1;310
 11
0.0000000000000001
 21
1.0
 31
0.0
 73
     1
 44
1.0
1001
ACAD
1000
MTEXTBEGIN
1070
    73
1070
     1
1070
    44
1040
1.0
1070
    74
1070
     0
1000
MTEXTEND
  0
POINT
  5
4C9F
330
4C79
100
AcDbEntity
  8
Defpoints
 62
     0
100
AcDbPoint
 10
11125.05558752167
 20
5732.362935220167
 30
0.0
  0
POINT
  5
4CA0
330
4C79
100
AcDbEntity
  8
Defpoints
 62
     0
100
AcDbPoint
 10
11125.05558752167
 20
5422.362935220169
 30
0.0
  0
POINT
  5
4CA1
330
4C79
100
AcDbEntity
  8
Defpoints
 62
     0
100
AcDbPoint
 10
10951.18288508549
 20
5422.362935220169
 30
0.0
  0
ENDBLK
  5
4C84
330
4C79
100
AcDbEntity
  8
0
100
AcDbBlockEnd
  0
BLOCK
  5
5730
330
5726
100
AcDbEntity
  8
0
100
AcDbBlockBegin
  2
*D17
 70
     1
 10
0.0
 20
0.0
 30
0.0
  3
*D17
  1

  0
LINE
  5
574A
330
5726
100
AcDbEntity
  8
SP
370
    -2
100
AcDbLine
 10
11375.05558752168
 20
4102.479113442418
 30
0.0
 11
11375.05558752168
 21
4027.635294509081
 31
0.0
  0
LINE
  5
574B
330
5726
100
AcDbEntity
  8
SP
370
    -2
100
AcDbLine
 10
11125.05558752169
 20
4132.635294509079
 30
0.0
 11
11125.05558752169
 21
4027.635294509081
 31
0.0
  0
LINE
  5
574C
330
5726
100
AcDbEntity
  8
SP
370
    -2
100
AcDbLine
 10
11337.55558752168
 20
4042.635294509081
 30
0.0
 11
11162.55558752169
 21
4042.635294509081
 31
0.0
  0
INSERT
  5
574D
330
5726
100
AcDbEntity
  8
SP
370
    -2
100
AcDbBlockReference
  2
_OPEN
 10
11375.05558752168
 20
4042.635294509081
 30
0.0
 41
37.5
 42
37.5
 43
37.5
  0
INSERT
  5
574E
330
5726
100
AcDbEntity
  8
SP
370
    -2
100
AcDbBlockReference
  2
_OPEN
 10
11125.05558752169
 20
4042.635294509081
 30
0.0
 41
37.5
 42
37.5
 43
37.5
 50
180.0
  0
MTEXT
  5
574F
330
5726
100
AcDbEntity
  8
SP
100
AcDbMText
 10
11250.05558752169
 20
4080.135294509081
 30
0.0
 40
45.0
 41
0.0
 71
     5
 72
     1
  1
\A1;250
 73
     1
 44
1.0
1001
ACAD
1000
MTEXTBEGIN
1070
    73
1070
     1
1070
    44
1040
1.0
1070
    74
1070
     0
1000
MTEXTEND
  0
POINT
  5
5750
330
5726
100
AcDbEntity
  8
Defpoints
 62
     0
100
AcDbPoint
 10
11375.05558752168
 20
4117.479113442419
 30
0.0
  0
POINT
  5
5751
330
5726
100
AcDbEntity
  8
Defpoints
 62
     0
100
AcDbPoint
 10
11125.05558752169
 20
4147.635294509079
 30
0.0
  0
POINT
  5
5752
330
5726
100
AcDbEntity
  8
Defpoints
 62
     0
100
AcDbPoint
 10
11125.05558752169
 20
4042.635294509081
 30
0.0
  0
ENDBLK
  5
5731
330
5726
100
AcDbEntity
  8
0
100
AcDbBlockEnd
  0
BLOCK
  5
573C
330
5732
100
AcDbEntity
  8
0
100
AcDbBlockBegin
  2
*D18
 70
     1
 10
0.0
 20
0.0
 30
0.0
  3
*D18
  1

  0
LINE
  5
5753
330
5732
100
AcDbEntity
  8
SP
370
    -2
100
AcDbLine
 10
11125.05558752169
 20
4132.635294509079
 30
0.0
 11
11125.05558752169
 21
3922.63529450908
 31
0.0
  0
LINE
  5
5754
330
5732
100
AcDbEntity
  8
SP
370
    -2
100
AcDbLine
 10
11625.05558752169
 20
4132.635294509079
 30
0.0
 11
11625.05558752169
 21
3922.63529450908
 31
0.0
  0
LINE
  5
5755
330
5732
100
AcDbEntity
  8
SP
370
    -2
100
AcDbLine
 10
11162.55558752169
 20
3937.63529450908
 30
0.0
 11
11587.55558752169
 21
3937.63529450908
 31
0.0
  0
INSERT
  5
5756
330
5732
100
AcDbEntity
  8
SP
370
    -2
100
AcDbBlockReference
  2
_OPEN
 10
11125.05558752169
 20
3937.63529450908
 30
0.0
 41
37.5
 42
37.5
 43
37.5
 50
180.0
  0
INSERT
  5
5757
330
5732
100
AcDbEntity
  8
SP
370
    -2
100
AcDbBlockReference
  2
_OPEN
 10
11625.05558752169
 20
3937.63529450908
 30
0.0
 41
37.5
 42
37.5
 43
37.5
  0
MTEXT
  5
5758
330
5732
100
AcDbEntity
  8
SP
100
AcDbMText
 10
11375.05558752169
 20
3975.13529450908
 30
0.0
 40
45.0
 41
0.0
 71
     5
 72
     1
  1
\A1;500
 73
     1
 44
1.0
1001
ACAD
1000
MTEXTBEGIN
1070
    73
1070
     1
1070
    44
1040
1.0
1070
    74
1070
     0
1000
MTEXTEND
  0
POINT
  5
5759
330
5732
100
AcDbEntity
  8
Defpoints
 62
     0
100
AcDbPoint
 10
11125.05558752169
 20
4147.635294509079
 30
0.0
  0
POINT
  5
575A
330
5732
100
AcDbEntity
  8
Defpoints
 62
     0
100
AcDbPoint
 10
11625.05558752169
 20
4147.635294509079
 30
0.0
  0
POINT
  5
575B
330
5732
100
AcDbEntity
  8
Defpoints
 62
     0
100
AcDbPoint
 10
11625.05558752169
 20
3937.63529450908
 30
0.0
  0
ENDBLK
  5
573D
330
5732
100
AcDbEntity
  8
0
100
AcDbBlockEnd
  0
BLOCK
  5
5748
330
573E
100
AcDbEntity
  8
0
100
AcDbBlockBegin
  2
*D19
 70
     1
 10
0.0
 20
0.0
 30
0.0
  3
*D19
  1

  0
LINE
  5
575C
330
573E
100
AcDbEntity
  8
SP
370
    -2
100
AcDbLine
 10
11375.05558752168
 20
4102.479113442418
 30
0.0
 11
11375.05558752168
 21
4027.635294509081
 31
0.0
  0
LINE
  5
575D
330
573E
100
AcDbEntity
  8
SP
370
    -2
100
AcDbLine
 10
11625.05558752169
 20
4132.635294509079
 30
0.0
 11
11625.05558752169
 21
4027.635294509081
 31
0.0
  0
LINE
  5
575E
330
573E
100
AcDbEntity
  8
SP
370
    -2
100
AcDbLine
 10
11412.55558752168
 20
4042.635294509081
 30
0.0
 11
11587.55558752169
 21
4042.635294509081
 31
0.0
  0
INSERT
  5
575F
330
573E
100
AcDbEntity
  8
SP
370
    -2
100
AcDbBlockReference
  2
_OPEN
 10
11375.05558752168
 20
4042.635294509081
 30
0.0
 41
37.5
 42
37.5
 43
37.5
 50
180.0
  0
INSERT
  5
5760
330
573E
100
AcDbEntity
  8
SP
370
    -2
100
AcDbBlockReference
  2
_OPEN
 10
11625.05558752169
 20
4042.635294509081
 30
0.0
 41
37.5
 42
37.5
 43
37.5
  0
MTEXT
  5
5761
330
573E
100
AcDbEntity
  8
SP
100
AcDbMText
 10
11500.05558752168
 20
4080.135294509081
 30
0.0
 40
45.0
 41
0.0
 71
     5
 72
     1
  1
\A1;250
 73
     1
 44
1.0
1001
ACAD
1000
MTEXTBEGIN
1070
    73
1070
     1
1070
    44
1040
1.0
1070
    74
1070
     0
1000
MTEXTEND
  0
POINT
  5
5762
330
573E
100
AcDbEntity
  8
Defpoints
 62
     0
100
AcDbPoint
 10
11375.05558752168
 20
4117.479113442419
 30
0.0
  0
POINT
  5
5763
330
573E
100
AcDbEntity
  8
Defpoints
 62
     0
100
AcDbPoint
 10
11625.05558752169
 20
4147.635294509079
 30
0.0
  0
POINT
  5
5764
330
573E
100
AcDbEntity
  8
Defpoints
 62
     0
100
AcDbPoint
 10
11625.05558752169
 20
4042.635294509081
 30
0.0
  0
ENDBLK
  5
5749
330
573E
100
AcDbEntity
  8
0
100
AcDbBlockEnd
  0
BLOCK
  5
5B53
330
5B52
100
AcDbEntity
  8
0
100
AcDbBlockBegin
  2
*D26
 70
     1
 10
0.0
 20
0.0
 30
0.0
  3
*D26
  1

  0
LINE
  5
5B94
330
5B52
100
AcDbEntity
  8
SP
370
    -2
100
AcDbLine
 10
12685.45460744111
 20
5008.635294509075
 30
0.0
 11
12685.45460744111
 21
5053.635294509074
 31
0.0
  0
LINE
  5
5B95
330
5B52
100
AcDbEntity
  8
SP
370
    -2
100
AcDbLine
 10
12264.45460744111
 20
4601.21619450908
 30
0.0
 11
12264.45460744111
 21
5053.635294509074
 31
0.0
  0
LINE
  5
5B96
330
5B52
100
AcDbEntity
  8
SP
370
    -2
100
AcDbLine
 10
12647.95460744111
 20
5038.635294509075
 30
0.0
 11
12301.95460744111
 21
5038.635294509075
 31
0.0
  0
INSERT
  5
5B97
330
5B52
100
AcDbEntity
  8
SP
370
    -2
100
AcDbBlockReference
  2
_OPEN
 10
12685.45460744111
 20
5038.635294509075
 30
0.0
 41
37.5
 42
37.5
 43
37.5
  0
INSERT
  5
5B98
330
5B52
100
AcDbEntity
  8
SP
370
    -2
100
AcDbBlockReference
  2
_OPEN
 10
12264.45460744111
 20
5038.635294509075
 30
0.0
 41
37.5
 42
37.5
 43
37.5
 50
180.0
  0
MTEXT
  5
5B99
330
5B52
100
AcDbEntity
  8
SP
100
AcDbMText
 10
12474.95460744111
 20
5087.92100879479
 30
0.0
 40
45.0
 41
0.0
 71
     5
 72
     1
  1
\A1;(420)
 73
     1
 44
1.0
1001
ACAD
1000
MTEXTBEGIN
1070
    73
1070
     1
1070
    44
1040
1.0
1070
    74
1070
     0
1000
MTEXTEND
  0
POINT
  5
5B9A
330
5B52
100
AcDbEntity
  8
Defpoints
 62
     0
100
AcDbPoint
 10
12685.45460744111
 20
4993.635294509075
 30
0.0
  0
POINT
  5
5B9B
330
5B52
100
AcDbEntity
  8
Defpoints
 62
     0
100
AcDbPoint
 10
12264.45460744111
 20
4586.21619450908
 30
0.0
  0
POINT
  5
5B9C
330
5B52
100
AcDbEntity
  8
Defpoints
 62
     0
100
AcDbPoint
 10
12264.45460744111
 20
5038.635294509075
 30
0.0
  0
ENDBLK
  5
5B54
330
5B52
100
AcDbEntity
  8
0
100
AcDbBlockEnd
  0
BLOCK
  5
5B60
330
5B5F
100
AcDbEntity
  8
0
100
AcDbBlockBegin
  2
*D27
 70
     1
 10
0.0
 20
0.0
 30
0.0
  3
*D27
  1

  0
LINE
  5
5B7E
330
5B5F
100
AcDbEntity
  8
SP
370
    -2
100
AcDbLine
 10
12563.45460744111
 20
4135.83529450908
 30
0.0
 11
12563.45460744111
 21
4027.635294509081
 31
0.0
  0
LINE
  5
5B7F
330
5B5F
100
AcDbEntity
  8
SP
370
    -2
100
AcDbLine
 10
12685.45460744111
 20
4198.196782543491
 30
0.0
 11
12685.45460744111
 21
4027.635294509081
 31
0.0
  0
LINE
  5
5B80
330
5B5F
100
AcDbEntity
  8
SP
370
    -2
100
AcDbLine
 10
12525.95460744111
 20
4042.63529450908
 30
0.0
 11
12488.45460744111
 21
4042.63529450908
 31
0.0
  0
LINE
  5
5B81
330
5B5F
100
AcDbEntity
  8
SP
370
    -2
100
AcDbLine
 10
12722.95460744111
 20
4042.63529450908
 30
0.0
 11
12760.45460744111
 21
4042.63529450908
 31
0.0
  0
MTEXT
  5
5B82
330
5B5F
100
AcDbEntity
  8
SP
100
AcDbMText
 10
12792.0036164659
 20
4077.443934017048
 30
0.0
 40
45.0
 41
0.0
 71
     5
 72
     1
  1
\A1;122
 73
     1
 44
1.0
1001
ACAD
1000
MTEXTBEGIN
1070
    73
1070
     1
1070
    44
1040
1.0
1070
    74
1070
     0
1000
MTEXTEND
  0
LINE
  5
5B83
330
5B5F
100
AcDbEntity
  8
SP
370
    -2
100
AcDbLine
 10
12563.45460744111
 20
4042.63529450908
 30
0.0
 11
12685.45460744111
 21
4042.63529450908
 31
0.0
  0
INSERT
  5
5B84
330
5B5F
100
AcDbEntity
  8
SP
370
    -2
100
AcDbBlockReference
  2
_OPEN
 10
12563.45460744111
 20
4042.63529450908
 30
0.0
 41
37.5
 42
37.5
 43
37.5
  0
INSERT
  5
5B85
330
5B5F
100
AcDbEntity
  8
SP
370
    -2
100
AcDbBlockReference
  2
_OPEN
 10
12685.45460744111
 20
4042.63529450908
 30
0.0
 41
37.5
 42
37.5
 43
37.5
 50
180.0
  0
POINT
  5
5B86
330
5B5F
100
AcDbEntity
  8
Defpoints
 62
     0
100
AcDbPoint
 10
12563.45460744111
 20
4150.83529450908
 30
0.0
  0
POINT
  5
5B87
330
5B5F
100
AcDbEntity
  8
Defpoints
 62
     0
100
AcDbPoint
 10
12685.45460744111
 20
4213.196782543491
 30
0.0
  0
POINT
  5
5B88
330
5B5F
100
AcDbEntity
  8
Defpoints
 62
     0
100
AcDbPoint
 10
12685.45460744111
 20
4042.63529450908
 30
0.0
  0
ENDBLK
  5
5B61
330
5B5F
100
AcDbEntity
  8
0
100
AcDbBlockEnd
  0
ENDSEC
  0
SECTION
  2
ENTITIES
  0
LINE
  5
28A4
330
19
100
AcDbEntity
  8
4
100
AcDbLine
 10
13495.59771503509
 20
7247.809791742034
 30
0.0
 11
13495.59771503509
 21
2822.809791742034
 31
0.0
  0
LINE
  5
28A5
330
19
100
AcDbEntity
  8
4
100
AcDbLine
 10
10345.59771503509
 20
2822.809791742034
 30
0.0
 11
10345.59771503509
 21
7247.809791742034
 31
0.0
  0
LINE
  5
28A8
330
19
100
AcDbEntity
  8
4
100
AcDbLine
 10
11020.59771503509
 20
3272.809791742034
 30
0.0
 11
12820.59771503509
 21
3272.809791742034
 31
0.0
  0
LINE
  5
28A9
330
19
100
AcDbEntity
  8
4
100
AcDbLine
 10
11020.59771503509
 20
3422.809791742034
 30
0.0
 11
12820.59771503509
 21
3422.809791742034
 31
0.0
  0
LINE
  5
28AA
330
19
100
AcDbEntity
  8
4
100
AcDbLine
 10
11020.59771503509
 20
3572.809791742034
 30
0.0
 11
12820.59771503509
 21
3572.809791742034
 31
0.0
  0
LINE
  5
28AB
330
19
100
AcDbEntity
  8
4
100
AcDbLine
 10
13495.59771503509
 20
2822.809791742034
 30
0.0
 11
10345.59771503509
 21
2822.809791742034
 31
0.0
  0
TEXT
  5
28AC
330
19
100
AcDbEntity
  8
4
100
AcDbText
 10
11812.11583326659
 20
3456.667445178387
 30
0.0
 40
75.0
  1
ミツヤ多翼送風機
100
AcDbText
  0
TEXT
  5
28AF
330
19
100
AcDbEntity
  8
4
100
AcDbText
 10
11078.35083630544
 20
3470.124330541953
 30
0.0
 40
75.0
  1
機器名称
100
AcDbText
  0
TEXT
  5
28B0
330
19
100
AcDbEntity
  8
4
100
AcDbText
 10
11074.98487407229
 20
3305.27752684005
 30
0.0
 40
75.0
  1
機器型番
100
AcDbText
  0
LINE
  5
28B2
330
19
100
AcDbEntity
  8
4
100
AcDbLine
 10
11020.59771503509
 20
3572.809791742034
 30
0.0
 11
11020.59771503509
 21
3272.809791742034
 31
0.0
  0
TEXT
  5
28B3
330
19
100
AcDbEntity
  8
4
100
AcDbText
 10
11825.57945841331
 20
3298.549168161949
 30
0.0
 40
75.0
  1
MF＃2-7
100
AcDbText
  0
LINE
  5
28B4
330
19
100
AcDbEntity
  8
4
100
AcDbLine
 10
11770.59771503509
 20
3572.809791742034
 30
0.0
 11
11770.59771503509
 21
3272.809791742034
 31
0.0
  0
LINE
  5
28B5
330
19
100
AcDbEntity
  8
4
100
AcDbLine
 10
12820.59771503509
 20
3572.809791742034
 30
0.0
 11
12820.59771503509
 21
3272.809791742034
 31
0.0
  0
TEXT
  5
28BD
330
19
100
AcDbEntity
  8
4
100
AcDbText
 10
11077.69207095238
 20
6623.63125604098
 30
0.0
 40
108.0
  1
遠心式片吸込直動形多翼ファン
100
AcDbText
  0
LINE
  5
28BE
330
19
100
AcDbEntity
  8
4
100
AcDbLine
 10
10720.59771503509
 20
6526.922923139242
 30
0.0
 11
13120.59771503509
 21
6526.922923139242
 31
0.0
  0
LINE
  5
28BF
330
19
100
AcDbEntity
  8
4
100
AcDbLine
 10
10720.59771503509
 20
6826.922923139242
 30
0.0
 11
13120.59771503509
 21
6826.922923139242
 31
0.0
  0
LINE
  5
28C0
330
19
100
AcDbEntity
  8
4
100
AcDbLine
 10
10345.59771503509
 20
7247.809791742034
 30
0.0
 11
13495.59771503509
 21
7247.809791742034
 31
0.0
  0
TEXT
  5
2934
330
19
100
AcDbEntity
  8
4
100
AcDbText
 10
10818.48108722505
 20
6396.289008061549
 30
0.0
 40
80.99999999999999
  1
左回転左横向
100
AcDbText
  0
LINE
  5
297A
330
19
100
AcDbEntity
  8
4
100
AcDbLine
 10
10720.59771503509
 20
6826.922923139242
 30
0.0
 11
10720.59771503509
 21
6526.922923139242
 31
0.0
  0
TEXT
  5
2A02
330
19
100
AcDbEntity
  8
4
100
AcDbText
 10
11610.15955435588
 20
6397.953053740807
 30
0.0
 40
80.99999999999999
  1
床置ベッド型
100
AcDbText
  0
TEXT
  5
2A3E
330
19
100
AcDbEntity
  8
4
100
AcDbText
 10
12399.98763246513
 20
6397.953053740807
 30
0.0
 40
80.99999999999999
  1
縮尺：1/15
100
AcDbText
  0
LINE
  5
2A3F
330
19
100
AcDbEntity
  8
4
100
AcDbLine
 10
12506.52384857489
 20
7002.788184066663
 30
0.0
 11
13120.59771503509
 21
7002.788184066663
 31
0.0
  0
LINE
  5
2A40
330
19
100
AcDbEntity
  8
4
100
AcDbLine
 10
13120.59771503509
 20
6844.705166430135
 30
0.0
 11
12506.52384857489
 21
6844.705166430135
 31
0.0
  0
TEXT
  5
2A41
330
19
100
AcDbEntity
  8
4
100
AcDbText
 10
12549.05205390903
 20
6881.901413984997
 30
0.0
 40
84.00000000000002
  1
No.
100
AcDbText
  0
LINE
  5
2A42
330
19
100
AcDbEntity
  8
4
100
AcDbLine
 10
12506.52384857489
 20
6844.705166430135
 30
0.0
 11
12506.52384857489
 21
7002.788184066663
 31
0.0
  0
LINE
  5
2A43
330
19
100
AcDbEntity
  8
4
100
AcDbLine
 10
13120.59771503509
 20
6826.922923139242
 30
0.0
 11
13120.59771503509
 21
6526.922923139242
 31
0.0
  0
LINE
  5
2A44
330
19
100
AcDbEntity
  8
4
100
AcDbLine
 10
13120.59771503509
 20
7002.788184066663
 30
0.0
 11
13120.59771503509
 21
6844.705166430135
 31
0.0
  0
LINE
  5
2A45
330
19
100
AcDbEntity
  8
4
100
AcDbLine
 10
13495.59771503509
 20
7247.809791742034
 30
0.0
 11
13495.59771503509
 21
7247.809791742034
 31
0.0
  0
DIMENSION
  5
4268
330
19
100
AcDbEntity
  8
SP
100
AcDbDimension
  2
*D4
 10
11020.05558752166
 20
4817.635294509075
 30
0.0
 11
10982.55558752166
 21
4660.135294509079
 31
0.0
 70
    32
 71
     5
 42
314.9999999999963
  3
GOD
100
AcDbAlignedDimension
 13
11085.75356201801
 23
4502.635294509079
 33
0.0
 14
11125.05558752166
 24
4817.635294509075
 34
0.0
 50
90.0
100
AcDbRotatedDimension
  0
LWPOLYLINE
  5
4269
330
19
100
AcDbEntity
  8
1
100
AcDbPolyline
 90
        3
 70
     0
 43
0.0
 10
11145.05558752166
 20
4827.635294509076
 10
11349.56776426035
 20
4827.635294509081
 42
-0.2269714708976296
 10
11585.76630725709
 20
4713.88911239325
  0
LWPOLYLINE
  5
426A
330
19
100
AcDbEntity
  8
1
100
AcDbPolyline
 90
        3
 70
     0
 43
0.0
 10
11125.05558752166
 20
4817.635294509075
 10
11349.55558752166
 20
4817.635294509081
 42
-0.2269607506063405
 10
11577.96311804552
 20
4707.63529450908
 42
-0.129402372482195
  0
DIMENSION
  5
426B
330
19
100
AcDbEntity
  8
SP
100
AcDbDimension
  2
*D7
 10
11639.2868691555
 20
4933.635294509075
 30
0.0
 11
11507.17122833858
 21
4971.135294509075
 31
0.0
 70
    32
 71
     5
 42
264.2312816338344
  3
GOD
100
AcDbAlignedDimension
 13
11375.05558752167
 23
4874.1712074726
 33
0.0
 14
11639.2868691555
 24
4529.305717321466
 34
0.0
 50
180.0
100
AcDbRotatedDimension
1001
ACAD
1000
DSTYLE
1002
{
1070
   271
1070
     0
1002
}
  0
LWPOLYLINE
  5
426C
330
19
100
AcDbEntity
  8
FUTO
100
AcDbPolyline
 90
        4
 70
     0
 43
0.0
 10
11125.05558752167
 20
4481.135294509074
 10
11125.05558752166
 20
4839.135294509075
 10
11126.25558752166
 20
4839.135294509076
 10
11126.25558752167
 20
4481.135294509075
  0
LINE
  5
426D
330
19
100
AcDbEntity
  8
1
100
AcDbLine
 10
11145.05558752167
 20
4800.235294509073
 30
0.0
 11
11145.05558752167
 21
4519.035294509074
 31
0.0
  0
LINE
  5
426E
330
19
100
AcDbEntity
  8
2
100
AcDbLine
 10
11375.05558752167
 20
4117.47911344242
 30
0.0
 11
11375.05558752167
 21
4874.1712074726
 31
0.0
  0
DIMENSION
  5
4271
330
19
100
AcDbEntity
  8
SP
100
AcDbDimension
  2
*D5
 10
11020.05558752167
 20
4502.635294509079
 30
0.0
 11
10982.55558752167
 21
4325.135294509081
 31
0.0
 70
    32
 71
     5
 42
355.0
  3
GOD
100
AcDbAlignedDimension
 13
11125.05558752166
 23
4147.635294509079
 33
0.0
 14
11085.75356201801
 24
4502.635294509079
 34
0.0
 50
90.0
100
AcDbRotatedDimension
  0
LWPOLYLINE
  5
427F
330
19
100
AcDbEntity
  8
1
100
AcDbPolyline
 90
        3
 70
     0
 43
0.0
 10
11585.84816491458
 20
4713.785581971685
 42
-0.2162335382726867
 10
11643.92307733135
 20
4472.834457361106
 42
-0.1298839697351506
 10
11587.63804329436
 20
4356.865798998637
 42
-0.1298839697351506
  0
LWPOLYLINE
  5
4280
330
19
100
AcDbEntity
  8
1
100
AcDbPolyline
 90
        2
 70
     0
 43
0.0
 10
11149.54468051823
 20
4489.971030895083
 42
-0.0934525219043797
 10
11170.05558752167
 20
4470.080879216673
 42
-0.1987366729981355
  0
LWPOLYLINE
  5
4281
330
19
100
AcDbEntity
  8
1
100
AcDbPolyline
 90
        2
 70
     0
 43
0.0
 10
11170.05558752167
 20
4485.780202855504
 42
-0.1315967463597435
 10
11191.68312727857
 20
4446.240864501064
 42
-0.2200089805681688
  0
ARC
  5
4282
330
19
100
AcDbEntity
  8
1
100
AcDbCircle
 10
11375.05558752167
 20
4502.635294509079
 30
0.0
 40
100.8
100
AcDbArc
 50
180.0
 51
254.2028999999989
  0
ARC
  5
4283
330
19
100
AcDbEntity
  8
1
100
AcDbCircle
 10
11375.05558752167
 20
4502.635294509079
 30
0.0
 40
100.8
100
AcDbArc
 50
285.4276999999997
 51
180.0
  0
LWPOLYLINE
  5
4284
330
19
100
AcDbEntity
  8
1
100
AcDbPolyline
 90
        3
 70
     0
 43
0.0
 10
11577.96311804552
 20
4707.63529450908
 42
-0.2162148363065116
 10
11634.10579879831
 20
4474.737477701027
 42
-0.1298622998199493
 10
11580.05558752168
 20
4363.385489517006
 42
-0.3153658436290411
  0
CIRCLE
  5
4285
330
19
100
AcDbEntity
  8
CT
100
AcDbCircle
 10
11375.05558752167
 20
4502.635294509079
 30
0.0
 40
169.0
  0
LWPOLYLINE
  5
4286
330
19
100
AcDbEntity
  8
1
100
AcDbPolyline
 90
        3
 70
     0
 43
0.0
 10
11491.73400162146
 20
4288.345039019524
 42
-0.1343314877425494
 10
11358.73745852792
 20
4273.392007682882
 42
-0.3163064660587118
 10
11181.85766740373
 20
4444.380670203899
 42
-0.3163064660587118
  0
LINE
  5
4287
330
19
100
AcDbEntity
  8
1
100
AcDbLine
 10
11347.43788752168
 20
4405.635294509079
 30
0.0
 11
11402.32498752167
 21
4405.635294509079
 31
0.0
  0
LWPOLYLINE
  5
428A
330
19
100
AcDbEntity
  8
1
100
AcDbPolyline
 90
        3
 70
     0
 43
0.0
 10
11488.0338458222
 20
4297.635294509079
 42
-0.1343280102757561
 10
11360.28556224138
 20
4283.271450299873
 42
-0.3163019945347412
 10
11191.67840097925
 20
4446.265661460807
 42
-0.3153658436290411
  0
LWPOLYLINE
  5
428B
330
19
100
AcDbEntity
  8
1
100
AcDbPolyline
 90
        2
 70
     0
 43
0.0
 10
11587.59657112823
 20
4356.817874558315
 42
-0.1174780416237576
 10
11491.80344657222
 20
4288.372999427113
 42
-0.1174780416237576
  0
LINE
  5
428C
330
19
100
AcDbEntity
  8
CT
100
AcDbLine
 10
11420.99596802736
 20
4331.18346034277
 30
0.0
 11
11416.8865322423
 21
4346.520083483038
 31
0.0
  0
LWPOLYLINE
  5
428E
330
19
100
AcDbEntity
  8
1
100
AcDbPolyline
 90
        2
 70
     0
 43
0.0
 10
11580.05558752167
 20
4363.385489517007
 42
-0.1174780416237573
 10
11488.0338458222
 20
4297.63529450908
 42
-0.3153658436290411
  0
CIRCLE
  5
4290
330
19
100
AcDbEntity
  8
1
100
AcDbCircle
 10
11418.79600614398
 20
4339.393829866227
 30
0.0
 40
4.0
  0
LINE
  5
4291
330
19
100
AcDbEntity
  8
CT
100
AcDbLine
 10
11455.05558752167
 20
4416.015794509078
 30
0.0
 11
11455.05558752167
 21
4398.668694509079
 31
0.0
  0
LINE
  5
4292
330
19
100
AcDbEntity
  8
1
100
AcDbLine
 10
11435.25808752168
 20
4421.746494509078
 30
0.0
 11
11441.49058752168
 21
4415.513994509079
 31
0.0
  0
ARC
  5
4293
330
19
100
AcDbEntity
  8
1
100
AcDbCircle
 10
11443.61198752168
 20
4417.635294509079
 30
0.0
 40
3.0
100
AcDbArc
 50
225.0
 51
270.0
  0
LINE
  5
4294
330
19
100
AcDbEntity
  8
1
100
AcDbLine
 10
11428.50598752167
 20
4417.184994509079
 30
0.0
 11
11435.05558752167
 21
4410.63529450908
 31
0.0
  0
ARC
  5
4295
330
19
100
AcDbEntity
  8
1
100
AcDbCircle
 10
11437.05558752167
 20
4412.635294509079
 30
0.0
 40
2.0
100
AcDbArc
 50
89.99999999999998
 51
180.0
  0
LINE
  5
4296
330
19
100
AcDbEntity
  8
1
100
AcDbLine
 10
11435.05558752167
 20
4402.635294509079
 30
0.0
 11
11435.05558752167
 21
4412.635294509079
 31
0.0
  0
LINE
  5
4297
330
19
100
AcDbEntity
  8
1
100
AcDbLine
 10
11449.05558752167
 20
4402.635294509079
 30
0.0
 11
11449.05558752167
 21
4414.635294509079
 31
0.0
  0
LINE
  5
4298
330
19
100
AcDbEntity
  8
1
100
AcDbLine
 10
11461.05558752167
 20
4414.635294509079
 30
0.0
 11
11461.05558752167
 21
4402.635294509079
 31
0.0
  0
ARC
  5
4299
330
19
100
AcDbEntity
  8
1
100
AcDbCircle
 10
11473.05558752167
 20
4412.635294509079
 30
0.0
 40
2.0
100
AcDbArc
 50
0.0
 51
89.99999999999998
  0
LINE
  5
429A
330
19
100
AcDbEntity
  8
1
100
AcDbLine
 10
11475.05558752167
 20
4402.635294509079
 30
0.0
 11
11475.05558752167
 21
4412.635294509079
 31
0.0
  0
LINE
  5
429B
330
19
100
AcDbEntity
  8
1
100
AcDbLine
 10
11474.16338752167
 20
4414.303394509079
 30
0.0
 11
11457.76258752167
 21
4444.965394509079
 31
0.0
  0
LINE
  5
429C
330
19
100
AcDbEntity
  8
1
100
AcDbLine
 10
11475.05558752167
 20
4402.635294509079
 30
0.0
 11
11435.05558752167
 21
4402.635294509079
 31
0.0
  0
LINE
  5
429D
330
19
100
AcDbEntity
  8
1
100
AcDbLine
 10
11473.05558752167
 20
4414.635294509079
 30
0.0
 11
11437.05558752167
 21
4414.635294509079
 31
0.0
  0
LINE
  5
429E
330
19
100
AcDbEntity
  8
CT
100
AcDbLine
 10
11500.56704118227
 20
4377.123840848462
 30
0.0
 11
11489.33985382706
 21
4388.351028203675
 31
0.0
  0
CIRCLE
  5
429F
330
19
100
AcDbEntity
  8
1
100
AcDbCircle
 10
11494.55663354219
 20
4383.134248488548
 30
0.0
 40
4.0
  0
LINE
  5
42A0
330
19
100
AcDbEntity
  8
CT
100
AcDbLine
 10
11546.50742168797
 20
4456.694914003374
 30
0.0
 11
11531.1707985477
 21
4460.80434978843
 31
0.0
  0
CIRCLE
  5
42A1
330
19
100
AcDbEntity
  8
1
100
AcDbCircle
 10
11538.29705216451
 20
4458.894875886747
 30
0.0
 40
4.0
  0
LINE
  5
42A4
330
19
100
AcDbEntity
  8
CT
100
AcDbLine
 10
11329.11520701596
 20
4331.183460342773
 30
0.0
 11
11333.22464280102
 21
4346.52008348304
 31
0.0
  0
LINE
  5
42A7
330
19
100
AcDbEntity
  8
CT
100
AcDbLine
 10
11203.60375335536
 20
4456.694914003389
 30
0.0
 11
11218.94037649562
 21
4460.804349788445
 31
0.0
  0
CIRCLE
  5
42A8
330
19
100
AcDbEntity
  8
1
100
AcDbCircle
 10
11211.81412287882
 20
4458.894875886762
 30
0.0
 40
4.0
  0
LINE
  5
42A9
330
19
100
AcDbEntity
  8
CT
100
AcDbLine
 10
11249.54413386105
 20
4377.123840848474
 30
0.0
 11
11260.77132121626
 21
4388.351028203685
 31
0.0
  0
CIRCLE
  5
42AA
330
19
100
AcDbEntity
  8
1
100
AcDbCircle
 10
11255.55454150113
 20
4383.134248488558
 30
0.0
 40
4.0
  0
LINE
  5
42AB
330
19
100
AcDbEntity
  8
CT
100
AcDbLine
 10
11295.05558752167
 20
4416.015794509078
 30
0.0
 11
11295.05558752167
 21
4398.668694509079
 31
0.0
  0
ARC
  5
42AC
330
19
100
AcDbEntity
  8
1
100
AcDbCircle
 10
11277.05558752167
 20
4412.635294509079
 30
0.0
 40
2.0
100
AcDbArc
 50
89.99999999999998
 51
180.0
  0
LINE
  5
42AD
330
19
100
AcDbEntity
  8
1
100
AcDbLine
 10
11289.05558752167
 20
4414.635294509079
 30
0.0
 11
11289.05558752167
 21
4402.635294509079
 31
0.0
  0
LINE
  5
42AE
330
19
100
AcDbEntity
  8
1
100
AcDbLine
 10
11275.05558752167
 20
4402.635294509079
 30
0.0
 11
11275.05558752167
 21
4412.635294509079
 31
0.0
  0
LINE
  5
42AF
330
19
100
AcDbEntity
  8
1
100
AcDbLine
 10
11301.05558752167
 20
4402.635294509079
 30
0.0
 11
11301.05558752167
 21
4414.635294509079
 31
0.0
  0
LINE
  5
42B0
330
19
100
AcDbEntity
  8
1
100
AcDbLine
 10
11276.14638752167
 20
4414.674794509079
 30
0.0
 11
11292.26508752168
 21
4444.809094509079
 31
0.0
  0
LINE
  5
42B1
330
19
100
AcDbEntity
  8
1
100
AcDbLine
 10
11321.30898752167
 20
4416.88879450908
 30
0.0
 11
11315.05558752167
 21
4410.63529450908
 31
0.0
  0
ARC
  5
42B2
330
19
100
AcDbEntity
  8
1
100
AcDbCircle
 10
11313.05558752167
 20
4412.635294509079
 30
0.0
 40
2.0
100
AcDbArc
 50
0.0
 51
89.99999999999998
  0
LINE
  5
42B3
330
19
100
AcDbEntity
  8
1
100
AcDbLine
 10
11315.05558752167
 20
4402.635294509079
 30
0.0
 11
11315.05558752167
 21
4412.635294509079
 31
0.0
  0
LINE
  5
42B4
330
19
100
AcDbEntity
  8
1
100
AcDbLine
 10
11314.47348752167
 20
4421.366994509078
 30
0.0
 11
11308.62058752167
 21
4415.513994509079
 31
0.0
  0
ARC
  5
42B5
330
19
100
AcDbEntity
  8
1
100
AcDbCircle
 10
11306.49918752167
 20
4417.635294509079
 30
0.0
 40
3.0
100
AcDbArc
 50
270.0
 51
315.0
  0
CIRCLE
  5
42B6
330
19
100
AcDbEntity
  8
1
100
AcDbCircle
 10
11331.31516889933
 20
4339.393829866231
 30
0.0
 40
4.0
  0
LINE
  5
42B7
330
19
100
AcDbEntity
  8
1
100
AcDbLine
 10
11275.05558752167
 20
4402.635294509079
 30
0.0
 11
11315.05558752167
 21
4402.635294509079
 31
0.0
  0
LINE
  5
42B8
330
19
100
AcDbEntity
  8
1
100
AcDbLine
 10
11277.05558752167
 20
4414.635294509079
 30
0.0
 11
11313.05558752167
 21
4414.635294509079
 31
0.0
  0
LWPOLYLINE
  5
42BA
330
19
100
AcDbEntity
  8
1
100
AcDbPolyline
 90
        2
 70
     0
 43
0.0
 10
11170.05558752167
 20
4470.080879216673
 42
-0.0941668855597806
 10
11181.96699183002
 20
4443.875127418171
 42
-0.1987366729981355
  0
LINE
  5
42BC
330
19
100
AcDbEntity
  8
2
100
AcDbLine
 10
11679.99909736924
 20
4502.635294509079
 30
0.0
 11
11085.75356201801
 21
4502.635294509079
 31
0.0
  0
LINE
  5
42BE
330
19
100
AcDbEntity
  8
CT
100
AcDbLine
 10
11546.50742168798
 20
4548.575675014769
 30
0.0
 11
11531.17079854771
 21
4544.466239229713
 31
0.0
  0
CIRCLE
  5
42BF
330
19
100
AcDbEntity
  8
1
100
AcDbCircle
 10
11538.29705216452
 20
4546.375713131396
 30
0.0
 40
4.0
  0
LINE
  5
42C0
330
19
100
AcDbEntity
  8
CT
100
AcDbLine
 10
11420.99596802737
 20
4674.087128675384
 30
0.0
 11
11416.88653224232
 21
4658.750505535118
 31
0.0
  0
CIRCLE
  5
42C1
330
19
100
AcDbEntity
  8
1
100
AcDbCircle
 10
11418.796006144
 20
4665.876759151927
 30
0.0
 40
4.0
  0
LINE
  5
42C2
330
19
100
AcDbEntity
  8
CT
100
AcDbLine
 10
11500.56704118229
 20
4628.146748169684
 30
0.0
 11
11489.33985382707
 21
4616.919560814472
 31
0.0
  0
CIRCLE
  5
42C3
330
19
100
AcDbEntity
  8
1
100
AcDbCircle
 10
11494.5566335422
 20
4622.136340529598
 30
0.0
 40
4.0
  0
POINT
  5
42C4
330
19
100
AcDbEntity
  8
1
100
AcDbPoint
 10
11532.55558752167
 20
4752.63529450909
 30
0.0
  0
POINT
  5
42C5
330
19
100
AcDbEntity
  8
1
100
AcDbPoint
 10
11532.55558752167
 20
4752.63529450909
 30
0.0
  0
LINE
  5
42C7
330
19
100
AcDbEntity
  8
CT
100
AcDbLine
 10
11203.60375335536
 20
4548.575675014784
 30
0.0
 11
11218.94037649563
 21
4544.46623922973
 31
0.0
  0
CIRCLE
  5
42C8
330
19
100
AcDbEntity
  8
1
100
AcDbCircle
 10
11211.81412287882
 20
4546.375713131413
 30
0.0
 40
4.0
  0
LWPOLYLINE
  5
42C9
330
19
100
AcDbEntity
  8
FUTO
100
AcDbPolyline
 90
        2
 70
     0
 43
0.0
 10
11125.05558752167
 20
4481.135294509074
 10
11126.25558752167
 20
4481.135294509074
  0
LWPOLYLINE
  5
42CA
330
19
100
AcDbEntity
  8
CT
100
AcDbPolyline
 90
        2
 70
     0
 43
0.0
 10
11119.99242430668
 20
4491.135294509074
 10
11132.26073459062
 20
4491.135294509075
  0
ARC
  5
42CB
330
19
100
AcDbEntity
  8
1
100
AcDbCircle
 10
11130.05558752167
 20
4502.635294509075
 30
0.0
 40
1.0
100
AcDbArc
 50
126.8698976458049
 51
270.0
  0
POINT
  5
42CC
330
19
100
AcDbEntity
  8
1
100
AcDbPoint
 10
11125.05558752167
 20
4502.635294509075
 30
0.0
  0
LINE
  5
42CD
330
19
100
AcDbEntity
  8
1
100
AcDbLine
 10
11145.05558752167
 20
4501.635294509069
 30
0.0
 11
11145.05558752167
 21
4498.315484382238
 31
0.0
  0
LINE
  5
42CE
330
19
100
AcDbEntity
  8
1
100
AcDbLine
 10
11125.05558752167
 20
4501.635294509076
 30
0.0
 11
11146.05558752167
 21
4501.635294509076
 31
0.0
  0
LINE
  5
42CF
330
19
100
AcDbEntity
  8
1
100
AcDbLine
 10
11129.35558752167
 20
4503.335294509072
 30
0.0
 11
11145.05558752167
 21
4519.035294509072
 31
0.0
  0
LWPOLYLINE
  5
42D0
330
19
100
AcDbEntity
  8
1
100
AcDbPolyline
 90
        3
 70
     0
 43
0.0
 10
11146.05558752167
 20
4501.635294509076
 42
-0.101266720201501
 10
11151.55499800843
 20
4500.509939525467
 42
-0.0681921917069782
 10
11170.05558752167
 20
4485.780202855504
 42
-0.2200089805681688
  0
ARC
  5
42D1
330
19
100
AcDbEntity
  8
1
100
AcDbCircle
 10
11155.05558752167
 20
4498.315484382245
 30
0.0
 40
10.0
100
AcDbArc
 50
180.0
 51
236.5581282105191
  0
LINE
  5
42D2
330
19
100
AcDbEntity
  8
CT
100
AcDbLine
 10
11249.54413386106
 20
4628.146748169696
 30
0.0
 11
11260.77132121627
 21
4616.919560814483
 31
0.0
  0
CIRCLE
  5
42D3
330
19
100
AcDbEntity
  8
1
100
AcDbCircle
 10
11255.55454150115
 20
4622.13634052961
 30
0.0
 40
4.0
  0
LINE
  5
42D4
330
19
100
AcDbEntity
  8
CT
100
AcDbLine
 10
11329.11520701598
 20
4674.087128675389
 30
0.0
 11
11333.22464280103
 21
4658.750505535122
 31
0.0
  0
CIRCLE
  5
42D5
330
19
100
AcDbEntity
  8
1
100
AcDbCircle
 10
11331.31516889935
 20
4665.876759151932
 30
0.0
 40
4.0
  0
DIMENSION
  5
42D6
330
19
100
AcDbEntity
  8
SP
100
AcDbDimension
  2
*D6
 10
11125.05558752166
 20
4933.635294509075
 30
0.0
 11
11250.05558752167
 21
4971.135294509075
 31
0.0
 70
    32
 71
     5
 42
250.0000000000055
  3
GOD
100
AcDbAlignedDimension
 13
11375.05558752167
 23
4874.1712074726
 33
0.0
 14
11125.05558752166
 24
4838.635294509075
 34
0.0
 50
180.0
100
AcDbRotatedDimension
  0
LINE
  5
42D7
330
19
100
AcDbEntity
  8
FUTO
100
AcDbLine
 10
11145.05558752166
 20
4827.635294509076
 30
0.0
 11
11145.05558752166
 21
4817.635294509077
 31
0.0
  0
ARC
  5
42D8
330
19
100
AcDbEntity
  8
1
100
AcDbCircle
 10
11130.05558752166
 20
4816.635294509076
 30
0.0
 40
1.0
100
AcDbArc
 50
89.99999999999998
 51
233.130102354195
  0
LINE
  5
42D9
330
19
100
AcDbEntity
  8
1
100
AcDbLine
 10
11129.35558752166
 20
4815.935294509075
 30
0.0
 11
11145.05558752167
 21
4800.235294509074
 31
0.0
  0
LWPOLYLINE
  5
42DA
330
19
100
AcDbEntity
  8
CT
100
AcDbPolyline
 90
        2
 70
     0
 43
0.0
 10
11119.99242430667
 20
4829.135294509075
 10
11132.26073459061
 20
4829.135294509075
  0
LINE
  5
457D
330
19
100
AcDbEntity
  8
1
100
AcDbLine
 10
12552.45460744111
 20
4686.119985259151
 30
0.0
 11
12552.45460744111
 21
4814.135294509075
 31
0.0
  0
LINE
  5
457E
330
19
100
AcDbEntity
  8
1
100
AcDbLine
 10
12818.45460744111
 20
4506.135294509074
 30
0.0
 11
12818.45460744111
 21
4814.135294509075
 31
0.0
  0
DIMENSION
  5
4580
330
19
100
AcDbEntity
  8
SP
100
AcDbDimension
  2
*D11
 10
12806.45460744111
 20
5038.635294509075
 30
0.0
 11
12745.95460744111
 21
5076.135294509075
 31
0.0
 70
    32
 71
     5
 42
121.0
  3
GOD
100
AcDbAlignedDimension
 13
12685.45460744111
 23
4993.635294509075
 33
0.0
 14
12806.45460744111
 24
4684.135294509078
 34
0.0
100
AcDbRotatedDimension
  0
LINE
  5
4587
330
19
100
AcDbEntity
  8
2
100
AcDbLine
 10
12685.45460744111
 20
4920.955005841836
 30
0.0
 11
12685.45460744111
 21
4213.196782543491
 31
0.0
1001
ACAD
1000
ASC_BOUNDS
1002
{
1070
    19
1005
0
1005
0
1002
}
  0
DIMENSION
  5
4588
330
19
100
AcDbEntity
  8
SP
100
AcDbDimension
  2
*D9
 10
12253.45460744111
 20
4042.63529450908
 30
0.0
 11
12408.45460744111
 21
4080.13529450908
 31
0.0
 70
    32
 71
     5
 42
310.0
  3
GOD
100
AcDbAlignedDimension
 13
12563.45460744111
 23
4150.83529450908
 33
0.0
 14
12253.45460744111
 24
4147.63529450908
 34
0.0
100
AcDbRotatedDimension
  0
LINE
  5
4589
330
19
100
AcDbEntity
  8
FUTO
100
AcDbLine
 10
12253.45460744111
 20
4150.83529450908
 30
0.0
 11
12560.25460744111
 21
4150.83529450908
 31
0.0
  0
LINE
  5
458A
330
19
100
AcDbEntity
  8
1
100
AcDbLine
 10
12253.45460744111
 20
4147.63529450908
 30
0.0
 11
12603.45460744111
 21
4147.63529450908
 31
0.0
  0
LINE
  5
458B
330
19
100
AcDbEntity
  8
2
100
AcDbLine
 10
12836.46659157682
 20
4502.635294509079
 30
0.0
 11
12223.06648687453
 21
4502.635294509079
 31
0.0
  0
LINE
  5
458D
330
19
100
AcDbEntity
  8
1
100
AcDbLine
 10
12437.45460744111
 20
4602.635294509079
 30
0.0
 11
12474.84968921264
 21
4602.635294509079
 31
0.0
  0
LINE
  5
458E
330
19
100
AcDbEntity
  8
FUTO
100
AcDbLine
 10
12383.25460744111
 20
4502.635294509079
 30
0.0
 11
12253.45460744111
 21
4150.83529450908
 31
0.0
  0
LINE
  5
458F
330
19
100
AcDbEntity
  8
FUTO
100
AcDbLine
 10
12253.45460744111
 20
4147.63529450908
 30
0.0
 11
12253.45460744111
 21
4150.83529450908
 31
0.0
  0
LINE
  5
4590
330
19
100
AcDbEntity
  8
1
100
AcDbLine
 10
12314.45460744111
 20
4406.635294509078
 30
0.0
 11
12314.45460744111
 21
4601.935294509081
 31
0.0
  0
LINE
  5
4591
330
19
100
AcDbEntity
  8
1
100
AcDbLine
 10
12354.45460744111
 20
4603.43529450908
 30
0.0
 11
12354.45460744111
 21
4452.635294509079
 31
0.0
  0
LINE
  5
4592
330
19
100
AcDbEntity
  8
1
100
AcDbLine
 10
12264.45460744111
 20
4419.08239450908
 30
0.0
 11
12264.45460744111
 21
4586.21619450908
 31
0.0
  0
LINE
  5
4593
330
19
100
AcDbEntity
  8
FUTO
100
AcDbLine
 10
12312.93149041714
 20
4311.773623687131
 30
0.0
 11
12265.33366662168
 21
4399.146787701621
 31
0.0
  0
LINE
  5
4594
330
19
100
AcDbEntity
  8
1
100
AcDbLine
 10
12314.45460744111
 20
4406.635294509078
 30
0.0
 11
12265.86790744111
 21
4417.324394509079
 31
0.0
  0
LINE
  5
4595
330
19
100
AcDbEntity
  8
FUTO
100
AcDbLine
 10
12257.25460744111
 20
4401.546787701619
 30
0.0
 11
12346.00847591881
 21
4401.546787701619
 31
0.0
  0
LINE
  5
4596
330
19
100
AcDbEntity
  8
FUTO
100
AcDbLine
 10
12257.25460744111
 20
4399.146787701621
 30
0.0
 11
12345.12419422867
 21
4399.146787701617
 31
0.0
  0
LINE
  5
4597
330
19
100
AcDbEntity
  8
FUTO
100
AcDbLine
 10
12252.45460744111
 20
4373.946787701622
 30
0.0
 11
12252.45460744111
 21
4396.74678770162
 31
0.0
  0
LINE
  5
4598
330
19
100
AcDbEntity
  8
FUTO
100
AcDbLine
 10
12254.85460744111
 20
4373.946787701622
 30
0.0
 11
12254.85460744111
 21
4396.74678770162
 31
0.0
  0
ARC
  5
4599
330
19
100
AcDbEntity
  8
FUTO
100
AcDbCircle
 10
12257.25460744111
 20
4396.74678770162
 30
0.0
 40
4.8
100
AcDbArc
 50
89.99999999999998
 51
180.0
  0
ARC
  5
459A
330
19
100
AcDbEntity
  8
FUTO
100
AcDbCircle
 10
12257.25460744111
 20
4396.74678770162
 30
0.0
 40
2.4
100
AcDbArc
 50
89.99999999999998
 51
180.0
  0
LINE
  5
459B
330
19
100
AcDbEntity
  8
FUTO
100
AcDbLine
 10
12252.45460744111
 20
4373.946787701622
 30
0.0
 11
12254.85460744111
 21
4373.946787701622
 31
0.0
  0
ARC
  5
459C
330
19
100
AcDbEntity
  8
1
100
AcDbCircle
 10
12266.25440744111
 20
4419.08219450908
 30
0.0
 40
1.7998
100
AcDbArc
 50
179.9961000000213
 51
257.5983000000071
  0
LINE
  5
459D
330
19
100
AcDbEntity
  8
1
100
AcDbLine
 10
12340.45460744111
 20
4405.635294509079
 30
0.0
 11
12340.45460744111
 21
4443.635294509079
 31
0.0
  0
ARC
  5
459E
330
19
100
AcDbEntity
  8
1
100
AcDbCircle
 10
12315.45470744111
 20
4406.635294509078
 30
0.0
 40
1.000099999999999
100
AcDbArc
 50
180.0
 51
269.9965000000103
  0
LINE
  5
459F
330
19
100
AcDbEntity
  8
1
100
AcDbLine
 10
12340.45460744111
 20
4405.635294509079
 30
0.0
 11
12315.45460744111
 21
4405.635294509079
 31
0.0
  0
LINE
  5
45A0
330
19
100
AcDbEntity
  8
1
100
AcDbLine
 10
12340.35510744111
 20
4417.635294509079
 30
0.0
 11
12351.93629758196
 21
4417.635294509079
 31
0.0
  0
LINE
  5
45A1
330
19
100
AcDbEntity
  8
1
100
AcDbLine
 10
12340.45460744111
 20
4443.635294509079
 30
0.0
 11
12354.45460744111
 21
4452.635294509079
 31
0.0
  0
LINE
  5
45A2
330
19
100
AcDbEntity
  8
1
100
AcDbLine
 10
12314.45460744111
 20
4599.635294509079
 30
0.0
 11
12265.83450744111
 21
4587.96649450908
 31
0.0
  0
ARC
  5
45A3
330
19
100
AcDbEntity
  8
1
100
AcDbCircle
 10
12266.25450744111
 20
4586.216294509079
 30
0.0
 40
1.7999
100
AcDbArc
 50
103.4933999999954
 51
180.0018999999831
  0
LINE
  5
45A4
330
19
100
AcDbEntity
  8
1
100
AcDbLine
 10
12354.28630744111
 20
4589.07599450908
 30
0.0
 11
12362.11490744111
 21
4602.635294509079
 31
0.0
  0
ARC
  5
45A5
330
19
100
AcDbEntity
  8
1
100
AcDbCircle
 10
12315.95460744111
 20
4601.935294509081
 30
0.0
 40
1.5
100
AcDbArc
 50
89.99999999999998
 51
180.0
  0
LINE
  5
45A6
330
19
100
AcDbEntity
  8
1
100
AcDbLine
 10
12354.45460744111
 20
4603.43529450908
 30
0.0
 11
12315.95460744111
 21
4603.43529450908
 31
0.0
  0
LINE
  5
45A7
330
19
100
AcDbEntity
  8
1
100
AcDbLine
 10
12437.45460744111
 20
4602.635294509079
 30
0.0
 11
12362.11490744111
 21
4602.635294509079
 31
0.0
  0
LWPOLYLINE
  5
45A8
330
19
100
AcDbEntity
  8
1
100
AcDbPolyline
 90
        3
 70
     0
 43
0.0
 10
12563.45460744111
 20
4697.953405346614
 10
12563.45460744111
 20
4502.635294509079
 10
12563.45460744111
 20
4147.63529450908
  0
LWPOLYLINE
  5
45AA
330
19
100
AcDbEntity
  8
1
100
AcDbPolyline
 90
        2
 70
     0
 43
0.0
 10
12560.25460744111
 20
4694.510955866624
 10
12560.25460744111
 20
4147.63529450908
  0
LWPOLYLINE
  5
45AB
330
19
100
AcDbEntity
  8
1
100
AcDbPolyline
 90
        2
 70
     0
 43
0.0
 10
12603.45460744111
 20
4150.83529450908
 10
12603.45460744111
 20
4147.635294509079
  0
LINE
  5
45AC
330
19
100
AcDbEntity
  8
1
100
AcDbLine
 10
12563.45460744111
 20
4150.83529450908
 30
0.0
 11
12603.45460744111
 21
4150.83529450908
 31
0.0
  0
DIMENSION
  5
45AE
330
19
100
AcDbEntity
  8
SP
100
AcDbDimension
  2
*D13
 10
12922.66919595289
 20
4345.135294509081
 30
0.0
 11
12885.16919595289
 21
4502.635294509076
 31
0.0
 70
    32
 71
     5
 42
315.0
  3
GOD
100
AcDbAlignedDimension
 13
12806.45460744111
 23
4660.135294509079
 33
0.0
 14
12806.45460744111
 24
4345.13529450908
 34
0.0
 50
90.0
100
AcDbRotatedDimension
1001
ACAD
1000
DSTYLE
1002
{
1070
     3
1000
\U+03C6<>
1002
}
  0
LINE
  5
45AF
330
19
100
AcDbEntity
  8
1
100
AcDbLine
 10
12573.45460744111
 20
4802.635294509081
 30
0.0
 11
12573.45460744111
 21
4294.635294509077
 31
0.0
  0
LINE
  5
45B0
330
19
100
AcDbEntity
  8
1
100
AcDbLine
 10
12797.4546074411
 20
4802.635294509081
 30
0.0
 11
12797.45460744111
 21
4294.635294509078
 31
0.0
  0
LINE
  5
45B2
330
19
100
AcDbEntity
  8
1
100
AcDbLine
 10
12588.45460744111
 20
4279.635294509077
 30
0.0
 11
12782.45460744111
 21
4279.635294509079
 31
0.0
  0
ARC
  5
45B4
330
19
100
AcDbEntity
  8
1
100
AcDbCircle
 10
12565.45460744111
 20
4321.135294509079
 30
0.0
 40
1.0
100
AcDbArc
 50
180.0
 51
270.0
  0
LINE
  5
45B5
330
19
100
AcDbEntity
  8
1
100
AcDbLine
 10
12572.45460744111
 20
4320.135294509079
 30
0.0
 11
12565.45460744111
 21
4320.135294509079
 31
0.0
  0
LINE
  5
45C4
330
19
100
AcDbEntity
  8
1
100
AcDbLine
 10
12571.45460744111
 20
4685.13529450908
 30
0.0
 11
12565.45460744111
 21
4685.13529450908
 31
0.0
  0
ARC
  5
45C5
330
19
100
AcDbEntity
  8
1
100
AcDbCircle
 10
12571.45460744111
 20
4686.135294509078
 30
0.0
 40
1.0
100
AcDbArc
 50
270.0
 51
0.0
  0
ARC
  5
45C6
330
19
100
AcDbEntity
  8
1
100
AcDbCircle
 10
12565.45460744111
 20
4684.135294509078
 30
0.0
 40
1.0
100
AcDbArc
 50
89.99999999999998
 51
180.0
  0
DIMENSION
  5
45CE
330
19
100
AcDbEntity
  8
SP
100
AcDbDimension
  2
*D10
 10
12797.4546074411
 20
4933.635294509075
 30
0.0
 11
12685.4546074411
 21
4971.135294509075
 31
0.0
 70
    32
 71
     5
 42
223.9999999999927
  3
GOD
100
AcDbAlignedDimension
 13
12573.45460744111
 23
4802.635294509081
 33
0.0
 14
12797.4546074411
 24
4802.635294509081
 34
0.0
100
AcDbRotatedDimension
  0
LINE
  5
45CF
330
19
100
AcDbEntity
  8
FUTO
100
AcDbLine
 10
12577.45460744111
 20
4839.135294509075
 30
0.0
 11
12793.45460744111
 21
4839.135294509075
 31
0.0
  0
ARC
  5
45D1
330
19
100
AcDbEntity
  8
FUTO
100
AcDbCircle
 10
12577.45460744111
 20
4814.135294509075
 30
0.0
 40
25.0
100
AcDbArc
 50
90.0
 51
180.0
  0
ARC
  5
45D3
330
19
100
AcDbEntity
  8
FUTO
100
AcDbCircle
 10
12793.45460744111
 20
4814.135294509075
 30
0.0
 40
25.0
100
AcDbArc
 50
0.0
 51
90.00000000000104
  0
LINE
  5
4653
330
19
100
AcDbEntity
  8
FUTO
100
AcDbLine
 10
12588.45460744111
 20
4817.635294509081
 30
0.0
 11
12782.4546074411
 21
4817.635294509081
 31
0.0
  0
ARC
  5
4669
330
19
100
AcDbEntity
  8
FUTO
100
AcDbCircle
 10
12588.45460744111
 20
4802.635294509081
 30
0.0
 40
15.0
100
AcDbArc
 50
90.0
 51
180.0
  0
ARC
  5
466A
330
19
100
AcDbEntity
  8
FUTO
100
AcDbCircle
 10
12782.4546074411
 20
4802.635294509081
 30
0.0
 40
15.0
100
AcDbArc
 50
0.0000000000010178
 51
90.0
  0
ARC
  5
467D
330
19
100
AcDbEntity
  8
1
100
AcDbCircle
 10
12588.45460744111
 20
4294.635294509077
 30
0.0
 40
15.0
100
AcDbArc
 50
180.0000000000002
 51
270.0000000000002
  0
ARC
  5
467E
330
19
100
AcDbEntity
  8
1
100
AcDbCircle
 10
12782.45460744111
 20
4294.635294509078
 30
0.0
 40
15.0
100
AcDbArc
 50
270.0000000000003
 51
0.0000000000010178
  0
DIMENSION
  5
4BEF
330
19
100
AcDbEntity
  8
SP
100
AcDbDimension
  2
*D14
 10
10951.18288508549
 20
5854.362935220169
 30
0.0
 11
10913.68288508549
 21
5996.862935220171
 31
0.0
 70
    32
 71
     5
 42
122.0000000000018
  3
GOD
100
AcDbAlignedDimension
 13
11125.05558752167
 23
5732.362935220167
 33
0.0
 14
11077.43403925518
 24
5854.362935220169
 34
0.0
 50
90.0
100
AcDbRotatedDimension
  0
LINE
  5
4BF0
330
19
100
AcDbEntity
  8
1
100
AcDbLine
 10
11125.05558752167
 20
5987.362935220167
 30
0.0
 11
11125.05558752167
 21
5721.362935220168
 31
0.0
  0
LINE
  5
4BF1
330
19
100
AcDbEntity
  8
1
100
AcDbLine
 10
11145.05558752167
 20
5948.56293522017
 30
0.0
 11
11145.05558752167
 21
5760.162935220169
 31
0.0
  0
LINE
  5
4BF2
330
19
100
AcDbEntity
  8
1
100
AcDbLine
 10
11126.25558752166
 20
5987.362935220168
 30
0.0
 11
11126.25558752166
 21
5721.362935220168
 31
0.0
  0
LINE
  5
4BF3
330
19
100
AcDbEntity
  8
2
100
AcDbLine
 10
11375.05558752167
 20
5368.182908544904
 30
0.0
 11
11375.05558752167
 21
5995.364287666135
 31
0.0
  0
LINE
  5
4BF4
330
19
100
AcDbEntity
  8
1
100
AcDbLine
 10
11639.05558752167
 20
5952.362935220168
 30
0.0
 11
11639.05558752167
 21
5756.362935220169
 31
0.0
  0
DIMENSION
  5
4BF5
330
19
100
AcDbEntity
  8
SP
100
AcDbDimension
  2
*D15
 10
11125.05558752167
 20
5275.34150146671
 30
0.0
 11
11375.05558752167
 21
5312.84150146671
 31
0.0
 70
    32
 71
     5
 42
500.0
  3
GOD
100
AcDbAlignedDimension
 13
11625.05558752167
 23
5422.362935220169
 33
0.0
 14
11125.05558752167
 24
5422.362935220169
 34
0.0
 50
180.0
100
AcDbRotatedDimension
  0
LINE
  5
4BF7
330
19
100
AcDbEntity
  8
1
100
AcDbLine
 10
11125.05558752167
 20
5741.362935220169
 30
0.0
 11
11375.05558752167
 21
5741.362935220169
 31
0.0
  0
LWPOLYLINE
  5
4BF8
330
19
100
AcDbEntity
  8
1
100
AcDbPolyline
 90
        3
 70
     0
 43
0.0
 10
11193.55558752167
 20
5733.362935220169
 10
11375.05558752167
 20
5733.362935220169
 10
11395.38589030149
 20
5733.362935220169
  0
LINE
  5
4BF9
330
19
100
AcDbEntity
  8
2
100
AcDbLine
 10
11700.41871636757
 20
5854.362935220169
 30
0.0
 11
11077.43403925518
 21
5854.362935220169
 31
0.0
1001
ACAD
1000
ASC_BOUNDS
1002
{
1070
    19
1005
0
1005
0
1002
}
  0
DIMENSION
  5
4BFE
330
19
100
AcDbEntity
  8
SP
100
AcDbDimension
  2
*D16
 10
10951.18288508549
 20
5422.362935220169
 30
0.0
 11
10913.68288508549
 21
5577.362935220169
 31
0.0
 70
    32
 71
     5
 42
309.9999999999982
  3
GOD
100
AcDbAlignedDimension
 13
11125.05558752167
 23
5732.362935220167
 33
0.0
 14
11125.05558752167
 24
5422.362935220169
 34
0.0
 50
90.0
100
AcDbRotatedDimension
  0
LINE
  5
4C03
330
19
100
AcDbEntity
  8
1
100
AcDbLine
 10
11126.25558752166
 20
5741.362935220169
 30
0.0
 11
11145.05558752167
 21
5760.162935220169
 31
0.0
  0
LINE
  5
4C04
330
19
100
AcDbEntity
  8
1
100
AcDbLine
 10
11194.55558752167
 20
5734.362935220168
 30
0.0
 11
11222.2562891811
 21
5734.362935220168
 31
0.0
  0
ARC
  5
4C05
330
19
100
AcDbEntity
  8
1
100
AcDbCircle
 10
11195.40100733368
 20
5774.936788372067
 30
0.0
 40
48.65638419258441
100
AcDbArc
 50
303.5000336652645
 51
316.3683487231641
  0
LINE
  5
4C07
330
19
100
AcDbEntity
  8
1
100
AcDbLine
 10
11125.05558752167
 20
5721.362935220168
 30
0.0
 11
11126.25558752166
 21
5721.362935220168
 31
0.0
1001
ACAD
1000
ASC_BOUNDS
1002
{
1070
    19
1002
}
  0
ARC
  5
4C0B
330
19
100
AcDbEntity
  8
1
100
AcDbCircle
 10
11191.55558752167
 20
5740.362935220169
 30
0.0
 40
1.0
100
AcDbArc
 50
0.000000000000007
 51
90.0
  0
LINE
  5
4C0C
330
19
100
AcDbEntity
  8
1
100
AcDbLine
 10
11192.55558752167
 20
5740.362935220169
 30
0.0
 11
11192.55558752167
 21
5734.362935220168
 31
0.0
  0
LINE
  5
4C0D
330
19
100
AcDbEntity
  8
1
100
AcDbLine
 10
11193.55558752167
 20
5741.362935220169
 30
0.0
 11
11193.55558752167
 21
5735.362935220169
 31
0.0
  0
ARC
  5
4C0E
330
19
100
AcDbEntity
  8
1
100
AcDbCircle
 10
11193.55558752166
 20
5734.362935220168
 30
0.0
 40
1.0
100
AcDbArc
 50
180.0
 51
270.0
  0
ARC
  5
4C0F
330
19
100
AcDbEntity
  8
1
100
AcDbCircle
 10
11194.55558752167
 20
5735.362935220169
 30
0.0
 40
1.0
100
AcDbArc
 50
180.0
 51
270.0
  0
ARC
  5
4C10
330
19
100
AcDbEntity
  8
1
100
AcDbCircle
 10
11193.55558752167
 20
5734.362935220168
 30
0.0
 40
1.0
100
AcDbArc
 50
180.0
 51
270.0
  0
LINE
  5
4C11
330
19
100
AcDbEntity
  8
1
100
AcDbLine
 10
11475.05558752167
 20
5532.02323522017
 30
0.0
 11
11475.05558752167
 21
5682.702635220169
 31
0.0
  0
LINE
  5
4C12
330
19
100
AcDbEntity
  8
1
100
AcDbLine
 10
11275.05558752167
 20
5682.702635220169
 30
0.0
 11
11275.05558752167
 21
5532.02323522017
 31
0.0
  0
LINE
  5
4C16
330
19
100
AcDbEntity
  8
1
100
AcDbLine
 10
11472.05558752167
 20
5484.362935220168
 30
0.0
 11
11460.38678752167
 21
5435.742835220168
 31
0.0
  0
LINE
  5
4C18
330
19
100
AcDbEntity
  8
1
100
AcDbLine
 10
11278.05558752167
 20
5484.362935220168
 30
0.0
 11
11289.72438752167
 21
5435.742835220168
 31
0.0
  0
ARC
  5
4C19
330
19
100
AcDbEntity
  8
1
100
AcDbCircle
 10
11458.63658752167
 20
5436.162835220169
 30
0.0
 40
1.7999
100
AcDbArc
 50
269.9981000000006
 51
346.5066000000023
  0
ARC
  5
4C1A
330
19
100
AcDbEntity
  8
1
100
AcDbCircle
 10
11291.47458752167
 20
5436.162835220169
 30
0.0
 40
1.7999
100
AcDbArc
 50
193.4933999999977
 51
270.0018999999994
  0
LINE
  5
4C1B
330
19
100
AcDbEntity
  8
1
100
AcDbLine
 10
11291.50268752167
 20
5434.362935220168
 30
0.0
 11
11458.63648752167
 21
5434.362935220168
 31
0.0
  0
LINE
  5
4C1C
330
19
100
AcDbEntity
  8
1
100
AcDbLine
 10
11291.50268752167
 20
5434.362935220168
 30
0.0
 11
11458.63648752166
 21
5434.362935220168
 31
0.0
  0
LINE
  5
4C20
330
19
100
AcDbEntity
  8
1
100
AcDbLine
 10
11461.49628752167
 20
5524.194635220169
 30
0.0
 11
11475.05558752167
 21
5532.02323522017
 31
0.0
  0
LINE
  5
4C21
330
19
100
AcDbEntity
  8
1
100
AcDbLine
 10
11279.05558752167
 20
5484.362935220168
 30
0.0
 11
11474.35558752167
 21
5484.362935220168
 31
0.0
  0
LINE
  5
4C22
330
19
100
AcDbEntity
  8
1
100
AcDbLine
 10
11475.85558752167
 20
5524.362935220168
 30
0.0
 11
11274.25558752167
 21
5524.362935220168
 31
0.0
  0
LINE
  5
4C23
330
19
100
AcDbEntity
  8
1
100
AcDbLine
 10
11274.25558752167
 20
5524.362935220168
 30
0.0
 11
11274.25558752167
 21
5485.862935220168
 31
0.0
  0
ARC
  5
4C24
330
19
100
AcDbEntity
  8
1
100
AcDbCircle
 10
11275.75558752167
 20
5485.862935220168
 30
0.0
 40
1.5
100
AcDbArc
 50
180.0
 51
270.0
  0
LINE
  5
4C25
330
19
100
AcDbEntity
  8
1
100
AcDbLine
 10
11288.61488752167
 20
5524.194635220169
 30
0.0
 11
11275.05558752167
 21
5532.02323522017
 31
0.0
  0
LINE
  5
4C27
330
19
100
AcDbEntity
  8
1
100
AcDbLine
 10
11475.85558752167
 20
5524.362935220168
 30
0.0
 11
11475.85558752167
 21
5485.862935220168
 31
0.0
  0
ARC
  5
4C28
330
19
100
AcDbEntity
  8
1
100
AcDbCircle
 10
11474.35558752167
 20
5485.862935220168
 30
0.0
 40
1.5
100
AcDbArc
 50
270.0
 51
0.000000000000007
  0
ARC
  5
4C29
330
19
100
AcDbEntity
  8
1
100
AcDbCircle
 10
11624.05558752167
 20
5756.362935220169
 30
0.0
 40
15.0
100
AcDbArc
 50
270.0
 51
0.000000000000007
  0
LINE
  5
4C2A
330
19
100
AcDbEntity
  8
1
100
AcDbLine
 10
11475.05558752167
 20
5682.702635220169
 30
0.0
 11
11460.05558752167
 21
5691.362935220169
 31
0.0
  0
LWPOLYLINE
  5
4C2C
330
19
100
AcDbEntity
  8
1
100
AcDbPolyline
 90
        2
 70
     0
 43
0.0
 10
11395.38589030149
 20
5733.362935220169
 10
11556.55558752166
 20
5733.362935220169
  0
LINE
  5
4C2D
330
19
100
AcDbEntity
  8
1
100
AcDbLine
 10
11375.05558752167
 20
5741.362935220172
 30
0.0
 11
11624.05558752166
 21
5741.362935220169
 31
0.0
  0
LINE
  5
4C2E
330
19
100
AcDbEntity
  8
1
100
AcDbLine
 10
11460.05558752167
 20
5691.362935220169
 30
0.0
 11
11460.05558752167
 21
5709.090614653588
 31
0.0
  0
LINE
  5
4C2F
330
19
100
AcDbEntity
  8
1
100
AcDbLine
 10
11460.05558752167
 20
5694.362935220169
 30
0.0
 11
11460.05558752167
 21
5691.362935220169
 31
0.0
  0
ARC
  5
4C30
330
19
100
AcDbEntity
  8
1
100
AcDbCircle
 10
11457.05568752167
 20
5709.090614653588
 30
0.0
 40
2.999899999999999
100
AcDbArc
 50
359.9988000000029
 51
90.00120000000034
  0
LINE
  5
4C31
330
19
100
AcDbEntity
  8
1
100
AcDbLine
 10
11338.05558752167
 20
5718.090614653588
 30
0.0
 11
11412.05558752167
 21
5718.090614653588
 31
0.0
  0
ARC
  5
4C32
330
19
100
AcDbEntity
  8
1
100
AcDbCircle
 10
11412.05568752167
 20
5715.090614653588
 30
0.0
 40
2.999899999999999
100
AcDbArc
 50
359.9988000000029
 51
90.00120000000034
  0
LINE
  5
4C33
330
19
100
AcDbEntity
  8
1
100
AcDbLine
 10
11415.05558752167
 20
5712.090614653588
 30
0.0
 11
11415.05558752167
 21
5715.090614653588
 31
0.0
  0
LINE
  5
4C34
330
19
100
AcDbEntity
  8
1
100
AcDbLine
 10
11360.45568752167
 20
5718.090614653588
 30
0.0
 11
11360.45568752167
 21
5741.362935220169
 31
0.0
  0
LINE
  5
4C35
330
19
100
AcDbEntity
  8
1
100
AcDbLine
 10
11389.65558752167
 20
5718.090614653588
 30
0.0
 11
11389.65558752167
 21
5741.362935220172
 31
0.0
  0
LINE
  5
4C36
330
19
100
AcDbEntity
  8
1
100
AcDbLine
 10
11290.05558752167
 20
5691.362935220169
 30
0.0
 11
11290.05558752167
 21
5709.090614653588
 31
0.0
  0
LINE
  5
4C37
330
19
100
AcDbEntity
  8
1
100
AcDbLine
 10
11290.05558752167
 20
5694.362935220169
 30
0.0
 11
11290.05558752167
 21
5691.362935220169
 31
0.0
  0
LINE
  5
4C38
330
19
100
AcDbEntity
  8
1
100
AcDbLine
 10
11275.05558752167
 20
5682.702635220169
 30
0.0
 11
11290.05558752167
 21
5691.362935220169
 31
0.0
  0
ARC
  5
4C39
330
19
100
AcDbEntity
  8
1
100
AcDbCircle
 10
11293.05548752167
 20
5709.090614653588
 30
0.0
 40
2.999899999999999
100
AcDbArc
 50
89.99879999999967
 51
180.0011999999971
  0
LINE
  5
4C3A
330
19
100
AcDbEntity
  8
1
100
AcDbLine
 10
11335.05558752167
 20
5712.090614653588
 30
0.0
 11
11335.05558752167
 21
5715.090614653588
 31
0.0
  0
ARC
  5
4C3B
330
19
100
AcDbEntity
  8
1
100
AcDbCircle
 10
11338.05558752167
 20
5715.090614653588
 30
0.0
 40
2.999899999999999
100
AcDbArc
 50
89.99879999999967
 51
180.0011999999971
  0
LINE
  5
4C3C
330
19
100
AcDbEntity
  8
1
100
AcDbLine
 10
11290.05558752167
 20
5691.362935220169
 30
0.0
 11
11460.05558752167
 21
5691.362935220169
 31
0.0
  0
LINE
  5
4C3D
330
19
100
AcDbEntity
  8
1
100
AcDbLine
 10
11457.05558752167
 20
5712.090614653588
 30
0.0
 11
11293.05558752167
 21
5712.090614653588
 31
0.0
  0
ARC
  5
4C42
330
19
100
AcDbEntity
  8
1
100
AcDbCircle
 10
11554.71016770966
 20
5774.936788372067
 30
0.0
 40
48.65638419258441
100
AcDbArc
 50
223.6316512768358
 51
236.4999663347355
  0
ARC
  5
4C43
330
19
100
AcDbEntity
  8
1
100
AcDbCircle
 10
11555.55558752167
 20
5735.362935220169
 30
0.0
 40
1.0
100
AcDbArc
 50
270.0
 51
0.000000000000007
  0
ARC
  5
4C44
330
19
100
AcDbEntity
  8
1
100
AcDbCircle
 10
11556.55558752167
 20
5734.362935220168
 30
0.0
 40
1.0
100
AcDbArc
 50
270.0
 51
0.000000000000007
  0
LINE
  5
4C45
330
19
100
AcDbEntity
  8
1
100
AcDbLine
 10
11556.55558752167
 20
5741.362935220166
 30
0.0
 11
11556.55558752167
 21
5735.362935220167
 31
0.0
  0
LINE
  5
4C46
330
19
100
AcDbEntity
  8
1
100
AcDbLine
 10
11557.55558752167
 20
5740.362935220169
 30
0.0
 11
11557.55558752167
 21
5734.362935220167
 31
0.0
  0
ARC
  5
4C47
330
19
100
AcDbEntity
  8
1
100
AcDbCircle
 10
11558.55558752167
 20
5740.362935220169
 30
0.0
 40
1.0
100
AcDbArc
 50
90.0
 51
180.0
  0
LINE
  5
4C48
330
19
100
AcDbEntity
  8
1
100
AcDbLine
 10
11555.55558752167
 20
5734.362935220167
 30
0.0
 11
11527.85488586223
 21
5734.362935220168
 31
0.0
  0
LWPOLYLINE
  5
4C49
330
19
100
AcDbEntity
  8
1
100
AcDbPolyline
 90
        3
 70
     0
 43
0.0
 10
11193.55558752167
 20
5975.362935220169
 10
11375.05558752167
 20
5975.362935220169
 10
11395.38589030149
 20
5975.362935220169
  0
LINE
  5
4C4A
330
19
100
AcDbEntity
  8
1
100
AcDbLine
 10
11125.05558752167
 20
5967.362935220169
 30
0.0
 11
11375.05558752167
 21
5967.362935220169
 31
0.0
  0
LINE
  5
4C4B
330
19
100
AcDbEntity
  8
1
100
AcDbLine
 10
11194.55558752167
 20
5974.362935220169
 30
0.0
 11
11222.2562891811
 21
5974.362935220169
 31
0.0
  0
ARC
  5
4C4C
330
19
100
AcDbEntity
  8
1
100
AcDbCircle
 10
11195.40100733368
 20
5933.789082068271
 30
0.0
 40
48.65638419258441
100
AcDbArc
 50
43.63165127683589
 51
56.49996633473549
  0
ARC
  5
4C4D
330
19
100
AcDbEntity
  8
1
100
AcDbCircle
 10
11193.55558752167
 20
5974.362935220169
 30
0.0
 40
1.0
100
AcDbArc
 50
89.99999999999998
 51
180.0
  0
ARC
  5
4C4E
330
19
100
AcDbEntity
  8
1
100
AcDbCircle
 10
11194.55558752167
 20
5973.362935220169
 30
0.0
 40
1.0
100
AcDbArc
 50
89.99999999999998
 51
180.0
  0
ARC
  5
4C4F
330
19
100
AcDbEntity
  8
1
100
AcDbCircle
 10
11193.55558752166
 20
5974.362935220169
 30
0.0
 40
1.0
100
AcDbArc
 50
89.99999999999998
 51
180.0
  0
LINE
  5
4C50
330
19
100
AcDbEntity
  8
1
100
AcDbLine
 10
11193.55558752167
 20
5967.362935220169
 30
0.0
 11
11193.55558752167
 21
5973.362935220169
 31
0.0
  0
LINE
  5
4C51
330
19
100
AcDbEntity
  8
1
100
AcDbLine
 10
11192.55558752167
 20
5968.362935220169
 30
0.0
 11
11192.55558752167
 21
5974.362935220169
 31
0.0
  0
ARC
  5
4C52
330
19
100
AcDbEntity
  8
1
100
AcDbCircle
 10
11191.55558752167
 20
5968.362935220169
 30
0.0
 40
1.0
100
AcDbArc
 50
270.0
 51
0.000000000000007
  0
LINE
  5
4C53
330
19
100
AcDbEntity
  8
1
100
AcDbLine
 10
11125.05558752167
 20
5987.362935220168
 30
0.0
 11
11126.25558752166
 21
5987.362935220168
 31
0.0
1001
ACAD
1000
ASC_BOUNDS
1002
{
1070
    19
1002
}
  0
LINE
  5
4C54
330
19
100
AcDbEntity
  8
1
100
AcDbLine
 10
11126.25558752166
 20
5967.362935220169
 30
0.0
 11
11145.05558752167
 21
5948.56293522017
 31
0.0
  0
LWPOLYLINE
  5
4C55
330
19
100
AcDbEntity
  8
1
100
AcDbPolyline
 90
        2
 70
     0
 43
0.0
 10
11395.38589030149
 20
5975.362935220169
 10
11556.55558752166
 20
5975.362935220169
  0
LINE
  5
4C56
330
19
100
AcDbEntity
  8
1
100
AcDbLine
 10
11375.05558752167
 20
5967.362935220167
 30
0.0
 11
11624.05558752167
 21
5967.362935220169
 31
0.0
  0
LINE
  5
4C57
330
19
100
AcDbEntity
  8
1
100
AcDbLine
 10
11555.55558752167
 20
5974.36293522017
 30
0.0
 11
11527.85488586223
 21
5974.362935220169
 31
0.0
  0
ARC
  5
4C58
330
19
100
AcDbEntity
  8
1
100
AcDbCircle
 10
11558.55558752167
 20
5968.362935220169
 30
0.0
 40
1.0
100
AcDbArc
 50
180.0
 51
270.0
  0
LINE
  5
4C59
330
19
100
AcDbEntity
  8
1
100
AcDbLine
 10
11557.55558752167
 20
5968.362935220169
 30
0.0
 11
11557.55558752167
 21
5974.36293522017
 31
0.0
  0
LINE
  5
4C5A
330
19
100
AcDbEntity
  8
1
100
AcDbLine
 10
11556.55558752167
 20
5967.362935220171
 30
0.0
 11
11556.55558752167
 21
5973.362935220171
 31
0.0
  0
ARC
  5
4C5B
330
19
100
AcDbEntity
  8
1
100
AcDbCircle
 10
11556.55558752167
 20
5974.362935220169
 30
0.0
 40
1.0
100
AcDbArc
 50
0.000000000000007
 51
89.99999999999998
  0
ARC
  5
4C5C
330
19
100
AcDbEntity
  8
1
100
AcDbCircle
 10
11555.55558752167
 20
5973.362935220169
 30
0.0
 40
1.0
100
AcDbArc
 50
0.000000000000007
 51
89.99999999999998
  0
ARC
  5
4C5D
330
19
100
AcDbEntity
  8
1
100
AcDbCircle
 10
11554.71016770966
 20
5933.789082068271
 30
0.0
 40
48.65638419258441
100
AcDbArc
 50
123.5000336652645
 51
136.3683487231641
  0
ARC
  5
4C5E
330
19
100
AcDbEntity
  8
1
100
AcDbCircle
 10
11624.05558752167
 20
5952.362935220168
 30
0.0
 40
15.0
100
AcDbArc
 50
0.000000000000007
 51
90.0
  0
ARC
  5
4E35
330
19
100
AcDbEntity
  8
FUTO
100
AcDbCircle
 10
12793.45460744111
 20
4506.135294509076
 30
0.0
 40
25.0
100
AcDbArc
 50
301.3322514975947
 51
359.9999999999979
  0
LINE
  5
570C
330
19
100
AcDbEntity
  8
FUTO
100
AcDbLine
 10
11125.05558752169
 20
4147.635294509079
 30
0.0
 11
11625.05558752167
 21
4147.635294509079
 31
0.0
  0
LINE
  5
570D
330
19
100
AcDbEntity
  8
1
100
AcDbLine
 10
11125.05558752169
 20
4149.935294509078
 30
0.0
 11
11162.75558752169
 21
4149.935294509078
 31
0.0
  0
LINE
  5
570E
330
19
100
AcDbEntity
  8
1
100
AcDbLine
 10
11125.05558752169
 20
4149.935294509078
 30
0.0
 11
11125.05558752169
 21
4147.635294509079
 31
0.0
  0
LINE
  5
570F
330
19
100
AcDbEntity
  8
2
100
AcDbLine
 10
11143.05558752168
 20
4138.731282845245
 30
0.0
 11
11143.05558752168
 21
4161.139306172912
 31
0.0
  0
LINE
  5
5710
330
19
100
AcDbEntity
  8
1
100
AcDbLine
 10
11625.05558752167
 20
4149.935294509078
 30
0.0
 11
11587.35558752167
 21
4149.935294509078
 31
0.0
  0
LINE
  5
5711
330
19
100
AcDbEntity
  8
1
100
AcDbLine
 10
11625.05558752167
 20
4149.935294509078
 30
0.0
 11
11625.05558752167
 21
4147.635294509079
 31
0.0
  0
LINE
  5
5712
330
19
100
AcDbEntity
  8
2
100
AcDbLine
 10
11607.05558752168
 20
4138.731282845245
 30
0.0
 11
11607.05558752168
 21
4161.139306172912
 31
0.0
  0
LINE
  5
5713
330
19
100
AcDbEntity
  8
1
100
AcDbLine
 10
11587.35558752167
 20
4585.735294509079
 30
0.0
 11
11587.35558752167
 21
4149.935294509076
 31
0.0
  0
LINE
  5
5714
330
19
100
AcDbEntity
  8
1
100
AcDbLine
 10
11585.05558752167
 20
4587.557616667706
 30
0.0
 11
11585.05558752167
 21
4147.635294509079
 31
0.0
  0
LINE
  5
5715
330
19
100
AcDbEntity
  8
1
100
AcDbLine
 10
11545.05558752167
 20
4402.635294509079
 30
0.0
 11
11545.05558752167
 21
4202.635294509079
 31
0.0
  0
LINE
  5
5716
330
19
100
AcDbEntity
  8
1
100
AcDbLine
 10
11585.05558752167
 20
4202.635294509079
 30
0.0
 11
11545.05558752167
 21
4202.635294509079
 31
0.0
  0
LINE
  5
5717
330
19
100
AcDbEntity
  8
1
100
AcDbLine
 10
11165.05558752169
 20
4587.557616667706
 30
0.0
 11
11165.05558752169
 21
4147.635294509079
 31
0.0
  0
LINE
  5
5718
330
19
100
AcDbEntity
  8
1
100
AcDbLine
 10
11162.75558752169
 20
4585.735294509079
 30
0.0
 11
11162.75558752169
 21
4149.935294509076
 31
0.0
  0
LINE
  5
5719
330
19
100
AcDbEntity
  8
1
100
AcDbLine
 10
11205.05558752169
 20
4402.635294509079
 30
0.0
 11
11205.05558752169
 21
4202.635294509079
 31
0.0
  0
LINE
  5
571A
330
19
100
AcDbEntity
  8
1
100
AcDbLine
 10
11165.05558752169
 20
4202.635294509079
 30
0.0
 11
11205.05558752169
 21
4202.635294509079
 31
0.0
  0
LINE
  5
571B
330
19
100
AcDbEntity
  8
1
100
AcDbLine
 10
11165.05558752169
 20
4402.635294509079
 30
0.0
 11
11585.05558752167
 21
4402.635294509077
 31
0.0
  0
LINE
  5
571C
330
19
100
AcDbEntity
  8
1
100
AcDbLine
 10
11205.05558752169
 20
4362.635294509079
 30
0.0
 11
11375.05558752168
 21
4362.635294509079
 31
0.0
  0
LINE
  5
571D
330
19
100
AcDbEntity
  8
FUTO
100
AcDbLine
 10
11165.05558752169
 20
4402.635294509079
 30
0.0
 11
11205.05558752169
 21
4362.635294509079
 31
0.0
  0
LINE
  5
571E
330
19
100
AcDbEntity
  8
FUTO
100
AcDbLine
 10
11585.05558752167
 20
4402.635294509079
 30
0.0
 11
11545.05558752167
 21
4362.635294509079
 31
0.0
  0
LINE
  5
571F
330
19
100
AcDbEntity
  8
1
100
AcDbLine
 10
11545.05558752167
 20
4362.635294509079
 30
0.0
 11
11375.05558752168
 21
4362.635294509079
 31
0.0
  0
LINE
  5
5720
330
19
100
AcDbEntity
  8
1
100
AcDbLine
 10
11465.05558752167
 20
4707.63529450908
 30
0.0
 11
11587.35558752167
 21
4585.735294509079
 31
0.0
  0
LINE
  5
5721
330
19
100
AcDbEntity
  8
1
100
AcDbLine
 10
11285.05558752167
 20
4707.63529450908
 30
0.0
 11
11162.75558752169
 21
4585.735294509079
 31
0.0
  0
LINE
  5
5722
330
19
100
AcDbEntity
  8
1
100
AcDbLine
 10
11285.05558752167
 20
4707.63529450908
 30
0.0
 11
11465.05558752167
 21
4707.63529450908
 31
0.0
  0
DIMENSION
  5
5723
330
19
100
AcDbEntity
  8
SP
100
AcDbDimension
  2
*D17
 10
11125.05558752169
 20
4042.635294509081
 30
0.0
 11
11250.05558752169
 21
4080.135294509081
 31
0.0
 70
    32
 71
     5
 42
249.9999999999927
  3
GOD
100
AcDbAlignedDimension
 13
11375.05558752168
 23
4117.479113442419
 33
0.0
 14
11125.05558752169
 24
4147.635294509079
 34
0.0
100
AcDbRotatedDimension
  0
DIMENSION
  5
5724
330
19
100
AcDbEntity
  8
SP
100
AcDbDimension
  2
*D18
 10
11625.05558752169
 20
3937.63529450908
 30
0.0
 11
11375.05558752169
 21
3975.13529450908
 31
0.0
 70
    32
 71
     5
 42
500.0
  3
GOD
100
AcDbAlignedDimension
 13
11125.05558752169
 23
4147.635294509079
 33
0.0
 14
11625.05558752169
 24
4147.635294509079
 34
0.0
100
AcDbRotatedDimension
  0
DIMENSION
  5
5725
330
19
100
AcDbEntity
  8
SP
100
AcDbDimension
  2
*D19
 10
11625.05558752169
 20
4042.635294509081
 30
0.0
 11
11500.05558752168
 21
4080.135294509081
 31
0.0
 70
    32
 71
     5
 42
250.0000000000055
  3
GOD
100
AcDbAlignedDimension
 13
11375.05558752168
 23
4117.479113442419
 33
0.0
 14
11625.05558752169
 24
4147.635294509079
 34
0.0
100
AcDbRotatedDimension
  0
LINE
  5
5934
330
19
100
AcDbEntity
  8
1
100
AcDbLine
 10
11125.05558752167
 20
5422.362935220169
 30
0.0
 11
11125.05558752167
 21
5732.36293522018
 31
0.0
  0
LINE
  5
5935
330
19
100
AcDbEntity
  8
1
100
AcDbLine
 10
11165.05558752167
 20
5422.362935220169
 30
0.0
 11
11165.05558752167
 21
5732.36293522018
 31
0.0
  0
LINE
  5
5936
330
19
100
AcDbEntity
  8
1
100
AcDbLine
 10
11165.05558752167
 20
5732.36293522018
 30
0.0
 11
11125.05558752167
 21
5732.36293522018
 31
0.0
  0
LINE
  5
5937
330
19
100
AcDbEntity
  8
CT
100
AcDbLine
 10
11127.36329932503
 20
5702.362935220168
 30
0.0
 11
11158.05558752167
 21
5702.362935220168
 31
0.0
  0
CIRCLE
  5
5938
330
19
100
AcDbEntity
  8
1
100
AcDbCircle
 10
11143.05558752166
 20
5702.362935220168
 30
0.0
 40
6.0
  0
LINE
  5
5939
330
19
100
AcDbEntity
  8
CT
100
AcDbLine
 10
11143.05558752166
 20
5718.497643102718
 30
0.0
 11
11143.05558752166
 21
5682.830563598277
 31
0.0
  0
LWPOLYLINE
  5
593A
330
19
100
AcDbEntity
  8
1
100
AcDbPolyline
 90
        2
 70
     0
 43
0.0
 10
11165.05558752167
 20
5722.866971870885
 10
11360.45558752166
 20
5722.866971870885
  0
LWPOLYLINE
  5
593B
330
19
100
AcDbEntity
  8
1
100
AcDbPolyline
 90
        2
 70
     0
 43
0.0
 10
11165.05558752167
 20
5470.762935220171
 10
11281.31958080839
 20
5470.762935220171
  0
LINE
  5
593C
330
19
100
AcDbEntity
  8
CT
100
AcDbLine
 10
11143.05558752166
 20
5468.497643102718
 30
0.0
 11
11143.05558752166
 21
5432.830563598277
 31
0.0
  0
LINE
  5
593D
330
19
100
AcDbEntity
  8
1
100
AcDbLine
 10
11125.05558752167
 20
5422.362935220169
 30
0.0
 11
11165.05558752167
 21
5422.362935220169
 31
0.0
  0
CIRCLE
  5
593E
330
19
100
AcDbEntity
  8
1
100
AcDbCircle
 10
11143.05558752166
 20
5452.362935220168
 30
0.0
 40
6.0
  0
LINE
  5
593F
330
19
100
AcDbEntity
  8
CT
100
AcDbLine
 10
11127.36329932503
 20
5452.362935220168
 30
0.0
 11
11158.05558752167
 21
5452.362935220168
 31
0.0
  0
LWPOLYLINE
  5
5940
330
19
100
AcDbEntity
  8
1
100
AcDbPolyline
 90
        2
 70
     0
 43
0.0
 10
11468.79159423494
 20
5470.762935220171
 10
11585.05558752166
 20
5470.762935220168
  0
LINE
  5
5941
330
19
100
AcDbEntity
  8
CT
100
AcDbLine
 10
11607.05558752167
 20
5468.497643102718
 30
0.0
 11
11607.05558752167
 21
5432.830563598277
 31
0.0
  0
LINE
  5
5942
330
19
100
AcDbEntity
  8
1
100
AcDbLine
 10
11585.05558752166
 20
5422.362935220172
 30
0.0
 11
11625.05558752166
 21
5422.362935220169
 31
0.0
  0
LINE
  5
5943
330
19
100
AcDbEntity
  8
CT
100
AcDbLine
 10
11622.7478757183
 20
5452.362935220168
 30
0.0
 11
11592.05558752166
 21
5452.362935220168
 31
0.0
  0
CIRCLE
  5
5944
330
19
100
AcDbEntity
  8
1
100
AcDbCircle
 10
11607.05558752167
 20
5452.362935220168
 30
0.0
 40
6.0
  0
LINE
  5
5945
330
19
100
AcDbEntity
  8
1
100
AcDbLine
 10
11625.05558752166
 20
5422.362935220169
 30
0.0
 11
11625.05558752166
 21
5732.362935220169
 31
0.0
  0
LINE
  5
5946
330
19
100
AcDbEntity
  8
1
100
AcDbLine
 10
11585.05558752166
 20
5422.362935220169
 30
0.0
 11
11585.05558752166
 21
5732.362935220169
 31
0.0
  0
CIRCLE
  5
5947
330
19
100
AcDbEntity
  8
1
100
AcDbCircle
 10
11607.05558752167
 20
5702.362935220168
 30
0.0
 40
6.0
  0
LINE
  5
5948
330
19
100
AcDbEntity
  8
CT
100
AcDbLine
 10
11607.05558752167
 20
5718.497643102718
 30
0.0
 11
11607.05558752167
 21
5682.830563598277
 31
0.0
  0
LINE
  5
5949
330
19
100
AcDbEntity
  8
FUTO
100
AcDbLine
 10
11585.05558752166
 20
5732.362935220169
 30
0.0
 11
11625.05558752167
 21
5732.362935220169
 31
0.0
  0
LWPOLYLINE
  5
594A
330
19
100
AcDbEntity
  8
1
100
AcDbPolyline
 90
        2
 70
     0
 43
0.0
 10
11389.65548752166
 20
5722.866971870885
 10
11585.05558752166
 20
5722.866971870885
  0
LINE
  5
594B
330
19
100
AcDbEntity
  8
CT
100
AcDbLine
 10
11622.7478757183
 20
5702.362935220168
 30
0.0
 11
11592.05558752166
 21
5702.362935220168
 31
0.0
  0
LWPOLYLINE
  5
59E3
330
19
100
AcDbEntity
  8
1
100
AcDbPolyline
 90
        3
 70
     0
 43
0.0
 10
12806.45460744111
 20
4684.135294509081
 10
12806.45460744111
 20
4502.635294509081
 10
12806.45460744111
 20
4321.135294509082
  0
LINE
  5
59E4
330
19
100
AcDbEntity
  8
1
100
AcDbLine
 10
12799.45460744111
 20
4320.135294509083
 30
0.0
 11
12805.45460744111
 21
4320.135294509083
 31
0.0
  0
ARC
  5
59E5
330
19
100
AcDbEntity
  8
1
100
AcDbCircle
 10
12799.45460744111
 20
4319.135294509082
 30
0.0
 40
1.0
100
AcDbArc
 50
90.0
 51
180.0
  0
ARC
  5
59E6
330
19
100
AcDbEntity
  8
1
100
AcDbCircle
 10
12805.45460744111
 20
4321.135294509082
 30
0.0
 40
1.0
100
AcDbArc
 50
270.0
 51
0.0
  0
LINE
  5
59E7
330
19
100
AcDbEntity
  8
FUTO
100
AcDbLine
 10
12806.45460744111
 20
4345.13529450908
 30
0.0
 11
12798.45460744111
 21
4345.13529450908
 31
0.0
  0
LINE
  5
59E8
330
19
100
AcDbEntity
  8
FUTO
100
AcDbLine
 10
12806.45460744111
 20
4660.135294509079
 30
0.0
 11
12798.45460744111
 21
4660.135294509079
 31
0.0
  0
LINE
  5
59E9
330
19
100
AcDbEntity
  8
1
100
AcDbLine
 10
12799.45460744111
 20
4685.13529450908
 30
0.0
 11
12805.45460744111
 21
4685.13529450908
 31
0.0
  0
ARC
  5
59EA
330
19
100
AcDbEntity
  8
1
100
AcDbCircle
 10
12799.45460744111
 20
4686.13529450908
 30
0.0
 40
1.0
100
AcDbArc
 50
180.0
 51
270.0
  0
ARC
  5
59EB
330
19
100
AcDbEntity
  8
1
100
AcDbCircle
 10
12805.45460744111
 20
4684.13529450908
 30
0.0
 40
1.0
100
AcDbArc
 50
0.0
 51
90.0
  0
LINE
  5
59F9
330
19
100
AcDbEntity
  8
1
100
AcDbLine
 10
12588.45460744111
 20
4278.635294509077
 30
0.0
 11
12782.45460744111
 21
4278.635294509078
 31
0.0
  0
LINE
  5
59FA
330
19
100
AcDbEntity
  8
1
100
AcDbLine
 10
12572.45460744111
 20
4802.635294509081
 30
0.0
 11
12572.45460744111
 21
4294.635294509077
 31
0.0
  0
ARC
  5
59FB
330
19
100
AcDbEntity
  8
1
100
AcDbCircle
 10
12588.45460744111
 20
4294.635294509077
 30
0.0
 40
16.0
100
AcDbArc
 50
180.0000000000002
 51
270.0000000000002
  0
ARC
  5
59FC
330
19
100
AcDbEntity
  8
1
100
AcDbCircle
 10
12782.45460744111
 20
4294.635294509078
 30
0.0
 40
16.0
100
AcDbArc
 50
270.0000000000003
 51
0.0000000000010178
  0
LINE
  5
59FD
330
19
100
AcDbEntity
  8
1
100
AcDbLine
 10
12798.4546074411
 20
4802.635294509081
 30
0.0
 11
12798.45460744111
 21
4294.635294509078
 31
0.0
  0
LINE
  5
59FE
330
19
100
AcDbEntity
  8
FUTO
100
AcDbLine
 10
12588.45460744111
 20
4818.635294509081
 30
0.0
 11
12782.4546074411
 21
4818.635294509081
 31
0.0
  0
ARC
  5
59FF
330
19
100
AcDbEntity
  8
FUTO
100
AcDbCircle
 10
12782.4546074411
 20
4802.635294509081
 30
0.0
 40
16.0
100
AcDbArc
 50
0.0000000000010178
 51
90.0
  0
ARC
  5
5A00
330
19
100
AcDbEntity
  8
FUTO
100
AcDbCircle
 10
12588.45460744111
 20
4802.635294509081
 30
0.0
 40
16.0
100
AcDbArc
 50
90.0
 51
180.0
  0
LINE
  5
5B2B
330
19
100
AcDbEntity
  8
1
100
AcDbLine
 10
12563.45460744111
 20
4697.953405346614
 30
0.0
 11
12381.89262423316
 21
4502.635294509079
 31
0.0
  0
LINE
  5
5B50
330
19
100
AcDbEntity
  8
1
100
AcDbLine
 10
12564.45460744111
 20
4321.135294509079
 30
0.0
 11
12564.45460744111
 21
4684.135294509078
 31
0.0
  0
DIMENSION
  5
5B51
330
19
100
AcDbEntity
  8
SP
100
AcDbDimension
  2
*D26
 10
12264.45460744111
 20
5038.635294509075
 30
0.0
 11
12474.95460744111
 21
5087.92100879479
 31
0.0
 70
    32
  1
(420)
 71
     5
 42
421.0
  3
GOD
100
AcDbAlignedDimension
 13
12685.45460744111
 23
4993.635294509075
 33
0.0
 14
12264.45460744111
 24
4586.21619450908
 34
0.0
100
AcDbRotatedDimension
1001
ACAD
1000
DSTYLE
1002
{
1070
   279
1070
     1
1002
}
  0
DIMENSION
  5
5B5E
330
19
100
AcDbEntity
  8
SP
100
AcDbDimension
  2
*D27
 10
12685.45460744111
 20
4042.63529450908
 30
0.0
 11
12792.0036164659
 21
4039.943934017048
 31
0.0
 70
   160
 71
     5
 42
122.0
  3
GOD
100
AcDbAlignedDimension
 13
12563.45460744111
 23
4150.83529450908
 33
0.0
 14
12685.45460744111
 24
4213.196782543491
 34
0.0
100
AcDbRotatedDimension
1001
ACAD
1000
DSTYLE
1002
{
1070
   279
1070
     1
1002
}
  0
ENDSEC
  0
SECTION
  2
OBJECTS
  0
DICTIONARY
  5
C
330
0
100
AcDbDictionary
281
     1
  3
ACAD_CIP_PREVIOUS_PRODUCT_INFO
350
5A5D
  3
ACAD_COLOR
350
5A3F
  3
ACAD_DETAILVIEWSTYLE
350
5A58
  3
ACAD_GROUP
350
D
  3
ACAD_LAYOUT
350
1E92
  3
ACAD_MATERIAL
350
5A0D
  3
ACAD_MLEADERSTYLE
350
5A54
  3
ACAD_MLINESTYLE
350
E
  3
ACAD_PLOTSETTINGS
350
1E93
  3
ACAD_PLOTSTYLENAME
350
1E90
  3
ACAD_SCALELIST
350
5A42
  3
ACAD_SECTIONVIEWSTYLE
350
5A56
  3
ACAD_TABLESTYLE
350
5A40
  3
ACAD_VISUALSTYLE
350
5A26
  3
AcadDim
350
1EC5
  3
ACDB_RECOMPOSE_DATA
350
5BE1
  3
AcDbVariableDictionary
350
5BCB
  3
AcDsDecomposeData
350
5BE8
  3
DWGPROPS
350
5BE2
  0
DICTIONARY
  5
5BB8
330
2
100
AcDbDictionary
280
     1
281
     1
  3
ACAD_LAYERSTATES
360
5BB9
  0
DICTIONARY
  5
5B9D
330
F
100
AcDbDictionary
280
     1
281
     1
  3
ADSK_XREC_LAYER_RECONCILED
360
5B9E
  0
DICTIONARY
  5
5B9F
330
2F
100
AcDbDictionary
280
     1
281
     1
  3
ADSK_XREC_LAYER_RECONCILED
360
5BA0
  0
DICTIONARY
  5
5BA1
330
30
100
AcDbDictionary
280
     1
281
     1
  3
ADSK_XREC_LAYER_RECONCILED
360
5BA2
  0
DICTIONARY
  5
5BA3
330
32
100
AcDbDictionary
280
     1
281
     1
  3
ADSK_XREC_LAYER_RECONCILED
360
5BA4
  0
DICTIONARY
  5
5BA5
330
33
100
AcDbDictionary
280
     1
281
     1
  3
ADSK_XREC_LAYER_RECONCILED
360
5BA6
  0
DICTIONARY
  5
5BA7
330
34
100
AcDbDictionary
280
     1
281
     1
  3
ADSK_XREC_LAYER_RECONCILED
360
5BA8
  0
DICTIONARY
  5
5BA9
330
35
100
AcDbDictionary
280
     1
281
     1
  3
ADSK_XREC_LAYER_RECONCILED
360
5BAA
  0
DICTIONARY
  5
5BAB
330
36
100
AcDbDictionary
280
     1
281
     1
  3
ADSK_XREC_LAYER_RECONCILED
360
5BAC
  0
DICTIONARY
  5
5BAD
330
1EEE
100
AcDbDictionary
280
     1
281
     1
  3
ADSK_XREC_LAYER_RECONCILED
360
5BAE
  0
DICTIONARY
  5
5BAF
330
1EEF
100
AcDbDictionary
280
     1
281
     1
  3
ADSK_XREC_LAYER_RECONCILED
360
5BB0
  0
DICTIONARY
  5
5BB1
330
1EF0
100
AcDbDictionary
280
     1
281
     1
  3
ADSK_XREC_LAYER_RECONCILED
360
5BB2
  0
DICTIONARY
  5
5BB3
330
2188
100
AcDbDictionary
280
     1
281
     1
  3
ADSK_XREC_LAYER_RECONCILED
360
5BB4
  0
DICTIONARY
  5
5B2C
330
19
100
AcDbDictionary
280
     1
281
     1
  3
ACAD_SORTENTS
360
5B2D
  0
XRECORD
  5
5A5D
102
{ACAD_REACTORS
330
C
102
}
330
C
100
AcDbXrecord
280
     1
300
ACDLT
300
2015
300
INVLTS_F_S
  0
DICTIONARY
  5
5A3F
102
{ACAD_REACTORS
330
C
102
}
330
C
100
AcDbDictionary
281
     1
  0
DICTIONARY
  5
5A58
102
{ACAD_REACTORS
330
C
102
}
330
C
100
AcDbDictionary
281
     1
  3
Metric50
350
5A59
  0
DICTIONARY
  5
D
102
{ACAD_REACTORS
330
C
102
}
330
C
100
AcDbDictionary
281
     1
  0
DICTIONARY
  5
1E92
102
{ACAD_REACTORS
330
C
102
}
330
C
100
AcDbDictionary
281
     1
  3
Model
350
1E94
  3
ﾚｲｱｳﾄ1
350
1E95
  0
DICTIONARY
  5
5A0D
102
{ACAD_REACTORS
330
C
102
}
330
C
100
AcDbDictionary
281
     1
  3
ByBlock
350
5A16
  3
ByLayer
350
5A0E
  3
Global
350
5A1E
  0
DICTIONARY
  5
5A54
102
{ACAD_REACTORS
330
C
102
}
330
C
100
AcDbDictionary
281
     1
  3
Standard
350
5A55
  0
DICTIONARY
  5
E
102
{ACAD_REACTORS
330
C
102
}
330
C
100
AcDbDictionary
281
     1
  3
STANDARD
350
1C
  0
DICTIONARY
  5
1E93
102
{ACAD_REACTORS
330
C
102
}
330
C
100
AcDbDictionary
281
     1
  0
ACDBDICTIONARYWDFLT
  5
1E90
102
{ACAD_REACTORS
330
C
102
}
330
C
100
AcDbDictionary
281
     1
  3
Normal
350
1E91
100
AcDbDictionaryWithDefault
340
1E91
  0
DICTIONARY
  5
5A42
102
{ACAD_REACTORS
330
C
102
}
330
C
100
AcDbDictionary
281
     1
  3
A0
350
5A43
  3
A1
350
5A44
  3
A2
350
5A45
  3
A3
350
5A46
  3
A4
350
5A47
  3
A5
350
5A48
  3
A6
350
5A49
  3
A7
350
5A4A
  3
A8
350
5A4B
  3
A9
350
5A4C
  3
B0
350
5A4D
  3
B1
350
5A4E
  3
B2
350
5A4F
  3
B3
350
5A50
  3
B4
350
5A51
  3
B5
350
5A52
  3
B6
350
5A53
  0
DICTIONARY
  5
5A56
102
{ACAD_REACTORS
330
C
102
}
330
C
100
AcDbDictionary
281
     1
  3
Metric50
350
5A57
  0
DICTIONARY
  5
5A40
102
{ACAD_REACTORS
330
C
102
}
330
C
100
AcDbDictionary
281
     1
  3
Standard
350
5A41
  0
DICTIONARY
  5
5A26
102
{ACAD_REACTORS
330
C
102
}
330
C
100
AcDbDictionary
281
     1
  3
2dWireframe
350
5A2C
  3
Basic
350
5A2B
  3
Brighten
350
5A32
  3
ColorChange
350
5A36
  3
Conceptual
350
5A2F
  3
Dim
350
5A31
  3
EdgeColorOff
350
5A3E
  3
Facepattern
350
5A35
  3
Flat
350
5A27
  3
FlatWithEdges
350
5A28
  3
Gouraud
350
5A29
  3
GouraudWithEdges
350
5A2A
  3
Hidden
350
5A2E
  3
JitterOff
350
5A3C
  3
Linepattern
350
5A34
  3
OverhangOff
350
5A3D
  3
Realistic
350
5A30
  3
Shaded
350
5A3B
  3
Shaded with edges
350
5A3A
  3
Shades of Gray
350
5A37
  3
Sketchy
350
5A38
  3
Thicken
350
5A33
  3
Wireframe
350
5A2D
  3
X-Ray
350
5A39
  0
XRECORD
  5
1EC5
102
{ACAD_REACTORS
330
C
102
}
330
C
100
AcDbXrecord
280
     1
 90
   990106
  3

 60
     0
 61
     0
 62
     4
 63
     4
 64
     1
 65
     0
 66
     1
 67
     3
 68
     1
 69
     0
 70
     0
 71
     0
 72
     0
 40
0.0
170
     1
340
0
  0
XRECORD
  5
5BE1
102
{ACAD_REACTORS
330
C
102
}
330
C
100
AcDbXrecord
280
     1
 90
        1
330
5A41
  0
DICTIONARY
  5
5BCB
102
{ACAD_REACTORS
330
C
102
}
330
C
100
AcDbDictionary
281
     1
  3
CANNOSCALE
350
5BD1
  3
CMLEADERSTYLE
350
5BCD
  3
CTABLESTYLE
350
5BCC
  3
CVIEWDETAILSTYLE
350
5BCE
  3
CVIEWSECTIONSTYLE
350
5BCF
  3
DIMASSOC
350
5BDD
  3
INDEXCTL
350
5BDC
  3
LAYEREVAL
350
5BD3
  3
LAYERNOTIFY
350
5BD4
  3
LIGHTINGUNITS
350
5BD2
  3
MSLTSCALE
350
5BD0
  3
SORTENTS
350
5BDB
  3
XCLIPFRAME
350
5BDE
  0
DICTIONARY
  5
5BE8
102
{ACAD_REACTORS
330
C
102
}
330
C
100
AcDbDictionary
281
     1
  3
AcDsRecords
350
5BEA
  3
AcDsSchemas
350
5BE9
1001
ACAD
1070
     2
  0
XRECORD
  5
5BE2
102
{ACAD_REACTORS
330
C
102
}
330
C
100
AcDbXrecord
280
     1
  1
DWGPROPS COOKIE
  2

  3

  4

  6

  7

  8
toshiyuki.morita
  9

300
=
301
=
302
=
303
=
304
=
305
=
306
=
307
=
308
=
309
=
 40
0.1439777430555555
 41
2454939.604632489
 42
2459353.580239074
  1

 90
        0
  0
DICTIONARY
  5
5BB9
102
{ACAD_REACTORS
330
5BB8
102
}
330
5BB8
100
AcDbDictionary
281
     1
  0
XRECORD
  5
5B9E
102
{ACAD_REACTORS
330
5B9D
102
}
330
5B9D
100
AcDbXrecord
280
     1
290
     1
  0
XRECORD
  5
5BA0
102
{ACAD_REACTORS
330
5B9F
102
}
330
5B9F
100
AcDbXrecord
280
     1
290
     1
  0
XRECORD
  5
5BA2
102
{ACAD_REACTORS
330
5BA1
102
}
330
5BA1
100
AcDbXrecord
280
     1
290
     1
  0
XRECORD
  5
5BA4
102
{ACAD_REACTORS
330
5BA3
102
}
330
5BA3
100
AcDbXrecord
280
     1
290
     1
  0
XRECORD
  5
5BA6
102
{ACAD_REACTORS
330
5BA5
102
}
330
5BA5
100
AcDbXrecord
280
     1
290
     1
  0
XRECORD
  5
5BA8
102
{ACAD_REACTORS
330
5BA7
102
}
330
5BA7
100
AcDbXrecord
280
     1
290
     1
  0
XRECORD
  5
5BAA
102
{ACAD_REACTORS
330
5BA9
102
}
330
5BA9
100
AcDbXrecord
280
     1
290
     1
  0
XRECORD
  5
5BAC
102
{ACAD_REACTORS
330
5BAB
102
}
330
5BAB
100
AcDbXrecord
280
     1
290
     1
  0
XRECORD
  5
5BAE
102
{ACAD_REACTORS
330
5BAD
102
}
330
5BAD
100
AcDbXrecord
280
     1
290
     1
  0
XRECORD
  5
5BB0
102
{ACAD_REACTORS
330
5BAF
102
}
330
5BAF
100
AcDbXrecord
280
     1
290
     1
  0
XRECORD
  5
5BB2
102
{ACAD_REACTORS
330
5BB1
102
}
330
5BB1
100
AcDbXrecord
280
     1
290
     1
  0
XRECORD
  5
5BB4
102
{ACAD_REACTORS
330
5BB3
102
}
330
5BB3
100
AcDbXrecord
280
     1
290
     1
  0
SORTENTSTABLE
  5
5B2D
102
{ACAD_REACTORS
330
5B2C
102
}
330
5B2C
100
AcDbSortentsTable
330
19
331
59FC
  5
59FD
331
5716
  5
5717
331
5712
  5
5713
331
4C3C
  5
4C3D
331
4C05
  5
4C07
331
570E
  5
570F
331
4C38
  5
4C39
331
45B4
  5
45B5
331
59E8
  5
59E9
331
4C34
  5
4C35
331
45B0
  5
45B2
331
4C30
  5
4C31
331
4BF9
  5
4BFE
331
45AC
  5
45AE
331
45A8
  5
45AA
331
59E4
  5
59E5
331
4C2C
  5
4C2D
331
4BF5
  5
4BF7
331
4C28
  5
4C29
331
4BF1
  5
4BF2
331
45A4
  5
45A5
331
5948
  5
5949
331
4C24
  5
4C25
331
45A0
  5
45A1
331
4C20
  5
4C21
331
459C
  5
459D
331
4598
  5
4599
331
5944
  5
5945
331
5940
  5
5941
331
4C5B
  5
4C5C
331
4C1C
  5
4C20
331
467D
  5
467E
331
593C
  5
593D
331
4C57
  5
4C58
331
4C18
  5
4C19
331
4594
  5
4595
331
5938
  5
5939
331
4C53
  5
4C54
331
4590
  5
4591
331
4C10
  5
4C11
331
4669
  5
466A
331
45D3
  5
4653
331
5725
  5
5934
331
4C4F
  5
4C50
331
5721
  5
5722
331
4C4B
  5
4C4C
331
45CF
  5
45D1
331
5934
  5
5935
331
571D
  5
571E
331
4C47
  5
4C48
331
5719
  5
571A
331
4C43
  5
4C44
331
4C0C
  5
4C0D
331
59FF
  5
5A00
331
59FB
  5
59FC
331
5715
  5
5716
331
5711
  5
5712
331
4C3B
  5
4C3C
331
4C04
  5
4C05
331
59EB
  5
59F9
331
570D
  5
570E
331
4C37
  5
4C38
331
4C33
  5
4C34
331
45AF
  5
45B0
331
4BF8
  5
4BF9
331
45AB
  5
45AC
331
59E7
  5
59E8
331
59E3
  5
59E4
331
4E35
  5
570C
331
4C2F
  5
4C30
331
4BF4
  5
4BF5
331
45A7
  5
45A8
331
594B
  5
59E3
331
4C27
  5
4C28
331
4BF0
  5
4BF1
331
45A3
  5
45A4
331
4C23
  5
4C24
331
459F
  5
45A0
331
459B
  5
459C
331
5B2B
  5
458D
331
5947
  5
5948
331
5943
  5
5944
331
4C5E
  5
4E35
331
593F
  5
5940
331
4C5A
  5
4C5B
331
4C1B
  5
4C1C
331
4597
  5
4598
331
593B
  5
593C
331
4C56
  5
4C57
331
4593
  5
4594
331
4C52
  5
4C53
331
458F
  5
4590
331
5724
  5
5725
331
4C4E
  5
4C4F
331
5937
  5
5938
331
5720
  5
5721
331
4C4A
  5
4C4B
331
45CE
  5
45CF
331
571C
  5
571D
331
4C46
  5
4C47
331
4C0F
  5
4C10
331
5718
  5
5719
331
4C42
  5
4C43
331
4C0B
  5
4C0C
331
45C6
  5
45CE
331
59FE
  5
59FF
331
59FA
  5
59FB
331
5714
  5
5715
331
4C07
  5
4C0B
331
5710
  5
5711
331
4C3A
  5
4C3B
331
4C03
  5
4C04
331
59EA
  5
59EB
331
570C
  5
570D
331
4C36
  5
4C37
331
45B2
  5
45B4
331
4C32
  5
4C33
331
45AE
  5
45AF
331
45AA
  5
45AB
331
59E6
  5
59E7
331
4C2E
  5
4C2F
331
4BF7
  5
4BF8
331
4C2A
  5
4C2C
331
4BF3
  5
4BF4
331
45A6
  5
45A7
331
594A
  5
594B
331
4BEF
  5
4BF0
331
45A2
  5
45A3
331
4C22
  5
4C23
331
459E
  5
459F
331
459A
  5
459B
331
5946
  5
5947
331
5942
  5
5943
331
4C5D
  5
4C5E
331
593E
  5
593F
331
4C59
  5
4C5A
331
4C1A
  5
4C1B
331
4596
  5
4597
331
593A
  5
593B
331
4C55
  5
4C56
331
4C16
  5
4C18
331
4592
  5
4593
331
4C51
  5
4C52
331
4C12
  5
4C16
331
458E
  5
458F
331
45D1
  5
45D3
331
5723
  5
5724
331
4C4D
  5
4C4E
331
5936
  5
5937
331
571F
  5
5720
331
4C49
  5
4C4A
331
4653
  5
4669
331
571B
  5
571C
331
4C45
  5
4C46
331
4C0E
  5
4C0F
331
45C5
  5
45C6
331
59FD
  5
59FE
331
5717
  5
5718
331
59F9
  5
59FA
331
5713
  5
5714
331
4C3D
  5
4C42
331
570F
  5
5710
331
4C39
  5
4C3A
331
45B5
  5
45C4
331
59E9
  5
59EA
331
4C35
  5
4C36
331
4BFE
  5
4C03
331
4C31
  5
4C32
331
59E5
  5
59E6
331
4C2D
  5
4C2E
331
4C29
  5
4C2A
331
4BF2
  5
4BF3
331
45A5
  5
45A6
331
5949
  5
594A
331
4C25
  5
4C27
331
45A1
  5
45A2
331
4C21
  5
4C22
331
459D
  5
459E
331
4599
  5
459A
331
5945
  5
5946
331
5941
  5
5942
331
4C5C
  5
4C5D
331
467E
  5
4BEF
331
593D
  5
593E
331
4C58
  5
4C59
331
4C19
  5
4C1A
331
4595
  5
4596
331
5939
  5
593A
331
4C54
  5
4C55
331
4591
  5
4592
331
4C50
  5
4C51
331
4C11
  5
4C12
331
466A
  5
467D
331
458D
  5
458E
331
5722
  5
5723
331
4C4C
  5
4C4D
331
5935
  5
5936
331
571E
  5
571F
331
4C48
  5
4C49
331
5A00
  5
5A5F
331
571A
  5
571B
331
4C44
  5
4C45
331
4C0D
  5
4C0E
331
45C4
  5
45C5
  0
ACDBDETAILVIEWSTYLE
  5
5A59
102
{ACAD_XDICTIONARY
360
5BC9
102
}
102
{ACAD_REACTORS
330
5A58
102
}
330
5A58
100
AcDbModelDocViewStyle
 70
     0
  3
Metric50
290
     0
100
AcDbDetailViewStyle
 70
     0
 71
     0
 90
        3
 71
     1
340
10
 40
5.0
340
0
 40
5.0
300

 40
0.0
280
     1
 71
     2
340
15
 90
       25
 71
     3
340
10
 40
5.0
 90
        0
 40
15.0
 90
        1
300
%<\AcVar ViewDetailId>% (%<\AcVar ViewScale \f "%sn">%)
 71
     4
340
15
 90
       25
340
15
 90
       25
280
     0
  0
LAYOUT
  5
1E94
102
{ACAD_XDICTIONARY
360
5BEB
102
}
102
{ACAD_REACTORS
330
1E92
102
}
330
1E92
100
AcDbPlotSettings
  1

  2
EPSON LP-9300
  4

  6

 40
0.0
 41
0.0
 42
0.0
 43
0.0
 44
0.0
 45
0.0
 46
0.0
 47
0.0
 48
0.0
 49
0.0
140
0.0
141
0.0
142
1.0
143
1.0
 70
  1712
 72
     0
 73
     0
 74
     0
  7
GOD2000TABLE.ctb
 75
     0
147
1.0
148
0.0
149
0.0
100
AcDbLayout
  1
Model
 70
     1
 71
     0
 10
0.0
 20
0.0
 11
12.0
 21
9.0
 12
0.0
 22
0.0
 32
0.0
 14
0.0
 24
0.0
 34
0.0
 15
0.0
 25
0.0
 35
0.0
146
0.0
 13
0.0
 23
0.0
 33
0.0
 16
1.0
 26
0.0
 36
0.0
 17
0.0
 27
1.0
 37
0.0
 76
     0
330
19
331
5A0B
  0
LAYOUT
  5
1E95
102
{ACAD_XDICTIONARY
360
5BED
102
}
102
{ACAD_REACTORS
330
1E92
102
}
330
1E92
100
AcDbPlotSettings
  1

  2
EPSON LP-9300
  4

  6

 40
0.0
 41
0.0
 42
0.0
 43
0.0
 44
0.0
 45
0.0
 46
0.0
 47
0.0
 48
0.0
 49
0.0
140
0.0
141
0.0
142
1.0
143
1.0
 70
   688
 72
     0
 73
     0
 74
     5
  7
GOD2000TABLE.ctb
 75
    16
147
1.0
148
0.0
149
0.0
100
AcDbLayout
  1
ﾚｲｱｳﾄ1
 70
     0
 71
     1
 10
0.0
 20
0.0
 11
12.0
 21
9.0
 12
0.0
 22
0.0
 32
0.0
 14
1.000000000000000E+20
 24
1.000000000000000E+20
 34
1.000000000000000E+20
 15
-1.000000000000000E+20
 25
-1.000000000000000E+20
 35
-1.000000000000000E+20
146
0.0
 13
0.0
 23
0.0
 33
0.0
 16
1.0
 26
0.0
 36
0.0
 17
0.0
 27
1.0
 37
0.0
 76
     0
330
16
  0
MATERIAL
  5
5A16
102
{ACAD_XDICTIONARY
360
5A17
102
}
102
{ACAD_REACTORS
330
5A0D
102
}
330
5A0D
100
AcDbMaterial
  1
ByBlock
 72
     0
 43
0.0208333333333333
 43
0.0
 43
0.0
 43
0.0
 43
0.0
 43
0.0208333333333333
 43
0.0
 43
0.0
 43
0.0
 43
0.0
 43
1.0
 43
0.0
 43
0.0
 43
0.0
 43
0.0
 43
1.0
 77
     0
 47
0.0208333333333333
 47
0.0
 47
0.0
 47
0.0
 47
0.0
 47
0.0208333333333333
 47
0.0
 47
0.0
 47
0.0
 47
0.0
 47
1.0
 47
0.0
 47
0.0
 47
0.0
 47
0.0
 47
1.0
171
     0
 49
0.0208333333333333
 49
0.0
 49
0.0
 49
0.0
 49
0.0
 49
0.0208333333333333
 49
0.0
 49
0.0
 49
0.0
 49
0.0
 49
1.0
 49
0.0
 49
0.0
 49
0.0
 49
0.0
 49
1.0
175
     0
142
0.0208333333333333
142
0.0
142
0.0
142
0.0
142
0.0
142
0.0208333333333333
142
0.0
142
0.0
142
0.0
142
0.0
142
1.0
142
0.0
142
0.0
142
0.0
142
0.0
142
1.0
179
     0
144
0.0208333333333333
144
0.0
144
0.0
144
0.0
144
0.0
144
0.0208333333333333
144
0.0
144
0.0
144
0.0
144
0.0
144
1.0
144
0.0
144
0.0
144
0.0
144
0.0
144
1.0
147
0.0208333333333333
147
0.0
147
0.0
147
0.0
147
0.0
147
0.0208333333333333
147
0.0
147
0.0
147
0.0
147
0.0
147
1.0
147
0.0
147
0.0
147
0.0
147
0.0
147
1.0
  0
MATERIAL
  5
5A0E
102
{ACAD_XDICTIONARY
360
5A0F
102
}
102
{ACAD_REACTORS
330
5A0D
102
}
330
5A0D
100
AcDbMaterial
  1
ByLayer
 72
     0
 43
0.0208333333333333
 43
0.0
 43
0.0
 43
0.0
 43
0.0
 43
0.0208333333333333
 43
0.0
 43
0.0
 43
0.0
 43
0.0
 43
1.0
 43
0.0
 43
0.0
 43
0.0
 43
0.0
 43
1.0
 77
     0
 47
0.0208333333333333
 47
0.0
 47
0.0
 47
0.0
 47
0.0
 47
0.0208333333333333
 47
0.0
 47
0.0
 47
0.0
 47
0.0
 47
1.0
 47
0.0
 47
0.0
 47
0.0
 47
0.0
 47
1.0
171
     0
 49
0.0208333333333333
 49
0.0
 49
0.0
 49
0.0
 49
0.0
 49
0.0208333333333333
 49
0.0
 49
0.0
 49
0.0
 49
0.0
 49
1.0
 49
0.0
 49
0.0
 49
0.0
 49
0.0
 49
1.0
175
     0
142
0.0208333333333333
142
0.0
142
0.0
142
0.0
142
0.0
142
0.0208333333333333
142
0.0
142
0.0
142
0.0
142
0.0
142
1.0
142
0.0
142
0.0
142
0.0
142
0.0
142
1.0
179
     0
144
0.0208333333333333
144
0.0
144
0.0
144
0.0
144
0.0
144
0.0208333333333333
144
0.0
144
0.0
144
0.0
144
0.0
144
1.0
144
0.0
144
0.0
144
0.0
144
0.0
144
1.0
147
0.0208333333333333
147
0.0
147
0.0
147
0.0
147
0.0
147
0.0208333333333333
147
0.0
147
0.0
147
0.0
147
0.0
147
1.0
147
0.0
147
0.0
147
0.0
147
0.0
147
1.0
  0
MATERIAL
  5
5A1E
102
{ACAD_XDICTIONARY
360
5A1F
102
}
102
{ACAD_REACTORS
330
5A0D
102
}
330
5A0D
100
AcDbMaterial
  1
Global
 72
     0
 43
0.0208333333333333
 43
0.0
 43
0.0
 43
0.0
 43
0.0
 43
0.0208333333333333
 43
0.0
 43
0.0
 43
0.0
 43
0.0
 43
1.0
 43
0.0
 43
0.0
 43
0.0
 43
0.0
 43
1.0
 77
     0
 47
0.0208333333333333
 47
0.0
 47
0.0
 47
0.0
 47
0.0
 47
0.0208333333333333
 47
0.0
 47
0.0
 47
0.0
 47
0.0
 47
1.0
 47
0.0
 47
0.0
 47
0.0
 47
0.0
 47
1.0
171
     0
 49
0.0208333333333333
 49
0.0
 49
0.0
 49
0.0
 49
0.0
 49
0.0208333333333333
 49
0.0
 49
0.0
 49
0.0
 49
0.0
 49
1.0
 49
0.0
 49
0.0
 49
0.0
 49
0.0
 49
1.0
175
     0
142
0.0208333333333333
142
0.0
142
0.0
142
0.0
142
0.0
142
0.0208333333333333
142
0.0
142
0.0
142
0.0
142
0.0
142
1.0
142
0.0
142
0.0
142
0.0
142
0.0
142
1.0
179
     0
144
0.0208333333333333
144
0.0
144
0.0
144
0.0
144
0.0
144
0.0208333333333333
144
0.0
144
0.0
144
0.0
144
0.0
144
1.0
144
0.0
144
0.0
144
0.0
144
0.0
144
1.0
147
0.0208333333333333
147
0.0
147
0.0
147
0.0
147
0.0
147
0.0208333333333333
147
0.0
147
0.0
147
0.0
147
0.0
147
1.0
147
0.0
147
0.0
147
0.0
147
0.0
147
1.0
  0
MLEADERSTYLE
  5
5A55
102
{ACAD_XDICTIONARY
360
5C24
102
}
102
{ACAD_REACTORS
330
5A54
102
}
330
5A54
100
AcDbMLeaderStyle
170
     2
171
     1
172
     0
 90
        2
 40
0.0
 41
0.0
173
     1
 91
-1056964608
340
13
 92
       -2
290
     1
 42
2.0
291
     1
 43
0.36
  3
Standard
 44
4.0
300

342
10
174
     1
178
     6
175
     1
176
     0
 93
-1056964608
 45
4.0
292
     0
297
     0
 46
4.0
 94
-1056964608
 47
1.0
 49
1.0
140
1.0
293
     1
141
0.0
294
     1
177
     0
142
1.0
295
     0
296
     0
143
0.125
1001
ACAD_MLEADERVER
1070
     2
  0
MLINESTYLE
  5
1C
102
{ACAD_REACTORS
330
E
102
}
330
E
100
AcDbMlineStyle
  2
STANDARD
 70
     0
  3

 62
     0
 51
90.0
 52
90.0
 71
     2
 49
0.5
 62
   256
  6
BYLAYER
 49
-0.5
 62
   256
  6
BYLAYER
  0
ACDBPLACEHOLDER
  5
1E91
102
{ACAD_REACTORS
330
1E90
102
}
330
1E90
  0
SCALE
  5
5A43
102
{ACAD_REACTORS
330
5A42
102
}
330
5A42
100
AcDbScale
 70
     0
300
1:1
140
1.0
141
1.0
290
     1
  0
SCALE
  5
5A44
102
{ACAD_REACTORS
330
5A42
102
}
330
5A42
100
AcDbScale
 70
     0
300
1:2
140
1.0
141
2.0
290
     0
  0
SCALE
  5
5A45
102
{ACAD_REACTORS
330
5A42
102
}
330
5A42
100
AcDbScale
 70
     0
300
1:4
140
1.0
141
4.0
290
     0
  0
SCALE
  5
5A46
102
{ACAD_REACTORS
330
5A42
102
}
330
5A42
100
AcDbScale
 70
     0
300
1:5
140
1.0
141
5.0
290
     0
  0
SCALE
  5
5A47
102
{ACAD_REACTORS
330
5A42
102
}
330
5A42
100
AcDbScale
 70
     0
300
1:8
140
1.0
141
8.0
290
     0
  0
SCALE
  5
5A48
102
{ACAD_REACTORS
330
5A42
102
}
330
5A42
100
AcDbScale
 70
     0
300
1:10
140
1.0
141
10.0
290
     0
  0
SCALE
  5
5A49
102
{ACAD_REACTORS
330
5A42
102
}
330
5A42
100
AcDbScale
 70
     0
300
1:16
140
1.0
141
16.0
290
     0
  0
SCALE
  5
5A4A
102
{ACAD_REACTORS
330
5A42
102
}
330
5A42
100
AcDbScale
 70
     0
300
1:20
140
1.0
141
20.0
290
     0
  0
SCALE
  5
5A4B
102
{ACAD_REACTORS
330
5A42
102
}
330
5A42
100
AcDbScale
 70
     0
300
1:30
140
1.0
141
30.0
290
     0
  0
SCALE
  5
5A4C
102
{ACAD_REACTORS
330
5A42
102
}
330
5A42
100
AcDbScale
 70
     0
300
1:40
140
1.0
141
40.0
290
     0
  0
SCALE
  5
5A4D
102
{ACAD_REACTORS
330
5A42
102
}
330
5A42
100
AcDbScale
 70
     0
300
1:50
140
1.0
141
50.0
290
     0
  0
SCALE
  5
5A4E
102
{ACAD_REACTORS
330
5A42
102
}
330
5A42
100
AcDbScale
 70
     0
300
1:100
140
1.0
141
100.0
290
     0
  0
SCALE
  5
5A4F
102
{ACAD_REACTORS
330
5A42
102
}
330
5A42
100
AcDbScale
 70
     0
300
2:1
140
2.0
141
1.0
290
     0
  0
SCALE
  5
5A50
102
{ACAD_REACTORS
330
5A42
102
}
330
5A42
100
AcDbScale
 70
     0
300
4:1
140
4.0
141
1.0
290
     0
  0
SCALE
  5
5A51
102
{ACAD_REACTORS
330
5A42
102
}
330
5A42
100
AcDbScale
 70
     0
300
8:1
140
8.0
141
1.0
290
     0
  0
SCALE
  5
5A52
102
{ACAD_REACTORS
330
5A42
102
}
330
5A42
100
AcDbScale
 70
     0
300
10:1
140
10.0
141
1.0
290
     0
  0
SCALE
  5
5A53
102
{ACAD_REACTORS
330
5A42
102
}
330
5A42
100
AcDbScale
 70
     0
300
100:1
140
100.0
141
1.0
290
     0
  0
ACDBSECTIONVIEWSTYLE
  5
5A57
102
{ACAD_XDICTIONARY
360
5BC7
102
}
102
{ACAD_REACTORS
330
5A56
102
}
330
5A56
100
AcDbModelDocViewStyle
 70
     0
  3
Metric50
290
     0
100
AcDbSectionViewStyle
 70
     0
 71
     0
 90
      102
 71
     1
340
10
 40
5.0
340
0
340
0
 40
5.0
300
I, O, Q, S, X, Z
 40
10.0
 90
        0
 40
2.5
 90
        0
 71
     2
340
15
 90
       25
340
15
 90
       50
 40
5.0
 40
2.5
 40
5.0
 71
     3
340
10
 40
5.0
 90
        0
 40
15.0
 90
        1
300
%<\AcVar ViewSectionStartId>%-%<\AcVar ViewSectionEndId>% (%<\AcVar ViewScale \f "%sn">%)
 71
     4
300
ANSI31
 40
1.0
 90
        0
290
     0
290
     0
 90
        6
 40
0.0
 40
1.570796326794896
 40
0.2617993877991494
 40
1.308996938995747
 40
-0.2617993877991494
 40
1.832595714594046
  0
TABLESTYLE
  5
5A41
102
{ACAD_XDICTIONARY
360
5BDF
102
}
102
{ACAD_REACTORS
330
5A40
102
}
330
5A40
100
AcDbTableStyle
  3
Standard
 70
     0
 71
     0
 40
1.5
 41
1.5
280
     0
281
     0
  7
STANDARD
140
4.5
170
     2
 62
     0
 63
     7
283
     0
274
    -2
284
     1
 64
     0
275
    -2
285
     1
 65
     0
276
    -2
286
     1
 66
     0
277
    -2
287
     1
 67
     0
278
    -2
288
     1
 68
     0
279
    -2
289
     1
 69
     0
  7
STANDARD
140
6.0
170
     5
 62
     0
 63
     7
283
     0
274
    -2
284
     1
 64
     0
275
    -2
285
     1
 65
     0
276
    -2
286
     1
 66
     0
277
    -2
287
     1
 67
     0
278
    -2
288
     1
 68
     0
279
    -2
289
     1
 69
     0
  7
STANDARD
140
4.5
170
     5
 62
     0
 63
     7
283
     0
274
    -2
284
     1
 64
     0
275
    -2
285
     1
 65
     0
276
    -2
286
     1
 66
     0
277
    -2
287
     1
 67
     0
278
    -2
288
     1
 68
     0
279
    -2
289
     1
 69
     0
  0
VISUALSTYLE
  5
5A2C
102
{ACAD_XDICTIONARY
360
5BFC
102
}
102
{ACAD_REACTORS
330
5A26
102
}
330
5A26
100
AcDbVisualStyle
  2
2dWireframe
 70
     4
 71
     0
 72
     2
 73
     0
 90
        0
 40
-0.6
 41
-30.0
 62
     5
 63
     7
 74
     1
 91
        4
 64
     7
 65
   257
 75
     1
175
     1
 42
1.0
 92
        0
 66
   257
 43
1.0
 76
     1
 77
     6
 78
     2
 67
     7
 79
     5
170
     0
171
     0
290
     0
174
     0
 93
        1
 44
0.0
173
     0
291
     0
 45
0.0
1001
ACAD
1000
AcDbSavedByObjectVersion
1070
     0
  0
VISUALSTYLE
  5
5A2B
102
{ACAD_XDICTIONARY
360
5BFA
102
}
102
{ACAD_REACTORS
330
5A26
102
}
330
5A26
100
AcDbVisualStyle
  2
Basic
 70
     7
 71
     1
 72
     0
 73
     1
 90
        0
 40
-0.6
 41
-30.0
 62
     5
 63
     7
 74
     0
 91
        4
 64
     7
 65
   257
 75
     1
175
     1
 42
1.0
 92
        8
 66
     7
 43
1.0
 76
     1
 77
     6
 78
     2
 67
     7
 79
     5
170
     0
171
     0
290
     0
174
     0
 93
        1
 44
0.0
173
     0
291
     1
 45
0.0
1001
ACAD
1000
AcDbSavedByObjectVersion
1070
     0
  0
VISUALSTYLE
  5
5A32
102
{ACAD_XDICTIONARY
360
5C08
102
}
102
{ACAD_REACTORS
330
5A26
102
}
330
5A26
100
AcDbVisualStyle
  2
Brighten
 70
    12
 71
     2
 72
     2
 73
     0
 90
        0
 40
-0.6
 41
-30.0
 62
     5
 63
     7
 74
     1
 91
        4
 64
     7
 65
   257
 75
     1
175
     1
 42
1.0
 92
        8
 66
     7
 43
1.0
 76
     1
 77
     6
 78
     2
 67
     7
 79
     5
170
     0
171
     0
290
     0
174
     0
 93
        1
 44
50.0
173
     0
291
     1
 45
0.0
1001
ACAD
1000
AcDbSavedByObjectVersion
1070
     0
  0
VISUALSTYLE
  5
5A36
102
{ACAD_XDICTIONARY
360
5C10
102
}
102
{ACAD_REACTORS
330
5A26
102
}
330
5A26
100
AcDbVisualStyle
  2
ColorChange
 70
    16
 71
     2
 72
     2
 73
     3
 90
        0
 40
-0.6
 41
-30.0
 62
     5
 63
     8
 74
     1
 91
        4
 64
     7
 65
   257
 75
     1
175
     1
 42
1.0
 92
        8
 66
     8
 43
1.0
 76
     1
 77
     6
 78
     2
 67
     7
 79
     5
170
     0
171
     0
290
     0
174
     0
 93
        1
 44
0.0
173
     0
291
     1
 45
0.0
1001
ACAD
1000
AcDbSavedByObjectVersion
1070
     0
  0
VISUALSTYLE
  5
5A2F
102
{ACAD_XDICTIONARY
360
5C02
102
}
102
{ACAD_REACTORS
330
5A26
102
}
330
5A26
100
AcDbVisualStyle
  2
Conceptual
 70
     9
 71
     3
 72
     2
 73
     0
 90
        0
 40
-0.6
 41
-30.0
 62
     5
 63
     7
 74
     2
 91
        2
 64
     7
 65
   257
 75
     1
175
     1
 42
179.0
 92
        8
 66
     7
 43
1.0
 76
     1
 77
     6
 78
     2
 67
     7
 79
     3
170
     0
171
     0
290
     0
174
     0
 93
        1
 44
0.0
173
     0
291
     0
 45
0.0
1001
ACAD
1000
AcDbSavedByObjectVersion
1070
     0
  0
VISUALSTYLE
  5
5A31
102
{ACAD_XDICTIONARY
360
5C06
102
}
102
{ACAD_REACTORS
330
5A26
102
}
330
5A26
100
AcDbVisualStyle
  2
Dim
 70
    11
 71
     2
 72
     2
 73
     0
 90
        0
 40
-0.6
 41
-30.0
 62
     5
 63
     7
 74
     1
 91
        4
 64
     7
 65
   257
 75
     1
175
     1
 42
1.0
 92
        8
 66
     7
 43
1.0
 76
     1
 77
     6
 78
     2
 67
     7
 79
     5
170
     0
171
     0
290
     0
174
     0
 93
        1
 44
-50.0
173
     0
291
     1
 45
0.0
1001
ACAD
1000
AcDbSavedByObjectVersion
1070
     0
  0
VISUALSTYLE
  5
5A3E
102
{ACAD_XDICTIONARY
360
5C20
102
}
102
{ACAD_REACTORS
330
5A26
102
}
330
5A26
100
AcDbVisualStyle
  2
EdgeColorOff
 70
    22
 71
     2
 72
     2
 73
     0
 90
        0
 40
-0.6
 41
-30.0
 62
     5
 63
     7
 74
     1
 91
        4
 64
     7
 65
   257
 75
     1
175
     1
 42
1.0
 92
        8
 66
     7
 43
1.0
 76
     1
 77
     6
 78
     2
 67
     7
 79
     5
170
     0
171
     0
290
     0
174
     0
 93
        1
 44
0.0
173
     0
291
     1
 45
0.0
1001
ACAD
1000
AcDbSavedByObjectVersion
1070
     0
  0
VISUALSTYLE
  5
5A35
102
{ACAD_XDICTIONARY
360
5C0E
102
}
102
{ACAD_REACTORS
330
5A26
102
}
330
5A26
100
AcDbVisualStyle
  2
Facepattern
 70
    15
 71
     2
 72
     2
 73
     0
 90
        0
 40
-0.6
 41
-30.0
 62
     5
 63
     7
 74
     1
 91
        4
 64
     7
 65
   257
 75
     1
175
     1
 42
1.0
 92
        8
 66
     7
 43
1.0
 76
     1
 77
     6
 78
     2
 67
     7
 79
     5
170
     0
171
     0
290
     0
174
     0
 93
        1
 44
0.0
173
     0
291
     1
 45
0.0
1001
ACAD
1000
AcDbSavedByObjectVersion
1070
     0
  0
VISUALSTYLE
  5
5A27
102
{ACAD_XDICTIONARY
360
5BF2
102
}
102
{ACAD_REACTORS
330
5A26
102
}
330
5A26
100
AcDbVisualStyle
  2
Flat
 70
     0
 71
     2
 72
     1
 73
     1
 90
        2
 40
-0.6
 41
30.0
 62
     5
 63
     7
 74
     0
 91
        0
 64
     7
 65
   257
 75
     1
175
     1
 42
1.0
 92
        8
 66
     7
 43
1.0
 76
     1
 77
     6
 78
     2
 67
     7
 79
     5
170
     0
171
     0
290
     0
174
     0
 93
       13
 44
0.0
173
     0
291
     1
 45
0.0
1001
ACAD
1000
AcDbSavedByObjectVersion
1070
     0
  0
VISUALSTYLE
  5
5A28
102
{ACAD_XDICTIONARY
360
5BF4
102
}
102
{ACAD_REACTORS
330
5A26
102
}
330
5A26
100
AcDbVisualStyle
  2
FlatWithEdges
 70
     1
 71
     2
 72
     1
 73
     1
 90
        2
 40
-0.6
 41
30.0
 62
     5
 63
     7
 74
     1
 91
        0
 64
     7
 65
   257
 75
     1
175
     1
 42
1.0
 92
        0
 66
   257
 43
1.0
 76
     1
 77
     6
 78
     2
 67
     7
 79
     5
170
     0
171
     0
290
     0
174
     0
 93
       13
 44
0.0
173
     0
291
     1
 45
0.0
1001
ACAD
1000
AcDbSavedByObjectVersion
1070
     0
  0
VISUALSTYLE
  5
5A29
102
{ACAD_XDICTIONARY
360
5BF6
102
}
102
{ACAD_REACTORS
330
5A26
102
}
330
5A26
100
AcDbVisualStyle
  2
Gouraud
 70
     2
 71
     2
 72
     2
 73
     1
 90
        2
 40
-0.6
 41
30.0
 62
     5
 63
     7
 74
     0
 91
        0
 64
     7
 65
   257
 75
     1
175
     1
 42
1.0
 92
        0
 66
     7
 43
1.0
 76
     1
 77
     6
 78
     2
 67
     7
 79
     5
170
     0
171
     0
290
     0
174
     0
 93
       13
 44
0.0
173
     0
291
     1
 45
0.0
1001
ACAD
1000
AcDbSavedByObjectVersion
1070
     0
  0
VISUALSTYLE
  5
5A2A
102
{ACAD_XDICTIONARY
360
5BF8
102
}
102
{ACAD_REACTORS
330
5A26
102
}
330
5A26
100
AcDbVisualStyle
  2
GouraudWithEdges
 70
     3
 71
     2
 72
     2
 73
     1
 90
        2
 40
-0.6
 41
30.0
 62
     5
 63
     7
 74
     1
 91
        0
 64
     7
 65
   257
 75
     1
175
     1
 42
1.0
 92
        0
 66
   257
 43
1.0
 76
     1
 77
     6
 78
     2
 67
     7
 79
     5
170
     0
171
     0
290
     0
174
     0
 93
       13
 44
0.0
173
     0
291
     1
 45
0.0
1001
ACAD
1000
AcDbSavedByObjectVersion
1070
     0
  0
VISUALSTYLE
  5
5A2E
102
{ACAD_XDICTIONARY
360
5C00
102
}
102
{ACAD_REACTORS
330
5A26
102
}
330
5A26
100
AcDbVisualStyle
  2
Hidden
 70
     6
 71
     1
 72
     2
 73
     2
 90
        0
 40
-0.6
 41
-30.0
 62
     5
 63
     7
 74
     2
 91
        2
 64
     7
 65
   257
 75
     2
175
     1
 42
40.0
 92
        0
 66
   257
 43
1.0
 76
     1
 77
     6
 78
     2
 67
     7
 79
     3
170
     0
171
     0
290
     0
174
     0
 93
        1
 44
0.0
173
     0
291
     0
 45
0.0
1001
ACAD
1000
AcDbSavedByObjectVersion
1070
     0
  0
VISUALSTYLE
  5
5A3C
102
{ACAD_XDICTIONARY
360
5C1C
102
}
102
{ACAD_REACTORS
330
5A26
102
}
330
5A26
100
AcDbVisualStyle
  2
JitterOff
 70
    20
 71
     2
 72
     2
 73
     0
 90
        0
 40
-0.6
 41
-30.0
 62
     5
 63
     7
 74
     1
 91
        4
 64
     7
 65
   257
 75
     1
175
     1
 42
1.0
 92
       10
 66
     7
 43
1.0
 76
     1
 77
     6
 78
     2
 67
     7
 79
     5
170
     0
171
     0
290
     0
174
     0
 93
        1
 44
0.0
173
     0
291
     1
 45
0.0
1001
ACAD
1000
AcDbSavedByObjectVersion
1070
     0
  0
VISUALSTYLE
  5
5A34
102
{ACAD_XDICTIONARY
360
5C0C
102
}
102
{ACAD_REACTORS
330
5A26
102
}
330
5A26
100
AcDbVisualStyle
  2
Linepattern
 70
    14
 71
     2
 72
     2
 73
     0
 90
        0
 40
-0.6
 41
-30.0
 62
     5
 63
     7
 74
     1
 91
        4
 64
     7
 65
   257
 75
     7
175
     7
 42
1.0
 92
        8
 66
     7
 43
1.0
 76
     1
 77
     6
 78
     2
 67
     7
 79
     5
170
     0
171
     0
290
     0
174
     0
 93
        1
 44
0.0
173
     0
291
     1
 45
0.0
1001
ACAD
1000
AcDbSavedByObjectVersion
1070
     0
  0
VISUALSTYLE
  5
5A3D
102
{ACAD_XDICTIONARY
360
5C1E
102
}
102
{ACAD_REACTORS
330
5A26
102
}
330
5A26
100
AcDbVisualStyle
  2
OverhangOff
 70
    21
 71
     2
 72
     2
 73
     0
 90
        0
 40
-0.6
 41
-30.0
 62
     5
 63
     7
 74
     1
 91
        4
 64
     7
 65
   257
 75
     1
175
     1
 42
1.0
 92
        9
 66
     7
 43
1.0
 76
     1
 77
     6
 78
     2
 67
     7
 79
     5
170
     0
171
     0
290
     0
174
     0
 93
        1
 44
0.0
173
     0
291
     1
 45
0.0
1001
ACAD
1000
AcDbSavedByObjectVersion
1070
     0
  0
VISUALSTYLE
  5
5A30
102
{ACAD_XDICTIONARY
360
5C04
102
}
102
{ACAD_REACTORS
330
5A26
102
}
330
5A26
100
AcDbVisualStyle
  2
Realistic
 70
     8
 71
     2
 72
     3
 73
     0
 90
        2
 40
-0.6
 41
30.0
 62
     5
 63
     7
 74
     0
 91
        0
 64
     7
 65
   257
 75
     1
175
     1
 42
1.0
 92
        8
 66
   257
 43
1.0
 76
     1
 77
     6
 78
     2
 67
     7
 79
     3
170
     0
171
     0
290
     0
174
     0
 93
       13
 44
0.0
173
     0
291
     0
 45
0.0
1001
ACAD
1000
AcDbSavedByObjectVersion
1070
     0
  0
VISUALSTYLE
  5
5A3B
102
{ACAD_XDICTIONARY
360
5C1A
102
}
102
{ACAD_REACTORS
330
5A26
102
}
330
5A26
100
AcDbVisualStyle
  2
Shaded
 70
    27
 71
     2
 72
     2
 73
     1
 90
        2
 40
-0.6
 41
30.0
 62
     5
 63
     7
 74
     0
 91
        4
 64
     7
 65
   257
 75
     1
175
     1
 42
1.0
 92
        8
 66
   257
 43
1.0
 76
     1
 77
     6
 78
     2
 67
     8
 79
     3
170
     0
171
     0
290
     0
174
     0
 93
        5
 44
0.0
173
     0
291
     0
 45
0.0
1001
ACAD
1000
AcDbSavedByObjectVersion
1070
     0
  0
VISUALSTYLE
  5
5A3A
102
{ACAD_XDICTIONARY
360
5C18
102
}
102
{ACAD_REACTORS
330
5A26
102
}
330
5A26
100
AcDbVisualStyle
  2
Shaded with edges
 70
    26
 71
     2
 72
     2
 73
     1
 90
        2
 40
-0.6
 41
30.0
 62
     5
 63
     7
 74
     1
 91
        2
 64
     7
 65
   257
 75
     2
175
     1
 42
1.0
 92
        8
 66
   257
 43
1.0
 76
     1
 77
     6
 78
     2
 67
     7
 79
     3
170
     0
171
     0
290
     0
174
     0
 93
        5
 44
0.0
173
     0
291
     0
 45
0.0
1001
ACAD
1000
AcDbSavedByObjectVersion
1070
     0
  0
VISUALSTYLE
  5
5A37
102
{ACAD_XDICTIONARY
360
5C12
102
}
102
{ACAD_REACTORS
330
5A26
102
}
330
5A26
100
AcDbVisualStyle
  2
Shades of Gray
 70
    23
 71
     2
 72
     2
 73
     3
 90
        0
 40
-0.6
 41
-30.0
 62
     5
 63
     7
 74
     2
 91
        2
 64
     7
 65
     7
 75
     1
175
     1
 42
40.0
 92
        8
 66
     7
 43
1.0
 76
     1
 77
     6
 78
     2
 67
     7
 79
     3
170
     0
171
     0
290
     0
174
     0
 93
        1
 44
0.0
173
     0
291
     0
 45
0.0
1001
ACAD
1000
AcDbSavedByObjectVersion
1070
     0
  0
VISUALSTYLE
  5
5A38
102
{ACAD_XDICTIONARY
360
5C14
102
}
102
{ACAD_REACTORS
330
5A26
102
}
330
5A26
100
AcDbVisualStyle
  2
Sketchy
 70
    24
 71
     1
 72
     2
 73
     2
 90
        0
 40
-0.6
 41
-30.0
 62
     5
 63
     7
 74
     2
 91
        2
 64
     7
 65
     7
 75
     1
175
     1
 42
40.0
 92
       11
 66
     7
 43
1.0
 76
     1
 77
     6
 78
     2
 67
     7
 79
     6
170
     0
171
     0
290
     0
174
     0
 93
        1
 44
0.0
173
     0
291
     0
 45
0.0
1001
ACAD
1000
AcDbSavedByObjectVersion
1070
     0
  0
VISUALSTYLE
  5
5A33
102
{ACAD_XDICTIONARY
360
5C0A
102
}
102
{ACAD_REACTORS
330
5A26
102
}
330
5A26
100
AcDbVisualStyle
  2
Thicken
 70
    13
 71
     2
 72
     2
 73
     0
 90
        0
 40
-0.6
 41
-30.0
 62
     5
 63
     7
 74
     1
 91
        4
 64
     7
 65
   257
 75
     1
175
     1
 42
1.0
 92
       12
 66
     7
 43
1.0
 76
     1
 77
     6
 78
     2
 67
     7
 79
     5
170
     0
171
     0
290
     0
174
     0
 93
        1
 44
0.0
173
     0
291
     1
 45
0.0
1001
ACAD
1000
AcDbSavedByObjectVersion
1070
     0
  0
VISUALSTYLE
  5
5A2D
102
{ACAD_XDICTIONARY
360
5BFE
102
}
102
{ACAD_REACTORS
330
5A26
102
}
330
5A26
100
AcDbVisualStyle
  2
Wireframe
 70
     5
 71
     0
 72
     2
 73
     0
 90
        0
 40
-0.6
 41
-30.0
 62
     5
 63
     7
 74
     1
 91
        4
 64
     7
 65
   257
 75
     1
175
     1
 42
1.0
 92
        0
 66
   257
 43
1.0
 76
     1
 77
     6
 78
     2
 67
     7
 79
     3
170
     0
171
     0
290
     0
174
     0
 93
        1
 44
0.0
173
     0
291
     0
 45
0.0
1001
ACAD
1000
AcDbSavedByObjectVersion
1070
     0
  0
VISUALSTYLE
  5
5A39
102
{ACAD_XDICTIONARY
360
5C16
102
}
102
{ACAD_REACTORS
330
5A26
102
}
330
5A26
100
AcDbVisualStyle
  2
X-Ray
 70
    25
 71
     2
 72
     2
 73
     1
 90
        1
 40
0.5
 41
-30.0
 62
     5
 63
     7
 74
     1
 91
        0
 64
     7
 65
   257
 75
     1
175
     1
 42
1.0
 92
        8
 66
     7
 43
1.0
 76
     1
 77
     6
 78
     2
 67
     7
 79
     3
170
     0
171
     0
290
     0
174
     0
 93
       13
 44
0.0
173
     0
291
     0
 45
0.0
1001
ACAD
1000
AcDbSavedByObjectVersion
1070
     0
  0
DICTIONARYVAR
  5
5BD1
102
{ACAD_REACTORS
330
5BCB
102
}
330
5BCB
100
DictionaryVariables
280
     0
  1
1:1
  0
DICTIONARYVAR
  5
5BCD
102
{ACAD_REACTORS
330
5BCB
102
}
330
5BCB
100
DictionaryVariables
280
     0
  1
STANDARD
  0
DICTIONARYVAR
  5
5BCC
102
{ACAD_REACTORS
330
5BCB
102
}
330
5BCB
100
DictionaryVariables
280
     0
  1
STANDARD
  0
DICTIONARYVAR
  5
5BCE
102
{ACAD_REACTORS
330
5BCB
102
}
330
5BCB
100
DictionaryVariables
280
     0
  1
Metric50
  0
DICTIONARYVAR
  5
5BCF
102
{ACAD_REACTORS
330
5BCB
102
}
330
5BCB
100
DictionaryVariables
280
     0
  1
Metric50
  0
DICTIONARYVAR
  5
5BDD
102
{ACAD_REACTORS
330
5BCB
102
}
330
5BCB
100
DictionaryVariables
280
     0
  1
1
  0
DICTIONARYVAR
  5
5BDC
102
{ACAD_REACTORS
330
5BCB
102
}
330
5BCB
100
DictionaryVariables
280
     0
  1
0
  0
DICTIONARYVAR
  5
5BD3
102
{ACAD_REACTORS
330
5BCB
102
}
330
5BCB
100
DictionaryVariables
280
     0
  1
1
  0
DICTIONARYVAR
  5
5BD4
102
{ACAD_REACTORS
330
5BCB
102
}
330
5BCB
100
DictionaryVariables
280
     0
  1
15
  0
DICTIONARYVAR
  5
5BD2
102
{ACAD_REACTORS
330
5BCB
102
}
330
5BCB
100
DictionaryVariables
280
     0
  1
0
  0
DICTIONARYVAR
  5
5BD0
102
{ACAD_REACTORS
330
5BCB
102
}
330
5BCB
100
DictionaryVariables
280
     0
  1
0
  0
DICTIONARYVAR
  5
5BDB
102
{ACAD_REACTORS
330
5BCB
102
}
330
5BCB
100
DictionaryVariables
280
     0
  1
127
  0
DICTIONARYVAR
  5
5BDE
102
{ACAD_REACTORS
330
5BCB
102
}
330
5BCB
100
DictionaryVariables
280
     0
  1
2
  0
DICTIONARY
  5
5BEA
102
{ACAD_REACTORS
330
5BE8
102
}
330
5BE8
100
AcDbDictionary
281
     1
  0
DICTIONARY
  5
5BE9
102
{ACAD_REACTORS
330
5BE8
102
}
330
5BE8
100
AcDbDictionary
281
     1
  3
140687754101680
350
5BE3
  3
140687754101696
350
5BE4
  3
140687754101712
350
5BE5
  3
140687754101728
350
5BE6
  3
140687754101744
350
5BE7
  0
DICTIONARY
  5
5BC9
330
5A59
100
AcDbDictionary
280
     1
281
     1
  3
ACAD_XREC_ROUNDTRIP
360
5BCA
  0
DICTIONARY
  5
5BEB
330
1E94
100
AcDbDictionary
280
     1
281
     1
  3
ACAD_XREC_ROUNDTRIP
360
5BEC
  0
DICTIONARY
  5
5BED
330
1E95
100
AcDbDictionary
280
     1
281
     1
  3
ACAD_XREC_ROUNDTRIP
360
5BEE
  0
DICTIONARY
  5
5A17
330
5A16
100
AcDbDictionary
280
     1
281
     1
  3
ACAD_XREC_ROUNDTRIP
360
5BF0
  3
BUMPTILE
360
5A19
  3
DIFFUSETILE
360
5A18
  3
OPACITYTILE
360
5A1C
  3
REFLECTIONTILE
360
5A1B
  3
REFRACTIONTILE
360
5A1D
  3
SPECULARTILE
360
5A1A
  0
DICTIONARY
  5
5A0F
330
5A0E
100
AcDbDictionary
280
     1
281
     1
  3
ACAD_XREC_ROUNDTRIP
360
5BEF
  3
BUMPTILE
360
5A11
  3
DIFFUSETILE
360
5A10
  3
OPACITYTILE
360
5A14
  3
REFLECTIONTILE
360
5A13
  3
REFRACTIONTILE
360
5A15
  3
SPECULARTILE
360
5A12
  0
DICTIONARY
  5
5A1F
330
5A1E
100
AcDbDictionary
280
     1
281
     1
  3
ACAD_XREC_ROUNDTRIP
360
5BF1
  3
BUMPTILE
360
5A21
  3
DIFFUSETILE
360
5A20
  3
OPACITYTILE
360
5A24
  3
REFLECTIONTILE
360
5A23
  3
REFRACTIONTILE
360
5A25
  3
SPECULARTILE
360
5A22
  0
DICTIONARY
  5
5C24
330
5A55
100
AcDbDictionary
280
     1
281
     1
  3
ACAD_XREC_ROUNDTRIP
360
5C25
  0
DICTIONARY
  5
5BC7
330
5A57
100
AcDbDictionary
280
     1
281
     1
  3
ACAD_XREC_ROUNDTRIP
360
5BC8
  0
DICTIONARY
  5
5BDF
330
5A41
100
AcDbDictionary
280
     1
281
     1
  3
ACAD_ROUNDTRIP_2008_TABLESTYLE_CELLSTYLEMAP
360
5BE0
  3
ACAD_XREC_ROUNDTRIP
360
5C22
  0
DICTIONARY
  5
5BFC
330
5A2C
100
AcDbDictionary
280
     1
281
     1
  3
ACAD_XREC_ROUNDTRIP
360
5BFD
  0
DICTIONARY
  5
5BFA
330
5A2B
100
AcDbDictionary
280
     1
281
     1
  3
ACAD_XREC_ROUNDTRIP
360
5BFB
  0
DICTIONARY
  5
5C08
330
5A32
100
AcDbDictionary
280
     1
281
     1
  3
ACAD_XREC_ROUNDTRIP
360
5C09
  0
DICTIONARY
  5
5C10
330
5A36
100
AcDbDictionary
280
     1
281
     1
  3
ACAD_XREC_ROUNDTRIP
360
5C11
  0
DICTIONARY
  5
5C02
330
5A2F
100
AcDbDictionary
280
     1
281
     1
  3
ACAD_XREC_ROUNDTRIP
360
5C03
  0
DICTIONARY
  5
5C06
330
5A31
100
AcDbDictionary
280
     1
281
     1
  3
ACAD_XREC_ROUNDTRIP
360
5C07
  0
DICTIONARY
  5
5C20
330
5A3E
100
AcDbDictionary
280
     1
281
     1
  3
ACAD_XREC_ROUNDTRIP
360
5C21
  0
DICTIONARY
  5
5C0E
330
5A35
100
AcDbDictionary
280
     1
281
     1
  3
ACAD_XREC_ROUNDTRIP
360
5C0F
  0
DICTIONARY
  5
5BF2
330
5A27
100
AcDbDictionary
280
     1
281
     1
  3
ACAD_XREC_ROUNDTRIP
360
5BF3
  0
DICTIONARY
  5
5BF4
330
5A28
100
AcDbDictionary
280
     1
281
     1
  3
ACAD_XREC_ROUNDTRIP
360
5BF5
  0
DICTIONARY
  5
5BF6
330
5A29
100
AcDbDictionary
280
     1
281
     1
  3
ACAD_XREC_ROUNDTRIP
360
5BF7
  0
DICTIONARY
  5
5BF8
330
5A2A
100
AcDbDictionary
280
     1
281
     1
  3
ACAD_XREC_ROUNDTRIP
360
5BF9
  0
DICTIONARY
  5
5C00
330
5A2E
100
AcDbDictionary
280
     1
281
     1
  3
ACAD_XREC_ROUNDTRIP
360
5C01
  0
DICTIONARY
  5
5C1C
330
5A3C
100
AcDbDictionary
280
     1
281
     1
  3
ACAD_XREC_ROUNDTRIP
360
5C1D
  0
DICTIONARY
  5
5C0C
330
5A34
100
AcDbDictionary
280
     1
281
     1
  3
ACAD_XREC_ROUNDTRIP
360
5C0D
  0
DICTIONARY
  5
5C1E
330
5A3D
100
AcDbDictionary
280
     1
281
     1
  3
ACAD_XREC_ROUNDTRIP
360
5C1F
  0
DICTIONARY
  5
5C04
330
5A30
100
AcDbDictionary
280
     1
281
     1
  3
ACAD_XREC_ROUNDTRIP
360
5C05
  0
DICTIONARY
  5
5C1A
330
5A3B
100
AcDbDictionary
280
     1
281
     1
  3
ACAD_XREC_ROUNDTRIP
360
5C1B
  0
DICTIONARY
  5
5C18
330
5A3A
100
AcDbDictionary
280
     1
281
     1
  3
ACAD_XREC_ROUNDTRIP
360
5C19
  0
DICTIONARY
  5
5C12
330
5A37
100
AcDbDictionary
280
     1
281
     1
  3
ACAD_XREC_ROUNDTRIP
360
5C13
  0
DICTIONARY
  5
5C14
330
5A38
100
AcDbDictionary
280
     1
281
     1
  3
ACAD_XREC_ROUNDTRIP
360
5C15
  0
DICTIONARY
  5
5C0A
330
5A33
100
AcDbDictionary
280
     1
281
     1
  3
ACAD_XREC_ROUNDTRIP
360
5C0B
  0
DICTIONARY
  5
5BFE
330
5A2D
100
AcDbDictionary
280
     1
281
     1
  3
ACAD_XREC_ROUNDTRIP
360
5BFF
  0
DICTIONARY
  5
5C16
330
5A39
100
AcDbDictionary
280
     1
281
     1
  3
ACAD_XREC_ROUNDTRIP
360
5C17
  0
XRECORD
  5
5BE3
102
{ACAD_REACTORS
330
5BE9
102
}
330
5BE9
100
AcDbXrecord
280
     1
  1
AcDb_Thumbnail_Schema
102
{ATTRRECORD
341
5BE4
  2
AcDbDs::TreatedAsObjectData
280
     1
291
     1
102
ATTRRECORD}
102
{ATTRRECORD
341
5BE5
  2
AcDbDs::Legacy
280
     1
291
     1
102
ATTRRECORD}
  2
AcDbDs::ID
280
    10
 91
        8
102
{ATTRRECORD
341
5BE6
  2
AcDs:Indexable
280
     1
291
     1
102
ATTRRECORD}
102
{ATTRRECORD
341
5BE7
  2
AcDbDs::HandleAttribute
280
     7
282
     1
102
ATTRRECORD}
  2
Thumbnail_Data
280
    15
 91
        0
  0
XRECORD
  5
5BE4
102
{ACAD_REACTORS
330
5BE9
102
}
330
5BE9
100
AcDbXrecord
280
     1
  1
AcDbDs::TreatedAsObjectDataSchema
  2
AcDbDs::TreatedAsObjectData
280
     1
 91
        0
  0
XRECORD
  5
5BE5
102
{ACAD_REACTORS
330
5BE9
102
}
330
5BE9
100
AcDbXrecord
280
     1
  1
AcDbDs::LegacySchema
  2
AcDbDs::Legacy
280
     1
 91
        0
  0
XRECORD
  5
5BE6
102
{ACAD_REACTORS
330
5BE9
102
}
330
5BE9
100
AcDbXrecord
280
     1
  1
AcDbDs::IndexedPropertySchema
  2
AcDs:Indexable
280
     1
 91
        0
  0
XRECORD
  5
5BE7
102
{ACAD_REACTORS
330
5BE9
102
}
330
5BE9
100
AcDbXrecord
280
     1
  1
AcDbDs::HandleAttributeSchema
  2
AcDbDs::HandleAttribute
280
     7
 91
        1
284
     1
  0
XRECORD
  5
5BCA
102
{ACAD_REACTORS
330
5BC9
102
}
330
5BC9
100
AcDbXrecord
280
     1
102
DISPLAYNAME
  1
Metric50
102
FLAGS
 90
        0
  0
XRECORD
  5
5BEC
102
{ACAD_REACTORS
330
5BEB
102
}
330
5BEB
100
AcDbXrecord
280
     1
102
SHADEPLOT
 70
     0
102
SHADEPLOTRESLEVEL
 70
     2
102
SHADEPLOTCUSTOMDPI
 70
   300
  0
XRECORD
  5
5BEE
102
{ACAD_REACTORS
330
5BED
102
}
330
5BED
100
AcDbXrecord
280
     1
102
SHADEPLOT
 70
     0
102
SHADEPLOTRESLEVEL
 70
     2
102
SHADEPLOTCUSTOMDPI
 70
   300
  0
XRECORD
  5
5BF0
102
{ACAD_REACTORS
330
5A17
102
}
330
5A17
100
AcDbXrecord
280
     1
102
MATERIAL
148
0.0
149
0.0
149
0.0
 93
        0
 94
      127
282
     0
 72
     0
 77
     0
171
     0
175
     0
179
     0
273
     0
  0
XRECORD
  5
5A19
102
{ACAD_REACTORS
330
5A17
102
}
330
5A17
100
AcDbXrecord
280
     1
270
     1
271
     1
  0
XRECORD
  5
5A18
102
{ACAD_REACTORS
330
5A17
102
}
330
5A17
100
AcDbXrecord
280
     1
270
     1
271
     1
  0
XRECORD
  5
5A1C
102
{ACAD_REACTORS
330
5A17
102
}
330
5A17
100
AcDbXrecord
280
     1
270
     1
271
     1
  0
XRECORD
  5
5A1B
102
{ACAD_REACTORS
330
5A17
102
}
330
5A17
100
AcDbXrecord
280
     1
270
     1
271
     1
  0
XRECORD
  5
5A1D
102
{ACAD_REACTORS
330
5A17
102
}
330
5A17
100
AcDbXrecord
280
     1
270
     1
271
     1
  0
XRECORD
  5
5A1A
102
{ACAD_REACTORS
330
5A17
102
}
330
5A17
100
AcDbXrecord
280
     1
270
     1
271
     1
  0
XRECORD
  5
5BEF
102
{ACAD_REACTORS
330
5A0F
102
}
330
5A0F
100
AcDbXrecord
280
     1
102
MATERIAL
148
0.0
149
0.0
149
0.0
 93
        0
 94
      127
282
     0
 72
     0
 77
     0
171
     0
175
     0
179
     0
273
     0
  0
XRECORD
  5
5A11
102
{ACAD_REACTORS
330
5A0F
102
}
330
5A0F
100
AcDbXrecord
280
     1
270
     1
271
     1
  0
XRECORD
  5
5A10
102
{ACAD_REACTORS
330
5A0F
102
}
330
5A0F
100
AcDbXrecord
280
     1
270
     1
271
     1
  0
XRECORD
  5
5A14
102
{ACAD_REACTORS
330
5A0F
102
}
330
5A0F
100
AcDbXrecord
280
     1
270
     1
271
     1
  0
XRECORD
  5
5A13
102
{ACAD_REACTORS
330
5A0F
102
}
330
5A0F
100
AcDbXrecord
280
     1
270
     1
271
     1
  0
XRECORD
  5
5A15
102
{ACAD_REACTORS
330
5A0F
102
}
330
5A0F
100
AcDbXrecord
280
     1
270
     1
271
     1
  0
XRECORD
  5
5A12
102
{ACAD_REACTORS
330
5A0F
102
}
330
5A0F
100
AcDbXrecord
280
     1
270
     1
271
     1
  0
XRECORD
  5
5BF1
102
{ACAD_REACTORS
330
5A1F
102
}
330
5A1F
100
AcDbXrecord
280
     1
102
MATERIAL
148
0.0
149
0.0
149
0.0
 93
        0
 94
      127
282
     0
 72
     0
 77
     0
171
     0
175
     0
179
     0
273
     0
  0
XRECORD
  5
5A21
102
{ACAD_REACTORS
330
5A1F
102
}
330
5A1F
100
AcDbXrecord
280
     1
270
     1
271
     1
  0
XRECORD
  5
5A20
102
{ACAD_REACTORS
330
5A1F
102
}
330
5A1F
100
AcDbXrecord
280
     1
270
     1
271
     1
  0
XRECORD
  5
5A24
102
{ACAD_REACTORS
330
5A1F
102
}
330
5A1F
100
AcDbXrecord
280
     1
270
     1
271
     1
  0
XRECORD
  5
5A23
102
{ACAD_REACTORS
330
5A1F
102
}
330
5A1F
100
AcDbXrecord
280
     1
270
     1
271
     1
  0
XRECORD
  5
5A25
102
{ACAD_REACTORS
330
5A1F
102
}
330
5A1F
100
AcDbXrecord
280
     1
270
     1
271
     1
  0
XRECORD
  5
5A22
102
{ACAD_REACTORS
330
5A1F
102
}
330
5A1F
100
AcDbXrecord
280
     1
270
     1
271
     1
  0
XRECORD
  5
5C25
102
{ACAD_REACTORS
330
5C24
102
}
330
5C24
100
AcDbXrecord
280
     1
102
ACAD_ROUNDTRIP_2012_MLEADER_STYLE
298
     1
  0
XRECORD
  5
5BC8
102
{ACAD_REACTORS
330
5BC7
102
}
330
5BC7
100
AcDbXrecord
280
     1
102
DISPLAYNAME
  1
Metric50
102
FLAGS
 90
        0
  0
CELLSTYLEMAP
  5
5BE0
102
{ACAD_REACTORS
330
5BDF
102
}
330
5BDF
100
AcDbCellStyleMap
 90
        3
300
CELLSTYLE
  1
TABLEFORMAT_BEGIN
 90
        5
170
     1
 91
        0
 92
    32768
 62
   257
 93
        1
300
CONTENTFORMAT
  1
CONTENTFORMAT_BEGIN
 90
        0
 91
        0
 92
      512
 93
        0
300

 40
0.0
140
1.0
 94
        5
 62
     0
340
10
144
6.0
309
CONTENTFORMAT_END
171
     1
301
MARGIN
  1
CELLMARGIN_BEGIN
 40
1.5
 40
1.5
 40
1.5
 40
1.5
 40
4.5
 40
4.5
309
CELLMARGIN_END
 94
        6
 95
        1
302
GRIDFORMAT
  1
GRIDFORMAT_BEGIN
 90
        0
 91
        1
 62
     0
 92
       -2
340
0
 93
        0
 40
1.125
309
GRIDFORMAT_END
 95
        2
302
GRIDFORMAT
  1
GRIDFORMAT_BEGIN
 90
        0
 91
        1
 62
     0
 92
       -2
340
0
 93
        0
 40
1.125
309
GRIDFORMAT_END
 95
        4
302
GRIDFORMAT
  1
GRIDFORMAT_BEGIN
 90
        0
 91
        1
 62
     0
 92
       -2
340
0
 93
        0
 40
1.125
309
GRIDFORMAT_END
 95
        8
302
GRIDFORMAT
  1
GRIDFORMAT_BEGIN
 90
        0
 91
        1
 62
     0
 92
       -2
340
0
 93
        0
 40
1.125
309
GRIDFORMAT_END
 95
       16
302
GRIDFORMAT
  1
GRIDFORMAT_BEGIN
 90
        0
 91
        1
 62
     0
 92
       -2
340
0
 93
        0
 40
1.125
309
GRIDFORMAT_END
 95
       32
302
GRIDFORMAT
  1
GRIDFORMAT_BEGIN
 90
        0
 91
        1
 62
     0
 92
       -2
340
0
 93
        0
 40
1.125
309
GRIDFORMAT_END
309
TABLEFORMAT_END
  1
CELLSTYLE_BEGIN
 90
        1
 91
        1
300
_TITLE
309
CELLSTYLE_END
300
CELLSTYLE
  1
TABLEFORMAT_BEGIN
 90
        5
170
     1
 91
        0
 92
        0
 62
   257
 93
        1
300
CONTENTFORMAT
  1
CONTENTFORMAT_BEGIN
 90
        0
 91
        0
 92
      512
 93
        0
300

 40
0.0
140
1.0
 94
        5
 62
     0
340
10
144
4.5
309
CONTENTFORMAT_END
171
     1
301
MARGIN
  1
CELLMARGIN_BEGIN
 40
1.5
 40
1.5
 40
1.5
 40
1.5
 40
4.5
 40
4.5
309
CELLMARGIN_END
 94
        6
 95
        1
302
GRIDFORMAT
  1
GRIDFORMAT_BEGIN
 90
        0
 91
        1
 62
     0
 92
       -2
340
0
 93
        0
 40
1.125
309
GRIDFORMAT_END
 95
        2
302
GRIDFORMAT
  1
GRIDFORMAT_BEGIN
 90
        0
 91
        1
 62
     0
 92
       -2
340
0
 93
        0
 40
1.125
309
GRIDFORMAT_END
 95
        4
302
GRIDFORMAT
  1
GRIDFORMAT_BEGIN
 90
        0
 91
        1
 62
     0
 92
       -2
340
0
 93
        0
 40
1.125
309
GRIDFORMAT_END
 95
        8
302
GRIDFORMAT
  1
GRIDFORMAT_BEGIN
 90
        0
 91
        1
 62
     0
 92
       -2
340
0
 93
        0
 40
1.125
309
GRIDFORMAT_END
 95
       16
302
GRIDFORMAT
  1
GRIDFORMAT_BEGIN
 90
        0
 91
        1
 62
     0
 92
       -2
340
0
 93
        0
 40
1.125
309
GRIDFORMAT_END
 95
       32
302
GRIDFORMAT
  1
GRIDFORMAT_BEGIN
 90
        0
 91
        1
 62
     0
 92
       -2
340
0
 93
        0
 40
1.125
309
GRIDFORMAT_END
309
TABLEFORMAT_END
  1
CELLSTYLE_BEGIN
 90
        2
 91
        1
300
_HEADER
309
CELLSTYLE_END
300
CELLSTYLE
  1
TABLEFORMAT_BEGIN
 90
        5
170
     1
 91
        0
 92
        0
 62
   257
 93
        1
300
CONTENTFORMAT
  1
CONTENTFORMAT_BEGIN
 90
        0
 91
        0
 92
      512
 93
        0
300

 40
0.0
140
1.0
 94
        2
 62
     0
340
10
144
4.5
309
CONTENTFORMAT_END
171
     1
301
MARGIN
  1
CELLMARGIN_BEGIN
 40
1.5
 40
1.5
 40
1.5
 40
1.5
 40
4.5
 40
4.5
309
CELLMARGIN_END
 94
        6
 95
        1
302
GRIDFORMAT
  1
GRIDFORMAT_BEGIN
 90
        0
 91
        1
 62
     0
 92
       -2
340
0
 93
        0
 40
1.125
309
GRIDFORMAT_END
 95
        2
302
GRIDFORMAT
  1
GRIDFORMAT_BEGIN
 90
        0
 91
        1
 62
     0
 92
       -2
340
0
 93
        0
 40
1.125
309
GRIDFORMAT_END
 95
        4
302
GRIDFORMAT
  1
GRIDFORMAT_BEGIN
 90
        0
 91
        1
 62
     0
 92
       -2
340
0
 93
        0
 40
1.125
309
GRIDFORMAT_END
 95
        8
302
GRIDFORMAT
  1
GRIDFORMAT_BEGIN
 90
        0
 91
        1
 62
     0
 92
       -2
340
0
 93
        0
 40
1.125
309
GRIDFORMAT_END
 95
       16
302
GRIDFORMAT
  1
GRIDFORMAT_BEGIN
 90
        0
 91
        1
 62
     0
 92
       -2
340
0
 93
        0
 40
1.125
309
GRIDFORMAT_END
 95
       32
302
GRIDFORMAT
  1
GRIDFORMAT_BEGIN
 90
        0
 91
        1
 62
     0
 92
       -2
340
0
 93
        0
 40
1.125
309
GRIDFORMAT_END
309
TABLEFORMAT_END
  1
CELLSTYLE_BEGIN
 90
        3
 91
        2
300
_DATA
309
CELLSTYLE_END
  0
XRECORD
  5
5C22
102
{ACAD_REACTORS
330
5BDF
102
}
330
5BDF
100
AcDbXrecord
280
     1
102
ACAD_ROUNDTRIP_PRE2007_TABLESTYLE
 90
      512
 91
        0
  1

 92
      512
 93
        0
  2

 94
      512
 95
        0
  3

  0
XRECORD
  5
5BFD
102
{ACAD_REACTORS
330
5BFC
102
}
330
5BFC
100
AcDbXrecord
280
     1
102
RTVSPost2010Prop28
280
     1
102
RTVSPost2010PropOp28
 70
     1
102
RTVSPost2010Prop29
280
     1
102
RTVSPost2010PropOp29
 70
     1
102
RTVSPost2010Prop30
280
     0
102
RTVSPost2010PropOp30
 70
     1
102
RTVSPost2010Prop31
280
     0
102
RTVSPost2010PropOp31
 70
     1
102
RTVSPost2010Prop32
280
     0
102
RTVSPost2010PropOp32
 70
     1
102
RTVSPost2010Prop33
280
     0
102
RTVSPost2010PropOp33
 70
     1
102
RTVSPost2010Prop34
280
     0
102
RTVSPost2010PropOp34
 70
     1
102
RTVSPost2010Prop35
280
     0
102
RTVSPost2010PropOp35
 70
     1
102
RTVSPost2010Prop36
280
     0
102
RTVSPost2010PropOp36
 70
     1
102
RTVSPost2010Prop37
 90
       50
102
RTVSPost2010PropOp37
 70
     1
102
RTVSPost2010Prop38
140
0.0
102
RTVSPost2010PropOp38
 70
     1
102
RTVSPost2010Prop39
140
1.0
102
RTVSPost2010PropOp39
 70
     1
102
RTVSPost2010Prop40
 90
        0
102
RTVSPost2010PropOp40
 70
     1
102
RTVSPost2010Prop41ColorIndex
 90
       18
102
RTVSPost2010Prop41ColorRGB
 90
        0
102
RTVSPost2010PropOp41
 70
     1
102
RTVSPost2010Prop42
 90
       50
102
RTVSPost2010PropOp42
 70
     1
102
RTVSPost2010Prop43
 90
        3
102
RTVSPost2010PropOp43
 70
     1
102
RTVSPost2010Prop44ColorIndex
 90
        5
102
RTVSPost2010Prop44ColorRGB
 90
      255
102
RTVSPost2010PropOp44
 70
     1
102
RTVSPost2010Prop45
280
     0
102
RTVSPost2010PropOp45
 70
     1
102
RTVSPost2010Prop46
 90
       50
102
RTVSPost2010PropOp46
 70
     1
102
RTVSPost2010Prop47
 90
       50
102
RTVSPost2010PropOp47
 70
     1
102
RTVSPost2010Prop48
 90
       50
102
RTVSPost2010PropOp48
 70
     1
102
RTVSPost2010Prop49
280
     0
102
RTVSPost2010PropOp49
 70
     1
102
RTVSPost2010Prop50
 90
       50
102
RTVSPost2010PropOp50
 70
     1
102
RTVSPost2010Prop51ColorIndex
 90
      256
102
RTVSPost2010Prop51ColorRGB
 90
-16777216
102
RTVSPost2010PropOp51
 70
     0
102
RTVSPost2010Prop52
140
1.0
102
RTVSPost2010PropOp52
 70
     0
102
RTVSPost2010Prop53
 90
        2
102
RTVSPost2010PropOp53
 70
     1
102
RTVSPost2010Prop54
  1
strokes_ogs.tif
102
RTVSPost2010PropOp54
 70
     1
102
RTVSPost2010Prop55
280
     0
102
RTVSPost2010PropOp55
 70
     1
102
RTVSPost2010Prop56
140
1.0
102
RTVSPost2010PropOp56
 70
     1
102
RTVSPost2010Prop57
140
1.0
102
RTVSPost2010PropOp57
 70
     1
102
RTVSPropertyOp0
 70
     1
102
RTVSPropertyOp1
 70
     1
102
RTVSPropertyOp2
 70
     1
102
RTVSPropertyOp3
 70
     1
102
RTVSPropertyOp4
 70
     1
102
RTVSPropertyOp5
 70
     1
102
RTVSPropertyOp6
 70
     1
102
RTVSPropertyOp7
 70
     1
102
RTVSPropertyOp8
 70
     1
102
RTVSPropertyOp9
 70
     1
102
RTVSPropertyOp10
 70
     1
102
RTVSPropertyOp11
 70
     1
102
RTVSPropertyOp12
 70
     1
102
RTVSPropertyOp13
 70
     1
102
RTVSPropertyOp14
 70
     1
102
RTVSPropertyOp15
 70
     1
102
RTVSPropertyOp16
 70
     1
102
RTVSPropertyOp17
 70
     1
102
RTVSPropertyOp18
 70
     1
102
RTVSPropertyOp19
 70
     1
102
RTVSPropertyOp20
 70
     1
102
RTVSPropertyOp21
 70
     1
102
RTVSPropertyOp22
 70
     1
102
RTVSPropertyOp23
 70
     1
102
RTVSPropertyOp24
 70
     1
102
RTVSPropertyOp25
 70
     1
102
RTVSPropertyOp26
 70
     1
102
RTVSPropertyOp27
 70
     1
102
RTVSPropertyOp28
 70
     1
102
RTVSPropertyOp29
 70
     1
102
RTVSPropertyOp30
 70
     1
102
RTVSPropertyOp31
 70
     1
102
RTVSPropertyOp32
 70
     1
102
RTVSPropertyOp33
 70
     1
102
RTVSPropertyOp34
 70
     1
102
RTVSPropertyOp35
 70
     1
102
RTVSPropertyOp36
 70
     1
102
RTVSPropertyOp37
 70
     1
102
RTVSPropertyOp38
 70
     1
102
RTVSPropertyOp39
 70
     1
102
RTVSPropertyOp40
 70
     1
102
RTVSPropertyOp41
 70
     1
102
RTVSPropertyOp42
 70
     1
102
RTVSPropertyOp43
 70
     1
102
RTVSPropertyOp44
 70
     1
102
RTVSPropertyOp45
 70
     1
102
RTVSPropertyOp46
 70
     1
102
RTVSPropertyOp47
 70
     1
102
RTVSPropertyOp48
 70
     1
102
RTVSPropertyOp49
 70
     1
102
RTVSPropertyOp50
 70
     1
102
RTVSPropertyOp51
 70
     0
102
RTVSPropertyOp52
 70
     0
102
RTVSPropertyOp53
 70
     1
102
RTVSPropertyOp54
 70
     1
102
RTVSPropertyOp55
 70
     1
102
RTVSPropertyOp56
 70
     1
102
RTVSPropertyOp57
 70
     1
102
RTVSPropertyOp58
 70
     1
102
RTVSPropertyOp59
 70
     1
102
RTVSPropertyOp60
 70
     1
102
RTVSPropertyOp61
 70
     1
102
RTVSPropertyOp62
 70
     1
  0
XRECORD
  5
5BFB
102
{ACAD_REACTORS
330
5BFA
102
}
330
5BFA
100
AcDbXrecord
280
     1
102
RTVSPost2010Prop28
280
     0
102
RTVSPost2010PropOp28
 70
     1
102
RTVSPost2010Prop29
280
     1
102
RTVSPost2010PropOp29
 70
     1
102
RTVSPost2010Prop30
280
     1
102
RTVSPost2010PropOp30
 70
     1
102
RTVSPost2010Prop31
280
     0
102
RTVSPost2010PropOp31
 70
     1
102
RTVSPost2010Prop32
280
     0
102
RTVSPost2010PropOp32
 70
     1
102
RTVSPost2010Prop33
280
     0
102
RTVSPost2010PropOp33
 70
     1
102
RTVSPost2010Prop34
280
     0
102
RTVSPost2010PropOp34
 70
     1
102
RTVSPost2010Prop35
280
     0
102
RTVSPost2010PropOp35
 70
     1
102
RTVSPost2010Prop36
280
     0
102
RTVSPost2010PropOp36
 70
     1
102
RTVSPost2010Prop37
 90
       50
102
RTVSPost2010PropOp37
 70
     1
102
RTVSPost2010Prop38
140
0.0
102
RTVSPost2010PropOp38
 70
     1
102
RTVSPost2010Prop39
140
1.0
102
RTVSPost2010PropOp39
 70
     1
102
RTVSPost2010Prop40
 90
        0
102
RTVSPost2010PropOp40
 70
     1
102
RTVSPost2010Prop41ColorIndex
 90
       18
102
RTVSPost2010Prop41ColorRGB
 90
        0
102
RTVSPost2010PropOp41
 70
     1
102
RTVSPost2010Prop42
 90
       50
102
RTVSPost2010PropOp42
 70
     1
102
RTVSPost2010Prop43
 90
        3
102
RTVSPost2010PropOp43
 70
     1
102
RTVSPost2010Prop44ColorIndex
 90
        5
102
RTVSPost2010Prop44ColorRGB
 90
      255
102
RTVSPost2010PropOp44
 70
     1
102
RTVSPost2010Prop45
280
     0
102
RTVSPost2010PropOp45
 70
     1
102
RTVSPost2010Prop46
 90
       50
102
RTVSPost2010PropOp46
 70
     1
102
RTVSPost2010Prop47
 90
       50
102
RTVSPost2010PropOp47
 70
     1
102
RTVSPost2010Prop48
 90
       50
102
RTVSPost2010PropOp48
 70
     1
102
RTVSPost2010Prop49
280
     0
102
RTVSPost2010PropOp49
 70
     1
102
RTVSPost2010Prop50
 90
       50
102
RTVSPost2010PropOp50
 70
     1
102
RTVSPost2010Prop51ColorIndex
 90
      256
102
RTVSPost2010Prop51ColorRGB
 90
-16777216
102
RTVSPost2010PropOp51
 70
     0
102
RTVSPost2010Prop52
140
1.0
102
RTVSPost2010PropOp52
 70
     0
102
RTVSPost2010Prop53
 90
        2
102
RTVSPost2010PropOp53
 70
     1
102
RTVSPost2010Prop54
  1
strokes_ogs.tif
102
RTVSPost2010PropOp54
 70
     1
102
RTVSPost2010Prop55
280
     0
102
RTVSPost2010PropOp55
 70
     1
102
RTVSPost2010Prop56
140
1.0
102
RTVSPost2010PropOp56
 70
     1
102
RTVSPost2010Prop57
140
1.0
102
RTVSPost2010PropOp57
 70
     1
102
RTVSPropertyOp0
 70
     1
102
RTVSPropertyOp1
 70
     1
102
RTVSPropertyOp2
 70
     1
102
RTVSPropertyOp3
 70
     1
102
RTVSPropertyOp4
 70
     1
102
RTVSPropertyOp5
 70
     1
102
RTVSPropertyOp6
 70
     1
102
RTVSPropertyOp7
 70
     1
102
RTVSPropertyOp8
 70
     1
102
RTVSPropertyOp9
 70
     1
102
RTVSPropertyOp10
 70
     1
102
RTVSPropertyOp11
 70
     1
102
RTVSPropertyOp12
 70
     1
102
RTVSPropertyOp13
 70
     1
102
RTVSPropertyOp14
 70
     1
102
RTVSPropertyOp15
 70
     1
102
RTVSPropertyOp16
 70
     1
102
RTVSPropertyOp17
 70
     1
102
RTVSPropertyOp18
 70
     1
102
RTVSPropertyOp19
 70
     1
102
RTVSPropertyOp20
 70
     1
102
RTVSPropertyOp21
 70
     1
102
RTVSPropertyOp22
 70
     1
102
RTVSPropertyOp23
 70
     1
102
RTVSPropertyOp24
 70
     1
102
RTVSPropertyOp25
 70
     1
102
RTVSPropertyOp26
 70
     1
102
RTVSPropertyOp27
 70
     1
102
RTVSPropertyOp28
 70
     1
102
RTVSPropertyOp29
 70
     1
102
RTVSPropertyOp30
 70
     1
102
RTVSPropertyOp31
 70
     1
102
RTVSPropertyOp32
 70
     1
102
RTVSPropertyOp33
 70
     1
102
RTVSPropertyOp34
 70
     1
102
RTVSPropertyOp35
 70
     1
102
RTVSPropertyOp36
 70
     1
102
RTVSPropertyOp37
 70
     1
102
RTVSPropertyOp38
 70
     1
102
RTVSPropertyOp39
 70
     1
102
RTVSPropertyOp40
 70
     1
102
RTVSPropertyOp41
 70
     1
102
RTVSPropertyOp42
 70
     1
102
RTVSPropertyOp43
 70
     1
102
RTVSPropertyOp44
 70
     1
102
RTVSPropertyOp45
 70
     1
102
RTVSPropertyOp46
 70
     1
102
RTVSPropertyOp47
 70
     1
102
RTVSPropertyOp48
 70
     1
102
RTVSPropertyOp49
 70
     1
102
RTVSPropertyOp50
 70
     1
102
RTVSPropertyOp51
 70
     0
102
RTVSPropertyOp52
 70
     0
102
RTVSPropertyOp53
 70
     1
102
RTVSPropertyOp54
 70
     1
102
RTVSPropertyOp55
 70
     1
102
RTVSPropertyOp56
 70
     1
102
RTVSPropertyOp57
 70
     1
102
RTVSPropertyOp58
 70
     1
102
RTVSPropertyOp59
 70
     1
102
RTVSPropertyOp60
 70
     1
102
RTVSPropertyOp61
 70
     1
102
RTVSPropertyOp62
 70
     1
  0
XRECORD
  5
5C09
102
{ACAD_REACTORS
330
5C08
102
}
330
5C08
100
AcDbXrecord
280
     1
102
RTVSPost2010Prop28
280
     0
102
RTVSPost2010PropOp28
 70
     1
102
RTVSPost2010Prop29
280
     1
102
RTVSPost2010PropOp29
 70
     1
102
RTVSPost2010Prop30
280
     1
102
RTVSPost2010PropOp30
 70
     1
102
RTVSPost2010Prop31
280
     0
102
RTVSPost2010PropOp31
 70
     1
102
RTVSPost2010Prop32
280
     0
102
RTVSPost2010PropOp32
 70
     1
102
RTVSPost2010Prop33
280
     0
102
RTVSPost2010PropOp33
 70
     1
102
RTVSPost2010Prop34
280
     0
102
RTVSPost2010PropOp34
 70
     1
102
RTVSPost2010Prop35
280
     0
102
RTVSPost2010PropOp35
 70
     1
102
RTVSPost2010Prop36
280
     0
102
RTVSPost2010PropOp36
 70
     1
102
RTVSPost2010Prop37
 90
       50
102
RTVSPost2010PropOp37
 70
     1
102
RTVSPost2010Prop38
140
0.0
102
RTVSPost2010PropOp38
 70
     1
102
RTVSPost2010Prop39
140
1.0
102
RTVSPost2010PropOp39
 70
     1
102
RTVSPost2010Prop40
 90
        0
102
RTVSPost2010PropOp40
 70
     1
102
RTVSPost2010Prop41ColorIndex
 90
       18
102
RTVSPost2010Prop41ColorRGB
 90
        0
102
RTVSPost2010PropOp41
 70
     1
102
RTVSPost2010Prop42
 90
       50
102
RTVSPost2010PropOp42
 70
     1
102
RTVSPost2010Prop43
 90
        3
102
RTVSPost2010PropOp43
 70
     1
102
RTVSPost2010Prop44ColorIndex
 90
        5
102
RTVSPost2010Prop44ColorRGB
 90
      255
102
RTVSPost2010PropOp44
 70
     1
102
RTVSPost2010Prop45
280
     0
102
RTVSPost2010PropOp45
 70
     1
102
RTVSPost2010Prop46
 90
       50
102
RTVSPost2010PropOp46
 70
     1
102
RTVSPost2010Prop47
 90
       50
102
RTVSPost2010PropOp47
 70
     1
102
RTVSPost2010Prop48
 90
       50
102
RTVSPost2010PropOp48
 70
     1
102
RTVSPost2010Prop49
280
     0
102
RTVSPost2010PropOp49
 70
     1
102
RTVSPost2010Prop50
 90
       50
102
RTVSPost2010PropOp50
 70
     1
102
RTVSPost2010Prop51ColorIndex
 90
      256
102
RTVSPost2010Prop51ColorRGB
 90
-16777216
102
RTVSPost2010PropOp51
 70
     0
102
RTVSPost2010Prop52
140
1.0
102
RTVSPost2010PropOp52
 70
     0
102
RTVSPost2010Prop53
 90
        2
102
RTVSPost2010PropOp53
 70
     1
102
RTVSPost2010Prop54
  1
strokes_ogs.tif
102
RTVSPost2010PropOp54
 70
     1
102
RTVSPost2010Prop55
280
     0
102
RTVSPost2010PropOp55
 70
     1
102
RTVSPost2010Prop56
140
1.0
102
RTVSPost2010PropOp56
 70
     1
102
RTVSPost2010Prop57
140
1.0
102
RTVSPost2010PropOp57
 70
     1
102
RTVSPropertyOp0
 70
     1
102
RTVSPropertyOp1
 70
     1
102
RTVSPropertyOp2
 70
     1
102
RTVSPropertyOp3
 70
     1
102
RTVSPropertyOp4
 70
     1
102
RTVSPropertyOp5
 70
     1
102
RTVSPropertyOp6
 70
     1
102
RTVSPropertyOp7
 70
     1
102
RTVSPropertyOp8
 70
     1
102
RTVSPropertyOp9
 70
     1
102
RTVSPropertyOp10
 70
     1
102
RTVSPropertyOp11
 70
     1
102
RTVSPropertyOp12
 70
     1
102
RTVSPropertyOp13
 70
     1
102
RTVSPropertyOp14
 70
     1
102
RTVSPropertyOp15
 70
     1
102
RTVSPropertyOp16
 70
     1
102
RTVSPropertyOp17
 70
     1
102
RTVSPropertyOp18
 70
     1
102
RTVSPropertyOp19
 70
     1
102
RTVSPropertyOp20
 70
     1
102
RTVSPropertyOp21
 70
     1
102
RTVSPropertyOp22
 70
     1
102
RTVSPropertyOp23
 70
     1
102
RTVSPropertyOp24
 70
     1
102
RTVSPropertyOp25
 70
     1
102
RTVSPropertyOp26
 70
     1
102
RTVSPropertyOp27
 70
     1
102
RTVSPropertyOp28
 70
     1
102
RTVSPropertyOp29
 70
     1
102
RTVSPropertyOp30
 70
     1
102
RTVSPropertyOp31
 70
     1
102
RTVSPropertyOp32
 70
     1
102
RTVSPropertyOp33
 70
     1
102
RTVSPropertyOp34
 70
     1
102
RTVSPropertyOp35
 70
     1
102
RTVSPropertyOp36
 70
     1
102
RTVSPropertyOp37
 70
     1
102
RTVSPropertyOp38
 70
     1
102
RTVSPropertyOp39
 70
     1
102
RTVSPropertyOp40
 70
     1
102
RTVSPropertyOp41
 70
     1
102
RTVSPropertyOp42
 70
     1
102
RTVSPropertyOp43
 70
     1
102
RTVSPropertyOp44
 70
     1
102
RTVSPropertyOp45
 70
     1
102
RTVSPropertyOp46
 70
     1
102
RTVSPropertyOp47
 70
     1
102
RTVSPropertyOp48
 70
     1
102
RTVSPropertyOp49
 70
     1
102
RTVSPropertyOp50
 70
     1
102
RTVSPropertyOp51
 70
     0
102
RTVSPropertyOp52
 70
     0
102
RTVSPropertyOp53
 70
     1
102
RTVSPropertyOp54
 70
     1
102
RTVSPropertyOp55
 70
     1
102
RTVSPropertyOp56
 70
     1
102
RTVSPropertyOp57
 70
     1
102
RTVSPropertyOp58
 70
     1
102
RTVSPropertyOp59
 70
     1
102
RTVSPropertyOp60
 70
     1
102
RTVSPropertyOp61
 70
     1
102
RTVSPropertyOp62
 70
     1
  0
XRECORD
  5
5C11
102
{ACAD_REACTORS
330
5C10
102
}
330
5C10
100
AcDbXrecord
280
     1
102
RTVSPost2010Prop28
280
     0
102
RTVSPost2010PropOp28
 70
     1
102
RTVSPost2010Prop29
280
     1
102
RTVSPost2010PropOp29
 70
     1
102
RTVSPost2010Prop30
280
     1
102
RTVSPost2010PropOp30
 70
     1
102
RTVSPost2010Prop31
280
     0
102
RTVSPost2010PropOp31
 70
     1
102
RTVSPost2010Prop32
280
     0
102
RTVSPost2010PropOp32
 70
     1
102
RTVSPost2010Prop33
280
     0
102
RTVSPost2010PropOp33
 70
     1
102
RTVSPost2010Prop34
280
     0
102
RTVSPost2010PropOp34
 70
     1
102
RTVSPost2010Prop35
280
     0
102
RTVSPost2010PropOp35
 70
     1
102
RTVSPost2010Prop36
280
     0
102
RTVSPost2010PropOp36
 70
     1
102
RTVSPost2010Prop37
 90
       50
102
RTVSPost2010PropOp37
 70
     1
102
RTVSPost2010Prop38
140
0.0
102
RTVSPost2010PropOp38
 70
     1
102
RTVSPost2010Prop39
140
1.0
102
RTVSPost2010PropOp39
 70
     1
102
RTVSPost2010Prop40
 90
        0
102
RTVSPost2010PropOp40
 70
     1
102
RTVSPost2010Prop41ColorIndex
 90
       18
102
RTVSPost2010Prop41ColorRGB
 90
        0
102
RTVSPost2010PropOp41
 70
     1
102
RTVSPost2010Prop42
 90
       50
102
RTVSPost2010PropOp42
 70
     1
102
RTVSPost2010Prop43
 90
        3
102
RTVSPost2010PropOp43
 70
     1
102
RTVSPost2010Prop44ColorIndex
 90
        5
102
RTVSPost2010Prop44ColorRGB
 90
      255
102
RTVSPost2010PropOp44
 70
     1
102
RTVSPost2010Prop45
280
     0
102
RTVSPost2010PropOp45
 70
     1
102
RTVSPost2010Prop46
 90
       50
102
RTVSPost2010PropOp46
 70
     1
102
RTVSPost2010Prop47
 90
       50
102
RTVSPost2010PropOp47
 70
     1
102
RTVSPost2010Prop48
 90
       50
102
RTVSPost2010PropOp48
 70
     1
102
RTVSPost2010Prop49
280
     0
102
RTVSPost2010PropOp49
 70
     1
102
RTVSPost2010Prop50
 90
       50
102
RTVSPost2010PropOp50
 70
     1
102
RTVSPost2010Prop51ColorIndex
 90
      256
102
RTVSPost2010Prop51ColorRGB
 90
-16777216
102
RTVSPost2010PropOp51
 70
     0
102
RTVSPost2010Prop52
140
1.0
102
RTVSPost2010PropOp52
 70
     0
102
RTVSPost2010Prop53
 90
        2
102
RTVSPost2010PropOp53
 70
     1
102
RTVSPost2010Prop54
  1
strokes_ogs.tif
102
RTVSPost2010PropOp54
 70
     1
102
RTVSPost2010Prop55
280
     0
102
RTVSPost2010PropOp55
 70
     1
102
RTVSPost2010Prop56
140
1.0
102
RTVSPost2010PropOp56
 70
     1
102
RTVSPost2010Prop57
140
1.0
102
RTVSPost2010PropOp57
 70
     1
102
RTVSPropertyOp0
 70
     1
102
RTVSPropertyOp1
 70
     1
102
RTVSPropertyOp2
 70
     1
102
RTVSPropertyOp3
 70
     1
102
RTVSPropertyOp4
 70
     1
102
RTVSPropertyOp5
 70
     1
102
RTVSPropertyOp6
 70
     1
102
RTVSPropertyOp7
 70
     1
102
RTVSPropertyOp8
 70
     1
102
RTVSPropertyOp9
 70
     1
102
RTVSPropertyOp10
 70
     1
102
RTVSPropertyOp11
 70
     1
102
RTVSPropertyOp12
 70
     1
102
RTVSPropertyOp13
 70
     1
102
RTVSPropertyOp14
 70
     1
102
RTVSPropertyOp15
 70
     1
102
RTVSPropertyOp16
 70
     1
102
RTVSPropertyOp17
 70
     1
102
RTVSPropertyOp18
 70
     1
102
RTVSPropertyOp19
 70
     1
102
RTVSPropertyOp20
 70
     1
102
RTVSPropertyOp21
 70
     1
102
RTVSPropertyOp22
 70
     1
102
RTVSPropertyOp23
 70
     1
102
RTVSPropertyOp24
 70
     1
102
RTVSPropertyOp25
 70
     1
102
RTVSPropertyOp26
 70
     1
102
RTVSPropertyOp27
 70
     1
102
RTVSPropertyOp28
 70
     1
102
RTVSPropertyOp29
 70
     1
102
RTVSPropertyOp30
 70
     1
102
RTVSPropertyOp31
 70
     1
102
RTVSPropertyOp32
 70
     1
102
RTVSPropertyOp33
 70
     1
102
RTVSPropertyOp34
 70
     1
102
RTVSPropertyOp35
 70
     1
102
RTVSPropertyOp36
 70
     1
102
RTVSPropertyOp37
 70
     1
102
RTVSPropertyOp38
 70
     1
102
RTVSPropertyOp39
 70
     1
102
RTVSPropertyOp40
 70
     1
102
RTVSPropertyOp41
 70
     1
102
RTVSPropertyOp42
 70
     1
102
RTVSPropertyOp43
 70
     1
102
RTVSPropertyOp44
 70
     1
102
RTVSPropertyOp45
 70
     1
102
RTVSPropertyOp46
 70
     1
102
RTVSPropertyOp47
 70
     1
102
RTVSPropertyOp48
 70
     1
102
RTVSPropertyOp49
 70
     1
102
RTVSPropertyOp50
 70
     1
102
RTVSPropertyOp51
 70
     0
102
RTVSPropertyOp52
 70
     0
102
RTVSPropertyOp53
 70
     1
102
RTVSPropertyOp54
 70
     1
102
RTVSPropertyOp55
 70
     1
102
RTVSPropertyOp56
 70
     1
102
RTVSPropertyOp57
 70
     1
102
RTVSPropertyOp58
 70
     1
102
RTVSPropertyOp59
 70
     1
102
RTVSPropertyOp60
 70
     1
102
RTVSPropertyOp61
 70
     1
102
RTVSPropertyOp62
 70
     1
  0
XRECORD
  5
5C03
102
{ACAD_REACTORS
330
5C02
102
}
330
5C02
100
AcDbXrecord
280
     1
102
RTVSPost2010Prop28
280
     0
102
RTVSPost2010PropOp28
 70
     1
102
RTVSPost2010Prop29
280
     1
102
RTVSPost2010PropOp29
 70
     1
102
RTVSPost2010Prop30
280
     1
102
RTVSPost2010PropOp30
 70
     1
102
RTVSPost2010Prop31
280
     0
102
RTVSPost2010PropOp31
 70
     1
102
RTVSPost2010Prop32
280
     0
102
RTVSPost2010PropOp32
 70
     1
102
RTVSPost2010Prop33
280
     0
102
RTVSPost2010PropOp33
 70
     1
102
RTVSPost2010Prop34
280
     0
102
RTVSPost2010PropOp34
 70
     1
102
RTVSPost2010Prop35
280
     0
102
RTVSPost2010PropOp35
 70
     1
102
RTVSPost2010Prop36
280
     0
102
RTVSPost2010PropOp36
 70
     1
102
RTVSPost2010Prop37
 90
       50
102
RTVSPost2010PropOp37
 70
     1
102
RTVSPost2010Prop38
140
0.0
102
RTVSPost2010PropOp38
 70
     1
102
RTVSPost2010Prop39
140
1.0
102
RTVSPost2010PropOp39
 70
     1
102
RTVSPost2010Prop40
 90
        0
102
RTVSPost2010PropOp40
 70
     1
102
RTVSPost2010Prop41ColorIndex
 90
       18
102
RTVSPost2010Prop41ColorRGB
 90
        0
102
RTVSPost2010PropOp41
 70
     1
102
RTVSPost2010Prop42
 90
       50
102
RTVSPost2010PropOp42
 70
     1
102
RTVSPost2010Prop43
 90
        3
102
RTVSPost2010PropOp43
 70
     1
102
RTVSPost2010Prop44ColorIndex
 90
        5
102
RTVSPost2010Prop44ColorRGB
 90
      255
102
RTVSPost2010PropOp44
 70
     1
102
RTVSPost2010Prop45
280
     0
102
RTVSPost2010PropOp45
 70
     1
102
RTVSPost2010Prop46
 90
       50
102
RTVSPost2010PropOp46
 70
     1
102
RTVSPost2010Prop47
 90
       50
102
RTVSPost2010PropOp47
 70
     1
102
RTVSPost2010Prop48
 90
       50
102
RTVSPost2010PropOp48
 70
     1
102
RTVSPost2010Prop49
280
     0
102
RTVSPost2010PropOp49
 70
     1
102
RTVSPost2010Prop50
 90
       50
102
RTVSPost2010PropOp50
 70
     1
102
RTVSPost2010Prop51ColorIndex
 90
      256
102
RTVSPost2010Prop51ColorRGB
 90
-16777216
102
RTVSPost2010PropOp51
 70
     0
102
RTVSPost2010Prop52
140
1.0
102
RTVSPost2010PropOp52
 70
     0
102
RTVSPost2010Prop53
 90
        2
102
RTVSPost2010PropOp53
 70
     1
102
RTVSPost2010Prop54
  1
strokes_ogs.tif
102
RTVSPost2010PropOp54
 70
     1
102
RTVSPost2010Prop55
280
     0
102
RTVSPost2010PropOp55
 70
     1
102
RTVSPost2010Prop56
140
1.0
102
RTVSPost2010PropOp56
 70
     1
102
RTVSPost2010Prop57
140
1.0
102
RTVSPost2010PropOp57
 70
     1
102
RTVSPropertyOp0
 70
     1
102
RTVSPropertyOp1
 70
     1
102
RTVSPropertyOp2
 70
     1
102
RTVSPropertyOp3
 70
     1
102
RTVSPropertyOp4
 70
     1
102
RTVSPropertyOp5
 70
     1
102
RTVSPropertyOp6
 70
     1
102
RTVSPropertyOp7
 70
     1
102
RTVSPropertyOp8
 70
     1
102
RTVSPropertyOp9
 70
     1
102
RTVSPropertyOp10
 70
     1
102
RTVSPropertyOp11
 70
     1
102
RTVSPropertyOp12
 70
     1
102
RTVSPropertyOp13
 70
     1
102
RTVSPropertyOp14
 70
     1
102
RTVSPropertyOp15
 70
     1
102
RTVSPropertyOp16
 70
     1
102
RTVSPropertyOp17
 70
     1
102
RTVSPropertyOp18
 70
     1
102
RTVSPropertyOp19
 70
     1
102
RTVSPropertyOp20
 70
     1
102
RTVSPropertyOp21
 70
     1
102
RTVSPropertyOp22
 70
     1
102
RTVSPropertyOp23
 70
     1
102
RTVSPropertyOp24
 70
     1
102
RTVSPropertyOp25
 70
     1
102
RTVSPropertyOp26
 70
     1
102
RTVSPropertyOp27
 70
     1
102
RTVSPropertyOp28
 70
     1
102
RTVSPropertyOp29
 70
     1
102
RTVSPropertyOp30
 70
     1
102
RTVSPropertyOp31
 70
     1
102
RTVSPropertyOp32
 70
     1
102
RTVSPropertyOp33
 70
     1
102
RTVSPropertyOp34
 70
     1
102
RTVSPropertyOp35
 70
     1
102
RTVSPropertyOp36
 70
     1
102
RTVSPropertyOp37
 70
     1
102
RTVSPropertyOp38
 70
     1
102
RTVSPropertyOp39
 70
     1
102
RTVSPropertyOp40
 70
     1
102
RTVSPropertyOp41
 70
     1
102
RTVSPropertyOp42
 70
     1
102
RTVSPropertyOp43
 70
     1
102
RTVSPropertyOp44
 70
     1
102
RTVSPropertyOp45
 70
     1
102
RTVSPropertyOp46
 70
     1
102
RTVSPropertyOp47
 70
     1
102
RTVSPropertyOp48
 70
     1
102
RTVSPropertyOp49
 70
     1
102
RTVSPropertyOp50
 70
     1
102
RTVSPropertyOp51
 70
     0
102
RTVSPropertyOp52
 70
     0
102
RTVSPropertyOp53
 70
     1
102
RTVSPropertyOp54
 70
     1
102
RTVSPropertyOp55
 70
     1
102
RTVSPropertyOp56
 70
     1
102
RTVSPropertyOp57
 70
     1
102
RTVSPropertyOp58
 70
     1
102
RTVSPropertyOp59
 70
     1
102
RTVSPropertyOp60
 70
     1
102
RTVSPropertyOp61
 70
     1
102
RTVSPropertyOp62
 70
     1
  0
XRECORD
  5
5C07
102
{ACAD_REACTORS
330
5C06
102
}
330
5C06
100
AcDbXrecord
280
     1
102
RTVSPost2010Prop28
280
     0
102
RTVSPost2010PropOp28
 70
     1
102
RTVSPost2010Prop29
280
     1
102
RTVSPost2010PropOp29
 70
     1
102
RTVSPost2010Prop30
280
     1
102
RTVSPost2010PropOp30
 70
     1
102
RTVSPost2010Prop31
280
     0
102
RTVSPost2010PropOp31
 70
     1
102
RTVSPost2010Prop32
280
     0
102
RTVSPost2010PropOp32
 70
     1
102
RTVSPost2010Prop33
280
     0
102
RTVSPost2010PropOp33
 70
     1
102
RTVSPost2010Prop34
280
     0
102
RTVSPost2010PropOp34
 70
     1
102
RTVSPost2010Prop35
280
     0
102
RTVSPost2010PropOp35
 70
     1
102
RTVSPost2010Prop36
280
     0
102
RTVSPost2010PropOp36
 70
     1
102
RTVSPost2010Prop37
 90
       50
102
RTVSPost2010PropOp37
 70
     1
102
RTVSPost2010Prop38
140
0.0
102
RTVSPost2010PropOp38
 70
     1
102
RTVSPost2010Prop39
140
1.0
102
RTVSPost2010PropOp39
 70
     1
102
RTVSPost2010Prop40
 90
        0
102
RTVSPost2010PropOp40
 70
     1
102
RTVSPost2010Prop41ColorIndex
 90
       18
102
RTVSPost2010Prop41ColorRGB
 90
        0
102
RTVSPost2010PropOp41
 70
     1
102
RTVSPost2010Prop42
 90
       50
102
RTVSPost2010PropOp42
 70
     1
102
RTVSPost2010Prop43
 90
        3
102
RTVSPost2010PropOp43
 70
     1
102
RTVSPost2010Prop44ColorIndex
 90
        5
102
RTVSPost2010Prop44ColorRGB
 90
      255
102
RTVSPost2010PropOp44
 70
     1
102
RTVSPost2010Prop45
280
     0
102
RTVSPost2010PropOp45
 70
     1
102
RTVSPost2010Prop46
 90
       50
102
RTVSPost2010PropOp46
 70
     1
102
RTVSPost2010Prop47
 90
       50
102
RTVSPost2010PropOp47
 70
     1
102
RTVSPost2010Prop48
 90
       50
102
RTVSPost2010PropOp48
 70
     1
102
RTVSPost2010Prop49
280
     0
102
RTVSPost2010PropOp49
 70
     1
102
RTVSPost2010Prop50
 90
       50
102
RTVSPost2010PropOp50
 70
     1
102
RTVSPost2010Prop51ColorIndex
 90
      256
102
RTVSPost2010Prop51ColorRGB
 90
-16777216
102
RTVSPost2010PropOp51
 70
     0
102
RTVSPost2010Prop52
140
1.0
102
RTVSPost2010PropOp52
 70
     0
102
RTVSPost2010Prop53
 90
        2
102
RTVSPost2010PropOp53
 70
     1
102
RTVSPost2010Prop54
  1
strokes_ogs.tif
102
RTVSPost2010PropOp54
 70
     1
102
RTVSPost2010Prop55
280
     0
102
RTVSPost2010PropOp55
 70
     1
102
RTVSPost2010Prop56
140
1.0
102
RTVSPost2010PropOp56
 70
     1
102
RTVSPost2010Prop57
140
1.0
102
RTVSPost2010PropOp57
 70
     1
102
RTVSPropertyOp0
 70
     1
102
RTVSPropertyOp1
 70
     1
102
RTVSPropertyOp2
 70
     1
102
RTVSPropertyOp3
 70
     1
102
RTVSPropertyOp4
 70
     1
102
RTVSPropertyOp5
 70
     1
102
RTVSPropertyOp6
 70
     1
102
RTVSPropertyOp7
 70
     1
102
RTVSPropertyOp8
 70
     1
102
RTVSPropertyOp9
 70
     1
102
RTVSPropertyOp10
 70
     1
102
RTVSPropertyOp11
 70
     1
102
RTVSPropertyOp12
 70
     1
102
RTVSPropertyOp13
 70
     1
102
RTVSPropertyOp14
 70
     1
102
RTVSPropertyOp15
 70
     1
102
RTVSPropertyOp16
 70
     1
102
RTVSPropertyOp17
 70
     1
102
RTVSPropertyOp18
 70
     1
102
RTVSPropertyOp19
 70
     1
102
RTVSPropertyOp20
 70
     1
102
RTVSPropertyOp21
 70
     1
102
RTVSPropertyOp22
 70
     1
102
RTVSPropertyOp23
 70
     1
102
RTVSPropertyOp24
 70
     1
102
RTVSPropertyOp25
 70
     1
102
RTVSPropertyOp26
 70
     1
102
RTVSPropertyOp27
 70
     1
102
RTVSPropertyOp28
 70
     1
102
RTVSPropertyOp29
 70
     1
102
RTVSPropertyOp30
 70
     1
102
RTVSPropertyOp31
 70
     1
102
RTVSPropertyOp32
 70
     1
102
RTVSPropertyOp33
 70
     1
102
RTVSPropertyOp34
 70
     1
102
RTVSPropertyOp35
 70
     1
102
RTVSPropertyOp36
 70
     1
102
RTVSPropertyOp37
 70
     1
102
RTVSPropertyOp38
 70
     1
102
RTVSPropertyOp39
 70
     1
102
RTVSPropertyOp40
 70
     1
102
RTVSPropertyOp41
 70
     1
102
RTVSPropertyOp42
 70
     1
102
RTVSPropertyOp43
 70
     1
102
RTVSPropertyOp44
 70
     1
102
RTVSPropertyOp45
 70
     1
102
RTVSPropertyOp46
 70
     1
102
RTVSPropertyOp47
 70
     1
102
RTVSPropertyOp48
 70
     1
102
RTVSPropertyOp49
 70
     1
102
RTVSPropertyOp50
 70
     1
102
RTVSPropertyOp51
 70
     0
102
RTVSPropertyOp52
 70
     0
102
RTVSPropertyOp53
 70
     1
102
RTVSPropertyOp54
 70
     1
102
RTVSPropertyOp55
 70
     1
102
RTVSPropertyOp56
 70
     1
102
RTVSPropertyOp57
 70
     1
102
RTVSPropertyOp58
 70
     1
102
RTVSPropertyOp59
 70
     1
102
RTVSPropertyOp60
 70
     1
102
RTVSPropertyOp61
 70
     1
102
RTVSPropertyOp62
 70
     1
  0
XRECORD
  5
5C21
102
{ACAD_REACTORS
330
5C20
102
}
330
5C20
100
AcDbXrecord
280
     1
102
RTVSPost2010Prop28
280
     0
102
RTVSPost2010PropOp28
 70
     0
102
RTVSPost2010Prop29
280
     1
102
RTVSPost2010PropOp29
 70
     0
102
RTVSPost2010Prop30
280
     1
102
RTVSPost2010PropOp30
 70
     0
102
RTVSPost2010Prop31
280
     0
102
RTVSPost2010PropOp31
 70
     0
102
RTVSPost2010Prop32
280
     0
102
RTVSPost2010PropOp32
 70
     0
102
RTVSPost2010Prop33
280
     0
102
RTVSPost2010PropOp33
 70
     0
102
RTVSPost2010Prop34
280
     0
102
RTVSPost2010PropOp34
 70
     0
102
RTVSPost2010Prop35
280
     0
102
RTVSPost2010PropOp35
 70
     0
102
RTVSPost2010Prop36
280
     0
102
RTVSPost2010PropOp36
 70
     0
102
RTVSPost2010Prop37
 90
       50
102
RTVSPost2010PropOp37
 70
     0
102
RTVSPost2010Prop38
140
0.0
102
RTVSPost2010PropOp38
 70
     0
102
RTVSPost2010Prop39
140
1.0
102
RTVSPost2010PropOp39
 70
     0
102
RTVSPost2010Prop40
 90
        0
102
RTVSPost2010PropOp40
 70
     0
102
RTVSPost2010Prop41ColorIndex
 90
       18
102
RTVSPost2010Prop41ColorRGB
 90
        0
102
RTVSPost2010PropOp41
 70
     0
102
RTVSPost2010Prop42
 90
       50
102
RTVSPost2010PropOp42
 70
     0
102
RTVSPost2010Prop43
 90
        3
102
RTVSPost2010PropOp43
 70
     0
102
RTVSPost2010Prop44ColorIndex
 90
        5
102
RTVSPost2010Prop44ColorRGB
 90
      255
102
RTVSPost2010PropOp44
 70
     0
102
RTVSPost2010Prop45
280
     0
102
RTVSPost2010PropOp45
 70
     0
102
RTVSPost2010Prop46
 90
       50
102
RTVSPost2010PropOp46
 70
     0
102
RTVSPost2010Prop47
 90
       50
102
RTVSPost2010PropOp47
 70
     0
102
RTVSPost2010Prop48
 90
       50
102
RTVSPost2010PropOp48
 70
     0
102
RTVSPost2010Prop49
280
     0
102
RTVSPost2010PropOp49
 70
     0
102
RTVSPost2010Prop50
 90
       50
102
RTVSPost2010PropOp50
 70
     0
102
RTVSPost2010Prop51ColorIndex
 90
      256
102
RTVSPost2010Prop51ColorRGB
 90
-16777216
102
RTVSPost2010PropOp51
 70
     0
102
RTVSPost2010Prop52
140
1.0
102
RTVSPost2010PropOp52
 70
     0
102
RTVSPost2010Prop53
 90
        2
102
RTVSPost2010PropOp53
 70
     0
102
RTVSPost2010Prop54
  1
strokes_ogs.tif
102
RTVSPost2010PropOp54
 70
     0
102
RTVSPost2010Prop55
280
     0
102
RTVSPost2010PropOp55
 70
     0
102
RTVSPost2010Prop56
140
1.0
102
RTVSPost2010PropOp56
 70
     0
102
RTVSPost2010Prop57
140
1.0
102
RTVSPost2010PropOp57
 70
     0
102
RTVSPropertyOp0
 70
     0
102
RTVSPropertyOp1
 70
     0
102
RTVSPropertyOp2
 70
     0
102
RTVSPropertyOp3
 70
     0
102
RTVSPropertyOp4
 70
     0
102
RTVSPropertyOp5
 70
     0
102
RTVSPropertyOp6
 70
     0
102
RTVSPropertyOp7
 70
     0
102
RTVSPropertyOp8
 70
     0
102
RTVSPropertyOp9
 70
     0
102
RTVSPropertyOp10
 70
     0
102
RTVSPropertyOp11
 70
     0
102
RTVSPropertyOp12
 70
     0
102
RTVSPropertyOp13
 70
     0
102
RTVSPropertyOp14
 70
     2
102
RTVSPropertyOp15
 70
     0
102
RTVSPropertyOp16
 70
     0
102
RTVSPropertyOp17
 70
     0
102
RTVSPropertyOp18
 70
     0
102
RTVSPropertyOp19
 70
     0
102
RTVSPropertyOp20
 70
     0
102
RTVSPropertyOp21
 70
     0
102
RTVSPropertyOp22
 70
     0
102
RTVSPropertyOp23
 70
     0
102
RTVSPropertyOp24
 70
     0
102
RTVSPropertyOp25
 70
     0
102
RTVSPropertyOp26
 70
     0
102
RTVSPropertyOp27
 70
     0
102
RTVSPropertyOp28
 70
     0
102
RTVSPropertyOp29
 70
     0
102
RTVSPropertyOp30
 70
     0
102
RTVSPropertyOp31
 70
     0
102
RTVSPropertyOp32
 70
     0
102
RTVSPropertyOp33
 70
     0
102
RTVSPropertyOp34
 70
     0
102
RTVSPropertyOp35
 70
     0
102
RTVSPropertyOp36
 70
     0
102
RTVSPropertyOp37
 70
     0
102
RTVSPropertyOp38
 70
     0
102
RTVSPropertyOp39
 70
     0
102
RTVSPropertyOp40
 70
     0
102
RTVSPropertyOp41
 70
     0
102
RTVSPropertyOp42
 70
     0
102
RTVSPropertyOp43
 70
     0
102
RTVSPropertyOp44
 70
     0
102
RTVSPropertyOp45
 70
     0
102
RTVSPropertyOp46
 70
     0
102
RTVSPropertyOp47
 70
     0
102
RTVSPropertyOp48
 70
     0
102
RTVSPropertyOp49
 70
     0
102
RTVSPropertyOp50
 70
     0
102
RTVSPropertyOp51
 70
     0
102
RTVSPropertyOp52
 70
     0
102
RTVSPropertyOp53
 70
     0
102
RTVSPropertyOp54
 70
     0
102
RTVSPropertyOp55
 70
     0
102
RTVSPropertyOp56
 70
     0
102
RTVSPropertyOp57
 70
     0
102
RTVSPropertyOp58
 70
     1
102
RTVSPropertyOp59
 70
     1
102
RTVSPropertyOp60
 70
     1
102
RTVSPropertyOp61
 70
     1
102
RTVSPropertyOp62
 70
     1
  0
XRECORD
  5
5C0F
102
{ACAD_REACTORS
330
5C0E
102
}
330
5C0E
100
AcDbXrecord
280
     1
102
RTVSPost2010Prop28
280
     0
102
RTVSPost2010PropOp28
 70
     1
102
RTVSPost2010Prop29
280
     1
102
RTVSPost2010PropOp29
 70
     1
102
RTVSPost2010Prop30
280
     1
102
RTVSPost2010PropOp30
 70
     1
102
RTVSPost2010Prop31
280
     0
102
RTVSPost2010PropOp31
 70
     1
102
RTVSPost2010Prop32
280
     0
102
RTVSPost2010PropOp32
 70
     1
102
RTVSPost2010Prop33
280
     0
102
RTVSPost2010PropOp33
 70
     1
102
RTVSPost2010Prop34
280
     0
102
RTVSPost2010PropOp34
 70
     1
102
RTVSPost2010Prop35
280
     0
102
RTVSPost2010PropOp35
 70
     1
102
RTVSPost2010Prop36
280
     0
102
RTVSPost2010PropOp36
 70
     1
102
RTVSPost2010Prop37
 90
       50
102
RTVSPost2010PropOp37
 70
     1
102
RTVSPost2010Prop38
140
0.0
102
RTVSPost2010PropOp38
 70
     1
102
RTVSPost2010Prop39
140
1.0
102
RTVSPost2010PropOp39
 70
     1
102
RTVSPost2010Prop40
 90
        0
102
RTVSPost2010PropOp40
 70
     1
102
RTVSPost2010Prop41ColorIndex
 90
       18
102
RTVSPost2010Prop41ColorRGB
 90
        0
102
RTVSPost2010PropOp41
 70
     1
102
RTVSPost2010Prop42
 90
       50
102
RTVSPost2010PropOp42
 70
     1
102
RTVSPost2010Prop43
 90
        3
102
RTVSPost2010PropOp43
 70
     1
102
RTVSPost2010Prop44ColorIndex
 90
        5
102
RTVSPost2010Prop44ColorRGB
 90
      255
102
RTVSPost2010PropOp44
 70
     1
102
RTVSPost2010Prop45
280
     0
102
RTVSPost2010PropOp45
 70
     1
102
RTVSPost2010Prop46
 90
       50
102
RTVSPost2010PropOp46
 70
     1
102
RTVSPost2010Prop47
 90
       50
102
RTVSPost2010PropOp47
 70
     1
102
RTVSPost2010Prop48
 90
       50
102
RTVSPost2010PropOp48
 70
     1
102
RTVSPost2010Prop49
280
     0
102
RTVSPost2010PropOp49
 70
     1
102
RTVSPost2010Prop50
 90
       50
102
RTVSPost2010PropOp50
 70
     1
102
RTVSPost2010Prop51ColorIndex
 90
      256
102
RTVSPost2010Prop51ColorRGB
 90
-16777216
102
RTVSPost2010PropOp51
 70
     0
102
RTVSPost2010Prop52
140
1.0
102
RTVSPost2010PropOp52
 70
     0
102
RTVSPost2010Prop53
 90
        2
102
RTVSPost2010PropOp53
 70
     1
102
RTVSPost2010Prop54
  1
strokes_ogs.tif
102
RTVSPost2010PropOp54
 70
     1
102
RTVSPost2010Prop55
280
     0
102
RTVSPost2010PropOp55
 70
     1
102
RTVSPost2010Prop56
140
1.0
102
RTVSPost2010PropOp56
 70
     1
102
RTVSPost2010Prop57
140
1.0
102
RTVSPost2010PropOp57
 70
     1
102
RTVSPropertyOp0
 70
     1
102
RTVSPropertyOp1
 70
     1
102
RTVSPropertyOp2
 70
     1
102
RTVSPropertyOp3
 70
     1
102
RTVSPropertyOp4
 70
     1
102
RTVSPropertyOp5
 70
     1
102
RTVSPropertyOp6
 70
     1
102
RTVSPropertyOp7
 70
     1
102
RTVSPropertyOp8
 70
     1
102
RTVSPropertyOp9
 70
     1
102
RTVSPropertyOp10
 70
     1
102
RTVSPropertyOp11
 70
     1
102
RTVSPropertyOp12
 70
     1
102
RTVSPropertyOp13
 70
     1
102
RTVSPropertyOp14
 70
     1
102
RTVSPropertyOp15
 70
     1
102
RTVSPropertyOp16
 70
     1
102
RTVSPropertyOp17
 70
     1
102
RTVSPropertyOp18
 70
     1
102
RTVSPropertyOp19
 70
     1
102
RTVSPropertyOp20
 70
     1
102
RTVSPropertyOp21
 70
     1
102
RTVSPropertyOp22
 70
     1
102
RTVSPropertyOp23
 70
     1
102
RTVSPropertyOp24
 70
     1
102
RTVSPropertyOp25
 70
     1
102
RTVSPropertyOp26
 70
     1
102
RTVSPropertyOp27
 70
     1
102
RTVSPropertyOp28
 70
     1
102
RTVSPropertyOp29
 70
     1
102
RTVSPropertyOp30
 70
     1
102
RTVSPropertyOp31
 70
     1
102
RTVSPropertyOp32
 70
     1
102
RTVSPropertyOp33
 70
     1
102
RTVSPropertyOp34
 70
     1
102
RTVSPropertyOp35
 70
     1
102
RTVSPropertyOp36
 70
     1
102
RTVSPropertyOp37
 70
     1
102
RTVSPropertyOp38
 70
     1
102
RTVSPropertyOp39
 70
     1
102
RTVSPropertyOp40
 70
     1
102
RTVSPropertyOp41
 70
     1
102
RTVSPropertyOp42
 70
     1
102
RTVSPropertyOp43
 70
     1
102
RTVSPropertyOp44
 70
     1
102
RTVSPropertyOp45
 70
     1
102
RTVSPropertyOp46
 70
     1
102
RTVSPropertyOp47
 70
     1
102
RTVSPropertyOp48
 70
     1
102
RTVSPropertyOp49
 70
     1
102
RTVSPropertyOp50
 70
     1
102
RTVSPropertyOp51
 70
     0
102
RTVSPropertyOp52
 70
     0
102
RTVSPropertyOp53
 70
     1
102
RTVSPropertyOp54
 70
     1
102
RTVSPropertyOp55
 70
     1
102
RTVSPropertyOp56
 70
     1
102
RTVSPropertyOp57
 70
     1
102
RTVSPropertyOp58
 70
     1
102
RTVSPropertyOp59
 70
     1
102
RTVSPropertyOp60
 70
     1
102
RTVSPropertyOp61
 70
     1
102
RTVSPropertyOp62
 70
     1
  0
XRECORD
  5
5BF3
102
{ACAD_REACTORS
330
5BF2
102
}
330
5BF2
100
AcDbXrecord
280
     1
102
RTVSPost2010Prop28
280
     0
102
RTVSPost2010PropOp28
 70
     1
102
RTVSPost2010Prop29
280
     1
102
RTVSPost2010PropOp29
 70
     1
102
RTVSPost2010Prop30
280
     1
102
RTVSPost2010PropOp30
 70
     1
102
RTVSPost2010Prop31
280
     0
102
RTVSPost2010PropOp31
 70
     1
102
RTVSPost2010Prop32
280
     0
102
RTVSPost2010PropOp32
 70
     1
102
RTVSPost2010Prop33
280
     0
102
RTVSPost2010PropOp33
 70
     1
102
RTVSPost2010Prop34
280
     0
102
RTVSPost2010PropOp34
 70
     1
102
RTVSPost2010Prop35
280
     0
102
RTVSPost2010PropOp35
 70
     1
102
RTVSPost2010Prop36
280
     0
102
RTVSPost2010PropOp36
 70
     1
102
RTVSPost2010Prop37
 90
       50
102
RTVSPost2010PropOp37
 70
     1
102
RTVSPost2010Prop38
140
0.0
102
RTVSPost2010PropOp38
 70
     1
102
RTVSPost2010Prop39
140
1.0
102
RTVSPost2010PropOp39
 70
     1
102
RTVSPost2010Prop40
 90
        0
102
RTVSPost2010PropOp40
 70
     1
102
RTVSPost2010Prop41ColorIndex
 90
       18
102
RTVSPost2010Prop41ColorRGB
 90
        0
102
RTVSPost2010PropOp41
 70
     1
102
RTVSPost2010Prop42
 90
       50
102
RTVSPost2010PropOp42
 70
     1
102
RTVSPost2010Prop43
 90
        3
102
RTVSPost2010PropOp43
 70
     1
102
RTVSPost2010Prop44ColorIndex
 90
        5
102
RTVSPost2010Prop44ColorRGB
 90
      255
102
RTVSPost2010PropOp44
 70
     1
102
RTVSPost2010Prop45
280
     0
102
RTVSPost2010PropOp45
 70
     1
102
RTVSPost2010Prop46
 90
       50
102
RTVSPost2010PropOp46
 70
     1
102
RTVSPost2010Prop47
 90
       50
102
RTVSPost2010PropOp47
 70
     1
102
RTVSPost2010Prop48
 90
       50
102
RTVSPost2010PropOp48
 70
     1
102
RTVSPost2010Prop49
280
     0
102
RTVSPost2010PropOp49
 70
     1
102
RTVSPost2010Prop50
 90
       50
102
RTVSPost2010PropOp50
 70
     1
102
RTVSPost2010Prop51ColorIndex
 90
      256
102
RTVSPost2010Prop51ColorRGB
 90
-16777216
102
RTVSPost2010PropOp51
 70
     0
102
RTVSPost2010Prop52
140
1.0
102
RTVSPost2010PropOp52
 70
     0
102
RTVSPost2010Prop53
 90
        2
102
RTVSPost2010PropOp53
 70
     1
102
RTVSPost2010Prop54
  1
strokes_ogs.tif
102
RTVSPost2010PropOp54
 70
     1
102
RTVSPost2010Prop55
280
     0
102
RTVSPost2010PropOp55
 70
     1
102
RTVSPost2010Prop56
140
1.0
102
RTVSPost2010PropOp56
 70
     1
102
RTVSPost2010Prop57
140
1.0
102
RTVSPost2010PropOp57
 70
     1
102
RTVSPropertyOp0
 70
     1
102
RTVSPropertyOp1
 70
     1
102
RTVSPropertyOp2
 70
     1
102
RTVSPropertyOp3
 70
     1
102
RTVSPropertyOp4
 70
     1
102
RTVSPropertyOp5
 70
     1
102
RTVSPropertyOp6
 70
     1
102
RTVSPropertyOp7
 70
     1
102
RTVSPropertyOp8
 70
     1
102
RTVSPropertyOp9
 70
     1
102
RTVSPropertyOp10
 70
     1
102
RTVSPropertyOp11
 70
     1
102
RTVSPropertyOp12
 70
     1
102
RTVSPropertyOp13
 70
     1
102
RTVSPropertyOp14
 70
     1
102
RTVSPropertyOp15
 70
     1
102
RTVSPropertyOp16
 70
     1
102
RTVSPropertyOp17
 70
     1
102
RTVSPropertyOp18
 70
     1
102
RTVSPropertyOp19
 70
     1
102
RTVSPropertyOp20
 70
     1
102
RTVSPropertyOp21
 70
     1
102
RTVSPropertyOp22
 70
     1
102
RTVSPropertyOp23
 70
     1
102
RTVSPropertyOp24
 70
     1
102
RTVSPropertyOp25
 70
     1
102
RTVSPropertyOp26
 70
     1
102
RTVSPropertyOp27
 70
     1
102
RTVSPropertyOp28
 70
     1
102
RTVSPropertyOp29
 70
     1
102
RTVSPropertyOp30
 70
     1
102
RTVSPropertyOp31
 70
     1
102
RTVSPropertyOp32
 70
     1
102
RTVSPropertyOp33
 70
     1
102
RTVSPropertyOp34
 70
     1
102
RTVSPropertyOp35
 70
     1
102
RTVSPropertyOp36
 70
     1
102
RTVSPropertyOp37
 70
     1
102
RTVSPropertyOp38
 70
     1
102
RTVSPropertyOp39
 70
     1
102
RTVSPropertyOp40
 70
     1
102
RTVSPropertyOp41
 70
     1
102
RTVSPropertyOp42
 70
     1
102
RTVSPropertyOp43
 70
     1
102
RTVSPropertyOp44
 70
     1
102
RTVSPropertyOp45
 70
     1
102
RTVSPropertyOp46
 70
     1
102
RTVSPropertyOp47
 70
     1
102
RTVSPropertyOp48
 70
     1
102
RTVSPropertyOp49
 70
     1
102
RTVSPropertyOp50
 70
     1
102
RTVSPropertyOp51
 70
     0
102
RTVSPropertyOp52
 70
     0
102
RTVSPropertyOp53
 70
     1
102
RTVSPropertyOp54
 70
     1
102
RTVSPropertyOp55
 70
     1
102
RTVSPropertyOp56
 70
     1
102
RTVSPropertyOp57
 70
     1
102
RTVSPropertyOp58
 70
     1
102
RTVSPropertyOp59
 70
     1
102
RTVSPropertyOp60
 70
     1
102
RTVSPropertyOp61
 70
     1
102
RTVSPropertyOp62
 70
     1
  0
XRECORD
  5
5BF5
102
{ACAD_REACTORS
330
5BF4
102
}
330
5BF4
100
AcDbXrecord
280
     1
102
RTVSPost2010Prop28
280
     0
102
RTVSPost2010PropOp28
 70
     1
102
RTVSPost2010Prop29
280
     1
102
RTVSPost2010PropOp29
 70
     1
102
RTVSPost2010Prop30
280
     1
102
RTVSPost2010PropOp30
 70
     1
102
RTVSPost2010Prop31
280
     0
102
RTVSPost2010PropOp31
 70
     1
102
RTVSPost2010Prop32
280
     0
102
RTVSPost2010PropOp32
 70
     1
102
RTVSPost2010Prop33
280
     0
102
RTVSPost2010PropOp33
 70
     1
102
RTVSPost2010Prop34
280
     0
102
RTVSPost2010PropOp34
 70
     1
102
RTVSPost2010Prop35
280
     0
102
RTVSPost2010PropOp35
 70
     1
102
RTVSPost2010Prop36
280
     0
102
RTVSPost2010PropOp36
 70
     1
102
RTVSPost2010Prop37
 90
       50
102
RTVSPost2010PropOp37
 70
     1
102
RTVSPost2010Prop38
140
0.0
102
RTVSPost2010PropOp38
 70
     1
102
RTVSPost2010Prop39
140
1.0
102
RTVSPost2010PropOp39
 70
     1
102
RTVSPost2010Prop40
 90
        0
102
RTVSPost2010PropOp40
 70
     1
102
RTVSPost2010Prop41ColorIndex
 90
       18
102
RTVSPost2010Prop41ColorRGB
 90
        0
102
RTVSPost2010PropOp41
 70
     1
102
RTVSPost2010Prop42
 90
       50
102
RTVSPost2010PropOp42
 70
     1
102
RTVSPost2010Prop43
 90
        3
102
RTVSPost2010PropOp43
 70
     1
102
RTVSPost2010Prop44ColorIndex
 90
        5
102
RTVSPost2010Prop44ColorRGB
 90
      255
102
RTVSPost2010PropOp44
 70
     1
102
RTVSPost2010Prop45
280
     0
102
RTVSPost2010PropOp45
 70
     1
102
RTVSPost2010Prop46
 90
       50
102
RTVSPost2010PropOp46
 70
     1
102
RTVSPost2010Prop47
 90
       50
102
RTVSPost2010PropOp47
 70
     1
102
RTVSPost2010Prop48
 90
       50
102
RTVSPost2010PropOp48
 70
     1
102
RTVSPost2010Prop49
280
     0
102
RTVSPost2010PropOp49
 70
     1
102
RTVSPost2010Prop50
 90
       50
102
RTVSPost2010PropOp50
 70
     1
102
RTVSPost2010Prop51ColorIndex
 90
      256
102
RTVSPost2010Prop51ColorRGB
 90
-16777216
102
RTVSPost2010PropOp51
 70
     0
102
RTVSPost2010Prop52
140
1.0
102
RTVSPost2010PropOp52
 70
     0
102
RTVSPost2010Prop53
 90
        2
102
RTVSPost2010PropOp53
 70
     1
102
RTVSPost2010Prop54
  1
strokes_ogs.tif
102
RTVSPost2010PropOp54
 70
     1
102
RTVSPost2010Prop55
280
     0
102
RTVSPost2010PropOp55
 70
     1
102
RTVSPost2010Prop56
140
1.0
102
RTVSPost2010PropOp56
 70
     1
102
RTVSPost2010Prop57
140
1.0
102
RTVSPost2010PropOp57
 70
     1
102
RTVSPropertyOp0
 70
     1
102
RTVSPropertyOp1
 70
     1
102
RTVSPropertyOp2
 70
     1
102
RTVSPropertyOp3
 70
     1
102
RTVSPropertyOp4
 70
     1
102
RTVSPropertyOp5
 70
     1
102
RTVSPropertyOp6
 70
     1
102
RTVSPropertyOp7
 70
     1
102
RTVSPropertyOp8
 70
     1
102
RTVSPropertyOp9
 70
     1
102
RTVSPropertyOp10
 70
     1
102
RTVSPropertyOp11
 70
     1
102
RTVSPropertyOp12
 70
     1
102
RTVSPropertyOp13
 70
     1
102
RTVSPropertyOp14
 70
     1
102
RTVSPropertyOp15
 70
     1
102
RTVSPropertyOp16
 70
     1
102
RTVSPropertyOp17
 70
     1
102
RTVSPropertyOp18
 70
     1
102
RTVSPropertyOp19
 70
     1
102
RTVSPropertyOp20
 70
     1
102
RTVSPropertyOp21
 70
     1
102
RTVSPropertyOp22
 70
     1
102
RTVSPropertyOp23
 70
     1
102
RTVSPropertyOp24
 70
     1
102
RTVSPropertyOp25
 70
     1
102
RTVSPropertyOp26
 70
     1
102
RTVSPropertyOp27
 70
     1
102
RTVSPropertyOp28
 70
     1
102
RTVSPropertyOp29
 70
     1
102
RTVSPropertyOp30
 70
     1
102
RTVSPropertyOp31
 70
     1
102
RTVSPropertyOp32
 70
     1
102
RTVSPropertyOp33
 70
     1
102
RTVSPropertyOp34
 70
     1
102
RTVSPropertyOp35
 70
     1
102
RTVSPropertyOp36
 70
     1
102
RTVSPropertyOp37
 70
     1
102
RTVSPropertyOp38
 70
     1
102
RTVSPropertyOp39
 70
     1
102
RTVSPropertyOp40
 70
     1
102
RTVSPropertyOp41
 70
     1
102
RTVSPropertyOp42
 70
     1
102
RTVSPropertyOp43
 70
     1
102
RTVSPropertyOp44
 70
     1
102
RTVSPropertyOp45
 70
     1
102
RTVSPropertyOp46
 70
     1
102
RTVSPropertyOp47
 70
     1
102
RTVSPropertyOp48
 70
     1
102
RTVSPropertyOp49
 70
     1
102
RTVSPropertyOp50
 70
     1
102
RTVSPropertyOp51
 70
     0
102
RTVSPropertyOp52
 70
     0
102
RTVSPropertyOp53
 70
     1
102
RTVSPropertyOp54
 70
     1
102
RTVSPropertyOp55
 70
     1
102
RTVSPropertyOp56
 70
     1
102
RTVSPropertyOp57
 70
     1
102
RTVSPropertyOp58
 70
     1
102
RTVSPropertyOp59
 70
     1
102
RTVSPropertyOp60
 70
     1
102
RTVSPropertyOp61
 70
     1
102
RTVSPropertyOp62
 70
     1
  0
XRECORD
  5
5BF7
102
{ACAD_REACTORS
330
5BF6
102
}
330
5BF6
100
AcDbXrecord
280
     1
102
RTVSPost2010Prop28
280
     0
102
RTVSPost2010PropOp28
 70
     1
102
RTVSPost2010Prop29
280
     1
102
RTVSPost2010PropOp29
 70
     1
102
RTVSPost2010Prop30
280
     1
102
RTVSPost2010PropOp30
 70
     1
102
RTVSPost2010Prop31
280
     0
102
RTVSPost2010PropOp31
 70
     1
102
RTVSPost2010Prop32
280
     0
102
RTVSPost2010PropOp32
 70
     1
102
RTVSPost2010Prop33
280
     0
102
RTVSPost2010PropOp33
 70
     1
102
RTVSPost2010Prop34
280
     0
102
RTVSPost2010PropOp34
 70
     1
102
RTVSPost2010Prop35
280
     0
102
RTVSPost2010PropOp35
 70
     1
102
RTVSPost2010Prop36
280
     0
102
RTVSPost2010PropOp36
 70
     1
102
RTVSPost2010Prop37
 90
       50
102
RTVSPost2010PropOp37
 70
     1
102
RTVSPost2010Prop38
140
0.0
102
RTVSPost2010PropOp38
 70
     1
102
RTVSPost2010Prop39
140
1.0
102
RTVSPost2010PropOp39
 70
     1
102
RTVSPost2010Prop40
 90
        0
102
RTVSPost2010PropOp40
 70
     1
102
RTVSPost2010Prop41ColorIndex
 90
       18
102
RTVSPost2010Prop41ColorRGB
 90
        0
102
RTVSPost2010PropOp41
 70
     1
102
RTVSPost2010Prop42
 90
       50
102
RTVSPost2010PropOp42
 70
     1
102
RTVSPost2010Prop43
 90
        3
102
RTVSPost2010PropOp43
 70
     1
102
RTVSPost2010Prop44ColorIndex
 90
        5
102
RTVSPost2010Prop44ColorRGB
 90
      255
102
RTVSPost2010PropOp44
 70
     1
102
RTVSPost2010Prop45
280
     0
102
RTVSPost2010PropOp45
 70
     1
102
RTVSPost2010Prop46
 90
       50
102
RTVSPost2010PropOp46
 70
     1
102
RTVSPost2010Prop47
 90
       50
102
RTVSPost2010PropOp47
 70
     1
102
RTVSPost2010Prop48
 90
       50
102
RTVSPost2010PropOp48
 70
     1
102
RTVSPost2010Prop49
280
     0
102
RTVSPost2010PropOp49
 70
     1
102
RTVSPost2010Prop50
 90
       50
102
RTVSPost2010PropOp50
 70
     1
102
RTVSPost2010Prop51ColorIndex
 90
      256
102
RTVSPost2010Prop51ColorRGB
 90
-16777216
102
RTVSPost2010PropOp51
 70
     0
102
RTVSPost2010Prop52
140
1.0
102
RTVSPost2010PropOp52
 70
     0
102
RTVSPost2010Prop53
 90
        2
102
RTVSPost2010PropOp53
 70
     1
102
RTVSPost2010Prop54
  1
strokes_ogs.tif
102
RTVSPost2010PropOp54
 70
     1
102
RTVSPost2010Prop55
280
     0
102
RTVSPost2010PropOp55
 70
     1
102
RTVSPost2010Prop56
140
1.0
102
RTVSPost2010PropOp56
 70
     1
102
RTVSPost2010Prop57
140
1.0
102
RTVSPost2010PropOp57
 70
     1
102
RTVSPropertyOp0
 70
     1
102
RTVSPropertyOp1
 70
     1
102
RTVSPropertyOp2
 70
     1
102
RTVSPropertyOp3
 70
     1
102
RTVSPropertyOp4
 70
     1
102
RTVSPropertyOp5
 70
     1
102
RTVSPropertyOp6
 70
     1
102
RTVSPropertyOp7
 70
     1
102
RTVSPropertyOp8
 70
     1
102
RTVSPropertyOp9
 70
     1
102
RTVSPropertyOp10
 70
     1
102
RTVSPropertyOp11
 70
     1
102
RTVSPropertyOp12
 70
     1
102
RTVSPropertyOp13
 70
     1
102
RTVSPropertyOp14
 70
     1
102
RTVSPropertyOp15
 70
     1
102
RTVSPropertyOp16
 70
     1
102
RTVSPropertyOp17
 70
     1
102
RTVSPropertyOp18
 70
     1
102
RTVSPropertyOp19
 70
     1
102
RTVSPropertyOp20
 70
     1
102
RTVSPropertyOp21
 70
     1
102
RTVSPropertyOp22
 70
     1
102
RTVSPropertyOp23
 70
     1
102
RTVSPropertyOp24
 70
     1
102
RTVSPropertyOp25
 70
     1
102
RTVSPropertyOp26
 70
     1
102
RTVSPropertyOp27
 70
     1
102
RTVSPropertyOp28
 70
     1
102
RTVSPropertyOp29
 70
     1
102
RTVSPropertyOp30
 70
     1
102
RTVSPropertyOp31
 70
     1
102
RTVSPropertyOp32
 70
     1
102
RTVSPropertyOp33
 70
     1
102
RTVSPropertyOp34
 70
     1
102
RTVSPropertyOp35
 70
     1
102
RTVSPropertyOp36
 70
     1
102
RTVSPropertyOp37
 70
     1
102
RTVSPropertyOp38
 70
     1
102
RTVSPropertyOp39
 70
     1
102
RTVSPropertyOp40
 70
     1
102
RTVSPropertyOp41
 70
     1
102
RTVSPropertyOp42
 70
     1
102
RTVSPropertyOp43
 70
     1
102
RTVSPropertyOp44
 70
     1
102
RTVSPropertyOp45
 70
     1
102
RTVSPropertyOp46
 70
     1
102
RTVSPropertyOp47
 70
     1
102
RTVSPropertyOp48
 70
     1
102
RTVSPropertyOp49
 70
     1
102
RTVSPropertyOp50
 70
     1
102
RTVSPropertyOp51
 70
     0
102
RTVSPropertyOp52
 70
     0
102
RTVSPropertyOp53
 70
     1
102
RTVSPropertyOp54
 70
     1
102
RTVSPropertyOp55
 70
     1
102
RTVSPropertyOp56
 70
     1
102
RTVSPropertyOp57
 70
     1
102
RTVSPropertyOp58
 70
     1
102
RTVSPropertyOp59
 70
     1
102
RTVSPropertyOp60
 70
     1
102
RTVSPropertyOp61
 70
     1
102
RTVSPropertyOp62
 70
     1
  0
XRECORD
  5
5BF9
102
{ACAD_REACTORS
330
5BF8
102
}
330
5BF8
100
AcDbXrecord
280
     1
102
RTVSPost2010Prop28
280
     0
102
RTVSPost2010PropOp28
 70
     1
102
RTVSPost2010Prop29
280
     1
102
RTVSPost2010PropOp29
 70
     1
102
RTVSPost2010Prop30
280
     1
102
RTVSPost2010PropOp30
 70
     1
102
RTVSPost2010Prop31
280
     0
102
RTVSPost2010PropOp31
 70
     1
102
RTVSPost2010Prop32
280
     0
102
RTVSPost2010PropOp32
 70
     1
102
RTVSPost2010Prop33
280
     0
102
RTVSPost2010PropOp33
 70
     1
102
RTVSPost2010Prop34
280
     0
102
RTVSPost2010PropOp34
 70
     1
102
RTVSPost2010Prop35
280
     0
102
RTVSPost2010PropOp35
 70
     1
102
RTVSPost2010Prop36
280
     0
102
RTVSPost2010PropOp36
 70
     1
102
RTVSPost2010Prop37
 90
       50
102
RTVSPost2010PropOp37
 70
     1
102
RTVSPost2010Prop38
140
0.0
102
RTVSPost2010PropOp38
 70
     1
102
RTVSPost2010Prop39
140
1.0
102
RTVSPost2010PropOp39
 70
     1
102
RTVSPost2010Prop40
 90
        0
102
RTVSPost2010PropOp40
 70
     1
102
RTVSPost2010Prop41ColorIndex
 90
       18
102
RTVSPost2010Prop41ColorRGB
 90
        0
102
RTVSPost2010PropOp41
 70
     1
102
RTVSPost2010Prop42
 90
       50
102
RTVSPost2010PropOp42
 70
     1
102
RTVSPost2010Prop43
 90
        3
102
RTVSPost2010PropOp43
 70
     1
102
RTVSPost2010Prop44ColorIndex
 90
        5
102
RTVSPost2010Prop44ColorRGB
 90
      255
102
RTVSPost2010PropOp44
 70
     1
102
RTVSPost2010Prop45
280
     0
102
RTVSPost2010PropOp45
 70
     1
102
RTVSPost2010Prop46
 90
       50
102
RTVSPost2010PropOp46
 70
     1
102
RTVSPost2010Prop47
 90
       50
102
RTVSPost2010PropOp47
 70
     1
102
RTVSPost2010Prop48
 90
       50
102
RTVSPost2010PropOp48
 70
     1
102
RTVSPost2010Prop49
280
     0
102
RTVSPost2010PropOp49
 70
     1
102
RTVSPost2010Prop50
 90
       50
102
RTVSPost2010PropOp50
 70
     1
102
RTVSPost2010Prop51ColorIndex
 90
      256
102
RTVSPost2010Prop51ColorRGB
 90
-16777216
102
RTVSPost2010PropOp51
 70
     0
102
RTVSPost2010Prop52
140
1.0
102
RTVSPost2010PropOp52
 70
     0
102
RTVSPost2010Prop53
 90
        2
102
RTVSPost2010PropOp53
 70
     1
102
RTVSPost2010Prop54
  1
strokes_ogs.tif
102
RTVSPost2010PropOp54
 70
     1
102
RTVSPost2010Prop55
280
     0
102
RTVSPost2010PropOp55
 70
     1
102
RTVSPost2010Prop56
140
1.0
102
RTVSPost2010PropOp56
 70
     1
102
RTVSPost2010Prop57
140
1.0
102
RTVSPost2010PropOp57
 70
     1
102
RTVSPropertyOp0
 70
     1
102
RTVSPropertyOp1
 70
     1
102
RTVSPropertyOp2
 70
     1
102
RTVSPropertyOp3
 70
     1
102
RTVSPropertyOp4
 70
     1
102
RTVSPropertyOp5
 70
     1
102
RTVSPropertyOp6
 70
     1
102
RTVSPropertyOp7
 70
     1
102
RTVSPropertyOp8
 70
     1
102
RTVSPropertyOp9
 70
     1
102
RTVSPropertyOp10
 70
     1
102
RTVSPropertyOp11
 70
     1
102
RTVSPropertyOp12
 70
     1
102
RTVSPropertyOp13
 70
     1
102
RTVSPropertyOp14
 70
     1
102
RTVSPropertyOp15
 70
     1
102
RTVSPropertyOp16
 70
     1
102
RTVSPropertyOp17
 70
     1
102
RTVSPropertyOp18
 70
     1
102
RTVSPropertyOp19
 70
     1
102
RTVSPropertyOp20
 70
     1
102
RTVSPropertyOp21
 70
     1
102
RTVSPropertyOp22
 70
     1
102
RTVSPropertyOp23
 70
     1
102
RTVSPropertyOp24
 70
     1
102
RTVSPropertyOp25
 70
     1
102
RTVSPropertyOp26
 70
     1
102
RTVSPropertyOp27
 70
     1
102
RTVSPropertyOp28
 70
     1
102
RTVSPropertyOp29
 70
     1
102
RTVSPropertyOp30
 70
     1
102
RTVSPropertyOp31
 70
     1
102
RTVSPropertyOp32
 70
     1
102
RTVSPropertyOp33
 70
     1
102
RTVSPropertyOp34
 70
     1
102
RTVSPropertyOp35
 70
     1
102
RTVSPropertyOp36
 70
     1
102
RTVSPropertyOp37
 70
     1
102
RTVSPropertyOp38
 70
     1
102
RTVSPropertyOp39
 70
     1
102
RTVSPropertyOp40
 70
     1
102
RTVSPropertyOp41
 70
     1
102
RTVSPropertyOp42
 70
     1
102
RTVSPropertyOp43
 70
     1
102
RTVSPropertyOp44
 70
     1
102
RTVSPropertyOp45
 70
     1
102
RTVSPropertyOp46
 70
     1
102
RTVSPropertyOp47
 70
     1
102
RTVSPropertyOp48
 70
     1
102
RTVSPropertyOp49
 70
     1
102
RTVSPropertyOp50
 70
     1
102
RTVSPropertyOp51
 70
     0
102
RTVSPropertyOp52
 70
     0
102
RTVSPropertyOp53
 70
     1
102
RTVSPropertyOp54
 70
     1
102
RTVSPropertyOp55
 70
     1
102
RTVSPropertyOp56
 70
     1
102
RTVSPropertyOp57
 70
     1
102
RTVSPropertyOp58
 70
     1
102
RTVSPropertyOp59
 70
     1
102
RTVSPropertyOp60
 70
     1
102
RTVSPropertyOp61
 70
     1
102
RTVSPropertyOp62
 70
     1
  0
XRECORD
  5
5C01
102
{ACAD_REACTORS
330
5C00
102
}
330
5C00
100
AcDbXrecord
280
     1
102
RTVSPost2010Prop28
280
     0
102
RTVSPost2010PropOp28
 70
     1
102
RTVSPost2010Prop29
280
     1
102
RTVSPost2010PropOp29
 70
     1
102
RTVSPost2010Prop30
280
     1
102
RTVSPost2010PropOp30
 70
     1
102
RTVSPost2010Prop31
280
     0
102
RTVSPost2010PropOp31
 70
     1
102
RTVSPost2010Prop32
280
     0
102
RTVSPost2010PropOp32
 70
     1
102
RTVSPost2010Prop33
280
     0
102
RTVSPost2010PropOp33
 70
     1
102
RTVSPost2010Prop34
280
     0
102
RTVSPost2010PropOp34
 70
     1
102
RTVSPost2010Prop35
280
     0
102
RTVSPost2010PropOp35
 70
     1
102
RTVSPost2010Prop36
280
     0
102
RTVSPost2010PropOp36
 70
     1
102
RTVSPost2010Prop37
 90
       50
102
RTVSPost2010PropOp37
 70
     1
102
RTVSPost2010Prop38
140
0.0
102
RTVSPost2010PropOp38
 70
     1
102
RTVSPost2010Prop39
140
1.0
102
RTVSPost2010PropOp39
 70
     1
102
RTVSPost2010Prop40
 90
        0
102
RTVSPost2010PropOp40
 70
     1
102
RTVSPost2010Prop41ColorIndex
 90
       18
102
RTVSPost2010Prop41ColorRGB
 90
        0
102
RTVSPost2010PropOp41
 70
     1
102
RTVSPost2010Prop42
 90
       50
102
RTVSPost2010PropOp42
 70
     1
102
RTVSPost2010Prop43
 90
        3
102
RTVSPost2010PropOp43
 70
     1
102
RTVSPost2010Prop44ColorIndex
 90
        5
102
RTVSPost2010Prop44ColorRGB
 90
      255
102
RTVSPost2010PropOp44
 70
     1
102
RTVSPost2010Prop45
280
     0
102
RTVSPost2010PropOp45
 70
     1
102
RTVSPost2010Prop46
 90
       50
102
RTVSPost2010PropOp46
 70
     1
102
RTVSPost2010Prop47
 90
       50
102
RTVSPost2010PropOp47
 70
     1
102
RTVSPost2010Prop48
 90
       50
102
RTVSPost2010PropOp48
 70
     1
102
RTVSPost2010Prop49
280
     0
102
RTVSPost2010PropOp49
 70
     1
102
RTVSPost2010Prop50
 90
       50
102
RTVSPost2010PropOp50
 70
     1
102
RTVSPost2010Prop51ColorIndex
 90
      256
102
RTVSPost2010Prop51ColorRGB
 90
-16777216
102
RTVSPost2010PropOp51
 70
     0
102
RTVSPost2010Prop52
140
1.0
102
RTVSPost2010PropOp52
 70
     0
102
RTVSPost2010Prop53
 90
        2
102
RTVSPost2010PropOp53
 70
     1
102
RTVSPost2010Prop54
  1
strokes_ogs.tif
102
RTVSPost2010PropOp54
 70
     1
102
RTVSPost2010Prop55
280
     0
102
RTVSPost2010PropOp55
 70
     1
102
RTVSPost2010Prop56
140
1.0
102
RTVSPost2010PropOp56
 70
     1
102
RTVSPost2010Prop57
140
1.0
102
RTVSPost2010PropOp57
 70
     1
102
RTVSPropertyOp0
 70
     1
102
RTVSPropertyOp1
 70
     1
102
RTVSPropertyOp2
 70
     1
102
RTVSPropertyOp3
 70
     1
102
RTVSPropertyOp4
 70
     1
102
RTVSPropertyOp5
 70
     1
102
RTVSPropertyOp6
 70
     1
102
RTVSPropertyOp7
 70
     1
102
RTVSPropertyOp8
 70
     1
102
RTVSPropertyOp9
 70
     1
102
RTVSPropertyOp10
 70
     1
102
RTVSPropertyOp11
 70
     1
102
RTVSPropertyOp12
 70
     1
102
RTVSPropertyOp13
 70
     1
102
RTVSPropertyOp14
 70
     1
102
RTVSPropertyOp15
 70
     1
102
RTVSPropertyOp16
 70
     1
102
RTVSPropertyOp17
 70
     1
102
RTVSPropertyOp18
 70
     1
102
RTVSPropertyOp19
 70
     1
102
RTVSPropertyOp20
 70
     1
102
RTVSPropertyOp21
 70
     1
102
RTVSPropertyOp22
 70
     1
102
RTVSPropertyOp23
 70
     1
102
RTVSPropertyOp24
 70
     1
102
RTVSPropertyOp25
 70
     1
102
RTVSPropertyOp26
 70
     1
102
RTVSPropertyOp27
 70
     1
102
RTVSPropertyOp28
 70
     1
102
RTVSPropertyOp29
 70
     1
102
RTVSPropertyOp30
 70
     1
102
RTVSPropertyOp31
 70
     1
102
RTVSPropertyOp32
 70
     1
102
RTVSPropertyOp33
 70
     1
102
RTVSPropertyOp34
 70
     1
102
RTVSPropertyOp35
 70
     1
102
RTVSPropertyOp36
 70
     1
102
RTVSPropertyOp37
 70
     1
102
RTVSPropertyOp38
 70
     1
102
RTVSPropertyOp39
 70
     1
102
RTVSPropertyOp40
 70
     1
102
RTVSPropertyOp41
 70
     1
102
RTVSPropertyOp42
 70
     1
102
RTVSPropertyOp43
 70
     1
102
RTVSPropertyOp44
 70
     1
102
RTVSPropertyOp45
 70
     1
102
RTVSPropertyOp46
 70
     1
102
RTVSPropertyOp47
 70
     1
102
RTVSPropertyOp48
 70
     1
102
RTVSPropertyOp49
 70
     1
102
RTVSPropertyOp50
 70
     1
102
RTVSPropertyOp51
 70
     0
102
RTVSPropertyOp52
 70
     0
102
RTVSPropertyOp53
 70
     1
102
RTVSPropertyOp54
 70
     1
102
RTVSPropertyOp55
 70
     1
102
RTVSPropertyOp56
 70
     1
102
RTVSPropertyOp57
 70
     1
102
RTVSPropertyOp58
 70
     1
102
RTVSPropertyOp59
 70
     1
102
RTVSPropertyOp60
 70
     1
102
RTVSPropertyOp61
 70
     1
102
RTVSPropertyOp62
 70
     1
  0
XRECORD
  5
5C1D
102
{ACAD_REACTORS
330
5C1C
102
}
330
5C1C
100
AcDbXrecord
280
     1
102
RTVSPost2010Prop28
280
     0
102
RTVSPost2010PropOp28
 70
     0
102
RTVSPost2010Prop29
280
     1
102
RTVSPost2010PropOp29
 70
     0
102
RTVSPost2010Prop30
280
     1
102
RTVSPost2010PropOp30
 70
     0
102
RTVSPost2010Prop31
280
     0
102
RTVSPost2010PropOp31
 70
     0
102
RTVSPost2010Prop32
280
     0
102
RTVSPost2010PropOp32
 70
     0
102
RTVSPost2010Prop33
280
     0
102
RTVSPost2010PropOp33
 70
     0
102
RTVSPost2010Prop34
280
     0
102
RTVSPost2010PropOp34
 70
     0
102
RTVSPost2010Prop35
280
     0
102
RTVSPost2010PropOp35
 70
     0
102
RTVSPost2010Prop36
280
     0
102
RTVSPost2010PropOp36
 70
     0
102
RTVSPost2010Prop37
 90
       50
102
RTVSPost2010PropOp37
 70
     0
102
RTVSPost2010Prop38
140
0.0
102
RTVSPost2010PropOp38
 70
     0
102
RTVSPost2010Prop39
140
1.0
102
RTVSPost2010PropOp39
 70
     0
102
RTVSPost2010Prop40
 90
        0
102
RTVSPost2010PropOp40
 70
     0
102
RTVSPost2010Prop41ColorIndex
 90
       18
102
RTVSPost2010Prop41ColorRGB
 90
        0
102
RTVSPost2010PropOp41
 70
     0
102
RTVSPost2010Prop42
 90
       50
102
RTVSPost2010PropOp42
 70
     0
102
RTVSPost2010Prop43
 90
        3
102
RTVSPost2010PropOp43
 70
     0
102
RTVSPost2010Prop44ColorIndex
 90
        5
102
RTVSPost2010Prop44ColorRGB
 90
      255
102
RTVSPost2010PropOp44
 70
     0
102
RTVSPost2010Prop45
280
     0
102
RTVSPost2010PropOp45
 70
     0
102
RTVSPost2010Prop46
 90
       50
102
RTVSPost2010PropOp46
 70
     0
102
RTVSPost2010Prop47
 90
       50
102
RTVSPost2010PropOp47
 70
     0
102
RTVSPost2010Prop48
 90
       50
102
RTVSPost2010PropOp48
 70
     0
102
RTVSPost2010Prop49
280
     0
102
RTVSPost2010PropOp49
 70
     0
102
RTVSPost2010Prop50
 90
       50
102
RTVSPost2010PropOp50
 70
     0
102
RTVSPost2010Prop51ColorIndex
 90
      256
102
RTVSPost2010Prop51ColorRGB
 90
-16777216
102
RTVSPost2010PropOp51
 70
     0
102
RTVSPost2010Prop52
140
1.0
102
RTVSPost2010PropOp52
 70
     0
102
RTVSPost2010Prop53
 90
        2
102
RTVSPost2010PropOp53
 70
     0
102
RTVSPost2010Prop54
  1
strokes_ogs.tif
102
RTVSPost2010PropOp54
 70
     0
102
RTVSPost2010Prop55
280
     0
102
RTVSPost2010PropOp55
 70
     0
102
RTVSPost2010Prop56
140
1.0
102
RTVSPost2010PropOp56
 70
     0
102
RTVSPost2010Prop57
140
1.0
102
RTVSPost2010PropOp57
 70
     0
102
RTVSPropertyOp0
 70
     0
102
RTVSPropertyOp1
 70
     0
102
RTVSPropertyOp2
 70
     0
102
RTVSPropertyOp3
 70
     0
102
RTVSPropertyOp4
 70
     0
102
RTVSPropertyOp5
 70
     0
102
RTVSPropertyOp6
 70
     0
102
RTVSPropertyOp7
 70
     0
102
RTVSPropertyOp8
 70
     0
102
RTVSPropertyOp9
 70
     0
102
RTVSPropertyOp10
 70
     0
102
RTVSPropertyOp11
 70
     0
102
RTVSPropertyOp12
 70
     0
102
RTVSPropertyOp13
 70
     0
102
RTVSPropertyOp14
 70
     2
102
RTVSPropertyOp15
 70
     0
102
RTVSPropertyOp16
 70
     0
102
RTVSPropertyOp17
 70
     0
102
RTVSPropertyOp18
 70
     0
102
RTVSPropertyOp19
 70
     0
102
RTVSPropertyOp20
 70
     0
102
RTVSPropertyOp21
 70
     0
102
RTVSPropertyOp22
 70
     0
102
RTVSPropertyOp23
 70
     0
102
RTVSPropertyOp24
 70
     0
102
RTVSPropertyOp25
 70
     0
102
RTVSPropertyOp26
 70
     0
102
RTVSPropertyOp27
 70
     0
102
RTVSPropertyOp28
 70
     0
102
RTVSPropertyOp29
 70
     0
102
RTVSPropertyOp30
 70
     0
102
RTVSPropertyOp31
 70
     0
102
RTVSPropertyOp32
 70
     0
102
RTVSPropertyOp33
 70
     0
102
RTVSPropertyOp34
 70
     0
102
RTVSPropertyOp35
 70
     0
102
RTVSPropertyOp36
 70
     0
102
RTVSPropertyOp37
 70
     0
102
RTVSPropertyOp38
 70
     0
102
RTVSPropertyOp39
 70
     0
102
RTVSPropertyOp40
 70
     0
102
RTVSPropertyOp41
 70
     0
102
RTVSPropertyOp42
 70
     0
102
RTVSPropertyOp43
 70
     0
102
RTVSPropertyOp44
 70
     0
102
RTVSPropertyOp45
 70
     0
102
RTVSPropertyOp46
 70
     0
102
RTVSPropertyOp47
 70
     0
102
RTVSPropertyOp48
 70
     0
102
RTVSPropertyOp49
 70
     0
102
RTVSPropertyOp50
 70
     0
102
RTVSPropertyOp51
 70
     0
102
RTVSPropertyOp52
 70
     0
102
RTVSPropertyOp53
 70
     0
102
RTVSPropertyOp54
 70
     0
102
RTVSPropertyOp55
 70
     0
102
RTVSPropertyOp56
 70
     0
102
RTVSPropertyOp57
 70
     0
102
RTVSPropertyOp58
 70
     1
102
RTVSPropertyOp59
 70
     1
102
RTVSPropertyOp60
 70
     1
102
RTVSPropertyOp61
 70
     1
102
RTVSPropertyOp62
 70
     1
  0
XRECORD
  5
5C0D
102
{ACAD_REACTORS
330
5C0C
102
}
330
5C0C
100
AcDbXrecord
280
     1
102
RTVSPost2010Prop28
280
     0
102
RTVSPost2010PropOp28
 70
     1
102
RTVSPost2010Prop29
280
     1
102
RTVSPost2010PropOp29
 70
     1
102
RTVSPost2010Prop30
280
     1
102
RTVSPost2010PropOp30
 70
     1
102
RTVSPost2010Prop31
280
     0
102
RTVSPost2010PropOp31
 70
     1
102
RTVSPost2010Prop32
280
     0
102
RTVSPost2010PropOp32
 70
     1
102
RTVSPost2010Prop33
280
     0
102
RTVSPost2010PropOp33
 70
     1
102
RTVSPost2010Prop34
280
     0
102
RTVSPost2010PropOp34
 70
     1
102
RTVSPost2010Prop35
280
     0
102
RTVSPost2010PropOp35
 70
     1
102
RTVSPost2010Prop36
280
     0
102
RTVSPost2010PropOp36
 70
     1
102
RTVSPost2010Prop37
 90
       50
102
RTVSPost2010PropOp37
 70
     1
102
RTVSPost2010Prop38
140
0.0
102
RTVSPost2010PropOp38
 70
     1
102
RTVSPost2010Prop39
140
1.0
102
RTVSPost2010PropOp39
 70
     1
102
RTVSPost2010Prop40
 90
        0
102
RTVSPost2010PropOp40
 70
     1
102
RTVSPost2010Prop41ColorIndex
 90
       18
102
RTVSPost2010Prop41ColorRGB
 90
        0
102
RTVSPost2010PropOp41
 70
     1
102
RTVSPost2010Prop42
 90
       50
102
RTVSPost2010PropOp42
 70
     1
102
RTVSPost2010Prop43
 90
        3
102
RTVSPost2010PropOp43
 70
     1
102
RTVSPost2010Prop44ColorIndex
 90
        5
102
RTVSPost2010Prop44ColorRGB
 90
      255
102
RTVSPost2010PropOp44
 70
     1
102
RTVSPost2010Prop45
280
     0
102
RTVSPost2010PropOp45
 70
     1
102
RTVSPost2010Prop46
 90
       50
102
RTVSPost2010PropOp46
 70
     1
102
RTVSPost2010Prop47
 90
       50
102
RTVSPost2010PropOp47
 70
     1
102
RTVSPost2010Prop48
 90
       50
102
RTVSPost2010PropOp48
 70
     1
102
RTVSPost2010Prop49
280
     0
102
RTVSPost2010PropOp49
 70
     1
102
RTVSPost2010Prop50
 90
       50
102
RTVSPost2010PropOp50
 70
     1
102
RTVSPost2010Prop51ColorIndex
 90
      256
102
RTVSPost2010Prop51ColorRGB
 90
-16777216
102
RTVSPost2010PropOp51
 70
     0
102
RTVSPost2010Prop52
140
1.0
102
RTVSPost2010PropOp52
 70
     0
102
RTVSPost2010Prop53
 90
        2
102
RTVSPost2010PropOp53
 70
     1
102
RTVSPost2010Prop54
  1
strokes_ogs.tif
102
RTVSPost2010PropOp54
 70
     1
102
RTVSPost2010Prop55
280
     0
102
RTVSPost2010PropOp55
 70
     1
102
RTVSPost2010Prop56
140
1.0
102
RTVSPost2010PropOp56
 70
     1
102
RTVSPost2010Prop57
140
1.0
102
RTVSPost2010PropOp57
 70
     1
102
RTVSPropertyOp0
 70
     1
102
RTVSPropertyOp1
 70
     1
102
RTVSPropertyOp2
 70
     1
102
RTVSPropertyOp3
 70
     1
102
RTVSPropertyOp4
 70
     1
102
RTVSPropertyOp5
 70
     1
102
RTVSPropertyOp6
 70
     1
102
RTVSPropertyOp7
 70
     1
102
RTVSPropertyOp8
 70
     1
102
RTVSPropertyOp9
 70
     1
102
RTVSPropertyOp10
 70
     1
102
RTVSPropertyOp11
 70
     1
102
RTVSPropertyOp12
 70
     1
102
RTVSPropertyOp13
 70
     1
102
RTVSPropertyOp14
 70
     1
102
RTVSPropertyOp15
 70
     1
102
RTVSPropertyOp16
 70
     1
102
RTVSPropertyOp17
 70
     1
102
RTVSPropertyOp18
 70
     1
102
RTVSPropertyOp19
 70
     1
102
RTVSPropertyOp20
 70
     1
102
RTVSPropertyOp21
 70
     1
102
RTVSPropertyOp22
 70
     1
102
RTVSPropertyOp23
 70
     1
102
RTVSPropertyOp24
 70
     1
102
RTVSPropertyOp25
 70
     1
102
RTVSPropertyOp26
 70
     1
102
RTVSPropertyOp27
 70
     1
102
RTVSPropertyOp28
 70
     1
102
RTVSPropertyOp29
 70
     1
102
RTVSPropertyOp30
 70
     1
102
RTVSPropertyOp31
 70
     1
102
RTVSPropertyOp32
 70
     1
102
RTVSPropertyOp33
 70
     1
102
RTVSPropertyOp34
 70
     1
102
RTVSPropertyOp35
 70
     1
102
RTVSPropertyOp36
 70
     1
102
RTVSPropertyOp37
 70
     1
102
RTVSPropertyOp38
 70
     1
102
RTVSPropertyOp39
 70
     1
102
RTVSPropertyOp40
 70
     1
102
RTVSPropertyOp41
 70
     1
102
RTVSPropertyOp42
 70
     1
102
RTVSPropertyOp43
 70
     1
102
RTVSPropertyOp44
 70
     1
102
RTVSPropertyOp45
 70
     1
102
RTVSPropertyOp46
 70
     1
102
RTVSPropertyOp47
 70
     1
102
RTVSPropertyOp48
 70
     1
102
RTVSPropertyOp49
 70
     1
102
RTVSPropertyOp50
 70
     1
102
RTVSPropertyOp51
 70
     0
102
RTVSPropertyOp52
 70
     0
102
RTVSPropertyOp53
 70
     1
102
RTVSPropertyOp54
 70
     1
102
RTVSPropertyOp55
 70
     1
102
RTVSPropertyOp56
 70
     1
102
RTVSPropertyOp57
 70
     1
102
RTVSPropertyOp58
 70
     1
102
RTVSPropertyOp59
 70
     1
102
RTVSPropertyOp60
 70
     1
102
RTVSPropertyOp61
 70
     1
102
RTVSPropertyOp62
 70
     1
  0
XRECORD
  5
5C1F
102
{ACAD_REACTORS
330
5C1E
102
}
330
5C1E
100
AcDbXrecord
280
     1
102
RTVSPost2010Prop28
280
     0
102
RTVSPost2010PropOp28
 70
     0
102
RTVSPost2010Prop29
280
     1
102
RTVSPost2010PropOp29
 70
     0
102
RTVSPost2010Prop30
280
     1
102
RTVSPost2010PropOp30
 70
     0
102
RTVSPost2010Prop31
280
     0
102
RTVSPost2010PropOp31
 70
     0
102
RTVSPost2010Prop32
280
     0
102
RTVSPost2010PropOp32
 70
     0
102
RTVSPost2010Prop33
280
     0
102
RTVSPost2010PropOp33
 70
     0
102
RTVSPost2010Prop34
280
     0
102
RTVSPost2010PropOp34
 70
     0
102
RTVSPost2010Prop35
280
     0
102
RTVSPost2010PropOp35
 70
     0
102
RTVSPost2010Prop36
280
     0
102
RTVSPost2010PropOp36
 70
     0
102
RTVSPost2010Prop37
 90
       50
102
RTVSPost2010PropOp37
 70
     0
102
RTVSPost2010Prop38
140
0.0
102
RTVSPost2010PropOp38
 70
     0
102
RTVSPost2010Prop39
140
1.0
102
RTVSPost2010PropOp39
 70
     0
102
RTVSPost2010Prop40
 90
        0
102
RTVSPost2010PropOp40
 70
     0
102
RTVSPost2010Prop41ColorIndex
 90
       18
102
RTVSPost2010Prop41ColorRGB
 90
        0
102
RTVSPost2010PropOp41
 70
     0
102
RTVSPost2010Prop42
 90
       50
102
RTVSPost2010PropOp42
 70
     0
102
RTVSPost2010Prop43
 90
        3
102
RTVSPost2010PropOp43
 70
     0
102
RTVSPost2010Prop44ColorIndex
 90
        5
102
RTVSPost2010Prop44ColorRGB
 90
      255
102
RTVSPost2010PropOp44
 70
     0
102
RTVSPost2010Prop45
280
     0
102
RTVSPost2010PropOp45
 70
     0
102
RTVSPost2010Prop46
 90
       50
102
RTVSPost2010PropOp46
 70
     0
102
RTVSPost2010Prop47
 90
       50
102
RTVSPost2010PropOp47
 70
     0
102
RTVSPost2010Prop48
 90
       50
102
RTVSPost2010PropOp48
 70
     0
102
RTVSPost2010Prop49
280
     0
102
RTVSPost2010PropOp49
 70
     0
102
RTVSPost2010Prop50
 90
       50
102
RTVSPost2010PropOp50
 70
     0
102
RTVSPost2010Prop51ColorIndex
 90
      256
102
RTVSPost2010Prop51ColorRGB
 90
-16777216
102
RTVSPost2010PropOp51
 70
     0
102
RTVSPost2010Prop52
140
1.0
102
RTVSPost2010PropOp52
 70
     0
102
RTVSPost2010Prop53
 90
        2
102
RTVSPost2010PropOp53
 70
     0
102
RTVSPost2010Prop54
  1
strokes_ogs.tif
102
RTVSPost2010PropOp54
 70
     0
102
RTVSPost2010Prop55
280
     0
102
RTVSPost2010PropOp55
 70
     0
102
RTVSPost2010Prop56
140
1.0
102
RTVSPost2010PropOp56
 70
     0
102
RTVSPost2010Prop57
140
1.0
102
RTVSPost2010PropOp57
 70
     0
102
RTVSPropertyOp0
 70
     0
102
RTVSPropertyOp1
 70
     0
102
RTVSPropertyOp2
 70
     0
102
RTVSPropertyOp3
 70
     0
102
RTVSPropertyOp4
 70
     0
102
RTVSPropertyOp5
 70
     0
102
RTVSPropertyOp6
 70
     0
102
RTVSPropertyOp7
 70
     0
102
RTVSPropertyOp8
 70
     0
102
RTVSPropertyOp9
 70
     0
102
RTVSPropertyOp10
 70
     0
102
RTVSPropertyOp11
 70
     0
102
RTVSPropertyOp12
 70
     0
102
RTVSPropertyOp13
 70
     0
102
RTVSPropertyOp14
 70
     2
102
RTVSPropertyOp15
 70
     0
102
RTVSPropertyOp16
 70
     0
102
RTVSPropertyOp17
 70
     0
102
RTVSPropertyOp18
 70
     0
102
RTVSPropertyOp19
 70
     0
102
RTVSPropertyOp20
 70
     0
102
RTVSPropertyOp21
 70
     0
102
RTVSPropertyOp22
 70
     0
102
RTVSPropertyOp23
 70
     0
102
RTVSPropertyOp24
 70
     0
102
RTVSPropertyOp25
 70
     0
102
RTVSPropertyOp26
 70
     0
102
RTVSPropertyOp27
 70
     0
102
RTVSPropertyOp28
 70
     0
102
RTVSPropertyOp29
 70
     0
102
RTVSPropertyOp30
 70
     0
102
RTVSPropertyOp31
 70
     0
102
RTVSPropertyOp32
 70
     0
102
RTVSPropertyOp33
 70
     0
102
RTVSPropertyOp34
 70
     0
102
RTVSPropertyOp35
 70
     0
102
RTVSPropertyOp36
 70
     0
102
RTVSPropertyOp37
 70
     0
102
RTVSPropertyOp38
 70
     0
102
RTVSPropertyOp39
 70
     0
102
RTVSPropertyOp40
 70
     0
102
RTVSPropertyOp41
 70
     0
102
RTVSPropertyOp42
 70
     0
102
RTVSPropertyOp43
 70
     0
102
RTVSPropertyOp44
 70
     0
102
RTVSPropertyOp45
 70
     0
102
RTVSPropertyOp46
 70
     0
102
RTVSPropertyOp47
 70
     0
102
RTVSPropertyOp48
 70
     0
102
RTVSPropertyOp49
 70
     0
102
RTVSPropertyOp50
 70
     0
102
RTVSPropertyOp51
 70
     0
102
RTVSPropertyOp52
 70
     0
102
RTVSPropertyOp53
 70
     0
102
RTVSPropertyOp54
 70
     0
102
RTVSPropertyOp55
 70
     0
102
RTVSPropertyOp56
 70
     0
102
RTVSPropertyOp57
 70
     0
102
RTVSPropertyOp58
 70
     1
102
RTVSPropertyOp59
 70
     1
102
RTVSPropertyOp60
 70
     1
102
RTVSPropertyOp61
 70
     1
102
RTVSPropertyOp62
 70
     1
  0
XRECORD
  5
5C05
102
{ACAD_REACTORS
330
5C04
102
}
330
5C04
100
AcDbXrecord
280
     1
102
RTVSPost2010Prop28
280
     0
102
RTVSPost2010PropOp28
 70
     1
102
RTVSPost2010Prop29
280
     1
102
RTVSPost2010PropOp29
 70
     1
102
RTVSPost2010Prop30
280
     1
102
RTVSPost2010PropOp30
 70
     1
102
RTVSPost2010Prop31
280
     0
102
RTVSPost2010PropOp31
 70
     1
102
RTVSPost2010Prop32
280
     0
102
RTVSPost2010PropOp32
 70
     1
102
RTVSPost2010Prop33
280
     0
102
RTVSPost2010PropOp33
 70
     1
102
RTVSPost2010Prop34
280
     0
102
RTVSPost2010PropOp34
 70
     1
102
RTVSPost2010Prop35
280
     0
102
RTVSPost2010PropOp35
 70
     1
102
RTVSPost2010Prop36
280
     0
102
RTVSPost2010PropOp36
 70
     1
102
RTVSPost2010Prop37
 90
       50
102
RTVSPost2010PropOp37
 70
     1
102
RTVSPost2010Prop38
140
0.0
102
RTVSPost2010PropOp38
 70
     1
102
RTVSPost2010Prop39
140
1.0
102
RTVSPost2010PropOp39
 70
     1
102
RTVSPost2010Prop40
 90
        0
102
RTVSPost2010PropOp40
 70
     1
102
RTVSPost2010Prop41ColorIndex
 90
       18
102
RTVSPost2010Prop41ColorRGB
 90
        0
102
RTVSPost2010PropOp41
 70
     1
102
RTVSPost2010Prop42
 90
       50
102
RTVSPost2010PropOp42
 70
     1
102
RTVSPost2010Prop43
 90
        3
102
RTVSPost2010PropOp43
 70
     1
102
RTVSPost2010Prop44ColorIndex
 90
        5
102
RTVSPost2010Prop44ColorRGB
 90
      255
102
RTVSPost2010PropOp44
 70
     1
102
RTVSPost2010Prop45
280
     0
102
RTVSPost2010PropOp45
 70
     1
102
RTVSPost2010Prop46
 90
       50
102
RTVSPost2010PropOp46
 70
     1
102
RTVSPost2010Prop47
 90
       50
102
RTVSPost2010PropOp47
 70
     1
102
RTVSPost2010Prop48
 90
       50
102
RTVSPost2010PropOp48
 70
     1
102
RTVSPost2010Prop49
280
     0
102
RTVSPost2010PropOp49
 70
     1
102
RTVSPost2010Prop50
 90
       50
102
RTVSPost2010PropOp50
 70
     1
102
RTVSPost2010Prop51ColorIndex
 90
      256
102
RTVSPost2010Prop51ColorRGB
 90
-16777216
102
RTVSPost2010PropOp51
 70
     0
102
RTVSPost2010Prop52
140
1.0
102
RTVSPost2010PropOp52
 70
     0
102
RTVSPost2010Prop53
 90
        2
102
RTVSPost2010PropOp53
 70
     1
102
RTVSPost2010Prop54
  1
strokes_ogs.tif
102
RTVSPost2010PropOp54
 70
     1
102
RTVSPost2010Prop55
280
     0
102
RTVSPost2010PropOp55
 70
     1
102
RTVSPost2010Prop56
140
1.0
102
RTVSPost2010PropOp56
 70
     1
102
RTVSPost2010Prop57
140
1.0
102
RTVSPost2010PropOp57
 70
     1
102
RTVSPropertyOp0
 70
     1
102
RTVSPropertyOp1
 70
     1
102
RTVSPropertyOp2
 70
     1
102
RTVSPropertyOp3
 70
     1
102
RTVSPropertyOp4
 70
     1
102
RTVSPropertyOp5
 70
     1
102
RTVSPropertyOp6
 70
     1
102
RTVSPropertyOp7
 70
     1
102
RTVSPropertyOp8
 70
     1
102
RTVSPropertyOp9
 70
     1
102
RTVSPropertyOp10
 70
     1
102
RTVSPropertyOp11
 70
     1
102
RTVSPropertyOp12
 70
     1
102
RTVSPropertyOp13
 70
     1
102
RTVSPropertyOp14
 70
     1
102
RTVSPropertyOp15
 70
     1
102
RTVSPropertyOp16
 70
     1
102
RTVSPropertyOp17
 70
     1
102
RTVSPropertyOp18
 70
     1
102
RTVSPropertyOp19
 70
     1
102
RTVSPropertyOp20
 70
     1
102
RTVSPropertyOp21
 70
     1
102
RTVSPropertyOp22
 70
     1
102
RTVSPropertyOp23
 70
     1
102
RTVSPropertyOp24
 70
     1
102
RTVSPropertyOp25
 70
     1
102
RTVSPropertyOp26
 70
     1
102
RTVSPropertyOp27
 70
     1
102
RTVSPropertyOp28
 70
     1
102
RTVSPropertyOp29
 70
     1
102
RTVSPropertyOp30
 70
     1
102
RTVSPropertyOp31
 70
     1
102
RTVSPropertyOp32
 70
     1
102
RTVSPropertyOp33
 70
     1
102
RTVSPropertyOp34
 70
     1
102
RTVSPropertyOp35
 70
     1
102
RTVSPropertyOp36
 70
     1
102
RTVSPropertyOp37
 70
     1
102
RTVSPropertyOp38
 70
     1
102
RTVSPropertyOp39
 70
     1
102
RTVSPropertyOp40
 70
     1
102
RTVSPropertyOp41
 70
     1
102
RTVSPropertyOp42
 70
     1
102
RTVSPropertyOp43
 70
     1
102
RTVSPropertyOp44
 70
     1
102
RTVSPropertyOp45
 70
     1
102
RTVSPropertyOp46
 70
     1
102
RTVSPropertyOp47
 70
     1
102
RTVSPropertyOp48
 70
     1
102
RTVSPropertyOp49
 70
     1
102
RTVSPropertyOp50
 70
     1
102
RTVSPropertyOp51
 70
     0
102
RTVSPropertyOp52
 70
     0
102
RTVSPropertyOp53
 70
     1
102
RTVSPropertyOp54
 70
     1
102
RTVSPropertyOp55
 70
     1
102
RTVSPropertyOp56
 70
     1
102
RTVSPropertyOp57
 70
     1
102
RTVSPropertyOp58
 70
     1
102
RTVSPropertyOp59
 70
     1
102
RTVSPropertyOp60
 70
     1
102
RTVSPropertyOp61
 70
     1
102
RTVSPropertyOp62
 70
     1
  0
XRECORD
  5
5C1B
102
{ACAD_REACTORS
330
5C1A
102
}
330
5C1A
100
AcDbXrecord
280
     1
102
RTVSPost2010Prop28
280
     0
102
RTVSPost2010PropOp28
 70
     1
102
RTVSPost2010Prop29
280
     1
102
RTVSPost2010PropOp29
 70
     1
102
RTVSPost2010Prop30
280
     1
102
RTVSPost2010PropOp30
 70
     1
102
RTVSPost2010Prop31
280
     0
102
RTVSPost2010PropOp31
 70
     1
102
RTVSPost2010Prop32
280
     0
102
RTVSPost2010PropOp32
 70
     1
102
RTVSPost2010Prop33
280
     0
102
RTVSPost2010PropOp33
 70
     1
102
RTVSPost2010Prop34
280
     0
102
RTVSPost2010PropOp34
 70
     1
102
RTVSPost2010Prop35
280
     0
102
RTVSPost2010PropOp35
 70
     1
102
RTVSPost2010Prop36
280
     0
102
RTVSPost2010PropOp36
 70
     1
102
RTVSPost2010Prop37
 90
       50
102
RTVSPost2010PropOp37
 70
     1
102
RTVSPost2010Prop38
140
0.0
102
RTVSPost2010PropOp38
 70
     1
102
RTVSPost2010Prop39
140
1.0
102
RTVSPost2010PropOp39
 70
     1
102
RTVSPost2010Prop40
 90
        0
102
RTVSPost2010PropOp40
 70
     1
102
RTVSPost2010Prop41ColorIndex
 90
       18
102
RTVSPost2010Prop41ColorRGB
 90
        0
102
RTVSPost2010PropOp41
 70
     1
102
RTVSPost2010Prop42
 90
       50
102
RTVSPost2010PropOp42
 70
     1
102
RTVSPost2010Prop43
 90
        3
102
RTVSPost2010PropOp43
 70
     1
102
RTVSPost2010Prop44ColorIndex
 90
        5
102
RTVSPost2010Prop44ColorRGB
 90
      255
102
RTVSPost2010PropOp44
 70
     1
102
RTVSPost2010Prop45
280
     0
102
RTVSPost2010PropOp45
 70
     1
102
RTVSPost2010Prop46
 90
       50
102
RTVSPost2010PropOp46
 70
     1
102
RTVSPost2010Prop47
 90
       50
102
RTVSPost2010PropOp47
 70
     1
102
RTVSPost2010Prop48
 90
       50
102
RTVSPost2010PropOp48
 70
     1
102
RTVSPost2010Prop49
280
     0
102
RTVSPost2010PropOp49
 70
     1
102
RTVSPost2010Prop50
 90
       50
102
RTVSPost2010PropOp50
 70
     1
102
RTVSPost2010Prop51ColorIndex
 90
      256
102
RTVSPost2010Prop51ColorRGB
 90
-16777216
102
RTVSPost2010PropOp51
 70
     0
102
RTVSPost2010Prop52
140
1.0
102
RTVSPost2010PropOp52
 70
     0
102
RTVSPost2010Prop53
 90
        2
102
RTVSPost2010PropOp53
 70
     1
102
RTVSPost2010Prop54
  1
strokes_ogs.tif
102
RTVSPost2010PropOp54
 70
     1
102
RTVSPost2010Prop55
280
     0
102
RTVSPost2010PropOp55
 70
     1
102
RTVSPost2010Prop56
140
1.0
102
RTVSPost2010PropOp56
 70
     1
102
RTVSPost2010Prop57
140
1.0
102
RTVSPost2010PropOp57
 70
     1
102
RTVSPropertyOp0
 70
     1
102
RTVSPropertyOp1
 70
     1
102
RTVSPropertyOp2
 70
     1
102
RTVSPropertyOp3
 70
     1
102
RTVSPropertyOp4
 70
     1
102
RTVSPropertyOp5
 70
     1
102
RTVSPropertyOp6
 70
     1
102
RTVSPropertyOp7
 70
     1
102
RTVSPropertyOp8
 70
     1
102
RTVSPropertyOp9
 70
     1
102
RTVSPropertyOp10
 70
     1
102
RTVSPropertyOp11
 70
     1
102
RTVSPropertyOp12
 70
     1
102
RTVSPropertyOp13
 70
     1
102
RTVSPropertyOp14
 70
     1
102
RTVSPropertyOp15
 70
     1
102
RTVSPropertyOp16
 70
     1
102
RTVSPropertyOp17
 70
     1
102
RTVSPropertyOp18
 70
     1
102
RTVSPropertyOp19
 70
     1
102
RTVSPropertyOp20
 70
     1
102
RTVSPropertyOp21
 70
     1
102
RTVSPropertyOp22
 70
     1
102
RTVSPropertyOp23
 70
     1
102
RTVSPropertyOp24
 70
     1
102
RTVSPropertyOp25
 70
     1
102
RTVSPropertyOp26
 70
     1
102
RTVSPropertyOp27
 70
     1
102
RTVSPropertyOp28
 70
     1
102
RTVSPropertyOp29
 70
     1
102
RTVSPropertyOp30
 70
     1
102
RTVSPropertyOp31
 70
     1
102
RTVSPropertyOp32
 70
     1
102
RTVSPropertyOp33
 70
     1
102
RTVSPropertyOp34
 70
     1
102
RTVSPropertyOp35
 70
     1
102
RTVSPropertyOp36
 70
     1
102
RTVSPropertyOp37
 70
     1
102
RTVSPropertyOp38
 70
     1
102
RTVSPropertyOp39
 70
     1
102
RTVSPropertyOp40
 70
     1
102
RTVSPropertyOp41
 70
     1
102
RTVSPropertyOp42
 70
     1
102
RTVSPropertyOp43
 70
     1
102
RTVSPropertyOp44
 70
     1
102
RTVSPropertyOp45
 70
     1
102
RTVSPropertyOp46
 70
     1
102
RTVSPropertyOp47
 70
     1
102
RTVSPropertyOp48
 70
     1
102
RTVSPropertyOp49
 70
     1
102
RTVSPropertyOp50
 70
     1
102
RTVSPropertyOp51
 70
     0
102
RTVSPropertyOp52
 70
     0
102
RTVSPropertyOp53
 70
     1
102
RTVSPropertyOp54
 70
     1
102
RTVSPropertyOp55
 70
     1
102
RTVSPropertyOp56
 70
     1
102
RTVSPropertyOp57
 70
     1
102
RTVSPropertyOp58
 70
     1
102
RTVSPropertyOp59
 70
     1
102
RTVSPropertyOp60
 70
     1
102
RTVSPropertyOp61
 70
     1
102
RTVSPropertyOp62
 70
     1
  0
XRECORD
  5
5C19
102
{ACAD_REACTORS
330
5C18
102
}
330
5C18
100
AcDbXrecord
280
     1
102
RTVSPost2010Prop28
280
     0
102
RTVSPost2010PropOp28
 70
     1
102
RTVSPost2010Prop29
280
     1
102
RTVSPost2010PropOp29
 70
     1
102
RTVSPost2010Prop30
280
     1
102
RTVSPost2010PropOp30
 70
     1
102
RTVSPost2010Prop31
280
     0
102
RTVSPost2010PropOp31
 70
     1
102
RTVSPost2010Prop32
280
     0
102
RTVSPost2010PropOp32
 70
     1
102
RTVSPost2010Prop33
280
     0
102
RTVSPost2010PropOp33
 70
     1
102
RTVSPost2010Prop34
280
     0
102
RTVSPost2010PropOp34
 70
     1
102
RTVSPost2010Prop35
280
     0
102
RTVSPost2010PropOp35
 70
     1
102
RTVSPost2010Prop36
280
     0
102
RTVSPost2010PropOp36
 70
     1
102
RTVSPost2010Prop37
 90
       50
102
RTVSPost2010PropOp37
 70
     1
102
RTVSPost2010Prop38
140
0.0
102
RTVSPost2010PropOp38
 70
     1
102
RTVSPost2010Prop39
140
1.0
102
RTVSPost2010PropOp39
 70
     1
102
RTVSPost2010Prop40
 90
        0
102
RTVSPost2010PropOp40
 70
     1
102
RTVSPost2010Prop41ColorIndex
 90
       18
102
RTVSPost2010Prop41ColorRGB
 90
        0
102
RTVSPost2010PropOp41
 70
     1
102
RTVSPost2010Prop42
 90
       50
102
RTVSPost2010PropOp42
 70
     1
102
RTVSPost2010Prop43
 90
        3
102
RTVSPost2010PropOp43
 70
     1
102
RTVSPost2010Prop44ColorIndex
 90
        5
102
RTVSPost2010Prop44ColorRGB
 90
      255
102
RTVSPost2010PropOp44
 70
     1
102
RTVSPost2010Prop45
280
     0
102
RTVSPost2010PropOp45
 70
     1
102
RTVSPost2010Prop46
 90
       50
102
RTVSPost2010PropOp46
 70
     1
102
RTVSPost2010Prop47
 90
       50
102
RTVSPost2010PropOp47
 70
     1
102
RTVSPost2010Prop48
 90
       50
102
RTVSPost2010PropOp48
 70
     1
102
RTVSPost2010Prop49
280
     0
102
RTVSPost2010PropOp49
 70
     1
102
RTVSPost2010Prop50
 90
       50
102
RTVSPost2010PropOp50
 70
     1
102
RTVSPost2010Prop51ColorIndex
 90
      256
102
RTVSPost2010Prop51ColorRGB
 90
-16777216
102
RTVSPost2010PropOp51
 70
     0
102
RTVSPost2010Prop52
140
1.0
102
RTVSPost2010PropOp52
 70
     0
102
RTVSPost2010Prop53
 90
        2
102
RTVSPost2010PropOp53
 70
     1
102
RTVSPost2010Prop54
  1
strokes_ogs.tif
102
RTVSPost2010PropOp54
 70
     1
102
RTVSPost2010Prop55
280
     0
102
RTVSPost2010PropOp55
 70
     1
102
RTVSPost2010Prop56
140
1.0
102
RTVSPost2010PropOp56
 70
     1
102
RTVSPost2010Prop57
140
1.0
102
RTVSPost2010PropOp57
 70
     1
102
RTVSPropertyOp0
 70
     1
102
RTVSPropertyOp1
 70
     1
102
RTVSPropertyOp2
 70
     1
102
RTVSPropertyOp3
 70
     1
102
RTVSPropertyOp4
 70
     1
102
RTVSPropertyOp5
 70
     1
102
RTVSPropertyOp6
 70
     1
102
RTVSPropertyOp7
 70
     1
102
RTVSPropertyOp8
 70
     1
102
RTVSPropertyOp9
 70
     1
102
RTVSPropertyOp10
 70
     1
102
RTVSPropertyOp11
 70
     1
102
RTVSPropertyOp12
 70
     1
102
RTVSPropertyOp13
 70
     1
102
RTVSPropertyOp14
 70
     1
102
RTVSPropertyOp15
 70
     1
102
RTVSPropertyOp16
 70
     1
102
RTVSPropertyOp17
 70
     1
102
RTVSPropertyOp18
 70
     1
102
RTVSPropertyOp19
 70
     1
102
RTVSPropertyOp20
 70
     1
102
RTVSPropertyOp21
 70
     1
102
RTVSPropertyOp22
 70
     1
102
RTVSPropertyOp23
 70
     1
102
RTVSPropertyOp24
 70
     1
102
RTVSPropertyOp25
 70
     1
102
RTVSPropertyOp26
 70
     1
102
RTVSPropertyOp27
 70
     1
102
RTVSPropertyOp28
 70
     1
102
RTVSPropertyOp29
 70
     1
102
RTVSPropertyOp30
 70
     1
102
RTVSPropertyOp31
 70
     1
102
RTVSPropertyOp32
 70
     1
102
RTVSPropertyOp33
 70
     1
102
RTVSPropertyOp34
 70
     1
102
RTVSPropertyOp35
 70
     1
102
RTVSPropertyOp36
 70
     1
102
RTVSPropertyOp37
 70
     1
102
RTVSPropertyOp38
 70
     1
102
RTVSPropertyOp39
 70
     1
102
RTVSPropertyOp40
 70
     1
102
RTVSPropertyOp41
 70
     1
102
RTVSPropertyOp42
 70
     1
102
RTVSPropertyOp43
 70
     1
102
RTVSPropertyOp44
 70
     1
102
RTVSPropertyOp45
 70
     1
102
RTVSPropertyOp46
 70
     1
102
RTVSPropertyOp47
 70
     1
102
RTVSPropertyOp48
 70
     1
102
RTVSPropertyOp49
 70
     1
102
RTVSPropertyOp50
 70
     1
102
RTVSPropertyOp51
 70
     0
102
RTVSPropertyOp52
 70
     0
102
RTVSPropertyOp53
 70
     1
102
RTVSPropertyOp54
 70
     1
102
RTVSPropertyOp55
 70
     1
102
RTVSPropertyOp56
 70
     1
102
RTVSPropertyOp57
 70
     1
102
RTVSPropertyOp58
 70
     1
102
RTVSPropertyOp59
 70
     1
102
RTVSPropertyOp60
 70
     1
102
RTVSPropertyOp61
 70
     1
102
RTVSPropertyOp62
 70
     1
  0
XRECORD
  5
5C13
102
{ACAD_REACTORS
330
5C12
102
}
330
5C12
100
AcDbXrecord
280
     1
102
RTVSPost2010Prop28
280
     0
102
RTVSPost2010PropOp28
 70
     1
102
RTVSPost2010Prop29
280
     1
102
RTVSPost2010PropOp29
 70
     1
102
RTVSPost2010Prop30
280
     1
102
RTVSPost2010PropOp30
 70
     1
102
RTVSPost2010Prop31
280
     0
102
RTVSPost2010PropOp31
 70
     1
102
RTVSPost2010Prop32
280
     0
102
RTVSPost2010PropOp32
 70
     1
102
RTVSPost2010Prop33
280
     0
102
RTVSPost2010PropOp33
 70
     1
102
RTVSPost2010Prop34
280
     0
102
RTVSPost2010PropOp34
 70
     1
102
RTVSPost2010Prop35
280
     0
102
RTVSPost2010PropOp35
 70
     1
102
RTVSPost2010Prop36
280
     0
102
RTVSPost2010PropOp36
 70
     1
102
RTVSPost2010Prop37
 90
       50
102
RTVSPost2010PropOp37
 70
     1
102
RTVSPost2010Prop38
140
0.0
102
RTVSPost2010PropOp38
 70
     1
102
RTVSPost2010Prop39
140
1.0
102
RTVSPost2010PropOp39
 70
     1
102
RTVSPost2010Prop40
 90
        0
102
RTVSPost2010PropOp40
 70
     1
102
RTVSPost2010Prop41ColorIndex
 90
       18
102
RTVSPost2010Prop41ColorRGB
 90
        0
102
RTVSPost2010PropOp41
 70
     1
102
RTVSPost2010Prop42
 90
       50
102
RTVSPost2010PropOp42
 70
     1
102
RTVSPost2010Prop43
 90
        3
102
RTVSPost2010PropOp43
 70
     1
102
RTVSPost2010Prop44ColorIndex
 90
        5
102
RTVSPost2010Prop44ColorRGB
 90
      255
102
RTVSPost2010PropOp44
 70
     1
102
RTVSPost2010Prop45
280
     0
102
RTVSPost2010PropOp45
 70
     1
102
RTVSPost2010Prop46
 90
       50
102
RTVSPost2010PropOp46
 70
     1
102
RTVSPost2010Prop47
 90
       50
102
RTVSPost2010PropOp47
 70
     1
102
RTVSPost2010Prop48
 90
       50
102
RTVSPost2010PropOp48
 70
     1
102
RTVSPost2010Prop49
280
     0
102
RTVSPost2010PropOp49
 70
     1
102
RTVSPost2010Prop50
 90
       50
102
RTVSPost2010PropOp50
 70
     1
102
RTVSPost2010Prop51ColorIndex
 90
      256
102
RTVSPost2010Prop51ColorRGB
 90
-16777216
102
RTVSPost2010PropOp51
 70
     0
102
RTVSPost2010Prop52
140
1.0
102
RTVSPost2010PropOp52
 70
     0
102
RTVSPost2010Prop53
 90
        2
102
RTVSPost2010PropOp53
 70
     1
102
RTVSPost2010Prop54
  1
strokes_ogs.tif
102
RTVSPost2010PropOp54
 70
     1
102
RTVSPost2010Prop55
280
     0
102
RTVSPost2010PropOp55
 70
     1
102
RTVSPost2010Prop56
140
1.0
102
RTVSPost2010PropOp56
 70
     1
102
RTVSPost2010Prop57
140
1.0
102
RTVSPost2010PropOp57
 70
     1
102
RTVSPropertyOp0
 70
     1
102
RTVSPropertyOp1
 70
     1
102
RTVSPropertyOp2
 70
     1
102
RTVSPropertyOp3
 70
     1
102
RTVSPropertyOp4
 70
     1
102
RTVSPropertyOp5
 70
     1
102
RTVSPropertyOp6
 70
     1
102
RTVSPropertyOp7
 70
     1
102
RTVSPropertyOp8
 70
     1
102
RTVSPropertyOp9
 70
     1
102
RTVSPropertyOp10
 70
     1
102
RTVSPropertyOp11
 70
     1
102
RTVSPropertyOp12
 70
     1
102
RTVSPropertyOp13
 70
     1
102
RTVSPropertyOp14
 70
     1
102
RTVSPropertyOp15
 70
     1
102
RTVSPropertyOp16
 70
     1
102
RTVSPropertyOp17
 70
     1
102
RTVSPropertyOp18
 70
     1
102
RTVSPropertyOp19
 70
     1
102
RTVSPropertyOp20
 70
     1
102
RTVSPropertyOp21
 70
     1
102
RTVSPropertyOp22
 70
     1
102
RTVSPropertyOp23
 70
     1
102
RTVSPropertyOp24
 70
     1
102
RTVSPropertyOp25
 70
     1
102
RTVSPropertyOp26
 70
     1
102
RTVSPropertyOp27
 70
     1
102
RTVSPropertyOp28
 70
     1
102
RTVSPropertyOp29
 70
     1
102
RTVSPropertyOp30
 70
     1
102
RTVSPropertyOp31
 70
     1
102
RTVSPropertyOp32
 70
     1
102
RTVSPropertyOp33
 70
     1
102
RTVSPropertyOp34
 70
     1
102
RTVSPropertyOp35
 70
     1
102
RTVSPropertyOp36
 70
     1
102
RTVSPropertyOp37
 70
     1
102
RTVSPropertyOp38
 70
     1
102
RTVSPropertyOp39
 70
     1
102
RTVSPropertyOp40
 70
     1
102
RTVSPropertyOp41
 70
     1
102
RTVSPropertyOp42
 70
     1
102
RTVSPropertyOp43
 70
     1
102
RTVSPropertyOp44
 70
     1
102
RTVSPropertyOp45
 70
     1
102
RTVSPropertyOp46
 70
     1
102
RTVSPropertyOp47
 70
     1
102
RTVSPropertyOp48
 70
     1
102
RTVSPropertyOp49
 70
     1
102
RTVSPropertyOp50
 70
     1
102
RTVSPropertyOp51
 70
     0
102
RTVSPropertyOp52
 70
     0
102
RTVSPropertyOp53
 70
     1
102
RTVSPropertyOp54
 70
     1
102
RTVSPropertyOp55
 70
     1
102
RTVSPropertyOp56
 70
     1
102
RTVSPropertyOp57
 70
     1
102
RTVSPropertyOp58
 70
     1
102
RTVSPropertyOp59
 70
     1
102
RTVSPropertyOp60
 70
     1
102
RTVSPropertyOp61
 70
     1
102
RTVSPropertyOp62
 70
     1
  0
XRECORD
  5
5C15
102
{ACAD_REACTORS
330
5C14
102
}
330
5C14
100
AcDbXrecord
280
     1
102
RTVSPost2010Prop28
280
     0
102
RTVSPost2010PropOp28
 70
     1
102
RTVSPost2010Prop29
280
     1
102
RTVSPost2010PropOp29
 70
     1
102
RTVSPost2010Prop30
280
     1
102
RTVSPost2010PropOp30
 70
     1
102
RTVSPost2010Prop31
280
     0
102
RTVSPost2010PropOp31
 70
     1
102
RTVSPost2010Prop32
280
     0
102
RTVSPost2010PropOp32
 70
     1
102
RTVSPost2010Prop33
280
     0
102
RTVSPost2010PropOp33
 70
     1
102
RTVSPost2010Prop34
280
     0
102
RTVSPost2010PropOp34
 70
     1
102
RTVSPost2010Prop35
280
     0
102
RTVSPost2010PropOp35
 70
     1
102
RTVSPost2010Prop36
280
     0
102
RTVSPost2010PropOp36
 70
     1
102
RTVSPost2010Prop37
 90
       50
102
RTVSPost2010PropOp37
 70
     1
102
RTVSPost2010Prop38
140
0.0
102
RTVSPost2010PropOp38
 70
     1
102
RTVSPost2010Prop39
140
1.0
102
RTVSPost2010PropOp39
 70
     1
102
RTVSPost2010Prop40
 90
        0
102
RTVSPost2010PropOp40
 70
     1
102
RTVSPost2010Prop41ColorIndex
 90
       18
102
RTVSPost2010Prop41ColorRGB
 90
        0
102
RTVSPost2010PropOp41
 70
     1
102
RTVSPost2010Prop42
 90
       50
102
RTVSPost2010PropOp42
 70
     1
102
RTVSPost2010Prop43
 90
        3
102
RTVSPost2010PropOp43
 70
     1
102
RTVSPost2010Prop44ColorIndex
 90
        5
102
RTVSPost2010Prop44ColorRGB
 90
      255
102
RTVSPost2010PropOp44
 70
     1
102
RTVSPost2010Prop45
280
     0
102
RTVSPost2010PropOp45
 70
     1
102
RTVSPost2010Prop46
 90
       50
102
RTVSPost2010PropOp46
 70
     1
102
RTVSPost2010Prop47
 90
       50
102
RTVSPost2010PropOp47
 70
     1
102
RTVSPost2010Prop48
 90
       50
102
RTVSPost2010PropOp48
 70
     1
102
RTVSPost2010Prop49
280
     0
102
RTVSPost2010PropOp49
 70
     1
102
RTVSPost2010Prop50
 90
       50
102
RTVSPost2010PropOp50
 70
     1
102
RTVSPost2010Prop51ColorIndex
 90
      256
102
RTVSPost2010Prop51ColorRGB
 90
-16777216
102
RTVSPost2010PropOp51
 70
     0
102
RTVSPost2010Prop52
140
1.0
102
RTVSPost2010PropOp52
 70
     0
102
RTVSPost2010Prop53
 90
        2
102
RTVSPost2010PropOp53
 70
     1
102
RTVSPost2010Prop54
  1
strokes_ogs.tif
102
RTVSPost2010PropOp54
 70
     1
102
RTVSPost2010Prop55
280
     0
102
RTVSPost2010PropOp55
 70
     1
102
RTVSPost2010Prop56
140
1.0
102
RTVSPost2010PropOp56
 70
     1
102
RTVSPost2010Prop57
140
1.0
102
RTVSPost2010PropOp57
 70
     1
102
RTVSPropertyOp0
 70
     1
102
RTVSPropertyOp1
 70
     1
102
RTVSPropertyOp2
 70
     1
102
RTVSPropertyOp3
 70
     1
102
RTVSPropertyOp4
 70
     1
102
RTVSPropertyOp5
 70
     1
102
RTVSPropertyOp6
 70
     1
102
RTVSPropertyOp7
 70
     1
102
RTVSPropertyOp8
 70
     1
102
RTVSPropertyOp9
 70
     1
102
RTVSPropertyOp10
 70
     1
102
RTVSPropertyOp11
 70
     1
102
RTVSPropertyOp12
 70
     1
102
RTVSPropertyOp13
 70
     1
102
RTVSPropertyOp14
 70
     1
102
RTVSPropertyOp15
 70
     1
102
RTVSPropertyOp16
 70
     1
102
RTVSPropertyOp17
 70
     1
102
RTVSPropertyOp18
 70
     1
102
RTVSPropertyOp19
 70
     1
102
RTVSPropertyOp20
 70
     1
102
RTVSPropertyOp21
 70
     1
102
RTVSPropertyOp22
 70
     1
102
RTVSPropertyOp23
 70
     1
102
RTVSPropertyOp24
 70
     1
102
RTVSPropertyOp25
 70
     1
102
RTVSPropertyOp26
 70
     1
102
RTVSPropertyOp27
 70
     1
102
RTVSPropertyOp28
 70
     1
102
RTVSPropertyOp29
 70
     1
102
RTVSPropertyOp30
 70
     1
102
RTVSPropertyOp31
 70
     1
102
RTVSPropertyOp32
 70
     1
102
RTVSPropertyOp33
 70
     1
102
RTVSPropertyOp34
 70
     1
102
RTVSPropertyOp35
 70
     1
102
RTVSPropertyOp36
 70
     1
102
RTVSPropertyOp37
 70
     1
102
RTVSPropertyOp38
 70
     1
102
RTVSPropertyOp39
 70
     1
102
RTVSPropertyOp40
 70
     1
102
RTVSPropertyOp41
 70
     1
102
RTVSPropertyOp42
 70
     1
102
RTVSPropertyOp43
 70
     1
102
RTVSPropertyOp44
 70
     1
102
RTVSPropertyOp45
 70
     1
102
RTVSPropertyOp46
 70
     1
102
RTVSPropertyOp47
 70
     1
102
RTVSPropertyOp48
 70
     1
102
RTVSPropertyOp49
 70
     1
102
RTVSPropertyOp50
 70
     1
102
RTVSPropertyOp51
 70
     0
102
RTVSPropertyOp52
 70
     0
102
RTVSPropertyOp53
 70
     1
102
RTVSPropertyOp54
 70
     1
102
RTVSPropertyOp55
 70
     1
102
RTVSPropertyOp56
 70
     1
102
RTVSPropertyOp57
 70
     1
102
RTVSPropertyOp58
 70
     1
102
RTVSPropertyOp59
 70
     1
102
RTVSPropertyOp60
 70
     1
102
RTVSPropertyOp61
 70
     1
102
RTVSPropertyOp62
 70
     1
  0
XRECORD
  5
5C0B
102
{ACAD_REACTORS
330
5C0A
102
}
330
5C0A
100
AcDbXrecord
280
     1
102
RTVSPost2010Prop28
280
     0
102
RTVSPost2010PropOp28
 70
     1
102
RTVSPost2010Prop29
280
     1
102
RTVSPost2010PropOp29
 70
     1
102
RTVSPost2010Prop30
280
     1
102
RTVSPost2010PropOp30
 70
     1
102
RTVSPost2010Prop31
280
     0
102
RTVSPost2010PropOp31
 70
     1
102
RTVSPost2010Prop32
280
     0
102
RTVSPost2010PropOp32
 70
     1
102
RTVSPost2010Prop33
280
     0
102
RTVSPost2010PropOp33
 70
     1
102
RTVSPost2010Prop34
280
     0
102
RTVSPost2010PropOp34
 70
     1
102
RTVSPost2010Prop35
280
     0
102
RTVSPost2010PropOp35
 70
     1
102
RTVSPost2010Prop36
280
     0
102
RTVSPost2010PropOp36
 70
     1
102
RTVSPost2010Prop37
 90
       50
102
RTVSPost2010PropOp37
 70
     1
102
RTVSPost2010Prop38
140
0.0
102
RTVSPost2010PropOp38
 70
     1
102
RTVSPost2010Prop39
140
1.0
102
RTVSPost2010PropOp39
 70
     1
102
RTVSPost2010Prop40
 90
        0
102
RTVSPost2010PropOp40
 70
     1
102
RTVSPost2010Prop41ColorIndex
 90
       18
102
RTVSPost2010Prop41ColorRGB
 90
        0
102
RTVSPost2010PropOp41
 70
     1
102
RTVSPost2010Prop42
 90
       50
102
RTVSPost2010PropOp42
 70
     1
102
RTVSPost2010Prop43
 90
        3
102
RTVSPost2010PropOp43
 70
     1
102
RTVSPost2010Prop44ColorIndex
 90
        5
102
RTVSPost2010Prop44ColorRGB
 90
      255
102
RTVSPost2010PropOp44
 70
     1
102
RTVSPost2010Prop45
280
     0
102
RTVSPost2010PropOp45
 70
     1
102
RTVSPost2010Prop46
 90
       50
102
RTVSPost2010PropOp46
 70
     1
102
RTVSPost2010Prop47
 90
       50
102
RTVSPost2010PropOp47
 70
     1
102
RTVSPost2010Prop48
 90
       50
102
RTVSPost2010PropOp48
 70
     1
102
RTVSPost2010Prop49
280
     0
102
RTVSPost2010PropOp49
 70
     1
102
RTVSPost2010Prop50
 90
       50
102
RTVSPost2010PropOp50
 70
     1
102
RTVSPost2010Prop51ColorIndex
 90
      256
102
RTVSPost2010Prop51ColorRGB
 90
-16777216
102
RTVSPost2010PropOp51
 70
     0
102
RTVSPost2010Prop52
140
1.0
102
RTVSPost2010PropOp52
 70
     0
102
RTVSPost2010Prop53
 90
        2
102
RTVSPost2010PropOp53
 70
     1
102
RTVSPost2010Prop54
  1
strokes_ogs.tif
102
RTVSPost2010PropOp54
 70
     1
102
RTVSPost2010Prop55
280
     0
102
RTVSPost2010PropOp55
 70
     1
102
RTVSPost2010Prop56
140
1.0
102
RTVSPost2010PropOp56
 70
     1
102
RTVSPost2010Prop57
140
1.0
102
RTVSPost2010PropOp57
 70
     1
102
RTVSPropertyOp0
 70
     1
102
RTVSPropertyOp1
 70
     1
102
RTVSPropertyOp2
 70
     1
102
RTVSPropertyOp3
 70
     1
102
RTVSPropertyOp4
 70
     1
102
RTVSPropertyOp5
 70
     1
102
RTVSPropertyOp6
 70
     1
102
RTVSPropertyOp7
 70
     1
102
RTVSPropertyOp8
 70
     1
102
RTVSPropertyOp9
 70
     1
102
RTVSPropertyOp10
 70
     1
102
RTVSPropertyOp11
 70
     1
102
RTVSPropertyOp12
 70
     1
102
RTVSPropertyOp13
 70
     1
102
RTVSPropertyOp14
 70
     1
102
RTVSPropertyOp15
 70
     1
102
RTVSPropertyOp16
 70
     1
102
RTVSPropertyOp17
 70
     1
102
RTVSPropertyOp18
 70
     1
102
RTVSPropertyOp19
 70
     1
102
RTVSPropertyOp20
 70
     1
102
RTVSPropertyOp21
 70
     1
102
RTVSPropertyOp22
 70
     1
102
RTVSPropertyOp23
 70
     1
102
RTVSPropertyOp24
 70
     1
102
RTVSPropertyOp25
 70
     1
102
RTVSPropertyOp26
 70
     1
102
RTVSPropertyOp27
 70
     1
102
RTVSPropertyOp28
 70
     1
102
RTVSPropertyOp29
 70
     1
102
RTVSPropertyOp30
 70
     1
102
RTVSPropertyOp31
 70
     1
102
RTVSPropertyOp32
 70
     1
102
RTVSPropertyOp33
 70
     1
102
RTVSPropertyOp34
 70
     1
102
RTVSPropertyOp35
 70
     1
102
RTVSPropertyOp36
 70
     1
102
RTVSPropertyOp37
 70
     1
102
RTVSPropertyOp38
 70
     1
102
RTVSPropertyOp39
 70
     1
102
RTVSPropertyOp40
 70
     1
102
RTVSPropertyOp41
 70
     1
102
RTVSPropertyOp42
 70
     1
102
RTVSPropertyOp43
 70
     1
102
RTVSPropertyOp44
 70
     1
102
RTVSPropertyOp45
 70
     1
102
RTVSPropertyOp46
 70
     1
102
RTVSPropertyOp47
 70
     1
102
RTVSPropertyOp48
 70
     1
102
RTVSPropertyOp49
 70
     1
102
RTVSPropertyOp50
 70
     1
102
RTVSPropertyOp51
 70
     0
102
RTVSPropertyOp52
 70
     0
102
RTVSPropertyOp53
 70
     1
102
RTVSPropertyOp54
 70
     1
102
RTVSPropertyOp55
 70
     1
102
RTVSPropertyOp56
 70
     1
102
RTVSPropertyOp57
 70
     1
102
RTVSPropertyOp58
 70
     1
102
RTVSPropertyOp59
 70
     1
102
RTVSPropertyOp60
 70
     1
102
RTVSPropertyOp61
 70
     1
102
RTVSPropertyOp62
 70
     1
  0
XRECORD
  5
5BFF
102
{ACAD_REACTORS
330
5BFE
102
}
330
5BFE
100
AcDbXrecord
280
     1
102
RTVSPost2010Prop28
280
     0
102
RTVSPost2010PropOp28
 70
     1
102
RTVSPost2010Prop29
280
     1
102
RTVSPost2010PropOp29
 70
     1
102
RTVSPost2010Prop30
280
     1
102
RTVSPost2010PropOp30
 70
     1
102
RTVSPost2010Prop31
280
     0
102
RTVSPost2010PropOp31
 70
     1
102
RTVSPost2010Prop32
280
     0
102
RTVSPost2010PropOp32
 70
     1
102
RTVSPost2010Prop33
280
     0
102
RTVSPost2010PropOp33
 70
     1
102
RTVSPost2010Prop34
280
     0
102
RTVSPost2010PropOp34
 70
     1
102
RTVSPost2010Prop35
280
     0
102
RTVSPost2010PropOp35
 70
     1
102
RTVSPost2010Prop36
280
     0
102
RTVSPost2010PropOp36
 70
     1
102
RTVSPost2010Prop37
 90
       50
102
RTVSPost2010PropOp37
 70
     1
102
RTVSPost2010Prop38
140
0.0
102
RTVSPost2010PropOp38
 70
     1
102
RTVSPost2010Prop39
140
1.0
102
RTVSPost2010PropOp39
 70
     1
102
RTVSPost2010Prop40
 90
        0
102
RTVSPost2010PropOp40
 70
     1
102
RTVSPost2010Prop41ColorIndex
 90
       18
102
RTVSPost2010Prop41ColorRGB
 90
        0
102
RTVSPost2010PropOp41
 70
     1
102
RTVSPost2010Prop42
 90
       50
102
RTVSPost2010PropOp42
 70
     1
102
RTVSPost2010Prop43
 90
        3
102
RTVSPost2010PropOp43
 70
     1
102
RTVSPost2010Prop44ColorIndex
 90
        5
102
RTVSPost2010Prop44ColorRGB
 90
      255
102
RTVSPost2010PropOp44
 70
     1
102
RTVSPost2010Prop45
280
     0
102
RTVSPost2010PropOp45
 70
     1
102
RTVSPost2010Prop46
 90
       50
102
RTVSPost2010PropOp46
 70
     1
102
RTVSPost2010Prop47
 90
       50
102
RTVSPost2010PropOp47
 70
     1
102
RTVSPost2010Prop48
 90
       50
102
RTVSPost2010PropOp48
 70
     1
102
RTVSPost2010Prop49
280
     0
102
RTVSPost2010PropOp49
 70
     1
102
RTVSPost2010Prop50
 90
       50
102
RTVSPost2010PropOp50
 70
     1
102
RTVSPost2010Prop51ColorIndex
 90
      256
102
RTVSPost2010Prop51ColorRGB
 90
-16777216
102
RTVSPost2010PropOp51
 70
     0
102
RTVSPost2010Prop52
140
1.0
102
RTVSPost2010PropOp52
 70
     0
102
RTVSPost2010Prop53
 90
        2
102
RTVSPost2010PropOp53
 70
     1
102
RTVSPost2010Prop54
  1
strokes_ogs.tif
102
RTVSPost2010PropOp54
 70
     1
102
RTVSPost2010Prop55
280
     0
102
RTVSPost2010PropOp55
 70
     1
102
RTVSPost2010Prop56
140
1.0
102
RTVSPost2010PropOp56
 70
     1
102
RTVSPost2010Prop57
140
1.0
102
RTVSPost2010PropOp57
 70
     1
102
RTVSPropertyOp0
 70
     1
102
RTVSPropertyOp1
 70
     1
102
RTVSPropertyOp2
 70
     1
102
RTVSPropertyOp3
 70
     1
102
RTVSPropertyOp4
 70
     1
102
RTVSPropertyOp5
 70
     1
102
RTVSPropertyOp6
 70
     1
102
RTVSPropertyOp7
 70
     1
102
RTVSPropertyOp8
 70
     1
102
RTVSPropertyOp9
 70
     1
102
RTVSPropertyOp10
 70
     1
102
RTVSPropertyOp11
 70
     1
102
RTVSPropertyOp12
 70
     1
102
RTVSPropertyOp13
 70
     1
102
RTVSPropertyOp14
 70
     1
102
RTVSPropertyOp15
 70
     1
102
RTVSPropertyOp16
 70
     1
102
RTVSPropertyOp17
 70
     1
102
RTVSPropertyOp18
 70
     1
102
RTVSPropertyOp19
 70
     1
102
RTVSPropertyOp20
 70
     1
102
RTVSPropertyOp21
 70
     1
102
RTVSPropertyOp22
 70
     1
102
RTVSPropertyOp23
 70
     1
102
RTVSPropertyOp24
 70
     1
102
RTVSPropertyOp25
 70
     1
102
RTVSPropertyOp26
 70
     1
102
RTVSPropertyOp27
 70
     1
102
RTVSPropertyOp28
 70
     1
102
RTVSPropertyOp29
 70
     1
102
RTVSPropertyOp30
 70
     1
102
RTVSPropertyOp31
 70
     1
102
RTVSPropertyOp32
 70
     1
102
RTVSPropertyOp33
 70
     1
102
RTVSPropertyOp34
 70
     1
102
RTVSPropertyOp35
 70
     1
102
RTVSPropertyOp36
 70
     1
102
RTVSPropertyOp37
 70
     1
102
RTVSPropertyOp38
 70
     1
102
RTVSPropertyOp39
 70
     1
102
RTVSPropertyOp40
 70
     1
102
RTVSPropertyOp41
 70
     1
102
RTVSPropertyOp42
 70
     1
102
RTVSPropertyOp43
 70
     1
102
RTVSPropertyOp44
 70
     1
102
RTVSPropertyOp45
 70
     1
102
RTVSPropertyOp46
 70
     1
102
RTVSPropertyOp47
 70
     1
102
RTVSPropertyOp48
 70
     1
102
RTVSPropertyOp49
 70
     1
102
RTVSPropertyOp50
 70
     1
102
RTVSPropertyOp51
 70
     0
102
RTVSPropertyOp52
 70
     0
102
RTVSPropertyOp53
 70
     1
102
RTVSPropertyOp54
 70
     1
102
RTVSPropertyOp55
 70
     1
102
RTVSPropertyOp56
 70
     1
102
RTVSPropertyOp57
 70
     1
102
RTVSPropertyOp58
 70
     1
102
RTVSPropertyOp59
 70
     1
102
RTVSPropertyOp60
 70
     1
102
RTVSPropertyOp61
 70
     1
102
RTVSPropertyOp62
 70
     1
  0
XRECORD
  5
5C17
102
{ACAD_REACTORS
330
5C16
102
}
330
5C16
100
AcDbXrecord
280
     1
102
RTVSPost2010Prop28
280
     0
102
RTVSPost2010PropOp28
 70
     1
102
RTVSPost2010Prop29
280
     1
102
RTVSPost2010PropOp29
 70
     1
102
RTVSPost2010Prop30
280
     1
102
RTVSPost2010PropOp30
 70
     1
102
RTVSPost2010Prop31
280
     0
102
RTVSPost2010PropOp31
 70
     1
102
RTVSPost2010Prop32
280
     0
102
RTVSPost2010PropOp32
 70
     1
102
RTVSPost2010Prop33
280
     0
102
RTVSPost2010PropOp33
 70
     1
102
RTVSPost2010Prop34
280
     0
102
RTVSPost2010PropOp34
 70
     1
102
RTVSPost2010Prop35
280
     0
102
RTVSPost2010PropOp35
 70
     1
102
RTVSPost2010Prop36
280
     0
102
RTVSPost2010PropOp36
 70
     1
102
RTVSPost2010Prop37
 90
       50
102
RTVSPost2010PropOp37
 70
     1
102
RTVSPost2010Prop38
140
0.0
102
RTVSPost2010PropOp38
 70
     1
102
RTVSPost2010Prop39
140
1.0
102
RTVSPost2010PropOp39
 70
     1
102
RTVSPost2010Prop40
 90
        0
102
RTVSPost2010PropOp40
 70
     1
102
RTVSPost2010Prop41ColorIndex
 90
       18
102
RTVSPost2010Prop41ColorRGB
 90
        0
102
RTVSPost2010PropOp41
 70
     1
102
RTVSPost2010Prop42
 90
       50
102
RTVSPost2010PropOp42
 70
     1
102
RTVSPost2010Prop43
 90
        3
102
RTVSPost2010PropOp43
 70
     1
102
RTVSPost2010Prop44ColorIndex
 90
        5
102
RTVSPost2010Prop44ColorRGB
 90
      255
102
RTVSPost2010PropOp44
 70
     1
102
RTVSPost2010Prop45
280
     0
102
RTVSPost2010PropOp45
 70
     1
102
RTVSPost2010Prop46
 90
       50
102
RTVSPost2010PropOp46
 70
     1
102
RTVSPost2010Prop47
 90
       50
102
RTVSPost2010PropOp47
 70
     1
102
RTVSPost2010Prop48
 90
       50
102
RTVSPost2010PropOp48
 70
     1
102
RTVSPost2010Prop49
280
     0
102
RTVSPost2010PropOp49
 70
     1
102
RTVSPost2010Prop50
 90
       50
102
RTVSPost2010PropOp50
 70
     1
102
RTVSPost2010Prop51ColorIndex
 90
      256
102
RTVSPost2010Prop51ColorRGB
 90
-16777216
102
RTVSPost2010PropOp51
 70
     0
102
RTVSPost2010Prop52
140
1.0
102
RTVSPost2010PropOp52
 70
     0
102
RTVSPost2010Prop53
 90
        2
102
RTVSPost2010PropOp53
 70
     1
102
RTVSPost2010Prop54
  1
strokes_ogs.tif
102
RTVSPost2010PropOp54
 70
     1
102
RTVSPost2010Prop55
280
     0
102
RTVSPost2010PropOp55
 70
     1
102
RTVSPost2010Prop56
140
1.0
102
RTVSPost2010PropOp56
 70
     1
102
RTVSPost2010Prop57
140
1.0
102
RTVSPost2010PropOp57
 70
     1
102
RTVSPropertyOp0
 70
     1
102
RTVSPropertyOp1
 70
     1
102
RTVSPropertyOp2
 70
     1
102
RTVSPropertyOp3
 70
     1
102
RTVSPropertyOp4
 70
     1
102
RTVSPropertyOp5
 70
     1
102
RTVSPropertyOp6
 70
     1
102
RTVSPropertyOp7
 70
     1
102
RTVSPropertyOp8
 70
     1
102
RTVSPropertyOp9
 70
     1
102
RTVSPropertyOp10
 70
     1
102
RTVSPropertyOp11
 70
     1
102
RTVSPropertyOp12
 70
     1
102
RTVSPropertyOp13
 70
     1
102
RTVSPropertyOp14
 70
     1
102
RTVSPropertyOp15
 70
     1
102
RTVSPropertyOp16
 70
     1
102
RTVSPropertyOp17
 70
     1
102
RTVSPropertyOp18
 70
     1
102
RTVSPropertyOp19
 70
     1
102
RTVSPropertyOp20
 70
     1
102
RTVSPropertyOp21
 70
     1
102
RTVSPropertyOp22
 70
     1
102
RTVSPropertyOp23
 70
     1
102
RTVSPropertyOp24
 70
     1
102
RTVSPropertyOp25
 70
     1
102
RTVSPropertyOp26
 70
     1
102
RTVSPropertyOp27
 70
     1
102
RTVSPropertyOp28
 70
     1
102
RTVSPropertyOp29
 70
     1
102
RTVSPropertyOp30
 70
     1
102
RTVSPropertyOp31
 70
     1
102
RTVSPropertyOp32
 70
     1
102
RTVSPropertyOp33
 70
     1
102
RTVSPropertyOp34
 70
     1
102
RTVSPropertyOp35
 70
     1
102
RTVSPropertyOp36
 70
     1
102
RTVSPropertyOp37
 70
     1
102
RTVSPropertyOp38
 70
     1
102
RTVSPropertyOp39
 70
     1
102
RTVSPropertyOp40
 70
     1
102
RTVSPropertyOp41
 70
     1
102
RTVSPropertyOp42
 70
     1
102
RTVSPropertyOp43
 70
     1
102
RTVSPropertyOp44
 70
     1
102
RTVSPropertyOp45
 70
     1
102
RTVSPropertyOp46
 70
     1
102
RTVSPropertyOp47
 70
     1
102
RTVSPropertyOp48
 70
     1
102
RTVSPropertyOp49
 70
     1
102
RTVSPropertyOp50
 70
     1
102
RTVSPropertyOp51
 70
     0
102
RTVSPropertyOp52
 70
     0
102
RTVSPropertyOp53
 70
     1
102
RTVSPropertyOp54
 70
     1
102
RTVSPropertyOp55
 70
     1
102
RTVSPropertyOp56
 70
     1
102
RTVSPropertyOp57
 70
     1
102
RTVSPropertyOp58
 70
     1
102
RTVSPropertyOp59
 70
     1
102
RTVSPropertyOp60
 70
     1
102
RTVSPropertyOp61
 70
     1
102
RTVSPropertyOp62
 70
     1
  0
ENDSEC
  0
EOF
