  0
SECTION
  2
HEADER
  9
$ACADVER
  1
AC1009
  9
$INSBASE
 10
0.0
 20
0.0
 30
0.0
  9
$EXTMIN
 10
0.0
 20
0.0
 30
0.0
  9
$EXTMAX
 10
2520.0
 20
3540.0
 30
0.0
  9
$LIMMIN
 10
0.0
 20
0.0
  9
$LIMMAX
 10
297.0
 20
210.0
  9
$ORTHOMODE
 70
     1
  9
$REGENMODE
 70
     1
  9
$FILLMODE
 70
     0
  9
$QTEXTMODE
 70
     0
  9
$MIRRTEXT
 70
     1
  9
$DRAGMODE
 70
     2
  9
$LTSCALE
 40
100.0
  9
$OSMODE
 70
   545
  9
$ATTMODE
 70
     1
  9
$TEXTSIZE
 40
180.0
  9
$TRACEWID
 40
0.05
  9
$TEXTSTYLE
  7
STANDARD
  9
$CLAYER
  8
3
  9
$CELTYPE
  6
BYLAYER
  9
$CECOLOR
 62
   256
  9
$DIMSCALE
 40
12.0
  9
$DIMASZ
 40
2.0
  9
$DIMEXO
 40
0.5
  9
$DIMDLI
 40
10.0
  9
$DIMRND
 40
0.0
  9
$DIMDLE
 40
0.0
  9
$DIMEXE
 40
1.0
  9
$DIMTP
 40
1.0
  9
$DIMTM
 40
1.0
  9
$DIMTXT
 40
3.0
  9
$DIMCEN
 40
0.0
  9
$DIMTSZ
 40
0.0
  9
$DIMTOL
 70
     0
  9
$DIMLIM
 70
     0
  9
$DIMTIH
 70
     0
  9
$DIMTOH
 70
     0
  9
$DIMSE1
 70
     0
  9
$DIMSE2
 70
     0
  9
$DIMTAD
 70
     1
  9
$DIMZIN
 70
     8
  9
$DIMBLK
  1

  9
$DIMASO
 70
     1
  9
$DIMSHO
 70
     1
  9
$DIMPOST
  1

  9
$DIMAPOST
  1

  9
$DIMALT
 70
     0
  9
$DIMALTD
 70
     2
  9
$DIMALTF
 40
0.039
  9
$DIMLFAC
 40
1.0
  9
$DIMTOFL
 70
     1
  9
$DIMTVP
 40
0.0
  9
$DIMTIX
 70
     0
  9
$DIMSOXD
 70
     0
  9
$DIMSAH
 70
     1
  9
$DIMBLK1
  1
OPEN
  9
$DIMBLK2
  1
OPEN
  9
$DIMSTYLE
  2
IGA
  9
$DIMCLRD
 70
     0
  9
$DIMCLRE
 70
     0
  9
$DIMCLRT
 70
     0
  9
$DIMTFAC
 40
10.0
  9
$DIMGAP
 40
1.0
  9
$LUNITS
 70
     2
  9
$LUPREC
 70
     3
  9
$SKETCHINC
 40
0.1
  9
$FILLETRAD
 40
15.0
  9
$AUNITS
 70
     0
  9
$AUPREC
 70
     0
  9
$MENU
  1
acad
  9
$ELEVATION
 40
0.0
  9
$PELEVATION
 40
0.0
  9
$THICKNESS
 40
0.0
  9
$LIMCHECK
 70
     0
  9
$BLIPMODE
 70
     0
  9
$CHAMFERA
 40
0.5
  9
$CHAMFERB
 40
0.5
  9
$SKPOLY
 70
     0
  9
$TDCREATE
 40
2452824.5915310178
  9
$TDUPDATE
 40
2455012.406777882
  9
$TDINDWG
 40
0.0727765625
  9
$TDUSRTIMER
 40
0.0727765625
  9
$USRTIMER
 70
     1
  9
$ANGBASE
 50
0.0
  9
$ANGDIR
 70
     0
  9
$PDMODE
 70
     0
  9
$PDSIZE
 40
0.0
  9
$PLINEWID
 40
0.0
  9
$COORDS
 70
     2
  9
$SPLFRAME
 70
     0
  9
$SPLINETYPE
 70
     6
  9
$SPLINESEGS
 70
     8
  9
$ATTDIA
 70
     0
  9
$ATTREQ
 70
     1
  9
$HANDLING
 70
 22529
  9
$HANDSEED
  5
9778
  9
$SURFTAB1
 70
     6
  9
$SURFTAB2
 70
     6
  9
$SURFTYPE
 70
     6
  9
$SURFU
 70
     6
  9
$SURFV
 70
     6
  9
$UCSNAME
  2

  9
$UCSORG
 10
0.0
 20
0.0
 30
0.0
  9
$UCSXDIR
 10
1.0
 20
0.0
 30
0.0
  9
$UCSYDIR
 10
0.0
 20
1.0
 30
0.0
  9
$PUCSNAME
  2

  9
$PUCSORG
 10
0.0
 20
0.0
 30
0.0
  9
$PUCSXDIR
 10
1.0
 20
0.0
 30
0.0
  9
$PUCSYDIR
 10
0.0
 20
1.0
 30
0.0
  9
$USERI1
 70
     0
  9
$USERI2
 70
     0
  9
$USERI3
 70
     0
  9
$USERI4
 70
     0
  9
$USERI5
 70
     0
  9
$USERR1
 40
0.0
  9
$USERR2
 40
0.0
  9
$USERR3
 40
0.0
  9
$USERR4
 40
0.0
  9
$USERR5
 40
0.0
  9
$WORLDVIEW
 70
     1
  9
$SHADEDGE
 70
     3
  9
$SHADEDIF
 70
    70
  9
$TILEMODE
 70
     1
  9
$MAXACTVP
 70
    16
  9
$PLIMCHECK
 70
     0
  9
$PEXTMIN
 10
1.0000000000000000E+020
 20
1.0000000000000000E+020
 30
1.0000000000000000E+020
  9
$PEXTMAX
 10
-1.0000000000000000E+020
 20
-1.0000000000000000E+020
 30
-1.0000000000000000E+020
  9
$PLIMMIN
 10
0.0
 20
0.0
  9
$PLIMMAX
 10
12.0
 20
9.0
  9
$UNITMODE
 70
     0
  9
$VISRETAIN
 70
     0
  9
$PLINEGEN
 70
     0
  9
$PSLTSCALE
 70
     1
  0
ENDSEC
  0
SECTION
  2
TABLES
  0
TABLE
  2
VPORT
 70
     2
  0
VPORT
  2
*ACTIVE
 70
     0
 10
0.0
 20
0.0
 11
1.0
 21
1.0
 12
1260.0000058673311
 22
1770.0000082422041
 13
0.0
 23
0.0
 14
10.0
 24
10.0
 15
10.0
 25
10.0
 16
0.0
 26
0.0
 36
1.0
 17
0.0
 27
0.0
 37
0.0
 40
3569.115787428505
 41
1.6307901907356941
 42
50.0
 43
0.0
 44
0.0
 50
0.0
 51
0.0
 71
     0
 72
   100
 73
     1
 74
     0
 75
     0
 76
     0
 77
     0
 78
     0
  0
ENDTAB
  0
TABLE
  2
LTYPE
 70
     2
  0
LTYPE
  2
CONTINUOUS
 70
     0
  3
Solid line
 72
    65
 73
     0
 40
0.0
  0
LTYPE
  2
CENTER
 70
     0
  3
____ _ ____ _ ____ _ ____ _ ____ _ ____ _ ____ 
 72
    65
 73
     4
 40
2.0
 49
1.25
 49
-0.25
 49
0.25
 49
-0.25
  0
ENDTAB
  0
TABLE
  2
LAYER
 70
     9
  0
LAYER
  2
0
 70
     0
 62
     7
  6
CONTINUOUS
  0
LAYER
  2
3
 70
     0
 62
     2
  6
CONTINUOUS
  0
LAYER
  2
2
 70
     0
 62
     3
  6
CENTER
  0
LAYER
  2
1
 70
     0
 62
     4
  6
CONTINUOUS
  0
LAYER
  2
4
 70
     0
 62
     7
  6
CONTINUOUS
  0
LAYER
  2
DEFPOINTS
 70
     0
 62
     7
  6
CONTINUOUS
  0
LAYER
  2
CT
 70
     0
 62
     3
  6
CENTER
  0
LAYER
  2
FUTO
 70
     0
 62
     4
  6
CONTINUOUS
  0
LAYER
  2
SP
 70
     0
 62
     2
  6
CONTINUOUS
  0
ENDTAB
  0
TABLE
  2
STYLE
 70
     1
  0
STYLE
  2
STANDARD
 70
     0
 40
0.0
 41
1.0
 50
0.0
 71
     0
 42
180.0
  3
simplex.shx
  4
extfont.shx
  0
ENDTAB
  0
TABLE
  2
VIEW
 70
     0
  0
ENDTAB
  0
TABLE
  2
UCS
 70
     0
  0
ENDTAB
  0
TABLE
  2
APPID
 70
     1
  0
APPID
  2
ACAD
 70
     0
  0
ENDTAB
  0
TABLE
  2
DIMSTYLE
 70
     3
  0
DIMSTYLE
  2
IGA
 70
     0
  3

  4

  5

  6
OPEN
  7
OPEN
 40
2.0
 41
2.0
 42
0.5
 43
10.0
 44
1.0
 45
0.0
 46
0.0
 47
1.0
 48
1.0
140
3.0
141
0.0
142
0.0
143
0.03937
144
1.0
145
0.0
146
10.0
147
1.0
 71
     0
 72
     0
 73
     0
 74
     0
 75
     0
 76
     0
 77
     1
 78
     8
170
     0
171
     2
172
     0
173
     1
174
     0
175
     0
176
     0
177
     0
178
     0
  0
DIMSTYLE
  2
STANDARD
 70
     0
  3

  4

  5

  6

  7

 40
1.0
 41
0.18
 42
0.0625
 43
0.38
 44
0.18
 45
0.0
 46
0.0
 47
0.0
 48
0.0
140
0.18
141
0.09
142
0.0
143
25.399999999999999
144
1.0
145
0.0
146
1.0
147
0.09
 71
     0
 72
     0
 73
     1
 74
     1
 75
     0
 76
     0
 77
     0
 78
     0
170
     0
171
     2
172
     0
173
     0
174
     0
175
     0
176
     0
177
     0
178
     0
  0
DIMSTYLE
  2
GOD
 70
     0
  3

  4

  5

  6
OPEN
  7
OPEN
 40
15.0
 41
2.5
 42
1.0
 43
7.0
 44
1.0
 45
0.0
 46
0.0
 47
0.0
 48
0.0
140
3.0
141
0.0
142
0.0
143
0.03937
144
1.0
145
0.0
146
1.0
147
1.0
 71
     0
 72
     0
 73
     0
 74
     0
 75
     0
 76
     0
 77
     1
 78
     8
170
     0
171
     2
172
     1
173
     1
174
     0
175
     0
176
   256
177
   256
178
   256
  0
ENDTAB
  0
ENDSEC
  0
SECTION
  2
BLOCKS
  0
BLOCK
  8
0
  2
$MODEL_SPACE
 70
     0
 10
0.0
 20
0.0
 30
0.0
  3
$MODEL_SPACE
  1

  0
ENDBLK
  5
1B
  8
0
  0
BLOCK
 67
     1
  8
0
  2
$PAPER_SPACE
 70
     0
 10
0.0
 20
0.0
 30
0.0
  3
$PAPER_SPACE
  1

  0
ENDBLK
  5
18
 67
     1
  8
0
  0
BLOCK
  8
0
  2
_OPEN
 70
     0
 10
0.0
 20
0.0
 30
0.0
  3
_OPEN
  1

  0
LINE
  5
79FD
  8
0
  6
BYBLOCK
 62
     0
 10
-1.0
 20
0.1666666666666666
 30
0.0
 11
0.0
 21
0.0
 31
0.0
  0
LINE
  5
79FE
  8
0
  6
BYBLOCK
 62
     0
 10
0.0
 20
0.0
 30
0.0
 11
-1.0
 21
-0.1666666666666666
 31
0.0
  0
LINE
  5
79FF
  8
0
  6
BYBLOCK
 62
     0
 10
0.0
 20
0.0
 30
0.0
 11
-1.0
 21
0.0
 31
0.0
  0
ENDBLK
  5
7A01
  8
0
  0
BLOCK
  8
0
  2
*D1
 70
     1
 10
0.0
 20
0.0
 30
0.0
  3
*D1
  1

  0
LINE
  5
96DA
  8
3
 62
     0
 10
525.63947278660362
 20
894.49660872364154
 30
0.0
 11
443.00049882924952
 21
894.49660872364154
 31
0.0
  0
LINE
  5
96DB
  8
3
 62
     0
 10
525.63947278661317
 20
1209.4966087236451
 30
0.0
 11
443.00049882924958
 21
1209.4966087236451
 31
0.0
  0
LINE
  5
96DC
  8
3
 62
     0
 10
455.00049882924958
 20
918.49660872364154
 30
0.0
 11
455.00049882924958
 21
1185.4966087236451
 31
0.0
  0
INSERT
  5
96DD
  8
3
 62
     0
  2
_OPEN
 10
455.00049882924952
 20
894.49660872364154
 30
0.0
 41
24.0
 42
24.0
 43
24.0
 50
270.0
  0
INSERT
  5
96DE
  8
3
 62
     0
  2
_OPEN
 10
455.00049882924958
 20
1209.4966087236451
 30
0.0
 41
24.0
 42
24.0
 43
24.0
 50
90.0
  0
TEXT
  8
3
  40
36
  5
976C
  62
0
  72
0
  71
0
 10
353.000
 20
968.018
 30
0.000000
  1
315
  0
POINT
  5
96E0
  8
DEFPOINTS
 62
     0
 10
531.63947278660362
 20
894.49660872364154
 30
0.0
  0
POINT
  5
96E1
  8
DEFPOINTS
 62
     0
 10
531.63947278661306
 20
1209.4966087236451
 30
0.0
  0
POINT
  5
96E2
  8
DEFPOINTS
 62
     0
 10
455.00049882924958
 20
1209.4966087236451
 30
0.0
  0
ENDBLK
  5
86F8
  8
0
  0
BLOCK
  8
0
  2
*D2
 70
     1
 10
0.0
 20
0.0
 30
0.0
  3
*D2
  1

  0
LINE
  5
96E3
  8
3
 62
     0
 10
486.33744728294909
 20
1209.496608723638
 30
0.0
 11
285.69895071735118
 21
1209.496608723638
 31
0.0
  0
LINE
  5
96E4
  8
3
 62
     0
 10
525.6394727866018
 20
854.49660872363802
 30
0.0
 11
285.69895071735118
 21
854.49660872363802
 31
0.0
  0
LINE
  5
96E5
  8
3
 62
     0
 10
297.69895071735129
 20
1185.496608723638
 30
0.0
 11
297.69895071735112
 21
878.49660872363802
 31
0.0
  0
INSERT
  5
96E6
  8
3
 62
     0
  2
_OPEN
 10
297.69895071735129
 20
1209.496608723638
 30
0.0
 41
24.0
 42
24.0
 43
24.0
 50
90.0
  0
INSERT
  5
96E7
  8
3
 62
     0
  2
_OPEN
 10
297.69895071735112
 20
854.49660872363802
 30
0.0
 41
24.0
 42
24.0
 43
24.0
 50
270.0
  0
TEXT
  8
3
  40
36
  5
976D
  62
0
  72
0
  71
0
 10
195.699
 20
968.277
 30
0.000000
  1
355
  0
POINT
  5
96E9
  8
DEFPOINTS
 62
     0
 10
492.33744728294909
 20
1209.496608723638
 30
0.0
  0
POINT
  5
96EA
  8
DEFPOINTS
 62
     0
 10
531.63947278660169
 20
854.49660872363802
 30
0.0
  0
POINT
  5
96EB
  8
DEFPOINTS
 62
     0
 10
297.69895071735112
 20
854.49660872363802
 30
0.0
  0
ENDBLK
  5
870D
  8
0
  0
BLOCK
  8
0
  2
_DOT
 70
     0
 10
0.0
 20
0.0
 30
0.0
  3
_DOT
  1

  0
LINE
  5
811D
  8
0
  6
BYBLOCK
 62
     0
 10
0.0
 20
0.0
 30
0.0
 11
-1.0
 21
-0.0000000000000284
 31
0.0
  0
POLYLINE
  5
811E
  8
0
  6
BYBLOCK
 62
     0
 66
     1
 10
0.0
 20
0.0
 30
0.0
 70
     1
 40
0.1666666666666666
 41
0.1666666666666666
  0
VERTEX
  5
96EC
  8
0
  6
BYBLOCK
 62
     0
 10
-0.0833333333333286
 20
-0.0000000000000284
 30
0.0
 42
1.0
  0
VERTEX
  5
96ED
  8
0
  6
BYBLOCK
 62
     0
 10
0.0833333333333286
 20
-0.0000000000000284
 30
0.0
 42
1.0
  0
SEQEND
  5
96EE
  8
0
  6
BYBLOCK
 62
     0
  0
ENDBLK
  5
8007
  8
0
  0
BLOCK
  8
0
  2
*D7
 70
     1
 10
0.0
 20
0.0
 30
0.0
  3
*D7
  1

  0
LINE
  5
9542
  8
3
 62
     0
 10
1471.7340983958411
 20
786.49660872363825
 30
0.0
 11
1471.7340983958411
 21
629.39135527510189
 31
0.0
  0
LINE
  5
9543
  8
3
 62
     0
 10
2006.7340983958411
 20
765.59294425452845
 30
0.0
 11
2006.7340983958411
 21
629.39135527510189
 31
0.0
  0
LINE
  5
9544
  8
3
 62
     0
 10
1495.7340983958411
 20
641.39135527510189
 30
0.0
 11
1982.7340983958411
 21
641.39135527510189
 31
0.0
  0
TEXT
  5
9545
  8
3
 62
     0
 10
1702.842832624433
 20
655.55878483192373
 30
0.0
 40
36.0
  1
535
  0
INSERT
  5
9546
  8
3
 62
     0
  2
_OPEN
 10
1471.7340983958411
 20
641.39135527510189
 30
0.0
 41
24.0
 42
24.0
 43
24.0
 50
180.0
  0
INSERT
  5
9547
  8
3
 62
     0
  2
_OPEN
 10
2006.7340983958411
 20
641.39135527510189
 30
0.0
 41
24.0
 42
24.0
 43
24.0
  0
POINT
  5
9548
  8
DEFPOINTS
 62
     0
 10
1471.7340983958411
 20
792.49660872363825
 30
0.0
  0
POINT
  5
9549
  8
DEFPOINTS
 62
     0
 10
2006.7340983958411
 20
771.59294425452845
 30
0.0
  0
POINT
  5
954A
  8
DEFPOINTS
 62
     0
 10
2006.7340983958411
 20
641.39135527510189
 30
0.0
  0
ENDBLK
  5
87E0
  8
0
  0
BLOCK
  8
0
  2
*D9
 70
     1
 10
0.0
 20
0.0
 30
0.0
  3
*D9
  1

  0
LINE
  5
96F5
  8
3
 62
     0
 10
531.63947278660316
 20
1239.64019314501
 30
0.0
 11
531.63947278660316
 21
1559.453688071098
 31
0.0
  0
LINE
  5
96F6
  8
3
 62
     0
 10
781.63947278660726
 20
1488.1512187548769
 30
0.0
 11
781.63947278660726
 21
1559.453688071098
 31
0.0
  0
LINE
  5
96F7
  8
3
 62
     0
 10
555.63947278660305
 20
1547.453688071098
 30
0.0
 11
757.63947278660714
 21
1547.453688071098
 31
0.0
  0
INSERT
  5
96F8
  8
3
 62
     0
  2
_OPEN
 10
531.63947278660316
 20
1547.453688071098
 30
0.0
 41
24.0
 42
24.0
 43
24.0
 50
180.0
  0
INSERT
  5
96F9
  8
3
 62
     0
  2
_OPEN
 10
781.63947278660726
 20
1547.453688071098
 30
0.0
 41
24.0
 42
24.0
 43
24.0
  0
TEXT
  8
3
  40
36
  5
976E
  62
0
  72
0
  71
0
 10
571.428
 20
1513.73
 30
0.000000
  1
250
  0
POINT
  5
96FB
  8
DEFPOINTS
 62
     0
 10
531.63947278660316
 20
1233.64019314501
 30
0.0
  0
POINT
  5
96FC
  8
DEFPOINTS
 62
     0
 10
781.63947278660726
 20
1482.1512187548781
 30
0.0
  0
POINT
  5
96FD
  8
DEFPOINTS
 62
     0
 10
781.63947278660726
 20
1547.453688071098
 30
0.0
  0
ENDBLK
  5
852E
  8
0
  0
BLOCK
  8
0
  2
*D10
 70
     1
 10
0.0
 20
0.0
 30
0.0
  3
*D10
  1

  0
LINE
  5
96FE
  8
3
 62
     0
 10
1045.6394727866109
 20
1240.9966087236389
 30
0.0
 11
1045.6394727866109
 21
1559.453688071098
 31
0.0
  0
LINE
  5
96FF
  8
3
 62
     0
 10
805.63947278660714
 20
1547.453688071098
 30
0.0
 11
1021.639472786611
 21
1547.453688071098
 31
0.0
  0
INSERT
  5
9700
  8
3
 62
     0
  2
_OPEN
 10
781.63947278660726
 20
1547.453688071098
 30
0.0
 41
24.0
 42
24.0
 43
24.0
 50
180.0
  0
INSERT
  5
9701
  8
3
 62
     0
  2
_OPEN
 10
1045.6394727866109
 20
1547.453688071098
 30
0.0
 41
24.0
 42
24.0
 43
24.0
  0
TEXT
  8
3
  40
36
  5
976F
  62
0
  72
0
  71
0
 10
841.639
 20
1513.73
 30
0.000000
  1
264
  0
POINT
  5
9703
  8
DEFPOINTS
 62
     0
 10
781.63947278660726
 20
1482.1512187548781
 30
0.0
  0
POINT
  5
9704
  8
DEFPOINTS
 62
     0
 10
1045.6394727866109
 20
1234.9966087236389
 30
0.0
  0
POINT
  5
9705
  8
DEFPOINTS
 62
     0
 10
1045.6394727866109
 20
1547.453688071098
 30
0.0
  0
ENDBLK
  5
8587
  8
0
  0
BLOCK
  8
0
  2
*D11
 70
     1
 10
0.0
 20
0.0
 30
0.0
  3
*D11
  1

  0
LINE
  5
9711
  8
3
 62
     0
 10
798.49317665141552
 20
1431.7838288401099
 30
0.0
 11
285.69895071735118
 21
1431.7838288401099
 31
0.0
  0
LINE
  5
9712
  8
3
 62
     0
 10
297.69895071735112
 20
1233.496608723638
 30
0.0
 11
297.69895071735112
 21
1407.7838288401099
 31
0.0
  0
INSERT
  5
9713
  8
3
 62
     0
  2
_OPEN
 10
297.69895071735112
 20
1209.496608723638
 30
0.0
 41
24.0
 42
24.0
 43
24.0
 50
270.0
  0
INSERT
  5
9714
  8
3
 62
     0
  2
_OPEN
 10
297.69895071735112
 20
1431.7838288401099
 30
0.0
 41
24.0
 42
24.0
 43
24.0
 50
90.0
  0
TEXT
  8
3
  40
36
  5
9770
  62
0
  72
0
  71
0
 10
195.699
 20
1256.92
 30
0.000000
  1
222
  0
POINT
  5
9716
  8
DEFPOINTS
 62
     0
 10
492.33744728294909
 20
1209.496608723638
 30
0.0
  0
POINT
  5
9717
  8
DEFPOINTS
 62
     0
 10
804.49317665141552
 20
1431.7838288401099
 30
0.0
  0
POINT
  5
9718
  8
DEFPOINTS
 62
     0
 10
297.69895071735112
 20
1431.7838288401099
 30
0.0
  0
ENDBLK
  5
8702
  8
0
  0
BLOCK
  8
0
  2
*D12
 70
     1
 10
0.0
 20
0.0
 30
0.0
  3
*D12
  1

  0
LINE
  5
971F
  8
3
 62
     0
 10
2271.7340983958402
 20
786.49660872363802
 30
0.0
 11
2271.7340983958402
 21
629.39135527510189
 31
0.0
  0
LINE
  5
9720
  8
3
 62
     0
 10
2030.7340983958411
 20
641.39135527510189
 30
0.0
 11
2247.7340983958402
 21
641.39135527510189
 31
0.0
  0
INSERT
  5
9721
  8
3
 62
     0
  2
_OPEN
 10
2006.7340983958411
 20
641.39135527510189
 30
0.0
 41
24.0
 42
24.0
 43
24.0
 50
180.0
  0
INSERT
  5
9722
  8
3
 62
     0
  2
_OPEN
 10
2271.7340983958402
 20
641.39135527510189
 30
0.0
 41
24.0
 42
24.0
 43
24.0
  0
TEXT
  8
3
  40
36
  5
9771
  62
0
  72
0
  71
0
 10
2067.23
 20
607.671
 30
0.000000
  1
265
  0
POINT
  5
9724
  8
DEFPOINTS
 62
     0
 10
2006.7340983958411
 20
771.59294425452845
 30
0.0
  0
POINT
  5
9725
  8
DEFPOINTS
 62
     0
 10
2271.7340983958402
 20
792.49660872363802
 30
0.0
  0
POINT
  5
9726
  8
DEFPOINTS
 62
     0
 10
2271.7340983958402
 20
641.39135527510189
 30
0.0
  0
ENDBLK
  5
87D5
  8
0
  0
BLOCK
  8
0
  2
*D13
 70
     1
 10
0.0
 20
0.0
 30
0.0
  3
*D13
  1

  0
LINE
  5
9727
  8
3
 62
     0
 10
1181.6394727866141
 20
786.49660872363802
 30
0.0
 11
1181.6394727866141
 21
684.99434268473658
 31
0.0
  0
LINE
  5
9728
  8
3
 62
     0
 10
781.63947278660726
 20
744.48396721936933
 30
0.0
 11
781.63947278660726
 21
684.99434268473658
 31
0.0
  0
LINE
  5
9729
  8
3
 62
     0
 10
1157.6394727866141
 20
696.99434268473669
 30
0.0
 11
805.63947278660714
 21
696.99434268473669
 31
0.0
  0
INSERT
  5
972A
  8
3
 62
     0
  2
_OPEN
 10
1181.6394727866141
 20
696.99434268473669
 30
0.0
 41
24.0
 42
24.0
 43
24.0
  0
INSERT
  5
972B
  8
3
 62
     0
  2
_OPEN
 10
781.63947278660726
 20
696.99434268473669
 30
0.0
 41
24.0
 42
24.0
 43
24.0
 50
180.0
  0
TEXT
  8
3
  40
36
  5
9772
  62
0
  72
0
  71
0
 10
914.768
 20
663.274
 30
0.000000
  1
400
  0
POINT
  5
972D
  8
DEFPOINTS
 62
     0
 10
1181.6394727866141
 20
792.49660872363802
 30
0.0
  0
POINT
  5
972E
  8
DEFPOINTS
 62
     0
 10
781.63947278660726
 20
750.48396721936933
 30
0.0
  0
POINT
  5
972F
  8
DEFPOINTS
 62
     0
 10
781.63947278660726
 20
696.99434268473669
 30
0.0
  0
ENDBLK
  5
87AC
  8
0
  0
BLOCK
  8
0
  2
*D14
 70
     1
 10
0.0
 20
0.0
 30
0.0
  3
*D14
  1

  0
LINE
  5
9730
  8
3
 62
     0
 10
381.63947278661448
 20
786.49660872363802
 30
0.0
 11
381.63947278661448
 21
684.99434268473658
 31
0.0
  0
LINE
  5
9731
  8
3
 62
     0
 10
757.63947278660714
 20
696.99434268473669
 30
0.0
 11
405.63947278661448
 21
696.99434268473669
 31
0.0
  0
INSERT
  5
9732
  8
3
 62
     0
  2
_OPEN
 10
781.63947278660726
 20
696.99434268473669
 30
0.0
 41
24.0
 42
24.0
 43
24.0
  0
INSERT
  5
9733
  8
3
 62
     0
  2
_OPEN
 10
381.63947278661448
 20
696.99434268473669
 30
0.0
 41
24.0
 42
24.0
 43
24.0
 50
180.0
  0
TEXT
  8
3
  40
36
  5
9773
  62
0
  72
0
  71
0
 10
509.639
 20
663.274
 30
0.000000
  1
400
  0
POINT
  5
9735
  8
DEFPOINTS
 62
     0
 10
781.63947278660726
 20
750.48396721936933
 30
0.0
  0
POINT
  5
9736
  8
DEFPOINTS
 62
     0
 10
381.63947278661448
 20
792.49660872363802
 30
0.0
  0
POINT
  5
9737
  8
DEFPOINTS
 62
     0
 10
381.63947278661448
 20
696.99434268473669
 30
0.0
  0
ENDBLK
  5
87B6
  8
0
  0
BLOCK
  8
0
  2
*D15
 70
     1
 10
0.0
 20
0.0
 30
0.0
  3
*D15
  1

  0
LINE
  5
9738
  8
3
 62
     0
 10
1465.7340983958411
 20
1692.496608723638
 30
0.0
 11
1386.0251367118069
 21
1692.496608723638
 31
0.0
  0
LINE
  5
9739
  8
3
 62
     0
 10
1465.7340983958411
 20
792.49660872363825
 30
0.0
 11
1386.0251367118069
 21
792.49660872363825
 31
0.0
  0
LINE
  5
973A
  8
3
 62
     0
 10
1398.0251367118069
 20
1668.4966087236371
 30
0.0
 11
1398.0251367118069
 21
816.49660872363825
 31
0.0
  0
INSERT
  5
973B
  8
3
 62
     0
  2
_OPEN
 10
1398.0251367118069
 20
1692.496608723638
 30
0.0
 41
24.0
 42
24.0
 43
24.0
 50
90.0
  0
INSERT
  5
973C
  8
3
 62
     0
  2
_OPEN
 10
1398.0251367118069
 20
792.49660872363825
 30
0.0
 41
24.0
 42
24.0
 43
24.0
 50
270.0
  0
TEXT
  8
3
  40
36
  5
9774
  62
0
  72
0
  71
0
 10
1296.03
 20
1097.70
 30
0.000000
  1
900
  0
POINT
  5
973E
  8
DEFPOINTS
 62
     0
 10
1471.7340983958411
 20
1692.496608723638
 30
0.0
  0
POINT
  5
973F
  8
DEFPOINTS
 62
     0
 10
1471.7340983958411
 20
792.49660872363825
 30
0.0
  0
POINT
  5
9740
  8
DEFPOINTS
 62
     0
 10
1398.0251367118069
 20
792.49660872363825
 30
0.0
  0
ENDBLK
  5
86AE
  8
0
  0
BLOCK
  8
0
  2
*D16
 70
     1
 10
0.0
 20
0.0
 30
0.0
  3
*D16
  1

  0
LINE
  5
9741
  8
3
 62
     0
 10
1181.6394727866109
 20
2655.93183331417
 30
0.0
 11
1181.6394727866109
 21
2748.656803597381
 31
0.0
  0
LINE
  5
9742
  8
3
 62
     0
 10
381.6394727866109
 20
2655.93183331417
 30
0.0
 11
381.6394727866109
 21
2748.656803597381
 31
0.0
  0
LINE
  5
9743
  8
3
 62
     0
 10
1157.6394727866109
 20
2736.6568035973801
 30
0.0
 11
405.63947278661078
 21
2736.6568035973801
 31
0.0
  0
INSERT
  5
9744
  8
3
 62
     0
  2
_OPEN
 10
1181.6394727866109
 20
2736.6568035973801
 30
0.0
 41
24.0
 42
24.0
 43
24.0
  0
INSERT
  5
9745
  8
3
 62
     0
  2
_OPEN
 10
381.6394727866109
 20
2736.6568035973801
 30
0.0
 41
24.0
 42
24.0
 43
24.0
 50
180.0
  0
TEXT
  8
3
  40
36
  5
9775
  62
0
  72
0
  71
0
 10
698.139
 20
2702.94
 30
0.000000
  1
800
  0
POINT
  5
9747
  8
DEFPOINTS
 62
     0
 10
1181.6394727866109
 20
2649.93183331417
 30
0.0
  0
POINT
  5
9748
  8
DEFPOINTS
 62
     0
 10
381.6394727866109
 20
2649.93183331417
 30
0.0
  0
POINT
  5
9749
  8
DEFPOINTS
 62
     0
 10
381.6394727866109
 20
2736.6568035973801
 30
0.0
  0
ENDBLK
  5
86D4
  8
0
  0
BLOCK
  8
0
  2
*D17
 70
     1
 10
0.0
 20
0.0
 30
0.0
  3
*D17
  1

  0
LINE
  5
974A
  8
3
 62
     0
 10
375.63947278661078
 20
1849.93183331417
 30
0.0
 11
186.53488107110769
 21
1849.93183331417
 31
0.0
  0
LINE
  5
974B
  8
3
 62
     0
 10
375.63947278661078
 20
2649.93183331417
 30
0.0
 11
186.53488107110789
 21
2649.93183331417
 31
0.0
  0
LINE
  5
974C
  8
3
 62
     0
 10
198.5348810711078
 20
1873.93183331417
 30
0.0
 11
198.53488107110789
 21
2625.93183331417
 31
0.0
  0
INSERT
  5
974D
  8
3
 62
     0
  2
_OPEN
 10
198.53488107110769
 20
1849.93183331417
 30
0.0
 41
24.0
 42
24.0
 43
24.0
 50
270.0
  0
INSERT
  5
974E
  8
3
 62
     0
  2
_OPEN
 10
198.53488107110789
 20
2649.93183331417
 30
0.0
 41
24.0
 42
24.0
 43
24.0
 50
90.0
  0
TEXT
  8
3
  40
36
  5
9776
  62
0
  72
0
  71
0
 10
96.5349
 20
2188.06
 30
0.000000
  1
800
  0
POINT
  5
9750
  8
DEFPOINTS
 62
     0
 10
381.6394727866109
 20
1849.93183331417
 30
0.0
  0
POINT
  5
9751
  8
DEFPOINTS
 62
     0
 10
381.6394727866109
 20
2649.93183331417
 30
0.0
  0
POINT
  5
9752
  8
DEFPOINTS
 62
     0
 10
198.53488107110789
 20
2649.93183331417
 30
0.0
  0
ENDBLK
  5
86C8
  8
0
  0
BLOCK
  8
0
  2
*D18
 70
     1
 10
0.0
 20
0.0
 30
0.0
  3
*D18
  1

  0
LINE
  5
9496
  8
3
 62
     0
 10
455.63947278661448
 20
832.49660872363791
 30
0.0
 11
285.69895071735118
 21
832.49660872363791
 31
0.0
  0
LINE
  5
9497
  8
3
 62
     0
 10
297.69895071735112
 20
878.49660872363802
 30
0.0
 11
297.69895071735118
 21
902.49660872363802
 31
0.0
  0
LINE
  5
9498
  8
3
 62
     0
 10
297.69895071735112
 20
808.49660872363791
 30
0.0
 11
297.69895071735112
 21
784.49660872363802
 31
0.0
  0
TEXT
  5
9499
  8
3
 62
     0
 10
252.27037928877959
 20
791.21089443792368
 30
0.0
 40
36.0
  1
(22)
 50
90.0
  0
LINE
  5
949A
  8
3
 62
     0
 10
297.69895071735112
 20
854.49660872363802
 30
0.0
 11
297.69895071735112
 21
832.49660872363791
 31
0.0
  0
INSERT
  5
949B
  8
3
 62
     0
  2
_OPEN
 10
297.69895071735112
 20
854.49660872363802
 30
0.0
 41
24.0
 42
24.0
 43
24.0
 50
270.0
  0
INSERT
  5
949C
  8
3
 62
     0
  2
_DOT
 10
297.69895071735112
 20
832.49660872363791
 30
0.0
 41
24.0
 42
24.0
 43
24.0
 50
90.0
  0
POINT
  5
949D
  8
DEFPOINTS
 62
     0
 10
531.63947278660169
 20
854.49660872363802
 30
0.0
  0
POINT
  5
949E
  8
DEFPOINTS
 62
     0
 10
461.63947278661448
 20
832.49660872363791
 30
0.0
  0
POINT
  5
949F
  8
DEFPOINTS
 62
     0
 10
297.69895071735112
 20
832.49660872363791
 30
0.0
  0
ENDBLK
  5
876A
  8
0
  0
BLOCK
  8
0
  2
*D19
 70
     1
 10
0.0
 20
0.0
 30
0.0
  3
*D19
  1

  0
LINE
  5
9753
  8
3
 62
     0
 10
455.63947278661448
 20
832.49660872363791
 30
0.0
 11
285.69895071735118
 21
832.49660872363791
 31
0.0
  0
LINE
  5
9754
  8
3
 62
     0
 10
375.63947278661448
 20
792.49660872363802
 30
0.0
 11
285.69895071735118
 21
792.49660872363802
 31
0.0
  0
LINE
  5
9755
  8
3
 62
     0
 10
297.69895071735112
 20
856.49660872363791
 30
0.0
 11
297.69895071735112
 21
880.49660872363802
 31
0.0
  0
LINE
  5
9756
  8
3
 62
     0
 10
297.69895071735112
 20
768.49660872363802
 30
0.0
 11
297.69895071735112
 21
662.21089443792357
 31
0.0
  0
LINE
  5
9757
  8
3
 62
     0
 10
297.69895071735112
 20
832.49660872363791
 30
0.0
 11
297.69895071735112
 21
792.49660872363802
 31
0.0
  0
INSERT
  5
9758
  8
3
 62
     0
  2
_DOT
 10
297.69895071735112
 20
832.49660872363791
 30
0.0
 41
24.0
 42
24.0
 43
24.0
 50
270.0
  0
INSERT
  5
9759
  8
3
 62
     0
  2
_OPEN
 10
297.69895071735112
 20
792.49660872363802
 30
0.0
 41
24.0
 42
24.0
 43
24.0
 50
90.0
  0
TEXT
  8
3
  40
36
  5
9777
  62
0
  72
0
  71
0
 10
195.699
 20
639.634
 30
0.000000
  1
40
  0
POINT
  5
975B
  8
DEFPOINTS
 62
     0
 10
461.63947278661448
 20
832.49660872363791
 30
0.0
  0
POINT
  5
975C
  8
DEFPOINTS
 62
     0
 10
381.63947278661448
 20
792.49660872363802
 30
0.0
  0
POINT
  5
975D
  8
DEFPOINTS
 62
     0
 10
297.69895071735112
 20
792.49660872363802
 30
0.0
  0
ENDBLK
  5
8777
  8
0
  0
BLOCK
  8
0
  2
*D48
 70
     1
 10
0.0
 20
0.0
 30
0.0
  3
*D48
  1

  0
LINE
  5
9530
  8
SP
 10
2006.7340983958411
 20
1621.7591812252269
 30
0.0
 11
2006.7340983958411
 21
1774.851750727674
 31
0.0
  0
LINE
  5
9531
  8
SP
 10
1586.7340983968299
 20
1308.0775490366921
 30
0.0
 11
1586.7340983968299
 21
1774.851750727674
 31
0.0
  0
LINE
  5
9532
  8
SP
 10
1969.2340983958411
 20
1759.851750727674
 30
0.0
 11
1624.2340983968299
 21
1759.851750727674
 31
0.0
  0
INSERT
  5
9533
  8
SP
  2
_OPEN
 10
2006.7340983958411
 20
1759.851750727674
 30
0.0
 41
37.5
 42
37.5
 43
37.5
  0
INSERT
  5
9534
  8
SP
  2
_OPEN
 10
1586.7340983968299
 20
1759.851750727674
 30
0.0
 41
37.5
 42
37.5
 43
37.5
 50
180.0
  0
TEXT
  5
9535
  8
3
 10
1696.234098396335
 20
1774.851750727674
 30
0.0
 40
45.0
  1
（420）
  0
POINT
  5
9536
  8
DEFPOINTS
 62
     0
 10
2006.7340983958411
 20
1606.7591812252269
 30
0.0
  0
POINT
  5
9537
  8
DEFPOINTS
 62
     0
 10
1586.7340983968299
 20
1293.0775490366921
 30
0.0
  0
POINT
  5
9538
  8
DEFPOINTS
 62
     0
 10
1586.7340983968299
 20
1759.851750727674
 30
0.0
  0
ENDBLK
  5
9365
  8
0
  0
BLOCK
  8
0
  2
*D49
 70
     1
 10
0.0
 20
0.0
 30
0.0
  3
*D49
  1

  0
LINE
  5
9527
  8
SP
 10
2006.7340983958411
 20
1621.7591812252269
 30
0.0
 11
2006.7340983958411
 21
1774.851750727674
 31
0.0
  0
LINE
  5
9528
  8
SP
 10
2127.7340983958411
 20
1405.9966087236351
 30
0.0
 11
2127.7340983958411
 21
1774.851750727674
 31
0.0
  0
LINE
  5
9529
  8
SP
 10
2044.2340983958411
 20
1759.851750727674
 30
0.0
 11
2090.2340983958402
 21
1759.851750727674
 31
0.0
  0
INSERT
  5
952A
  8
SP
  2
_OPEN
 10
2006.7340983958411
 20
1759.851750727674
 30
0.0
 41
37.5
 42
37.5
 43
37.5
 50
180.0
  0
INSERT
  5
952B
  8
SP
  2
_OPEN
 10
2127.7340983958411
 20
1759.851750727674
 30
0.0
 41
37.5
 42
37.5
 43
37.5
  0
TEXT
  5
952C
  8
3
 10
2023.3055269672691
 20
1774.851750727674
 30
0.0
 40
45.0
  1
121
  0
POINT
  5
952D
  8
DEFPOINTS
 62
     0
 10
2006.7340983958411
 20
1606.7591812252269
 30
0.0
  0
POINT
  5
952E
  8
DEFPOINTS
 62
     0
 10
2127.7340983958411
 20
1390.9966087236351
 30
0.0
  0
POINT
  5
952F
  8
DEFPOINTS
 62
     0
 10
2127.7340983958411
 20
1759.851750727674
 30
0.0
  0
ENDBLK
  5
9371
  8
0
  0
BLOCK
  8
0
  2
*D50
 70
     1
 10
0.0
 20
0.0
 30
0.0
  3
*D50
  1

  0
LINE
  5
94E8
  8
SP
 10
1894.7340983958411
 20
1431.7838288401119
 30
0.0
 11
1894.7340983958411
 21
1551.783828840111
 31
0.0
  0
LINE
  5
94E9
  8
SP
 10
2118.7340983958338
 20
1431.783828840111
 30
0.0
 11
2118.7340983958338
 21
1551.783828840111
 31
0.0
  0
LINE
  5
94EA
  8
SP
 10
1932.2340983958411
 20
1536.783828840111
 30
0.0
 11
2081.2340983958329
 21
1536.783828840111
 31
0.0
  0
INSERT
  5
94EB
  8
SP
  2
_OPEN
 10
1894.7340983958411
 20
1536.783828840111
 30
0.0
 41
37.5
 42
37.5
 43
37.5
 50
180.0
  0
INSERT
  5
94EC
  8
SP
  2
_OPEN
 10
2118.7340983958338
 20
1536.783828840111
 30
0.0
 41
37.5
 42
37.5
 43
37.5
  0
TEXT
  5
94ED
  8
3
 10
1947.8055269672659
 20
1551.783828840111
 30
0.0
 40
45.0
  1
224
  0
POINT
  5
94EE
  8
DEFPOINTS
 62
     0
 10
1894.7340983958411
 20
1416.7838288401119
 30
0.0
  0
POINT
  5
94EF
  8
DEFPOINTS
 62
     0
 10
2118.7340983958338
 20
1416.783828840111
 30
0.0
  0
POINT
  5
94F0
  8
DEFPOINTS
 62
     0
 10
2118.7340983958338
 20
1536.783828840111
 30
0.0
  0
ENDBLK
  5
937D
  8
0
  0
BLOCK
  8
0
  2
*D53
 70
     1
 10
0.0
 20
0.0
 30
0.0
  3
*D53
  1

  0
LINE
  5
9539
  8
SP
 10
2142.7340983958411
 20
1366.996608723636
 30
0.0
 11
2402.4733393251472
 21
1366.996608723636
 31
0.0
  0
LINE
  5
953A
  8
SP
 10
2142.7340983958411
 20
1051.996608723636
 30
0.0
 11
2402.4733393251472
 21
1051.996608723636
 31
0.0
  0
LINE
  5
953B
  8
SP
 10
2387.4733393251472
 20
1329.496608723636
 30
0.0
 11
2387.4733393251472
 21
1089.496608723636
 31
0.0
  0
INSERT
  5
953C
  8
SP
  2
_OPEN
 10
2387.4733393251472
 20
1366.996608723636
 30
0.0
 41
37.5
 42
37.5
 43
37.5
 50
90.0
  0
INSERT
  5
953D
  8
SP
  2
_OPEN
 10
2387.4733393251472
 20
1051.996608723636
 30
0.0
 41
37.5
 42
37.5
 43
37.5
 50
270.0
  0
TEXT
  5
953E
  8
3
 10
2372.4733393251458
 20
1133.425180152208
 30
0.0
 40
45.0
  1
φ315
 50
90.0
  0
POINT
  5
953F
  8
DEFPOINTS
 62
     0
 10
2127.7340983958411
 20
1366.996608723636
 30
0.0
  0
POINT
  5
9540
  8
DEFPOINTS
 62
     0
 10
2127.7340983958411
 20
1051.996608723636
 30
0.0
  0
POINT
  5
9541
  8
DEFPOINTS
 62
     0
 10
2387.4733393251472
 20
1051.996608723636
 30
0.0
  0
ENDBLK
  5
93A1
  8
0
  0
ENDSEC
  0
SECTION
  2
ENTITIES
  0
POLYLINE
  5
7D77
  8
1
 66
     1
 10
0.0
 20
0.0
 30
0.0
  0
VERTEX
  5
96A5
  8
1
 10
894.61773108713805
 20
1414.496608723638
 30
0.0
 42
0.1343280102757561
  0
VERTEX
  5
96A6
  8
1
 10
766.86944750631926
 20
1428.8604529328429
 30
0.0
 42
0.3163019945347412
  0
VERTEX
  5
96A7
  8
1
 10
598.26228624419264
 20
1265.8662417719099
 30
0.0
 42
0.3153658436290411
  0
SEQEND
  5
96A8
  8
1
  0
POLYLINE
  5
7D7C
  8
1
 66
     1
 10
0.0
 20
0.0
 30
0.0
  0
VERTEX
  5
96A9
  8
1
 10
531.6394727866026
 20
894.49660872364154
 30
0.0
  0
VERTEX
  5
96AA
  8
1
 10
756.13947278660407
 20
894.4966087236362
 30
0.0
 42
0.2294041480982971
  0
VERTEX
  5
96AB
  8
1
 10
983.27379427942515
 20
1004.496608723637
 30
0.0
 42
0.1293935334669464
  0
SEQEND
  5
96AC
  8
1
  0
POLYLINE
  5
7D81
  8
1
 66
     1
 10
0.0
 20
0.0
 30
0.0
  0
VERTEX
  5
96AD
  8
1
 10
531.6394727866026
 20
893.49660872364154
 30
0.0
  0
VERTEX
  5
96AE
  8
1
 10
756.1394727866026
 20
893.49660872363609
 30
0.0
 42
0.2301193883723377
  0
VERTEX
  5
96AF
  8
1
 10
984.54700331045569
 20
1004.496608723637
 30
0.0
 42
0.129402372482195
  0
SEQEND
  5
96B0
  8
1
  0
LINE
  5
7D8B
  8
1
 10
984.33947278661526
 20
1294.896608723637
 30
0.0
 11
984.33947278661878
 21
854.49660872363825
 31
0.0
  0
LINE
  5
7D8C
  8
1
 10
578.93947278661562
 20
1294.8966087236381
 30
0.0
 11
578.93947278661835
 21
854.49660872363802
 31
0.0
  0
LINE
  5
7D8D
  8
1
 10
986.63947278661544
 20
1294.896608723637
 30
0.0
 11
986.63947278661544
 21
854.49660872363802
 31
0.0
  0
LINE
  5
7D8E
  8
1
 10
576.63947278661544
 20
1294.8966087236381
 30
0.0
 11
576.63947278661544
 21
856.79660872363797
 31
0.0
  0
CIRCLE
  5
7D8F
  8
1
 10
781.63947278661453
 20
1209.496608723638
 30
0.0
 40
169.0
  0
POLYLINE
  5
7D90
  8
1
 66
     1
 10
0.0
 20
0.0
 30
0.0
  0
VERTEX
  5
96B1
  8
1
 10
986.63947278661453
 20
1348.7464137157101
 30
0.0
 42
0.1174780416237573
  0
VERTEX
  5
96B2
  8
1
 10
894.61773108713714
 20
1414.4966087236371
 30
0.0
 42
0.3153658436290411
  0
SEQEND
  5
96B3
  8
1
  0
LINE
  5
7D95
  8
1
 10
578.93947278661653
 20
1099.4966087236371
 30
0.0
 11
616.63947278661544
 21
1067.828608723637
 31
0.0
  0
LINE
  5
7D96
  8
1
 10
984.33947278661526
 20
1109.496608723638
 30
0.0
 11
578.93947278661562
 21
1109.496608723638
 31
0.0
  0
LINE
  5
7D97
  8
1
 10
614.65375850090095
 20
1069.496608723638
 30
0.0
 11
781.63947278660635
 21
1069.496608723638
 31
0.0
  0
LINE
  5
7D98
  8
1
 10
610.18763862030573
 20
1255.436989229335
 30
0.0
 11
625.5242617605727
 21
1251.3275534442801
 31
0.0
  0
CIRCLE
  5
7D99
  8
1
 10
618.39800814376304
 20
1253.237027345963
 30
0.0
 40
4.0
  0
LINE
  5
7D9A
  8
1
 10
610.18763862030664
 20
1163.5562282179401
 30
0.0
 11
625.5242617605727
 21
1167.6656640029939
 31
0.0
  0
CIRCLE
  5
7D9B
  8
1
 10
618.39800814376031
 20
1165.7561901013109
 30
0.0
 40
4.0
  0
LINE
  5
7D9C
  8
1
 10
946.63947278661544
 20
1067.828608723637
 30
0.0
 11
946.63947278661544
 21
912.69660872363806
 31
0.0
  0
LINE
  5
7D9D
  8
1
 10
616.63947278661544
 20
1067.828608723637
 30
0.0
 11
616.63947278661453
 21
912.69660872363806
 31
0.0
  0
POLYLINE
  5
7D9E
  8
1
 66
     1
 10
0.0
 20
0.0
 30
0.0
  0
VERTEX
  5
96B4
  8
1
 10
984.54700331045569
 20
1004.496608723637
 30
0.0
 42
0.2162148363065116
  0
VERTEX
  5
96B5
  8
1
 10
1040.689684063251
 20
1237.3944255316901
 30
0.0
 42
0.1298622998199493
  0
VERTEX
  5
96B6
  8
1
 10
986.63947278661544
 20
1348.746413715711
 30
0.0
 42
0.3153658436290411
  0
SEQEND
  5
96B7
  8
1
  0
LINE
  5
7DA3
  8
1
 10
735.69909228091808
 20
1038.044774557329
 30
0.0
 11
739.80852806597238
 21
1053.381397697595
 31
0.0
  0
CIRCLE
  5
7DA4
  8
1
 10
737.89905416428974
 20
1046.2551440807849
 30
0.0
 40
4.0
  0
CIRCLE
  5
7DA5
  8
1
 10
825.37989140893944
 20
1046.2551440807849
 30
0.0
 40
4.0
  0
LINE
  5
7DA6
  8
1
 10
827.57985329231269
 20
1038.0447745573281
 30
0.0
 11
823.47041750725748
 21
1053.381397697595
 31
0.0
  0
LINE
  5
7DA7
  8
1
 10
948.62518707232903
 20
1069.496608723638
 30
0.0
 11
781.63947278660635
 21
1069.496608723638
 31
0.0
  0
LINE
  5
7DA8
  8
1
 10
656.12801912600298
 20
1083.985155063026
 30
0.0
 11
667.35520648121656
 21
1095.2123424182371
 31
0.0
  0
CIRCLE
  5
7DA9
  8
1
 10
662.13842676608783
 20
1089.9955627031111
 30
0.0
 40
4.0
  0
LINE
  5
7DAA
  8
1
 10
907.1509264472279
 20
1083.985155063026
 30
0.0
 11
895.92373909201535
 21
1095.212342418238
 31
0.0
  0
CIRCLE
  5
7DAB
  8
1
 10
901.14051880714123
 20
1089.9955627031111
 30
0.0
 40
4.0
  0
LINE
  5
7DAC
  8
1
 10
984.33947278661606
 20
1099.4966087236371
 30
0.0
 11
946.63947278661544
 21
1067.8286087236379
 31
0.0
  0
CIRCLE
  5
7DAD
  8
1
 10
944.88093742946683
 20
1165.7561901013109
 30
0.0
 40
4.0
  0
CIRCLE
  5
7DAE
  8
1
 10
944.88093742946592
 20
1253.237027345963
 30
0.0
 40
4.0
  0
LINE
  5
7DAF
  8
1
 10
953.09130695292424
 20
1255.436989229335
 30
0.0
 11
937.75468381265728
 21
1251.3275534442801
 31
0.0
  0
LINE
  5
7DB0
  8
1
 10
691.63947278661544
 20
1389.496608723638
 30
0.0
 11
578.93947278661562
 21
1294.896608723637
 31
0.0
  0
LINE
  5
7DB1
  8
1
 10
531.63947278660316
 20
873.49660872364166
 30
0.0
 11
531.63947278661362
 21
1230.496608723641
 31
0.0
  0
LINE
  5
7DB2
  8
1
 10
871.63947278661544
 20
1389.496608723638
 30
0.0
 11
984.33947278661606
 21
1294.896608723637
 31
0.0
  0
LINE
  5
7DB3
  8
1
 10
551.63947278660453
 20
910.89660872364311
 30
0.0
 11
551.63947278661215
 21
1193.096608723642
 31
0.0
  0
LINE
  5
7DB4
  8
1
 10
532.83947278660287
 20
873.49660872364166
 30
0.0
 11
532.83947278661344
 21
1230.496608723641
 31
0.0
  0
POLYLINE
  5
7DB5
  8
1
 66
     1
 10
0.0
 20
0.0
 30
0.0
  0
VERTEX
  5
96B8
  8
1
 10
576.6394727866118
 20
1226.351700377214
 30
0.0
 42
0.1315967463597435
  0
VERTEX
  5
96B9
  8
1
 10
598.26701254351201
 20
1265.891038731653
 30
0.0
 42
0.2200089805681688
  0
SEQEND
  5
96BA
  8
1
  0
LINE
  5
7DB9
  8
1
 10
871.63947278661544
 20
1389.496608723638
 30
0.0
 11
691.63947278661544
 21
1389.496608723638
 31
0.0
  0
LINE
  5
7DBA
  8
1
 10
656.12801912600378
 20
1335.0080623842489
 30
0.0
 11
667.35520648121565
 21
1323.7808750290369
 31
0.0
  0
CIRCLE
  5
7DBB
  8
1
 10
662.13842676608783
 20
1328.997654744164
 30
0.0
 40
4.0
  0
LINE
  5
7DBC
  8
1
 10
735.69909228091808
 20
1380.948442889947
 30
0.0
 11
739.80852806597341
 21
1365.6118197496801
 31
0.0
  0
CIRCLE
  5
7DBD
  8
1
 10
737.89905416428974
 20
1372.73807336649
 30
0.0
 40
4.0
  0
CIRCLE
  5
7DBE
  8
1
 10
901.14051880714123
 20
1328.997654744164
 30
0.0
 40
4.0
  0
LINE
  5
7DBF
  8
1
 10
907.15092644722608
 20
1335.0080623842489
 30
0.0
 11
895.92373909201535
 21
1323.7808750290369
 31
0.0
  0
CIRCLE
  5
7DC0
  8
1
 10
825.37989140893944
 20
1372.73807336649
 30
0.0
 40
4.0
  0
LINE
  5
7DC1
  8
1
 10
827.57985329231167
 20
1380.948442889947
 30
0.0
 11
823.47041750725646
 21
1365.6118197496801
 31
0.0
  0
POLYLINE
  5
7DC2
  8
1
 66
     1
 10
0.0
 20
0.0
 30
0.0
  0
VERTEX
  5
96BB
  8
1
 10
556.12856578316632
 20
1222.1608723376339
 30
0.0
 42
0.0934525219043797
  0
VERTEX
  5
96BC
  8
1
 10
576.63947278661271
 20
1242.051024016044
 30
0.0
 42
0.1987366729981355
  0
SEQEND
  5
96BD
  8
1
  0
POLYLINE
  5
7DC6
  8
1
 66
     1
 10
0.0
 20
0.0
 30
0.0
  0
VERTEX
  5
96BE
  8
1
 10
576.63947278661271
 20
1242.051024016044
 30
0.0
 42
0.0941668855597806
  0
VERTEX
  5
96BF
  8
1
 10
588.55087709495774
 20
1268.2567758145451
 30
0.0
 42
0.1987366729981355
  0
SEQEND
  5
96C0
  8
1
  0
LINE
  5
7DCA
  8
1
 10
531.63947278661362
 20
1230.496608723641
 30
0.0
 11
532.83947278661344
 21
1230.496608723641
 31
0.0
  0
LINE
  5
7DCB
  8
1
 10
531.63947278661215
 20
1210.496608723641
 30
0.0
 11
552.63947278661215
 21
1210.496608723641
 31
0.0
  0
LINE
  5
7DCC
  8
1
 10
535.93947278661244
 20
1208.7966087236441
 30
0.0
 11
551.6394727866118
 21
1193.0966087236441
 31
0.0
  0
ARC
  5
7DCD
  8
1
 10
561.63947278661135
 20
1213.816418850472
 30
0.0
 40
10.0
 50
123.4418717894833
 51
179.99999999999841
  0
LINE
  5
7DCE
  8
1
 10
551.63947278661271
 20
1210.496608723648
 30
0.0
 11
551.63947278661487
 21
1213.8164188504779
 31
0.0
  0
POLYLINE
  5
7DCF
  8
1
 66
     1
 10
0.0
 20
0.0
 30
0.0
  0
VERTEX
  5
96C1
  8
1
 10
552.63947278661135
 20
1210.496608723641
 30
0.0
 42
0.101266720201501
  0
VERTEX
  5
96C2
  8
1
 10
558.13888327337497
 20
1211.62196370725
 30
0.0
 42
0.0681921917069782
  0
VERTEX
  5
96C3
  8
1
 10
576.6394727866118
 20
1226.351700377214
 30
0.0
 42
0.2200089805681688
  0
SEQEND
  5
96C4
  8
1
  0
POINT
  5
7DD4
  8
1
 10
531.63947278661306
 20
1209.496608723641
 30
0.0
 50
0.0000000000008142
  0
ARC
  5
7DD5
  8
1
 10
536.63947278661135
 20
1209.496608723641
 30
0.0
 40
1.0
 50
89.999999999998437
 51
233.13010235419341
  0
POLYLINE
  5
7DD6
  8
1
 66
     1
 10
0.0
 20
0.0
 30
0.0
  0
VERTEX
  5
96C5
  8
1
 10
526.57630957161564
 20
1220.9966087236421
 30
0.0
  0
VERTEX
  5
96C6
  8
1
 10
538.84461985556118
 20
1220.996608723641
 30
0.0
  0
SEQEND
  5
96C7
  8
1
  0
LINE
  5
7DDC
  8
1
 10
535.93947278660335
 20
895.19660872364238
 30
0.0
 11
551.63947278660453
 21
910.89660872364311
 31
0.0
  0
LINE
  5
7DDD
  8
1
 10
551.63947278660305
 20
883.49660872364245
 30
0.0
 11
551.63947278660351
 21
893.49660872364245
 31
0.0
  0
ARC
  5
7DDE
  8
1
 10
536.63947278660271
 20
894.49660872364154
 30
0.0
 40
1.0
 50
126.86989764580331
 51
269.99999999999829
  0
POLYLINE
  5
7DDF
  8
1
 66
     1
 10
0.0
 20
0.0
 30
0.0
  0
VERTEX
  5
96C8
  8
1
 10
531.63947278660135
 20
873.49660872364166
 30
0.0
  0
VERTEX
  5
96C9
  8
1
 10
532.83947278660025
 20
873.49660872364166
 30
0.0
 42
0.4696216166052111
  0
SEQEND
  5
96CA
  8
1
  0
POLYLINE
  5
7DE3
  8
1
 66
     1
 10
0.0
 20
0.0
 30
0.0
  0
VERTEX
  5
96CB
  8
1
 10
526.57630957160598
 20
882.99660872364257
 30
0.0
  0
VERTEX
  5
96CC
  8
1
 10
538.84461985555163
 20
882.99660872364154
 30
0.0
  0
SEQEND
  5
96CD
  8
1
  0
LINE
  5
7E1B
  8
1
 10
1029.331760983252
 20
1982.93183331417
 30
0.0
 11
998.6394727866109
 21
1982.93183331417
 31
0.0
  0
LINE
  5
7E1C
  8
1
 10
1031.6394727866109
 20
1952.93183331417
 30
0.0
 11
991.63947278661169
 21
1952.93183331417
 31
0.0
  0
LINE
  5
7E21
  8
1
 10
531.6394727866118
 20
1952.93183331417
 30
0.0
 11
531.6394727866118
 21
2262.9318333141682
 31
0.0
  0
LINE
  5
7E2B
  8
1
 10
1031.6394727866109
 20
1952.93183331417
 30
0.0
 11
1031.63947278661
 21
2262.9318333141791
 31
0.0
  0
CIRCLE
  5
7E2C
  8
1
 10
1013.639472786611
 20
1982.93183331417
 30
0.0
 40
6.0
  0
LINE
  5
7E2D
  8
1
 10
1013.639472786611
 20
1999.066541196717
 30
0.0
 11
1013.639472786611
 21
1963.399461692276
 31
0.0
  0
LINE
  5
7E34
  8
1
 10
531.6394727866118
 20
2262.9318333141682
 30
0.0
 11
1031.63947278661
 21
2262.9318333141791
 31
0.0
  0
LINE
  5
7E35
  8
1
 10
571.63947278661169
 20
1952.93183331417
 30
0.0
 11
531.63947278661271
 21
1952.93183331417
 31
0.0
  0
LINE
  5
7E36
  8
1
 10
531.6394727866026
 20
856.79660872363775
 30
0.0
 11
531.63947278660169
 21
854.49660872363802
 31
0.0
  0
LINE
  5
7E37
  8
1
 10
531.6394727866026
 20
854.49660872363802
 30
0.0
 11
1031.6394727866
 21
854.49660872363802
 31
0.0
  0
LINE
  5
7E38
  8
1
 10
531.6394727866026
 20
856.79660872363797
 30
0.0
 11
576.63947278661453
 21
856.79660872363775
 31
0.0
  0
LINE
  5
7E49
  8
1
 10
543.6394727866018
 20
863.57040571931918
 30
0.0
 11
543.6394727866018
 21
806.19148710751915
 31
0.0
1001
ACAD
1000
ASC_BOUNDS
1002
{
1070
    19
1005
0
1005
0
1002
}
  0
LINE
  5
7E54
  8
1
 10
1019.6394727866
 20
863.57040571931918
 30
0.0
 11
1019.6394727866
 21
806.19148710751915
 31
0.0
1001
ACAD
1000
ASC_BOUNDS
1002
{
1070
    19
1005
0
1005
0
1002
}
  0
LINE
  5
7E5A
  8
1
 10
1031.6394727865991
 20
856.79660872363797
 30
0.0
 11
986.63947278658725
 21
856.79660872363775
 31
0.0
  0
LINE
  5
7E5B
  8
1
 10
1031.6394727865991
 20
856.79660872363775
 30
0.0
 11
1031.6394727866
 21
854.49660872363802
 31
0.0
  0
LINE
  5
7E71
  8
1
 10
1854.734098395842
 20
866.93020497195494
 30
0.0
 11
1854.7340983958411
 21
801.93020497195471
 31
0.0
1001
ACAD
1000
ASC_BOUNDS
1002
{
1070
    19
1002
}
  0
LINE
  5
7E72
  8
1
 10
1604.734098395842
 20
866.93020497195403
 30
0.0
 11
1604.7340983958411
 21
801.93020497195653
 31
0.0
1001
ACAD
1000
ASC_BOUNDS
1002
{
1070
    19
1002
}
  0
LINE
  5
7E73
  8
2
 10
781.63947278660726
 20
750.48396721936933
 30
0.0
 11
781.63947278660726
 21
1482.1512187548781
 31
0.0
  0
ARC
  5
7E76
  8
1
 10
781.63947278661453
 20
1209.496608723638
 30
0.0
 40
100.8
 50
180.0
 51
254.20289999999989
  0
ARC
  5
7E77
  8
1
 10
781.63947278661453
 20
1209.496608723638
 30
0.0
 40
100.8
 50
285.4276999999999
 51
180.0
  0
LINE
  5
7E79
  8
1
 10
754.02177278661475
 20
1112.496608723638
 30
0.0
 11
808.90887278661455
 21
1112.496608723638
 31
0.0
  0
LINE
  5
7E7A
  8
1
 10
879.63947278661453
 20
1121.4966087236371
 30
0.0
 11
843.63947278661453
 21
1121.4966087236371
 31
0.0
  0
LINE
  5
7E7B
  8
1
 10
881.63947278661442
 20
1109.496608723638
 30
0.0
 11
841.63947278661442
 21
1109.496608723638
 31
0.0
  0
LINE
  5
7E7C
  8
1
 10
880.7472727866143
 20
1121.1647087236379
 30
0.0
 11
864.34647278661487
 21
1151.8267087236379
 31
0.0
  0
ARC
  5
7E7D
  8
1
 10
879.63947278661453
 20
1119.496608723638
 30
0.0
 40
2.0
 50
0.000000000000007
 51
90.0
  0
LINE
  5
7E7E
  8
1
 10
881.63947278661442
 20
1109.496608723638
 30
0.0
 11
881.63947278661442
 21
1119.496608723638
 31
0.0
  0
LINE
  5
7E7F
  8
1
 10
867.63947278661465
 20
1121.4966087236371
 30
0.0
 11
867.63947278661465
 21
1109.496608723638
 31
0.0
  0
LINE
  5
7E80
  8
1
 10
855.63947278661453
 20
1109.496608723638
 30
0.0
 11
855.63947278661453
 21
1121.4966087236371
 31
0.0
  0
LINE
  5
7E81
  8
1
 10
861.63947278661453
 20
1122.8771087236371
 30
0.0
 11
861.63947278661453
 21
1105.530008723638
 31
0.0
  0
LINE
  5
7E82
  8
1
 10
841.84197278661475
 20
1128.6078087236381
 30
0.0
 11
848.07447278661493
 21
1122.375308723638
 31
0.0
  0
LINE
  5
7E83
  8
1
 10
835.08987278661425
 20
1124.046308723638
 30
0.0
 11
841.63947278661442
 21
1117.496608723638
 31
0.0
  0
ARC
  5
7E84
  8
1
 10
843.63947278661453
 20
1119.496608723638
 30
0.0
 40
2.0
 50
90.0
 51
180.0
  0
ARC
  5
7E85
  8
1
 10
850.19587278661493
 20
1124.496608723638
 30
0.0
 40
3.0
 50
225.0
 51
270.0
  0
LINE
  5
7E86
  8
1
 10
841.63947278661442
 20
1109.496608723638
 30
0.0
 11
841.63947278661442
 21
1119.496608723638
 31
0.0
  0
ARC
  5
7E87
  8
1
 10
683.63947278661453
 20
1119.496608723638
 30
0.0
 40
2.0
 50
90.0
 51
180.0
  0
LINE
  5
7E88
  8
1
 10
681.63947278661453
 20
1109.496608723638
 30
0.0
 11
721.63947278661453
 21
1109.496608723638
 31
0.0
  0
LINE
  5
7E89
  8
1
 10
727.89287278661413
 20
1123.750108723638
 30
0.0
 11
721.63947278661453
 21
1117.496608723638
 31
0.0
  0
LINE
  5
7E8A
  8
1
 10
682.73027278661436
 20
1121.536108723637
 30
0.0
 11
698.84897278661435
 21
1151.670408723638
 31
0.0
  0
LINE
  5
7E8B
  8
1
 10
721.05737278661479
 20
1128.2283087236381
 30
0.0
 11
715.20447278661413
 21
1122.375308723638
 31
0.0
  0
LINE
  5
7E8C
  8
1
 10
683.63947278661453
 20
1121.4966087236371
 30
0.0
 11
719.63947278661453
 21
1121.4966087236371
 31
0.0
  0
ARC
  5
7E8D
  8
1
 10
713.08307278661414
 20
1124.496608723638
 30
0.0
 40
3.0
 50
270.0
 51
315.0
  0
ARC
  5
7E8E
  8
1
 10
719.63947278661453
 20
1119.496608723638
 30
0.0
 40
2.0
 50
0.000000000000007
 51
90.0
  0
LINE
  5
7E8F
  8
1
 10
721.63947278661453
 20
1109.496608723638
 30
0.0
 11
721.63947278661453
 21
1119.496608723638
 31
0.0
  0
LINE
  5
7E90
  8
1
 10
707.63947278661453
 20
1109.496608723638
 30
0.0
 11
707.63947278661453
 21
1121.4966087236371
 31
0.0
  0
LINE
  5
7E91
  8
1
 10
695.63947278661453
 20
1121.4966087236371
 30
0.0
 11
695.63947278661453
 21
1109.496608723638
 31
0.0
  0
LINE
  5
7E92
  8
1
 10
701.63947278661453
 20
1122.8771087236371
 30
0.0
 11
701.63947278661453
 21
1105.530008723638
 31
0.0
  0
LINE
  5
7E93
  8
1
 10
681.63947278661453
 20
1109.496608723638
 30
0.0
 11
681.63947278661453
 21
1119.496608723638
 31
0.0
  0
LINE
  5
7E94
  8
2
 10
1086.582982634179
 20
1209.496608723638
 30
0.0
 11
492.33744728294909
 21
1209.496608723638
 31
0.0
  0
LINE
  5
7EB3
  8
1
 10
991.63947278661169
 20
1952.93183331417
 30
0.0
 11
991.6394727866109
 21
2262.9318333141791
 31
0.0
  0
LINE
  5
7EB4
  8
1
 10
571.63947278661169
 20
1952.93183331417
 30
0.0
 11
571.63947278661169
 21
2262.9318333141682
 31
0.0
  0
LINE
  5
7EB5
  8
1
 10
1029.331760983252
 20
2232.9318333141691
 30
0.0
 11
998.6394727866109
 21
2232.9318333141691
 31
0.0
  0
CIRCLE
  5
7EB6
  8
1
 10
1013.639472786611
 20
2232.9318333141691
 30
0.0
 40
6.0
  0
LINE
  5
7EB7
  8
1
 10
1013.639472786611
 20
2249.066541196717
 30
0.0
 11
1013.639472786611
 21
2213.399461692276
 31
0.0
  0
LINE
  5
7EB8
  8
1
 10
533.94718458997249
 20
1982.93183331417
 30
0.0
 11
564.63947278661362
 21
1982.93183331417
 31
0.0
  0
CIRCLE
  5
7EB9
  8
1
 10
549.6394727866118
 20
1982.93183331417
 30
0.0
 40
6.0
  0
LINE
  5
7EBA
  8
1
 10
549.6394727866126
 20
1999.066541196717
 30
0.0
 11
549.6394727866118
 21
1963.399461692276
 31
0.0
  0
CIRCLE
  5
7EBB
  8
1
 10
549.6394727866118
 20
2232.9318333141691
 30
0.0
 40
6.0
  0
LINE
  5
7EBC
  8
1
 10
533.94718458997249
 20
2232.9318333141691
 30
0.0
 11
564.63947278661362
 21
2232.9318333141691
 31
0.0
  0
LINE
  5
7EBD
  8
1
 10
549.6394727866126
 20
2249.066541196717
 30
0.0
 11
549.6394727866118
 21
2213.399461692276
 31
0.0
  0
LINE
  5
7EC4
  8
2
 10
1077.6118852300181
 20
2384.93183331417
 30
0.0
 11
503.98409590790828
 21
2384.93183331417
 31
0.0
1001
ACAD
1000
ASC_BOUNDS
1002
{
1070
    19
1005
0
1005
0
1002
}
  0
ARC
  5
7EC9
  8
1
 10
600.13947278660908
 20
2264.9318333141691
 30
0.0
 40
1.0
 50
180.0
 51
270.0
  0
LINE
  5
7ED1
  8
1
 10
698.08657278660939
 20
1947.6595127475889
 30
0.0
 11
865.22037278660912
 21
1947.6595127475889
 31
0.0
  0
LINE
  5
7ED3
  8
1
 10
881.63947278661271
 20
2120.6595127475889
 30
0.0
 11
881.63947278661271
 21
2045.3198127475889
 31
0.0
  0
LINE
  5
7ED5
  8
1
 10
882.4394727866129
 20
2037.6595127475889
 30
0.0
 11
680.83947278661253
 21
2037.6595127475889
 31
0.0
  0
LINE
  5
7ED6
  8
1
 10
685.63947278661271
 20
1997.6595127475889
 30
0.0
 11
880.9394727866129
 21
1997.6595127475889
 31
0.0
  0
LINE
  5
7ED7
  8
1
 10
698.08657278661303
 20
1947.6595127475889
 30
0.0
 11
865.22037278661264
 21
1947.6595127475889
 31
0.0
  0
LINE
  5
7ED8
  8
1
 10
882.4394727866129
 20
2037.6595127475889
 30
0.0
 11
882.4394727866129
 21
1999.1595127475889
 31
0.0
  0
LINE
  5
7ED9
  8
1
 10
878.63947278661271
 20
1997.6595127475889
 30
0.0
 11
866.97067278661325
 21
1949.039412747589
 31
0.0
  0
ARC
  5
7EDA
  8
1
 10
865.22047278661285
 20
1949.4594127475891
 30
0.0
 40
1.7999000000000001
 50
269.99810000000002
 51
346.50659999999999
  0
ARC
  5
7EDB
  8
1
 10
880.9394727866129
 20
1999.1595127475889
 30
0.0
 40
1.5
 50
270.0
 51
0.000000000000007
  0
LINE
  5
7EDC
  8
1
 10
868.08017278661282
 20
2037.49121274759
 30
0.0
 11
881.63947278661271
 21
2045.3198127475889
 31
0.0
  0
LINE
  5
7EDD
  8
1
 10
863.63947278661271
 20
2242.6595127475889
 30
0.0
 11
699.6394727866126
 21
2242.6595127475889
 31
0.0
  0
LINE
  5
7EDE
  8
1
 10
767.63947278661271
 20
2253.6595127475889
 30
0.0
 11
767.63947278661271
 21
2258.4870788265462
 31
0.0
  0
LINE
  5
7EDF
  8
1
 10
881.63947278661271
 20
2195.9992127475898
 30
0.0
 11
866.6394727866126
 21
2204.6595127475889
 31
0.0
  0
LINE
  5
7EE0
  8
1
 10
881.63947278661271
 20
2120.6595127475889
 30
0.0
 11
881.63947278661271
 21
2195.9992127475898
 31
0.0
  0
LINE
  5
7EE1
  8
1
 10
696.63947278661271
 20
2207.6595127475889
 30
0.0
 11
866.6394727866126
 21
2207.6595127475889
 31
0.0
  0
LINE
  5
7EE2
  8
1
 10
744.63947278661271
 20
2248.6595127475889
 30
0.0
 11
818.6394727866126
 21
2248.6595127475889
 31
0.0
  0
ARC
  5
7EE3
  8
1
 10
744.63947278661271
 20
2245.6595127475889
 30
0.0
 40
2.9998999999999989
 50
89.998800000000003
 51
180.0011999999999
  0
LINE
  5
7EE4
  8
1
 10
741.6394727866126
 20
2242.6595127475889
 30
0.0
 11
741.6394727866126
 21
2245.6595127475889
 31
0.0
  0
LINE
  5
7EE5
  8
1
 10
767.03957278661255
 20
2248.6595127475889
 30
0.0
 11
767.03957278661255
 21
2262.9318333141732
 31
0.0
  0
LINE
  5
7EE6
  8
1
 10
796.23947278661296
 20
2248.6595127475889
 30
0.0
 11
796.23947278661296
 21
2262.9318333141741
 31
0.0
  0
ARC
  5
7EE7
  8
1
 10
863.6395727866128
 20
2239.6595127475889
 30
0.0
 40
2.9998999999999989
 50
359.9987999999999
 51
90.001199999999912
  0
LINE
  5
7EE8
  8
1
 10
866.6394727866126
 20
2207.6595127475889
 30
0.0
 11
866.6394727866126
 21
2239.6595127475889
 31
0.0
  0
LINE
  5
7EE9
  8
1
 10
866.6394727866126
 20
2207.6595127475889
 30
0.0
 11
866.6394727866126
 21
2204.6595127475889
 31
0.0
  0
ARC
  5
7EEA
  8
1
 10
818.63957278661292
 20
2245.6595127475889
 30
0.0
 40
2.9998999999999989
 50
359.9987999999999
 51
90.001199999999912
  0
LINE
  5
7EEB
  8
1
 10
821.63947278661271
 20
2242.6595127475889
 30
0.0
 11
821.63947278661271
 21
2245.6595127475889
 31
0.0
  0
LINE
  5
7EEC
  8
1
 10
684.63947278661271
 20
1997.6595127475889
 30
0.0
 11
696.30827278661297
 21
1949.039412747589
 31
0.0
  0
LINE
  5
7EED
  8
1
 10
680.83947278661253
 20
2037.6595127475889
 30
0.0
 11
680.83947278661253
 21
1999.1595127475889
 31
0.0
  0
ARC
  5
7EEE
  8
1
 10
698.05847278661247
 20
1949.4594127475891
 30
0.0
 40
1.7999000000000001
 50
193.49340000000001
 51
270.00189999999992
  0
ARC
  5
7EEF
  8
1
 10
682.33947278661253
 20
1999.1595127475889
 30
0.0
 40
1.5
 50
180.0
 51
270.0
  0
LINE
  5
7EF0
  8
1
 10
695.19877278661261
 20
2037.49121274759
 30
0.0
 11
681.63947278661271
 21
2045.3198127475889
 31
0.0
  0
LINE
  5
7EF1
  8
1
 10
696.63947278661271
 20
2207.6595127475889
 30
0.0
 11
696.63947278661271
 21
2204.6595127475889
 31
0.0
  0
LINE
  5
7EF2
  8
1
 10
681.63947278661271
 20
2195.9992127475898
 30
0.0
 11
696.63947278661271
 21
2204.6595127475889
 31
0.0
  0
LINE
  5
7EF3
  8
1
 10
696.63947278661271
 20
2207.6595127475889
 30
0.0
 11
696.63947278661271
 21
2239.6595127475889
 31
0.0
  0
ARC
  5
7EF4
  8
1
 10
699.63937278661251
 20
2239.6595127475889
 30
0.0
 40
2.9998999999999989
 50
89.998800000000045
 51
180.00120000000001
  0
LINE
  5
7EF5
  8
1
 10
681.63947278661271
 20
2195.999212747588
 30
0.0
 11
681.63947278661271
 21
2045.3198127475889
 31
0.0
  0
LINE
  5
7EFA
  8
1
 10
578.13947278661351
 20
1952.9318333141689
 30
0.0
 11
578.13947278661271
 21
2262.9318333141691
 31
0.0
  0
LINE
  5
7EFB
  8
1
 10
985.13947278661271
 20
1952.931833314178
 30
0.0
 11
985.13947278661362
 21
2262.9318333141791
 31
0.0
  0
POLYLINE
  5
7EFC
  8
1
 66
     1
 10
0.0
 20
0.0
 30
0.0
  0
VERTEX
  5
96CE
  8
1
 10
985.13947278661362
 20
2001.3318333141699
 30
0.0
  0
VERTEX
  5
96CF
  8
1
 10
882.4394727866129
 20
2001.331833314169
 30
0.0
  0
SEQEND
  5
96D0
  8
1
  0
POLYLINE
  5
7F00
  8
1
 66
     1
 10
0.0
 20
0.0
 30
0.0
  0
VERTEX
  5
96D1
  8
1
 10
680.83947278661344
 20
2001.3318333141681
 30
0.0
  0
VERTEX
  5
96D2
  8
1
 10
578.13947278661351
 20
2001.3318333141681
 30
0.0
  0
SEQEND
  5
96D3
  8
1
  0
LINE
  5
7F04
  8
1
 10
985.13947278661271
 20
1952.931833314178
 30
0.0
 11
867.90485180120595
 21
1952.9318333141759
 31
0.0
  0
LINE
  5
7F05
  8
1
 10
695.3740937720213
 20
1952.9318333141721
 30
0.0
 11
578.13947278661453
 21
1952.9318333141689
 31
0.0
  0
POLYLINE
  5
7F06
  8
1
 66
     1
 10
0.0
 20
0.0
 30
0.0
  0
VERTEX
  5
96D4
  8
1
 10
985.13947278661271
 20
2214.3318333141701
 30
0.0
  0
VERTEX
  5
96D5
  8
1
 10
866.6394727866126
 20
2214.3318333141692
 30
0.0
  0
SEQEND
  5
96D6
  8
1
  0
POLYLINE
  5
7F0A
  8
1
 66
     1
 10
0.0
 20
0.0
 30
0.0
  0
VERTEX
  5
96D7
  8
1
 10
696.63947278661271
 20
2214.3318333141679
 30
0.0
  0
VERTEX
  5
96D8
  8
1
 10
578.13947278661271
 20
2214.3318333141679
 30
0.0
  0
SEQEND
  5
96D9
  8
1
  0
LINE
  5
7F1A
  8
4
 10
2220.0
 20
470.32424588669068
 30
0.0
 11
2220.0
 21
230.3242458866907
 31
0.0
  0
LINE
  5
7F1B
  8
4
 10
1380.0
 20
470.32424588669068
 30
0.0
 11
1380.0
 21
230.3242458866907
 31
0.0
  0
LINE
  5
7F1C
  8
4
 10
780.0
 20
470.32424588669068
 30
0.0
 11
780.0
 21
230.3242458866907
 31
0.0
  0
LINE
  5
7F1F
  8
4
 10
780.0
 20
230.3242458866907
 30
0.0
 11
2220.0
 21
230.3242458866907
 31
0.0
  0
LINE
  5
7F20
  8
4
 10
780.0
 20
350.32424588669068
 30
0.0
 11
2220.0
 21
350.32424588669068
 31
0.0
  0
TEXT
  5
7F21
  8
4
 10
826.20249701628188
 20
388.17587692662607
 30
0.0
 40
60.0
  1
機器名称
  0
TEXT
  5
7F22
  8
4
 10
823.509727229757
 20
256.29843396510381
 30
0.0
 40
60.0
  1
機器型番
  0
TEXT
  5
7F23
  8
4
 10
1413.2144945851969
 20
377.4103686357729
 30
0.0
 40
60.0
  1
ミツヤ多翼送風機
  0
TEXT
  5
7F24
  8
4
 10
1423.9853947025761
 20
250.9157470226227
 30
0.0
 40
60.0
  1
MF#2-7
  0
TEXT
  5
7F26
  8
4
 10
973.1750838961724
 20
2860.1146095990189
 30
0.0
 40
64.799999999999997
  1
天枠防振ベット
  0
TEXT
  5
7F27
  8
4
 10
379.40111199533561
 20
3040.6571714391571
 30
0.0
 40
86.400000000000006
  1
遠心式片吸込直動形多翼ファン
  0
LINE
  5
7F28
  8
4
 10
300.0
 20
2963.2905051177659
 30
0.0
 11
2220.0
 21
2963.2905051177659
 31
0.0
  0
LINE
  5
7F29
  8
4
 10
300.0
 20
3203.290505117765
 30
0.0
 11
2220.0
 21
3203.290505117765
 31
0.0
  0
LINE
  5
7F2A
  8
4
 10
780.0
 20
470.32424588669068
 30
0.0
 11
2220.0
 21
470.32424588669068
 31
0.0
  0
LINE
  5
7F2B
  8
4
 10
300.0
 20
3203.290505117765
 30
0.0
 11
300.0
 21
2963.2905051177659
 31
0.0
  0
TEXT
  5
7F2C
  8
4
 10
450.14448520492982
 20
2858.7833730556122
 30
0.0
 40
64.799999999999997
  1
右回転左横向
  0
TEXT
  5
7F2D
  8
4
 10
1762.763471099147
 20
3247.2732977943701
 30
0.0
 40
67.200000000000003
  1
No.
  0
TEXT
  5
7F2E
  8
4
 10
1573.555275120015
 20
2860.1146095990189
 30
0.0
 40
64.799999999999997
  1
縮尺：1/12
  0
LINE
  5
7F2F
  8
4
 10
2220.0
 20
3203.290505117765
 30
0.0
 11
2220.0
 21
2963.2905051177659
 31
0.0
  0
LINE
  5
7F30
  8
4
 10
2520.0
 20
3540.0
 30
0.0
 11
2520.0
 21
3540.0
 31
0.0
  0
LINE
  5
7F31
  8
4
 10
1728.740906831837
 20
3217.5162997504808
 30
0.0
 11
1728.740906831837
 21
3343.9827138597029
 31
0.0
  0
LINE
  5
7F32
  8
4
 10
1728.740906831837
 20
3343.9827138597029
 30
0.0
 11
2220.0
 21
3343.9827138597029
 31
0.0
  0
LINE
  5
7F33
  8
4
 10
2220.0
 20
3343.9827138597029
 30
0.0
 11
2220.0
 21
3217.5162997504808
 31
0.0
  0
LINE
  5
7F34
  8
4
 10
2220.0
 20
3217.5162997504808
 30
0.0
 11
1728.740906831837
 21
3217.5162997504808
 31
0.0
  0
LINE
  5
7F35
  8
4
 10
0.0
 20
0.0
 30
0.0
 11
0.0
 21
3540.0
 31
0.0
  0
LINE
  5
7F36
  8
4
 10
0.0
 20
3540.0
 30
0.0
 11
2520.0
 21
3540.0
 31
0.0
  0
LINE
  5
7F37
  8
4
 10
2520.0
 20
3540.0
 30
0.0
 11
2520.0
 21
0.0
 31
0.0
  0
LINE
  5
7F38
  8
4
 10
2520.0
 20
0.0
 30
0.0
 11
0.0
 21
0.0
 31
0.0
  0
DIMENSION
  5
7F5F
  8
3
  2
*D1
 10
455.00049882924958
 20
1209.4966087236451
 30
0.0
 11
455.00049882924941
 21
1031.738050823127
 31
0.0
 70
   128
 13
531.63947278660362
 23
894.49660872364154
 33
0.0
 14
531.63947278661306
 24
1209.4966087236451
 34
0.0
 50
270.0
1001
ACAD
1000
DSTYLE
1002
{
1070
   287
1070
     3
1070
   287
1070
     3
1070
   287
1070
     3
1070
    40
1040
12.0
1070
   143
1040
0.039
1070
   172
1070
     1
1070
   271
1070
     0
1070
   279
1070
     0
1070
   288
1070
     1
1002
}
  0
DIMENSION
  5
7F99
  8
3
  2
*D2
 10
297.69895071735112
 20
854.49660872363802
 30
0.0
 11
267.69895071735101
 21
1031.996608723638
 31
0.0
 70
     0
 13
492.33744728294909
 23
1209.496608723638
 33
0.0
 14
531.63947278660169
 24
854.49660872363802
 34
0.0
 50
90.0
1001
ACAD
1000
DSTYLE
1002
{
1070
   287
1070
     3
1070
   287
1070
     3
1070
   287
1070
     3
1070
    40
1040
12.0
1070
   143
1040
0.039
1070
   172
1070
     1
1070
   271
1070
     0
1070
   279
1070
     0
1070
   288
1070
     1
1002
}
  0
DIMENSION
  5
80AE
  8
3
  2
*D7
 10
2006.7340983958411
 20
641.39135527510189
 30
0.0
 11
1749.128546910147
 21
673.55878483192373
 31
0.0
 70
   128
 13
1471.7340983958411
 23
792.49660872363825
 33
0.0
 14
2006.7340983958411
 24
771.59294425452845
 34
0.0
1001
ACAD
1000
DSTYLE
1002
{
1070
   288
1070
     1
1070
   172
1070
     1
1070
    40
1040
12.0
1070
   271
1070
     0
1070
   143
1040
0.039
1002
}
  0
POLYLINE
  5
81C0
  8
1
 66
     1
 10
0.0
 20
0.0
 30
0.0
  0
VERTEX
  5
96EF
  8
1
 10
1055.8370376259249
 20
1209.496608723638
 30
0.0
 42
0.4177915703117811
  0
VERTEX
  5
96F0
  8
1
 10
781.63947278660726
 20
1441.1925406450171
 30
0.0
 42
0.3171102270576576
  0
SEQEND
  5
96F1
  8
1
  0
POLYLINE
  5
81C4
  8
1
 66
     1
 10
0.0
 20
0.0
 30
0.0
  0
VERTEX
  5
96F2
  8
1
 10
781.63947278660726
 20
1440.663867703104
 30
0.0
 42
0.3375865070965118
  0
VERTEX
  5
96F3
  8
1
 10
588.43900885187895
 20
1267.7379311888999
 30
0.0
 42
0.3154517505481823
  0
SEQEND
  5
96F4
  8
1
  0
DIMENSION
  5
81D4
  8
3
  2
*D9
 10
781.63947278660726
 20
1547.453688071098
 30
0.0
 11
643.42836061531125
 21
1547.453688071098
 31
0.0
 70
   128
 13
531.63947278660316
 23
1233.64019314501
 33
0.0
 14
781.63947278660726
 24
1482.1512187548781
 34
0.0
 50
180.0
1001
ACAD
1000
DSTYLE
1002
{
1070
   287
1070
     3
1070
   287
1070
     3
1070
   287
1070
     3
1070
    40
1040
12.0
1070
   143
1040
0.039
1070
   172
1070
     1
1070
   271
1070
     0
1070
   279
1070
     0
1070
   288
1070
     1
1002
}
  0
DIMENSION
  5
81E0
  8
3
  2
*D10
 10
1045.6394727866109
 20
1547.453688071098
 30
0.0
 11
913.63947278660953
 21
1577.453688071098
 31
0.0
 70
     0
 13
781.63947278660726
 23
1482.1512187548781
 33
0.0
 14
1045.6394727866109
 24
1234.9966087236389
 34
0.0
 50
180.0
1001
ACAD
1000
DSTYLE
1002
{
1070
   287
1070
     4
1070
   287
1070
     4
1070
   287
1070
     4
1070
    40
1040
12.0
1070
    75
1070
     1
1070
   143
1040
0.039
1070
   172
1070
     1
1070
   271
1070
     0
1070
   279
1070
     1
1070
   288
1070
     1
1002
}
  0
LINE
  5
81EE
  8
1
 10
531.63947278660805
 20
2517.9318333141682
 30
0.0
 11
531.63947278660771
 21
2251.93183331417
 31
0.0
  0
LINE
  5
81EF
  8
1
 10
551.63947278660771
 20
2479.1318333141699
 30
0.0
 11
551.63947278660771
 21
2290.7318333141702
 31
0.0
  0
LINE
  5
81F0
  8
1
 10
532.83947278660753
 20
2517.93183331417
 30
0.0
 11
532.83947278660753
 21
2251.9318333141691
 31
0.0
  0
LINE
  5
81F1
  8
1
 10
1045.63947278661
 20
2482.93183331417
 30
0.0
 11
1045.63947278661
 21
2286.93183331417
 31
0.0
  0
LINE
  5
81F2
  8
2
 10
781.6394727866109
 20
1853.7518066389041
 30
0.0
 11
781.6394727866109
 21
2525.9331857601351
 31
0.0
  0
LINE
  5
81F3
  8
1
 10
781.6394727866109
 20
2497.9318333141682
 30
0.0
 11
1030.6394727866109
 21
2497.93183331417
 31
0.0
  0
ARC
  5
81FD
  8
1
 10
1030.6394727866109
 20
2482.93183331417
 30
0.0
 40
15.0
 50
0.000000000000007
 51
90.0
  0
ARC
  5
81FE
  8
1
 10
963.13947278661135
 20
2504.93183331417
 30
0.0
 40
1.0
 50
0.000000000000007
 51
90.000000000000057
  0
LINE
  5
81FF
  8
1
 10
964.13947278661135
 20
2497.9318333141691
 30
0.0
 11
964.13947278661135
 21
2504.93183331417
 31
0.0
  0
LINE
  5
8203
  8
1
 10
531.63947278660771
 20
2497.9318333141691
 30
0.0
 11
781.6394727866109
 21
2497.9318333141691
 31
0.0
  0
POLYLINE
  5
8204
  8
1
 66
     1
 10
0.0
 20
0.0
 30
0.0
  0
VERTEX
  5
9706
  8
1
 10
600.13947278661135
 20
2505.93183331417
 30
0.0
  0
VERTEX
  5
9707
  8
1
 10
781.63947278661135
 20
2505.9318333141709
 30
0.0
  0
VERTEX
  5
9708
  8
1
 10
963.13947278661135
 20
2505.9318333141709
 30
0.0
  0
SEQEND
  5
9709
  8
1
  0
LINE
  5
8209
  8
1
 10
532.83947278660753
 20
2497.9318333141691
 30
0.0
 11
551.63947278660771
 21
2479.1318333141699
 31
0.0
  0
LINE
  5
820A
  8
1
 10
531.63947278660805
 20
2517.9318333141691
 30
0.0
 11
532.83947278660753
 21
2517.9318333141691
 31
0.0
1001
ACAD
1000
ASC_BOUNDS
1002
{
1070
    19
1002
}
  0
LINE
  5
820B
  8
1
 10
599.1394727866118
 20
2498.9318333141682
 30
0.0
 11
599.13947278661135
 21
2504.93183331417
 31
0.0
  0
ARC
  5
820C
  8
1
 10
598.1394727866118
 20
2498.9318333141682
 30
0.0
 40
1.0
 50
270.0
 51
0.000000000000007
  0
ARC
  5
820D
  8
1
 10
600.13947278661135
 20
2504.93183331417
 30
0.0
 40
1.0
 50
89.999999999999943
 51
180.0
  0
LINE
  5
820F
  8
1
 10
781.63947278661055
 20
2271.9318333141732
 30
0.0
 11
1030.63947278661
 21
2271.9318333141691
 31
0.0
  0
POLYLINE
  5
8210
  8
1
 66
     1
 10
0.0
 20
0.0
 30
0.0
  0
VERTEX
  5
970A
  8
1
 10
801.96977556643469
 20
2263.9318333141691
 30
0.0
  0
VERTEX
  5
970B
  8
1
 10
963.13947278660999
 20
2263.93183331417
 30
0.0
  0
SEQEND
  5
970C
  8
1
  0
LINE
  5
8214
  8
1
 10
962.13947278660999
 20
2264.9318333141682
 30
0.0
 11
934.43877112717746
 21
2264.9318333141691
 31
0.0
  0
LINE
  5
8215
  8
1
 10
963.13947278661169
 20
2271.9318333141682
 30
0.0
 11
963.13947278660999
 21
2265.9318333141682
 31
0.0
  0
LINE
  5
8216
  8
1
 10
964.13947278660987
 20
2270.93183331417
 30
0.0
 11
964.13947278660987
 21
2264.9318333141682
 31
0.0
  0
ARC
  5
8217
  8
1
 10
1030.63947278661
 20
2286.93183331417
 30
0.0
 40
15.0
 50
270.0
 51
0.000000000000007
  0
ARC
  5
8218
  8
1
 10
965.13947278660987
 20
2270.93183331417
 30
0.0
 40
1.0
 50
90.0
 51
180.0
  0
ARC
  5
8219
  8
1
 10
962.13947278660999
 20
2265.93183331417
 30
0.0
 40
1.0
 50
269.9999999999992
 51
0.000000000000007
  0
ARC
  5
821A
  8
1
 10
963.13947278660999
 20
2264.9318333141691
 30
0.0
 40
1.0
 50
269.99999999999977
 51
0.000000000000007
  0
ARC
  5
821B
  8
1
 10
961.29405297460153
 20
2305.5056864660678
 30
0.0
 40
48.656384192584412
 50
223.63165127683749
 51
236.49996633473509
  0
ARC
  5
821C
  8
1
 10
601.13947278661078
 20
2265.93183331417
 30
0.0
 40
1.0
 50
180.0
 51
270.00000000000068
  0
LINE
  5
821D
  8
1
 10
531.63947278660805
 20
2271.9318333141691
 30
0.0
 11
781.63947278661055
 21
2271.9318333141691
 31
0.0
  0
POLYLINE
  5
821E
  8
1
 66
     1
 10
0.0
 20
0.0
 30
0.0
  0
VERTEX
  5
970D
  8
1
 10
600.1394727866109
 20
2263.93183331417
 30
0.0
  0
VERTEX
  5
970E
  8
1
 10
781.6394727866109
 20
2263.9318333141691
 30
0.0
  0
VERTEX
  5
970F
  8
1
 10
801.96977556643469
 20
2263.9318333141691
 30
0.0
  0
SEQEND
  5
9710
  8
1
  0
ARC
  5
8223
  8
1
 10
601.98489259862072
 20
2305.5056864660678
 30
0.0
 40
48.656384192584412
 50
303.50003366526488
 51
316.3683487231628
  0
LINE
  5
8224
  8
1
 10
601.13947278661078
 20
2264.9318333141691
 30
0.0
 11
628.84017444604524
 21
2264.9318333141691
 31
0.0
  0
LINE
  5
8225
  8
1
 10
599.1394727866118
 20
2270.93183331417
 30
0.0
 11
599.1394727866109
 21
2264.9318333141691
 31
0.0
  0
LINE
  5
8226
  8
1
 10
600.1394727866109
 20
2271.93183331417
 30
0.0
 11
600.1394727866109
 21
2265.93183331417
 31
0.0
  0
LINE
  5
8227
  8
1
 10
532.83947278660753
 20
2271.9318333141691
 30
0.0
 11
551.63947278660817
 21
2290.7318333141702
 31
0.0
  0
ARC
  5
8228
  8
1
 10
598.1394727866118
 20
2270.93183331417
 30
0.0
 40
1.0
 50
0.000000000000007
 51
90.0
  0
LINE
  5
8229
  8
1
 10
531.63947278660805
 20
2251.93183331417
 30
0.0
 11
532.83947278660753
 21
2251.93183331417
 31
0.0
1001
ACAD
1000
ASC_BOUNDS
1002
{
1070
    19
1002
}
  0
ARC
  5
822A
  8
1
 10
600.1394727866109
 20
2264.9318333141691
 30
0.0
 40
1.0
 50
180.0
 51
270.0
  0
DIMENSION
  5
847B
  8
3
  2
*D11
 10
297.69895071735112
 20
1431.7838288401099
 30
0.0
 11
267.69895071735078
 21
1320.640218781874
 31
0.0
 70
     0
 13
492.33744728294909
 23
1209.496608723638
 33
0.0
 14
804.49317665141552
 24
1431.7838288401099
 34
0.0
 50
270.0
1001
ACAD
1000
DSTYLE
1002
{
1070
   287
1070
     4
1070
   287
1070
     4
1070
   287
1070
     4
1070
    40
1040
12.0
1070
    75
1070
     1
1070
   143
1040
0.039
1070
   172
1070
     1
1070
   271
1070
     0
1070
   279
1070
     1
1070
   288
1070
     1
1002
}
  0
LINE
  5
84D5
  8
1
 10
984.33947278661526
 20
912.69660872363806
 30
0.0
 11
946.63947278661544
 21
912.69660872363806
 31
0.0
  0
LINE
  5
84D6
  8
1
 10
616.63947278661453
 20
912.69660872363806
 30
0.0
 11
578.93947278661562
 21
912.69660872363806
 31
0.0
  0
POLYLINE
  5
84D7
  8
1
 66
     1
 10
0.0
 20
0.0
 30
0.0
  0
VERTEX
  5
9719
  8
1
 10
551.63947278660225
 20
883.49660872364245
 30
0.0
  0
VERTEX
  5
971A
  8
1
 10
578.93947278661835
 20
883.49660872364154
 30
0.0
 42
0.4399944676847409
  0
SEQEND
  5
971B
  8
1
  0
POLYLINE
  5
84DB
  8
1
 66
     1
 10
0.0
 20
0.0
 30
0.0
  0
VERTEX
  5
971C
  8
1
 10
984.33947278661788
 20
989.08958241218943
 30
0.0
 42
0.2007132752807959
  0
VERTEX
  5
971D
  8
1
 10
1054.555571218209
 20
1209.496608723638
 30
0.0
 42
0.1409112112925606
  0
SEQEND
  5
971E
  8
1
  0
LINE
  5
8612
  8
1
 10
461.63947278661448
 20
832.49660872363791
 30
0.0
 11
1101.6394727866141
 21
832.49660872363791
 31
0.0
  0
LINE
  5
8619
  8
1
 10
381.63947278661448
 20
792.49660872363802
 30
0.0
 11
381.63947278661448
 21
1692.496608723638
 31
0.0
  0
LINE
  5
861A
  8
1
 10
1181.6394727866141
 20
792.49660872363779
 30
0.0
 11
1181.6394727866141
 21
1692.496608723638
 31
0.0
  0
LINE
  5
861B
  8
1
 10
381.63947278661448
 20
792.49660872363802
 30
0.0
 11
1181.6394727866141
 21
792.49660872363802
 31
0.0
  0
LINE
  5
861C
  8
1
 10
1141.6394727866141
 20
872.49660872363756
 30
0.0
 11
1141.6394727866141
 21
1612.496608723638
 31
0.0
  0
LINE
  5
861D
  8
1
 10
421.63947278661448
 20
872.49660872363802
 30
0.0
 11
421.63947278661448
 21
1612.496608723638
 31
0.0
  0
LINE
  5
861E
  8
1
 10
381.63947278661448
 20
1692.496608723638
 30
0.0
 11
1181.6394727866141
 21
1692.496608723638
 31
0.0
  0
LINE
  5
861F
  8
1
 10
461.63947278661499
 20
1652.4966087236371
 30
0.0
 11
1101.639472786615
 21
1652.4966087236371
 31
0.0
  0
LINE
  5
8620
  8
1
 10
381.63947278661448
 20
872.49660872363802
 30
0.0
 11
421.63947278661448
 21
872.49660872363802
 31
0.0
  0
LINE
  5
8621
  8
1
 10
461.63947278661448
 20
792.49660872363802
 30
0.0
 11
461.63947278661448
 21
832.49660872363791
 31
0.0
  0
LINE
  5
8622
  8
1
 10
421.63947278661448
 20
872.49660872363802
 30
0.0
 11
461.63947278661448
 21
832.49660872363791
 31
0.0
  0
LINE
  5
8623
  8
1
 10
461.63947278661448
 20
1692.496608723638
 30
0.0
 11
461.63947278661448
 21
1652.4966087236371
 31
0.0
  0
LINE
  5
8624
  8
1
 10
421.63947278661448
 20
1612.496608723638
 30
0.0
 11
461.63947278661448
 21
1652.4966087236371
 31
0.0
  0
LINE
  5
8625
  8
1
 10
381.63947278661448
 20
1612.496608723638
 30
0.0
 11
421.63947278661448
 21
1612.496608723638
 31
0.0
  0
LINE
  5
8626
  8
1
 10
1141.6394727866141
 20
872.49660872363802
 30
0.0
 11
1101.6394727866141
 21
832.49660872363791
 31
0.0
  0
LINE
  5
8627
  8
1
 10
1101.6394727866141
 20
792.49660872363802
 30
0.0
 11
1101.639472786615
 21
832.49660872363791
 31
0.0
  0
LINE
  5
8628
  8
1
 10
1181.6394727866141
 20
872.49660872363802
 30
0.0
 11
1141.6394727866141
 21
872.49660872363802
 31
0.0
  0
LINE
  5
8629
  8
1
 10
1101.6394727866141
 20
1692.496608723638
 30
0.0
 11
1101.639472786615
 21
1652.4966087236371
 31
0.0
  0
LINE
  5
862A
  8
1
 10
1141.6394727866141
 20
1612.496608723638
 30
0.0
 11
1101.6394727866141
 21
1652.4966087236371
 31
0.0
  0
LINE
  5
862B
  8
1
 10
1181.6394727866141
 20
1612.496608723638
 30
0.0
 11
1141.6394727866141
 21
1612.496608723638
 31
0.0
  0
LINE
  5
862C
  8
1
 10
2271.734098395842
 20
1692.496608723638
 30
0.0
 11
2271.7340983958402
 21
792.49660872363779
 31
0.0
1001
ACAD
1000
ASC_BOUNDS
1002
{
1070
    19
1002
}
  0
LINE
  5
862D
  8
1
 10
1471.7340983958411
 20
1692.496608723638
 30
0.0
 11
1471.7340983958411
 21
792.49660872363802
 31
0.0
1001
ACAD
1000
ASC_BOUNDS
1002
{
1070
    19
1002
}
  0
LINE
  5
862E
  8
1
 10
1511.7340983958411
 20
1612.496608723636
 30
0.0
 11
1511.7340983958411
 21
872.4966087236387
 31
0.0
1001
ACAD
1000
ASC_BOUNDS
1002
{
1070
    19
1002
}
  0
LINE
  5
862F
  8
1
 10
2231.734098395842
 20
1612.496608723636
 30
0.0
 11
2231.7340983958402
 21
872.49660872363802
 31
0.0
1001
ACAD
1000
ASC_BOUNDS
1002
{
1070
    19
1002
}
  0
LINE
  5
8630
  8
1
 10
2271.734098395842
 20
1692.496608723638
 30
0.0
 11
1471.7340983958411
 21
1692.4966087236371
 31
0.0
  0
LINE
  5
8631
  8
1
 10
2191.7340983958402
 20
1652.4966087236371
 30
0.0
 11
1551.734098395842
 21
1652.4966087236371
 31
0.0
  0
LINE
  5
8632
  8
1
 10
2271.7340983958411
 20
792.49660872363802
 30
0.0
 11
1471.7340983958411
 21
792.49660872363825
 31
0.0
  0
LINE
  5
8633
  8
1
 10
2191.7340983958402
 20
832.49660872363813
 30
0.0
 11
1551.734098395842
 21
832.49660872363813
 31
0.0
  0
LINE
  5
8634
  8
1
 10
2271.7340983958411
 20
872.49660872363802
 30
0.0
 11
2231.7340983958402
 21
872.49660872363813
 31
0.0
  0
LINE
  5
8635
  8
1
 10
2191.7340983958402
 20
832.49660872363791
 30
0.0
 11
2191.7340983958402
 21
792.49660872363802
 31
0.0
1001
ACAD
1000
ASC_BOUNDS
1002
{
1070
    19
1002
}
  0
LINE
  5
8636
  8
1
 10
2231.7340983958402
 20
872.49660872363802
 30
0.0
 11
2191.7340983958402
 21
832.49660872363791
 31
0.0
  0
LINE
  5
8637
  8
1
 10
2271.7340983958411
 20
1612.496608723638
 30
0.0
 11
2231.7340983958402
 21
1612.496608723638
 31
0.0
  0
LINE
  5
8638
  8
1
 10
2191.7340983958402
 20
1652.4966087236371
 30
0.0
 11
2191.7340983958402
 21
1692.496608723638
 31
0.0
1001
ACAD
1000
ASC_BOUNDS
1002
{
1070
    19
1002
}
  0
LINE
  5
8639
  8
1
 10
2231.7340983958402
 20
1612.496608723638
 30
0.0
 11
2191.7340983958402
 21
1652.4966087236371
 31
0.0
  0
LINE
  5
863A
  8
1
 10
1471.734098395842
 20
872.49660872363802
 30
0.0
 11
1511.734098395842
 21
872.49660872363813
 31
0.0
  0
LINE
  5
863B
  8
1
 10
1551.734098395842
 20
832.49660872363791
 30
0.0
 11
1551.734098395842
 21
792.49660872363802
 31
0.0
1001
ACAD
1000
ASC_BOUNDS
1002
{
1070
    19
1002
}
  0
LINE
  5
863C
  8
1
 10
1511.734098395842
 20
872.49660872363802
 30
0.0
 11
1551.734098395842
 21
832.49660872363791
 31
0.0
  0
LINE
  5
863D
  8
1
 10
1551.734098395842
 20
1652.4966087236371
 30
0.0
 11
1551.734098395842
 21
1692.496608723638
 31
0.0
1001
ACAD
1000
ASC_BOUNDS
1002
{
1070
    19
1002
}
  0
LINE
  5
863E
  8
1
 10
1471.734098395842
 20
1612.496608723638
 30
0.0
 11
1511.734098395842
 21
1612.496608723638
 31
0.0
  0
LINE
  5
863F
  8
1
 10
1511.734098395842
 20
1612.496608723638
 30
0.0
 11
1551.734098395842
 21
1652.4966087236371
 31
0.0
  0
LINE
  5
8640
  8
1
 10
381.6394727866109
 20
1849.93183331417
 30
0.0
 11
381.6394727866109
 21
2649.93183331417
 31
0.0
  0
LINE
  5
8641
  8
1
 10
1181.6394727866109
 20
1849.93183331417
 30
0.0
 11
1181.6394727866109
 21
2649.93183331417
 31
0.0
  0
LINE
  5
8642
  8
1
 10
1181.6394727866109
 20
1849.93183331417
 30
0.0
 11
381.6394727866109
 21
1849.93183331417
 31
0.0
1001
ACAD
1000
ASC_BOUNDS
1002
{
1070
    19
1002
}
  0
LINE
  5
8643
  8
1
 10
1181.6394727866109
 20
2649.93183331417
 30
0.0
 11
381.6394727866109
 21
2649.93183331417
 31
0.0
1001
ACAD
1000
ASC_BOUNDS
1002
{
1070
    19
1002
}
  0
LINE
  5
8644
  8
1
 10
1141.6394727866109
 20
1889.93183331417
 30
0.0
 11
1141.6394727866109
 21
2609.93183331417
 31
0.0
  0
LINE
  5
8645
  8
1
 10
1141.6394727866109
 20
2609.93183331417
 30
0.0
 11
421.63947278661078
 21
2609.93183331417
 31
0.0
1001
ACAD
1000
ASC_BOUNDS
1002
{
1070
    19
1002
}
  0
LINE
  5
8646
  8
1
 10
421.63947278661078
 20
1889.93183331417
 30
0.0
 11
421.63947278661078
 21
2609.93183331417
 31
0.0
  0
LINE
  5
8647
  8
1
 10
1141.6394727866109
 20
1889.93183331417
 30
0.0
 11
421.63947278661078
 21
1889.93183331417
 31
0.0
1001
ACAD
1000
ASC_BOUNDS
1002
{
1070
    19
1002
}
  0
DIMENSION
  5
8669
  8
3
  2
*D12
 10
2271.7340983958402
 20
641.39135527510189
 30
0.0
 11
2139.2340983958402
 21
671.39135527510177
 31
0.0
 70
     0
 13
2006.7340983958411
 23
771.59294425452845
 33
0.0
 14
2271.7340983958402
 24
792.49660872363802
 34
0.0
1001
ACAD
1000
DSTYLE
1002
{
1070
   287
1070
     4
1070
   287
1070
     4
1070
   287
1070
     4
1070
    40
1040
12.0
1070
    75
1070
     1
1070
   143
1040
0.039
1070
   172
1070
     1
1070
   271
1070
     0
1070
   279
1070
     1
1070
   288
1070
     1
1002
}
  0
DIMENSION
  5
8696
  8
3
  2
*D13
 10
781.63947278660726
 20
696.99434268473669
 30
0.0
 11
986.76770061522802
 21
696.99434268473669
 31
0.0
 70
   128
 13
1181.6394727866141
 23
792.49660872363802
 33
0.0
 14
781.63947278660726
 24
750.48396721936933
 34
0.0
 50
180.0
1001
ACAD
1000
DSTYLE
1002
{
1070
   287
1070
     3
1070
   287
1070
     3
1070
   287
1070
     3
1070
    40
1040
12.0
1070
   143
1040
0.039
1070
   172
1070
     1
1070
   271
1070
     0
1070
   279
1070
     0
1070
   288
1070
     1
1002
}
  0
DIMENSION
  5
86A2
  8
3
  2
*D14
 10
381.63947278661448
 20
696.99434268473669
 30
0.0
 11
581.6394727866109
 21
726.99434268473658
 31
0.0
 70
     0
 13
781.63947278660726
 23
750.48396721936933
 33
0.0
 14
381.63947278661448
 24
792.49660872363802
 34
0.0
 50
180.0
1001
ACAD
1000
DSTYLE
1002
{
1070
   287
1070
     4
1070
   287
1070
     4
1070
   287
1070
     4
1070
    40
1040
12.0
1070
    75
1070
     1
1070
   143
1040
0.039
1070
   172
1070
     1
1070
   271
1070
     0
1070
   279
1070
     1
1070
   288
1070
     1
1002
}
  0
DIMENSION
  5
86AF
  8
3
  2
*D15
 10
1398.0251367118069
 20
792.49660872363825
 30
0.0
 11
1398.0251367118069
 21
1161.4201146610239
 31
0.0
 70
   128
 13
1471.7340983958411
 23
1692.496608723638
 33
0.0
 14
1471.7340983958411
 24
792.49660872363825
 34
0.0
 50
90.0
1001
ACAD
1000
DSTYLE
1002
{
1070
   287
1070
     3
1070
   287
1070
     3
1070
   287
1070
     3
1070
    40
1040
12.0
1070
   143
1040
0.039
1070
   172
1070
     1
1070
   271
1070
     0
1070
   279
1070
     0
1070
   288
1070
     1
1002
}
  0
DIMENSION
  5
86BC
  8
3
  2
*D16
 10
381.6394727866109
 20
2736.6568035973801
 30
0.0
 11
770.13922767677457
 21
2736.6568035973801
 31
0.0
 70
   128
 13
1181.6394727866109
 23
2649.93183331417
 33
0.0
 14
381.6394727866109
 24
2649.93183331417
 34
0.0
 50
180.0
1001
ACAD
1000
DSTYLE
1002
{
1070
   287
1070
     3
1070
   287
1070
     3
1070
   287
1070
     3
1070
    40
1040
12.0
1070
   143
1040
0.039
1070
   172
1070
     1
1070
   271
1070
     0
1070
   279
1070
     0
1070
   288
1070
     1
1002
}
  0
DIMENSION
  5
86C9
  8
3
  2
*D17
 10
198.53488107110789
 20
2649.93183331417
 30
0.0
 11
198.53488107110749
 21
2251.7751472413311
 31
0.0
 70
   128
 13
381.6394727866109
 23
1849.93183331417
 33
0.0
 14
381.6394727866109
 24
2649.93183331417
 34
0.0
 50
90.0
1001
ACAD
1000
DSTYLE
1002
{
1070
   287
1070
     3
1070
   287
1070
     3
1070
   287
1070
     3
1070
    40
1040
12.0
1070
   143
1040
0.039
1070
   172
1070
     1
1070
   271
1070
     0
1070
   279
1070
     0
1070
   288
1070
     1
1002
}
  0
DIMENSION
  5
871D
  8
3
  2
*D18
 10
297.69895071735112
 20
832.49660872363791
 30
0.0
 11
240.27037928877959
 21
843.49660872363802
 31
0.0
 70
     0
  1
(<>)
 13
531.63947278660169
 23
854.49660872363802
 33
0.0
 14
461.63947278661448
 24
832.49660872363791
 34
0.0
 50
90.0
1001
ACAD
1000
DSTYLE
1002
{
1070
   288
1070
     1
1070
   172
1070
     1
1070
    75
1070
     1
1070
    40
1040
12.0
1070
   271
1070
     0
1070
     7
1000
_DOT
1070
   143
1040
0.039
1002
}
  0
DIMENSION
  5
872D
  8
3
  2
*D19
 10
297.69895071735112
 20
792.49660872363802
 30
0.0
 11
267.69895071735101
 21
703.35375158078102
 31
0.0
 70
     0
 13
461.63947278661448
 23
832.49660872363791
 33
0.0
 14
381.63947278661448
 24
792.49660872363802
 34
0.0
 50
90.0
1001
ACAD
1000
DSTYLE
1002
{
1070
   287
1070
     3
1070
   287
1070
     3
1070
   287
1070
     3
1070
    40
1040
12.0
1070
   143
1040
0.039
1070
   172
1070
     1
1070
   271
1070
     0
1070
   279
1070
     0
1070
   288
1070
     1
1070
     6
1000
DOT
1002
}
  0
LINE
  5
9289
  8
2
 10
2006.7340983958411
 20
1520.5495096485811
 30
0.0
 11
2006.7340983958411
 21
771.59294425452845
 31
0.0
1001
ACAD
1000
ASC_BOUNDS
1002
{
1070
    19
1005
0
1005
0
1002
}
  0
DIMENSION
  5
928A
  8
SP
  2
*D48
 10
1586.7340983968299
 20
1759.851750727674
 30
0.0
 11
1796.7340983963361
 21
1797.351750727674
 31
0.0
 70
     0
 13
2006.7340983958411
 23
1606.7591812252269
 33
0.0
 14
1586.7340983968299
 24
1293.0775490366921
 34
0.0
1001
ACAD
1000
DSTYLE
1002
{
1070
     3
1000
（<>）
1002
}
  0
DIMENSION
  5
928B
  8
SP
  2
*D49
 10
2127.7340983958411
 20
1759.851750727674
 30
0.0
 11
2067.2340983958411
 21
1797.351750727674
 31
0.0
 70
     0
 13
2006.7340983958411
 23
1606.7591812252269
 33
0.0
 14
2127.7340983958411
 24
1390.9966087236351
 34
0.0
  0
DIMENSION
  5
928C
  8
SP
  2
*D50
 10
2118.7340983958338
 20
1536.783828840111
 30
0.0
 11
2006.734098395837
 21
1574.283828840111
 31
0.0
 70
     0
 13
1894.7340983958411
 23
1416.7838288401119
 33
0.0
 14
2118.7340983958338
 24
1416.783828840111
 34
0.0
  0
LINE
  5
928D
  8
1
 10
1759.7340983958411
 20
1309.496608723636
 30
0.0
 11
1684.39439839584
 21
1309.496608723636
 31
0.0
  0
LINE
  5
928E
  8
1
 10
1894.7340983958411
 20
1414.496608723638
 30
0.0
 11
1704.1721151878869
 21
1209.496608723636
 31
0.0
  0
LINE
  5
928F
  8
2
 10
2158.7460825315561
 20
1209.496608723636
 30
0.0
 11
1545.345977829259
 21
1209.496608723636
 31
0.0
  0
LINE
  5
9291
  8
FUTO
 10
1575.7340983958411
 20
857.69660872363727
 30
0.0
 11
1882.5340983958399
 21
857.69660872363727
 31
0.0
  0
LINE
  5
9292
  8
1
 10
1575.7340983958411
 20
854.49660872363745
 30
0.0
 11
1925.7340983958411
 21
854.49660872363745
 31
0.0
  0
LINE
  5
9293
  8
FUTO
 10
1705.5340983958399
 20
1209.496608723636
 30
0.0
 11
1575.7340983958411
 21
857.69660872363727
 31
0.0
  0
LINE
  5
9294
  8
FUTO
 10
1575.7340983958411
 20
854.49660872363745
 30
0.0
 11
1575.7340983958411
 21
857.69660872363727
 31
0.0
  0
LINE
  5
9295
  8
1
 10
1636.7340983958411
 20
1113.496608723636
 30
0.0
 11
1636.7340983958411
 21
1308.7966087236371
 31
0.0
  0
LINE
  5
9296
  8
1
 10
1676.7340983958411
 20
1310.2966087236371
 30
0.0
 11
1676.7340983958411
 21
1159.496608723636
 31
0.0
  0
LINE
  5
9297
  8
1
 10
1586.7340983958411
 20
1125.943708723637
 30
0.0
 11
1586.7340983958411
 21
1293.077508723637
 31
0.0
  0
LINE
  5
9298
  8
FUTO
 10
1635.210981371866
 20
1018.634937901688
 30
0.0
 11
1587.613157576415
 21
1106.008101916178
 31
0.0
  0
LINE
  5
9299
  8
1
 10
1636.7340983958411
 20
1113.496608723636
 30
0.0
 11
1588.147398395841
 21
1124.1857087236369
 31
0.0
  0
LINE
  5
929A
  8
FUTO
 10
1579.5340983958399
 20
1108.4081019161761
 30
0.0
 11
1668.2879668735429
 21
1108.4081019161761
 31
0.0
  0
LINE
  5
929B
  8
FUTO
 10
1579.5340983958399
 20
1106.008101916178
 30
0.0
 11
1667.403685183401
 21
1106.0081019161739
 31
0.0
  0
LINE
  5
929C
  8
FUTO
 10
1574.7340983958411
 20
1080.8081019161791
 30
0.0
 11
1574.7340983958411
 21
1103.608101916177
 31
0.0
  0
LINE
  5
929D
  8
FUTO
 10
1577.1340983958421
 20
1080.8081019161791
 30
0.0
 11
1577.1340983958421
 21
1103.608101916177
 31
0.0
  0
ARC
  5
929E
  8
FUTO
 10
1579.5340983958399
 20
1103.608101916177
 30
0.0
 40
4.7999999999999998
 50
90.0
 51
180.0
  0
ARC
  5
929F
  8
FUTO
 10
1579.5340983958399
 20
1103.608101916177
 30
0.0
 40
2.3999999999999999
 50
90.0
 51
180.0
  0
LINE
  5
92A0
  8
FUTO
 10
1574.7340983958411
 20
1080.8081019161791
 30
0.0
 11
1577.1340983958421
 21
1080.8081019161791
 31
0.0
  0
ARC
  5
92A1
  8
1
 10
1588.5338983958411
 20
1125.943508723637
 30
0.0
 40
1.7998000000000001
 50
179.9961000000213
 51
257.59830000000562
  0
LINE
  5
92A2
  8
1
 10
1662.7340983958411
 20
1112.496608723636
 30
0.0
 11
1662.7340983958411
 21
1150.496608723636
 31
0.0
  0
ARC
  5
92A3
  8
1
 10
1637.7341983958379
 20
1113.496608723636
 30
0.0
 40
1.0000999999999991
 50
180.0
 51
269.99650000001031
  0
LINE
  5
92A4
  8
1
 10
1662.7340983958411
 20
1112.496608723636
 30
0.0
 11
1637.7340983958411
 21
1112.496608723636
 31
0.0
  0
LINE
  5
92A5
  8
1
 10
1662.6345983958411
 20
1124.496608723636
 30
0.0
 11
1674.215788536686
 21
1124.496608723636
 31
0.0
  0
LINE
  5
92A6
  8
1
 10
1662.7340983958411
 20
1150.496608723636
 30
0.0
 11
1676.7340983958411
 21
1159.496608723636
 31
0.0
  0
LINE
  5
92A7
  8
1
 10
1636.7340983958411
 20
1306.496608723636
 30
0.0
 11
1588.113998395841
 21
1294.827808723637
 31
0.0
  0
ARC
  5
92A8
  8
1
 10
1588.533998395839
 20
1293.0776087236361
 30
0.0
 40
1.7999000000000001
 50
103.4933999999985
 51
180.0018999999831
  0
LINE
  5
92A9
  8
1
 10
1676.5657983958399
 20
1295.937308723637
 30
0.0
 11
1684.39439839584
 21
1309.496608723636
 31
0.0
  0
ARC
  5
92AA
  8
1
 10
1638.2340983958411
 20
1308.7966087236371
 30
0.0
 40
1.5
 50
90.0
 51
180.0
  0
LINE
  5
92AB
  8
1
 10
1676.7340983958411
 20
1310.2966087236371
 30
0.0
 11
1638.2340983958411
 21
1310.2966087236371
 31
0.0
  0
ARC
  5
92AC
  8
FUTO
 10
2103.7340983958461
 20
899.49660872363665
 30
0.0
 40
16.0
 50
270.0
 51
0.0
  0
ARC
  5
92AD
  8
FUTO
 10
1909.7340983958391
 20
899.49660872363665
 30
0.0
 40
16.0
 50
180.0
 51
270.0
  0
ARC
  5
92AE
  8
FUTO
 10
1909.7340983958391
 20
899.49660872363665
 30
0.0
 40
15.0
 50
180.0
 51
270.0
  0
ARC
  5
92AF
  8
FUTO
 10
2103.7340983958461
 20
899.49660872363665
 30
0.0
 40
15.0
 50
270.0
 51
0.0
  0
ARC
  5
92B0
  8
FUTO
 10
2114.7340983958411
 20
897.99660872364211
 30
0.0
 40
25.0
 50
270.0
 51
0.0
  0
POLYLINE
  5
92B1
  8
1
 66
     1
 10
0.0
 20
0.0
 30
0.0
  0
VERTEX
  5
975E
  8
1
 10
1885.7340983958411
 20
1404.8147195611671
 30
0.0
  0
VERTEX
  5
975F
  8
1
 10
1885.7340983958411
 20
1209.496608723636
 30
0.0
  0
VERTEX
  5
9760
  8
1
 10
1885.7340983958411
 20
854.49660872363745
 30
0.0
  0
SEQEND
  5
9761
  8
1
  0
POLYLINE
  5
92B2
  8
1
 66
     1
 10
0.0
 20
0.0
 30
0.0
  0
VERTEX
  5
9762
  8
1
 10
1882.5340983958399
 20
1401.372270081177
 30
0.0
  0
VERTEX
  5
9763
  8
1
 10
1882.5340983958399
 20
854.49660872363745
 30
0.0
  0
SEQEND
  5
9764
  8
1
  0
LINE
  5
92B3
  8
FUTO
 10
1909.7340983958391
 20
883.49660872363665
 30
0.0
 11
2103.7340983958461
 21
883.49660872363665
 31
0.0
  0
LINE
  5
92B4
  8
FUTO
 10
1909.7340983958391
 20
884.49660872363665
 30
0.0
 11
2103.7340983958461
 21
884.49660872363665
 31
0.0
  0
LINE
  5
92B5
  8
FUTO
 10
1898.7340983958411
 20
872.99660872364211
 30
0.0
 11
2114.7340983958411
 21
872.99660872364211
 31
0.0
  0
LINE
  5
92B6
  8
FUTO
 10
1885.7340983958411
 20
857.69660872363727
 30
0.0
 11
1925.7340983958411
 21
857.69660872363727
 31
0.0
  0
ARC
  5
92B8
  8
FUTO
 10
1898.7340983958411
 20
897.99660872364211
 30
0.0
 40
25.0
 50
238.66774850237789
 51
270.0
  0
POLYLINE
  5
92B9
  8
FUTO
 66
     1
 10
0.0
 20
0.0
 30
0.0
  0
VERTEX
  5
9765
  8
FUTO
 10
1925.7340983958411
 20
857.69660872363727
 30
0.0
  0
VERTEX
  5
9766
  8
FUTO
 10
1925.7340983958411
 20
854.49660872363665
 30
0.0
  0
SEQEND
  5
9767
  8
FUTO
  0
LINE
  5
92BA
  8
FUTO
 10
1909.7340983958411
 20
1432.7838288401119
 30
0.0
 11
2103.7340983958329
 21
1432.783828840111
 31
0.0
  0
LINE
  5
92BB
  8
FUTO
 10
1909.7340983958411
 20
1431.7838288401119
 30
0.0
 11
2103.7340983958329
 21
1431.783828840111
 31
0.0
  0
LINE
  5
92BC
  8
1
 10
1893.7340983958411
 20
1416.7838288401119
 30
0.0
 11
1893.7340983958391
 21
899.49660872363665
 31
0.0
  0
LINE
  5
92BD
  8
1
 10
1894.7340983958411
 20
1416.7838288401119
 30
0.0
 11
1894.7340983958391
 21
899.49660872363665
 31
0.0
  0
ARC
  5
92BE
  8
FUTO
 10
1909.7340983958411
 20
1416.7838288401119
 30
0.0
 40
16.0
 50
90.0
 51
180.0
  0
ARC
  5
92BF
  8
FUTO
 10
1909.7340983958411
 20
1416.7838288401119
 30
0.0
 40
15.0
 50
90.0
 51
180.0
  0
LINE
  5
92C0
  8
1
 10
1759.7340983958411
 20
1309.496608723636
 30
0.0
 11
1797.1291801673749
 21
1309.496608723636
 31
0.0
  0
LINE
  5
92C1
  8
1
 10
1892.7340983958411
 20
1391.996608723636
 30
0.0
 11
1886.7340983958411
 21
1391.996608723636
 31
0.0
  0
ARC
  5
92C2
  8
1
 10
1892.7340983958411
 20
1392.9966087236351
 30
0.0
 40
1.0
 50
270.0
 51
0.0
  0
ARC
  5
92C3
  8
1
 10
1886.7340983958411
 20
1390.9966087236351
 30
0.0
 40
1.0
 50
90.0
 51
180.0
  0
LINE
  5
92C4
  8
1
 10
2119.7340983958329
 20
1416.783828840111
 30
0.0
 11
2119.7340983958461
 21
899.49660872363665
 31
0.0
  0
POLYLINE
  5
92C5
  8
1
 66
     1
 10
0.0
 20
0.0
 30
0.0
  0
VERTEX
  5
9768
  8
1
 10
2127.7340983958411
 20
1390.996608723638
 30
0.0
  0
VERTEX
  5
9769
  8
1
 10
2127.734098395842
 20
1209.496608723638
 30
0.0
  0
VERTEX
  5
976A
  8
1
 10
2127.734098395842
 20
1027.9966087236389
 30
0.0
  0
SEQEND
  5
976B
  8
1
  0
LINE
  5
92C6
  8
1
 10
2118.7340983958338
 20
1416.783828840111
 30
0.0
 11
2118.7340983958461
 21
899.49660872363665
 31
0.0
  0
LINE
  5
92C7
  8
1
 10
2139.7340983958411
 20
897.99660872364211
 30
0.0
 11
2139.7340983958411
 21
1205.996608723643
 31
0.0
  0
DIMENSION
  5
92C8
  8
SP
  2
*D53
 10
2387.4733393251472
 20
1051.996608723636
 30
0.0
 11
2349.9733393251458
 21
1209.496608723636
 31
0.0
 70
     0
 13
2127.7340983958411
 23
1366.996608723636
 33
0.0
 14
2127.7340983958411
 24
1051.996608723636
 34
0.0
 50
90.0
1001
ACAD
1000
DSTYLE
1002
{
1070
     3
1000
φ<>
1002
}
  0
ARC
  5
92C9
  8
1
 10
2126.7340983958411
 20
1027.9966087236389
 30
0.0
 40
1.0
 50
270.0
 51
0.0
  0
ARC
  5
92CA
  8
1
 10
2120.7340983958402
 20
1025.9966087236389
 30
0.0
 40
1.0
 50
90.0
 51
180.0
  0
LINE
  5
92CB
  8
1
 10
2120.7340983958402
 20
1026.9966087236401
 30
0.0
 11
2126.734098395842
 21
1026.9966087236401
 31
0.0
  0
LINE
  5
92CC
  8
FUTO
 10
2127.734098395842
 20
1051.996608723636
 30
0.0
 11
2119.734098395837
 21
1051.996608723636
 31
0.0
  0
ARC
  5
92CD
  8
FUTO
 10
2114.734098395842
 20
1205.996608723641
 30
0.0
 40
25.0
 50
0.0
 51
58.667748502377883
  0
ARC
  5
92CE
  8
FUTO
 10
2103.7340983958329
 20
1416.783828840111
 30
0.0
 40
16.0
 50
0.0
 51
90.0
  0
ARC
  5
92CF
  8
1
 10
2126.7340983958411
 20
1390.9966087236371
 30
0.0
 40
1.0
 50
0.0
 51
90.0
  0
ARC
  5
92D0
  8
1
 10
2120.7340983958402
 20
1392.9966087236371
 30
0.0
 40
1.0
 50
180.0
 51
270.0
  0
LINE
  5
92D1
  8
1
 10
2120.7340983958402
 20
1391.996608723638
 30
0.0
 11
2126.7340983958411
 21
1391.996608723638
 31
0.0
  0
LINE
  5
92D2
  8
FUTO
 10
2127.7340983958411
 20
1366.996608723636
 30
0.0
 11
2119.734098395837
 21
1366.996608723636
 31
0.0
  0
ARC
  5
92D3
  8
FUTO
 10
2103.7340983958329
 20
1416.783828840111
 30
0.0
 40
15.0
 50
0.0
 51
90.0
  0
ENDSEC
  0
EOF
