  0
SECTION
  2
HEADER
  9
$ACADVER
  1
AC1009
  9
$INSBASE
 10
0.0
 20
0.0
 30
0.0
  9
$EXTMIN
 10
0.0
 20
0.0
 30
0.0
  9
$EXTMAX
 10
2520.0
 20
3540.0
 30
0.0
  9
$LIMMIN
 10
0.0
 20
0.0
  9
$LIMMAX
 10
297.0
 20
210.0
  9
$ORTHOMODE
 70
     1
  9
$REGENMODE
 70
     1
  9
$FILLMODE
 70
     0
  9
$QTEXTMODE
 70
     0
  9
$MIRRTEXT
 70
     1
  9
$DRAGMODE
 70
     2
  9
$LTSCALE
 40
100.0
  9
$OSMODE
 70
   545
  9
$ATTMODE
 70
     1
  9
$TEXTSIZE
 40
180.0
  9
$TRACEWID
 40
0.05
  9
$TEXTSTYLE
  7
STANDARD
  9
$CLAYER
  8
3
  9
$CELTYPE
  6
BYLAYER
  9
$CECOLOR
 62
   256
  9
$DIMSCALE
 40
12.0
  9
$DIMASZ
 40
2.0
  9
$DIMEXO
 40
0.5
  9
$DIMDLI
 40
10.0
  9
$DIMRND
 40
0.0
  9
$DIMDLE
 40
0.0
  9
$DIMEXE
 40
1.0
  9
$DIMTP
 40
1.0
  9
$DIMTM
 40
1.0
  9
$DIMTXT
 40
3.0
  9
$DIMCEN
 40
0.0
  9
$DIMTSZ
 40
0.0
  9
$DIMTOL
 70
     0
  9
$DIMLIM
 70
     0
  9
$DIMTIH
 70
     0
  9
$DIMTOH
 70
     0
  9
$DIMSE1
 70
     0
  9
$DIMSE2
 70
     0
  9
$DIMTAD
 70
     1
  9
$DIMZIN
 70
     8
  9
$DIMBLK
  1

  9
$DIMASO
 70
     1
  9
$DIMSHO
 70
     1
  9
$DIMPOST
  1

  9
$DIMAPOST
  1

  9
$DIMALT
 70
     0
  9
$DIMALTD
 70
     2
  9
$DIMALTF
 40
0.039
  9
$DIMLFAC
 40
1.0
  9
$DIMTOFL
 70
     1
  9
$DIMTVP
 40
0.0
  9
$DIMTIX
 70
     0
  9
$DIMSOXD
 70
     0
  9
$DIMSAH
 70
     1
  9
$DIMBLK1
  1
OPEN
  9
$DIMBLK2
  1
OPEN
  9
$DIMSTYLE
  2
IGA
  9
$DIMCLRD
 70
     0
  9
$DIMCLRE
 70
     0
  9
$DIMCLRT
 70
     0
  9
$DIMTFAC
 40
10.0
  9
$DIMGAP
 40
1.0
  9
$LUNITS
 70
     2
  9
$LUPREC
 70
     3
  9
$SKETCHINC
 40
0.1
  9
$FILLETRAD
 40
50.0
  9
$AUNITS
 70
     0
  9
$AUPREC
 70
     0
  9
$MENU
  1
acad
  9
$ELEVATION
 40
0.0
  9
$PELEVATION
 40
0.0
  9
$THICKNESS
 40
0.0
  9
$LIMCHECK
 70
     0
  9
$BLIPMODE
 70
     0
  9
$CHAMFERA
 40
0.5
  9
$CHAMFERB
 40
0.5
  9
$SKPOLY
 70
     0
  9
$TDCREATE
 40
2452824.5915310178
  9
$TDUPDATE
 40
2454953.8260082058
  9
$TDINDWG
 40
0.0256283796
  9
$TDUSRTIMER
 40
0.0256283796
  9
$USRTIMER
 70
     1
  9
$ANGBASE
 50
0.0
  9
$ANGDIR
 70
     0
  9
$PDMODE
 70
     0
  9
$PDSIZE
 40
0.0
  9
$PLINEWID
 40
0.0
  9
$COORDS
 70
     2
  9
$SPLFRAME
 70
     0
  9
$SPLINETYPE
 70
     6
  9
$SPLINESEGS
 70
     8
  9
$ATTDIA
 70
     0
  9
$ATTREQ
 70
     1
  9
$HANDLING
 70
 22529
  9
$HANDSEED
  5
8711
  9
$SURFTAB1
 70
     6
  9
$SURFTAB2
 70
     6
  9
$SURFTYPE
 70
     6
  9
$SURFU
 70
     6
  9
$SURFV
 70
     6
  9
$UCSNAME
  2

  9
$UCSORG
 10
0.0
 20
0.0
 30
0.0
  9
$UCSXDIR
 10
1.0
 20
0.0
 30
0.0
  9
$UCSYDIR
 10
0.0
 20
1.0
 30
0.0
  9
$PUCSNAME
  2

  9
$PUCSORG
 10
0.0
 20
0.0
 30
0.0
  9
$PUCSXDIR
 10
1.0
 20
0.0
 30
0.0
  9
$PUCSYDIR
 10
0.0
 20
1.0
 30
0.0
  9
$USERI1
 70
     0
  9
$USERI2
 70
     0
  9
$USERI3
 70
     0
  9
$USERI4
 70
     0
  9
$USERI5
 70
     0
  9
$USERR1
 40
0.0
  9
$USERR2
 40
0.0
  9
$USERR3
 40
0.0
  9
$USERR4
 40
0.0
  9
$USERR5
 40
0.0
  9
$WORLDVIEW
 70
     1
  9
$SHADEDGE
 70
     3
  9
$SHADEDIF
 70
    70
  9
$TILEMODE
 70
     1
  9
$MAXACTVP
 70
    16
  9
$PLIMCHECK
 70
     0
  9
$PEXTMIN
 10
1.0000000000000000E+020
 20
1.0000000000000000E+020
 30
1.0000000000000000E+020
  9
$PEXTMAX
 10
-1.0000000000000000E+020
 20
-1.0000000000000000E+020
 30
-1.0000000000000000E+020
  9
$PLIMMIN
 10
0.0
 20
0.0
  9
$PLIMMAX
 10
12.0
 20
9.0
  9
$UNITMODE
 70
     0
  9
$VISRETAIN
 70
     0
  9
$PLINEGEN
 70
     0
  9
$PSLTSCALE
 70
     1
  0
ENDSEC
  0
SECTION
  2
TABLES
  0
TABLE
  2
VPORT
 70
     2
  0
VPORT
  2
*ACTIVE
 70
     0
 10
0.0
 20
0.0
 11
1.0
 21
1.0
 12
1458.3868264842131
 22
1926.3094141955389
 13
0.0
 23
0.0
 14
10.0
 24
10.0
 15
10.0
 25
10.0
 16
0.0
 26
0.0
 36
1.0
 17
0.0
 27
0.0
 37
0.0
 40
3882.2957590045962
 41
1.6307901907356941
 42
50.0
 43
0.0
 44
0.0
 50
0.0
 51
0.0
 71
     0
 72
   100
 73
     1
 74
     0
 75
     0
 76
     0
 77
     0
 78
     0
  0
ENDTAB
  0
TABLE
  2
LTYPE
 70
     2
  0
LTYPE
  2
CONTINUOUS
 70
     0
  3
Solid line
 72
    65
 73
     0
 40
0.0
  0
LTYPE
  2
CENTER
 70
     0
  3
____ _ ____ _ ____ _ ____ _ ____ _ ____ _ ____ 
 72
    65
 73
     4
 40
2.0
 49
1.25
 49
-0.25
 49
0.25
 49
-0.25
  0
ENDTAB
  0
TABLE
  2
LAYER
 70
     6
  0
LAYER
  2
0
 70
     0
 62
     7
  6
CONTINUOUS
  0
LAYER
  2
3
 70
     0
 62
     2
  6
CONTINUOUS
  0
LAYER
  2
2
 70
     0
 62
     3
  6
CENTER
  0
LAYER
  2
1
 70
     0
 62
     4
  6
CONTINUOUS
  0
LAYER
  2
4
 70
     0
 62
     7
  6
CONTINUOUS
  0
LAYER
  2
DEFPOINTS
 70
     0
 62
     7
  6
CONTINUOUS
  0
ENDTAB
  0
TABLE
  2
STYLE
 70
     1
  0
STYLE
  2
STANDARD
 70
     0
 40
0.0
 41
1.0
 50
0.0
 71
     0
 42
180.0
  3
simplex.shx
  4
extfont.shx
  0
ENDTAB
  0
TABLE
  2
VIEW
 70
     0
  0
ENDTAB
  0
TABLE
  2
UCS
 70
     0
  0
ENDTAB
  0
TABLE
  2
APPID
 70
     1
  0
APPID
  2
ACAD
 70
     0
  0
ENDTAB
  0
TABLE
  2
DIMSTYLE
 70
     1
  0
DIMSTYLE
  2
IGA
 70
     0
  3

  4

  5

  6
OPEN
  7
OPEN
 40
2.0
 41
2.0
 42
0.5
 43
10.0
 44
1.0
 45
0.0
 46
0.0
 47
1.0
 48
1.0
140
3.0
141
0.0
142
0.0
143
0.03937
144
1.0
145
0.0
146
10.0
147
1.0
 71
     0
 72
     0
 73
     0
 74
     0
 75
     0
 76
     0
 77
     1
 78
     8
170
     0
171
     2
172
     0
173
     1
174
     0
175
     0
176
     0
177
     0
178
     0
  0
ENDTAB
  0
ENDSEC
  0
SECTION
  2
BLOCKS
  0
BLOCK
  8
0
  2
$MODEL_SPACE
 70
     0
 10
0.0
 20
0.0
 30
0.0
  3
$MODEL_SPACE
  1

  0
ENDBLK
  5
1B
  8
0
  0
BLOCK
 67
     1
  8
0
  2
$PAPER_SPACE
 70
     0
 10
0.0
 20
0.0
 30
0.0
  3
$PAPER_SPACE
  1

  0
ENDBLK
  5
18
 67
     1
  8
0
  0
BLOCK
  8
0
  2
_OPEN
 70
     0
 10
0.0
 20
0.0
 30
0.0
  3
_OPEN
  1

  0
LINE
  5
79FD
  8
0
  6
BYBLOCK
 62
     0
 10
-1.0
 20
0.1666666666666666
 30
0.0
 11
0.0
 21
0.0
 31
0.0
  0
LINE
  5
79FE
  8
0
  6
BYBLOCK
 62
     0
 10
0.0
 20
0.0
 30
0.0
 11
-1.0
 21
-0.1666666666666666
 31
0.0
  0
LINE
  5
79FF
  8
0
  6
BYBLOCK
 62
     0
 10
0.0
 20
0.0
 30
0.0
 11
-1.0
 21
0.0
 31
0.0
  0
ENDBLK
  5
7A01
  8
0
  0
BLOCK
  8
0
  2
*D1
 70
     1
 10
0.0
 20
0.0
 30
0.0
  3
*D1
  1

  0
LINE
  5
867B
  8
3
 62
     0
 10
426.90966695992478
 20
1478.364836057606
 30
0.0
 11
426.90966695992478
 21
1590.762266944907
 31
0.0
  0
LINE
  5
867C
  8
3
 62
     0
 10
741.90966695992847
 20
1478.364836057596
 30
0.0
 11
741.90966695992847
 21
1590.762266944907
 31
0.0
  0
LINE
  5
867D
  8
3
 62
     0
 10
450.90966695992478
 20
1578.762266944907
 30
0.0
 11
717.90966695992836
 21
1578.762266944907
 31
0.0
  0
INSERT
  5
867E
  8
3
 62
     0
  2
_OPEN
 10
426.90966695992478
 20
1578.762266944907
 30
0.0
 41
24.0
 42
24.0
 43
24.0
 50
180.0
  0
INSERT
  5
867F
  8
3
 62
     0
  2
_OPEN
 10
741.90966695992847
 20
1578.762266944907
 30
0.0
 41
24.0
 42
24.0
 43
24.0
  0
TEXT
  8
3
  40
36
  5
8702
  62
0
  72
0
  71
0
 10
492.151
 20
1545.04
 30
0.000000
  1
315
  0
POINT
  5
8681
  8
DEFPOINTS
 62
     0
 10
426.90966695992478
 20
1472.364836057606
 30
0.0
  0
POINT
  5
8682
  8
DEFPOINTS
 62
     0
 10
741.90966695992847
 20
1472.364836057596
 30
0.0
  0
POINT
  5
8683
  8
DEFPOINTS
 62
     0
 10
741.90966695992847
 20
1578.762266944907
 30
0.0
  0
ENDBLK
  5
7F5E
  8
0
  0
BLOCK
  8
0
  2
*D2
 70
     1
 10
0.0
 20
0.0
 30
0.0
  3
*D2
  1

  0
LINE
  5
8684
  8
3
 62
     0
 10
963.90966695991756
 20
1207.3648360575969
 30
0.0
 11
963.90966695991756
 21
1590.762266944907
 31
0.0
  0
LINE
  5
8685
  8
3
 62
     0
 10
765.90966695992847
 20
1578.762266944907
 30
0.0
 11
939.90966695991756
 21
1578.762266944907
 31
0.0
  0
INSERT
  5
8686
  8
3
 62
     0
  2
_OPEN
 10
741.90966695992847
 20
1578.762266944907
 30
0.0
 41
24.0
 42
24.0
 43
24.0
 50
180.0
  0
INSERT
  5
8687
  8
3
 62
     0
  2
_OPEN
 10
963.90966695991756
 20
1578.762266944907
 30
0.0
 41
24.0
 42
24.0
 43
24.0
  0
TEXT
  8
3
  40
36
  5
8703
  62
0
  72
0
  71
0
 10
780.910
 20
1545.04
 30
0.000000
  1
222
  0
POINT
  5
8689
  8
DEFPOINTS
 62
     0
 10
741.90966695992847
 20
1472.364836057596
 30
0.0
  0
POINT
  5
868A
  8
DEFPOINTS
 62
     0
 10
963.90966695991756
 20
1201.3648360575969
 30
0.0
  0
POINT
  5
868B
  8
DEFPOINTS
 62
     0
 10
963.90966695991756
 20
1578.762266944907
 30
0.0
  0
ENDBLK
  5
7F75
  8
0
  0
BLOCK
  8
0
  2
*D3
 70
     1
 10
0.0
 20
0.0
 30
0.0
  3
*D3
  1

  0
LINE
  5
868C
  8
3
 62
     0
 10
768.90966695992483
 20
1472.364836057596
 30
0.0
 11
1231.962473288942
 21
1472.364836057596
 31
0.0
  0
LINE
  5
868D
  8
3
 62
     0
 10
1037.2116924635859
 20
1222.3648360575951
 30
0.0
 11
1231.962473288942
 21
1222.3648360575951
 31
0.0
  0
LINE
  5
868E
  8
3
 62
     0
 10
1219.962473288942
 20
1448.364836057596
 30
0.0
 11
1219.962473288942
 21
1246.3648360575951
 31
0.0
  0
INSERT
  5
868F
  8
3
 62
     0
  2
_OPEN
 10
1219.962473288942
 20
1472.364836057596
 30
0.0
 41
24.0
 42
24.0
 43
24.0
 50
90.0
  0
INSERT
  5
8690
  8
3
 62
     0
  2
_OPEN
 10
1219.962473288942
 20
1222.3648360575951
 30
0.0
 41
24.0
 42
24.0
 43
24.0
 50
270.0
  0
TEXT
  8
3
  40
36
  5
8704
  62
0
  72
0
  71
0
 10
1117.96
 20
1285.66
 30
0.000000
  1
250
  0
POINT
  5
8692
  8
DEFPOINTS
 62
     0
 10
762.90966695992483
 20
1472.364836057596
 30
0.0
  0
POINT
  5
8693
  8
DEFPOINTS
 62
     0
 10
1031.2116924635859
 20
1222.3648360575951
 30
0.0
  0
POINT
  5
8694
  8
DEFPOINTS
 62
     0
 10
1219.962473288942
 20
1222.3648360575951
 30
0.0
  0
ENDBLK
  5
81F9
  8
0
  0
BLOCK
  8
0
  2
*D4
 70
     1
 10
0.0
 20
0.0
 30
0.0
  3
*D4
  1

  0
LINE
  5
8695
  8
3
 62
     0
 10
997.90966695993393
 20
867.36483605759531
 30
0.0
 11
1231.962473288942
 21
867.36483605759531
 31
0.0
  0
LINE
  5
8696
  8
3
 62
     0
 10
1219.962473288942
 20
1198.3648360575951
 30
0.0
 11
1219.962473288942
 21
891.36483605759531
 31
0.0
  0
INSERT
  5
8697
  8
3
 62
     0
  2
_OPEN
 10
1219.962473288942
 20
1222.3648360575951
 30
0.0
 41
24.0
 42
24.0
 43
24.0
 50
90.0
  0
INSERT
  5
8698
  8
3
 62
     0
  2
_OPEN
 10
1219.962473288942
 20
867.36483605759531
 30
0.0
 41
24.0
 42
24.0
 43
24.0
 50
270.0
  0
TEXT
  8
3
  40
36
  5
8705
  62
0
  72
0
  71
0
 10
1117.96
 20
981.145
 30
0.000000
  1
355
  0
POINT
  5
869A
  8
DEFPOINTS
 62
     0
 10
1031.2116924635859
 20
1222.3648360575951
 30
0.0
  0
POINT
  5
869B
  8
DEFPOINTS
 62
     0
 10
991.90966695993393
 20
867.36483605759531
 30
0.0
  0
POINT
  5
869C
  8
DEFPOINTS
 62
     0
 10
1219.962473288942
 20
867.36483605759531
 30
0.0
  0
ENDBLK
  5
8203
  8
0
  0
BLOCK
  8
0
  2
_DOT
 70
     0
 10
0.0
 20
0.0
 30
0.0
  3
_DOT
  1

  0
LINE
  5
811D
  8
0
  6
BYBLOCK
 62
     0
 10
0.0
 20
0.0
 30
0.0
 11
-1.0
 21
-0.0000000000000284
 31
0.0
  0
POLYLINE
  5
811E
  8
0
  6
BYBLOCK
 62
     0
 66
     1
 10
0.0
 20
0.0
 30
0.0
 70
     1
 40
0.1666666666666666
 41
0.1666666666666666
  0
VERTEX
  5
86D1
  8
0
  6
BYBLOCK
 62
     0
 10
-0.0833333333333286
 20
-0.0000000000000284
 30
0.0
 42
1.0
  0
VERTEX
  5
86D2
  8
0
  6
BYBLOCK
 62
     0
 10
0.0833333333333286
 20
-0.0000000000000284
 30
0.0
 42
1.0
  0
SEQEND
  5
86D3
  8
0
  6
BYBLOCK
 62
     0
  0
ENDBLK
  5
8007
  8
0
  0
BLOCK
  8
0
  2
*D6
 70
     1
 10
0.0
 20
0.0
 30
0.0
  3
*D6
  1

  0
LINE
  5
869D
  8
3
 62
     0
 10
341.9096669599212
 20
799.36483605759531
 30
0.0
 11
341.9096669599212
 21
668.04487493544718
 31
0.0
  0
LINE
  5
869E
  8
3
 62
     0
 10
741.90966695992847
 20
719.926952507274
 30
0.0
 11
741.90966695992847
 21
668.04487493544718
 31
0.0
  0
LINE
  5
869F
  8
3
 62
     0
 10
365.90966695992108
 20
680.04487493544718
 30
0.0
 11
717.90966695992836
 21
680.04487493544718
 31
0.0
  0
INSERT
  5
86A0
  8
3
 62
     0
  2
_OPEN
 10
341.9096669599212
 20
680.04487493544718
 30
0.0
 41
24.0
 42
24.0
 43
24.0
 50
180.0
  0
INSERT
  5
86A1
  8
3
 62
     0
  2
_OPEN
 10
741.90966695992847
 20
680.04487493544718
 30
0.0
 41
24.0
 42
24.0
 43
24.0
  0
TEXT
  8
3
  40
36
  5
8706
  62
0
  72
0
  71
0
 10
536.126
 20
646.325
 30
0.000000
  1
400
  0
POINT
  5
86A3
  8
DEFPOINTS
 62
     0
 10
341.9096669599212
 20
805.36483605759531
 30
0.0
  0
POINT
  5
86A4
  8
DEFPOINTS
 62
     0
 10
741.90966695992847
 20
725.92695250727411
 30
0.0
  0
POINT
  5
86A5
  8
DEFPOINTS
 62
     0
 10
741.90966695992847
 20
680.04487493544718
 30
0.0
  0
ENDBLK
  5
822E
  8
0
  0
BLOCK
  8
0
  2
*D7
 70
     1
 10
0.0
 20
0.0
 30
0.0
  3
*D7
  1

  0
LINE
  5
86A6
  8
3
 62
     0
 10
1141.909666959921
 20
799.36483605759531
 30
0.0
 11
1141.909666959921
 21
668.04487493544718
 31
0.0
  0
LINE
  5
86A7
  8
3
 62
     0
 10
765.90966695992847
 20
680.04487493544718
 30
0.0
 11
1117.909666959921
 21
680.04487493544718
 31
0.0
  0
INSERT
  5
86A8
  8
3
 62
     0
  2
_OPEN
 10
741.90966695992847
 20
680.04487493544718
 30
0.0
 41
24.0
 42
24.0
 43
24.0
 50
180.0
  0
INSERT
  5
86A9
  8
3
 62
     0
  2
_OPEN
 10
1141.909666959921
 20
680.04487493544718
 30
0.0
 41
24.0
 42
24.0
 43
24.0
  0
TEXT
  8
3
  40
36
  5
8707
  62
0
  72
0
  71
0
 10
869.910
 20
646.325
 30
0.000000
  1
400
  0
POINT
  5
86AB
  8
DEFPOINTS
 62
     0
 10
741.90966695992847
 20
725.92695250727411
 30
0.0
  0
POINT
  5
86AC
  8
DEFPOINTS
 62
     0
 10
1141.909666959921
 20
805.36483605759531
 30
0.0
  0
POINT
  5
86AD
  8
DEFPOINTS
 62
     0
 10
1141.909666959921
 20
680.04487493544718
 30
0.0
  0
ENDBLK
  5
8218
  8
0
  0
BLOCK
  8
0
  2
*D8
 70
     1
 10
0.0
 20
0.0
 30
0.0
  3
*D8
  1

  0
LINE
  5
86AE
  8
3
 62
     0
 10
1894.734098395842
 20
1477.1648360575971
 30
0.0
 11
1894.734098395842
 21
1571.0636037872
 31
0.0
  0
LINE
  5
86AF
  8
3
 62
     0
 10
2118.734098395842
 20
1477.1648360575971
 30
0.0
 11
2118.734098395842
 21
1571.0636037872
 31
0.0
  0
LINE
  5
86B0
  8
3
 62
     0
 10
1918.734098395842
 20
1559.0636037872
 30
0.0
 11
2094.734098395842
 21
1559.0636037872
 31
0.0
  0
INSERT
  5
86B1
  8
3
 62
     0
  2
_OPEN
 10
1894.734098395842
 20
1559.0636037872
 30
0.0
 41
24.0
 42
24.0
 43
24.0
 50
180.0
  0
INSERT
  5
86B2
  8
3
 62
     0
  2
_OPEN
 10
2118.734098395842
 20
1559.0636037872
 30
0.0
 41
24.0
 42
24.0
 43
24.0
  0
TEXT
  8
3
  40
36
  5
8708
  62
0
  72
0
  71
0
 10
1934.40
 20
1525.34
 30
0.000000
  1
224
  0
POINT
  5
86B4
  8
DEFPOINTS
 62
     0
 10
1894.734098395842
 20
1471.1648360575971
 30
0.0
  0
POINT
  5
86B5
  8
DEFPOINTS
 62
     0
 10
2118.734098395842
 20
1471.1648360575971
 30
0.0
  0
POINT
  5
86B6
  8
DEFPOINTS
 62
     0
 10
2118.734098395842
 20
1559.0636037872
 30
0.0
  0
ENDBLK
  5
8154
  8
0
  0
BLOCK
  8
0
  2
*D9
 70
     1
 10
0.0
 20
0.0
 30
0.0
  3
*D9
  1

  0
LINE
  5
86B7
  8
3
 62
     0
 10
2127.7704294853229
 20
1411.034549478471
 30
0.0
 11
2127.7704294853229
 21
1779.065749141969
 31
0.0
  0
LINE
  5
86B8
  8
3
 62
     0
 10
2006.7340983958411
 20
1621.3674644073039
 30
0.0
 11
2006.7340983958411
 21
1779.065749141969
 31
0.0
  0
LINE
  5
86B9
  8
3
 62
     0
 10
2103.770429485322
 20
1767.065749141969
 30
0.0
 11
2030.7340983958411
 21
1767.065749141969
 31
0.0
  0
INSERT
  5
86BA
  8
3
 62
     0
  2
_OPEN
 10
2127.7704294853229
 20
1767.065749141969
 30
0.0
 41
24.0
 42
24.0
 43
24.0
  0
INSERT
  5
86BB
  8
3
 62
     0
  2
_OPEN
 10
2006.7340983958411
 20
1767.065749141969
 30
0.0
 41
24.0
 42
24.0
 43
24.0
 50
180.0
  0
TEXT
  8
3
  40
36
  5
8709
  62
0
  72
0
  71
0
 10
1995.25
 20
1733.35
 30
0.000000
  1
121
  0
POINT
  5
86BD
  8
DEFPOINTS
 62
     0
 10
2127.7704294853229
 20
1405.034549478471
 30
0.0
  0
POINT
  5
86BE
  8
DEFPOINTS
 62
     0
 10
2006.7340983958411
 20
1615.3674644073039
 30
0.0
  0
POINT
  5
86BF
  8
DEFPOINTS
 62
     0
 10
2006.7340983958411
 20
1767.065749141969
 30
0.0
  0
ENDBLK
  5
813C
  8
0
  0
BLOCK
  8
0
  2
*D10
 70
     1
 10
0.0
 20
0.0
 30
0.0
  3
*D10
  1

  0
LINE
  5
86C0
  8
3
 62
     0
 10
1569.46177782926
 20
1311.9457360575941
 30
0.0
 11
1569.46177782926
 21
1779.065749141969
 31
0.0
  0
LINE
  5
86C1
  8
3
 62
     0
 10
1982.7340983958411
 20
1767.065749141969
 30
0.0
 11
1593.46177782926
 21
1767.065749141969
 31
0.0
  0
TEXT
  8
3
  40
36
  5
870A
  62
0
  72
0
  71
0
 10
1716.10
 20
1732.20
 30
0.000000
  1
(420)
  0
INSERT
  5
86C3
  8
3
 62
     0
  2
_OPEN
 10
2006.7340983958411
 20
1767.065749141969
 30
0.0
 41
24.0
 42
24.0
 43
24.0
  0
INSERT
  5
86C4
  8
3
 62
     0
  2
_OPEN
 10
1569.46177782926
 20
1767.065749141969
 30
0.0
 41
24.0
 42
24.0
 43
24.0
 50
180.0
  0
POINT
  5
86C5
  8
DEFPOINTS
 62
     0
 10
2006.7340983958411
 20
1615.3674644073039
 30
0.0
  0
POINT
  5
86C6
  8
DEFPOINTS
 62
     0
 10
1569.46177782926
 20
1305.945736057593
 30
0.0
  0
POINT
  5
86C7
  8
DEFPOINTS
 62
     0
 10
1569.46177782926
 20
1767.065749141969
 30
0.0
  0
ENDBLK
  5
812F
  8
0
  0
BLOCK
  8
0
  2
*D11
 70
     1
 10
0.0
 20
0.0
 30
0.0
  3
*D11
  1

  0
LINE
  5
8375
  8
3
 62
     0
 10
1471.7340983958411
 20
799.36483605759554
 30
0.0
 11
1471.7340983958411
 21
664.92198596141952
 31
0.0
  0
LINE
  5
8376
  8
3
 62
     0
 10
2006.7340983958411
 20
850.99318369024422
 30
0.0
 11
2006.7340983958411
 21
664.92198596141952
 31
0.0
  0
LINE
  5
8377
  8
3
 62
     0
 10
1495.7340983958411
 20
676.92198596141952
 30
0.0
 11
1982.7340983958411
 21
676.92198596141952
 31
0.0
  0
TEXT
  5
8378
  8
3
 62
     0
 10
1672.9094293475091
 20
690.19739721873339
 30
0.0
 40
36.0
  1
535
  0
INSERT
  5
8379
  8
3
 62
     0
  2
_OPEN
 10
1471.7340983958411
 20
676.92198596141952
 30
0.0
 41
24.0
 42
24.0
 43
24.0
 50
180.0
  0
INSERT
  5
837A
  8
3
 62
     0
  2
_OPEN
 10
2006.7340983958411
 20
676.92198596141952
 30
0.0
 41
24.0
 42
24.0
 43
24.0
  0
POINT
  5
837B
  8
DEFPOINTS
 62
     0
 10
1471.7340983958411
 20
805.36483605759554
 30
0.0
  0
POINT
  5
837C
  8
DEFPOINTS
 62
     0
 10
2006.7340983958411
 20
856.99318369024422
 30
0.0
  0
POINT
  5
837D
  8
DEFPOINTS
 62
     0
 10
2006.7340983958411
 20
676.92198596141952
 30
0.0
  0
ENDBLK
  5
82AE
  8
0
  0
BLOCK
  8
0
  2
*D12
 70
     1
 10
0.0
 20
0.0
 30
0.0
  3
*D12
  1

  0
LINE
  5
86C8
  8
3
 62
     0
 10
2133.7340983958411
 20
1379.8648360575939
 30
0.0
 11
2359.777534990244
 21
1379.8648360575939
 31
0.0
  0
LINE
  5
86C9
  8
3
 62
     0
 10
2133.7340983958411
 20
1064.8648360575939
 30
0.0
 11
2359.777534990244
 21
1064.8648360575939
 31
0.0
  0
LINE
  5
86CA
  8
3
 62
     0
 10
2347.777534990244
 20
1355.8648360575939
 30
0.0
 11
2347.777534990244
 21
1088.8648360575939
 31
0.0
  0
INSERT
  5
86CB
  8
3
 62
     0
  2
_OPEN
 10
2347.777534990244
 20
1379.8648360575939
 30
0.0
 41
24.0
 42
24.0
 43
24.0
 50
90.0
  0
INSERT
  5
86CC
  8
3
 62
     0
  2
_OPEN
 10
2347.777534990244
 20
1064.8648360575939
 30
0.0
 41
24.0
 42
24.0
 43
24.0
 50
270.0
  0
TEXT
  8
3
  40
36
  5
870B
  62
0
  72
0
  71
0
 10
2245.78
 20
1159.91
 30
0.000000
  1
φ315
  0
POINT
  5
86CE
  8
DEFPOINTS
 62
     0
 10
2127.7340983958411
 20
1379.8648360575939
 30
0.0
  0
POINT
  5
86CF
  8
DEFPOINTS
 62
     0
 10
2127.7340983958411
 20
1064.8648360575939
 30
0.0
  0
POINT
  5
86D0
  8
DEFPOINTS
 62
     0
 10
2347.777534990244
 20
1064.8648360575939
 30
0.0
  0
ENDBLK
  5
82D5
  8
0
  0
BLOCK
  8
0
  2
*D13
 70
     1
 10
0.0
 20
0.0
 30
0.0
  3
*D13
  1

  0
LINE
  5
8281
  8
0
  6
BYBLOCK
 62
     0
 10
1067.909666959921
 20
1040.8677907748579
 30
0.0
 11
1231.962473288942
 21
1040.8677907748579
 31
0.0
  0
LINE
  5
8282
  8
0
  6
BYBLOCK
 62
     0
 10
1219.962473288942
 20
1086.8677907748579
 30
0.0
 11
1219.962473288942
 21
1110.8677907748579
 31
0.0
  0
LINE
  5
8283
  8
0
  6
BYBLOCK
 62
     0
 10
1219.962473288942
 20
1016.867790774858
 30
0.0
 11
1219.962473288942
 21
992.86779077485869
 31
0.0
  0
TEXT
  5
8284
  8
3
 62
     0
 10
1289.3910447175131
 20
999.58207648914436
 30
0.0
 40
36.0
  1
(22)
 50
90.0
  0
LINE
  5
8285
  8
0
  6
BYBLOCK
 62
     0
 10
1219.962473288942
 20
1062.8677907748579
 30
0.0
 11
1219.962473288942
 21
1040.8677907748579
 31
0.0
  0
INSERT
  5
8286
  8
0
  6
BYBLOCK
 62
     0
  2
_OPEN
 10
1219.962473288942
 20
1062.8677907748579
 30
0.0
 41
24.0
 42
24.0
 43
24.0
 50
270.0
  0
INSERT
  5
8287
  8
0
  6
BYBLOCK
 62
     0
  2
_DOT
 10
1219.962473288942
 20
1040.8677907748579
 30
0.0
 41
24.0
 42
24.0
 43
24.0
 50
90.0
  0
POINT
  5
8288
  8
DEFPOINTS
  6
BYBLOCK
 62
     0
 10
991.90966695993393
 20
1062.8677907748579
 30
0.0
  0
POINT
  5
8289
  8
DEFPOINTS
  6
BYBLOCK
 62
     0
 10
1061.909666959921
 20
1040.8677907748579
 30
0.0
  0
POINT
  5
828A
  8
DEFPOINTS
  6
BYBLOCK
 62
     0
 10
1219.962473288942
 20
1040.8677907748579
 30
0.0
  0
ENDBLK
  5
828B
  8
0
  0
BLOCK
  8
0
  2
*D14
 70
     1
 10
0.0
 20
0.0
 30
0.0
  3
*D14
  1

  0
LINE
  5
86D4
  8
3
 62
     0
 10
1067.909666959921
 20
845.3648360575952
 30
0.0
 11
1231.962473288942
 21
845.3648360575952
 31
0.0
  0
LINE
  5
86D5
  8
3
 62
     0
 10
1147.909666959921
 20
805.36483605759531
 30
0.0
 11
1231.962473288942
 21
805.36483605759531
 31
0.0
  0
LINE
  5
86D6
  8
3
 62
     0
 10
1219.962473288942
 20
869.3648360575952
 30
0.0
 11
1219.962473288942
 21
893.3648360575952
 31
0.0
  0
LINE
  5
86D7
  8
3
 62
     0
 10
1219.962473288942
 20
781.36483605759531
 30
0.0
 11
1219.962473288942
 21
675.07912177188109
 31
0.0
  0
LINE
  5
86D8
  8
3
 62
     0
 10
1219.962473288942
 20
845.3648360575952
 30
0.0
 11
1219.962473288942
 21
805.36483605759531
 31
0.0
  0
INSERT
  5
86D9
  8
3
 62
     0
  2
_DOT
 10
1219.962473288942
 20
845.3648360575952
 30
0.0
 41
24.0
 42
24.0
 43
24.0
 50
270.0
  0
INSERT
  5
86DA
  8
3
 62
     0
  2
_OPEN
 10
1219.962473288942
 20
805.36483605759531
 30
0.0
 41
24.0
 42
24.0
 43
24.0
 50
90.0
  0
TEXT
  8
3
  40
36
  5
870C
  62
0
  72
0
  71
0
 10
1117.96
 20
652.502
 30
0.000000
  1
40
  0
POINT
  5
86DC
  8
DEFPOINTS
 62
     0
 10
1061.909666959921
 20
845.3648360575952
 30
0.0
  0
POINT
  5
86DD
  8
DEFPOINTS
 62
     0
 10
1141.909666959921
 20
805.36483605759531
 30
0.0
  0
POINT
  5
86DE
  8
DEFPOINTS
 62
     0
 10
1219.962473288942
 20
805.36483605759531
 30
0.0
  0
ENDBLK
  5
8298
  8
0
  0
BLOCK
  8
0
  2
*D15
 70
     1
 10
0.0
 20
0.0
 30
0.0
  3
*D15
  1

  0
LINE
  5
86DF
  8
3
 62
     0
 10
2271.7340983958402
 20
799.36483605759531
 30
0.0
 11
2271.7340983958402
 21
664.92198596141952
 31
0.0
  0
LINE
  5
86E0
  8
3
 62
     0
 10
2030.7340983958411
 20
676.92198596141952
 30
0.0
 11
2247.7340983958402
 21
676.92198596141952
 31
0.0
  0
INSERT
  5
86E1
  8
3
 62
     0
  2
_OPEN
 10
2006.7340983958411
 20
676.92198596141952
 30
0.0
 41
24.0
 42
24.0
 43
24.0
 50
180.0
  0
INSERT
  5
86E2
  8
3
 62
     0
  2
_OPEN
 10
2271.7340983958402
 20
676.92198596141952
 30
0.0
 41
24.0
 42
24.0
 43
24.0
  0
TEXT
  8
3
  40
36
  5
870D
  62
0
  72
0
  71
0
 10
2067.23
 20
643.202
 30
0.000000
  1
265
  0
POINT
  5
86E4
  8
DEFPOINTS
 62
     0
 10
2006.7340983958411
 20
856.99318369024422
 30
0.0
  0
POINT
  5
86E5
  8
DEFPOINTS
 62
     0
 10
2271.7340983958402
 20
805.36483605759531
 30
0.0
  0
POINT
  5
86E6
  8
DEFPOINTS
 62
     0
 10
2271.7340983958402
 20
676.92198596141952
 30
0.0
  0
ENDBLK
  5
82B9
  8
0
  0
BLOCK
  8
0
  2
*D16
 70
     1
 10
0.0
 20
0.0
 30
0.0
  3
*D16
  1

  0
LINE
  5
86E7
  8
3
 62
     0
 10
1465.7340983958411
 20
1705.3648360575951
 30
0.0
 11
1366.9976077051381
 21
1705.3648360575951
 31
0.0
  0
LINE
  5
86E8
  8
3
 62
     0
 10
1465.7340983958411
 20
805.36483605759554
 30
0.0
 11
1366.9976077051381
 21
805.36483605759554
 31
0.0
  0
LINE
  5
86E9
  8
3
 62
     0
 10
1378.9976077051381
 20
1681.3648360575951
 30
0.0
 11
1378.9976077051381
 21
829.36483605759554
 31
0.0
  0
INSERT
  5
86EA
  8
3
 62
     0
  2
_OPEN
 10
1378.9976077051381
 20
1705.3648360575951
 30
0.0
 41
24.0
 42
24.0
 43
24.0
 50
90.0
  0
INSERT
  5
86EB
  8
3
 62
     0
  2
_OPEN
 10
1378.9976077051381
 20
805.36483605759554
 30
0.0
 41
24.0
 42
24.0
 43
24.0
 50
270.0
  0
TEXT
  8
3
  40
36
  5
870E
  62
0
  72
0
  71
0
 10
1277.00
 20
1165.34
 30
0.000000
  1
900
  0
POINT
  5
86ED
  8
DEFPOINTS
 62
     0
 10
1471.7340983958411
 20
1705.3648360575951
 30
0.0
  0
POINT
  5
86EE
  8
DEFPOINTS
 62
     0
 10
1471.7340983958411
 20
805.36483605759554
 30
0.0
  0
POINT
  5
86EF
  8
DEFPOINTS
 62
     0
 10
1378.9976077051381
 20
805.36483605759554
 30
0.0
  0
ENDBLK
  5
82E1
  8
0
  0
BLOCK
  8
0
  2
*D17
 70
     1
 10
0.0
 20
0.0
 30
0.0
  3
*D17
  1

  0
LINE
  5
86F0
  8
3
 62
     0
 10
341.90966695992478
 20
2676.878580817362
 30
0.0
 11
341.90966695992478
 21
2783.568046688632
 31
0.0
  0
LINE
  5
86F1
  8
3
 62
     0
 10
1141.9096669599239
 20
2676.878580817362
 30
0.0
 11
1141.9096669599239
 21
2783.568046688632
 31
0.0
  0
LINE
  5
86F2
  8
3
 62
     0
 10
365.90966695992478
 20
2771.568046688632
 30
0.0
 11
1117.9096669599239
 21
2771.568046688632
 31
0.0
  0
INSERT
  5
86F3
  8
3
 62
     0
  2
_OPEN
 10
341.90966695992478
 20
2771.568046688632
 30
0.0
 41
24.0
 42
24.0
 43
24.0
 50
180.0
  0
INSERT
  5
86F4
  8
3
 62
     0
  2
_OPEN
 10
1141.9096669599239
 20
2771.568046688632
 30
0.0
 41
24.0
 42
24.0
 43
24.0
  0
TEXT
  8
3
  40
36
  5
870F
  62
0
  72
0
  71
0
 10
686.200
 20
2737.85
 30
0.000000
  1
800
  0
POINT
  5
86F6
  8
DEFPOINTS
 62
     0
 10
341.90966695992478
 20
2670.878580817362
 30
0.0
  0
POINT
  5
86F7
  8
DEFPOINTS
 62
     0
 10
1141.9096669599239
 20
2670.878580817362
 30
0.0
  0
POINT
  5
86F8
  8
DEFPOINTS
 62
     0
 10
1141.9096669599239
 20
2771.568046688632
 30
0.0
  0
ENDBLK
  5
8307
  8
0
  0
BLOCK
  8
0
  2
*D18
 70
     1
 10
0.0
 20
0.0
 30
0.0
  3
*D18
  1

  0
LINE
  5
86F9
  8
3
 62
     0
 10
1147.9096669599239
 20
2670.878580817362
 30
0.0
 11
1327.8279476524531
 21
2670.878580817362
 31
0.0
  0
LINE
  5
86FA
  8
3
 62
     0
 10
1147.9096669599239
 20
1870.878580817362
 30
0.0
 11
1327.8279476524531
 21
1870.878580817362
 31
0.0
  0
LINE
  5
86FB
  8
3
 62
     0
 10
1315.8279476524531
 20
2646.878580817362
 30
0.0
 11
1315.8279476524531
 21
1894.878580817362
 31
0.0
  0
INSERT
  5
86FC
  8
3
 62
     0
  2
_OPEN
 10
1315.8279476524531
 20
2670.878580817362
 30
0.0
 41
24.0
 42
24.0
 43
24.0
 50
90.0
  0
INSERT
  5
86FD
  8
3
 62
     0
  2
_OPEN
 10
1315.8279476524531
 20
1870.878580817362
 30
0.0
 41
24.0
 42
24.0
 43
24.0
 50
270.0
  0
TEXT
  8
3
  40
36
  5
8710
  62
0
  72
0
  71
0
 10
1213.83
 20
2215.98
 30
0.000000
  1
800
  0
POINT
  5
86FF
  8
DEFPOINTS
 62
     0
 10
1141.9096669599239
 20
2670.878580817362
 30
0.0
  0
POINT
  5
8700
  8
DEFPOINTS
 62
     0
 10
1141.9096669599239
 20
1870.878580817362
 30
0.0
  0
POINT
  5
8701
  8
DEFPOINTS
 62
     0
 10
1315.8279476524531
 20
1870.878580817362
 30
0.0
  0
ENDBLK
  5
82FB
  8
0
  0
ENDSEC
  0
SECTION
  2
ENTITIES
  0
LINE
  5
7D70
  8
2
 10
2006.7340983958411
 20
1546.9245175368551
 30
0.0
 11
2006.7340983958411
 21
856.99318369024422
 31
0.0
1001
ACAD
1000
ASC_BOUNDS
1002
{
1070
    19
1005
0
1005
0
1002
}
  0
POLYLINE
  5
7D72
  8
1
 66
     1
 10
0.0
 20
0.0
 30
0.0
  0
VERTEX
  5
861B
  8
1
 10
946.90966695992029
 20
1085.4338220880879
 30
0.0
 42
0.1567629017732138
  0
VERTEX
  5
861C
  8
1
 10
971.15564924349735
 20
1238.667066371067
 30
0.0
 42
0.3163442013129026
  0
VERTEX
  5
861D
  8
1
 10
800.15098942518387
 20
1415.56529999233
 30
0.0
 42
0.3154517505481823
  0
SEQEND
  5
861E
  8
1
  0
POLYLINE
  5
7D77
  8
1
 66
     1
 10
0.0
 20
0.0
 30
0.0
  0
VERTEX
  5
861F
  8
1
 10
946.9096669599212
 20
1109.3865777570711
 30
0.0
 42
0.1343280102757561
  0
VERTEX
  5
8620
  8
1
 10
961.27351116912632
 20
1237.13486133789
 30
0.0
 42
0.3163019945347412
  0
VERTEX
  5
8621
  8
1
 10
798.27930000819379
 20
1405.742022600017
 30
0.0
 42
0.3153658436290411
  0
SEQEND
  5
8622
  8
1
  0
POLYLINE
  5
7D7C
  8
1
 66
     1
 10
0.0
 20
0.0
 30
0.0
  0
VERTEX
  5
8623
  8
1
 10
426.90966695992478
 20
1472.3648360576069
 30
0.0
  0
VERTEX
  5
8624
  8
1
 10
426.90966695991938
 20
1247.8648360576051
 30
0.0
 42
0.2294041480982971
  0
VERTEX
  5
8625
  8
1
 10
536.9096669599212
 20
1020.730514564784
 30
0.0
 42
0.1293935334669464
  0
SEQEND
  5
8626
  8
1
  0
POLYLINE
  5
7D81
  8
1
 66
     1
 10
0.0
 20
0.0
 30
0.0
  0
VERTEX
  5
8627
  8
1
 10
425.90966695992478
 20
1472.3648360576069
 30
0.0
  0
VERTEX
  5
8628
  8
1
 10
425.90966695991932
 20
1247.8648360576069
 30
0.0
 42
0.2301193883723377
  0
VERTEX
  5
8629
  8
1
 10
536.9096669599212
 20
1019.457305533754
 30
0.0
 42
0.129402372482195
  0
SEQEND
  5
862A
  8
1
  0
POLYLINE
  5
7D86
  8
1
 66
     1
 10
0.0
 20
0.0
 30
0.0
  0
VERTEX
  5
862B
  8
1
 10
415.90966695992569
 20
1452.3648360576069
 30
0.0
  0
VERTEX
  5
862C
  8
1
 10
415.90966695991932
 20
1247.8648360576069
 30
0.0
 42
0.2369453676414515
  0
VERTEX
  5
862D
  8
1
 10
536.90966695991926
 20
1006.866910755325
 30
0.0
 42
0.1407141398147078
  0
SEQEND
  5
862E
  8
1
  0
LINE
  5
7D8B
  8
1
 10
539.20966695992036
 20
1307.7648360575949
 30
0.0
 11
539.20966695991683
 21
867.36483605759543
 31
0.0
  0
LINE
  5
7D8C
  8
1
 10
944.60966695992011
 20
1307.7648360575949
 30
0.0
 11
944.60966695991726
 21
867.36483605759531
 31
0.0
  0
LINE
  5
7D8D
  8
1
 10
536.90966695992017
 20
1307.7648360575949
 30
0.0
 11
536.90966695992017
 21
867.36483605759531
 31
0.0
  0
LINE
  5
7D8E
  8
1
 10
946.90966695992029
 20
1307.7648360575949
 30
0.0
 11
946.90966695992029
 21
869.66483605759515
 31
0.0
  0
CIRCLE
  5
7D8F
  8
1
 10
741.9096669599212
 20
1222.3648360575951
 30
0.0
 40
169.0
  0
POLYLINE
  5
7D90
  8
1
 66
     1
 10
0.0
 20
0.0
 30
0.0
  0
VERTEX
  5
862F
  8
1
 10
881.1594719519934
 20
1017.364836057595
 30
0.0
 42
0.1174780416237573
  0
VERTEX
  5
8630
  8
1
 10
946.90966695992029
 20
1109.386577757072
 30
0.0
 42
0.3153658436290411
  0
SEQEND
  5
8631
  8
1
  0
LINE
  5
7D95
  8
1
 10
944.6096669599192
 20
1112.3648360575951
 30
0.0
 11
906.90966695992017
 21
1080.6968360575941
 31
0.0
  0
LINE
  5
7D96
  8
1
 10
539.20966695992036
 20
1122.3648360575951
 30
0.0
 11
944.60966695992011
 21
1122.3648360575951
 31
0.0
  0
LINE
  5
7D97
  8
1
 10
908.89538124563467
 20
1082.3648360575951
 30
0.0
 11
741.90966695992927
 21
1082.3648360575951
 31
0.0
  0
LINE
  5
7D98
  8
1
 10
913.36150112623
 20
1268.3052165632921
 30
0.0
 11
898.02487798596303
 21
1264.1957807782369
 31
0.0
  0
CIRCLE
  5
7D99
  8
1
 10
905.15113160277258
 20
1266.105254679921
 30
0.0
 40
4.0
  0
LINE
  5
7D9A
  8
1
 10
913.36150112622909
 20
1176.4244555518981
 30
0.0
 11
898.02487798596303
 21
1180.5338913369519
 31
0.0
  0
CIRCLE
  5
7D9B
  8
1
 10
905.15113160277542
 20
1178.624417435268
 30
0.0
 40
4.0
  0
LINE
  5
7D9C
  8
1
 10
576.90966695992017
 20
1080.6968360575941
 30
0.0
 11
576.90966695992017
 21
928.56483605759524
 31
0.0
  0
LINE
  5
7D9D
  8
1
 10
906.90966695992017
 20
1080.6968360575941
 30
0.0
 11
906.90966695992108
 21
928.56483605759524
 31
0.0
  0
POLYLINE
  5
7D9E
  8
1
 66
     1
 10
0.0
 20
0.0
 30
0.0
  0
VERTEX
  5
8632
  8
1
 10
536.9096669599212
 20
1019.457305533754
 30
0.0
 42
0.2160017649625759
  0
VERTEX
  5
8633
  8
1
 10
769.80748376797317
 20
962.31462478095818
 30
0.0
 42
0.129402372482195
  0
VERTEX
  5
8634
  8
1
 10
881.15947195199431
 20
1017.3648360575939
 30
0.0
 42
0.3153658436290411
  0
SEQEND
  5
8635
  8
1
  0
LINE
  5
7DA3
  8
1
 10
787.85004746561754
 20
1050.9130018912861
 30
0.0
 11
783.74061168056323
 21
1066.2496250315519
 31
0.0
  0
CIRCLE
  5
7DA4
  8
1
 10
785.65008558224599
 20
1059.123371414742
 30
0.0
 40
4.0
  0
CIRCLE
  5
7DA5
  8
1
 10
698.16924833759629
 20
1059.123371414742
 30
0.0
 40
4.0
  0
LINE
  5
7DA6
  8
1
 10
695.96928645422304
 20
1050.9130018912861
 30
0.0
 11
700.07872223927825
 21
1066.2496250315519
 31
0.0
  0
LINE
  5
7DA7
  8
1
 10
574.9239526742067
 20
1082.3648360575951
 30
0.0
 11
741.90966695992927
 21
1082.3648360575951
 31
0.0
  0
LINE
  5
7DA8
  8
1
 10
867.42112062053275
 20
1096.8533823969831
 30
0.0
 11
856.19393326531917
 21
1108.0805697521951
 31
0.0
  0
CIRCLE
  5
7DA9
  8
1
 10
861.41071298044778
 20
1102.8637900370679
 30
0.0
 40
4.0
  0
LINE
  5
7DAA
  8
1
 10
616.39821329930783
 20
1096.8533823969831
 30
0.0
 11
627.62540065452049
 21
1108.0805697521951
 31
0.0
  0
CIRCLE
  5
7DAB
  8
1
 10
622.4086209393945
 20
1102.8637900370679
 30
0.0
 40
4.0
  0
LINE
  5
7DAC
  8
1
 10
539.20966695991956
 20
1112.3648360575951
 30
0.0
 11
576.90966695992017
 21
1080.696836057595
 31
0.0
  0
CIRCLE
  5
7DAD
  8
1
 10
578.66820231706879
 20
1178.624417435268
 30
0.0
 40
4.0
  0
CIRCLE
  5
7DAE
  8
1
 10
578.6682023170697
 20
1266.105254679921
 30
0.0
 40
4.0
  0
LINE
  5
7DAF
  8
1
 10
570.45783279361149
 20
1268.3052165632921
 30
0.0
 11
585.79445593387845
 21
1264.1957807782369
 31
0.0
  0
LINE
  5
7DB0
  8
1
 10
831.90966695992017
 20
1402.3648360575951
 30
0.0
 11
944.60966695992011
 21
1307.7648360575949
 31
0.0
  0
LINE
  5
7DB1
  8
1
 10
405.90966695992478
 20
1472.364836057606
 30
0.0
 11
762.90966695992483
 21
1472.364836057596
 31
0.0
  0
LINE
  5
7DB2
  8
1
 10
651.90966695992017
 20
1402.3648360575951
 30
0.0
 11
539.20966695991956
 21
1307.7648360575949
 31
0.0
  0
LINE
  5
7DB3
  8
1
 10
443.30966695992629
 20
1452.3648360576051
 30
0.0
 11
725.50966695992611
 21
1452.3648360575969
 31
0.0
  0
LINE
  5
7DB4
  8
1
 10
405.90966695992478
 20
1471.1648360576071
 30
0.0
 11
762.90966695992483
 21
1471.1648360575959
 31
0.0
  0
POLYLINE
  5
7DB5
  8
1
 66
     1
 10
0.0
 20
0.0
 30
0.0
  0
VERTEX
  5
8636
  8
1
 10
758.76475861349718
 20
1427.364836057598
 30
0.0
 42
0.1315967463597435
  0
VERTEX
  5
8637
  8
1
 10
798.30409696793674
 20
1405.7372963006969
 30
0.0
 42
0.2200089805681688
  0
SEQEND
  5
8638
  8
1
  0
LINE
  5
7DB9
  8
1
 10
651.90966695992017
 20
1402.3648360575951
 30
0.0
 11
831.90966695992017
 21
1402.3648360575951
 31
0.0
  0
LINE
  5
7DBA
  8
1
 10
867.42112062053195
 20
1347.8762897182071
 30
0.0
 11
856.19393326532008
 21
1336.649102362994
 31
0.0
  0
CIRCLE
  5
7DBB
  8
1
 10
861.41071298044778
 20
1341.8658820781211
 30
0.0
 40
4.0
  0
LINE
  5
7DBC
  8
1
 10
787.85004746561754
 20
1393.8166702239041
 30
0.0
 11
783.74061168056232
 21
1378.4800470836381
 31
0.0
  0
CIRCLE
  5
7DBD
  8
1
 10
785.65008558224599
 20
1385.606300700447
 30
0.0
 40
4.0
  0
CIRCLE
  5
7DBE
  8
1
 10
622.4086209393945
 20
1341.8658820781211
 30
0.0
 40
4.0
  0
LINE
  5
7DBF
  8
1
 10
616.39821329930965
 20
1347.8762897182071
 30
0.0
 11
627.62540065452049
 21
1336.649102362994
 31
0.0
  0
CIRCLE
  5
7DC0
  8
1
 10
698.16924833759629
 20
1385.606300700447
 30
0.0
 40
4.0
  0
LINE
  5
7DC1
  8
1
 10
695.96928645422395
 20
1393.8166702239041
 30
0.0
 11
700.07872223927916
 21
1378.4800470836381
 31
0.0
  0
POLYLINE
  5
7DC2
  8
1
 66
     1
 10
0.0
 20
0.0
 30
0.0
  0
VERTEX
  5
8639
  8
1
 10
754.5739305739171
 20
1447.8757430610431
 30
0.0
 42
0.0934525219043797
  0
VERTEX
  5
863A
  8
1
 10
774.4640822523279
 20
1427.3648360575969
 30
0.0
 42
0.1987366729981355
  0
SEQEND
  5
863B
  8
1
  0
POLYLINE
  5
7DC6
  8
1
 66
     1
 10
0.0
 20
0.0
 30
0.0
  0
VERTEX
  5
863C
  8
1
 10
774.4640822523279
 20
1427.3648360575969
 30
0.0
 42
0.0941668855597806
  0
VERTEX
  5
863D
  8
1
 10
800.66983405082908
 20
1415.4534317492521
 30
0.0
 42
0.1987366729981355
  0
SEQEND
  5
863E
  8
1
  0
LINE
  5
7DCA
  8
1
 10
762.90966695992483
 20
1472.364836057596
 30
0.0
 11
762.90966695992483
 21
1471.1648360575959
 31
0.0
  0
LINE
  5
7DCB
  8
1
 10
742.90966695992483
 20
1472.3648360575969
 30
0.0
 11
742.90966695992483
 21
1451.3648360575969
 31
0.0
  0
LINE
  5
7DCC
  8
1
 10
741.20966695992774
 20
1468.0648360575969
 30
0.0
 11
725.50966695992793
 21
1452.364836057598
 31
0.0
  0
ARC
  5
7DCD
  8
1
 10
746.22947708675565
 20
1442.364836057598
 30
0.0
 40
10.0
 50
33.441871789483393
 51
89.999999999998408
  0
LINE
  5
7DCE
  8
1
 10
742.9096669599312
 20
1452.364836057596
 30
0.0
 11
746.22947708676202
 21
1452.3648360575939
 31
0.0
  0
POLYLINE
  5
7DCF
  8
1
 66
     1
 10
0.0
 20
0.0
 30
0.0
  0
VERTEX
  5
863F
  8
1
 10
742.90966695992483
 20
1451.364836057598
 30
0.0
 42
0.101266720201501
  0
VERTEX
  5
8640
  8
1
 10
744.03502194353405
 20
1445.8654255708341
 30
0.0
 42
0.0681921917069782
  0
VERTEX
  5
8641
  8
1
 10
758.76475861349718
 20
1427.364836057598
 30
0.0
 42
0.2200089805681688
  0
SEQEND
  5
8642
  8
1
  0
POINT
  5
7DD4
  8
1
 10
741.90966695992483
 20
1472.364836057596
 30
0.0
 50
0.0000000000008142
  0
ARC
  5
7DD5
  8
1
 10
741.90966695992483
 20
1467.364836057598
 30
0.0
 40
1.0
 50
359.99999999999841
 51
143.13010235419341
  0
POLYLINE
  5
7DD6
  8
1
 66
     1
 10
0.0
 20
0.0
 30
0.0
  0
VERTEX
  5
8643
  8
1
 10
753.40966695992574
 20
1477.427999272594
 30
0.0
  0
VERTEX
  5
8644
  8
1
 10
753.40966695992483
 20
1465.1596889886489
 30
0.0
  0
SEQEND
  5
8645
  8
1
  0
POINT
  5
7DDA
  8
1
 10
584.40966695992745
 20
1472.364836057606
 30
0.0
 50
0.0000000000008142
  0
POINT
  5
7DDB
  8
1
 10
584.40966695992745
 20
1472.364836057606
 30
0.0
 50
0.0000000000008142
  0
LINE
  5
7DDC
  8
1
 10
427.60966695992551
 20
1468.064836057606
 30
0.0
 11
443.30966695992629
 21
1452.3648360576051
 31
0.0
  0
LINE
  5
7DDD
  8
1
 10
415.90966695992569
 20
1452.364836057606
 30
0.0
 11
425.90966695992569
 21
1452.364836057606
 31
0.0
  0
ARC
  5
7DDE
  8
1
 10
426.90966695992478
 20
1467.3648360576069
 30
0.0
 40
1.0
 50
36.869897645803363
 51
179.99999999999841
  0
POLYLINE
  5
7DDF
  8
1
 66
     1
 10
0.0
 20
0.0
 30
0.0
  0
VERTEX
  5
8646
  8
1
 10
405.90966695992478
 20
1472.364836057608
 30
0.0
  0
VERTEX
  5
8647
  8
1
 10
405.90966695992478
 20
1471.1648360576089
 30
0.0
 42
0.4696216166052111
  0
SEQEND
  5
8648
  8
1
  0
POLYLINE
  5
7DE3
  8
1
 66
     1
 10
0.0
 20
0.0
 30
0.0
  0
VERTEX
  5
8649
  8
1
 10
415.40966695992569
 20
1477.4279992726031
 30
0.0
  0
VERTEX
  5
864A
  8
1
 10
415.40966695992478
 20
1465.159688988658
 30
0.0
  0
SEQEND
  5
864B
  8
1
  0
LINE
  5
7DE7
  8
1
 10
1885.7340983958411
 20
1347.764836057594
 30
0.0
 11
1704.1721151878901
 21
1222.3648360575939
 31
0.0
  0
POLYLINE
  5
7DE8
  8
1
 66
     1
 10
0.0
 20
0.0
 30
0.0
  0
VERTEX
  5
864C
  8
1
 10
1885.7340983958411
 20
1403.864836057593
 30
0.0
  0
VERTEX
  5
864D
  8
1
 10
1885.73409839584
 20
1222.364836057593
 30
0.0
  0
VERTEX
  5
864E
  8
1
 10
1885.73409839584
 20
1202.034533277769
 30
0.0
  0
SEQEND
  5
864F
  8
1
  0
POLYLINE
  5
7DED
  8
1
 66
     1
 10
0.0
 20
0.0
 30
0.0
  0
VERTEX
  5
8650
  8
1
 10
2127.7340983958411
 20
1403.8648360575939
 30
0.0
  0
VERTEX
  5
8651
  8
1
 10
2127.734098395842
 20
1222.3648360575939
 30
0.0
  0
VERTEX
  5
8652
  8
1
 10
2127.734098395842
 20
1202.0345332777699
 30
0.0
  0
SEQEND
  5
8653
  8
1
  0
LINE
  5
7DF2
  8
1
 10
2119.7340983958411
 20
1472.364836057596
 30
0.0
 11
2119.7340983958411
 21
1222.3648360575939
 31
0.0
  0
LINE
  5
7DF3
  8
1
 10
1893.734098395842
 20
1472.3648360575969
 30
0.0
 11
1893.734098395842
 21
1222.3648360575939
 31
0.0
  0
POLYLINE
  5
7DF4
  8
1
 66
     1
 10
0.0
 20
0.0
 30
0.0
  0
VERTEX
  5
8654
  8
1
 10
1885.73409839584
 20
1202.034533277769
 30
0.0
  0
VERTEX
  5
8655
  8
1
 10
1885.7340983958411
 20
870.56483605759445
 30
0.0
  0
SEQEND
  5
8656
  8
1
  0
POLYLINE
  5
7DF8
  8
1
 66
     1
 10
0.0
 20
0.0
 30
0.0
  0
VERTEX
  5
8657
  8
1
 10
2127.734098395842
 20
1202.0345332777699
 30
0.0
  0
VERTEX
  5
8658
  8
1
 10
2127.7340983958411
 20
1040.8648360575939
 30
0.0
  0
SEQEND
  5
8659
  8
1
  0
ARC
  5
7DFC
  8
1
 10
2086.160245243942
 20
1042.7102558696031
 30
0.0
 40
48.656384192584412
 50
33.500033665264858
 51
46.368348723162477
  0
LINE
  5
7DFD
  8
1
 10
2119.7340983958379
 20
1222.3648360575939
 30
0.0
 11
2119.7340983958411
 21
1014.3648360575939
 31
0.0
  0
LINE
  5
7DFE
  8
1
 10
1893.734098395842
 20
1222.3648360575939
 30
0.0
 11
1893.7340983958411
 21
1014.364836057593
 31
0.0
  0
LINE
  5
7DFF
  8
1
 10
1908.7340983958411
 20
999.36483605759349
 30
0.0
 11
2104.7340983958402
 21
999.36483605759463
 31
0.0
  0
ARC
  5
7E00
  8
1
 10
1908.7340983958411
 20
1014.364836057593
 30
0.0
 40
15.0
 50
180.0
 51
270.0
  0
LINE
  5
7E01
  8
1
 10
1893.734098395842
 20
1039.864836057593
 30
0.0
 11
1886.7340983958411
 21
1039.864836057593
 31
0.0
  0
ARC
  5
7E02
  8
1
 10
1886.7340983958411
 20
1040.864836057593
 30
0.0
 40
1.0
 50
179.99999999999989
 51
270.0
  0
ARC
  5
7E03
  8
1
 10
2104.7340983958402
 20
1014.3648360575939
 30
0.0
 40
15.0
 50
270.0
 51
0.0
  0
LINE
  5
7E04
  8
1
 10
2120.7340983958402
 20
1039.8648360575951
 30
0.0
 11
2126.734098395842
 21
1039.8648360575951
 31
0.0
  0
LINE
  5
7E05
  8
1
 10
2126.734098395842
 20
1041.8648360575939
 30
0.0
 11
2126.734098395842
 21
1069.5655377170269
 31
0.0
  0
LINE
  5
7E06
  8
1
 10
2119.7340983958429
 20
1040.864836057593
 30
0.0
 11
2125.7340983958429
 21
1040.8648360575939
 31
0.0
  0
ARC
  5
7E07
  8
1
 10
2126.7340983958411
 20
1040.8648360575939
 30
0.0
 40
1.0
 50
270.0
 51
0.0000000000000799
  0
ARC
  5
7E08
  8
1
 10
2125.7340983958411
 20
1041.8648360575939
 30
0.0
 40
1.0
 50
270.0
 51
0.0000000000007194
  0
ARC
  5
7E09
  8
1
 10
2120.7340983958402
 20
1038.8648360575939
 30
0.0
 40
1.0
 50
90.0
 51
180.0
  0
LINE
  5
7E0A
  8
1
 10
1873.7340983958411
 20
1471.1648360575971
 30
0.0
 11
2139.734098395842
 21
1471.1648360575971
 31
0.0
  0
LINE
  5
7E0B
  8
1
 10
1912.5340983958411
 20
1452.3648360575969
 30
0.0
 11
2100.93409839584
 21
1452.3648360575969
 31
0.0
  0
LINE
  5
7E0C
  8
1
 10
1873.7340983958429
 20
1472.364836057596
 30
0.0
 11
2139.7340983958411
 21
1472.3648360575969
 31
0.0
  0
ARC
  5
7E0D
  8
1
 10
1886.7340983958411
 20
1403.864836057593
 30
0.0
 40
1.0
 50
90.0
 51
180.0
  0
ARC
  5
7E0E
  8
1
 10
1892.7340983958429
 20
1405.864836057593
 30
0.0
 40
1.0
 50
270.0
 51
0.0
  0
LINE
  5
7E0F
  8
1
 10
1892.7340983958429
 20
1404.864836057593
 30
0.0
 11
1886.7340983958411
 21
1404.864836057593
 31
0.0
  0
LINE
  5
7E10
  8
1
 10
1893.734098395842
 20
1471.1648360575971
 30
0.0
 11
1912.5340983958411
 21
1452.3648360575969
 31
0.0
  0
LINE
  5
7E11
  8
1
 10
1873.734098395842
 20
1472.364836057596
 30
0.0
 11
1873.734098395842
 21
1471.1648360575971
 31
0.0
1001
ACAD
1000
ASC_BOUNDS
1002
{
1070
    19
1002
}
  0
ARC
  5
7E12
  8
1
 10
2086.160245243942
 20
1402.0194162455839
 30
0.0
 40
48.656384192584412
 50
313.63165127683709
 51
326.49996633473512
  0
ARC
  5
7E13
  8
1
 10
2120.7340983958402
 20
1405.864836057593
 30
0.0
 40
1.0
 50
180.0
 51
270.0
  0
ARC
  5
7E14
  8
1
 10
2125.7340983958411
 20
1402.864836057593
 30
0.0
 40
1.0
 50
359.9999999999992
 51
90.0
  0
ARC
  5
7E15
  8
1
 10
2126.7340983958411
 20
1403.8648360575939
 30
0.0
 40
1.0
 50
359.99999999999989
 51
90.0
  0
LINE
  5
7E16
  8
1
 10
2119.7340983958411
 20
1403.8648360575939
 30
0.0
 11
2125.7340983958411
 21
1403.8648360575939
 31
0.0
  0
LINE
  5
7E17
  8
1
 10
2126.7340983958411
 20
1402.864836057593
 30
0.0
 11
2126.7340983958411
 21
1375.1641343981589
 31
0.0
  0
LINE
  5
7E18
  8
1
 10
2120.7340983958402
 20
1404.864836057593
 30
0.0
 11
2126.7340983958411
 21
1404.864836057593
 31
0.0
  0
LINE
  5
7E19
  8
1
 10
2119.7340983958411
 20
1471.1648360575971
 30
0.0
 11
2100.93409839584
 21
1452.364836057596
 31
0.0
  0
LINE
  5
7E1A
  8
1
 10
2139.7340983958411
 20
1472.364836057596
 30
0.0
 11
2139.7340983958411
 21
1471.1648360575971
 31
0.0
1001
ACAD
1000
ASC_BOUNDS
1002
{
1070
    19
1002
}
  0
LINE
  5
7E1B
  8
1
 10
494.2173787632837
 20
2003.878580817362
 30
0.0
 11
524.90966695992483
 21
2003.878580817362
 31
0.0
  0
LINE
  5
7E1C
  8
1
 10
491.90966695992392
 20
1973.878580817362
 30
0.0
 11
531.90966695992392
 21
1973.878580817362
 31
0.0
  0
LINE
  5
7E1D
  8
1
 10
438.90966695992302
 20
2518.8785808173611
 30
0.0
 11
582.90966695992302
 21
2518.8785808173629
 31
0.0
  0
LINE
  5
7E1E
  8
1
 10
438.90966695992302
 20
2292.8785808173611
 30
0.0
 11
582.90966695992302
 21
2292.878580817362
 31
0.0
  0
LINE
  5
7E1F
  8
1
 10
423.90966695992302
 20
2538.878580817362
 30
0.0
 11
582.90966695992302
 21
2538.8785808173629
 31
0.0
  0
LINE
  5
7E20
  8
1
 10
423.90966695992302
 20
2272.878580817362
 30
0.0
 11
582.90966695992302
 21
2272.878580817362
 31
0.0
  0
LINE
  5
7E21
  8
1
 10
991.90966695992392
 20
1973.878580817362
 30
0.0
 11
991.90966695992392
 21
2283.8785808173602
 31
0.0
  0
LINE
  5
7E22
  8
1
 10
741.9096669599229
 20
2538.878580817362
 30
0.0
 11
582.90966695992302
 21
2538.8785808173629
 31
0.0
  0
LINE
  5
7E23
  8
1
 10
741.9096669599229
 20
2272.878580817362
 30
0.0
 11
582.90966695992302
 21
2272.878580817362
 31
0.0
  0
LINE
  5
7E24
  8
1
 10
726.90966695992302
 20
2292.8785808173611
 30
0.0
 11
582.90966695992302
 21
2292.878580817362
 31
0.0
  0
LINE
  5
7E25
  8
1
 10
726.90966695992302
 20
2518.8785808173611
 30
0.0
 11
582.90966695992302
 21
2518.8785808173629
 31
0.0
  0
LINE
  5
7E26
  8
1
 10
761.90966695992302
 20
2292.8785808173611
 30
0.0
 11
761.90966695992302
 21
2518.8785808173611
 31
0.0
  0
ARC
  5
7E27
  8
1
 10
737.11737749045176
 20
2297.2124123929379
 30
0.0
 40
24.801237822087149
 50
281.14121715868561
 51
1.539166333134556
  0
ARC
  5
7E28
  8
1
 10
726.90966695992302
 20
2307.8785808173611
 30
0.0
 40
15.0
 50
269.99999999999989
 51
359.99999999999989
  0
ARC
  5
7E29
  8
1
 10
741.9096669599229
 20
2518.8785808173629
 30
0.0
 40
20.0
 50
359.99999999999989
 51
89.999999999999844
  0
ARC
  5
7E2A
  8
1
 10
726.90966695992302
 20
2503.878580817362
 30
0.0
 40
15.0
 50
359.99999999999989
 51
89.999999999999844
  0
LINE
  5
7E2B
  8
1
 10
491.90966695992392
 20
1973.878580817362
 30
0.0
 11
491.90966695992478
 21
2272.878580817362
 31
0.0
  0
CIRCLE
  5
7E2C
  8
1
 10
509.90966695992392
 20
2003.878580817362
 30
0.0
 40
6.0
  0
LINE
  5
7E2D
  8
1
 10
509.90966695992392
 20
2020.0132886999099
 30
0.0
 11
509.90966695992392
 21
1984.346209195468
 31
0.0
  0
LINE
  5
7E2E
  8
1
 10
423.90966695992302
 20
2307.8785808173611
 30
0.0
 11
423.90966695992302
 21
2503.878580817362
 31
0.0
  0
LINE
  5
7E2F
  8
1
 10
403.90966695992302
 20
2292.878580817362
 30
0.0
 11
403.90966695992302
 21
2518.8785808173629
 31
0.0
  0
ARC
  5
7E30
  8
1
 10
438.90966695992302
 20
2307.8785808173611
 30
0.0
 40
15.0
 50
180.0
 51
270.0
  0
ARC
  5
7E31
  8
1
 10
428.7019564293941
 20
2297.2124123929379
 30
0.0
 40
24.801237822087149
 50
178.4608336668654
 51
258.85878284131428
  0
ARC
  5
7E32
  8
1
 10
438.90966695992302
 20
2503.878580817362
 30
0.0
 40
15.0
 50
90.000000000000071
 51
180.0
  0
ARC
  5
7E33
  8
1
 10
423.90966695992302
 20
2518.8785808173629
 30
0.0
 40
20.0
 50
90.000000000000071
 51
180.0
  0
LINE
  5
7E34
  8
1
 10
759.52934375419125
 20
2283.8785808173661
 30
0.0
 11
991.90966695992302
 21
2283.8785808173602
 31
0.0
  0
LINE
  5
7E35
  8
1
 10
951.90966695992392
 20
1973.8785808173629
 30
0.0
 11
991.90966695992302
 21
1973.878580817362
 31
0.0
  0
LINE
  5
7E36
  8
1
 10
991.90966695993302
 20
869.66483605759515
 30
0.0
 11
991.90966695993393
 21
867.36483605759531
 31
0.0
  0
LINE
  5
7E37
  8
1
 10
991.90966695993302
 20
867.36483605759531
 30
0.0
 11
491.90966695993478
 21
867.36483605759531
 31
0.0
  0
LINE
  5
7E38
  8
1
 10
991.90966695993302
 20
869.66483605759515
 30
0.0
 11
946.9096669599212
 21
869.66483605759515
 31
0.0
  0
LINE
  5
7E49
  8
1
 10
979.90966695993404
 20
876.43863305327648
 30
0.0
 11
979.90966695993404
 21
819.05971444147644
 31
0.0
1001
ACAD
1000
ASC_BOUNDS
1002
{
1070
    19
1005
0
1005
0
1002
}
  0
LINE
  5
7E54
  8
1
 10
503.90966695993569
 20
876.43863305327648
 30
0.0
 11
503.90966695993569
 21
819.05971444147644
 31
0.0
1001
ACAD
1000
ASC_BOUNDS
1002
{
1070
    19
1005
0
1005
0
1002
}
  0
LINE
  5
7E5A
  8
1
 10
491.9096669599366
 20
869.66483605759515
 30
0.0
 11
536.90966695994848
 21
869.66483605759515
 31
0.0
  0
LINE
  5
7E5B
  8
1
 10
491.9096669599366
 20
869.66483605759515
 30
0.0
 11
491.90966695993569
 21
867.36483605759531
 31
0.0
  0
LINE
  5
7E5D
  8
1
 10
1574.7340983958411
 20
867.3648360575944
 30
0.0
 11
1925.7340983958411
 21
867.36483605759418
 31
0.0
  0
LINE
  5
7E62
  8
1
 10
1576.255899665674
 20
870.56483605759445
 30
0.0
 11
1882.5340983958411
 21
870.56483605759399
 31
0.0
  0
POLYLINE
  5
7E63
  8
1
 66
     1
 10
0.0
 20
0.0
 30
0.0
  0
VERTEX
  5
865A
  8
1
 10
1925.7340983958411
 20
870.56483605759399
 30
0.0
  0
VERTEX
  5
865B
  8
1
 10
1925.7340983958411
 20
867.36483605759383
 30
0.0
  0
SEQEND
  5
865C
  8
1
  0
POLYLINE
  5
7E67
  8
1
 66
     1
 10
0.0
 20
0.0
 30
0.0
  0
VERTEX
  5
865D
  8
1
 10
1882.5340983958399
 20
1345.5546817460449
 30
0.0
  0
VERTEX
  5
865E
  8
1
 10
1882.5340983958411
 20
867.36483605759418
 30
0.0
  0
SEQEND
  5
865F
  8
1
  0
LINE
  5
7E6B
  8
1
 10
1885.7340983958411
 20
870.56483605759365
 30
0.0
 11
1925.7340983958411
 21
870.56483605759399
 31
0.0
  0
LINE
  5
7E6C
  8
1
 10
1705.5340983958411
 20
1222.3648360575939
 30
0.0
 11
1574.7340983958411
 21
867.3648360575944
 31
0.0
  0
LINE
  5
7E71
  8
1
 10
1854.734098395842
 20
879.79843230591223
 30
0.0
 11
1854.7340983958411
 21
814.798432305912
 31
0.0
1001
ACAD
1000
ASC_BOUNDS
1002
{
1070
    19
1002
}
  0
LINE
  5
7E72
  8
1
 10
1604.734098395842
 20
879.79843230591132
 30
0.0
 11
1604.7340983958411
 21
814.79843230591371
 31
0.0
1001
ACAD
1000
ASC_BOUNDS
1002
{
1070
    19
1002
}
  0
LINE
  5
7E73
  8
2
 10
741.90966695992847
 20
725.92695250727411
 30
0.0
 11
741.90966695992847
 21
1508.3288188961581
 31
0.0
  0
LINE
  5
7E75
  8
2
 10
2172.6061184428581
 20
1222.3648360575939
 30
0.0
 11
1545.345977829262
 21
1222.3648360575939
 31
0.0
  0
ARC
  5
7E76
  8
1
 10
741.9096669599212
 20
1222.3648360575951
 30
0.0
 40
100.8
 50
285.7971
 51
0.0
  0
ARC
  5
7E77
  8
1
 10
741.9096669599212
 20
1222.3648360575951
 30
0.0
 40
100.8
 50
0.0
 51
254.57230000000001
  0
LINE
  5
7E79
  8
1
 10
769.52736695992098
 20
1125.3648360575951
 30
0.0
 11
714.64026695992095
 21
1125.3648360575951
 31
0.0
  0
LINE
  5
7E7A
  8
1
 10
643.90966695992108
 20
1134.3648360575951
 30
0.0
 11
679.9096669599212
 21
1134.3648360575951
 31
0.0
  0
LINE
  5
7E7B
  8
1
 10
641.9096669599212
 20
1122.3648360575951
 30
0.0
 11
681.90966695992108
 21
1122.3648360575951
 31
0.0
  0
LINE
  5
7E7C
  8
1
 10
642.80186695992143
 20
1134.032936057595
 30
0.0
 11
659.20266695992075
 21
1164.694936057595
 31
0.0
  0
ARC
  5
7E7D
  8
1
 10
643.90966695992108
 20
1132.3648360575951
 30
0.0
 40
2.0
 50
90.0
 51
180.0
  0
LINE
  5
7E7E
  8
1
 10
641.9096669599212
 20
1122.3648360575951
 30
0.0
 11
641.9096669599212
 21
1132.3648360575951
 31
0.0
  0
LINE
  5
7E7F
  8
1
 10
655.90966695992108
 20
1134.3648360575951
 30
0.0
 11
655.90966695992108
 21
1122.3648360575951
 31
0.0
  0
LINE
  5
7E80
  8
1
 10
667.90966695992108
 20
1122.3648360575951
 30
0.0
 11
667.90966695992108
 21
1134.3648360575951
 31
0.0
  0
LINE
  5
7E81
  8
1
 10
661.9096669599212
 20
1135.7453360575951
 30
0.0
 11
661.9096669599212
 21
1118.3982360575951
 31
0.0
  0
LINE
  5
7E82
  8
1
 10
681.70716695992076
 20
1141.4760360575949
 30
0.0
 11
675.47466695992068
 21
1135.2435360575951
 31
0.0
  0
LINE
  5
7E83
  8
1
 10
688.45926695992137
 20
1136.9145360575949
 30
0.0
 11
681.90966695992108
 21
1130.3648360575951
 31
0.0
  0
ARC
  5
7E84
  8
1
 10
679.9096669599212
 20
1132.3648360575951
 30
0.0
 40
2.0
 50
0.0
 51
90.0
  0
ARC
  5
7E85
  8
1
 10
673.3532669599208
 20
1137.3648360575951
 30
0.0
 40
3.0
 50
270.0
 51
315.0
  0
LINE
  5
7E86
  8
1
 10
681.90966695992108
 20
1122.3648360575951
 30
0.0
 11
681.90966695992108
 21
1132.3648360575951
 31
0.0
  0
ARC
  5
7E87
  8
1
 10
839.90966695992108
 20
1132.3648360575951
 30
0.0
 40
2.0
 50
0.0
 51
90.0
  0
LINE
  5
7E88
  8
1
 10
841.90966695992108
 20
1122.3648360575951
 30
0.0
 11
801.9096669599212
 21
1122.3648360575951
 31
0.0
  0
LINE
  5
7E89
  8
1
 10
795.65626695992148
 20
1136.6183360575949
 30
0.0
 11
801.9096669599212
 21
1130.3648360575951
 31
0.0
  0
LINE
  5
7E8A
  8
1
 10
840.81886695992125
 20
1134.4043360575949
 30
0.0
 11
824.70016695992115
 21
1164.5386360575951
 31
0.0
  0
LINE
  5
7E8B
  8
1
 10
802.49176695992082
 20
1141.0965360575949
 30
0.0
 11
808.34466695992148
 21
1135.2435360575951
 31
0.0
  0
LINE
  5
7E8C
  8
1
 10
839.90966695992108
 20
1134.3648360575951
 30
0.0
 11
803.9096669599212
 21
1134.3648360575951
 31
0.0
  0
ARC
  5
7E8D
  8
1
 10
810.46606695992159
 20
1137.3648360575951
 30
0.0
 40
3.0
 50
225.0
 51
270.0
  0
ARC
  5
7E8E
  8
1
 10
803.9096669599212
 20
1132.3648360575951
 30
0.0
 40
2.0
 50
90.0
 51
180.0
  0
LINE
  5
7E8F
  8
1
 10
801.9096669599212
 20
1122.3648360575951
 30
0.0
 11
801.9096669599212
 21
1132.3648360575951
 31
0.0
  0
LINE
  5
7E90
  8
1
 10
815.90966695992108
 20
1122.3648360575951
 30
0.0
 11
815.90966695992108
 21
1134.3648360575951
 31
0.0
  0
LINE
  5
7E91
  8
1
 10
827.9096669599212
 20
1134.3648360575951
 30
0.0
 11
827.9096669599212
 21
1122.3648360575951
 31
0.0
  0
LINE
  5
7E92
  8
1
 10
821.9096669599212
 20
1135.7453360575951
 30
0.0
 11
821.9096669599212
 21
1118.3982360575951
 31
0.0
  0
LINE
  5
7E93
  8
1
 10
841.90966695992108
 20
1122.3648360575951
 30
0.0
 11
841.90966695992108
 21
1132.3648360575951
 31
0.0
  0
LINE
  5
7E94
  8
2
 10
347.63594626065782
 20
1222.3648360575951
 30
0.0
 11
1031.2116924635859
 21
1222.3648360575951
 31
0.0
  0
LINE
  5
7E95
  8
1
 10
1742.4617778292611
 20
1322.3648360575939
 30
0.0
 11
1667.1220778292609
 21
1322.3648360575939
 31
0.0
  0
LINE
  5
7E96
  8
1
 10
1668.689027973305
 20
1122.364836057593
 30
0.0
 11
1658.46177782926
 21
1122.364836057593
 31
0.0
  0
LINE
  5
7E97
  8
1
 10
1659.46177782926
 20
1323.1648360575939
 30
0.0
 11
1659.46177782926
 21
1172.3648360575939
 31
0.0
  0
LINE
  5
7E98
  8
1
 10
1619.46177782926
 20
1126.3648360575939
 30
0.0
 11
1619.46177782926
 21
1321.6648360575939
 31
0.0
  0
LINE
  5
7E99
  8
1
 10
1569.46177782926
 20
1138.8119360575929
 30
0.0
 11
1569.46177782926
 21
1305.945736057593
 31
0.0
  0
LINE
  5
7E9A
  8
1
 10
1645.46177782926
 20
1163.3648360575939
 30
0.0
 11
1659.46177782926
 21
1172.3648360575939
 31
0.0
  0
LINE
  5
7E9B
  8
1
 10
1645.3622778292611
 20
1137.3648360575939
 30
0.0
 11
1663.46177782926
 21
1137.3648360575939
 31
0.0
  0
LINE
  5
7E9C
  8
1
 10
1619.46177782926
 20
1126.3648360575939
 30
0.0
 11
1570.8750778292599
 21
1137.0539360575931
 31
0.0
  0
ARC
  5
7E9D
  8
1
 10
1571.2615778292609
 20
1138.811736057593
 30
0.0
 40
1.7998000000000001
 50
179.99610000000001
 51
257.59829999999988
  0
LINE
  5
7E9E
  8
1
 10
1645.46177782926
 20
1125.364836057593
 30
0.0
 11
1645.46177782926
 21
1163.3648360575939
 31
0.0
  0
LINE
  5
7E9F
  8
1
 10
1645.46177782926
 20
1125.364836057593
 30
0.0
 11
1620.46177782926
 21
1125.364836057593
 31
0.0
  0
ARC
  5
7EA0
  8
1
 10
1620.4618778292599
 20
1126.3648360575939
 30
0.0
 40
1.0000999999999991
 50
180.0
 51
269.99650000000003
  0
LINE
  5
7EA1
  8
1
 10
1660.4357778292599
 20
1134.3905360575941
 30
0.0
 11
1673.1808937344899
 21
1134.5560619384839
 31
0.0
  0
ARC
  5
7EA2
  8
1
 10
1660.46177782926
 20
1132.3906360575929
 30
0.0
 40
2.0
 50
90.744900000000001
 51
179.99819999999991
  0
LINE
  5
7EA3
  8
1
 10
1658.46177782926
 20
1122.364836057593
 30
0.0
 11
1658.46177782926
 21
1132.390736057594
 31
0.0
  0
LINE
  5
7EA4
  8
1
 10
1666.46177782926
 20
1134.2496360575931
 30
0.0
 11
1666.46177782926
 21
1122.364836057593
 31
0.0
  0
LINE
  5
7EA5
  8
1
 10
1659.46177782926
 20
1323.1648360575939
 30
0.0
 11
1620.96177782926
 21
1323.1648360575939
 31
0.0
  0
LINE
  5
7EA6
  8
1
 10
1619.46177782926
 20
1319.3648360575939
 30
0.0
 11
1570.841677829261
 21
1307.696036057594
 31
0.0
  0
ARC
  5
7EA7
  8
1
 10
1571.26167782926
 20
1305.9458360575941
 30
0.0
 40
1.7999000000000001
 50
103.49339999999989
 51
180.00189999999989
  0
ARC
  5
7EA8
  8
1
 10
1620.96177782926
 20
1321.6648360575939
 30
0.0
 40
1.5
 50
90.0
 51
180.0
  0
LINE
  5
7EA9
  8
1
 10
1659.2934778292611
 20
1308.8055360575941
 30
0.0
 11
1667.1220778292609
 21
1322.3648360575939
 31
0.0
  0
LINE
  5
7EAB
  8
1
 10
1817.8014778292611
 20
1322.3648360575939
 30
0.0
 11
1826.4617778292611
 21
1307.3648360575939
 31
0.0
  0
LINE
  5
7EAC
  8
1
 10
1742.4617778292611
 20
1322.3648360575939
 30
0.0
 11
1817.8014778292611
 21
1322.3648360575939
 31
0.0
  0
LINE
  5
7EAD
  8
1
 10
1668.689027973305
 20
1122.364836057593
 30
0.0
 11
1619.93409839584
 21
1122.364836057593
 31
0.0
  0
LINE
  5
7EAE
  8
1
 10
1634.811177051826
 20
1030.4180694129041
 30
0.0
 11
1619.93409839584
 21
1063.876071507013
 31
0.0
  0
POLYLINE
  5
7EAF
  8
1
 66
     1
 10
0.0
 20
0.0
 30
0.0
  0
VERTEX
  5
8660
  8
1
 10
1619.93409839584
 20
1122.364836057593
 30
0.0
  0
VERTEX
  5
8661
  8
1
 10
1619.93409839584
 20
1063.87607150701
 30
0.0
  0
SEQEND
  5
8662
  8
1
  0
LINE
  5
7EB3
  8
1
 10
531.90966695992392
 20
1973.878580817362
 30
0.0
 11
531.90966695992483
 21
2272.878580817362
 31
0.0
  0
LINE
  5
7EB4
  8
1
 10
951.90966695992392
 20
1973.878580817362
 30
0.0
 11
951.90966695992392
 21
2283.8785808173602
 31
0.0
  0
LINE
  5
7EB5
  8
1
 10
494.2173787632837
 20
2253.878580817362
 30
0.0
 11
524.90966695992483
 21
2253.878580817362
 31
0.0
  0
CIRCLE
  5
7EB6
  8
1
 10
509.90966695992392
 20
2253.878580817362
 30
0.0
 40
6.0
  0
LINE
  5
7EB7
  8
1
 10
509.90966695992392
 20
2270.0132886999099
 30
0.0
 11
509.90966695992392
 21
2234.346209195468
 31
0.0
  0
LINE
  5
7EB8
  8
1
 10
989.60195515656335
 20
2003.878580817362
 30
0.0
 11
958.90966695992211
 21
2003.878580817362
 31
0.0
  0
CIRCLE
  5
7EB9
  8
1
 10
973.90966695992404
 20
2003.878580817362
 30
0.0
 40
6.0
  0
LINE
  5
7EBA
  8
1
 10
973.90966695992313
 20
2020.0132886999099
 30
0.0
 11
973.90966695992404
 21
1984.346209195468
 31
0.0
  0
CIRCLE
  5
7EBB
  8
1
 10
973.90966695992404
 20
2253.878580817362
 30
0.0
 40
6.0
  0
LINE
  5
7EBC
  8
1
 10
989.60195515656335
 20
2253.878580817362
 30
0.0
 11
958.90966695992211
 21
2253.878580817362
 31
0.0
  0
LINE
  5
7EBD
  8
1
 10
973.90966695992313
 20
2270.0132886999099
 30
0.0
 11
973.90966695992404
 21
2234.346209195468
 31
0.0
  0
LINE
  5
7EBE
  8
1
 10
763.03702739324581
 20
2292.8785808173639
 30
0.0
 11
949.90966695992665
 21
2292.878580817362
 31
0.0
  0
LINE
  5
7EBF
  8
1
 10
763.40966695977465
 20
2518.8785808173602
 30
0.0
 11
949.90966695992574
 21
2518.8785808173629
 31
0.0
  0
POLYLINE
  5
7EC0
  8
1
 66
     1
 10
0.0
 20
0.0
 30
0.0
  0
VERTEX
  5
8663
  8
1
 10
762.23996973975045
 20
2526.8785808173629
 30
0.0
  0
VERTEX
  5
8664
  8
1
 10
923.40966695992574
 20
2526.878580817362
 30
0.0
  0
SEQEND
  5
8665
  8
1
  0
LINE
  5
7EC4
  8
2
 10
385.42479227515469
 20
2405.878580817362
 30
0.0
 11
987.99322591708369
 21
2405.878580817362
 31
0.0
1001
ACAD
1000
ASC_BOUNDS
1002
{
1070
    19
1005
0
1005
0
1002
}
  0
ARC
  5
7EC5
  8
1
 10
949.90966695992574
 20
2503.878580817362
 30
0.0
 40
15.0
 50
0.0
 51
90.0
  0
LINE
  5
7EC6
  8
1
 10
964.90966695992665
 20
2307.878580817362
 30
0.0
 11
964.90966695992574
 21
2503.878580817362
 31
0.0
  0
ARC
  5
7EC7
  8
1
 10
949.90966695992665
 20
2307.878580817362
 30
0.0
 40
15.0
 50
270.0
 51
0.0
  0
LINE
  5
7EC8
  8
1
 10
924.40966695992665
 20
2292.8785808173629
 30
0.0
 11
924.40966695992665
 21
2285.878580817362
 31
0.0
  0
ARC
  5
7EC9
  8
1
 10
923.40966695992654
 20
2285.878580817362
 30
0.0
 40
1.0
 50
269.99999999999989
 51
0.0
  0
ARC
  5
7ECA
  8
1
 10
921.56424714791694
 20
2485.3047276654638
 30
0.0
 40
48.656384192584412
 50
123.50003366526479
 51
136.3683487231624
  0
ARC
  5
7ECB
  8
1
 10
925.40966695992574
 20
2519.878580817362
 30
0.0
 40
1.0
 50
180.0
 51
270.0
  0
ARC
  5
7ECC
  8
1
 10
922.40966695992574
 20
2524.878580817362
 30
0.0
 40
1.0
 50
0.0
 51
90.000000000000725
  0
ARC
  5
7ECD
  8
1
 10
923.40966695992574
 20
2525.878580817362
 30
0.0
 40
1.0
 50
0.0
 51
90.000000000000071
  0
LINE
  5
7ECE
  8
1
 10
923.40966695992756
 20
2518.8785808173639
 30
0.0
 11
923.40966695992574
 21
2524.8785808173639
 31
0.0
  0
LINE
  5
7ECF
  8
1
 10
924.40966695992563
 20
2519.878580817362
 30
0.0
 11
924.40966695992563
 21
2525.8785808173639
 31
0.0
  0
LINE
  5
7ED0
  8
1
 10
922.40966695992574
 20
2525.8785808173639
 30
0.0
 11
894.70896530049311
 21
2525.8785808173629
 31
0.0
  0
LINE
  5
7ED1
  8
1
 10
825.46256695992633
 20
1968.6062602507809
 30
0.0
 11
658.32876695992672
 21
1968.6062602507809
 31
0.0
  0
LINE
  5
7ED2
  8
1
 10
491.90966695992392
 20
2272.8785808173629
 30
0.0
 11
493.10966695992278
 21
2272.8785808173629
 31
0.0
1001
ACAD
1000
ASC_BOUNDS
1002
{
1070
    19
1002
}
  0
LINE
  5
7ED3
  8
1
 10
641.9096669599229
 20
2141.6062602507809
 30
0.0
 11
641.9096669599229
 21
2066.2665602507818
 31
0.0
  0
LINE
  5
7ED5
  8
1
 10
641.10966695992283
 20
2058.6062602507809
 30
0.0
 11
842.70966695992308
 21
2058.6062602507809
 31
0.0
  0
LINE
  5
7ED6
  8
1
 10
837.9096669599229
 20
2018.6062602507809
 30
0.0
 11
642.60966695992283
 21
2018.6062602507809
 31
0.0
  0
LINE
  5
7ED7
  8
1
 10
825.46256695992258
 20
1968.6062602507809
 30
0.0
 11
658.32876695992297
 21
1968.6062602507809
 31
0.0
  0
LINE
  5
7ED8
  8
1
 10
641.10966695992283
 20
2058.6062602507809
 30
0.0
 11
641.10966695992283
 21
2020.1062602507809
 31
0.0
  0
LINE
  5
7ED9
  8
1
 10
644.90966695992302
 20
2018.6062602507809
 30
0.0
 11
656.57846695992237
 21
1969.986160250781
 31
0.0
  0
ARC
  5
7EDA
  8
1
 10
658.32866695992277
 20
1970.4061602507811
 30
0.0
 40
1.7999000000000001
 50
193.49339999999989
 51
270.00189999999992
  0
ARC
  5
7EDB
  8
1
 10
642.60966695992283
 20
2020.1062602507809
 30
0.0
 40
1.5
 50
180.0
 51
270.0
  0
LINE
  5
7EDC
  8
1
 10
655.46896695992291
 20
2058.437960250782
 30
0.0
 11
641.9096669599229
 21
2066.2665602507818
 31
0.0
  0
LINE
  5
7EDD
  8
1
 10
659.90966695992302
 20
2263.6062602507809
 30
0.0
 11
823.90966695992313
 21
2263.6062602507809
 31
0.0
  0
LINE
  5
7EDE
  8
1
 10
755.90966695992302
 20
2274.6062602507818
 30
0.0
 11
755.90966695992302
 21
2279.4338263297382
 31
0.0
  0
LINE
  5
7EDF
  8
1
 10
641.9096669599229
 20
2216.9459602507818
 30
0.0
 11
656.90966695992302
 21
2225.6062602507809
 31
0.0
  0
LINE
  5
7EE0
  8
1
 10
641.9096669599229
 20
2141.6062602507809
 30
0.0
 11
641.9096669599229
 21
2216.9459602507818
 31
0.0
  0
LINE
  5
7EE1
  8
1
 10
826.90966695992302
 20
2228.6062602507809
 30
0.0
 11
656.90966695992302
 21
2228.6062602507809
 31
0.0
  0
LINE
  5
7EE2
  8
1
 10
778.90966695992302
 20
2269.6062602507809
 30
0.0
 11
704.9096669599229
 21
2269.6062602507809
 31
0.0
  0
ARC
  5
7EE3
  8
1
 10
778.90966695992302
 20
2266.6062602507809
 30
0.0
 40
2.9998999999999989
 50
359.99880000000002
 51
90.001199999999997
  0
LINE
  5
7EE4
  8
1
 10
781.90966695992302
 20
2263.6062602507809
 30
0.0
 11
781.90966695992302
 21
2266.6062602507809
 31
0.0
  0
LINE
  5
7EE5
  8
1
 10
756.50956695992306
 20
2269.6062602507809
 30
0.0
 11
756.50956695992306
 21
2274.6062602507818
 31
0.0
  0
LINE
  5
7EE6
  8
1
 10
727.30966695992265
 20
2269.6062602507809
 30
0.0
 11
727.30966695992265
 21
2274.6062602507818
 31
0.0
  0
ARC
  5
7EE7
  8
1
 10
659.90956695992281
 20
2260.6062602507809
 30
0.0
 40
2.9998999999999989
 50
89.998800000000074
 51
180.00120000000001
  0
LINE
  5
7EE8
  8
1
 10
656.90966695992302
 20
2228.6062602507809
 30
0.0
 11
656.90966695992302
 21
2260.6062602507809
 31
0.0
  0
LINE
  5
7EE9
  8
1
 10
656.90966695992302
 20
2228.6062602507809
 30
0.0
 11
656.90966695992302
 21
2225.6062602507809
 31
0.0
  0
ARC
  5
7EEA
  8
1
 10
704.9095669599227
 20
2266.6062602507809
 30
0.0
 40
2.9998999999999989
 50
89.998800000000074
 51
180.00120000000001
  0
LINE
  5
7EEB
  8
1
 10
701.90966695992302
 20
2263.6062602507809
 30
0.0
 11
701.90966695992302
 21
2266.6062602507809
 31
0.0
  0
LINE
  5
7EEC
  8
1
 10
838.9096669599229
 20
2018.6062602507809
 30
0.0
 11
827.24086695992264
 21
1969.986160250781
 31
0.0
  0
LINE
  5
7EED
  8
1
 10
842.70966695992308
 20
2058.6062602507809
 30
0.0
 11
842.70966695992308
 21
2020.1062602507809
 31
0.0
  0
ARC
  5
7EEE
  8
1
 10
825.49066695992315
 20
1970.4061602507811
 30
0.0
 40
1.7999000000000001
 50
269.99810000000002
 51
346.50659999999999
  0
ARC
  5
7EEF
  8
1
 10
841.2096669599232
 20
2020.1062602507809
 30
0.0
 40
1.5
 50
270.0
 51
0.0
  0
LINE
  5
7EF0
  8
1
 10
828.35036695992301
 20
2058.437960250782
 30
0.0
 11
841.90966695992302
 21
2066.2665602507818
 31
0.0
  0
LINE
  5
7EF1
  8
1
 10
826.90966695992302
 20
2228.6062602507809
 30
0.0
 11
826.90966695992302
 21
2225.6062602507809
 31
0.0
  0
LINE
  5
7EF2
  8
1
 10
841.90966695992302
 20
2216.9459602507818
 30
0.0
 11
826.90966695992302
 21
2225.6062602507809
 31
0.0
  0
LINE
  5
7EF3
  8
1
 10
826.90966695992302
 20
2228.6062602507809
 30
0.0
 11
826.90966695992302
 21
2260.6062602507809
 31
0.0
  0
ARC
  5
7EF4
  8
1
 10
823.90976695992322
 20
2260.6062602507809
 30
0.0
 40
2.9998999999999989
 50
359.9987999999999
 51
90.001199999999969
  0
LINE
  5
7EF5
  8
1
 10
841.90966695992302
 20
2216.9459602507809
 30
0.0
 11
841.90966695992302
 21
2066.2665602507818
 31
0.0
  0
POLYLINE
  5
7EF6
  8
1
 66
     1
 10
0.0
 20
0.0
 30
0.0
  0
VERTEX
  5
8666
  8
1
 10
762.23996973975045
 20
2284.8785808173611
 30
0.0
  0
VERTEX
  5
8667
  8
1
 10
923.40966695992654
 20
2284.878580817362
 30
0.0
  0
SEQEND
  5
8668
  8
1
  0
LINE
  5
7EFA
  8
1
 10
945.40966695992222
 20
1973.8785808173609
 30
0.0
 11
945.40966695992313
 21
2283.8785808173611
 31
0.0
  0
LINE
  5
7EFB
  8
1
 10
538.4096669599229
 20
1973.8785808173709
 30
0.0
 11
538.40966695992199
 21
2272.878580817362
 31
0.0
  0
POLYLINE
  5
7EFC
  8
1
 66
     1
 10
0.0
 20
0.0
 30
0.0
  0
VERTEX
  5
8669
  8
1
 10
538.40966695992199
 20
2022.2785808173619
 30
0.0
  0
VERTEX
  5
866A
  8
1
 10
641.10966695992283
 20
2022.2785808173619
 30
0.0
  0
SEQEND
  5
866B
  8
1
  0
POLYLINE
  5
7F00
  8
1
 66
     1
 10
0.0
 20
0.0
 30
0.0
  0
VERTEX
  5
866C
  8
1
 10
842.70966695992217
 20
2022.278580817361
 30
0.0
  0
VERTEX
  5
866D
  8
1
 10
945.40966695992222
 20
2022.2785808173601
 30
0.0
  0
SEQEND
  5
866E
  8
1
  0
LINE
  5
7F04
  8
1
 10
538.4096669599229
 20
1973.8785808173709
 30
0.0
 11
655.64428794532978
 21
1973.8785808173679
 31
0.0
  0
LINE
  5
7F05
  8
1
 10
828.17504597451432
 20
1973.8785808173641
 30
0.0
 11
945.40966695992108
 21
1973.8785808173609
 31
0.0
  0
POLYLINE
  5
7F06
  8
1
 66
     1
 10
0.0
 20
0.0
 30
0.0
  0
VERTEX
  5
866F
  8
1
 10
538.4096669599229
 20
2235.2785808173621
 30
0.0
  0
VERTEX
  5
8670
  8
1
 10
656.90966695992302
 20
2235.2785808173621
 30
0.0
  0
SEQEND
  5
8671
  8
1
  0
POLYLINE
  5
7F0A
  8
1
 66
     1
 10
0.0
 20
0.0
 30
0.0
  0
VERTEX
  5
8672
  8
1
 10
826.90966695992302
 20
2235.2785808173612
 30
0.0
  0
VERTEX
  5
8673
  8
1
 10
945.40966695992313
 20
2235.2785808173599
 30
0.0
  0
SEQEND
  5
8674
  8
1
  0
POLYLINE
  5
7F0E
  8
1
 66
     1
 10
0.0
 20
0.0
 30
0.0
  0
VERTEX
  5
8675
  8
1
 10
760.2399697397467
 20
2526.8785808173629
 30
0.0
  0
VERTEX
  5
8676
  8
1
 10
760.7399697398987
 20
2526.8785808173629
 30
0.0
  0
SEQEND
  5
8677
  8
1
  0
POLYLINE
  5
7F12
  8
1
 66
     1
 10
0.0
 20
0.0
 30
0.0
  0
VERTEX
  5
8678
  8
1
 10
760.13430097329717
 20
2284.8785808173611
 30
0.0
  0
VERTEX
  5
8679
  8
1
 10
762.23996973975045
 20
2284.8785808173611
 30
0.0
  0
SEQEND
  5
867A
  8
1
  0
LINE
  5
7F16
  8
1
 10
429.07689610311633
 20
2515.2062733130788
 30
0.0
 11
736.74243781672976
 21
2296.5508883216439
 31
0.0
  0
LINE
  5
7F17
  8
1
 10
736.74243781672976
 20
2515.2062733130788
 30
0.0
 11
429.07689610311633
 21
2296.5508883216439
 31
0.0
  0
LINE
  5
7F18
  8
1
 10
741.9096669599229
 20
2306.3266970538361
 30
0.0
 11
741.9096669599229
 21
2503.878580817362
 31
0.0
  0
LINE
  5
7F1A
  8
4
 10
2220.0
 20
515.35800967666626
 30
0.0
 11
2220.0
 21
275.35800967666631
 31
0.0
  0
LINE
  5
7F1B
  8
4
 10
1380.0
 20
515.35800967666626
 30
0.0
 11
1380.0
 21
275.35800967666631
 31
0.0
  0
LINE
  5
7F1C
  8
4
 10
780.0
 20
515.35800967666626
 30
0.0
 11
780.0
 21
275.35800967666631
 31
0.0
  0
LINE
  5
7F1F
  8
4
 10
780.0
 20
275.35800967666631
 30
0.0
 11
2220.0
 21
275.35800967666631
 31
0.0
  0
LINE
  5
7F20
  8
4
 10
780.0
 20
395.35800967666631
 30
0.0
 11
2220.0
 21
395.35800967666631
 31
0.0
  0
TEXT
  5
7F21
  8
4
 10
826.20249701628188
 20
433.20964071660183
 30
0.0
 40
60.0
  1
機器名称
  0
TEXT
  5
7F22
  8
4
 10
823.509727229757
 20
301.33219775507951
 30
0.0
 40
60.0
  1
機器型番
  0
TEXT
  5
7F23
  8
4
 10
1413.2144945851969
 20
422.44413242574859
 30
0.0
 40
60.0
  1
ミツヤ多翼送風機
  0
TEXT
  5
7F24
  8
4
 10
1423.9853947025761
 20
295.94951081259842
 30
0.0
 40
60.0
  1
MF#2-7
  0
TEXT
  5
7F26
  8
4
 10
973.1750838961724
 20
2860.1146095990189
 30
0.0
 40
64.799999999999997
  1
天枠防振ベット
  0
TEXT
  5
7F27
  8
4
 10
379.40111199533561
 20
3040.6571714391571
 30
0.0
 40
86.400000000000006
  1
遠心式片吸込直動形多翼ファン
  0
LINE
  5
7F28
  8
4
 10
300.0
 20
2963.2905051177659
 30
0.0
 11
2220.0
 21
2963.2905051177659
 31
0.0
  0
LINE
  5
7F29
  8
4
 10
300.0
 20
3203.290505117765
 30
0.0
 11
2220.0
 21
3203.290505117765
 31
0.0
  0
LINE
  5
7F2A
  8
4
 10
780.0
 20
515.35800967666626
 30
0.0
 11
2220.0
 21
515.35800967666626
 31
0.0
  0
LINE
  5
7F2B
  8
4
 10
300.0
 20
3203.290505117765
 30
0.0
 11
300.0
 21
2963.2905051177659
 31
0.0
  0
TEXT
  5
7F2C
  8
4
 10
450.14448520492982
 20
2858.7833730556122
 30
0.0
 40
64.799999999999997
  1
右回転上向
  0
TEXT
  5
7F2D
  8
4
 10
1762.763471099147
 20
3247.2732977943701
 30
0.0
 40
67.200000000000003
  1
No.
  0
TEXT
  5
7F2E
  8
4
 10
1573.555275120015
 20
2860.1146095990189
 30
0.0
 40
64.799999999999997
  1
縮尺：1/12
  0
LINE
  5
7F2F
  8
4
 10
2220.0
 20
3203.290505117765
 30
0.0
 11
2220.0
 21
2963.2905051177659
 31
0.0
  0
LINE
  5
7F30
  8
4
 10
2520.0
 20
3540.0
 30
0.0
 11
2520.0
 21
3540.0
 31
0.0
  0
LINE
  5
7F31
  8
4
 10
1728.740906831837
 20
3217.5162997504808
 30
0.0
 11
1728.740906831837
 21
3343.9827138597029
 31
0.0
  0
LINE
  5
7F32
  8
4
 10
1728.740906831837
 20
3343.9827138597029
 30
0.0
 11
2220.0
 21
3343.9827138597029
 31
0.0
  0
LINE
  5
7F33
  8
4
 10
2220.0
 20
3343.9827138597029
 30
0.0
 11
2220.0
 21
3217.5162997504808
 31
0.0
  0
LINE
  5
7F34
  8
4
 10
2220.0
 20
3217.5162997504808
 30
0.0
 11
1728.740906831837
 21
3217.5162997504808
 31
0.0
  0
LINE
  5
7F35
  8
4
 10
0.0
 20
0.0
 30
0.0
 11
0.0
 21
3540.0
 31
0.0
  0
LINE
  5
7F36
  8
4
 10
0.0
 20
3540.0
 30
0.0
 11
2520.0
 21
3540.0
 31
0.0
  0
LINE
  5
7F37
  8
4
 10
2520.0
 20
3540.0
 30
0.0
 11
2520.0
 21
0.0
 31
0.0
  0
LINE
  5
7F38
  8
4
 10
2520.0
 20
0.0
 30
0.0
 11
0.0
 21
0.0
 31
0.0
  0
DIMENSION
  5
7F5F
  8
3
  2
*D1
 10
741.90966695992847
 20
1578.762266944907
 30
0.0
 11
564.15110905941037
 21
1578.762266944907
 31
0.0
 70
   128
 13
426.90966695992478
 23
1472.364836057606
 33
0.0
 14
741.90966695992847
 24
1472.364836057596
 34
0.0
1001
ACAD
1000
DSTYLE
1002
{
1070
   287
1070
     3
1070
   287
1070
     3
1070
    40
1040
12.0
1070
   143
1040
0.039
1070
   172
1070
     1
1070
   271
1070
     0
1070
   279
1070
     0
1070
   288
1070
     1
1002
}
  0
DIMENSION
  5
7F6B
  8
3
  2
*D2
 10
963.90966695991756
 20
1578.762266944907
 30
0.0
 11
852.90966695992302
 21
1608.762266944907
 31
0.0
 70
     0
 13
741.90966695992847
 23
1472.364836057596
 33
0.0
 14
963.90966695991756
 24
1201.3648360575969
 34
0.0
1001
ACAD
1000
DSTYLE
1002
{
1070
   287
1070
     4
1070
   287
1070
     4
1070
    40
1040
12.0
1070
    75
1070
     1
1070
   143
1040
0.039
1070
   172
1070
     1
1070
   271
1070
     0
1070
   279
1070
     1
1070
   288
1070
     1
1002
}
  0
DIMENSION
  5
7F82
  8
3
  2
*D3
 10
1219.962473288942
 20
1222.3648360575951
 30
0.0
 11
1219.962473288942
 21
1349.382853027787
 31
0.0
 70
   128
 13
762.90966695992483
 23
1472.364836057596
 33
0.0
 14
1031.2116924635859
 24
1222.3648360575951
 34
0.0
 50
90.0
1001
ACAD
1000
DSTYLE
1002
{
1070
   287
1070
     3
1070
   287
1070
     3
1070
    40
1040
12.0
1070
   143
1040
0.039
1070
   172
1070
     1
1070
   271
1070
     0
1070
   279
1070
     0
1070
   288
1070
     1
1002
}
  0
DIMENSION
  5
7F99
  8
3
  2
*D4
 10
1219.962473288942
 20
867.36483605759531
 30
0.0
 11
1189.962473288942
 21
1044.8648360575951
 31
0.0
 70
     0
 13
1031.2116924635859
 23
1222.3648360575951
 33
0.0
 14
991.90966695993393
 24
867.36483605759531
 34
0.0
 50
90.0
1001
ACAD
1000
DSTYLE
1002
{
1070
   287
1070
     4
1070
   287
1070
     4
1070
    40
1040
12.0
1070
    75
1070
     1
1070
   143
1040
0.039
1070
   172
1070
     1
1070
   271
1070
     0
1070
   279
1070
     1
1070
   288
1070
     1
1002
}
  0
DIMENSION
  5
802D
  8
3
  2
*D6
 10
741.90966695992847
 20
680.04487493544718
 30
0.0
 11
608.12620514509206
 21
680.04487493544718
 31
0.0
 70
   128
 13
341.9096669599212
 23
805.36483605759531
 33
0.0
 14
741.90966695992847
 24
725.92695250727411
 34
0.0
1001
ACAD
1000
DSTYLE
1002
{
1070
   287
1070
     3
1070
   287
1070
     3
1070
    40
1040
12.0
1070
   143
1040
0.039
1070
   172
1070
     1
1070
   271
1070
     0
1070
   279
1070
     0
1070
   288
1070
     1
1002
}
  0
DIMENSION
  5
8039
  8
3
  2
*D7
 10
1141.909666959921
 20
680.04487493544718
 30
0.0
 11
941.90966695992483
 21
710.04487493544718
 31
0.0
 70
     0
 13
741.90966695992847
 23
725.92695250727411
 33
0.0
 14
1141.909666959921
 24
805.36483605759531
 34
0.0
1001
ACAD
1000
DSTYLE
1002
{
1070
   287
1070
     4
1070
   287
1070
     4
1070
    40
1040
12.0
1070
    75
1070
     1
1070
   143
1040
0.039
1070
   172
1070
     1
1070
   271
1070
     0
1070
   279
1070
     1
1070
   288
1070
     1
1002
}
  0
DIMENSION
  5
8061
  8
3
  2
*D8
 10
2118.734098395842
 20
1559.0636037872
 30
0.0
 11
2006.4014834983279
 21
1559.0636037872
 31
0.0
 70
   128
 13
1894.734098395842
 23
1471.1648360575971
 33
0.0
 14
2118.734098395842
 24
1471.1648360575971
 34
0.0
1001
ACAD
1000
DSTYLE
1002
{
1070
   287
1070
     3
1070
   287
1070
     3
1070
    40
1040
12.0
1070
   143
1040
0.039
1070
   172
1070
     1
1070
   271
1070
     0
1070
   279
1070
     0
1070
   288
1070
     1
1002
}
  0
DIMENSION
  5
8070
  8
3
  2
*D9
 10
2006.7340983958411
 20
1767.065749141969
 30
0.0
 11
2067.252263940582
 21
1767.065749141969
 31
0.0
 70
   128
 13
2127.7704294853229
 23
1405.034549478471
 33
0.0
 14
2006.7340983958411
 24
1615.3674644073039
 34
0.0
1001
ACAD
1000
DSTYLE
1002
{
1070
   287
1070
     3
1070
   287
1070
     3
1070
    40
1040
12.0
1070
   143
1040
0.039
1070
   172
1070
     1
1070
   271
1070
     0
1070
   279
1070
     0
1070
   288
1070
     1
1002
}
  0
DIMENSION
  5
8089
  8
3
  2
*D10
 10
1569.46177782926
 20
1767.065749141969
 30
0.0
 11
1788.0979381125501
 21
1756.4943205705399
 31
0.0
 70
   128
  1
(420)
 13
2006.7340983958411
 23
1615.3674644073039
 33
0.0
 14
1569.46177782926
 24
1305.945736057593
 34
0.0
1001
ACAD
1000
DSTYLE
1002
{
1070
   287
1070
     4
1070
   287
1070
     4
1070
    40
1040
12.0
1070
    75
1070
     1
1070
   143
1040
0.039
1070
   172
1070
     1
1070
   271
1070
     0
1070
   279
1070
     1
1070
   288
1070
     1
1002
}
  0
DIMENSION
  5
80AE
  8
3
  2
*D11
 10
2006.7340983958411
 20
676.92198596141952
 30
0.0
 11
1719.195143633224
 21
708.19739721873327
 31
0.0
 70
   128
 13
1471.7340983958411
 23
805.36483605759554
 33
0.0
 14
2006.7340983958411
 24
856.99318369024422
 34
0.0
1001
ACAD
1000
DSTYLE
1002
{
1070
   288
1070
     1
1070
   172
1070
     1
1070
    40
1040
12.0
1070
   271
1070
     0
1070
   143
1040
0.039
1002
}
  0
DIMENSION
  5
80F4
  8
3
  2
*D12
 10
2347.777534990244
 20
1064.8648360575939
 30
0.0
 11
2347.777534990244
 21
1223.6287239087981
 31
0.0
 70
   128
 13
2127.7340983958411
 23
1379.8648360575939
 33
0.0
 14
2127.7340983958411
 24
1064.8648360575939
 34
0.0
 50
90.0
1001
ACAD
1000
DSTYLE
1002
{
1070
   287
1070
     3
1070
   287
1070
     3
1070
     3
1000
φ<>
1070
    40
1040
12.0
1070
   143
1040
0.039
1070
   172
1070
     1
1070
   271
1070
     0
1070
   279
1070
     0
1070
   288
1070
     1
1002
}
  0
LINE
  5
813D
  8
1
 10
1894.734098395842
 20
1472.3648360575969
 30
0.0
 11
1894.734098395842
 21
1222.3648360575939
 31
0.0
  0
LINE
  5
813E
  8
1
 10
2118.734098395842
 20
1472.364836057596
 30
0.0
 11
2118.734098395842
 21
1222.3648360575939
 31
0.0
  0
LINE
  5
8156
  8
1
 10
539.20966695992036
 20
928.56483605759524
 30
0.0
 11
576.90966695992017
 21
928.56483605759524
 31
0.0
  0
LINE
  5
8157
  8
1
 10
906.90966695992108
 20
928.56483605759524
 30
0.0
 11
944.60966695992011
 21
928.56483605759524
 31
0.0
  0
LINE
  5
81B9
  8
1
 10
1061.909666959921
 20
845.3648360575952
 30
0.0
 11
421.9096669599212
 21
845.3648360575952
 31
0.0
  0
LINE
  5
81BE
  8
2
 10
741.90966695992483
 20
1874.698554142097
 30
0.0
 11
741.90966695992483
 21
2546.879933263328
 31
0.0
  0
LINE
  5
81C0
  8
1
 10
1141.909666959921
 20
805.36483605759531
 30
0.0
 11
1141.909666959921
 21
1705.3648360575951
 31
0.0
  0
LINE
  5
81C1
  8
1
 10
341.9096669599212
 20
805.36483605759497
 30
0.0
 11
341.9096669599212
 21
1705.3648360575951
 31
0.0
  0
LINE
  5
81C2
  8
1
 10
1141.909666959921
 20
805.36483605759531
 30
0.0
 11
341.9096669599212
 21
805.36483605759531
 31
0.0
  0
LINE
  5
81C3
  8
1
 10
381.9096669599212
 20
885.36483605759486
 30
0.0
 11
381.9096669599212
 21
1625.3648360575951
 31
0.0
  0
LINE
  5
81C4
  8
1
 10
1101.909666959921
 20
885.3648360575952
 30
0.0
 11
1101.909666959921
 21
1625.3648360575951
 31
0.0
  0
LINE
  5
81C5
  8
1
 10
1141.909666959921
 20
1705.3648360575951
 30
0.0
 11
341.9096669599212
 21
1705.3648360575951
 31
0.0
  0
LINE
  5
81C6
  8
1
 10
1061.9096669599201
 20
1665.3648360575951
 30
0.0
 11
421.90966695992068
 21
1665.3648360575951
 31
0.0
  0
LINE
  5
81C7
  8
1
 10
1141.909666959921
 20
885.3648360575952
 30
0.0
 11
1101.909666959921
 21
885.3648360575952
 31
0.0
  0
LINE
  5
81C8
  8
1
 10
1061.909666959921
 20
805.36483605759531
 30
0.0
 11
1061.909666959921
 21
845.3648360575952
 31
0.0
  0
LINE
  5
81C9
  8
1
 10
1101.909666959921
 20
885.3648360575952
 30
0.0
 11
1061.909666959921
 21
845.3648360575952
 31
0.0
  0
LINE
  5
81CA
  8
1
 10
1061.909666959921
 20
1705.3648360575951
 30
0.0
 11
1061.909666959921
 21
1665.3648360575951
 31
0.0
  0
LINE
  5
81CB
  8
1
 10
1101.909666959921
 20
1625.3648360575951
 30
0.0
 11
1061.909666959921
 21
1665.3648360575951
 31
0.0
  0
LINE
  5
81CC
  8
1
 10
1141.909666959921
 20
1625.3648360575951
 30
0.0
 11
1101.909666959921
 21
1625.3648360575951
 31
0.0
  0
LINE
  5
81CD
  8
1
 10
381.9096669599212
 20
885.3648360575952
 30
0.0
 11
421.9096669599212
 21
845.3648360575952
 31
0.0
  0
LINE
  5
81CE
  8
1
 10
421.9096669599212
 20
805.36483605759531
 30
0.0
 11
421.90966695992068
 21
845.3648360575952
 31
0.0
  0
LINE
  5
81CF
  8
1
 10
341.9096669599212
 20
885.3648360575952
 30
0.0
 11
381.9096669599212
 21
885.3648360575952
 31
0.0
  0
LINE
  5
81D0
  8
1
 10
421.9096669599212
 20
1705.3648360575951
 30
0.0
 11
421.90966695992068
 21
1665.3648360575951
 31
0.0
  0
LINE
  5
81D1
  8
1
 10
381.9096669599212
 20
1625.3648360575951
 30
0.0
 11
421.9096669599212
 21
1665.3648360575951
 31
0.0
  0
LINE
  5
81D2
  8
1
 10
341.9096669599212
 20
1625.3648360575951
 30
0.0
 11
381.9096669599212
 21
1625.3648360575951
 31
0.0
  0
LINE
  5
81D3
  8
1
 10
2271.734098395842
 20
1705.3648360575951
 30
0.0
 11
2271.7340983958402
 21
805.36483605759497
 31
0.0
1001
ACAD
1000
ASC_BOUNDS
1002
{
1070
    19
1002
}
  0
LINE
  5
81D4
  8
1
 10
1471.7340983958411
 20
1705.3648360575951
 30
0.0
 11
1471.7340983958411
 21
805.36483605759531
 31
0.0
1001
ACAD
1000
ASC_BOUNDS
1002
{
1070
    19
1002
}
  0
LINE
  5
81D5
  8
1
 10
1511.7340983958411
 20
1625.3648360575939
 30
0.0
 11
1511.7340983958411
 21
885.36483605759588
 31
0.0
1001
ACAD
1000
ASC_BOUNDS
1002
{
1070
    19
1002
}
  0
LINE
  5
81D6
  8
1
 10
2231.734098395842
 20
1625.3648360575939
 30
0.0
 11
2231.7340983958402
 21
885.3648360575952
 31
0.0
1001
ACAD
1000
ASC_BOUNDS
1002
{
1070
    19
1002
}
  0
LINE
  5
81D7
  8
1
 10
2271.734098395842
 20
1705.3648360575951
 30
0.0
 11
1471.7340983958411
 21
1705.3648360575951
 31
0.0
  0
LINE
  5
81D8
  8
1
 10
2191.7340983958402
 20
1665.3648360575951
 30
0.0
 11
1551.734098395842
 21
1665.3648360575951
 31
0.0
  0
LINE
  5
81D9
  8
1
 10
2271.7340983958411
 20
805.36483605759531
 30
0.0
 11
1471.7340983958411
 21
805.36483605759554
 31
0.0
  0
LINE
  5
81DA
  8
1
 10
2191.7340983958402
 20
845.3648360575952
 30
0.0
 11
1551.734098395842
 21
845.3648360575952
 31
0.0
  0
LINE
  5
81DB
  8
1
 10
2271.7340983958411
 20
885.3648360575952
 30
0.0
 11
2231.7340983958402
 21
885.36483605759565
 31
0.0
  0
LINE
  5
81DC
  8
1
 10
2191.7340983958402
 20
845.3648360575952
 30
0.0
 11
2191.7340983958402
 21
805.36483605759531
 31
0.0
1001
ACAD
1000
ASC_BOUNDS
1002
{
1070
    19
1002
}
  0
LINE
  5
81DD
  8
1
 10
2231.7340983958402
 20
885.3648360575952
 30
0.0
 11
2191.7340983958402
 21
845.3648360575952
 31
0.0
  0
LINE
  5
81DE
  8
1
 10
2271.7340983958411
 20
1625.3648360575951
 30
0.0
 11
2231.7340983958402
 21
1625.3648360575951
 31
0.0
  0
LINE
  5
81DF
  8
1
 10
2191.7340983958402
 20
1665.3648360575951
 30
0.0
 11
2191.7340983958402
 21
1705.3648360575951
 31
0.0
1001
ACAD
1000
ASC_BOUNDS
1002
{
1070
    19
1002
}
  0
LINE
  5
81E0
  8
1
 10
2231.7340983958402
 20
1625.3648360575951
 30
0.0
 11
2191.7340983958402
 21
1665.3648360575951
 31
0.0
  0
LINE
  5
81E1
  8
1
 10
1471.734098395842
 20
885.3648360575952
 30
0.0
 11
1511.734098395842
 21
885.36483605759565
 31
0.0
  0
LINE
  5
81E2
  8
1
 10
1551.734098395842
 20
845.3648360575952
 30
0.0
 11
1551.734098395842
 21
805.36483605759531
 31
0.0
1001
ACAD
1000
ASC_BOUNDS
1002
{
1070
    19
1002
}
  0
LINE
  5
81E3
  8
1
 10
1511.734098395842
 20
885.3648360575952
 30
0.0
 11
1551.734098395842
 21
845.3648360575952
 31
0.0
  0
LINE
  5
81E4
  8
1
 10
1551.734098395842
 20
1665.3648360575951
 30
0.0
 11
1551.734098395842
 21
1705.3648360575951
 31
0.0
1001
ACAD
1000
ASC_BOUNDS
1002
{
1070
    19
1002
}
  0
LINE
  5
81E5
  8
1
 10
1471.734098395842
 20
1625.3648360575951
 30
0.0
 11
1511.734098395842
 21
1625.3648360575951
 31
0.0
  0
LINE
  5
81E6
  8
1
 10
1511.734098395842
 20
1625.3648360575951
 30
0.0
 11
1551.734098395842
 21
1665.3648360575951
 31
0.0
  0
LINE
  5
81E7
  8
1
 10
1141.9096669599239
 20
1870.878580817362
 30
0.0
 11
1141.9096669599239
 21
2670.878580817362
 31
0.0
  0
LINE
  5
81E8
  8
1
 10
341.90966695992478
 20
1870.878580817362
 30
0.0
 11
341.90966695992478
 21
2670.878580817362
 31
0.0
  0
LINE
  5
81E9
  8
1
 10
341.90966695992478
 20
1870.878580817362
 30
0.0
 11
1141.9096669599239
 21
1870.878580817362
 31
0.0
1001
ACAD
1000
ASC_BOUNDS
1002
{
1070
    19
1002
}
  0
LINE
  5
81EA
  8
1
 10
341.90966695992478
 20
2670.878580817362
 30
0.0
 11
1141.9096669599239
 21
2670.878580817362
 31
0.0
1001
ACAD
1000
ASC_BOUNDS
1002
{
1070
    19
1002
}
  0
LINE
  5
81EB
  8
1
 10
381.90966695992478
 20
1910.878580817362
 30
0.0
 11
381.90966695992478
 21
2630.878580817362
 31
0.0
  0
LINE
  5
81EC
  8
1
 10
381.90966695992478
 20
2630.878580817362
 30
0.0
 11
1101.9096669599239
 21
2630.878580817362
 31
0.0
1001
ACAD
1000
ASC_BOUNDS
1002
{
1070
    19
1002
}
  0
LINE
  5
81ED
  8
1
 10
1101.9096669599239
 20
1910.878580817362
 30
0.0
 11
1101.9096669599239
 21
2630.878580817362
 31
0.0
  0
LINE
  5
81EE
  8
1
 10
381.90966695992478
 20
1910.878580817362
 30
0.0
 11
1101.9096669599239
 21
1910.878580817362
 31
0.0
1001
ACAD
1000
ASC_BOUNDS
1002
{
1070
    19
1002
}
  0
DIMENSION
  5
823E
  8
3
  2
*D13
 10
1219.962473288942
 20
845.3648360575952
 30
0.0
 11
1277.391044717514
 21
856.36483605759531
 31
0.0
 12
0.0
 22
-195.50295471726341
 32
0.0
 70
     0
  1
(<>)
 13
991.90966695993393
 23
867.36483605759531
 33
0.0
 14
1061.909666959921
 24
845.3648360575952
 34
0.0
 50
90.0
1001
ACAD
1000
DSTYLE
1002
{
1070
   288
1070
     1
1070
   172
1070
     1
1070
    75
1070
     1
1070
    40
1040
12.0
1070
   271
1070
     0
1070
     7
1000
_DOT
1070
   143
1040
0.039
1002
}
  0
DIMENSION
  5
824E
  8
3
  2
*D14
 10
1219.962473288942
 20
805.36483605759531
 30
0.0
 11
1189.962473288942
 21
716.22197891473832
 31
0.0
 70
     0
 13
1061.909666959921
 23
845.3648360575952
 33
0.0
 14
1141.909666959921
 24
805.36483605759531
 34
0.0
 50
90.0
1001
ACAD
1000
DSTYLE
1002
{
1070
   287
1070
     3
1070
   287
1070
     3
1070
    40
1040
12.0
1070
   143
1040
0.039
1070
   172
1070
     1
1070
   271
1070
     0
1070
   279
1070
     0
1070
   288
1070
     1
1070
     6
1000
DOT
1002
}
  0
DIMENSION
  5
82BA
  8
3
  2
*D15
 10
2271.7340983958402
 20
676.92198596141952
 30
0.0
 11
2139.2340983958402
 21
706.92198596141952
 31
0.0
 70
     0
 13
2006.7340983958411
 23
856.99318369024422
 33
0.0
 14
2271.7340983958402
 24
805.36483605759531
 34
0.0
1001
ACAD
1000
DSTYLE
1002
{
1070
   287
1070
     4
1070
   287
1070
     4
1070
    40
1040
12.0
1070
    75
1070
     1
1070
   143
1040
0.039
1070
   172
1070
     1
1070
   271
1070
     0
1070
   279
1070
     1
1070
   288
1070
     1
1002
}
  0
DIMENSION
  5
82E2
  8
3
  2
*D16
 10
1378.9976077051381
 20
805.36483605759554
 30
0.0
 11
1378.9976077051369
 21
1229.0597930215829
 31
0.0
 70
   128
 13
1471.7340983958411
 23
1705.3648360575951
 33
0.0
 14
1471.7340983958411
 24
805.36483605759554
 34
0.0
 50
90.0
1001
ACAD
1000
DSTYLE
1002
{
1070
   287
1070
     3
1070
   287
1070
     3
1070
    40
1040
12.0
1070
   143
1040
0.039
1070
   172
1070
     1
1070
   271
1070
     0
1070
   279
1070
     0
1070
   288
1070
     1
1002
}
  0
DIMENSION
  5
82EF
  8
3
  2
*D17
 10
1141.9096669599239
 20
2771.568046688632
 30
0.0
 11
758.19964253033504
 21
2771.568046688632
 31
0.0
 70
   128
 13
341.90966695992478
 23
2670.878580817362
 33
0.0
 14
1141.9096669599239
 24
2670.878580817362
 34
0.0
1001
ACAD
1000
DSTYLE
1002
{
1070
   287
1070
     3
1070
   287
1070
     3
1070
    40
1040
12.0
1070
   143
1040
0.039
1070
   172
1070
     1
1070
   271
1070
     0
1070
   279
1070
     0
1070
   288
1070
     1
1002
}
  0
DIMENSION
  5
82FC
  8
3
  2
*D18
 10
1315.8279476524531
 20
1870.878580817362
 30
0.0
 11
1315.8279476524531
 21
2279.7041384174522
 31
0.0
 70
   128
 13
1141.9096669599239
 23
2670.878580817362
 33
0.0
 14
1141.9096669599239
 24
1870.878580817362
 34
0.0
 50
90.0
1001
ACAD
1000
DSTYLE
1002
{
1070
   287
1070
     3
1070
   287
1070
     3
1070
    40
1040
12.0
1070
   143
1040
0.039
1070
   172
1070
     1
1070
   271
1070
     0
1070
   279
1070
     0
1070
   288
1070
     1
1002
}
  0
ENDSEC
  0
EOF
