  0
SECTION
  2
HEADER
  9
$ACADVER
  1
AC1009
  9
$INSBASE
 10
0.0
 20
0.0
 30
0.0
  9
$EXTMIN
 10
0.0
 20
0.0
 30
0.0
  9
$EXTMAX
 10
2520.0
 20
3540.0
 30
0.0
  9
$LIMMIN
 10
0.0
 20
0.0
  9
$LIMMAX
 10
297.0
 20
210.0
  9
$ORTHOMODE
 70
     1
  9
$REGENMODE
 70
     1
  9
$FILLMODE
 70
     0
  9
$QTEXTMODE
 70
     0
  9
$MIRRTEXT
 70
     1
  9
$DRAGMODE
 70
     2
  9
$LTSCALE
 40
100.0
  9
$OSMODE
 70
   545
  9
$ATTMODE
 70
     1
  9
$TEXTSIZE
 40
180.0
  9
$TRACEWID
 40
0.05
  9
$TEXTSTYLE
  7
STANDARD
  9
$CLAYER
  8
3
  9
$CELTYPE
  6
BYLAYER
  9
$CECOLOR
 62
   256
  9
$DIMSCALE
 40
12.0
  9
$DIMASZ
 40
2.0
  9
$DIMEXO
 40
0.5
  9
$DIMDLI
 40
10.0
  9
$DIMRND
 40
0.0
  9
$DIMDLE
 40
0.0
  9
$DIMEXE
 40
1.0
  9
$DIMTP
 40
1.0
  9
$DIMTM
 40
1.0
  9
$DIMTXT
 40
3.0
  9
$DIMCEN
 40
0.0
  9
$DIMTSZ
 40
0.0
  9
$DIMTOL
 70
     0
  9
$DIMLIM
 70
     0
  9
$DIMTIH
 70
     0
  9
$DIMTOH
 70
     0
  9
$DIMSE1
 70
     0
  9
$DIMSE2
 70
     0
  9
$DIMTAD
 70
     1
  9
$DIMZIN
 70
     8
  9
$DIMBLK
  1

  9
$DIMASO
 70
     1
  9
$DIMSHO
 70
     1
  9
$DIMPOST
  1

  9
$DIMAPOST
  1

  9
$DIMALT
 70
     0
  9
$DIMALTD
 70
     2
  9
$DIMALTF
 40
0.039
  9
$DIMLFAC
 40
1.0
  9
$DIMTOFL
 70
     1
  9
$DIMTVP
 40
0.0
  9
$DIMTIX
 70
     0
  9
$DIMSOXD
 70
     0
  9
$DIMSAH
 70
     1
  9
$DIMBLK1
  1
OPEN
  9
$DIMBLK2
  1
OPEN
  9
$DIMSTYLE
  2
IGA
  9
$DIMCLRD
 70
     0
  9
$DIMCLRE
 70
     0
  9
$DIMCLRT
 70
     0
  9
$DIMTFAC
 40
10.0
  9
$DIMGAP
 40
1.0
  9
$LUNITS
 70
     2
  9
$LUPREC
 70
     3
  9
$SKETCHINC
 40
0.1
  9
$FILLETRAD
 40
50.0
  9
$AUNITS
 70
     0
  9
$AUPREC
 70
     0
  9
$MENU
  1
acad
  9
$ELEVATION
 40
0.0
  9
$PELEVATION
 40
0.0
  9
$THICKNESS
 40
0.0
  9
$LIMCHECK
 70
     0
  9
$BLIPMODE
 70
     0
  9
$CHAMFERA
 40
0.0
  9
$CHAMFERB
 40
0.0
  9
$SKPOLY
 70
     0
  9
$TDCREATE
 40
2452824.5915310178
  9
$TDUPDATE
 40
2454953.8260818049
  9
$TDINDWG
 40
0.062564213
  9
$TDUSRTIMER
 40
0.062564213
  9
$USRTIMER
 70
     1
  9
$ANGBASE
 50
0.0
  9
$ANGDIR
 70
     0
  9
$PDMODE
 70
     0
  9
$PDSIZE
 40
0.0
  9
$PLINEWID
 40
0.0
  9
$COORDS
 70
     2
  9
$SPLFRAME
 70
     0
  9
$SPLINETYPE
 70
     6
  9
$SPLINESEGS
 70
     8
  9
$ATTDIA
 70
     0
  9
$ATTREQ
 70
     1
  9
$HANDLING
 70
 22529
  9
$HANDSEED
  5
8B3A
  9
$SURFTAB1
 70
     6
  9
$SURFTAB2
 70
     6
  9
$SURFTYPE
 70
     6
  9
$SURFU
 70
     6
  9
$SURFV
 70
     6
  9
$UCSNAME
  2

  9
$UCSORG
 10
0.0
 20
0.0
 30
0.0
  9
$UCSXDIR
 10
1.0
 20
0.0
 30
0.0
  9
$UCSYDIR
 10
0.0
 20
1.0
 30
0.0
  9
$PUCSNAME
  2

  9
$PUCSORG
 10
0.0
 20
0.0
 30
0.0
  9
$PUCSXDIR
 10
1.0
 20
0.0
 30
0.0
  9
$PUCSYDIR
 10
0.0
 20
1.0
 30
0.0
  9
$USERI1
 70
     0
  9
$USERI2
 70
     0
  9
$USERI3
 70
     0
  9
$USERI4
 70
     0
  9
$USERI5
 70
     0
  9
$USERR1
 40
0.0
  9
$USERR2
 40
0.0
  9
$USERR3
 40
0.0
  9
$USERR4
 40
0.0
  9
$USERR5
 40
0.0
  9
$WORLDVIEW
 70
     1
  9
$SHADEDGE
 70
     3
  9
$SHADEDIF
 70
    70
  9
$TILEMODE
 70
     1
  9
$MAXACTVP
 70
    16
  9
$PLIMCHECK
 70
     0
  9
$PEXTMIN
 10
1.0000000000000000E+020
 20
1.0000000000000000E+020
 30
1.0000000000000000E+020
  9
$PEXTMAX
 10
-1.0000000000000000E+020
 20
-1.0000000000000000E+020
 30
-1.0000000000000000E+020
  9
$PLIMMIN
 10
0.0
 20
0.0
  9
$PLIMMAX
 10
12.0
 20
9.0
  9
$UNITMODE
 70
     0
  9
$VISRETAIN
 70
     0
  9
$PLINEGEN
 70
     0
  9
$PSLTSCALE
 70
     1
  0
ENDSEC
  0
SECTION
  2
TABLES
  0
TABLE
  2
VPORT
 70
     2
  0
VPORT
  2
*ACTIVE
 70
     0
 10
0.0
 20
0.0
 11
1.0
 21
1.0
 12
1956.477768331881
 22
2222.4519244514722
 13
0.0
 23
0.0
 14
10.0
 24
10.0
 15
10.0
 25
10.0
 16
0.0
 26
0.0
 36
1.0
 17
0.0
 27
0.0
 37
0.0
 40
4691.6277837732214
 41
1.6307901907356941
 42
50.0
 43
0.0
 44
0.0
 50
0.0
 51
0.0
 71
     0
 72
   100
 73
     1
 74
     0
 75
     0
 76
     0
 77
     0
 78
     0
  0
ENDTAB
  0
TABLE
  2
LTYPE
 70
     2
  0
LTYPE
  2
CONTINUOUS
 70
     0
  3
Solid line
 72
    65
 73
     0
 40
0.0
  0
LTYPE
  2
CENTER
 70
     0
  3
____ _ ____ _ ____ _ ____ _ ____ _ ____ _ ____ 
 72
    65
 73
     4
 40
2.0
 49
1.25
 49
-0.25
 49
0.25
 49
-0.25
  0
ENDTAB
  0
TABLE
  2
LAYER
 70
     6
  0
LAYER
  2
0
 70
     0
 62
     7
  6
CONTINUOUS
  0
LAYER
  2
3
 70
     0
 62
     2
  6
CONTINUOUS
  0
LAYER
  2
2
 70
     0
 62
     3
  6
CENTER
  0
LAYER
  2
1
 70
     0
 62
     4
  6
CONTINUOUS
  0
LAYER
  2
4
 70
     0
 62
     7
  6
CONTINUOUS
  0
LAYER
  2
DEFPOINTS
 70
     0
 62
     7
  6
CONTINUOUS
  0
ENDTAB
  0
TABLE
  2
STYLE
 70
     1
  0
STYLE
  2
STANDARD
 70
     0
 40
0.0
 41
1.0
 50
0.0
 71
     0
 42
180.0
  3
simplex.shx
  4
extfont.shx
  0
ENDTAB
  0
TABLE
  2
VIEW
 70
     0
  0
ENDTAB
  0
TABLE
  2
UCS
 70
     0
  0
ENDTAB
  0
TABLE
  2
APPID
 70
     1
  0
APPID
  2
ACAD
 70
     0
  0
ENDTAB
  0
TABLE
  2
DIMSTYLE
 70
     1
  0
DIMSTYLE
  2
IGA
 70
     0
  3

  4

  5

  6
OPEN
  7
OPEN
 40
2.0
 41
2.0
 42
0.5
 43
10.0
 44
1.0
 45
0.0
 46
0.0
 47
1.0
 48
1.0
140
3.0
141
0.0
142
0.0
143
0.03937
144
1.0
145
0.0
146
10.0
147
1.0
 71
     0
 72
     0
 73
     0
 74
     0
 75
     0
 76
     0
 77
     1
 78
     8
170
     0
171
     2
172
     0
173
     1
174
     0
175
     0
176
     0
177
     0
178
     0
  0
ENDTAB
  0
ENDSEC
  0
SECTION
  2
BLOCKS
  0
BLOCK
  8
0
  2
$MODEL_SPACE
 70
     0
 10
0.0
 20
0.0
 30
0.0
  3
$MODEL_SPACE
  1

  0
ENDBLK
  5
1B
  8
0
  0
BLOCK
 67
     1
  8
0
  2
$PAPER_SPACE
 70
     0
 10
0.0
 20
0.0
 30
0.0
  3
$PAPER_SPACE
  1

  0
ENDBLK
  5
18
 67
     1
  8
0
  0
BLOCK
  8
0
  2
_OPEN
 70
     0
 10
0.0
 20
0.0
 30
0.0
  3
_OPEN
  1

  0
LINE
  5
79FD
  8
0
  6
BYBLOCK
 62
     0
 10
-1.0
 20
0.1666666666666666
 30
0.0
 11
0.0
 21
0.0
 31
0.0
  0
LINE
  5
79FE
  8
0
  6
BYBLOCK
 62
     0
 10
0.0
 20
0.0
 30
0.0
 11
-1.0
 21
-0.1666666666666666
 31
0.0
  0
LINE
  5
79FF
  8
0
  6
BYBLOCK
 62
     0
 10
0.0
 20
0.0
 30
0.0
 11
-1.0
 21
0.0
 31
0.0
  0
ENDBLK
  5
7A01
  8
0
  0
BLOCK
  8
0
  2
*D1
 70
     1
 10
0.0
 20
0.0
 30
0.0
  3
*D1
  1

  0
LINE
  5
8A86
  8
3
 62
     0
 10
997.90966695993211
 20
1536.133687006653
 30
0.0
 11
1252.3245551304231
 21
1536.133687006653
 31
0.0
  0
LINE
  5
8A87
  8
3
 62
     0
 10
997.90966695992256
 20
1221.1336870066491
 30
0.0
 11
1252.3245551304219
 21
1221.1336870066491
 31
0.0
  0
LINE
  5
8A88
  8
3
 62
     0
 10
1240.3245551304219
 20
1512.133687006653
 30
0.0
 11
1240.3245551304219
 21
1245.1336870066491
 31
0.0
  0
INSERT
  5
8A89
  8
3
 62
     0
  2
_OPEN
 10
1240.3245551304231
 20
1536.133687006653
 30
0.0
 41
24.0
 42
24.0
 43
24.0
 50
90.0
  0
INSERT
  5
8A8A
  8
3
 62
     0
  2
_OPEN
 10
1240.3245551304219
 20
1221.1336870066491
 30
0.0
 41
24.0
 42
24.0
 43
24.0
 50
270.0
  0
TEXT
  8
3
  40
36
  5
8B2B
  62
0
  72
0
  71
0
 10
1138.32
 20
1335.17
 30
0.000000
  1
315
  0
POINT
  5
8A8C
  8
DEFPOINTS
 62
     0
 10
991.90966695993211
 20
1536.133687006653
 30
0.0
  0
POINT
  5
8A8D
  8
DEFPOINTS
 62
     0
 10
991.90966695992245
 20
1221.1336870066491
 30
0.0
  0
POINT
  5
8A8E
  8
DEFPOINTS
 62
     0
 10
1240.3245551304219
 20
1221.1336870066491
 30
0.0
  0
ENDBLK
  5
844F
  8
0
  0
BLOCK
  8
0
  2
*D2
 70
     1
 10
0.0
 20
0.0
 30
0.0
  3
*D2
  1

  0
LINE
  5
8A8F
  8
3
 62
     0
 10
1037.2116924635859
 20
1221.1336870066571
 30
0.0
 11
1255.1959933284611
 21
1221.1336870066571
 31
0.0
  0
LINE
  5
8A90
  8
3
 62
     0
 10
997.90966695993393
 20
866.13368700665706
 30
0.0
 11
1255.1959933284611
 21
866.13368700665706
 31
0.0
  0
LINE
  5
8A91
  8
3
 62
     0
 10
1243.1959933284611
 20
1197.1336870066571
 30
0.0
 11
1243.1959933284611
 21
890.13368700665706
 31
0.0
  0
INSERT
  5
8A92
  8
3
 62
     0
  2
_OPEN
 10
1243.1959933284611
 20
1221.1336870066571
 30
0.0
 41
24.0
 42
24.0
 43
24.0
 50
90.0
  0
INSERT
  5
8A93
  8
3
 62
     0
  2
_OPEN
 10
1243.1959933284611
 20
866.13368700665706
 30
0.0
 41
24.0
 42
24.0
 43
24.0
 50
270.0
  0
TEXT
  8
3
  40
36
  5
8B2C
  62
0
  72
0
  71
0
 10
1141.20
 20
979.914
 30
0.000000
  1
355
  0
POINT
  5
8A95
  8
DEFPOINTS
 62
     0
 10
1031.2116924635859
 20
1221.1336870066571
 30
0.0
  0
POINT
  5
8A96
  8
DEFPOINTS
 62
     0
 10
991.90966695993393
 20
866.13368700665706
 30
0.0
  0
POINT
  5
8A97
  8
DEFPOINTS
 62
     0
 10
1243.1959933284611
 20
866.13368700665706
 30
0.0
  0
ENDBLK
  5
8444
  8
0
  0
BLOCK
  8
0
  2
_DOT
 70
     0
 10
0.0
 20
0.0
 30
0.0
  3
_DOT
  1

  0
LINE
  5
811D
  8
0
  6
BYBLOCK
 62
     0
 10
0.0
 20
0.0
 30
0.0
 11
-1.0
 21
-0.0000000000000284
 31
0.0
  0
POLYLINE
  5
811E
  8
0
  6
BYBLOCK
 62
     0
 66
     1
 10
0.0
 20
0.0
 30
0.0
 70
     1
 40
0.1666666666666666
 41
0.1666666666666666
  0
VERTEX
  5
8ACC
  8
0
  6
BYBLOCK
 62
     0
 10
-0.0833333333333286
 20
-0.0000000000000284
 30
0.0
 42
1.0
  0
VERTEX
  5
8ACD
  8
0
  6
BYBLOCK
 62
     0
 10
0.0833333333333286
 20
-0.0000000000000284
 30
0.0
 42
1.0
  0
SEQEND
  5
8ACE
  8
0
  6
BYBLOCK
 62
     0
  0
ENDBLK
  5
8007
  8
0
  0
BLOCK
  8
0
  2
*D4
 70
     1
 10
0.0
 20
0.0
 30
0.0
  3
*D4
  1

  0
LINE
  5
8A98
  8
3
 62
     0
 10
341.90966695992842
 20
798.13368700665706
 30
0.0
 11
341.90966695992842
 21
672.41099067504183
 31
0.0
  0
LINE
  5
8A99
  8
3
 62
     0
 10
741.90966695992847
 20
771.02042679365422
 30
0.0
 11
741.90966695992847
 21
672.41099067504183
 31
0.0
  0
LINE
  5
8A9A
  8
3
 62
     0
 10
365.90966695992842
 20
684.41099067504183
 30
0.0
 11
717.90966695992836
 21
684.41099067504183
 31
0.0
  0
INSERT
  5
8A9B
  8
3
 62
     0
  2
_OPEN
 10
341.90966695992842
 20
684.41099067504183
 30
0.0
 41
24.0
 42
24.0
 43
24.0
 50
180.0
  0
INSERT
  5
8A9C
  8
3
 62
     0
  2
_OPEN
 10
741.90966695992847
 20
684.41099067504183
 30
0.0
 41
24.0
 42
24.0
 43
24.0
  0
TEXT
  8
3
  40
36
  5
8B2D
  62
0
  72
0
  71
0
 10
536.126
 20
650.691
 30
0.000000
  1
400
  0
POINT
  5
8A9E
  8
DEFPOINTS
 62
     0
 10
341.90966695992842
 20
804.13368700665706
 30
0.0
  0
POINT
  5
8A9F
  8
DEFPOINTS
 62
     0
 10
741.90966695992847
 20
777.02042679365422
 30
0.0
  0
POINT
  5
8AA0
  8
DEFPOINTS
 62
     0
 10
741.90966695992847
 20
684.41099067504183
 30
0.0
  0
ENDBLK
  5
8589
  8
0
  0
BLOCK
  8
0
  2
*D5
 70
     1
 10
0.0
 20
0.0
 30
0.0
  3
*D5
  1

  0
LINE
  5
8AA1
  8
3
 62
     0
 10
1141.909666959928
 20
798.6722192595812
 30
0.0
 11
1141.909666959928
 21
672.41099067504183
 31
0.0
  0
LINE
  5
8AA2
  8
3
 62
     0
 10
765.90966695992847
 20
684.41099067504183
 30
0.0
 11
1117.909666959928
 21
684.41099067504183
 31
0.0
  0
INSERT
  5
8AA3
  8
3
 62
     0
  2
_OPEN
 10
741.90966695992847
 20
684.41099067504183
 30
0.0
 41
24.0
 42
24.0
 43
24.0
 50
180.0
  0
INSERT
  5
8AA4
  8
3
 62
     0
  2
_OPEN
 10
1141.909666959928
 20
684.41099067504183
 30
0.0
 41
24.0
 42
24.0
 43
24.0
  0
TEXT
  8
3
  40
36
  5
8B2E
  62
0
  72
0
  71
0
 10
869.910
 20
650.691
 30
0.000000
  1
400
  0
POINT
  5
8AA6
  8
DEFPOINTS
 62
     0
 10
741.90966695992847
 20
777.02042679365422
 30
0.0
  0
POINT
  5
8AA7
  8
DEFPOINTS
 62
     0
 10
1141.909666959928
 20
804.6722192595812
 30
0.0
  0
POINT
  5
8AA8
  8
DEFPOINTS
 62
     0
 10
1141.909666959928
 20
684.41099067504183
 30
0.0
  0
ENDBLK
  5
859D
  8
0
  0
BLOCK
  8
0
  2
*D6
 70
     1
 10
0.0
 20
0.0
 30
0.0
  3
*D6
  1

  0
LINE
  5
8AA9
  8
3
 62
     0
 10
1894.734098395842
 20
1535.8140104752699
 30
0.0
 11
1894.734098395842
 21
1742.95754290895
 31
0.0
  0
LINE
  5
8AAA
  8
3
 62
     0
 10
2118.734098395842
 20
1530.6146463633249
 30
0.0
 11
2118.734098395842
 21
1742.95754290895
 31
0.0
  0
LINE
  5
8AAB
  8
3
 62
     0
 10
1918.734098395842
 20
1730.95754290895
 30
0.0
 11
2094.734098395842
 21
1730.95754290895
 31
0.0
  0
INSERT
  5
8AAC
  8
3
 62
     0
  2
_OPEN
 10
1894.734098395842
 20
1730.95754290895
 30
0.0
 41
24.0
 42
24.0
 43
24.0
 50
180.0
  0
INSERT
  5
8AAD
  8
3
 62
     0
  2
_OPEN
 10
2118.734098395842
 20
1730.95754290895
 30
0.0
 41
24.0
 42
24.0
 43
24.0
  0
TEXT
  8
3
  40
36
  5
8B2F
  62
0
  72
0
  71
0
 10
1934.40
 20
1697.24
 30
0.000000
  1
224
  0
POINT
  5
8AAF
  8
DEFPOINTS
 62
     0
 10
1894.734098395842
 20
1529.8140104752699
 30
0.0
  0
POINT
  5
8AB0
  8
DEFPOINTS
 62
     0
 10
2118.734098395842
 20
1524.6146463633261
 30
0.0
  0
POINT
  5
8AB1
  8
DEFPOINTS
 62
     0
 10
2118.734098395842
 20
1730.95754290895
 30
0.0
  0
ENDBLK
  5
8605
  8
0
  0
BLOCK
  8
0
  2
*D7
 70
     1
 10
0.0
 20
0.0
 30
0.0
  3
*D7
  1

  0
LINE
  5
8AB2
  8
3
 62
     0
 10
2127.7704294853229
 20
1409.803400427533
 30
0.0
 11
2127.7704294853229
 21
1840.7826643674091
 31
0.0
  0
LINE
  5
8AB3
  8
3
 62
     0
 10
2006.7340983958411
 20
1794.2632023106221
 30
0.0
 11
2006.7340983958411
 21
1840.7826643674091
 31
0.0
  0
LINE
  5
8AB4
  8
3
 62
     0
 10
2103.770429485322
 20
1828.7826643674091
 30
0.0
 11
2030.7340983958411
 21
1828.7826643674091
 31
0.0
  0
INSERT
  5
8AB5
  8
3
 62
     0
  2
_OPEN
 10
2127.7704294853229
 20
1828.7826643674091
 30
0.0
 41
24.0
 42
24.0
 43
24.0
  0
INSERT
  5
8AB6
  8
3
 62
     0
  2
_OPEN
 10
2006.7340983958411
 20
1828.7826643674091
 30
0.0
 41
24.0
 42
24.0
 43
24.0
 50
180.0
  0
TEXT
  8
3
  40
36
  5
8B30
  62
0
  72
0
  71
0
 10
1995.25
 20
1795.06
 30
0.000000
  1
121
  0
POINT
  5
8AB8
  8
DEFPOINTS
 62
     0
 10
2127.7704294853229
 20
1403.803400427533
 30
0.0
  0
POINT
  5
8AB9
  8
DEFPOINTS
 62
     0
 10
2006.7340983958411
 20
1788.2632023106221
 30
0.0
  0
POINT
  5
8ABA
  8
DEFPOINTS
 62
     0
 10
2006.7340983958411
 20
1828.7826643674091
 30
0.0
  0
ENDBLK
  5
85F0
  8
0
  0
BLOCK
  8
0
  2
*D8
 70
     1
 10
0.0
 20
0.0
 30
0.0
  3
*D8
  1

  0
LINE
  5
8ABB
  8
3
 62
     0
 10
1569.46177782926
 20
1310.7145870066549
 30
0.0
 11
1569.46177782926
 21
1840.7826643674091
 31
0.0
  0
LINE
  5
8ABC
  8
3
 62
     0
 10
1982.7340983958411
 20
1828.7826643674091
 30
0.0
 11
1593.46177782926
 21
1828.7826643674091
 31
0.0
  0
INSERT
  5
8ABD
  8
3
 62
     0
  2
_OPEN
 10
2006.7340983958411
 20
1828.7826643674091
 30
0.0
 41
24.0
 42
24.0
 43
24.0
  0
INSERT
  5
8ABE
  8
3
 62
     0
  2
_OPEN
 10
1569.46177782926
 20
1828.7826643674091
 30
0.0
 41
24.0
 42
24.0
 43
24.0
 50
180.0
  0
TEXT
  8
3
  40
36
  5
8B31
  62
0
  72
0
  71
0
 10
1716.10
 20
1804.49
 30
0.000000
  1
(420)
  0
POINT
  5
8AC0
  8
DEFPOINTS
 62
     0
 10
2006.7340983958411
 20
1788.2632023106221
 30
0.0
  0
POINT
  5
8AC1
  8
DEFPOINTS
 62
     0
 10
1569.46177782926
 20
1304.7145870066549
 30
0.0
  0
POINT
  5
8AC2
  8
DEFPOINTS
 62
     0
 10
1569.46177782926
 20
1828.7826643674091
 30
0.0
  0
ENDBLK
  5
85FA
  8
0
  0
BLOCK
  8
0
  2
*D9
 70
     1
 10
0.0
 20
0.0
 30
0.0
  3
*D9
  1

  0
LINE
  5
87A5
  8
3
 62
     0
 10
1471.7340983958411
 20
798.13368700665728
 30
0.0
 11
1471.7340983958411
 21
663.69083691048115
 31
0.0
  0
LINE
  5
87A6
  8
3
 62
     0
 10
2006.7340983958411
 20
849.76203463930585
 30
0.0
 11
2006.7340983958411
 21
663.69083691048115
 31
0.0
  0
LINE
  5
87A7
  8
3
 62
     0
 10
1495.7340983958411
 20
675.69083691048115
 30
0.0
 11
1982.7340983958411
 21
675.69083691048115
 31
0.0
  0
TEXT
  5
87A8
  8
3
 62
     0
 10
1667.1391977845831
 20
691.63289619069565
 30
0.0
 40
36.0
  1
535
  0
INSERT
  5
87A9
  8
3
 62
     0
  2
_OPEN
 10
1471.7340983958411
 20
675.69083691048115
 30
0.0
 41
24.0
 42
24.0
 43
24.0
 50
180.0
  0
INSERT
  5
87AA
  8
3
 62
     0
  2
_OPEN
 10
2006.7340983958411
 20
675.69083691048115
 30
0.0
 41
24.0
 42
24.0
 43
24.0
  0
POINT
  5
87AB
  8
DEFPOINTS
 62
     0
 10
1471.7340983958411
 20
804.13368700665717
 30
0.0
  0
POINT
  5
87AC
  8
DEFPOINTS
 62
     0
 10
2006.7340983958411
 20
855.76203463930597
 30
0.0
  0
POINT
  5
87AD
  8
DEFPOINTS
 62
     0
 10
2006.7340983958411
 20
675.69083691048115
 30
0.0
  0
ENDBLK
  5
85A8
  8
0
  0
BLOCK
  8
0
  2
*D10
 70
     1
 10
0.0
 20
0.0
 30
0.0
  3
*D10
  1

  0
LINE
  5
8AC3
  8
3
 62
     0
 10
2133.7340983958411
 20
1378.633687006655
 30
0.0
 11
2384.2058127563432
 21
1378.633687006655
 31
0.0
  0
LINE
  5
8AC4
  8
3
 62
     0
 10
2133.7340983958411
 20
1063.633687006655
 30
0.0
 11
2384.2058127563432
 21
1063.633687006655
 31
0.0
  0
LINE
  5
8AC5
  8
3
 62
     0
 10
2372.2058127563432
 20
1354.633687006655
 30
0.0
 11
2372.2058127563432
 21
1087.633687006655
 31
0.0
  0
INSERT
  5
8AC6
  8
3
 62
     0
  2
_OPEN
 10
2372.2058127563432
 20
1378.633687006655
 30
0.0
 41
24.0
 42
24.0
 43
24.0
 50
90.0
  0
INSERT
  5
8AC7
  8
3
 62
     0
  2
_OPEN
 10
2372.2058127563432
 20
1063.633687006655
 30
0.0
 41
24.0
 42
24.0
 43
24.0
 50
270.0
  0
TEXT
  8
3
  40
36
  5
8B32
  62
0
  72
0
  71
0
 10
2270.21
 20
1148.55
 30
0.000000
  1
φ315
  0
POINT
  5
8AC9
  8
DEFPOINTS
 62
     0
 10
2127.7340983958411
 20
1378.633687006655
 30
0.0
  0
POINT
  5
8ACA
  8
DEFPOINTS
 62
     0
 10
2127.7340983958411
 20
1063.633687006655
 30
0.0
  0
POINT
  5
8ACB
  8
DEFPOINTS
 62
     0
 10
2372.2058127563432
 20
1063.633687006655
 30
0.0
  0
ENDBLK
  5
84EE
  8
0
  0
BLOCK
  8
0
  2
*D11
 70
     1
 10
0.0
 20
0.0
 30
0.0
  3
*D11
  1

  0
LINE
  5
8AD5
  8
3
 62
     0
 10
991.90966695993245
 20
1563.133687006653
 30
0.0
 11
991.90966695993245
 21
1594.5142064980921
 31
0.0
  0
LINE
  5
8AD6
  8
3
 62
     0
 10
741.90966695992847
 20
1586.6695999701781
 30
0.0
 11
741.90966695992847
 21
1570.5142064980921
 31
0.0
  0
LINE
  5
8AD7
  8
3
 62
     0
 10
967.90966695993257
 20
1582.514206498093
 30
0.0
 11
765.90966695992847
 21
1582.514206498093
 31
0.0
  0
INSERT
  5
8AD8
  8
3
 62
     0
  2
_OPEN
 10
991.90966695993245
 20
1582.514206498093
 30
0.0
 41
24.0
 42
24.0
 43
24.0
  0
INSERT
  5
8AD9
  8
3
 62
     0
  2
_OPEN
 10
741.90966695992847
 20
1582.514206498093
 30
0.0
 41
24.0
 42
24.0
 43
24.0
 50
180.0
  0
TEXT
  8
3
  40
36
  5
8B33
  62
0
  72
0
  71
0
 10
808.121
 20
1548.79
 30
0.000000
  1
250
  0
POINT
  5
8ADB
  8
DEFPOINTS
 62
     0
 10
991.90966695993245
 20
1557.133687006653
 30
0.0
  0
POINT
  5
8ADC
  8
DEFPOINTS
 62
     0
 10
741.90966695992847
 20
1592.6695999701781
 30
0.0
  0
POINT
  5
8ADD
  8
DEFPOINTS
 62
     0
 10
741.90966695992847
 20
1582.514206498093
 30
0.0
  0
ENDBLK
  5
8424
  8
0
  0
BLOCK
  8
0
  2
*D12
 70
     1
 10
0.0
 20
0.0
 30
0.0
  3
*D12
  1

  0
LINE
  5
8ADE
  8
3
 62
     0
 10
477.90966695992392
 20
1252.6336870066591
 30
0.0
 11
477.90966695992392
 21
1594.5142064980921
 31
0.0
  0
LINE
  5
8ADF
  8
3
 62
     0
 10
717.90966695992836
 20
1582.514206498093
 30
0.0
 11
501.90966695992392
 21
1582.514206498093
 31
0.0
  0
INSERT
  5
8AE0
  8
3
 62
     0
  2
_OPEN
 10
741.90966695992847
 20
1582.514206498093
 30
0.0
 41
24.0
 42
24.0
 43
24.0
  0
INSERT
  5
8AE1
  8
3
 62
     0
  2
_OPEN
 10
477.90966695992392
 20
1582.514206498093
 30
0.0
 41
24.0
 42
24.0
 43
24.0
 50
180.0
  0
TEXT
  8
3
  40
36
  5
8B34
  62
0
  72
0
  71
0
 10
537.910
 20
1548.79
 30
0.000000
  1
264
  0
POINT
  5
8AE3
  8
DEFPOINTS
 62
     0
 10
741.90966695992847
 20
1592.6695999701781
 30
0.0
  0
POINT
  5
8AE4
  8
DEFPOINTS
 62
     0
 10
477.90966695992392
 20
1246.633687006658
 30
0.0
  0
POINT
  5
8AE5
  8
DEFPOINTS
 62
     0
 10
477.90966695992392
 20
1582.514206498093
 30
0.0
  0
ENDBLK
  5
842E
  8
0
  0
BLOCK
  8
0
  2
*D13
 70
     1
 10
0.0
 20
0.0
 30
0.0
  3
*D13
  1

  0
LINE
  5
84CA
  8
0
  6
BYBLOCK
 62
     0
 10
1066.7628299878661
 20
886.02718201304367
 30
0.0
 11
1255.1959933284611
 21
886.02718201304367
 31
0.0
  0
LINE
  5
84CB
  8
0
  6
BYBLOCK
 62
     0
 10
1243.1959933284611
 20
932.02718201304378
 30
0.0
 11
1243.1959933284611
 21
956.02718201304378
 31
0.0
  0
LINE
  5
84CC
  8
0
  6
BYBLOCK
 62
     0
 10
1243.1959933284611
 20
862.02718201304378
 30
0.0
 11
1243.1959933284611
 21
838.02718201304378
 31
0.0
  0
TEXT
  5
84CD
  8
3
 62
     0
 10
1312.624564757032
 20
844.74146772732945
 30
0.0
 40
36.0
  1
(22)
 50
90.0
  0
LINE
  5
84CE
  8
0
  6
BYBLOCK
 62
     0
 10
1243.1959933284611
 20
908.02718201304367
 30
0.0
 11
1243.1959933284611
 21
886.02718201304367
 31
0.0
  0
INSERT
  5
84CF
  8
0
  6
BYBLOCK
 62
     0
  2
_OPEN
 10
1243.1959933284611
 20
908.02718201304367
 30
0.0
 41
24.0
 42
24.0
 43
24.0
 50
270.0
  0
INSERT
  5
84D0
  8
0
  6
BYBLOCK
 62
     0
  2
_DOT
 10
1243.1959933284611
 20
886.02718201304367
 30
0.0
 41
24.0
 42
24.0
 43
24.0
 50
90.0
  0
POINT
  5
84D1
  8
DEFPOINTS
  6
BYBLOCK
 62
     0
 10
991.90966695993393
 20
908.02718201304367
 30
0.0
  0
POINT
  5
84D2
  8
DEFPOINTS
  6
BYBLOCK
 62
     0
 10
1060.7628299878661
 20
886.02718201304367
 30
0.0
  0
POINT
  5
84D3
  8
DEFPOINTS
  6
BYBLOCK
 62
     0
 10
1243.1959933284611
 20
886.02718201304367
 30
0.0
  0
ENDBLK
  5
84D4
  8
0
  0
BLOCK
  8
0
  2
*D14
 70
     1
 10
0.0
 20
0.0
 30
0.0
  3
*D14
  1

  0
LINE
  5
8AFD
  8
3
 62
     0
 10
1066.7628299878661
 20
844.13368700665706
 30
0.0
 11
1255.1959933284611
 21
844.13368700665706
 31
0.0
  0
LINE
  5
8AFE
  8
3
 62
     0
 10
1147.909666959928
 20
804.13368700665706
 30
0.0
 11
1255.1959933284611
 21
804.13368700665706
 31
0.0
  0
LINE
  5
8AFF
  8
3
 62
     0
 10
1243.1959933284611
 20
868.13368700665706
 30
0.0
 11
1243.1959933284611
 21
892.13368700665706
 31
0.0
  0
LINE
  5
8B00
  8
3
 62
     0
 10
1243.1959933284611
 20
780.13368700665706
 30
0.0
 11
1243.1959933284611
 21
673.84797272094283
 31
0.0
  0
LINE
  5
8B01
  8
3
 62
     0
 10
1243.1959933284611
 20
844.13368700665706
 30
0.0
 11
1243.1959933284611
 21
804.13368700665706
 31
0.0
  0
INSERT
  5
8B02
  8
3
 62
     0
  2
_DOT
 10
1243.1959933284611
 20
844.13368700665706
 30
0.0
 41
24.0
 42
24.0
 43
24.0
 50
270.0
  0
INSERT
  5
8B03
  8
3
 62
     0
  2
_OPEN
 10
1243.1959933284611
 20
804.13368700665706
 30
0.0
 41
24.0
 42
24.0
 43
24.0
 50
90.0
  0
TEXT
  8
3
  40
36
  5
8B35
  62
0
  72
0
  71
0
 10
1141.20
 20
651.271
 30
0.000000
  1
40
  0
POINT
  5
8B05
  8
DEFPOINTS
 62
     0
 10
1060.7628299878661
 20
844.13368700665706
 30
0.0
  0
POINT
  5
8B06
  8
DEFPOINTS
 62
     0
 10
1141.909666959928
 20
804.13368700665706
 30
0.0
  0
POINT
  5
8B07
  8
DEFPOINTS
 62
     0
 10
1243.1959933284611
 20
804.13368700665706
 30
0.0
  0
ENDBLK
  5
84E1
  8
0
  0
BLOCK
  8
0
  2
*D15
 70
     1
 10
0.0
 20
0.0
 30
0.0
  3
*D15
  1

  0
LINE
  5
8B08
  8
3
 62
     0
 10
2271.7340983958402
 20
798.13368700665706
 30
0.0
 11
2271.7340983958402
 21
663.69083691048115
 31
0.0
  0
LINE
  5
8B09
  8
3
 62
     0
 10
2030.7340983958411
 20
675.69083691048115
 30
0.0
 11
2247.7340983958402
 21
675.69083691048115
 31
0.0
  0
INSERT
  5
8B0A
  8
3
 62
     0
  2
_OPEN
 10
2006.7340983958411
 20
675.69083691048115
 30
0.0
 41
24.0
 42
24.0
 43
24.0
 50
180.0
  0
INSERT
  5
8B0B
  8
3
 62
     0
  2
_OPEN
 10
2271.7340983958402
 20
675.69083691048115
 30
0.0
 41
24.0
 42
24.0
 43
24.0
  0
TEXT
  8
3
  40
36
  5
8B36
  62
0
  72
0
  71
0
 10
2067.23
 20
641.971
 30
0.000000
  1
265
  0
POINT
  5
8B0D
  8
DEFPOINTS
 62
     0
 10
2006.7340983958411
 20
855.76203463930597
 30
0.0
  0
POINT
  5
8B0E
  8
DEFPOINTS
 62
     0
 10
2271.7340983958402
 20
804.13368700665706
 30
0.0
  0
POINT
  5
8B0F
  8
DEFPOINTS
 62
     0
 10
2271.7340983958402
 20
675.69083691048115
 30
0.0
  0
ENDBLK
  5
855A
  8
0
  0
BLOCK
  8
0
  2
*D16
 70
     1
 10
0.0
 20
0.0
 30
0.0
  3
*D16
  1

  0
LINE
  5
8B10
  8
3
 62
     0
 10
1465.7340983958411
 20
1704.1336870066571
 30
0.0
 11
1378.252545871137
 21
1704.1336870066571
 31
0.0
  0
LINE
  5
8B11
  8
3
 62
     0
 10
1465.7340983958411
 20
804.13368700665717
 30
0.0
 11
1378.252545871137
 21
804.13368700665717
 31
0.0
  0
LINE
  5
8B12
  8
3
 62
     0
 10
1390.252545871137
 20
1680.1336870066571
 30
0.0
 11
1390.252545871137
 21
828.13368700665728
 31
0.0
  0
INSERT
  5
8B13
  8
3
 62
     0
  2
_OPEN
 10
1390.252545871137
 20
1704.1336870066571
 30
0.0
 41
24.0
 42
24.0
 43
24.0
 50
90.0
  0
INSERT
  5
8B14
  8
3
 62
     0
  2
_OPEN
 10
1390.252545871137
 20
804.13368700665717
 30
0.0
 41
24.0
 42
24.0
 43
24.0
 50
270.0
  0
TEXT
  8
3
  40
36
  5
8B37
  62
0
  72
0
  71
0
 10
1288.25
 20
1134.52
 30
0.000000
  1
900
  0
POINT
  5
8B16
  8
DEFPOINTS
 62
     0
 10
1471.7340983958411
 20
1704.1336870066571
 30
0.0
  0
POINT
  5
8B17
  8
DEFPOINTS
 62
     0
 10
1471.7340983958411
 20
804.13368700665717
 30
0.0
  0
POINT
  5
8B18
  8
DEFPOINTS
 62
     0
 10
1390.252545871137
 20
804.13368700665717
 30
0.0
  0
ENDBLK
  5
8567
  8
0
  0
BLOCK
  8
0
  2
*D17
 70
     1
 10
0.0
 20
0.0
 30
0.0
  3
*D17
  1

  0
LINE
  5
8B19
  8
3
 62
     0
 10
341.90966695992478
 20
2725.754319496677
 30
0.0
 11
341.90966695992478
 21
2796.520775688924
 31
0.0
  0
LINE
  5
8B1A
  8
3
 62
     0
 10
1141.9096669599239
 20
2725.754319496677
 30
0.0
 11
1141.9096669599239
 21
2796.520775688924
 31
0.0
  0
LINE
  5
8B1B
  8
3
 62
     0
 10
365.90966695992478
 20
2784.520775688924
 30
0.0
 11
1117.9096669599239
 21
2784.520775688924
 31
0.0
  0
INSERT
  5
8B1C
  8
3
 62
     0
  2
_OPEN
 10
341.90966695992478
 20
2784.520775688924
 30
0.0
 41
24.0
 42
24.0
 43
24.0
 50
180.0
  0
INSERT
  5
8B1D
  8
3
 62
     0
  2
_OPEN
 10
1141.9096669599239
 20
2784.520775688924
 30
0.0
 41
24.0
 42
24.0
 43
24.0
  0
TEXT
  8
3
  40
36
  5
8B38
  62
0
  72
0
  71
0
 10
637.471
 20
2750.80
 30
0.000000
  1
800
  0
POINT
  5
8B1F
  8
DEFPOINTS
 62
     0
 10
341.90966695992478
 20
2719.7543194966779
 30
0.0
  0
POINT
  5
8B20
  8
DEFPOINTS
 62
     0
 10
1141.9096669599239
 20
2719.7543194966779
 30
0.0
  0
POINT
  5
8B21
  8
DEFPOINTS
 62
     0
 10
1141.9096669599239
 20
2784.520775688924
 30
0.0
  0
ENDBLK
  5
8627
  8
0
  0
BLOCK
  8
0
  2
*D18
 70
     1
 10
0.0
 20
0.0
 30
0.0
  3
*D18
  1

  0
LINE
  5
8B22
  8
3
 62
     0
 10
1147.9096669599239
 20
2719.7543194966779
 30
0.0
 11
1288.305145663664
 21
2719.7543194966779
 31
0.0
  0
LINE
  5
8B23
  8
3
 62
     0
 10
1147.9096669599239
 20
1919.754319496677
 30
0.0
 11
1288.305145663664
 21
1919.754319496677
 31
0.0
  0
LINE
  5
8B24
  8
3
 62
     0
 10
1276.305145663664
 20
2695.754319496677
 30
0.0
 11
1276.305145663664
 21
1943.754319496677
 31
0.0
  0
INSERT
  5
8B25
  8
3
 62
     0
  2
_OPEN
 10
1276.305145663664
 20
2719.7543194966779
 30
0.0
 41
24.0
 42
24.0
 43
24.0
 50
90.0
  0
INSERT
  5
8B26
  8
3
 62
     0
  2
_OPEN
 10
1276.305145663664
 20
1919.754319496677
 30
0.0
 41
24.0
 42
24.0
 43
24.0
 50
270.0
  0
TEXT
  8
3
  40
36
  5
8B39
  62
0
  72
0
  71
0
 10
1174.31
 20
2227.65
 30
0.000000
  1
800
  0
POINT
  5
8B28
  8
DEFPOINTS
 62
     0
 10
1141.9096669599239
 20
2719.7543194966779
 30
0.0
  0
POINT
  5
8B29
  8
DEFPOINTS
 62
     0
 10
1141.9096669599239
 20
1919.754319496677
 30
0.0
  0
POINT
  5
8B2A
  8
DEFPOINTS
 62
     0
 10
1276.305145663664
 20
1919.754319496677
 30
0.0
  0
ENDBLK
  5
85C9
  8
0
  0
ENDSEC
  0
SECTION
  2
ENTITIES
  0
POLYLINE
  5
7D77
  8
1
 66
     1
 10
0.0
 20
0.0
 30
0.0
  0
VERTEX
  5
8A41
  8
1
 10
628.93140865939756
 20
1016.1336870066571
 30
0.0
 42
0.1343280102757561
  0
VERTEX
  5
8A42
  8
1
 10
756.67969224021635
 20
1001.769842797451
 30
0.0
 42
0.3163019945347412
  0
VERTEX
  5
8A43
  8
1
 10
925.28685350234309
 20
1164.764053958384
 30
0.0
 42
0.3153658436290411
  0
SEQEND
  5
8A44
  8
1
  0
POLYLINE
  5
7D7C
  8
1
 66
     1
 10
0.0
 20
0.0
 30
0.0
  0
VERTEX
  5
8A45
  8
1
 10
991.90966695993302
 20
1536.133687006653
 30
0.0
  0
VERTEX
  5
8A46
  8
1
 10
767.40966695993166
 20
1536.1336870066591
 30
0.0
 42
0.2294041480982971
  0
VERTEX
  5
8A47
  8
1
 10
540.27534546711047
 20
1426.1336870066571
 30
0.0
 42
0.1293935334669464
  0
SEQEND
  5
8A48
  8
1
  0
POLYLINE
  5
7D81
  8
1
 66
     1
 10
0.0
 20
0.0
 30
0.0
  0
VERTEX
  5
8A49
  8
1
 10
991.90966695993302
 20
1537.133687006653
 30
0.0
  0
VERTEX
  5
8A4A
  8
1
 10
767.40966695993302
 20
1537.133687006658
 30
0.0
 42
0.2301193883723377
  0
VERTEX
  5
8A4B
  8
1
 10
539.00213643608004
 20
1426.1336870066571
 30
0.0
 42
0.129402372482195
  0
SEQEND
  5
8A4C
  8
1
  0
POLYLINE
  5
7D86
  8
1
 66
     1
 10
0.0
 20
0.0
 30
0.0
  0
VERTEX
  5
8A4D
  8
1
 10
971.90966695993336
 20
1547.1336870066521
 30
0.0
  0
VERTEX
  5
8A4E
  8
1
 10
767.40966695993336
 20
1547.1336870066591
 30
0.0
 42
0.4399944676847409
  0
VERTEX
  5
8A4F
  8
1
 10
468.99356852832619
 20
1221.1336870066571
 30
0.0
 42
0.1409112112925606
  0
SEQEND
  5
8A50
  8
1
  0
LINE
  5
7D8B
  8
1
 10
539.20966695992036
 20
1306.533687006656
 30
0.0
 11
539.20966695991683
 21
866.13368700665728
 31
0.0
  0
LINE
  5
7D8C
  8
1
 10
944.60966695992011
 20
1306.5336870066569
 30
0.0
 11
944.60966695991726
 21
866.13368700665706
 31
0.0
  0
LINE
  5
7D8D
  8
1
 10
536.90966695992017
 20
1306.533687006656
 30
0.0
 11
536.90966695992017
 21
866.13368700665706
 31
0.0
  0
LINE
  5
7D8E
  8
1
 10
946.90966695992029
 20
1306.5336870066569
 30
0.0
 11
946.90966695992029
 21
868.4336870066569
 31
0.0
  0
CIRCLE
  5
7D8F
  8
1
 10
741.9096669599212
 20
1221.1336870066571
 30
0.0
 40
169.0
  0
POLYLINE
  5
7D90
  8
1
 66
     1
 10
0.0
 20
0.0
 30
0.0
  0
VERTEX
  5
8A51
  8
1
 10
536.9096669599212
 20
1081.8838820145841
 30
0.0
 42
0.1174780416237573
  0
VERTEX
  5
8A52
  8
1
 10
628.93140865939858
 20
1016.1336870066571
 30
0.0
 42
0.3153658436290411
  0
SEQEND
  5
8A53
  8
1
  0
LINE
  5
7D95
  8
1
 10
944.6096669599192
 20
1111.1336870066571
 30
0.0
 11
906.90966695992017
 21
1079.465687006656
 31
0.0
  0
LINE
  5
7D96
  8
1
 10
539.20966695992036
 20
1121.1336870066571
 30
0.0
 11
944.60966695992011
 21
1121.1336870066571
 31
0.0
  0
LINE
  5
7D97
  8
1
 10
908.89538124563467
 20
1081.1336870066571
 30
0.0
 11
741.90966695992927
 21
1081.1336870066571
 31
0.0
  0
LINE
  5
7D98
  8
1
 10
913.36150112623
 20
1267.0740675123541
 30
0.0
 11
898.02487798596303
 21
1262.9646317272991
 31
0.0
  0
CIRCLE
  5
7D99
  8
1
 10
905.15113160277258
 20
1264.8741056289821
 30
0.0
 40
4.0
  0
LINE
  5
7D9A
  8
1
 10
913.36150112622909
 20
1175.1933065009589
 30
0.0
 11
898.02487798596303
 21
1179.3027422860141
 31
0.0
  0
CIRCLE
  5
7D9B
  8
1
 10
905.15113160277542
 20
1177.39326838433
 30
0.0
 40
4.0
  0
LINE
  5
7D9C
  8
1
 10
576.90966695992017
 20
1079.465687006656
 30
0.0
 11
576.90966695992017
 21
924.3336870066571
 31
0.0
  0
LINE
  5
7D9D
  8
1
 10
906.90966695992017
 20
1079.465687006656
 30
0.0
 11
906.90966695992108
 21
924.3336870066571
 31
0.0
  0
POLYLINE
  5
7D9E
  8
1
 66
     1
 10
0.0
 20
0.0
 30
0.0
  0
VERTEX
  5
8A54
  8
1
 10
539.00213643608004
 20
1426.1336870066571
 30
0.0
 42
0.2162148363065116
  0
VERTEX
  5
8A55
  8
1
 10
482.85945568328412
 20
1193.235870198605
 30
0.0
 42
0.1298622998199493
  0
VERTEX
  5
8A56
  8
1
 10
536.90966695992017
 20
1081.8838820145829
 30
0.0
 42
0.3153658436290411
  0
SEQEND
  5
8A57
  8
1
  0
LINE
  5
7DA3
  8
1
 10
787.85004746561754
 20
1049.681852840348
 30
0.0
 11
783.74061168056323
 21
1065.0184759806141
 31
0.0
  0
CIRCLE
  5
7DA4
  8
1
 10
785.65008558224599
 20
1057.892222363804
 30
0.0
 40
4.0
  0
CIRCLE
  5
7DA5
  8
1
 10
698.16924833759629
 20
1057.892222363804
 30
0.0
 40
4.0
  0
LINE
  5
7DA6
  8
1
 10
695.96928645422304
 20
1049.6818528403469
 30
0.0
 11
700.07872223927825
 21
1065.0184759806141
 31
0.0
  0
LINE
  5
7DA7
  8
1
 10
574.9239526742067
 20
1081.1336870066571
 30
0.0
 11
741.90966695992927
 21
1081.1336870066571
 31
0.0
  0
LINE
  5
7DA8
  8
1
 10
867.42112062053275
 20
1095.622233346045
 30
0.0
 11
856.19393326531917
 21
1106.8494207012559
 31
0.0
  0
CIRCLE
  5
7DA9
  8
1
 10
861.41071298044778
 20
1101.6326409861299
 30
0.0
 40
4.0
  0
LINE
  5
7DAA
  8
1
 10
616.39821329930783
 20
1095.622233346045
 30
0.0
 11
627.62540065452049
 21
1106.849420701257
 31
0.0
  0
CIRCLE
  5
7DAB
  8
1
 10
622.4086209393945
 20
1101.6326409861299
 30
0.0
 40
4.0
  0
LINE
  5
7DAC
  8
1
 10
539.20966695991956
 20
1111.1336870066571
 30
0.0
 11
576.90966695992017
 21
1079.4656870066569
 31
0.0
  0
CIRCLE
  5
7DAD
  8
1
 10
578.66820231706879
 20
1177.39326838433
 30
0.0
 40
4.0
  0
CIRCLE
  5
7DAE
  8
1
 10
578.6682023170697
 20
1264.8741056289821
 30
0.0
 40
4.0
  0
LINE
  5
7DAF
  8
1
 10
570.45783279361149
 20
1267.0740675123541
 30
0.0
 11
585.79445593387845
 21
1262.9646317272991
 31
0.0
  0
LINE
  5
7DB0
  8
1
 10
831.90966695992017
 20
1401.1336870066559
 30
0.0
 11
944.60966695992011
 21
1306.533687006656
 31
0.0
  0
LINE
  5
7DB1
  8
1
 10
991.90966695993245
 20
1557.133687006653
 30
0.0
 11
991.90966695992211
 21
1200.133687006653
 31
0.0
  0
LINE
  5
7DB2
  8
1
 10
651.90966695992017
 20
1401.1336870066571
 30
0.0
 11
539.20966695991956
 21
1306.533687006656
 31
0.0
  0
LINE
  5
7DB3
  8
1
 10
971.90966695993109
 20
1519.733687006652
 30
0.0
 11
971.90966695992347
 21
1237.5336870066519
 31
0.0
  0
LINE
  5
7DB4
  8
1
 10
990.70966695993275
 20
1557.133687006653
 30
0.0
 11
990.70966695992229
 21
1200.133687006653
 31
0.0
  0
POLYLINE
  5
7DB5
  8
1
 66
     1
 10
0.0
 20
0.0
 30
0.0
  0
VERTEX
  5
8A58
  8
1
 10
946.90966695992381
 20
1204.2785953530811
 30
0.0
 42
0.1315967463597435
  0
VERTEX
  5
8A59
  8
1
 10
925.28212720302372
 20
1164.7392569986409
 30
0.0
 42
0.2200089805681688
  0
SEQEND
  5
8A5A
  8
1
  0
LINE
  5
7DB9
  8
1
 10
651.90966695992017
 20
1401.1336870066571
 30
0.0
 11
831.90966695992017
 21
1401.1336870066559
 31
0.0
  0
LINE
  5
7DBA
  8
1
 10
867.42112062053195
 20
1346.6451406672679
 30
0.0
 11
856.19393326532008
 21
1335.4179533120559
 31
0.0
  0
CIRCLE
  5
7DBB
  8
1
 10
861.41071298044778
 20
1340.6347330271831
 30
0.0
 40
4.0
  0
LINE
  5
7DBC
  8
1
 10
787.85004746561754
 20
1392.5855211729661
 30
0.0
 11
783.74061168056232
 21
1377.2488980326989
 31
0.0
  0
CIRCLE
  5
7DBD
  8
1
 10
785.65008558224599
 20
1384.375151649509
 30
0.0
 40
4.0
  0
CIRCLE
  5
7DBE
  8
1
 10
622.4086209393945
 20
1340.6347330271831
 30
0.0
 40
4.0
  0
LINE
  5
7DBF
  8
1
 10
616.39821329930965
 20
1346.6451406672679
 30
0.0
 11
627.62540065452049
 21
1335.4179533120559
 31
0.0
  0
CIRCLE
  5
7DC0
  8
1
 10
698.16924833759629
 20
1384.375151649509
 30
0.0
 40
4.0
  0
LINE
  5
7DC1
  8
1
 10
695.96928645422395
 20
1392.5855211729661
 30
0.0
 11
700.07872223927916
 21
1377.2488980326989
 31
0.0
  0
POLYLINE
  5
7DC2
  8
1
 66
     1
 10
0.0
 20
0.0
 30
0.0
  0
VERTEX
  5
8A5B
  8
1
 10
967.42057396336929
 20
1208.4694233926609
 30
0.0
 42
0.0934525219043797
  0
VERTEX
  5
8A5C
  8
1
 10
946.9096669599229
 20
1188.5792717142499
 30
0.0
 42
0.1987366729981355
  0
SEQEND
  5
8A5D
  8
1
  0
POLYLINE
  5
7DC6
  8
1
 66
     1
 10
0.0
 20
0.0
 30
0.0
  0
VERTEX
  5
8A5E
  8
1
 10
946.9096669599229
 20
1188.5792717142499
 30
0.0
 42
0.0941668855597806
  0
VERTEX
  5
8A5F
  8
1
 10
934.99826265157799
 20
1162.3735199157479
 30
0.0
 42
0.1987366729981355
  0
SEQEND
  5
8A60
  8
1
  0
LINE
  5
7DCA
  8
1
 10
991.90966695992211
 20
1200.133687006653
 30
0.0
 11
990.70966695992229
 21
1200.133687006653
 31
0.0
  0
LINE
  5
7DCB
  8
1
 10
991.90966695992336
 20
1220.133687006653
 30
0.0
 11
970.90966695992347
 21
1220.133687006653
 31
0.0
  0
LINE
  5
7DCC
  8
1
 10
987.60966695992329
 20
1221.8336870066501
 30
0.0
 11
971.90966695992381
 21
1237.5336870066501
 31
0.0
  0
ARC
  5
7DCD
  8
1
 10
961.90966695992438
 20
1216.8138768798219
 30
0.0
 40
10.0
 50
303.44187178948329
 51
359.99999999999841
  0
LINE
  5
7DCE
  8
1
 10
971.9096669599229
 20
1220.1336870066471
 30
0.0
 11
971.90966695992086
 21
1216.813876879816
 31
0.0
  0
POLYLINE
  5
7DCF
  8
1
 66
     1
 10
0.0
 20
0.0
 30
0.0
  0
VERTEX
  5
8A61
  8
1
 10
970.90966695992438
 20
1220.133687006653
 30
0.0
 42
0.101266720201501
  0
VERTEX
  5
8A62
  8
1
 10
965.41025647316064
 20
1219.008332023044
 30
0.0
 42
0.0681921917069782
  0
VERTEX
  5
8A63
  8
1
 10
946.90966695992381
 20
1204.2785953530811
 30
0.0
 42
0.2200089805681688
  0
SEQEND
  5
8A64
  8
1
  0
POINT
  5
7DD4
  8
1
 10
991.90966695992245
 20
1221.133687006653
 30
0.0
 50
0.0000000000008142
  0
ARC
  5
7DD5
  8
1
 10
986.90966695992438
 20
1221.133687006653
 30
0.0
 40
1.0
 50
269.99999999999841
 51
53.130102354193461
  0
POLYLINE
  5
7DD6
  8
1
 66
     1
 10
0.0
 20
0.0
 30
0.0
  0
VERTEX
  5
8A65
  8
1
 10
996.97283017492009
 20
1209.6336870066521
 30
0.0
  0
VERTEX
  5
8A66
  8
1
 10
984.70451989097455
 20
1209.633687006653
 30
0.0
  0
SEQEND
  5
8A67
  8
1
  0
POINT
  5
7DDA
  8
1
 10
584.40966695992745
 20
1471.133687006668
 30
0.0
 50
0.0000000000008142
  0
POINT
  5
7DDB
  8
1
 10
584.40966695992745
 20
1471.133687006668
 30
0.0
 50
0.0000000000008142
  0
LINE
  5
7DDC
  8
1
 10
987.60966695993227
 20
1535.433687006652
 30
0.0
 11
971.90966695993109
 21
1519.733687006652
 31
0.0
  0
LINE
  5
7DDD
  8
1
 10
971.90966695993245
 20
1547.1336870066521
 30
0.0
 11
971.90966695993222
 21
1537.1336870066521
 31
0.0
  0
ARC
  5
7DDE
  8
1
 10
986.90966695993291
 20
1536.133687006653
 30
0.0
 40
1.0
 50
306.86989764580329
 51
89.999999999998394
  0
POLYLINE
  5
7DDF
  8
1
 66
     1
 10
0.0
 20
0.0
 30
0.0
  0
VERTEX
  5
8A68
  8
1
 10
991.90966695993438
 20
1557.133687006653
 30
0.0
  0
VERTEX
  5
8A69
  8
1
 10
990.70966695993536
 20
1557.133687006653
 30
0.0
 42
0.4696216166052111
  0
SEQEND
  5
8A6A
  8
1
  0
POLYLINE
  5
7DE3
  8
1
 66
     1
 10
0.0
 20
0.0
 30
0.0
  0
VERTEX
  5
8A6B
  8
1
 10
996.97283017492975
 20
1547.6336870066521
 30
0.0
  0
VERTEX
  5
8A6C
  8
1
 10
984.7045198909841
 20
1547.633687006653
 30
0.0
  0
SEQEND
  5
8A6D
  8
1
  0
LINE
  5
7DE7
  8
1
 10
1885.7340983958411
 20
1346.5336870066551
 30
0.0
 11
1704.1721151878901
 21
1221.133687006655
 31
0.0
  0
POLYLINE
  5
7DF4
  8
1
 66
     1
 10
0.0
 20
0.0
 30
0.0
  0
VERTEX
  5
8A6E
  8
1
 10
1885.73409839584
 20
1200.803384226831
 30
0.0
  0
VERTEX
  5
8A6F
  8
1
 10
1885.7340983958411
 20
869.33368700665608
 30
0.0
  0
SEQEND
  5
8A70
  8
1
  0
LINE
  5
7E1B
  8
1
 10
494.2173787632837
 20
2052.754319496677
 30
0.0
 11
524.90966695992483
 21
2052.754319496677
 31
0.0
  0
LINE
  5
7E1C
  8
1
 10
491.90966695992392
 20
2022.754319496677
 30
0.0
 11
531.90966695992392
 21
2022.754319496677
 31
0.0
  0
LINE
  5
7E21
  8
1
 10
991.90966695992392
 20
2022.754319496677
 30
0.0
 11
991.90966695992392
 21
2332.7543194966752
 31
0.0
  0
LINE
  5
7E2B
  8
1
 10
491.90966695992392
 20
2022.754319496677
 30
0.0
 11
491.90966695992478
 21
2332.754319496687
 31
0.0
  0
CIRCLE
  5
7E2C
  8
1
 10
509.90966695992392
 20
2052.754319496677
 30
0.0
 40
6.0
  0
LINE
  5
7E2D
  8
1
 10
509.90966695992392
 20
2068.8890273792249
 30
0.0
 11
509.90966695992392
 21
2033.2219478747829
 31
0.0
  0
LINE
  5
7E34
  8
1
 10
991.90966695992392
 20
2332.7543194966752
 30
0.0
 11
491.90966695992478
 21
2332.754319496687
 31
0.0
  0
LINE
  5
7E35
  8
1
 10
951.90966695992392
 20
2022.7543194966779
 30
0.0
 11
991.90966695992302
 21
2022.754319496677
 31
0.0
  0
LINE
  5
7E36
  8
1
 10
991.90966695993302
 20
868.43368700665678
 30
0.0
 11
991.90966695993393
 21
866.13368700665706
 31
0.0
  0
LINE
  5
7E37
  8
1
 10
1061.909666959928
 20
844.13368700665706
 30
0.0
 11
421.90966695992842
 21
844.13368700665706
 31
0.0
  0
LINE
  5
7E38
  8
1
 10
991.90966695993302
 20
868.4336870066569
 30
0.0
 11
946.9096669599212
 21
868.43368700665678
 31
0.0
  0
LINE
  5
7E49
  8
1
 10
979.90966695993404
 20
875.20748400233822
 30
0.0
 11
979.90966695993404
 21
817.82856539053819
 31
0.0
1001
ACAD
1000
ASC_BOUNDS
1002
{
1070
    19
1005
0
1005
0
1002
}
  0
LINE
  5
7E54
  8
1
 10
503.90966695993569
 20
875.20748400233822
 30
0.0
 11
503.90966695993569
 21
817.82856539053819
 31
0.0
1001
ACAD
1000
ASC_BOUNDS
1002
{
1070
    19
1005
0
1005
0
1002
}
  0
LINE
  5
7E5A
  8
1
 10
491.9096669599366
 20
868.4336870066569
 30
0.0
 11
536.90966695994848
 21
868.43368700665678
 31
0.0
  0
LINE
  5
7E5B
  8
1
 10
491.9096669599366
 20
868.43368700665678
 30
0.0
 11
491.90966695993569
 21
866.13368700665706
 31
0.0
  0
LINE
  5
7E5D
  8
1
 10
1574.7340983958411
 20
866.13368700665615
 30
0.0
 11
1925.7340983958411
 21
866.13368700665592
 31
0.0
  0
LINE
  5
7E62
  8
1
 10
1576.255899665674
 20
869.33368700665608
 30
0.0
 11
1882.5340983958411
 21
869.33368700665574
 31
0.0
  0
POLYLINE
  5
7E63
  8
1
 66
     1
 10
0.0
 20
0.0
 30
0.0
  0
VERTEX
  5
8A71
  8
1
 10
1925.7340983958411
 20
869.33368700665574
 30
0.0
  0
VERTEX
  5
8A72
  8
1
 10
1925.7340983958411
 20
866.13368700665569
 30
0.0
  0
SEQEND
  5
8A73
  8
1
  0
POLYLINE
  5
7E67
  8
1
 66
     1
 10
0.0
 20
0.0
 30
0.0
  0
VERTEX
  5
8A74
  8
1
 10
1882.5340983958399
 20
1344.3235326951069
 30
0.0
  0
VERTEX
  5
8A75
  8
1
 10
1882.5340983958411
 20
866.13368700665592
 30
0.0
  0
SEQEND
  5
8A76
  8
1
  0
LINE
  5
7E6B
  8
1
 10
1885.7340983958411
 20
869.33368700665562
 30
0.0
 11
1925.7340983958411
 21
869.33368700665574
 31
0.0
  0
LINE
  5
7E6C
  8
1
 10
1705.5340983958411
 20
1221.133687006655
 30
0.0
 11
1574.7340983958411
 21
866.13368700665615
 31
0.0
  0
LINE
  5
7E71
  8
1
 10
1854.734098395842
 20
878.56728325497386
 30
0.0
 11
1854.7340983958411
 21
813.56728325497374
 31
0.0
1001
ACAD
1000
ASC_BOUNDS
1002
{
1070
    19
1002
}
  0
LINE
  5
7E72
  8
1
 10
1604.734098395842
 20
878.56728325497295
 30
0.0
 11
1604.7340983958411
 21
813.56728325497545
 31
0.0
1001
ACAD
1000
ASC_BOUNDS
1002
{
1070
    19
1002
}
  0
LINE
  5
7E73
  8
2
 10
741.90966695992847
 20
777.02042679365422
 30
0.0
 11
741.90966695992847
 21
1592.6695999701781
 31
0.0
  0
LINE
  5
7E75
  8
2
 10
2172.6061184428581
 20
1221.133687006655
 30
0.0
 11
1545.345977829262
 21
1221.133687006655
 31
0.0
  0
ARC
  5
7E76
  8
1
 10
741.9096669599212
 20
1221.1336870066571
 30
0.0
 40
100.8
 50
285.7971
 51
0.0
  0
ARC
  5
7E77
  8
1
 10
741.9096669599212
 20
1221.1336870066571
 30
0.0
 40
100.8
 50
0.0
 51
254.57230000000001
  0
LINE
  5
7E79
  8
1
 10
769.52736695992098
 20
1124.1336870066571
 30
0.0
 11
714.64026695992095
 21
1124.1336870066571
 31
0.0
  0
LINE
  5
7E7A
  8
1
 10
643.90966695992108
 20
1133.1336870066571
 30
0.0
 11
679.9096669599212
 21
1133.1336870066571
 31
0.0
  0
LINE
  5
7E7B
  8
1
 10
641.9096669599212
 20
1121.1336870066571
 30
0.0
 11
681.90966695992108
 21
1121.1336870066571
 31
0.0
  0
LINE
  5
7E7C
  8
1
 10
642.80186695992143
 20
1132.801787006656
 30
0.0
 11
659.20266695992075
 21
1163.463787006657
 31
0.0
  0
ARC
  5
7E7D
  8
1
 10
643.90966695992108
 20
1131.1336870066571
 30
0.0
 40
2.0
 50
90.0
 51
180.0
  0
LINE
  5
7E7E
  8
1
 10
641.9096669599212
 20
1121.1336870066571
 30
0.0
 11
641.9096669599212
 21
1131.1336870066571
 31
0.0
  0
LINE
  5
7E7F
  8
1
 10
655.90966695992108
 20
1133.1336870066571
 30
0.0
 11
655.90966695992108
 21
1121.1336870066571
 31
0.0
  0
LINE
  5
7E80
  8
1
 10
667.90966695992108
 20
1121.1336870066571
 30
0.0
 11
667.90966695992108
 21
1133.1336870066571
 31
0.0
  0
LINE
  5
7E81
  8
1
 10
661.9096669599212
 20
1134.514187006657
 30
0.0
 11
661.9096669599212
 21
1117.1670870066571
 31
0.0
  0
LINE
  5
7E82
  8
1
 10
681.70716695992076
 20
1140.2448870066571
 30
0.0
 11
675.47466695992068
 21
1134.0123870066559
 31
0.0
  0
LINE
  5
7E83
  8
1
 10
688.45926695992137
 20
1135.6833870066571
 30
0.0
 11
681.90966695992108
 21
1129.1336870066571
 31
0.0
  0
ARC
  5
7E84
  8
1
 10
679.9096669599212
 20
1131.1336870066571
 30
0.0
 40
2.0
 50
0.0
 51
90.0
  0
ARC
  5
7E85
  8
1
 10
673.3532669599208
 20
1136.1336870066571
 30
0.0
 40
3.0
 50
270.0
 51
315.0
  0
LINE
  5
7E86
  8
1
 10
681.90966695992108
 20
1121.1336870066571
 30
0.0
 11
681.90966695992108
 21
1131.1336870066571
 31
0.0
  0
ARC
  5
7E87
  8
1
 10
839.90966695992108
 20
1131.1336870066571
 30
0.0
 40
2.0
 50
0.0
 51
90.0
  0
LINE
  5
7E88
  8
1
 10
841.90966695992108
 20
1121.1336870066571
 30
0.0
 11
801.9096669599212
 21
1121.1336870066571
 31
0.0
  0
LINE
  5
7E89
  8
1
 10
795.65626695992148
 20
1135.3871870066571
 30
0.0
 11
801.9096669599212
 21
1129.1336870066571
 31
0.0
  0
LINE
  5
7E8A
  8
1
 10
840.81886695992125
 20
1133.1731870066569
 30
0.0
 11
824.70016695992115
 21
1163.3074870066571
 31
0.0
  0
LINE
  5
7E8B
  8
1
 10
802.49176695992082
 20
1139.8653870066571
 30
0.0
 11
808.34466695992148
 21
1134.0123870066559
 31
0.0
  0
LINE
  5
7E8C
  8
1
 10
839.90966695992108
 20
1133.1336870066571
 30
0.0
 11
803.9096669599212
 21
1133.1336870066571
 31
0.0
  0
ARC
  5
7E8D
  8
1
 10
810.46606695992159
 20
1136.1336870066571
 30
0.0
 40
3.0
 50
225.0
 51
270.0
  0
ARC
  5
7E8E
  8
1
 10
803.9096669599212
 20
1131.1336870066571
 30
0.0
 40
2.0
 50
90.0
 51
180.0
  0
LINE
  5
7E8F
  8
1
 10
801.9096669599212
 20
1121.1336870066571
 30
0.0
 11
801.9096669599212
 21
1131.1336870066571
 31
0.0
  0
LINE
  5
7E90
  8
1
 10
815.90966695992108
 20
1121.1336870066571
 30
0.0
 11
815.90966695992108
 21
1133.1336870066571
 31
0.0
  0
LINE
  5
7E91
  8
1
 10
827.9096669599212
 20
1133.1336870066571
 30
0.0
 11
827.9096669599212
 21
1121.1336870066571
 31
0.0
  0
LINE
  5
7E92
  8
1
 10
821.9096669599212
 20
1134.514187006657
 30
0.0
 11
821.9096669599212
 21
1117.1670870066571
 31
0.0
  0
LINE
  5
7E93
  8
1
 10
841.90966695992108
 20
1121.1336870066571
 30
0.0
 11
841.90966695992108
 21
1131.1336870066571
 31
0.0
  0
LINE
  5
7E94
  8
2
 10
436.96615711235597
 20
1221.1336870066571
 30
0.0
 11
1031.2116924635859
 21
1221.1336870066571
 31
0.0
  0
LINE
  5
7E95
  8
1
 10
1742.4617778292611
 20
1321.133687006655
 30
0.0
 11
1667.1220778292609
 21
1321.133687006655
 31
0.0
  0
LINE
  5
7E96
  8
1
 10
1668.689027973305
 20
1121.133687006655
 30
0.0
 11
1658.46177782926
 21
1121.133687006655
 31
0.0
  0
LINE
  5
7E97
  8
1
 10
1659.46177782926
 20
1321.9336870066561
 30
0.0
 11
1659.46177782926
 21
1171.133687006655
 31
0.0
  0
LINE
  5
7E98
  8
1
 10
1619.46177782926
 20
1125.133687006655
 30
0.0
 11
1619.46177782926
 21
1320.433687006655
 31
0.0
  0
LINE
  5
7E99
  8
1
 10
1569.46177782926
 20
1137.5807870066551
 30
0.0
 11
1569.46177782926
 21
1304.7145870066549
 31
0.0
  0
LINE
  5
7E9A
  8
1
 10
1645.46177782926
 20
1162.133687006655
 30
0.0
 11
1659.46177782926
 21
1171.133687006655
 31
0.0
  0
LINE
  5
7E9B
  8
1
 10
1645.3622778292611
 20
1136.133687006655
 30
0.0
 11
1663.46177782926
 21
1136.133687006655
 31
0.0
  0
LINE
  5
7E9C
  8
1
 10
1619.46177782926
 20
1125.133687006655
 30
0.0
 11
1570.8750778292599
 21
1135.8227870066551
 31
0.0
  0
ARC
  5
7E9D
  8
1
 10
1571.2615778292609
 20
1137.5805870066549
 30
0.0
 40
1.7998000000000001
 50
179.99610000000001
 51
257.59829999999988
  0
LINE
  5
7E9E
  8
1
 10
1645.46177782926
 20
1124.133687006655
 30
0.0
 11
1645.46177782926
 21
1162.133687006655
 31
0.0
  0
LINE
  5
7E9F
  8
1
 10
1645.46177782926
 20
1124.133687006655
 30
0.0
 11
1620.46177782926
 21
1124.133687006655
 31
0.0
  0
ARC
  5
7EA0
  8
1
 10
1620.4618778292599
 20
1125.133687006655
 30
0.0
 40
1.0000999999999991
 50
180.0
 51
269.99650000000003
  0
LINE
  5
7EA1
  8
1
 10
1660.4357778292599
 20
1133.1593870066549
 30
0.0
 11
1673.1808937344899
 21
1133.324912887545
 31
0.0
  0
ARC
  5
7EA2
  8
1
 10
1660.46177782926
 20
1131.1594870066549
 30
0.0
 40
2.0
 50
90.744900000000001
 51
179.99819999999991
  0
LINE
  5
7EA3
  8
1
 10
1658.46177782926
 20
1121.133687006655
 30
0.0
 11
1658.46177782926
 21
1131.1595870066551
 31
0.0
  0
LINE
  5
7EA4
  8
1
 10
1666.46177782926
 20
1133.0184870066551
 30
0.0
 11
1666.46177782926
 21
1121.133687006655
 31
0.0
  0
LINE
  5
7EA5
  8
1
 10
1659.46177782926
 20
1321.9336870066561
 30
0.0
 11
1620.96177782926
 21
1321.9336870066561
 31
0.0
  0
LINE
  5
7EA6
  8
1
 10
1619.46177782926
 20
1318.133687006655
 30
0.0
 11
1570.841677829261
 21
1306.4648870066551
 31
0.0
  0
ARC
  5
7EA7
  8
1
 10
1571.26167782926
 20
1304.7146870066549
 30
0.0
 40
1.7999000000000001
 50
103.49339999999989
 51
180.00189999999989
  0
ARC
  5
7EA8
  8
1
 10
1620.96177782926
 20
1320.433687006655
 30
0.0
 40
1.5
 50
90.0
 51
180.0
  0
LINE
  5
7EA9
  8
1
 10
1659.2934778292611
 20
1307.5743870066549
 30
0.0
 11
1667.1220778292609
 21
1321.133687006655
 31
0.0
  0
LINE
  5
7EAB
  8
1
 10
1817.8014778292611
 20
1321.133687006655
 30
0.0
 11
1826.4617778292611
 21
1306.133687006655
 31
0.0
  0
LINE
  5
7EAC
  8
1
 10
1742.4617778292611
 20
1321.133687006655
 30
0.0
 11
1817.8014778292611
 21
1321.133687006655
 31
0.0
  0
LINE
  5
7EAD
  8
1
 10
1668.689027973305
 20
1121.133687006655
 30
0.0
 11
1619.93409839584
 21
1121.133687006655
 31
0.0
  0
LINE
  5
7EAE
  8
1
 10
1634.811177051826
 20
1029.186920361966
 30
0.0
 11
1619.93409839584
 21
1062.644922456074
 31
0.0
  0
POLYLINE
  5
7EAF
  8
1
 66
     1
 10
0.0
 20
0.0
 30
0.0
  0
VERTEX
  5
8A77
  8
1
 10
1619.93409839584
 20
1121.133687006655
 30
0.0
  0
VERTEX
  5
8A78
  8
1
 10
1619.93409839584
 20
1062.644922456072
 30
0.0
  0
SEQEND
  5
8A79
  8
1
  0
LINE
  5
7EB3
  8
1
 10
531.90966695992392
 20
2022.754319496677
 30
0.0
 11
531.90966695992483
 21
2332.7543194966861
 31
0.0
  0
LINE
  5
7EB4
  8
1
 10
951.90966695992392
 20
2022.754319496677
 30
0.0
 11
951.90966695992392
 21
2332.7543194966752
 31
0.0
  0
LINE
  5
7EB5
  8
1
 10
494.2173787632837
 20
2302.754319496677
 30
0.0
 11
524.90966695992483
 21
2302.754319496677
 31
0.0
  0
CIRCLE
  5
7EB6
  8
1
 10
509.90966695992392
 20
2302.754319496677
 30
0.0
 40
6.0
  0
LINE
  5
7EB7
  8
1
 10
509.90966695992392
 20
2318.8890273792249
 30
0.0
 11
509.90966695992392
 21
2283.2219478747829
 31
0.0
  0
LINE
  5
7EB8
  8
1
 10
989.60195515656335
 20
2052.754319496677
 30
0.0
 11
958.90966695992211
 21
2052.754319496677
 31
0.0
  0
CIRCLE
  5
7EB9
  8
1
 10
973.90966695992404
 20
2052.754319496677
 30
0.0
 40
6.0
  0
LINE
  5
7EBA
  8
1
 10
973.90966695992313
 20
2068.8890273792249
 30
0.0
 11
973.90966695992404
 21
2033.2219478747829
 31
0.0
  0
CIRCLE
  5
7EBB
  8
1
 10
973.90966695992404
 20
2302.754319496677
 30
0.0
 40
6.0
  0
LINE
  5
7EBC
  8
1
 10
989.60195515656335
 20
2302.754319496677
 30
0.0
 11
958.90966695992211
 21
2302.754319496677
 31
0.0
  0
LINE
  5
7EBD
  8
1
 10
973.90966695992313
 20
2318.8890273792249
 30
0.0
 11
973.90966695992404
 21
2283.2219478747829
 31
0.0
  0
LINE
  5
7EC4
  8
2
 10
396.5803667262353
 20
2454.754319496677
 30
0.0
 11
1019.565043838627
 21
2454.754319496677
 31
0.0
1001
ACAD
1000
ASC_BOUNDS
1002
{
1070
    19
1005
0
1005
0
1002
}
  0
ARC
  5
7EC9
  8
1
 10
923.40966695992654
 20
2334.754319496677
 30
0.0
 40
1.0
 50
269.99999999999989
 51
0.0
  0
LINE
  5
7ED1
  8
1
 10
825.46256695992633
 20
2017.4819989300961
 30
0.0
 11
658.32876695992672
 21
2017.4819989300961
 31
0.0
  0
LINE
  5
7ED3
  8
1
 10
641.9096669599229
 20
2190.4819989300959
 30
0.0
 11
641.9096669599229
 21
2115.1422989300968
 31
0.0
  0
LINE
  5
7ED5
  8
1
 10
641.10966695992283
 20
2107.4819989300968
 30
0.0
 11
842.70966695992308
 21
2107.4819989300968
 31
0.0
  0
LINE
  5
7ED6
  8
1
 10
837.9096669599229
 20
2067.4819989300959
 30
0.0
 11
642.60966695992283
 21
2067.4819989300959
 31
0.0
  0
LINE
  5
7ED7
  8
1
 10
825.46256695992258
 20
2017.4819989300961
 30
0.0
 11
658.32876695992297
 21
2017.4819989300961
 31
0.0
  0
LINE
  5
7ED8
  8
1
 10
641.10966695992283
 20
2107.4819989300968
 30
0.0
 11
641.10966695992283
 21
2068.9819989300959
 31
0.0
  0
LINE
  5
7ED9
  8
1
 10
644.90966695992302
 20
2067.4819989300959
 30
0.0
 11
656.57846695992237
 21
2018.861898930096
 31
0.0
  0
ARC
  5
7EDA
  8
1
 10
658.32866695992277
 20
2019.2818989300961
 30
0.0
 40
1.7999000000000001
 50
193.49339999999989
 51
270.00189999999992
  0
ARC
  5
7EDB
  8
1
 10
642.60966695992283
 20
2068.9819989300959
 30
0.0
 40
1.5
 50
180.0
 51
270.0
  0
LINE
  5
7EDC
  8
1
 10
655.46896695992291
 20
2107.313698930097
 30
0.0
 11
641.9096669599229
 21
2115.1422989300968
 31
0.0
  0
LINE
  5
7EDD
  8
1
 10
659.90966695992302
 20
2312.4819989300959
 30
0.0
 11
823.90966695992313
 21
2312.4819989300959
 31
0.0
  0
LINE
  5
7EDE
  8
1
 10
755.90966695992302
 20
2323.4819989300959
 30
0.0
 11
755.90966695992302
 21
2328.3095650090531
 31
0.0
  0
LINE
  5
7EDF
  8
1
 10
641.9096669599229
 20
2265.8216989300972
 30
0.0
 11
656.90966695992302
 21
2274.4819989300968
 31
0.0
  0
LINE
  5
7EE0
  8
1
 10
641.9096669599229
 20
2190.4819989300959
 30
0.0
 11
641.9096669599229
 21
2265.8216989300972
 31
0.0
  0
LINE
  5
7EE1
  8
1
 10
826.90966695992302
 20
2277.4819989300968
 30
0.0
 11
656.90966695992302
 21
2277.4819989300968
 31
0.0
  0
LINE
  5
7EE2
  8
1
 10
778.90966695992302
 20
2318.4819989300968
 30
0.0
 11
704.9096669599229
 21
2318.4819989300968
 31
0.0
  0
ARC
  5
7EE3
  8
1
 10
778.90966695992302
 20
2315.4819989300959
 30
0.0
 40
2.9998999999999989
 50
359.99880000000002
 51
90.001199999999997
  0
LINE
  5
7EE4
  8
1
 10
781.90966695992302
 20
2312.4819989300959
 30
0.0
 11
781.90966695992302
 21
2315.4819989300959
 31
0.0
  0
LINE
  5
7EE5
  8
1
 10
756.50956695992306
 20
2318.4819989300968
 30
0.0
 11
756.50956695992306
 21
2332.7543194966811
 31
0.0
  0
LINE
  5
7EE6
  8
1
 10
727.30966695992265
 20
2318.4819989300968
 30
0.0
 11
727.30966695992265
 21
2332.7543194966811
 31
0.0
  0
ARC
  5
7EE7
  8
1
 10
659.90956695992281
 20
2309.4819989300968
 30
0.0
 40
2.9998999999999989
 50
89.998800000000074
 51
180.00120000000001
  0
LINE
  5
7EE8
  8
1
 10
656.90966695992302
 20
2277.4819989300968
 30
0.0
 11
656.90966695992302
 21
2309.4819989300968
 31
0.0
  0
LINE
  5
7EE9
  8
1
 10
656.90966695992302
 20
2277.4819989300968
 30
0.0
 11
656.90966695992302
 21
2274.4819989300968
 31
0.0
  0
ARC
  5
7EEA
  8
1
 10
704.9095669599227
 20
2315.4819989300959
 30
0.0
 40
2.9998999999999989
 50
89.998800000000074
 51
180.00120000000001
  0
LINE
  5
7EEB
  8
1
 10
701.90966695992302
 20
2312.4819989300959
 30
0.0
 11
701.90966695992302
 21
2315.4819989300959
 31
0.0
  0
LINE
  5
7EEC
  8
1
 10
838.9096669599229
 20
2067.4819989300959
 30
0.0
 11
827.24086695992264
 21
2018.861898930096
 31
0.0
  0
LINE
  5
7EED
  8
1
 10
842.70966695992308
 20
2107.4819989300968
 30
0.0
 11
842.70966695992308
 21
2068.9819989300959
 31
0.0
  0
ARC
  5
7EEE
  8
1
 10
825.49066695992315
 20
2019.2818989300961
 30
0.0
 40
1.7999000000000001
 50
269.99810000000002
 51
346.50659999999999
  0
ARC
  5
7EEF
  8
1
 10
841.2096669599232
 20
2068.9819989300959
 30
0.0
 40
1.5
 50
270.0
 51
0.0
  0
LINE
  5
7EF0
  8
1
 10
828.35036695992301
 20
2107.313698930097
 30
0.0
 11
841.90966695992302
 21
2115.1422989300968
 31
0.0
  0
LINE
  5
7EF1
  8
1
 10
826.90966695992302
 20
2277.4819989300968
 30
0.0
 11
826.90966695992302
 21
2274.4819989300968
 31
0.0
  0
LINE
  5
7EF2
  8
1
 10
841.90966695992302
 20
2265.8216989300972
 30
0.0
 11
826.90966695992302
 21
2274.4819989300968
 31
0.0
  0
LINE
  5
7EF3
  8
1
 10
826.90966695992302
 20
2277.4819989300968
 30
0.0
 11
826.90966695992302
 21
2309.4819989300968
 31
0.0
  0
ARC
  5
7EF4
  8
1
 10
823.90976695992322
 20
2309.4819989300968
 30
0.0
 40
2.9998999999999989
 50
359.9987999999999
 51
90.001199999999969
  0
LINE
  5
7EF5
  8
1
 10
841.90966695992302
 20
2265.8216989300959
 30
0.0
 11
841.90966695992302
 21
2115.1422989300968
 31
0.0
  0
LINE
  5
7EFA
  8
1
 10
945.40966695992222
 20
2022.7543194966761
 30
0.0
 11
945.40966695992313
 21
2332.7543194966761
 31
0.0
  0
LINE
  5
7EFB
  8
1
 10
538.4096669599229
 20
2022.7543194966861
 30
0.0
 11
538.40966695992199
 21
2332.7543194966861
 31
0.0
  0
POLYLINE
  5
7EFC
  8
1
 66
     1
 10
0.0
 20
0.0
 30
0.0
  0
VERTEX
  5
8A7A
  8
1
 10
538.40966695992199
 20
2071.1543194966771
 30
0.0
  0
VERTEX
  5
8A7B
  8
1
 10
641.10966695992283
 20
2071.1543194966771
 30
0.0
  0
SEQEND
  5
8A7C
  8
1
  0
POLYLINE
  5
7F00
  8
1
 66
     1
 10
0.0
 20
0.0
 30
0.0
  0
VERTEX
  5
8A7D
  8
1
 10
842.70966695992217
 20
2071.1543194966762
 30
0.0
  0
VERTEX
  5
8A7E
  8
1
 10
945.40966695992222
 20
2071.1543194966748
 30
0.0
  0
SEQEND
  5
8A7F
  8
1
  0
LINE
  5
7F04
  8
1
 10
538.4096669599229
 20
2022.7543194966861
 30
0.0
 11
655.64428794532978
 21
2022.7543194966829
 31
0.0
  0
LINE
  5
7F05
  8
1
 10
828.17504597451432
 20
2022.754319496679
 30
0.0
 11
945.40966695992108
 21
2022.7543194966761
 31
0.0
  0
POLYLINE
  5
7F06
  8
1
 66
     1
 10
0.0
 20
0.0
 30
0.0
  0
VERTEX
  5
8A80
  8
1
 10
538.4096669599229
 20
2284.1543194966771
 30
0.0
  0
VERTEX
  5
8A81
  8
1
 10
656.90966695992302
 20
2284.1543194966771
 30
0.0
  0
SEQEND
  5
8A82
  8
1
  0
POLYLINE
  5
7F0A
  8
1
 66
     1
 10
0.0
 20
0.0
 30
0.0
  0
VERTEX
  5
8A83
  8
1
 10
826.90966695992302
 20
2284.1543194966762
 30
0.0
  0
VERTEX
  5
8A84
  8
1
 10
945.40966695992313
 20
2284.1543194966748
 30
0.0
  0
SEQEND
  5
8A85
  8
1
  0
LINE
  5
7F1A
  8
4
 10
2220.0
 20
600.0
 30
0.0
 11
2220.0
 21
360.0
 31
0.0
  0
LINE
  5
7F1B
  8
4
 10
1380.0
 20
600.0
 30
0.0
 11
1380.0
 21
360.0
 31
0.0
  0
LINE
  5
7F1C
  8
4
 10
780.0
 20
600.0
 30
0.0
 11
780.0
 21
360.0
 31
0.0
  0
LINE
  5
7F1F
  8
4
 10
780.0
 20
360.0
 30
0.0
 11
2220.0
 21
360.0
 31
0.0
  0
LINE
  5
7F20
  8
4
 10
780.0
 20
480.0
 30
0.0
 11
2220.0
 21
480.0
 31
0.0
  0
TEXT
  5
7F21
  8
4
 10
826.20249701628188
 20
517.85163103993546
 30
0.0
 40
60.0
  1
機器名称
  0
TEXT
  5
7F22
  8
4
 10
823.509727229757
 20
385.97418807841308
 30
0.0
 40
60.0
  1
機器型番
  0
TEXT
  5
7F23
  8
4
 10
1413.2144945851969
 20
507.08612274908222
 30
0.0
 40
60.0
  1
ミツヤ多翼送風機
  0
TEXT
  5
7F24
  8
4
 10
1423.9853947025761
 20
380.59150113593199
 30
0.0
 40
60.0
  1
MF#2-7
  0
TEXT
  5
7F26
  8
4
 10
973.1750838961724
 20
2860.1146095990189
 30
0.0
 40
64.799999999999997
  1
天枠防振ベット
  0
TEXT
  5
7F27
  8
4
 10
379.40111199533561
 20
3040.6571714391571
 30
0.0
 40
86.400000000000006
  1
遠心式片吸込直動形多翼ファン
  0
LINE
  5
7F28
  8
4
 10
300.0
 20
2963.2905051177659
 30
0.0
 11
2220.0
 21
2963.2905051177659
 31
0.0
  0
LINE
  5
7F29
  8
4
 10
300.0
 20
3203.290505117765
 30
0.0
 11
2220.0
 21
3203.290505117765
 31
0.0
  0
LINE
  5
7F2A
  8
4
 10
780.0
 20
600.0
 30
0.0
 11
2220.0
 21
600.0
 31
0.0
  0
LINE
  5
7F2B
  8
4
 10
300.0
 20
3203.290505117765
 30
0.0
 11
300.0
 21
2963.2905051177659
 31
0.0
  0
TEXT
  5
7F2C
  8
4
 10
450.14448520492982
 20
2858.7833730556122
 30
0.0
 40
64.799999999999997
  1
右回転右横向
  0
TEXT
  5
7F2D
  8
4
 10
1762.763471099147
 20
3247.2732977943701
 30
0.0
 40
67.200000000000003
  1
No.
  0
TEXT
  5
7F2E
  8
4
 10
1573.555275120015
 20
2860.1146095990189
 30
0.0
 40
64.799999999999997
  1
縮尺：1/12
  0
LINE
  5
7F2F
  8
4
 10
2220.0
 20
3203.290505117765
 30
0.0
 11
2220.0
 21
2963.2905051177659
 31
0.0
  0
LINE
  5
7F30
  8
4
 10
2520.0
 20
3540.0
 30
0.0
 11
2520.0
 21
3540.0
 31
0.0
  0
LINE
  5
7F31
  8
4
 10
1728.740906831837
 20
3217.5162997504808
 30
0.0
 11
1728.740906831837
 21
3343.9827138597029
 31
0.0
  0
LINE
  5
7F32
  8
4
 10
1728.740906831837
 20
3343.9827138597029
 30
0.0
 11
2220.0
 21
3343.9827138597029
 31
0.0
  0
LINE
  5
7F33
  8
4
 10
2220.0
 20
3343.9827138597029
 30
0.0
 11
2220.0
 21
3217.5162997504808
 31
0.0
  0
LINE
  5
7F34
  8
4
 10
2220.0
 20
3217.5162997504808
 30
0.0
 11
1728.740906831837
 21
3217.5162997504808
 31
0.0
  0
LINE
  5
7F35
  8
4
 10
0.0
 20
0.0
 30
0.0
 11
0.0
 21
3540.0
 31
0.0
  0
LINE
  5
7F36
  8
4
 10
0.0
 20
3540.0
 30
0.0
 11
2520.0
 21
3540.0
 31
0.0
  0
LINE
  5
7F37
  8
4
 10
2520.0
 20
3540.0
 30
0.0
 11
2520.0
 21
0.0
 31
0.0
  0
LINE
  5
7F38
  8
4
 10
2520.0
 20
0.0
 30
0.0
 11
0.0
 21
0.0
 31
0.0
  0
DIMENSION
  5
7F5F
  8
3
  2
*D1
 10
1240.3245551304219
 20
1221.1336870066491
 30
0.0
 11
1240.3245551304219
 21
1398.8922449071681
 31
0.0
 70
   128
 13
991.90966695993211
 23
1536.133687006653
 33
0.0
 14
991.90966695992245
 24
1221.1336870066491
 34
0.0
 50
270.0
1001
ACAD
1000
DSTYLE
1002
{
1070
   287
1070
     3
1070
   287
1070
     3
1070
    40
1040
12.0
1070
   143
1040
0.039
1070
   172
1070
     1
1070
   271
1070
     0
1070
   279
1070
     0
1070
   288
1070
     1
1002
}
  0
DIMENSION
  5
7F99
  8
3
  2
*D2
 10
1243.1959933284611
 20
866.13368700665706
 30
0.0
 11
1213.1959933284611
 21
1043.6336870066571
 31
0.0
 70
     0
 13
1031.2116924635859
 23
1221.1336870066571
 33
0.0
 14
991.90966695993393
 24
866.13368700665706
 34
0.0
 50
90.0
1001
ACAD
1000
DSTYLE
1002
{
1070
   287
1070
     3
1070
   287
1070
     3
1070
    40
1040
12.0
1070
   143
1040
0.039
1070
   172
1070
     1
1070
   271
1070
     0
1070
   279
1070
     0
1070
   288
1070
     1
1002
}
  0
DIMENSION
  5
802D
  8
3
  2
*D4
 10
741.90966695992847
 20
684.41099067504183
 30
0.0
 11
608.12620514509206
 21
684.41099067504183
 31
0.0
 70
   128
 13
341.90966695992842
 23
804.13368700665706
 33
0.0
 14
741.90966695992847
 24
777.02042679365422
 34
0.0
1001
ACAD
1000
DSTYLE
1002
{
1070
   287
1070
     3
1070
   287
1070
     3
1070
    40
1040
12.0
1070
   143
1040
0.039
1070
   172
1070
     1
1070
   271
1070
     0
1070
   279
1070
     0
1070
   288
1070
     1
1002
}
  0
DIMENSION
  5
8039
  8
3
  2
*D5
 10
1141.909666959928
 20
684.41099067504183
 30
0.0
 11
941.90966695992836
 21
714.41099067504183
 31
0.0
 70
     0
 13
741.90966695992847
 23
777.02042679365422
 33
0.0
 14
1141.909666959928
 24
804.6722192595812
 34
0.0
1001
ACAD
1000
DSTYLE
1002
{
1070
   287
1070
     4
1070
   287
1070
     4
1070
    40
1040
12.0
1070
    75
1070
     1
1070
   143
1040
0.039
1070
   172
1070
     1
1070
   271
1070
     0
1070
   279
1070
     1
1070
   288
1070
     1
1002
}
  0
DIMENSION
  5
8061
  8
3
  2
*D6
 10
2118.734098395842
 20
1730.95754290895
 30
0.0
 11
2006.4014834983279
 21
1730.95754290895
 31
0.0
 70
   128
 13
1894.734098395842
 23
1529.8140104752699
 33
0.0
 14
2118.734098395842
 24
1524.6146463633261
 34
0.0
1001
ACAD
1000
DSTYLE
1002
{
1070
   287
1070
     3
1070
   287
1070
     3
1070
    40
1040
12.0
1070
   143
1040
0.039
1070
   172
1070
     1
1070
   271
1070
     0
1070
   279
1070
     0
1070
   288
1070
     1
1002
}
  0
DIMENSION
  5
8070
  8
3
  2
*D7
 10
2006.7340983958411
 20
1828.7826643674091
 30
0.0
 11
2067.252263940582
 21
1828.7826643674091
 31
0.0
 70
   128
 13
2127.7704294853229
 23
1403.803400427533
 33
0.0
 14
2006.7340983958411
 24
1788.2632023106221
 34
0.0
1001
ACAD
1000
DSTYLE
1002
{
1070
   287
1070
     3
1070
   287
1070
     3
1070
    40
1040
12.0
1070
   143
1040
0.039
1070
   172
1070
     1
1070
   271
1070
     0
1070
   279
1070
     0
1070
   288
1070
     1
1002
}
  0
DIMENSION
  5
8089
  8
3
  2
*D8
 10
1569.46177782926
 20
1828.7826643674091
 30
0.0
 11
1788.0979381125501
 21
1868.2112357959811
 31
0.0
 70
     0
  1
(420)
 13
2006.7340983958411
 23
1788.2632023106221
 33
0.0
 14
1569.46177782926
 24
1304.7145870066549
 34
0.0
1001
ACAD
1000
DSTYLE
1002
{
1070
   287
1070
     4
1070
   287
1070
     4
1070
    40
1040
12.0
1070
    75
1070
     1
1070
   143
1040
0.039
1070
   172
1070
     1
1070
   271
1070
     0
1070
   279
1070
     1
1070
   288
1070
     1
1002
}
  0
DIMENSION
  5
80AE
  8
3
  2
*D9
 10
2006.7340983958411
 20
675.69083691048115
 30
0.0
 11
1713.4249120702971
 21
709.63289619069565
 31
0.0
 70
   128
 13
1471.7340983958411
 23
804.13368700665717
 33
0.0
 14
2006.7340983958411
 24
855.76203463930597
 34
0.0
1001
ACAD
1000
DSTYLE
1002
{
1070
   288
1070
     1
1070
   172
1070
     1
1070
    40
1040
12.0
1070
   271
1070
     0
1070
   143
1040
0.039
1002
}
  0
DIMENSION
  5
80F4
  8
3
  2
*D10
 10
2372.2058127563432
 20
1063.633687006655
 30
0.0
 11
2372.2058127563432
 21
1212.2656715297351
 31
0.0
 70
   128
 13
2127.7340983958411
 23
1378.633687006655
 33
0.0
 14
2127.7340983958411
 24
1063.633687006655
 34
0.0
 50
90.0
1001
ACAD
1000
DSTYLE
1002
{
1070
   287
1070
     3
1070
   287
1070
     3
1070
     3
1000
φ<>
1070
    40
1040
12.0
1070
   143
1040
0.039
1070
   172
1070
     1
1070
   271
1070
     0
1070
   279
1070
     0
1070
   288
1070
     1
1002
}
  0
POLYLINE
  5
81C0
  8
1
 66
     1
 10
0.0
 20
0.0
 30
0.0
  0
VERTEX
  5
8ACF
  8
1
 10
467.71210212061033
 20
1221.1336870066571
 30
0.0
 42
0.1730348317435523
  0
VERTEX
  5
8AD0
  8
1
 10
536.90966695992017
 20
1066.34427601009
 30
0.0
 42
0.3171102270576576
  0
SEQEND
  5
8AD1
  8
1
  0
POLYLINE
  5
81C4
  8
1
 66
     1
 10
0.0
 20
0.0
 30
0.0
  0
VERTEX
  5
8AD2
  8
1
 10
922.57303001630135
 20
1121.1336870066571
 30
0.0
 42
0.0510919105555148
  0
VERTEX
  5
8AD3
  8
1
 10
935.11013089465666
 20
1162.892364541394
 30
0.0
 42
0.3154517505481823
  0
SEQEND
  5
8AD4
  8
1
  0
DIMENSION
  5
81D4
  8
3
  2
*D11
 10
741.90966695992847
 20
1582.514206498093
 30
0.0
 11
880.12077913122448
 21
1582.514206498093
 31
0.0
 70
   128
 13
991.90966695993245
 23
1557.133687006653
 33
0.0
 14
741.90966695992847
 24
1592.6695999701781
 34
0.0
1001
ACAD
1000
DSTYLE
1002
{
1070
   287
1070
     3
1070
   287
1070
     3
1070
    40
1040
12.0
1070
   143
1040
0.039
1070
   172
1070
     1
1070
   271
1070
     0
1070
   279
1070
     0
1070
   288
1070
     1
1002
}
  0
DIMENSION
  5
81E0
  8
3
  2
*D12
 10
477.90966695992392
 20
1582.514206498093
 30
0.0
 11
609.9096669599262
 21
1612.5142064980921
 31
0.0
 70
     0
 13
741.90966695992847
 23
1592.6695999701781
 33
0.0
 14
477.90966695992392
 24
1246.633687006658
 34
0.0
1001
ACAD
1000
DSTYLE
1002
{
1070
   287
1070
     4
1070
   287
1070
     4
1070
    40
1040
12.0
1070
    75
1070
     1
1070
   143
1040
0.039
1070
   172
1070
     1
1070
   271
1070
     0
1070
   279
1070
     1
1070
   288
1070
     1
1002
}
  0
LINE
  5
81EE
  8
1
 10
991.90966695992745
 20
2587.7543194966761
 30
0.0
 11
991.90966695992802
 21
2321.754319496677
 31
0.0
  0
LINE
  5
81EF
  8
1
 10
971.9096669599279
 20
2548.9543194966768
 30
0.0
 11
971.9096669599279
 21
2360.5543194966781
 31
0.0
  0
LINE
  5
81F0
  8
1
 10
990.70966695992809
 20
2587.754319496677
 30
0.0
 11
990.70966695992809
 21
2321.7543194966761
 31
0.0
  0
LINE
  5
81F1
  8
1
 10
477.90966695992478
 20
2552.754319496677
 30
0.0
 11
477.90966695992569
 21
2356.754319496677
 31
0.0
  0
LINE
  5
81F2
  8
2
 10
741.90966695992483
 20
1923.574292821412
 30
0.0
 11
741.90966695992483
 21
2595.7556719426429
 31
0.0
  0
LINE
  5
81F3
  8
1
 10
741.90966695992483
 20
2567.7543194966752
 30
0.0
 11
492.90966695992478
 21
2567.754319496677
 31
0.0
  0
ARC
  5
81FD
  8
1
 10
492.90966695992478
 20
2552.754319496677
 30
0.0
 40
15.0
 50
90.0
 51
180.0
  0
ARC
  5
81FE
  8
1
 10
560.40966695992427
 20
2574.754319496677
 30
0.0
 40
1.0
 50
89.999999999999943
 51
180.0
  0
LINE
  5
81FF
  8
1
 10
559.40966695992438
 20
2567.7543194966761
 30
0.0
 11
559.40966695992438
 21
2574.754319496677
 31
0.0
  0
LINE
  5
8203
  8
1
 10
991.90966695992802
 20
2567.7543194966761
 30
0.0
 11
741.90966695992483
 21
2567.7543194966761
 31
0.0
  0
POLYLINE
  5
8204
  8
1
 66
     1
 10
0.0
 20
0.0
 30
0.0
  0
VERTEX
  5
8AE6
  8
1
 10
923.40966695992438
 20
2575.754319496677
 30
0.0
  0
VERTEX
  5
8AE7
  8
1
 10
741.90966695992438
 20
2575.7543194966779
 30
0.0
  0
VERTEX
  5
8AE8
  8
1
 10
560.40966695992427
 20
2575.7543194966779
 30
0.0
  0
SEQEND
  5
8AE9
  8
1
  0
LINE
  5
8209
  8
1
 10
990.70966695992809
 20
2567.7543194966761
 30
0.0
 11
971.9096669599279
 21
2548.9543194966768
 31
0.0
  0
LINE
  5
820A
  8
1
 10
991.90966695992745
 20
2587.7543194966761
 30
0.0
 11
990.70966695992809
 21
2587.7543194966761
 31
0.0
1001
ACAD
1000
ASC_BOUNDS
1002
{
1070
    19
1002
}
  0
LINE
  5
820B
  8
1
 10
924.40966695992392
 20
2568.7543194966752
 30
0.0
 11
924.40966695992438
 21
2574.754319496677
 31
0.0
  0
ARC
  5
820C
  8
1
 10
925.40966695992381
 20
2568.7543194966752
 30
0.0
 40
1.0
 50
180.0
 51
270.0
  0
ARC
  5
820D
  8
1
 10
923.40966695992438
 20
2574.754319496677
 30
0.0
 40
1.0
 50
0.0
 51
90.000000000000057
  0
LINE
  5
820F
  8
1
 10
741.90966695992529
 20
2341.7543194966802
 30
0.0
 11
492.90966695992569
 21
2341.754319496677
 31
0.0
  0
POLYLINE
  5
8210
  8
1
 66
     1
 10
0.0
 20
0.0
 30
0.0
  0
VERTEX
  5
8AEA
  8
1
 10
721.57936418010104
 20
2333.7543194966761
 30
0.0
  0
VERTEX
  5
8AEB
  8
1
 10
560.40966695992574
 20
2333.754319496677
 30
0.0
  0
SEQEND
  5
8AEC
  8
1
  0
LINE
  5
8214
  8
1
 10
561.40966695992574
 20
2334.7543194966761
 30
0.0
 11
589.11036861935827
 21
2334.7543194966761
 31
0.0
  0
LINE
  5
8215
  8
1
 10
560.40966695992392
 20
2341.7543194966752
 30
0.0
 11
560.40966695992574
 21
2335.7543194966752
 31
0.0
  0
LINE
  5
8216
  8
1
 10
559.40966695992574
 20
2340.754319496677
 30
0.0
 11
559.40966695992574
 21
2334.7543194966761
 31
0.0
  0
ARC
  5
8217
  8
1
 10
492.90966695992569
 20
2356.754319496677
 30
0.0
 40
15.0
 50
180.0
 51
270.0
  0
ARC
  5
8218
  8
1
 10
558.40966695992574
 20
2340.754319496677
 30
0.0
 40
1.0
 50
0.0
 51
90.0
  0
ARC
  5
8219
  8
1
 10
561.40966695992574
 20
2335.754319496677
 30
0.0
 40
1.0
 50
180.0
 51
270.00000000000068
  0
ARC
  5
821A
  8
1
 10
560.40966695992574
 20
2334.754319496677
 30
0.0
 40
1.0
 50
180.0
 51
270.00000000000011
  0
ARC
  5
821B
  8
1
 10
562.2550867719342
 20
2375.3281726485752
 30
0.0
 40
48.656384192584412
 50
303.50003366526488
 51
316.36834872316251
  0
ARC
  5
821C
  8
1
 10
922.40966695992483
 20
2335.754319496677
 30
0.0
 40
1.0
 50
269.9999999999992
 51
0.0
  0
LINE
  5
821D
  8
1
 10
991.90966695992745
 20
2341.7543194966761
 30
0.0
 11
741.90966695992529
 21
2341.7543194966761
 31
0.0
  0
POLYLINE
  5
821E
  8
1
 66
     1
 10
0.0
 20
0.0
 30
0.0
  0
VERTEX
  5
8AED
  8
1
 10
923.40966695992483
 20
2333.754319496677
 30
0.0
  0
VERTEX
  5
8AEE
  8
1
 10
741.90966695992483
 20
2333.7543194966761
 30
0.0
  0
VERTEX
  5
8AEF
  8
1
 10
721.57936418010104
 20
2333.7543194966761
 30
0.0
  0
SEQEND
  5
8AF0
  8
1
  0
ARC
  5
8223
  8
1
 10
921.5642471479149
 20
2375.3281726485752
 30
0.0
 40
48.656384192584412
 50
223.63165127683709
 51
236.49996633473509
  0
LINE
  5
8224
  8
1
 10
922.40966695992483
 20
2334.754319496677
 30
0.0
 11
894.70896530049049
 21
2334.754319496677
 31
0.0
  0
LINE
  5
8225
  8
1
 10
924.40966695992392
 20
2340.754319496677
 30
0.0
 11
924.40966695992472
 21
2334.754319496677
 31
0.0
  0
LINE
  5
8226
  8
1
 10
923.40966695992483
 20
2341.754319496677
 30
0.0
 11
923.40966695992483
 21
2335.754319496677
 31
0.0
  0
LINE
  5
8227
  8
1
 10
990.70966695992809
 20
2341.7543194966761
 30
0.0
 11
971.90966695992745
 21
2360.5543194966781
 31
0.0
  0
ARC
  5
8228
  8
1
 10
925.40966695992381
 20
2340.754319496677
 30
0.0
 40
1.0
 50
90.0
 51
180.0
  0
LINE
  5
8229
  8
1
 10
991.90966695992745
 20
2321.754319496677
 30
0.0
 11
990.70966695992809
 21
2321.754319496677
 31
0.0
1001
ACAD
1000
ASC_BOUNDS
1002
{
1070
    19
1002
}
  0
ARC
  5
822A
  8
1
 10
923.40966695992483
 20
2334.754319496677
 30
0.0
 40
1.0
 50
269.99999999999989
 51
0.0
  0
LINE
  5
825C
  8
1
 10
2116.0617908915578
 20
1226.3009161498501
 30
0.0
 11
1897.4064059001221
 21
1533.966457863464
 31
0.0
  0
LINE
  5
825D
  8
1
 10
2116.0617908915578
 20
1533.966457863464
 30
0.0
 11
1897.4064059001221
 21
1226.3009161498501
 31
0.0
  0
LINE
  5
825E
  8
2
 10
2006.7340983958411
 20
1695.786851695221
 30
0.0
 11
2006.7340983958411
 21
853.70809427682696
 31
0.0
1001
ACAD
1000
ASC_BOUNDS
1002
{
1070
    19
1005
0
1005
0
1002
}
  0
LINE
  5
825F
  8
1
 10
1873.7340983958411
 20
1539.1336870066571
 30
0.0
 11
1873.7340983958411
 21
1380.1336870066571
 31
0.0
  0
LINE
  5
8260
  8
1
 10
2139.7340983958411
 20
1539.1336870066571
 30
0.0
 11
2139.734098395842
 21
1380.1336870066571
 31
0.0
  0
LINE
  5
8261
  8
1
 10
1893.73409839584
 20
1524.1336870066571
 30
0.0
 11
1893.7340983958411
 21
1380.1336870066571
 31
0.0
  0
LINE
  5
8262
  8
1
 10
2119.7340983958402
 20
1524.1336870066571
 30
0.0
 11
2119.7340983958411
 21
1380.1336870066571
 31
0.0
  0
LINE
  5
8263
  8
1
 10
1893.7340983958411
 20
1559.1336870066571
 30
0.0
 11
2119.7340983958411
 21
1559.1336870066571
 31
0.0
  0
LINE
  5
8264
  8
1
 10
1908.73409839584
 20
1539.1336870066571
 30
0.0
 11
2104.7340983958402
 21
1539.1336870066571
 31
0.0
  0
ARC
  5
8265
  8
1
 10
1898.067929971417
 20
1534.3413975371859
 30
0.0
 40
24.801237822087149
 50
88.460833666865398
 51
168.85878284131431
  0
ARC
  5
8266
  8
1
 10
1908.73409839584
 20
1524.1336870066571
 30
0.0
 40
15.0
 50
90.0
 51
180.0
  0
ARC
  5
8267
  8
1
 10
2119.7340983958411
 20
1539.1336870066571
 30
0.0
 40
20.0
 50
0.0000000000000763
 51
90.0
  0
ARC
  5
8268
  8
1
 10
2104.7340983958402
 20
1524.1336870066571
 30
0.0
 40
15.0
 50
0.0000000000000763
 51
90.0
  0
POLYLINE
  5
826D
  8
1
 66
     1
 10
0.0
 20
0.0
 30
0.0
  0
VERTEX
  5
8AF1
  8
1
 10
1885.73409839584
 20
1200.8033842268301
 30
0.0
  0
VERTEX
  5
8AF2
  8
1
 10
1885.73409839584
 20
1039.6336870066541
 30
0.0
  0
SEQEND
  5
8AF3
  8
1
  0
POLYLINE
  5
8271
  8
1
 66
     1
 10
0.0
 20
0.0
 30
0.0
  0
VERTEX
  5
8AF4
  8
1
 10
2127.734098395842
 20
1200.8033842268301
 30
0.0
  0
VERTEX
  5
8AF5
  8
1
 10
2127.7340983958411
 20
1039.6336870066541
 30
0.0
  0
SEQEND
  5
8AF6
  8
1
  0
LINE
  5
8275
  8
1
 10
2119.7340983958379
 20
1199.6336870068051
 30
0.0
 11
2119.7340983958411
 21
1013.133687006654
 31
0.0
  0
LINE
  5
8276
  8
1
 10
1893.734098395842
 20
1200.006326573334
 30
0.0
 11
1893.7340983958411
 21
1013.133687006653
 31
0.0
  0
LINE
  5
827A
  8
1
 10
2119.7340983958402
 20
1236.1336870066571
 30
0.0
 11
2119.7340983958411
 21
1380.1336870066571
 31
0.0
  0
LINE
  5
827B
  8
1
 10
1893.73409839584
 20
1236.1336870066571
 30
0.0
 11
1893.7340983958411
 21
1380.1336870066571
 31
0.0
  0
LINE
  5
827C
  8
1
 10
1873.7340983958411
 20
1221.1336870066571
 30
0.0
 11
1873.7340983958411
 21
1380.1336870066571
 31
0.0
  0
LINE
  5
827D
  8
1
 10
2139.7340983958411
 20
1221.1336870066571
 30
0.0
 11
2139.734098395842
 21
1380.1336870066571
 31
0.0
  0
LINE
  5
8283
  8
1
 10
1873.734098395842
 20
1471.1336870066559
 30
0.0
 11
1873.734098395842
 21
1469.933687006657
 31
0.0
1001
ACAD
1000
ASC_BOUNDS
1002
{
1070
    19
1002
}
  0
LINE
  5
8289
  8
1
 10
1907.182214632315
 20
1221.1336870066571
 30
0.0
 11
2104.7340983958402
 21
1221.1336870066571
 31
0.0
  0
LINE
  5
828A
  8
1
 10
1893.73409839584
 20
1201.1336870066571
 30
0.0
 11
2119.7340983958402
 21
1201.1336870066571
 31
0.0
  0
ARC
  5
828E
  8
1
 10
1898.067929971417
 20
1225.925976476128
 30
0.0
 40
24.801237822087149
 50
191.14121715868569
 51
271.53916633313452
  0
POLYLINE
  5
8290
  8
1
 66
     1
 10
0.0
 20
0.0
 30
0.0
  0
VERTEX
  5
8AF7
  8
1
 10
1885.73409839584
 20
1202.909052993283
 30
0.0
  0
VERTEX
  5
8AF8
  8
1
 10
1885.73409839584
 20
1200.8033842268301
 30
0.0
  0
SEQEND
  5
8AF9
  8
1
  0
ARC
  5
8296
  8
1
 10
1908.73409839584
 20
1236.1336870066571
 30
0.0
 40
15.0
 50
179.99999999999989
 51
269.99999999999989
  0
ARC
  5
829C
  8
1
 10
2104.7340983958402
 20
1236.1336870066571
 30
0.0
 40
15.0
 50
269.99999999999989
 51
359.99999999999977
  0
ARC
  5
829D
  8
1
 10
2119.7340983958411
 20
1221.1336870066571
 30
0.0
 40
20.0
 50
269.99999999999989
 51
359.99999999999977
  0
POLYLINE
  5
829E
  8
1
 66
     1
 10
0.0
 20
0.0
 30
0.0
  0
VERTEX
  5
8AFA
  8
1
 10
2127.734098395842
 20
1202.803384226833
 30
0.0
  0
VERTEX
  5
8AFB
  8
1
 10
2127.734098395842
 20
1202.3033842266809
 30
0.0
  0
SEQEND
  5
8AFC
  8
1
  0
LINE
  5
82A2
  8
1
 10
1908.7340983958411
 20
998.13368700665376
 30
0.0
 11
2104.7340983958402
 21
998.13368700665467
 31
0.0
  0
ARC
  5
82A3
  8
1
 10
1908.7340983958411
 20
1013.133687006653
 30
0.0
 40
15.0
 50
180.0
 51
270.0
  0
LINE
  5
82A5
  8
1
 10
1893.734098395842
 20
1038.633687006653
 30
0.0
 11
1886.7340983958411
 21
1038.633687006653
 31
0.0
  0
ARC
  5
82A6
  8
1
 10
1886.7340983958411
 20
1039.6336870066541
 30
0.0
 40
1.0
 50
179.99999999999989
 51
270.0
  0
ARC
  5
82A9
  8
1
 10
2104.7340983958402
 20
1013.133687006654
 30
0.0
 40
15.0
 50
270.0
 51
0.0
  0
LINE
  5
82AA
  8
1
 10
2126.734098395842
 20
1040.6336870066541
 30
0.0
 11
2126.734098395842
 21
1068.3343886660871
 31
0.0
  0
ARC
  5
82AB
  8
1
 10
2086.160245243942
 20
1041.479106818663
 30
0.0
 40
48.656384192584412
 50
33.500033665264873
 51
46.368348723162477
  0
LINE
  5
82AC
  8
1
 10
2120.7340983958402
 20
1038.6336870066541
 30
0.0
 11
2126.734098395842
 21
1038.6336870066541
 31
0.0
  0
LINE
  5
82AD
  8
1
 10
2119.7340983958429
 20
1039.633687006653
 30
0.0
 11
2125.7340983958429
 21
1039.6336870066541
 31
0.0
  0
ARC
  5
82AE
  8
1
 10
2126.7340983958411
 20
1039.6336870066541
 30
0.0
 40
1.0
 50
270.0
 51
0.0000000000000763
  0
ARC
  5
82AF
  8
1
 10
2125.7340983958411
 20
1040.6336870066541
 30
0.0
 40
1.0
 50
270.0
 51
0.0000000000007252
  0
ARC
  5
82B0
  8
1
 10
2120.7340983958402
 20
1037.6336870066541
 30
0.0
 40
1.0
 50
90.0
 51
180.0
  0
LINE
  5
837D
  8
1
 10
539.20966695992036
 20
924.3336870066571
 30
0.0
 11
576.90966695992017
 21
924.3336870066571
 31
0.0
  0
LINE
  5
837E
  8
1
 10
906.90966695992108
 20
924.3336870066571
 30
0.0
 11
944.60966695992011
 21
924.3336870066571
 31
0.0
  0
LINE
  5
8380
  8
1
 10
2118.7340983958402
 20
1524.1336870066571
 30
0.0
 11
2118.734098395842
 21
1380.1336870066571
 31
0.0
  0
LINE
  5
83AE
  8
1
 10
1141.909666959928
 20
804.13368700665706
 30
0.0
 11
1141.909666959928
 21
1704.1336870066571
 31
0.0
  0
LINE
  5
83AF
  8
1
 10
341.90966695992842
 20
804.13368700665694
 30
0.0
 11
341.90966695992842
 21
1704.1336870066571
 31
0.0
  0
LINE
  5
83B1
  8
1
 10
1141.909666959928
 20
804.13368700665706
 30
0.0
 11
341.90966695992842
 21
804.13368700665706
 31
0.0
  0
LINE
  5
83B2
  8
1
 10
381.90966695992842
 20
884.1336870066566
 30
0.0
 11
381.90966695992842
 21
1624.1336870066571
 31
0.0
  0
LINE
  5
83B3
  8
1
 10
1101.909666959928
 20
884.13368700665694
 30
0.0
 11
1101.909666959928
 21
1624.1336870066559
 31
0.0
  0
LINE
  5
83B4
  8
1
 10
991.90966695993393
 20
866.13368700665706
 30
0.0
 11
491.90966695993569
 21
866.13368700665706
 31
0.0
  0
LINE
  5
83B5
  8
1
 10
1141.909666959928
 20
1704.1336870066571
 30
0.0
 11
341.90966695992842
 21
1704.1336870066571
 31
0.0
  0
LINE
  5
840E
  8
1
 10
1061.9096669599271
 20
1664.1336870066559
 30
0.0
 11
421.90966695992802
 21
1664.1336870066559
 31
0.0
  0
DIMENSION
  5
845F
  8
3
  2
*D13
 10
1243.1959933284611
 20
844.13368700665706
 30
0.0
 11
1300.6245647570331
 21
855.13368700665706
 31
0.0
 12
0.0
 22
-41.893495006386722
 32
0.0
 70
     0
  1
(<>)
 13
991.90966695993393
 23
866.13368700665706
 33
0.0
 14
1060.7628299878661
 24
844.13368700665706
 34
0.0
 50
90.0
1001
ACAD
1000
DSTYLE
1002
{
1070
   288
1070
     1
1070
   172
1070
     1
1070
    75
1070
     1
1070
    40
1040
12.0
1070
   271
1070
     0
1070
     7
1000
_DOT
1070
   143
1040
0.039
1002
}
  0
DIMENSION
  5
846F
  8
3
  2
*D14
 10
1243.1959933284611
 20
804.13368700665706
 30
0.0
 11
1213.1959933284611
 21
714.99082986379995
 31
0.0
 70
     0
 13
1060.7628299878661
 23
844.13368700665706
 33
0.0
 14
1141.909666959928
 24
804.13368700665706
 34
0.0
 50
90.0
1001
ACAD
1000
DSTYLE
1002
{
1070
   287
1070
     3
1070
   287
1070
     3
1070
    40
1040
12.0
1070
   143
1040
0.039
1070
   172
1070
     1
1070
   271
1070
     0
1070
   279
1070
     0
1070
   288
1070
     1
1070
     6
1000
DOT
1002
}
  0
LINE
  5
847D
  8
1
 10
1141.909666959928
 20
884.13368700665694
 30
0.0
 11
1101.909666959928
 21
884.13368700665694
 31
0.0
  0
LINE
  5
847E
  8
1
 10
1061.909666959928
 20
804.13368700665706
 30
0.0
 11
1061.909666959928
 21
844.13368700665706
 31
0.0
  0
LINE
  5
847F
  8
1
 10
1101.909666959928
 20
884.13368700665694
 30
0.0
 11
1061.909666959928
 21
844.13368700665706
 31
0.0
  0
LINE
  5
8480
  8
1
 10
1061.909666959928
 20
1704.1336870066571
 30
0.0
 11
1061.909666959928
 21
1664.1336870066571
 31
0.0
  0
LINE
  5
8481
  8
1
 10
1101.909666959928
 20
1624.1336870066571
 30
0.0
 11
1061.909666959928
 21
1664.1336870066571
 31
0.0
  0
LINE
  5
8482
  8
1
 10
1141.909666959928
 20
1624.1336870066571
 30
0.0
 11
1101.909666959928
 21
1624.1336870066571
 31
0.0
  0
LINE
  5
8483
  8
1
 10
381.90966695992842
 20
884.13368700665694
 30
0.0
 11
421.90966695992842
 21
844.13368700665706
 31
0.0
  0
LINE
  5
8484
  8
1
 10
421.90966695992842
 20
804.13368700665706
 30
0.0
 11
421.90966695992802
 21
844.13368700665706
 31
0.0
  0
LINE
  5
8485
  8
1
 10
341.90966695992842
 20
884.13368700665694
 30
0.0
 11
381.90966695992842
 21
884.13368700665694
 31
0.0
  0
LINE
  5
8486
  8
1
 10
421.90966695992842
 20
1704.1336870066571
 30
0.0
 11
421.90966695992802
 21
1664.1336870066571
 31
0.0
  0
LINE
  5
8487
  8
1
 10
381.90966695992842
 20
1624.1336870066571
 30
0.0
 11
421.90966695992842
 21
1664.1336870066571
 31
0.0
  0
LINE
  5
8488
  8
1
 10
341.90966695992842
 20
1624.1336870066571
 30
0.0
 11
381.90966695992842
 21
1624.1336870066571
 31
0.0
  0
LINE
  5
84E2
  8
1
 10
2271.7340983958411
 20
1704.1336870066571
 30
0.0
 11
2271.7340983958402
 21
804.13368700665694
 31
0.0
1001
ACAD
1000
ASC_BOUNDS
1002
{
1070
    19
1002
}
  0
LINE
  5
84E3
  8
1
 10
1471.7340983958411
 20
1704.1336870066571
 30
0.0
 11
1471.7340983958411
 21
804.13368700665706
 31
0.0
1001
ACAD
1000
ASC_BOUNDS
1002
{
1070
    19
1002
}
  0
LINE
  5
84EF
  8
1
 10
1511.7340983958411
 20
1624.1336870066559
 30
0.0
 11
1511.7340983958411
 21
884.13368700665774
 31
0.0
1001
ACAD
1000
ASC_BOUNDS
1002
{
1070
    19
1002
}
  0
LINE
  5
84F0
  8
1
 10
2231.7340983958411
 20
1624.1336870066559
 30
0.0
 11
2231.7340983958402
 21
884.13368700665694
 31
0.0
1001
ACAD
1000
ASC_BOUNDS
1002
{
1070
    19
1002
}
  0
LINE
  5
84F1
  8
1
 10
2271.7340983958411
 20
1704.1336870066571
 30
0.0
 11
1471.73409839584
 21
1704.1336870066571
 31
0.0
  0
LINE
  5
84F2
  8
1
 10
2191.7340983958402
 20
1664.1336870066559
 30
0.0
 11
1551.734098395842
 21
1664.1336870066571
 31
0.0
  0
LINE
  5
852C
  8
1
 10
2271.7340983958411
 20
804.13368700665706
 30
0.0
 11
1471.7340983958411
 21
804.13368700665717
 31
0.0
  0
LINE
  5
852D
  8
1
 10
2191.7340983958402
 20
844.13368700665706
 30
0.0
 11
1551.7340983958411
 21
844.13368700665694
 31
0.0
  0
LINE
  5
852E
  8
1
 10
2271.7340983958411
 20
884.13368700665694
 30
0.0
 11
2231.7340983958402
 21
884.13368700665728
 31
0.0
  0
LINE
  5
852F
  8
1
 10
2191.7340983958402
 20
844.13368700665706
 30
0.0
 11
2191.7340983958402
 21
804.13368700665706
 31
0.0
1001
ACAD
1000
ASC_BOUNDS
1002
{
1070
    19
1002
}
  0
LINE
  5
8530
  8
1
 10
2231.7340983958402
 20
884.13368700665694
 30
0.0
 11
2191.7340983958402
 21
844.13368700665706
 31
0.0
  0
LINE
  5
8531
  8
1
 10
2271.7340983958411
 20
1624.1336870066571
 30
0.0
 11
2231.7340983958402
 21
1624.1336870066559
 31
0.0
  0
LINE
  5
8532
  8
1
 10
2191.7340983958402
 20
1664.1336870066571
 30
0.0
 11
2191.7340983958402
 21
1704.1336870066571
 31
0.0
1001
ACAD
1000
ASC_BOUNDS
1002
{
1070
    19
1002
}
  0
LINE
  5
8533
  8
1
 10
2231.7340983958402
 20
1624.1336870066571
 30
0.0
 11
2191.7340983958402
 21
1664.1336870066571
 31
0.0
  0
LINE
  5
8534
  8
1
 10
1471.7340983958411
 20
884.13368700665694
 30
0.0
 11
1511.734098395842
 21
884.13368700665728
 31
0.0
  0
LINE
  5
8535
  8
1
 10
1551.734098395842
 20
844.13368700665706
 30
0.0
 11
1551.734098395842
 21
804.13368700665706
 31
0.0
1001
ACAD
1000
ASC_BOUNDS
1002
{
1070
    19
1002
}
  0
LINE
  5
8536
  8
1
 10
1511.734098395842
 20
884.13368700665694
 30
0.0
 11
1551.734098395842
 21
844.13368700665706
 31
0.0
  0
LINE
  5
8537
  8
1
 10
1551.734098395842
 20
1664.1336870066571
 30
0.0
 11
1551.734098395842
 21
1704.1336870066571
 31
0.0
1001
ACAD
1000
ASC_BOUNDS
1002
{
1070
    19
1002
}
  0
LINE
  5
8538
  8
1
 10
1471.7340983958411
 20
1624.1336870066571
 30
0.0
 11
1511.734098395842
 21
1624.1336870066559
 31
0.0
  0
LINE
  5
8539
  8
1
 10
1511.734098395842
 20
1624.1336870066571
 30
0.0
 11
1551.734098395842
 21
1664.1336870066571
 31
0.0
  0
DIMENSION
  5
855B
  8
3
  2
*D15
 10
2271.7340983958402
 20
675.69083691048115
 30
0.0
 11
2139.2340983958411
 21
705.69083691048115
 31
0.0
 70
     0
 13
2006.7340983958411
 23
855.76203463930597
 33
0.0
 14
2271.7340983958402
 24
804.13368700665706
 34
0.0
1001
ACAD
1000
DSTYLE
1002
{
1070
   287
1070
     4
1070
   287
1070
     4
1070
    40
1040
12.0
1070
    75
1070
     1
1070
   143
1040
0.039
1070
   172
1070
     1
1070
   271
1070
     0
1070
   279
1070
     1
1070
   288
1070
     1
1002
}
  0
DIMENSION
  5
8568
  8
3
  2
*D16
 10
1390.252545871137
 20
804.13368700665717
 30
0.0
 11
1390.252545871137
 21
1198.238208315556
 31
0.0
 70
   128
 13
1471.7340983958411
 23
1704.1336870066571
 33
0.0
 14
1471.7340983958411
 24
804.13368700665717
 34
0.0
 50
90.0
1001
ACAD
1000
DSTYLE
1002
{
1070
   287
1070
     3
1070
   287
1070
     3
1070
    40
1040
12.0
1070
   143
1040
0.039
1070
   172
1070
     1
1070
   271
1070
     0
1070
   279
1070
     0
1070
   288
1070
     1
1002
}
  0
LINE
  5
85A9
  8
1
 10
1141.9096669599239
 20
1919.754319496677
 30
0.0
 11
1141.9096669599239
 21
2719.7543194966779
 31
0.0
  0
LINE
  5
85AA
  8
1
 10
341.90966695992478
 20
1919.754319496677
 30
0.0
 11
341.90966695992478
 21
2719.7543194966779
 31
0.0
  0
LINE
  5
85AB
  8
1
 10
341.90966695992478
 20
1919.754319496677
 30
0.0
 11
1141.9096669599239
 21
1919.754319496677
 31
0.0
1001
ACAD
1000
ASC_BOUNDS
1002
{
1070
    19
1002
}
  0
LINE
  5
85AC
  8
1
 10
341.90966695992478
 20
2719.7543194966779
 30
0.0
 11
1141.9096669599239
 21
2719.7543194966779
 31
0.0
1001
ACAD
1000
ASC_BOUNDS
1002
{
1070
    19
1002
}
  0
LINE
  5
85AD
  8
1
 10
381.90966695992478
 20
1959.754319496677
 30
0.0
 11
381.90966695992478
 21
2679.754319496677
 31
0.0
  0
LINE
  5
85AE
  8
1
 10
381.90966695992478
 20
2679.754319496677
 30
0.0
 11
1101.9096669599239
 21
2679.754319496677
 31
0.0
1001
ACAD
1000
ASC_BOUNDS
1002
{
1070
    19
1002
}
  0
LINE
  5
85AF
  8
1
 10
1101.9096669599239
 20
1959.754319496677
 30
0.0
 11
1101.9096669599239
 21
2679.754319496677
 31
0.0
  0
LINE
  5
85B0
  8
1
 10
381.90966695992478
 20
1959.754319496677
 30
0.0
 11
1101.9096669599239
 21
1959.754319496677
 31
0.0
1001
ACAD
1000
ASC_BOUNDS
1002
{
1070
    19
1002
}
  0
DIMENSION
  5
85BD
  8
3
  2
*D17
 10
1141.9096669599239
 20
2784.520775688924
 30
0.0
 11
709.47114057761235
 21
2784.520775688924
 31
0.0
 70
   128
 13
341.90966695992478
 23
2719.7543194966779
 33
0.0
 14
1141.9096669599239
 24
2719.7543194966779
 34
0.0
1001
ACAD
1000
DSTYLE
1002
{
1070
   287
1070
     3
1070
   287
1070
     3
1070
    40
1040
12.0
1070
   143
1040
0.039
1070
   172
1070
     1
1070
   271
1070
     0
1070
   279
1070
     0
1070
   288
1070
     1
1002
}
  0
DIMENSION
  5
85CA
  8
3
  2
*D18
 10
1276.305145663664
 20
1919.754319496677
 30
0.0
 11
1276.305145663664
 21
2291.3687621488871
 31
0.0
 70
   128
 13
1141.9096669599239
 23
2719.7543194966779
 33
0.0
 14
1141.9096669599239
 24
1919.754319496677
 34
0.0
 50
90.0
1001
ACAD
1000
DSTYLE
1002
{
1070
   287
1070
     3
1070
   287
1070
     3
1070
    40
1040
12.0
1070
   143
1040
0.039
1070
   172
1070
     1
1070
   271
1070
     0
1070
   279
1070
     0
1070
   288
1070
     1
1002
}
  0
ENDSEC
  0
EOF
