  0
SECTION
  2
HEADER
  9
$ACADVER
  1
AC1009
  9
$INSBASE
 10
0.0
 20
0.0
 30
0.0
  9
$EXTMIN
 10
0.0
 20
0.0
 30
0.0
  9
$EXTMAX
 10
2520.0
 20
3540.0
 30
0.0
  9
$LIMMIN
 10
0.0
 20
0.0
  9
$LIMMAX
 10
297.0
 20
210.0
  9
$ORTHOMODE
 70
     1
  9
$REGENMODE
 70
     1
  9
$FILLMODE
 70
     0
  9
$QTEXTMODE
 70
     0
  9
$MIRRTEXT
 70
     1
  9
$DRAGMODE
 70
     2
  9
$LTSCALE
 40
100.0
  9
$OSMODE
 70
   545
  9
$ATTMODE
 70
     1
  9
$TEXTSIZE
 40
180.0
  9
$TRACEWID
 40
0.05
  9
$TEXTSTYLE
  7
STANDARD
  9
$CLAYER
  8
3
  9
$CELTYPE
  6
BYLAYER
  9
$CECOLOR
 62
   256
  9
$DIMSCALE
 40
12.0
  9
$DIMASZ
 40
2.0
  9
$DIMEXO
 40
0.5
  9
$DIMDLI
 40
10.0
  9
$DIMRND
 40
0.0
  9
$DIMDLE
 40
0.0
  9
$DIMEXE
 40
1.0
  9
$DIMTP
 40
1.0
  9
$DIMTM
 40
1.0
  9
$DIMTXT
 40
3.0
  9
$DIMCEN
 40
0.0
  9
$DIMTSZ
 40
0.0
  9
$DIMTOL
 70
     0
  9
$DIMLIM
 70
     0
  9
$DIMTIH
 70
     0
  9
$DIMTOH
 70
     0
  9
$DIMSE1
 70
     0
  9
$DIMSE2
 70
     0
  9
$DIMTAD
 70
     1
  9
$DIMZIN
 70
     8
  9
$DIMBLK
  1

  9
$DIMASO
 70
     1
  9
$DIMSHO
 70
     1
  9
$DIMPOST
  1

  9
$DIMAPOST
  1

  9
$DIMALT
 70
     0
  9
$DIMALTD
 70
     2
  9
$DIMALTF
 40
0.039
  9
$DIMLFAC
 40
1.0
  9
$DIMTOFL
 70
     1
  9
$DIMTVP
 40
0.0
  9
$DIMTIX
 70
     0
  9
$DIMSOXD
 70
     0
  9
$DIMSAH
 70
     1
  9
$DIMBLK1
  1
OPEN
  9
$DIMBLK2
  1
OPEN
  9
$DIMSTYLE
  2
IGA
  9
$DIMCLRD
 70
     0
  9
$DIMCLRE
 70
     0
  9
$DIMCLRT
 70
     0
  9
$DIMTFAC
 40
10.0
  9
$DIMGAP
 40
1.0
  9
$LUNITS
 70
     2
  9
$LUPREC
 70
     3
  9
$SKETCHINC
 40
0.1
  9
$FILLETRAD
 40
50.0
  9
$AUNITS
 70
     0
  9
$AUPREC
 70
     0
  9
$MENU
  1
acad
  9
$ELEVATION
 40
0.0
  9
$PELEVATION
 40
0.0
  9
$THICKNESS
 40
0.0
  9
$LIMCHECK
 70
     0
  9
$BLIPMODE
 70
     0
  9
$CHAMFERA
 40
0.5
  9
$CHAMFERB
 40
0.5
  9
$SKPOLY
 70
     0
  9
$TDCREATE
 40
2452824.5915310178
  9
$TDUPDATE
 40
2454953.8262329968
  9
$TDINDWG
 40
0.0874893981
  9
$TDUSRTIMER
 40
0.0874893981
  9
$USRTIMER
 70
     1
  9
$ANGBASE
 50
0.0
  9
$ANGDIR
 70
     0
  9
$PDMODE
 70
     0
  9
$PDSIZE
 40
0.0
  9
$PLINEWID
 40
0.0
  9
$COORDS
 70
     2
  9
$SPLFRAME
 70
     0
  9
$SPLINETYPE
 70
     6
  9
$SPLINESEGS
 70
     8
  9
$ATTDIA
 70
     0
  9
$ATTREQ
 70
     1
  9
$HANDLING
 70
 22529
  9
$HANDSEED
  5
899F
  9
$SURFTAB1
 70
     6
  9
$SURFTAB2
 70
     6
  9
$SURFTYPE
 70
     6
  9
$SURFU
 70
     6
  9
$SURFV
 70
     6
  9
$UCSNAME
  2

  9
$UCSORG
 10
0.0
 20
0.0
 30
0.0
  9
$UCSXDIR
 10
1.0
 20
0.0
 30
0.0
  9
$UCSYDIR
 10
0.0
 20
1.0
 30
0.0
  9
$PUCSNAME
  2

  9
$PUCSORG
 10
0.0
 20
0.0
 30
0.0
  9
$PUCSXDIR
 10
1.0
 20
0.0
 30
0.0
  9
$PUCSYDIR
 10
0.0
 20
1.0
 30
0.0
  9
$USERI1
 70
     0
  9
$USERI2
 70
     0
  9
$USERI3
 70
     0
  9
$USERI4
 70
     0
  9
$USERI5
 70
     0
  9
$USERR1
 40
0.0
  9
$USERR2
 40
0.0
  9
$USERR3
 40
0.0
  9
$USERR4
 40
0.0
  9
$USERR5
 40
0.0
  9
$WORLDVIEW
 70
     1
  9
$SHADEDGE
 70
     3
  9
$SHADEDIF
 70
    70
  9
$TILEMODE
 70
     1
  9
$MAXACTVP
 70
    16
  9
$PLIMCHECK
 70
     0
  9
$PEXTMIN
 10
1.0000000000000000E+020
 20
1.0000000000000000E+020
 30
1.0000000000000000E+020
  9
$PEXTMAX
 10
-1.0000000000000000E+020
 20
-1.0000000000000000E+020
 30
-1.0000000000000000E+020
  9
$PLIMMIN
 10
0.0
 20
0.0
  9
$PLIMMAX
 10
12.0
 20
9.0
  9
$UNITMODE
 70
     0
  9
$VISRETAIN
 70
     0
  9
$PLINEGEN
 70
     0
  9
$PSLTSCALE
 70
     1
  0
ENDSEC
  0
SECTION
  2
TABLES
  0
TABLE
  2
VPORT
 70
     2
  0
VPORT
  2
*ACTIVE
 70
     0
 10
0.0
 20
0.0
 11
1.0
 21
1.0
 12
1458.310964251923
 22
1926.3094141955389
 13
0.0
 23
0.0
 14
10.0
 24
10.0
 15
10.0
 25
10.0
 16
0.0
 26
0.0
 36
1.0
 17
0.0
 27
0.0
 37
0.0
 40
3882.2957590045962
 41
1.6307901907356941
 42
50.0
 43
0.0
 44
0.0
 50
0.0
 51
0.0
 71
     0
 72
   100
 73
     1
 74
     0
 75
     0
 76
     0
 77
     0
 78
     0
  0
ENDTAB
  0
TABLE
  2
LTYPE
 70
     2
  0
LTYPE
  2
CONTINUOUS
 70
     0
  3
Solid line
 72
    65
 73
     0
 40
0.0
  0
LTYPE
  2
CENTER
 70
     0
  3
____ _ ____ _ ____ _ ____ _ ____ _ ____ _ ____ 
 72
    65
 73
     4
 40
2.0
 49
1.25
 49
-0.25
 49
0.25
 49
-0.25
  0
ENDTAB
  0
TABLE
  2
LAYER
 70
     6
  0
LAYER
  2
0
 70
     0
 62
     7
  6
CONTINUOUS
  0
LAYER
  2
3
 70
     0
 62
     2
  6
CONTINUOUS
  0
LAYER
  2
2
 70
     0
 62
     3
  6
CENTER
  0
LAYER
  2
1
 70
     0
 62
     4
  6
CONTINUOUS
  0
LAYER
  2
4
 70
     0
 62
     7
  6
CONTINUOUS
  0
LAYER
  2
DEFPOINTS
 70
     0
 62
     7
  6
CONTINUOUS
  0
ENDTAB
  0
TABLE
  2
STYLE
 70
     1
  0
STYLE
  2
STANDARD
 70
     0
 40
0.0
 41
1.0
 50
0.0
 71
     0
 42
180.0
  3
simplex.shx
  4
extfont.shx
  0
ENDTAB
  0
TABLE
  2
VIEW
 70
     0
  0
ENDTAB
  0
TABLE
  2
UCS
 70
     0
  0
ENDTAB
  0
TABLE
  2
APPID
 70
     1
  0
APPID
  2
ACAD
 70
     0
  0
ENDTAB
  0
TABLE
  2
DIMSTYLE
 70
     1
  0
DIMSTYLE
  2
IGA
 70
     0
  3

  4

  5

  6
OPEN
  7
OPEN
 40
2.0
 41
2.0
 42
0.5
 43
10.0
 44
1.0
 45
0.0
 46
0.0
 47
1.0
 48
1.0
140
3.0
141
0.0
142
0.0
143
0.03937
144
1.0
145
0.0
146
10.0
147
1.0
 71
     0
 72
     0
 73
     0
 74
     0
 75
     0
 76
     0
 77
     1
 78
     8
170
     0
171
     2
172
     0
173
     1
174
     0
175
     0
176
     0
177
     0
178
     0
  0
ENDTAB
  0
ENDSEC
  0
SECTION
  2
BLOCKS
  0
BLOCK
  8
0
  2
$MODEL_SPACE
 70
     0
 10
0.0
 20
0.0
 30
0.0
  3
$MODEL_SPACE
  1

  0
ENDBLK
  5
1B
  8
0
  0
BLOCK
 67
     1
  8
0
  2
$PAPER_SPACE
 70
     0
 10
0.0
 20
0.0
 30
0.0
  3
$PAPER_SPACE
  1

  0
ENDBLK
  5
18
 67
     1
  8
0
  0
BLOCK
  8
0
  2
_OPEN
 70
     0
 10
0.0
 20
0.0
 30
0.0
  3
_OPEN
  1

  0
LINE
  5
79FD
  8
0
  6
BYBLOCK
 62
     0
 10
-1.0
 20
0.1666666666666666
 30
0.0
 11
0.0
 21
0.0
 31
0.0
  0
LINE
  5
79FE
  8
0
  6
BYBLOCK
 62
     0
 10
0.0
 20
0.0
 30
0.0
 11
-1.0
 21
-0.1666666666666666
 31
0.0
  0
LINE
  5
79FF
  8
0
  6
BYBLOCK
 62
     0
 10
0.0
 20
0.0
 30
0.0
 11
-1.0
 21
0.0
 31
0.0
  0
ENDBLK
  5
7A01
  8
0
  0
BLOCK
  8
0
  2
*D1
 70
     1
 10
0.0
 20
0.0
 30
0.0
  3
*D1
  1

  0
LINE
  5
8909
  8
3
 62
     0
 10
1076.201977027848
 20
1457.05266216271
 30
0.0
 11
1076.201977027848
 21
1529.4849523254511
 31
0.0
  0
LINE
  5
890A
  8
3
 62
     0
 10
761.2019770278448
 20
1457.0526621627009
 30
0.0
 11
761.2019770278448
 21
1529.4849523254511
 31
0.0
  0
LINE
  5
890B
  8
3
 62
     0
 10
1052.201977027848
 20
1517.4849523254511
 30
0.0
 11
785.2019770278448
 21
1517.4849523254511
 31
0.0
  0
INSERT
  5
890C
  8
3
 62
     0
  2
_OPEN
 10
1076.201977027848
 20
1517.4849523254511
 30
0.0
 41
24.0
 42
24.0
 43
24.0
  0
INSERT
  5
890D
  8
3
 62
     0
  2
_OPEN
 10
761.2019770278448
 20
1517.4849523254511
 30
0.0
 41
24.0
 42
24.0
 43
24.0
 50
180.0
  0
TEXT
  8
3
  40
36
  5
8990
  62
0
  72
0
  71
0
 10
866.961
 20
1483.76
 30
0.000000
  1
315
  0
POINT
  5
890F
  8
DEFPOINTS
 62
     0
 10
1076.201977027848
 20
1451.05266216271
 30
0.0
  0
POINT
  5
8910
  8
DEFPOINTS
 62
     0
 10
761.2019770278448
 20
1451.0526621627009
 30
0.0
  0
POINT
  5
8911
  8
DEFPOINTS
 62
     0
 10
761.2019770278448
 20
1517.4849523254511
 30
0.0
  0
ENDBLK
  5
817A
  8
0
  0
BLOCK
  8
0
  2
*D2
 70
     1
 10
0.0
 20
0.0
 30
0.0
  3
*D2
  1

  0
LINE
  5
8912
  8
3
 62
     0
 10
539.20197702785572
 20
1186.0526621627009
 30
0.0
 11
539.20197702785572
 21
1529.4849523254511
 31
0.0
  0
LINE
  5
8913
  8
3
 62
     0
 10
737.2019770278448
 20
1517.4849523254511
 30
0.0
 11
563.20197702785572
 21
1517.4849523254511
 31
0.0
  0
INSERT
  5
8914
  8
3
 62
     0
  2
_OPEN
 10
761.2019770278448
 20
1517.4849523254511
 30
0.0
 41
24.0
 42
24.0
 43
24.0
  0
INSERT
  5
8915
  8
3
 62
     0
  2
_OPEN
 10
539.20197702785572
 20
1517.4849523254511
 30
0.0
 41
24.0
 42
24.0
 43
24.0
 50
180.0
  0
TEXT
  8
3
  40
36
  5
8991
  62
0
  72
0
  71
0
 10
578.202
 20
1483.76
 30
0.000000
  1
222
  0
POINT
  5
8917
  8
DEFPOINTS
 62
     0
 10
761.2019770278448
 20
1451.0526621627009
 30
0.0
  0
POINT
  5
8918
  8
DEFPOINTS
 62
     0
 10
539.20197702785572
 20
1180.0526621627009
 30
0.0
  0
POINT
  5
8919
  8
DEFPOINTS
 62
     0
 10
539.20197702785572
 20
1517.4849523254511
 30
0.0
  0
ENDBLK
  5
8164
  8
0
  0
BLOCK
  8
0
  2
*D3
 70
     1
 10
0.0
 20
0.0
 30
0.0
  3
*D3
  1

  0
LINE
  5
891A
  8
3
 62
     0
 10
734.20197702784844
 20
1451.0526621627
 30
0.0
 11
294.77334262312093
 21
1451.0526621627
 31
0.0
  0
LINE
  5
891B
  8
3
 62
     0
 10
465.89995152418658
 20
1201.0526621626991
 30
0.0
 11
294.77334262312093
 21
1201.0526621626991
 31
0.0
  0
LINE
  5
891C
  8
3
 62
     0
 10
306.77334262312093
 20
1427.0526621627
 30
0.0
 11
306.77334262312093
 21
1225.0526621626991
 31
0.0
  0
INSERT
  5
891D
  8
3
 62
     0
  2
_OPEN
 10
306.77334262312093
 20
1451.0526621627
 30
0.0
 41
24.0
 42
24.0
 43
24.0
 50
90.0
  0
INSERT
  5
891E
  8
3
 62
     0
  2
_OPEN
 10
306.77334262312093
 20
1201.0526621626991
 30
0.0
 41
24.0
 42
24.0
 43
24.0
 50
270.0
  0
TEXT
  8
3
  40
36
  5
8992
  62
0
  72
0
  71
0
 10
204.773
 20
1264.35
 30
0.000000
  1
250
  0
POINT
  5
8920
  8
DEFPOINTS
 62
     0
 10
740.20197702784844
 20
1451.0526621627
 30
0.0
  0
POINT
  5
8921
  8
DEFPOINTS
 62
     0
 10
471.89995152418669
 20
1201.0526621626991
 30
0.0
  0
POINT
  5
8922
  8
DEFPOINTS
 62
     0
 10
306.77334262312093
 20
1201.0526621626991
 30
0.0
  0
ENDBLK
  5
82AD
  8
0
  0
BLOCK
  8
0
  2
*D4
 70
     1
 10
0.0
 20
0.0
 30
0.0
  3
*D4
  1

  0
LINE
  5
8923
  8
3
 62
     0
 10
505.20197702783929
 20
846.05266216269945
 30
0.0
 11
294.7733426231207
 21
846.05266216269945
 31
0.0
  0
LINE
  5
8924
  8
3
 62
     0
 10
306.77334262312081
 20
1177.0526621626991
 30
0.0
 11
306.7733426231207
 21
870.05266216269945
 31
0.0
  0
INSERT
  5
8925
  8
3
 62
     0
  2
_OPEN
 10
306.77334262312081
 20
1201.0526621626991
 30
0.0
 41
24.0
 42
24.0
 43
24.0
 50
90.0
  0
INSERT
  5
8926
  8
3
 62
     0
  2
_OPEN
 10
306.7733426231207
 20
846.05266216269945
 30
0.0
 41
24.0
 42
24.0
 43
24.0
 50
270.0
  0
TEXT
  8
3
  40
36
  5
8993
  62
0
  72
0
  71
0
 10
204.773
 20
959.833
 30
0.000000
  1
355
  0
POINT
  5
8928
  8
DEFPOINTS
 62
     0
 10
471.89995152418669
 20
1201.0526621626991
 30
0.0
  0
POINT
  5
8929
  8
DEFPOINTS
 62
     0
 10
511.20197702783929
 20
846.05266216269945
 30
0.0
  0
POINT
  5
892A
  8
DEFPOINTS
 62
     0
 10
306.7733426231207
 20
846.05266216269945
 30
0.0
  0
ENDBLK
  5
82A2
  8
0
  0
BLOCK
  8
0
  2
_DOT
 70
     0
 10
0.0
 20
0.0
 30
0.0
  3
_DOT
  1

  0
LINE
  5
81AB
  8
0
  6
BYBLOCK
 62
     0
 10
0.0
 20
0.0
 30
0.0
 11
-1.0
 21
-0.0000000000000284
 31
0.0
  0
POLYLINE
  5
81AC
  8
0
  6
BYBLOCK
 62
     0
 66
     1
 10
0.0
 20
0.0
 30
0.0
 70
     1
 40
0.1666666666666666
 41
0.1666666666666666
  0
VERTEX
  5
895F
  8
0
  6
BYBLOCK
 62
     0
 10
-0.0833333333333286
 20
-0.0000000000000284
 30
0.0
 42
1.0
  0
VERTEX
  5
8960
  8
0
  6
BYBLOCK
 62
     0
 10
0.0833333333333286
 20
-0.0000000000000284
 30
0.0
 42
1.0
  0
SEQEND
  5
8961
  8
0
  6
BYBLOCK
 62
     0
  0
ENDBLK
  5
8007
  8
0
  0
BLOCK
  8
0
  2
*D6
 70
     1
 10
0.0
 20
0.0
 30
0.0
  3
*D6
  1

  0
LINE
  5
892B
  8
3
 62
     0
 10
1161.2019770278521
 20
778.05266216269956
 30
0.0
 11
1161.2019770278521
 21
646.73270104055155
 31
0.0
  0
LINE
  5
892C
  8
3
 62
     0
 10
761.2019770278448
 20
738.27725714098142
 30
0.0
 11
761.2019770278448
 21
646.73270104055155
 31
0.0
  0
LINE
  5
892D
  8
3
 62
     0
 10
1137.2019770278521
 20
658.73270104055155
 30
0.0
 11
785.2019770278448
 21
658.73270104055155
 31
0.0
  0
INSERT
  5
892E
  8
3
 62
     0
  2
_OPEN
 10
1161.2019770278521
 20
658.73270104055155
 30
0.0
 41
24.0
 42
24.0
 43
24.0
  0
INSERT
  5
892F
  8
3
 62
     0
  2
_OPEN
 10
761.2019770278448
 20
658.73270104055155
 30
0.0
 41
24.0
 42
24.0
 43
24.0
 50
180.0
  0
TEXT
  8
3
  40
36
  5
8994
  62
0
  72
0
  71
0
 10
822.985
 20
625.013
 30
0.000000
  1
400
  0
POINT
  5
8931
  8
DEFPOINTS
 62
     0
 10
1161.2019770278521
 20
784.05266216269945
 30
0.0
  0
POINT
  5
8932
  8
DEFPOINTS
 62
     0
 10
761.2019770278448
 20
744.27725714098142
 30
0.0
  0
POINT
  5
8933
  8
DEFPOINTS
 62
     0
 10
761.2019770278448
 20
658.73270104055155
 30
0.0
  0
ENDBLK
  5
8298
  8
0
  0
BLOCK
  8
0
  2
*D7
 70
     1
 10
0.0
 20
0.0
 30
0.0
  3
*D7
  1

  0
LINE
  5
8934
  8
3
 62
     0
 10
361.20197702785208
 20
778.05266216269956
 30
0.0
 11
361.20197702785208
 21
646.73270104055155
 31
0.0
  0
LINE
  5
8935
  8
3
 62
     0
 10
737.2019770278448
 20
658.73270104055155
 30
0.0
 11
385.20197702785202
 21
658.73270104055155
 31
0.0
  0
INSERT
  5
8936
  8
3
 62
     0
  2
_OPEN
 10
761.2019770278448
 20
658.73270104055155
 30
0.0
 41
24.0
 42
24.0
 43
24.0
  0
INSERT
  5
8937
  8
3
 62
     0
  2
_OPEN
 10
361.20197702785208
 20
658.73270104055155
 30
0.0
 41
24.0
 42
24.0
 43
24.0
 50
180.0
  0
TEXT
  8
3
  40
36
  5
8995
  62
0
  72
0
  71
0
 10
489.202
 20
625.013
 30
0.000000
  1
400
  0
POINT
  5
8939
  8
DEFPOINTS
 62
     0
 10
761.2019770278448
 20
744.27725714098142
 30
0.0
  0
POINT
  5
893A
  8
DEFPOINTS
 62
     0
 10
361.20197702785208
 20
784.05266216269945
 30
0.0
  0
POINT
  5
893B
  8
DEFPOINTS
 62
     0
 10
361.20197702785208
 20
658.73270104055155
 30
0.0
  0
ENDBLK
  5
828D
  8
0
  0
BLOCK
  8
0
  2
*D8
 70
     1
 10
0.0
 20
0.0
 30
0.0
  3
*D8
  1

  0
LINE
  5
893C
  8
3
 62
     0
 10
1894.734098395842
 20
1455.8526621627011
 30
0.0
 11
1894.734098395842
 21
1553.5183560704049
 31
0.0
  0
LINE
  5
893D
  8
3
 62
     0
 10
2118.734098395842
 20
1455.8526621627011
 30
0.0
 11
2118.734098395842
 21
1553.5183560704049
 31
0.0
  0
LINE
  5
893E
  8
3
 62
     0
 10
1918.734098395842
 20
1541.5183560704049
 30
0.0
 11
2094.734098395842
 21
1541.5183560704049
 31
0.0
  0
INSERT
  5
893F
  8
3
 62
     0
  2
_OPEN
 10
1894.734098395842
 20
1541.5183560704049
 30
0.0
 41
24.0
 42
24.0
 43
24.0
 50
180.0
  0
INSERT
  5
8940
  8
3
 62
     0
  2
_OPEN
 10
2118.734098395842
 20
1541.5183560704049
 30
0.0
 41
24.0
 42
24.0
 43
24.0
  0
TEXT
  8
3
  40
36
  5
8996
  62
0
  72
0
  71
0
 10
1934.40
 20
1507.80
 30
0.000000
  1
224
  0
POINT
  5
8942
  8
DEFPOINTS
 62
     0
 10
1894.734098395842
 20
1449.8526621627011
 30
0.0
  0
POINT
  5
8943
  8
DEFPOINTS
 62
     0
 10
2118.734098395842
 20
1449.8526621627011
 30
0.0
  0
POINT
  5
8944
  8
DEFPOINTS
 62
     0
 10
2118.734098395842
 20
1541.5183560704049
 30
0.0
  0
ENDBLK
  5
81E6
  8
0
  0
BLOCK
  8
0
  2
*D9
 70
     1
 10
0.0
 20
0.0
 30
0.0
  3
*D9
  1

  0
LINE
  5
8945
  8
3
 62
     0
 10
2127.7704294853229
 20
1389.7223755835751
 30
0.0
 11
2127.7704294853229
 21
1774.531000559715
 31
0.0
  0
LINE
  5
8946
  8
3
 62
     0
 10
2006.7340983958411
 20
1593.903168301164
 30
0.0
 11
2006.7340983958411
 21
1774.531000559715
 31
0.0
  0
LINE
  5
8947
  8
3
 62
     0
 10
2103.770429485322
 20
1762.531000559715
 30
0.0
 11
2030.7340983958411
 21
1762.531000559715
 31
0.0
  0
INSERT
  5
8948
  8
3
 62
     0
  2
_OPEN
 10
2127.7704294853229
 20
1762.531000559715
 30
0.0
 41
24.0
 42
24.0
 43
24.0
  0
INSERT
  5
8949
  8
3
 62
     0
  2
_OPEN
 10
2006.7340983958411
 20
1762.531000559715
 30
0.0
 41
24.0
 42
24.0
 43
24.0
 50
180.0
  0
TEXT
  8
3
  40
36
  5
8997
  62
0
  72
0
  71
0
 10
1995.25
 20
1728.81
 30
0.000000
  1
121
  0
POINT
  5
894B
  8
DEFPOINTS
 62
     0
 10
2127.7704294853229
 20
1383.7223755835751
 30
0.0
  0
POINT
  5
894C
  8
DEFPOINTS
 62
     0
 10
2006.7340983958411
 20
1587.903168301164
 30
0.0
  0
POINT
  5
894D
  8
DEFPOINTS
 62
     0
 10
2006.7340983958411
 20
1762.531000559715
 30
0.0
  0
ENDBLK
  5
81D0
  8
0
  0
BLOCK
  8
0
  2
*D10
 70
     1
 10
0.0
 20
0.0
 30
0.0
  3
*D10
  1

  0
LINE
  5
894E
  8
3
 62
     0
 10
1569.46177782926
 20
1290.6335621626979
 30
0.0
 11
1569.46177782926
 21
1774.531000559715
 31
0.0
  0
LINE
  5
894F
  8
3
 62
     0
 10
1982.7340983958411
 20
1762.531000559715
 30
0.0
 11
1593.46177782926
 21
1762.531000559715
 31
0.0
  0
INSERT
  5
8950
  8
3
 62
     0
  2
_OPEN
 10
2006.7340983958411
 20
1762.531000559715
 30
0.0
 41
24.0
 42
24.0
 43
24.0
  0
INSERT
  5
8951
  8
3
 62
     0
  2
_OPEN
 10
1569.46177782926
 20
1762.531000559715
 30
0.0
 41
24.0
 42
24.0
 43
24.0
 50
180.0
  0
TEXT
  8
3
  40
36
  5
8998
  62
0
  72
0
  71
0
 10
1716.10
 20
1738.24
 30
0.000000
  1
(420)
  0
POINT
  5
8953
  8
DEFPOINTS
 62
     0
 10
2006.7340983958411
 20
1587.903168301164
 30
0.0
  0
POINT
  5
8954
  8
DEFPOINTS
 62
     0
 10
1569.46177782926
 20
1284.6335621626979
 30
0.0
  0
POINT
  5
8955
  8
DEFPOINTS
 62
     0
 10
1569.46177782926
 20
1762.531000559715
 30
0.0
  0
ENDBLK
  5
81C3
  8
0
  0
BLOCK
  8
0
  2
*D11
 70
     1
 10
0.0
 20
0.0
 30
0.0
  3
*D11
  1

  0
LINE
  5
861C
  8
3
 62
     0
 10
1471.7340983958411
 20
778.05266216269968
 30
0.0
 11
1471.7340983958411
 21
643.60981206652377
 31
0.0
  0
LINE
  5
861D
  8
3
 62
     0
 10
2006.7340983958411
 20
829.68100979534836
 30
0.0
 11
2006.7340983958411
 21
643.60981206652377
 31
0.0
  0
LINE
  5
861E
  8
3
 62
     0
 10
1495.7340983958411
 20
655.60981206652377
 30
0.0
 11
1704.3756586742261
 21
655.60981206652377
 31
0.0
  0
LINE
  5
861F
  8
3
 62
     0
 10
1982.7340983958411
 20
655.60981206652377
 30
0.0
 11
1820.947087245655
 21
655.60981206652377
 31
0.0
  0
TEXT
  5
8620
  8
3
 62
     0
 10
1716.375658674227
 20
637.82180157379935
 30
0.0
 40
36.0
  1
535
  0
INSERT
  5
8621
  8
3
 62
     0
  2
_OPEN
 10
1471.7340983958411
 20
655.60981206652377
 30
0.0
 41
24.0
 42
24.0
 43
24.0
 50
180.0
  0
INSERT
  5
8622
  8
3
 62
     0
  2
_OPEN
 10
2006.7340983958411
 20
655.60981206652377
 30
0.0
 41
24.0
 42
24.0
 43
24.0
  0
POINT
  5
8623
  8
DEFPOINTS
 62
     0
 10
1471.7340983958411
 20
784.05266216269979
 30
0.0
  0
POINT
  5
8624
  8
DEFPOINTS
 62
     0
 10
2006.7340983958411
 20
835.68100979534836
 30
0.0
  0
POINT
  5
8625
  8
DEFPOINTS
 62
     0
 10
2006.7340983958411
 20
655.60981206652377
 30
0.0
  0
ENDBLK
  5
832D
  8
0
  0
BLOCK
  8
0
  2
*D12
 70
     1
 10
0.0
 20
0.0
 30
0.0
  3
*D12
  1

  0
LINE
  5
8956
  8
3
 62
     0
 10
2133.7340983958411
 20
1358.552662162698
 30
0.0
 11
2382.9715372527899
 21
1358.552662162698
 31
0.0
  0
LINE
  5
8957
  8
3
 62
     0
 10
2133.7340983958411
 20
1043.552662162698
 30
0.0
 11
2382.9715372527899
 21
1043.552662162698
 31
0.0
  0
LINE
  5
8958
  8
3
 62
     0
 10
2370.9715372527899
 20
1334.552662162698
 30
0.0
 11
2370.9715372527899
 21
1067.552662162698
 31
0.0
  0
INSERT
  5
8959
  8
3
 62
     0
  2
_OPEN
 10
2370.9715372527899
 20
1358.552662162698
 30
0.0
 41
24.0
 42
24.0
 43
24.0
 50
90.0
  0
INSERT
  5
895A
  8
3
 62
     0
  2
_OPEN
 10
2370.9715372527899
 20
1043.552662162698
 30
0.0
 41
24.0
 42
24.0
 43
24.0
 50
270.0
  0
TEXT
  8
3
  40
36
  5
8999
  62
0
  72
0
  71
0
 10
2268.97
 20
1134.78
 30
0.000000
  1
φ315
  0
POINT
  5
895C
  8
DEFPOINTS
 62
     0
 10
2127.7340983958411
 20
1358.552662162698
 30
0.0
  0
POINT
  5
895D
  8
DEFPOINTS
 62
     0
 10
2127.7340983958411
 20
1043.552662162698
 30
0.0
  0
POINT
  5
895E
  8
DEFPOINTS
 62
     0
 10
2370.9715372527899
 20
1043.552662162698
 30
0.0
  0
ENDBLK
  5
8354
  8
0
  0
BLOCK
  8
0
  2
*D13
 70
     1
 10
0.0
 20
0.0
 30
0.0
  3
*D13
  1

  0
LINE
  5
8300
  8
0
  6
BYBLOCK
 62
     0
 10
435.20197702785151
 20
1047.4846162982881
 30
0.0
 11
294.7733426231207
 21
1047.4846162982881
 31
0.0
  0
LINE
  5
8301
  8
0
  6
BYBLOCK
 62
     0
 10
306.7733426231207
 20
1093.4846162982881
 30
0.0
 11
306.7733426231207
 21
1117.4846162982881
 31
0.0
  0
LINE
  5
8302
  8
0
  6
BYBLOCK
 62
     0
 10
306.7733426231207
 20
1023.484616298288
 30
0.0
 11
306.7733426231207
 21
999.48461629828842
 31
0.0
  0
TEXT
  5
8303
  8
3
 62
     0
 10
261.3447711945492
 20
1006.198902012574
 30
0.0
 40
36.0
  1
(22)
 50
90.0
  0
LINE
  5
8304
  8
0
  6
BYBLOCK
 62
     0
 10
306.7733426231207
 20
1069.4846162982881
 30
0.0
 11
306.7733426231207
 21
1047.4846162982881
 31
0.0
  0
INSERT
  5
8305
  8
0
  6
BYBLOCK
 62
     0
  2
_OPEN
 10
306.7733426231207
 20
1069.4846162982881
 30
0.0
 41
24.0
 42
24.0
 43
24.0
 50
270.0
  0
INSERT
  5
8306
  8
0
  6
BYBLOCK
 62
     0
  2
_DOT
 10
306.7733426231207
 20
1047.4846162982881
 30
0.0
 41
24.0
 42
24.0
 43
24.0
 50
90.0
  0
POINT
  5
8307
  8
DEFPOINTS
  6
BYBLOCK
 62
     0
 10
511.20197702783929
 20
1069.4846162982881
 30
0.0
  0
POINT
  5
8308
  8
DEFPOINTS
  6
BYBLOCK
 62
     0
 10
441.20197702785163
 20
1047.4846162982881
 30
0.0
  0
POINT
  5
8309
  8
DEFPOINTS
  6
BYBLOCK
 62
     0
 10
306.7733426231207
 20
1047.4846162982881
 30
0.0
  0
ENDBLK
  5
830A
  8
0
  0
BLOCK
  8
0
  2
*D14
 70
     1
 10
0.0
 20
0.0
 30
0.0
  3
*D14
  1

  0
LINE
  5
8962
  8
3
 62
     0
 10
435.20197702785151
 20
824.05266216269956
 30
0.0
 11
294.7733426231207
 21
824.05266216269956
 31
0.0
  0
LINE
  5
8963
  8
3
 62
     0
 10
355.20197702785208
 20
784.05266216269945
 30
0.0
 11
294.7733426231207
 21
784.05266216269945
 31
0.0
  0
LINE
  5
8964
  8
3
 62
     0
 10
306.7733426231207
 20
848.05266216269956
 30
0.0
 11
306.7733426231207
 21
872.05266216269956
 31
0.0
  0
LINE
  5
8965
  8
3
 62
     0
 10
306.7733426231207
 20
760.05266216269945
 30
0.0
 11
306.7733426231207
 21
653.76694787698523
 31
0.0
  0
LINE
  5
8966
  8
3
 62
     0
 10
306.7733426231207
 20
824.05266216269956
 30
0.0
 11
306.7733426231207
 21
784.05266216269945
 31
0.0
  0
INSERT
  5
8967
  8
3
 62
     0
  2
_DOT
 10
306.7733426231207
 20
824.05266216269956
 30
0.0
 41
24.0
 42
24.0
 43
24.0
 50
270.0
  0
INSERT
  5
8968
  8
3
 62
     0
  2
_OPEN
 10
306.7733426231207
 20
784.05266216269945
 30
0.0
 41
24.0
 42
24.0
 43
24.0
 50
90.0
  0
TEXT
  8
3
  40
36
  5
899A
  62
0
  72
0
  71
0
 10
204.773
 20
631.190
 30
0.000000
  1
40
  0
POINT
  5
896A
  8
DEFPOINTS
 62
     0
 10
441.20197702785163
 20
824.05266216269956
 30
0.0
  0
POINT
  5
896B
  8
DEFPOINTS
 62
     0
 10
361.20197702785208
 20
784.05266216269945
 30
0.0
  0
POINT
  5
896C
  8
DEFPOINTS
 62
     0
 10
306.7733426231207
 20
784.05266216269945
 30
0.0
  0
ENDBLK
  5
8317
  8
0
  0
BLOCK
  8
0
  2
*D15
 70
     1
 10
0.0
 20
0.0
 30
0.0
  3
*D15
  1

  0
LINE
  5
896D
  8
3
 62
     0
 10
2271.7340983958402
 20
778.05266216269956
 30
0.0
 11
2271.7340983958402
 21
643.60981206652377
 31
0.0
  0
LINE
  5
896E
  8
3
 62
     0
 10
2030.7340983958411
 20
655.60981206652377
 30
0.0
 11
2247.7340983958402
 21
655.60981206652377
 31
0.0
  0
INSERT
  5
896F
  8
3
 62
     0
  2
_OPEN
 10
2006.7340983958411
 20
655.60981206652377
 30
0.0
 41
24.0
 42
24.0
 43
24.0
 50
180.0
  0
INSERT
  5
8970
  8
3
 62
     0
  2
_OPEN
 10
2271.7340983958402
 20
655.60981206652377
 30
0.0
 41
24.0
 42
24.0
 43
24.0
  0
TEXT
  8
3
  40
36
  5
899B
  62
0
  72
0
  71
0
 10
2067.23
 20
621.890
 30
0.000000
  1
265
  0
POINT
  5
8972
  8
DEFPOINTS
 62
     0
 10
2006.7340983958411
 20
835.68100979534836
 30
0.0
  0
POINT
  5
8973
  8
DEFPOINTS
 62
     0
 10
2271.7340983958402
 20
784.05266216269945
 30
0.0
  0
POINT
  5
8974
  8
DEFPOINTS
 62
     0
 10
2271.7340983958402
 20
655.60981206652377
 30
0.0
  0
ENDBLK
  5
8338
  8
0
  0
BLOCK
  8
0
  2
*D16
 70
     1
 10
0.0
 20
0.0
 30
0.0
  3
*D16
  1

  0
LINE
  5
8975
  8
3
 62
     0
 10
361.20197702785021
 20
2669.8963371444338
 30
0.0
 11
361.20197702785021
 21
2745.5502986037668
 31
0.0
  0
LINE
  5
8976
  8
3
 62
     0
 10
1161.20197702785
 20
2669.8963371444338
 30
0.0
 11
1161.20197702785
 21
2745.5502986037668
 31
0.0
  0
LINE
  5
8977
  8
3
 62
     0
 10
385.20197702785021
 20
2733.5502986037668
 30
0.0
 11
1137.20197702785
 21
2733.5502986037668
 31
0.0
  0
INSERT
  5
8978
  8
3
 62
     0
  2
_OPEN
 10
361.20197702785021
 20
2733.5502986037668
 30
0.0
 41
24.0
 42
24.0
 43
24.0
 50
180.0
  0
INSERT
  5
8979
  8
3
 62
     0
  2
_OPEN
 10
1161.20197702785
 20
2733.5502986037668
 30
0.0
 41
24.0
 42
24.0
 43
24.0
  0
TEXT
  8
3
  40
36
  5
899C
  62
0
  72
0
  71
0
 10
686.200
 20
2699.83
 30
0.000000
  1
800
  0
POINT
  5
897B
  8
DEFPOINTS
 62
     0
 10
361.20197702785021
 20
2663.8963371444338
 30
0.0
  0
POINT
  5
897C
  8
DEFPOINTS
 62
     0
 10
1161.20197702785
 20
2663.8963371444338
 30
0.0
  0
POINT
  5
897D
  8
DEFPOINTS
 62
     0
 10
1161.20197702785
 20
2733.5502986037668
 30
0.0
  0
ENDBLK
  5
8361
  8
0
  0
BLOCK
  8
0
  2
*D17
 70
     1
 10
0.0
 20
0.0
 30
0.0
  3
*D17
  1

  0
LINE
  5
897E
  8
3
 62
     0
 10
1167.20197702785
 20
2663.8963371444338
 30
0.0
 11
1329.2408625595251
 21
2663.8963371444338
 31
0.0
  0
LINE
  5
897F
  8
3
 62
     0
 10
1167.20197702785
 20
1863.896337144434
 30
0.0
 11
1329.2408625595251
 21
1863.896337144434
 31
0.0
  0
LINE
  5
8980
  8
3
 62
     0
 10
1317.2408625595251
 20
2639.8963371444338
 30
0.0
 11
1317.2408625595251
 21
1887.896337144434
 31
0.0
  0
INSERT
  5
8981
  8
3
 62
     0
  2
_OPEN
 10
1317.2408625595251
 20
2663.8963371444338
 30
0.0
 41
24.0
 42
24.0
 43
24.0
 50
90.0
  0
INSERT
  5
8982
  8
3
 62
     0
  2
_OPEN
 10
1317.2408625595251
 20
1863.896337144434
 30
0.0
 41
24.0
 42
24.0
 43
24.0
 50
270.0
  0
TEXT
  8
3
  40
36
  5
899D
  62
0
  72
0
  71
0
 10
1215.24
 20
2181.07
 30
0.000000
  1
800
  0
POINT
  5
8984
  8
DEFPOINTS
 62
     0
 10
1161.20197702785
 20
2663.8963371444338
 30
0.0
  0
POINT
  5
8985
  8
DEFPOINTS
 62
     0
 10
1161.20197702785
 20
1863.896337144434
 30
0.0
  0
POINT
  5
8986
  8
DEFPOINTS
 62
     0
 10
1317.2408625595251
 20
1863.896337144434
 30
0.0
  0
ENDBLK
  5
836E
  8
0
  0
BLOCK
  8
0
  2
*D18
 70
     1
 10
0.0
 20
0.0
 30
0.0
  3
*D18
  1

  0
LINE
  5
8987
  8
3
 62
     0
 10
1465.7340983958411
 20
1684.0526621627
 30
0.0
 11
1346.6400238489859
 21
1684.0526621627
 31
0.0
  0
LINE
  5
8988
  8
3
 62
     0
 10
1465.7340983958411
 20
784.05266216269979
 30
0.0
 11
1346.6400238489859
 21
784.05266216269979
 31
0.0
  0
LINE
  5
8989
  8
3
 62
     0
 10
1358.6400238489859
 20
1660.0526621626991
 30
0.0
 11
1358.6400238489859
 21
808.05266216269968
 31
0.0
  0
INSERT
  5
898A
  8
3
 62
     0
  2
_OPEN
 10
1358.6400238489859
 20
1684.0526621627
 30
0.0
 41
24.0
 42
24.0
 43
24.0
 50
90.0
  0
INSERT
  5
898B
  8
3
 62
     0
  2
_OPEN
 10
1358.6400238489859
 20
784.05266216269979
 30
0.0
 41
24.0
 42
24.0
 43
24.0
 50
270.0
  0
TEXT
  8
3
  40
36
  5
899E
  62
0
  72
0
  71
0
 10
1256.64
 20
1113.05
 30
0.000000
  1
900
  0
POINT
  5
898D
  8
DEFPOINTS
 62
     0
 10
1471.7340983958411
 20
1684.0526621627
 30
0.0
  0
POINT
  5
898E
  8
DEFPOINTS
 62
     0
 10
1471.7340983958411
 20
784.05266216269979
 30
0.0
  0
POINT
  5
898F
  8
DEFPOINTS
 62
     0
 10
1358.6400238489859
 20
784.05266216269979
 30
0.0
  0
ENDBLK
  5
837F
  8
0
  0
ENDSEC
  0
SECTION
  2
ENTITIES
  0
LINE
  5
7D70
  8
2
 10
2006.7340983958411
 20
1530.733554731806
 30
0.0
 11
2006.7340983958411
 21
835.68100979534836
 31
0.0
1001
ACAD
1000
ASC_BOUNDS
1002
{
1070
    19
1005
0
1005
0
1002
}
  0
POLYLINE
  5
7D72
  8
1
 66
     1
 10
0.0
 20
0.0
 30
0.0
  0
VERTEX
  5
88A9
  8
1
 10
556.20197702785299
 20
1064.121648193192
 30
0.0
 42
-0.1567629017732138
  0
VERTEX
  5
88AA
  8
1
 10
531.9559947442757
 20
1217.354892476171
 30
0.0
 42
-0.3163442013129026
  0
VERTEX
  5
88AB
  8
1
 10
702.9606545625893
 20
1394.2531260974349
 30
0.0
 42
-0.3154517505481823
  0
SEQEND
  5
88AC
  8
1
  0
POLYLINE
  5
7D77
  8
1
 66
     1
 10
0.0
 20
0.0
 30
0.0
  0
VERTEX
  5
88AD
  8
1
 10
556.20197702785208
 20
1088.074403862176
 30
0.0
 42
-0.1343280102757561
  0
VERTEX
  5
88AE
  8
1
 10
541.83813281864695
 20
1215.822687442994
 30
0.0
 42
-0.3163019945347412
  0
VERTEX
  5
88AF
  8
1
 10
704.83234397957949
 20
1384.429848705121
 30
0.0
 42
-0.3153658436290411
  0
SEQEND
  5
88B0
  8
1
  0
POLYLINE
  5
7D7C
  8
1
 66
     1
 10
0.0
 20
0.0
 30
0.0
  0
VERTEX
  5
88B1
  8
1
 10
1076.201977027848
 20
1451.0526621627109
 30
0.0
  0
VERTEX
  5
88B2
  8
1
 10
1076.2019770278539
 20
1226.55266216271
 30
0.0
 42
-0.2294041480982971
  0
VERTEX
  5
88B3
  8
1
 10
966.20197702785197
 20
999.41834066988895
 30
0.0
 42
-0.1293935334669464
  0
SEQEND
  5
88B4
  8
1
  0
POLYLINE
  5
7D81
  8
1
 66
     1
 10
0.0
 20
0.0
 30
0.0
  0
VERTEX
  5
88B5
  8
1
 10
1077.201977027848
 20
1451.0526621627109
 30
0.0
  0
VERTEX
  5
88B6
  8
1
 10
1077.2019770278539
 20
1226.5526621627109
 30
0.0
 42
-0.2301193883723377
  0
VERTEX
  5
88B7
  8
1
 10
966.20197702785197
 20
998.1451316388584
 30
0.0
 42
-0.129402372482195
  0
SEQEND
  5
88B8
  8
1
  0
POLYLINE
  5
7D86
  8
1
 66
     1
 10
0.0
 20
0.0
 30
0.0
  0
VERTEX
  5
88B9
  8
1
 10
1087.2019770278471
 20
1431.0526621627109
 30
0.0
  0
VERTEX
  5
88BA
  8
1
 10
1087.2019770278539
 20
1226.5526621627121
 30
0.0
 42
-0.2369453676414515
  0
VERTEX
  5
88BB
  8
1
 10
966.20197702785379
 20
985.55473686042933
 30
0.0
 42
-0.1407141398147078
  0
SEQEND
  5
88BC
  8
1
  0
LINE
  5
7D8B
  8
1
 10
963.90197702785281
 20
1286.452662162699
 30
0.0
 11
963.90197702785633
 21
846.05266216269979
 31
0.0
  0
LINE
  5
7D8C
  8
1
 10
558.50197702785306
 20
1286.4526621627001
 30
0.0
 11
558.5019770278559
 21
846.05266216269945
 31
0.0
  0
LINE
  5
7D8D
  8
1
 10
966.20197702785288
 20
1286.452662162699
 30
0.0
 11
966.20197702785288
 21
846.05266216269945
 31
0.0
  0
LINE
  5
7D8E
  8
1
 10
556.20197702785299
 20
1286.4526621627001
 30
0.0
 11
556.20197702785299
 21
848.3526621626994
 31
0.0
  0
CIRCLE
  5
7D8F
  8
1
 10
761.20197702785208
 20
1201.0526621626991
 30
0.0
 40
169.0
  0
POLYLINE
  5
7D90
  8
1
 66
     1
 10
0.0
 20
0.0
 30
0.0
  0
VERTEX
  5
88BD
  8
1
 10
621.95217203577965
 20
996.05266216269945
 30
0.0
 42
-0.1174780416237573
  0
VERTEX
  5
88BE
  8
1
 10
556.20197702785299
 20
1088.074403862177
 30
0.0
 42
-0.3153658436290411
  0
SEQEND
  5
88BF
  8
1
  0
LINE
  5
7D95
  8
1
 10
558.50197702785408
 20
1091.0526621626991
 30
0.0
 11
596.20197702785288
 21
1059.384662162699
 31
0.0
  0
LINE
  5
7D96
  8
1
 10
963.90197702785281
 20
1101.0526621626991
 30
0.0
 11
558.50197702785306
 21
1101.0526621626991
 31
0.0
  0
LINE
  5
7D97
  8
1
 10
594.21626274213838
 20
1061.0526621626991
 30
0.0
 11
761.2019770278439
 21
1061.0526621626991
 31
0.0
  0
LINE
  5
7D98
  8
1
 10
589.75014286154328
 20
1246.9930426683959
 30
0.0
 11
605.08676600181025
 21
1242.8836068833409
 31
0.0
  0
CIRCLE
  5
7D99
  8
1
 10
597.96051238500058
 20
1244.793080785025
 30
0.0
 40
4.0
  0
LINE
  5
7D9A
  8
1
 10
589.75014286154408
 20
1155.1122816570021
 30
0.0
 11
605.08676600181025
 21
1159.2217174420559
 31
0.0
  0
CIRCLE
  5
7D9B
  8
1
 10
597.96051238499786
 20
1157.3122435403729
 30
0.0
 40
4.0
  0
LINE
  5
7D9C
  8
1
 10
926.20197702785288
 20
1059.384662162699
 30
0.0
 11
926.20197702785288
 21
904.25266216269949
 31
0.0
  0
LINE
  5
7D9D
  8
1
 10
596.20197702785288
 20
1059.384662162699
 30
0.0
 11
596.20197702785197
 21
904.25266216269949
 31
0.0
  0
POLYLINE
  5
7D9E
  8
1
 66
     1
 10
0.0
 20
0.0
 30
0.0
  0
VERTEX
  5
88C0
  8
1
 10
966.20197702785197
 20
998.1451316388584
 30
0.0
 42
-0.2160017649625759
  0
VERTEX
  5
88C1
  8
1
 10
733.3041602198
 20
941.00245088606243
 30
0.0
 42
-0.129402372482195
  0
VERTEX
  5
88C2
  8
1
 10
621.95217203577874
 20
996.05266216269865
 30
0.0
 42
-0.3153658436290411
  0
SEQEND
  5
88C3
  8
1
  0
LINE
  5
7DA3
  8
1
 10
715.26159652215574
 20
1029.6008279963901
 30
0.0
 11
719.37103230721004
 21
1044.9374511366559
 31
0.0
  0
CIRCLE
  5
7DA4
  8
1
 10
717.46155840552717
 20
1037.8111975198469
 30
0.0
 40
4.0
  0
CIRCLE
  5
7DA5
  8
1
 10
804.94239565017688
 20
1037.8111975198469
 30
0.0
 40
4.0
  0
LINE
  5
7DA6
  8
1
 10
807.14235753355035
 20
1029.6008279963901
 30
0.0
 11
803.03292174849503
 21
1044.9374511366559
 31
0.0
  0
LINE
  5
7DA7
  8
1
 10
928.18769131356646
 20
1061.0526621626991
 30
0.0
 11
761.2019770278439
 21
1061.0526621626991
 31
0.0
  0
LINE
  5
7DA8
  8
1
 10
635.69052336724053
 20
1075.541208502088
 30
0.0
 11
646.9177107224541
 21
1086.7683958572991
 31
0.0
  0
CIRCLE
  5
7DA9
  8
1
 10
641.70093100732538
 20
1081.551616142172
 30
0.0
 40
4.0
  0
LINE
  5
7DAA
  8
1
 10
886.71343068846545
 20
1075.541208502088
 30
0.0
 11
875.48624333325279
 21
1086.7683958572991
 31
0.0
  0
CIRCLE
  5
7DAB
  8
1
 10
880.70302304837867
 20
1081.551616142172
 30
0.0
 40
4.0
  0
LINE
  5
7DAC
  8
1
 10
963.90197702785372
 20
1091.0526621626991
 30
0.0
 11
926.20197702785288
 21
1059.3846621626999
 31
0.0
  0
CIRCLE
  5
7DAD
  8
1
 10
924.44344167070449
 20
1157.3122435403729
 30
0.0
 40
4.0
  0
CIRCLE
  5
7DAE
  8
1
 10
924.44344167070346
 20
1244.793080785025
 30
0.0
 40
4.0
  0
LINE
  5
7DAF
  8
1
 10
932.65381119416168
 20
1246.9930426683959
 30
0.0
 11
917.31718805389482
 21
1242.8836068833409
 31
0.0
  0
LINE
  5
7DB0
  8
1
 10
671.20197702785299
 20
1381.0526621626991
 30
0.0
 11
558.50197702785306
 21
1286.452662162699
 31
0.0
  0
LINE
  5
7DB1
  8
1
 10
1097.201977027848
 20
1451.0526621627109
 30
0.0
 11
740.20197702784844
 21
1451.0526621627
 31
0.0
  0
LINE
  5
7DB2
  8
1
 10
851.20197702785288
 20
1381.0526621626991
 30
0.0
 11
963.90197702785372
 21
1286.452662162699
 31
0.0
  0
LINE
  5
7DB3
  8
1
 10
1059.801977027847
 20
1431.0526621627091
 30
0.0
 11
777.60197702784706
 21
1431.0526621627009
 31
0.0
  0
LINE
  5
7DB4
  8
1
 10
1097.201977027848
 20
1449.8526621627111
 30
0.0
 11
740.20197702784844
 21
1449.8526621627
 31
0.0
  0
POLYLINE
  5
7DB5
  8
1
 66
     1
 10
0.0
 20
0.0
 30
0.0
  0
VERTEX
  5
88C4
  8
1
 10
744.3468853742761
 20
1406.0526621627021
 30
0.0
 42
-0.1315967463597435
  0
VERTEX
  5
88C5
  8
1
 10
704.80754701983642
 20
1384.4251224058021
 30
0.0
 42
-0.2200089805681688
  0
SEQEND
  5
88C6
  8
1
  0
LINE
  5
7DB9
  8
1
 10
851.20197702785288
 20
1381.0526621626991
 30
0.0
 11
671.20197702785299
 21
1381.0526621626991
 31
0.0
  0
LINE
  5
7DBA
  8
1
 10
635.69052336724144
 20
1326.5641158233111
 30
0.0
 11
646.91771072245308
 21
1315.3369284680989
 31
0.0
  0
CIRCLE
  5
7DBB
  8
1
 10
641.70093100732538
 20
1320.553708183226
 30
0.0
 40
4.0
  0
LINE
  5
7DBC
  8
1
 10
715.26159652215574
 20
1372.504496329009
 30
0.0
 11
719.37103230721095
 21
1357.1678731887421
 31
0.0
  0
CIRCLE
  5
7DBD
  8
1
 10
717.46155840552717
 20
1364.2941268055511
 30
0.0
 40
4.0
  0
CIRCLE
  5
7DBE
  8
1
 10
880.70302304837867
 20
1320.553708183226
 30
0.0
 40
4.0
  0
LINE
  5
7DBF
  8
1
 10
886.71343068846363
 20
1326.5641158233111
 30
0.0
 11
875.48624333325279
 21
1315.3369284680989
 31
0.0
  0
CIRCLE
  5
7DC0
  8
1
 10
804.94239565017688
 20
1364.2941268055511
 30
0.0
 40
4.0
  0
LINE
  5
7DC1
  8
1
 10
807.14235753354944
 20
1372.5044963290079
 30
0.0
 11
803.03292174849423
 21
1357.1678731887421
 31
0.0
  0
POLYLINE
  5
7DC2
  8
1
 66
     1
 10
0.0
 20
0.0
 30
0.0
  0
VERTEX
  5
88C7
  8
1
 10
748.53771341385618
 20
1426.5635691661471
 30
0.0
 42
-0.0934525219043797
  0
VERTEX
  5
88C8
  8
1
 10
728.64756173544538
 20
1406.0526621627009
 30
0.0
 42
-0.1987366729981355
  0
SEQEND
  5
88C9
  8
1
  0
POLYLINE
  5
7DC6
  8
1
 66
     1
 10
0.0
 20
0.0
 30
0.0
  0
VERTEX
  5
88CA
  8
1
 10
728.64756173544538
 20
1406.0526621627009
 30
0.0
 42
-0.0941668855597806
  0
VERTEX
  5
88CB
  8
1
 10
702.44180993694408
 20
1394.1412578543559
 30
0.0
 42
-0.1987366729981355
  0
SEQEND
  5
88CC
  8
1
  0
LINE
  5
7DCA
  8
1
 10
740.20197702784844
 20
1451.0526621627
 30
0.0
 11
740.20197702784844
 21
1449.8526621627
 31
0.0
  0
LINE
  5
7DCB
  8
1
 10
760.20197702784844
 20
1451.0526621627021
 30
0.0
 11
760.20197702784844
 21
1430.0526621627009
 31
0.0
  0
LINE
  5
7DCC
  8
1
 10
761.90197702784553
 20
1446.752662162701
 30
0.0
 11
777.60197702784535
 21
1431.0526621627021
 31
0.0
  0
ARC
  5
7DCD
  8
1
 10
756.88216690101763
 20
1421.0526621627021
 30
0.0
 40
10.0
 50
90.000000000001577
 51
146.55812821051649
  0
LINE
  5
7DCE
  8
1
 10
760.20197702784196
 20
1431.0526621627009
 30
0.0
 11
756.88216690101115
 21
1431.0526621626991
 31
0.0
  0
POLYLINE
  5
7DCF
  8
1
 66
     1
 10
0.0
 20
0.0
 30
0.0
  0
VERTEX
  5
88CD
  8
1
 10
760.20197702784844
 20
1430.052662162703
 30
0.0
 42
-0.101266720201501
  0
VERTEX
  5
88CE
  8
1
 10
759.07662204423923
 20
1424.553251675939
 30
0.0
 42
-0.0681921917069782
  0
VERTEX
  5
88CF
  8
1
 10
744.3468853742761
 20
1406.0526621627021
 30
0.0
 42
-0.2200089805681688
  0
SEQEND
  5
88D0
  8
1
  0
POINT
  5
7DD4
  8
1
 10
761.20197702784844
 20
1451.0526621627009
 30
0.0
 50
0.0000000000008142
  0
ARC
  5
7DD5
  8
1
 10
761.20197702784844
 20
1446.0526621627021
 30
0.0
 40
1.0
 50
36.869897645806532
 51
180.00000000000151
  0
POLYLINE
  5
7DD6
  8
1
 66
     1
 10
0.0
 20
0.0
 30
0.0
  0
VERTEX
  5
88D1
  8
1
 10
749.70197702784753
 20
1456.115825377698
 30
0.0
  0
VERTEX
  5
88D2
  8
1
 10
749.70197702784844
 20
1443.8475150937529
 30
0.0
  0
SEQEND
  5
88D3
  8
1
  0
POINT
  5
7DDA
  8
1
 10
918.70197702784571
 20
1451.05266216271
 30
0.0
 50
0.0000000000008142
  0
POINT
  5
7DDB
  8
1
 10
918.70197702784571
 20
1451.05266216271
 30
0.0
 50
0.0000000000008142
  0
LINE
  5
7DDC
  8
1
 10
1075.501977027847
 20
1446.7526621627101
 30
0.0
 11
1059.801977027847
 21
1431.0526621627091
 31
0.0
  0
LINE
  5
7DDD
  8
1
 10
1087.2019770278471
 20
1431.0526621627109
 30
0.0
 11
1077.2019770278471
 21
1431.05266216271
 31
0.0
  0
ARC
  5
7DDE
  8
1
 10
1076.201977027848
 20
1446.0526621627109
 30
0.0
 40
1.0
 50
0.000000000001603
 51
143.13010235419659
  0
POLYLINE
  5
7DDF
  8
1
 66
     1
 10
0.0
 20
0.0
 30
0.0
  0
VERTEX
  5
88D4
  8
1
 10
1097.201977027848
 20
1451.0526621627121
 30
0.0
  0
VERTEX
  5
88D5
  8
1
 10
1097.201977027848
 20
1449.8526621627129
 30
0.0
 42
-0.4696216166052111
  0
SEQEND
  5
88D6
  8
1
  0
POLYLINE
  5
7DE3
  8
1
 66
     1
 10
0.0
 20
0.0
 30
0.0
  0
VERTEX
  5
88D7
  8
1
 10
1087.7019770278471
 20
1456.115825377708
 30
0.0
  0
VERTEX
  5
88D8
  8
1
 10
1087.701977027848
 20
1443.847515093762
 30
0.0
  0
SEQEND
  5
88D9
  8
1
  0
LINE
  5
7DE7
  8
1
 10
1885.7340983958411
 20
1326.4526621626981
 30
0.0
 11
1704.1721151878901
 21
1201.052662162698
 31
0.0
  0
POLYLINE
  5
7DE8
  8
1
 66
     1
 10
0.0
 20
0.0
 30
0.0
  0
VERTEX
  5
88DA
  8
1
 10
1885.7340983958411
 20
1382.552662162698
 30
0.0
  0
VERTEX
  5
88DB
  8
1
 10
1885.73409839584
 20
1201.052662162698
 30
0.0
  0
VERTEX
  5
88DC
  8
1
 10
1885.73409839584
 20
1180.7223593828739
 30
0.0
  0
SEQEND
  5
88DD
  8
1
  0
POLYLINE
  5
7DED
  8
1
 66
     1
 10
0.0
 20
0.0
 30
0.0
  0
VERTEX
  5
88DE
  8
1
 10
2127.7340983958411
 20
1382.552662162698
 30
0.0
  0
VERTEX
  5
88DF
  8
1
 10
2127.734098395842
 20
1201.052662162698
 30
0.0
  0
VERTEX
  5
88E0
  8
1
 10
2127.734098395842
 20
1180.7223593828739
 30
0.0
  0
SEQEND
  5
88E1
  8
1
  0
LINE
  5
7DF2
  8
1
 10
2119.7340983958411
 20
1451.0526621627009
 30
0.0
 11
2119.7340983958411
 21
1201.052662162698
 31
0.0
  0
LINE
  5
7DF3
  8
1
 10
1893.734098395842
 20
1451.0526621627009
 30
0.0
 11
1893.734098395842
 21
1201.052662162698
 31
0.0
  0
POLYLINE
  5
7DF4
  8
1
 66
     1
 10
0.0
 20
0.0
 30
0.0
  0
VERTEX
  5
88E2
  8
1
 10
1885.73409839584
 20
1180.7223593828739
 30
0.0
  0
VERTEX
  5
88E3
  8
1
 10
1885.7340983958411
 20
849.2526621626987
 30
0.0
  0
SEQEND
  5
88E4
  8
1
  0
POLYLINE
  5
7DF8
  8
1
 66
     1
 10
0.0
 20
0.0
 30
0.0
  0
VERTEX
  5
88E5
  8
1
 10
2127.734098395842
 20
1180.7223593828739
 30
0.0
  0
VERTEX
  5
88E6
  8
1
 10
2127.7340983958411
 20
1019.552662162699
 30
0.0
  0
SEQEND
  5
88E7
  8
1
  0
ARC
  5
7DFC
  8
1
 10
2086.160245243942
 20
1021.398081974707
 30
0.0
 40
48.656384192584412
 50
33.500033665264858
 51
46.368348723162477
  0
LINE
  5
7DFD
  8
1
 10
2119.7340983958379
 20
1201.052662162698
 30
0.0
 11
2119.7340983958411
 21
993.05266216269922
 31
0.0
  0
LINE
  5
7DFE
  8
1
 10
1893.734098395842
 20
1201.052662162698
 30
0.0
 11
1893.7340983958411
 21
993.05266216269763
 31
0.0
  0
LINE
  5
7DFF
  8
1
 10
1908.7340983958411
 20
978.05266216269774
 30
0.0
 11
2104.7340983958402
 21
978.05266216269877
 31
0.0
  0
ARC
  5
7E00
  8
1
 10
1908.7340983958411
 20
993.05266216269774
 30
0.0
 40
15.0
 50
180.0
 51
270.0
  0
LINE
  5
7E01
  8
1
 10
1893.734098395842
 20
1018.5526621626969
 30
0.0
 11
1886.7340983958411
 21
1018.5526621626969
 31
0.0
  0
ARC
  5
7E02
  8
1
 10
1886.7340983958411
 20
1019.5526621626969
 30
0.0
 40
1.0
 50
179.99999999999989
 51
270.0
  0
ARC
  5
7E03
  8
1
 10
2104.7340983958402
 20
993.05266216269877
 30
0.0
 40
15.0
 50
270.0
 51
0.0
  0
LINE
  5
7E04
  8
1
 10
2120.7340983958402
 20
1018.552662162699
 30
0.0
 11
2126.734098395842
 21
1018.552662162699
 31
0.0
  0
LINE
  5
7E05
  8
1
 10
2126.734098395842
 20
1020.552662162699
 30
0.0
 11
2126.734098395842
 21
1048.253363822131
 31
0.0
  0
LINE
  5
7E06
  8
1
 10
2119.7340983958429
 20
1019.5526621626969
 30
0.0
 11
2125.7340983958429
 21
1019.552662162699
 31
0.0
  0
ARC
  5
7E07
  8
1
 10
2126.7340983958411
 20
1019.552662162699
 30
0.0
 40
1.0
 50
270.0
 51
0.0000000000000799
  0
ARC
  5
7E08
  8
1
 10
2125.7340983958411
 20
1020.552662162699
 30
0.0
 40
1.0
 50
270.0
 51
0.0000000000007194
  0
ARC
  5
7E09
  8
1
 10
2120.7340983958402
 20
1017.552662162699
 30
0.0
 40
1.0
 50
90.0
 51
180.0
  0
LINE
  5
7E0A
  8
1
 10
1873.7340983958411
 20
1449.8526621627011
 30
0.0
 11
2139.734098395842
 21
1449.8526621627011
 31
0.0
  0
LINE
  5
7E0B
  8
1
 10
1912.5340983958411
 20
1431.0526621627009
 30
0.0
 11
2100.93409839584
 21
1431.0526621627009
 31
0.0
  0
LINE
  5
7E0C
  8
1
 10
1873.7340983958429
 20
1451.0526621627009
 30
0.0
 11
2139.7340983958411
 21
1451.0526621627009
 31
0.0
  0
ARC
  5
7E0D
  8
1
 10
1886.7340983958411
 20
1382.552662162698
 30
0.0
 40
1.0
 50
90.0
 51
180.0
  0
ARC
  5
7E0E
  8
1
 10
1892.7340983958429
 20
1384.5526621626971
 30
0.0
 40
1.0
 50
270.0
 51
0.0
  0
LINE
  5
7E0F
  8
1
 10
1892.7340983958429
 20
1383.5526621626971
 30
0.0
 11
1886.7340983958411
 21
1383.552662162698
 31
0.0
  0
LINE
  5
7E10
  8
1
 10
1893.734098395842
 20
1449.8526621627011
 30
0.0
 11
1912.5340983958411
 21
1431.0526621627009
 31
0.0
  0
LINE
  5
7E11
  8
1
 10
1873.734098395842
 20
1451.0526621627009
 30
0.0
 11
1873.734098395842
 21
1449.8526621627011
 31
0.0
1001
ACAD
1000
ASC_BOUNDS
1002
{
1070
    19
1002
}
  0
ARC
  5
7E12
  8
1
 10
2086.160245243942
 20
1380.7072423506879
 30
0.0
 40
48.656384192584412
 50
313.63165127683709
 51
326.49996633473512
  0
ARC
  5
7E13
  8
1
 10
2120.7340983958402
 20
1384.5526621626971
 30
0.0
 40
1.0
 50
180.0
 51
270.0
  0
ARC
  5
7E14
  8
1
 10
2125.7340983958411
 20
1381.552662162698
 30
0.0
 40
1.0
 50
359.9999999999992
 51
90.0
  0
ARC
  5
7E15
  8
1
 10
2126.7340983958411
 20
1382.552662162698
 30
0.0
 40
1.0
 50
359.99999999999989
 51
90.0
  0
LINE
  5
7E16
  8
1
 10
2119.7340983958411
 20
1382.552662162698
 30
0.0
 11
2125.7340983958411
 21
1382.552662162698
 31
0.0
  0
LINE
  5
7E17
  8
1
 10
2126.7340983958411
 20
1381.552662162698
 30
0.0
 11
2126.7340983958411
 21
1353.8519605032629
 31
0.0
  0
LINE
  5
7E18
  8
1
 10
2120.7340983958402
 20
1383.5526621626971
 30
0.0
 11
2126.7340983958411
 21
1383.552662162698
 31
0.0
  0
LINE
  5
7E19
  8
1
 10
2119.7340983958411
 20
1449.8526621627011
 30
0.0
 11
2100.93409839584
 21
1431.0526621627
 31
0.0
  0
LINE
  5
7E1A
  8
1
 10
2139.7340983958411
 20
1451.0526621627009
 30
0.0
 11
2139.7340983958411
 21
1449.8526621627011
 31
0.0
1001
ACAD
1000
ASC_BOUNDS
1002
{
1070
    19
1002
}
  0
LINE
  5
7E1B
  8
1
 10
1008.894265224489
 20
1996.896337144434
 30
0.0
 11
978.20197702784844
 21
1996.896337144434
 31
0.0
  0
LINE
  5
7E1C
  8
1
 10
1011.201977027849
 20
1966.896337144434
 30
0.0
 11
971.20197702784935
 21
1966.896337144434
 31
0.0
  0
LINE
  5
7E1D
  8
1
 10
1064.20197702785
 20
2511.8963371444329
 30
0.0
 11
920.20197702785015
 21
2511.8963371444352
 31
0.0
  0
LINE
  5
7E1E
  8
1
 10
1064.20197702785
 20
2285.8963371444329
 30
0.0
 11
920.20197702785015
 21
2285.8963371444338
 31
0.0
  0
LINE
  5
7E1F
  8
1
 10
1079.20197702785
 20
2531.8963371444338
 30
0.0
 11
920.20197702785015
 21
2531.8963371444352
 31
0.0
  0
LINE
  5
7E20
  8
1
 10
1079.20197702785
 20
2265.8963371444338
 30
0.0
 11
920.20197702785015
 21
2265.8963371444338
 31
0.0
  0
LINE
  5
7E21
  8
1
 10
511.2019770278493
 20
1966.896337144434
 30
0.0
 11
511.2019770278493
 21
2276.896337144432
 31
0.0
  0
LINE
  5
7E22
  8
1
 10
761.20197702785015
 20
2531.8963371444338
 30
0.0
 11
920.20197702785015
 21
2531.8963371444352
 31
0.0
  0
LINE
  5
7E23
  8
1
 10
761.20197702785015
 20
2265.8963371444338
 30
0.0
 11
920.20197702785015
 21
2265.8963371444338
 31
0.0
  0
LINE
  5
7E24
  8
1
 10
776.20197702785015
 20
2285.8963371444329
 30
0.0
 11
920.20197702785015
 21
2285.8963371444338
 31
0.0
  0
LINE
  5
7E25
  8
1
 10
776.20197702785015
 20
2511.8963371444329
 30
0.0
 11
920.20197702785015
 21
2511.8963371444352
 31
0.0
  0
LINE
  5
7E26
  8
1
 10
741.20197702785026
 20
2285.8963371444329
 30
0.0
 11
741.20197702785026
 21
2511.8963371444329
 31
0.0
  0
ARC
  5
7E27
  8
1
 10
765.99426649732141
 20
2290.2301687200111
 30
0.0
 40
24.801237822087149
 50
178.4608336668654
 51
258.85878284131428
  0
ARC
  5
7E28
  8
1
 10
776.20197702785015
 20
2300.8963371444329
 30
0.0
 40
15.0
 50
180.0
 51
270.0
  0
ARC
  5
7E29
  8
1
 10
761.20197702785015
 20
2511.8963371444352
 30
0.0
 40
20.0
 50
90.000000000000171
 51
180.0
  0
ARC
  5
7E2A
  8
1
 10
776.20197702785015
 20
2496.8963371444329
 30
0.0
 40
15.0
 50
90.000000000000171
 51
180.0
  0
LINE
  5
7E2B
  8
1
 10
1011.201977027849
 20
1966.896337144434
 30
0.0
 11
1011.201977027848
 21
2265.8963371444338
 31
0.0
  0
CIRCLE
  5
7E2C
  8
1
 10
993.20197702784935
 20
1996.896337144434
 30
0.0
 40
6.0
  0
LINE
  5
7E2D
  8
1
 10
993.20197702784935
 20
2013.031045026981
 30
0.0
 11
993.20197702784935
 21
1977.36396552254
 31
0.0
  0
LINE
  5
7E2E
  8
1
 10
1079.20197702785
 20
2300.8963371444329
 30
0.0
 11
1079.20197702785
 21
2496.8963371444329
 31
0.0
  0
LINE
  5
7E2F
  8
1
 10
1099.20197702785
 20
2285.8963371444338
 30
0.0
 11
1099.20197702785
 21
2511.8963371444338
 31
0.0
  0
ARC
  5
7E30
  8
1
 10
1064.20197702785
 20
2300.8963371444329
 30
0.0
 40
15.0
 50
270.0
 51
0.0
  0
ARC
  5
7E31
  8
1
 10
1074.4096875583789
 20
2290.2301687200111
 30
0.0
 40
24.801237822087149
 50
281.14121715868561
 51
1.5391663331345951
  0
ARC
  5
7E32
  8
1
 10
1064.20197702785
 20
2496.8963371444329
 30
0.0
 40
15.0
 50
0.0
 51
89.999999999999915
  0
ARC
  5
7E33
  8
1
 10
1079.20197702785
 20
2511.8963371444352
 30
0.0
 40
20.0
 50
0.0
 51
89.999999999999915
  0
LINE
  5
7E34
  8
1
 10
743.58230023358192
 20
2276.896337144437
 30
0.0
 11
511.20197702785021
 21
2276.896337144432
 31
0.0
  0
LINE
  5
7E35
  8
1
 10
551.20197702784935
 20
1966.8963371444349
 30
0.0
 11
511.20197702785021
 21
1966.896337144434
 31
0.0
  0
LINE
  5
7E36
  8
1
 10
511.2019770278402
 20
848.35266216269918
 30
0.0
 11
511.20197702783929
 21
846.05266216269945
 31
0.0
  0
LINE
  5
7E37
  8
1
 10
511.2019770278402
 20
846.05266216269945
 30
0.0
 11
1011.201977027838
 21
846.05266216269945
 31
0.0
  0
LINE
  5
7E38
  8
1
 10
511.2019770278402
 20
848.3526621626994
 30
0.0
 11
556.20197702785208
 21
848.35266216269918
 31
0.0
  0
LINE
  5
7E49
  8
1
 10
523.20197702783935
 20
855.12645915838095
 30
0.0
 11
523.20197702783935
 21
797.74754054658058
 31
0.0
1001
ACAD
1000
ASC_BOUNDS
1002
{
1070
    19
1005
0
1005
0
1002
}
  0
LINE
  5
7E54
  8
1
 10
999.20197702783753
 20
855.12645915838095
 30
0.0
 11
999.20197702783753
 21
797.74754054658058
 31
0.0
1001
ACAD
1000
ASC_BOUNDS
1002
{
1070
    19
1005
0
1005
0
1002
}
  0
LINE
  5
7E5A
  8
1
 10
1011.2019770278361
 20
848.3526621626994
 30
0.0
 11
966.20197702782468
 21
848.35266216269918
 31
0.0
  0
LINE
  5
7E5B
  8
1
 10
1011.2019770278361
 20
848.35266216269918
 30
0.0
 11
1011.201977027837
 21
846.05266216269945
 31
0.0
  0
LINE
  5
7E5D
  8
1
 10
1574.7340983958411
 20
846.05266216269865
 30
0.0
 11
1925.7340983958411
 21
846.05266216269843
 31
0.0
  0
LINE
  5
7E62
  8
1
 10
1576.255899665674
 20
849.2526621626987
 30
0.0
 11
1882.5340983958411
 21
849.25266216269824
 31
0.0
  0
POLYLINE
  5
7E63
  8
1
 66
     1
 10
0.0
 20
0.0
 30
0.0
  0
VERTEX
  5
88E8
  8
1
 10
1925.7340983958411
 20
849.25266216269824
 30
0.0
  0
VERTEX
  5
88E9
  8
1
 10
1925.7340983958411
 20
846.0526621626982
 30
0.0
  0
SEQEND
  5
88EA
  8
1
  0
POLYLINE
  5
7E67
  8
1
 66
     1
 10
0.0
 20
0.0
 30
0.0
  0
VERTEX
  5
88EB
  8
1
 10
1882.5340983958399
 20
1324.242507851149
 30
0.0
  0
VERTEX
  5
88EC
  8
1
 10
1882.5340983958411
 20
846.05266216269843
 30
0.0
  0
SEQEND
  5
88ED
  8
1
  0
LINE
  5
7E6B
  8
1
 10
1885.7340983958411
 20
849.25266216269802
 30
0.0
 11
1925.7340983958411
 21
849.25266216269824
 31
0.0
  0
LINE
  5
7E6C
  8
1
 10
1705.5340983958411
 20
1201.052662162698
 30
0.0
 11
1574.7340983958411
 21
846.05266216269865
 31
0.0
  0
LINE
  5
7E71
  8
1
 10
1854.734098395842
 20
858.48625841101648
 30
0.0
 11
1854.7340983958411
 21
793.48625841101625
 31
0.0
1001
ACAD
1000
ASC_BOUNDS
1002
{
1070
    19
1002
}
  0
LINE
  5
7E72
  8
1
 10
1604.734098395842
 20
858.48625841101546
 30
0.0
 11
1604.7340983958411
 21
793.48625841101796
 31
0.0
1001
ACAD
1000
ASC_BOUNDS
1002
{
1070
    19
1002
}
  0
LINE
  5
7E73
  8
2
 10
761.2019770278448
 20
744.27725714098142
 30
0.0
 11
761.2019770278448
 21
1487.016645001263
 31
0.0
  0
LINE
  5
7E75
  8
2
 10
2172.6061184428581
 20
1201.052662162698
 30
0.0
 11
1545.345977829262
 21
1201.052662162698
 31
0.0
  0
ARC
  5
7E76
  8
1
 10
761.20197702785208
 20
1201.0526621626991
 30
0.0
 40
100.8
 50
180.0
 51
254.20289999999989
  0
ARC
  5
7E77
  8
1
 10
761.20197702785208
 20
1201.0526621626991
 30
0.0
 40
100.8
 50
285.4276999999999
 51
180.0
  0
LINE
  5
7E79
  8
1
 10
733.58427702785229
 20
1104.0526621626991
 30
0.0
 11
788.47137702785221
 21
1104.0526621626991
 31
0.0
  0
LINE
  5
7E7A
  8
1
 10
859.20197702785197
 20
1113.0526621626991
 30
0.0
 11
823.20197702785208
 21
1113.0526621626991
 31
0.0
  0
LINE
  5
7E7B
  8
1
 10
861.20197702785197
 20
1101.0526621626991
 30
0.0
 11
821.20197702785208
 21
1101.0526621626991
 31
0.0
  0
LINE
  5
7E7C
  8
1
 10
860.30977702785185
 20
1112.720762162699
 30
0.0
 11
843.90897702785242
 21
1143.382762162699
 31
0.0
  0
ARC
  5
7E7D
  8
1
 10
859.20197702785197
 20
1111.0526621626991
 30
0.0
 40
2.0
 50
0.0
 51
90.0
  0
LINE
  5
7E7E
  8
1
 10
861.20197702785197
 20
1101.0526621626991
 30
0.0
 11
861.20197702785197
 21
1111.0526621626991
 31
0.0
  0
LINE
  5
7E7F
  8
1
 10
847.20197702785208
 20
1113.0526621626991
 30
0.0
 11
847.20197702785208
 21
1101.0526621626991
 31
0.0
  0
LINE
  5
7E80
  8
1
 10
835.20197702785197
 20
1101.0526621626991
 30
0.0
 11
835.20197702785197
 21
1113.0526621626991
 31
0.0
  0
LINE
  5
7E81
  8
1
 10
841.20197702785197
 20
1114.4331621626991
 30
0.0
 11
841.20197702785197
 21
1097.0860621626989
 31
0.0
  0
LINE
  5
7E82
  8
1
 10
821.40447702785241
 20
1120.1638621626989
 30
0.0
 11
827.63697702785237
 21
1113.9313621626991
 31
0.0
  0
LINE
  5
7E83
  8
1
 10
814.6523770278518
 20
1115.6023621626989
 30
0.0
 11
821.20197702785208
 21
1109.0526621626991
 31
0.0
  0
ARC
  5
7E84
  8
1
 10
823.20197702785208
 20
1111.0526621626991
 30
0.0
 40
2.0
 50
90.0
 51
180.0
  0
ARC
  5
7E85
  8
1
 10
829.75837702785236
 20
1116.0526621626991
 30
0.0
 40
3.0
 50
225.0
 51
270.0
  0
LINE
  5
7E86
  8
1
 10
821.20197702785208
 20
1101.0526621626991
 30
0.0
 11
821.20197702785208
 21
1111.0526621626991
 31
0.0
  0
ARC
  5
7E87
  8
1
 10
663.20197702785197
 20
1111.0526621626991
 30
0.0
 40
2.0
 50
90.0
 51
180.0
  0
LINE
  5
7E88
  8
1
 10
661.20197702785208
 20
1101.0526621626991
 30
0.0
 11
701.20197702785197
 21
1101.0526621626991
 31
0.0
  0
LINE
  5
7E89
  8
1
 10
707.45537702785168
 20
1115.3061621626989
 30
0.0
 11
701.20197702785197
 21
1109.0526621626991
 31
0.0
  0
LINE
  5
7E8A
  8
1
 10
662.29277702785203
 20
1113.092162162699
 30
0.0
 11
678.41147702785202
 21
1143.2264621626989
 31
0.0
  0
LINE
  5
7E8B
  8
1
 10
700.61987702785245
 20
1119.7843621626989
 30
0.0
 11
694.76697702785157
 21
1113.9313621626991
 31
0.0
  0
LINE
  5
7E8C
  8
1
 10
663.20197702785197
 20
1113.0526621626991
 30
0.0
 11
699.20197702785197
 21
1113.0526621626991
 31
0.0
  0
ARC
  5
7E8D
  8
1
 10
692.64557702785169
 20
1116.0526621626991
 30
0.0
 40
3.0
 50
270.0
 51
315.0
  0
ARC
  5
7E8E
  8
1
 10
699.20197702785197
 20
1111.0526621626991
 30
0.0
 40
2.0
 50
0.0
 51
90.0
  0
LINE
  5
7E8F
  8
1
 10
701.20197702785197
 20
1101.0526621626991
 30
0.0
 11
701.20197702785197
 21
1111.0526621626991
 31
0.0
  0
LINE
  5
7E90
  8
1
 10
687.20197702785197
 20
1101.0526621626991
 30
0.0
 11
687.20197702785197
 21
1113.0526621626991
 31
0.0
  0
LINE
  5
7E91
  8
1
 10
675.20197702785197
 20
1113.0526621626991
 30
0.0
 11
675.20197702785197
 21
1101.0526621626991
 31
0.0
  0
LINE
  5
7E92
  8
1
 10
681.20197702785208
 20
1114.4331621626991
 30
0.0
 11
681.20197702785208
 21
1097.0860621626989
 31
0.0
  0
LINE
  5
7E93
  8
1
 10
661.20197702785208
 20
1101.0526621626991
 30
0.0
 11
661.20197702785208
 21
1111.0526621626991
 31
0.0
  0
LINE
  5
7E95
  8
1
 10
1742.4617778292611
 20
1301.052662162698
 30
0.0
 11
1667.1220778292609
 21
1301.052662162698
 31
0.0
  0
LINE
  5
7E96
  8
1
 10
1668.689027973305
 20
1101.052662162698
 30
0.0
 11
1658.46177782926
 21
1101.052662162698
 31
0.0
  0
LINE
  5
7E97
  8
1
 10
1659.46177782926
 20
1301.8526621626979
 30
0.0
 11
1659.46177782926
 21
1151.052662162698
 31
0.0
  0
LINE
  5
7E98
  8
1
 10
1619.46177782926
 20
1105.052662162698
 30
0.0
 11
1619.46177782926
 21
1300.3526621626979
 31
0.0
  0
LINE
  5
7E99
  8
1
 10
1569.46177782926
 20
1117.4997621626981
 30
0.0
 11
1569.46177782926
 21
1284.6335621626979
 31
0.0
  0
LINE
  5
7E9A
  8
1
 10
1645.46177782926
 20
1142.052662162698
 30
0.0
 11
1659.46177782926
 21
1151.052662162698
 31
0.0
  0
LINE
  5
7E9B
  8
1
 10
1645.3622778292611
 20
1116.052662162698
 30
0.0
 11
1663.46177782926
 21
1116.052662162698
 31
0.0
  0
LINE
  5
7E9C
  8
1
 10
1619.46177782926
 20
1105.052662162698
 30
0.0
 11
1570.8750778292599
 21
1115.741762162698
 31
0.0
  0
ARC
  5
7E9D
  8
1
 10
1571.2615778292609
 20
1117.4995621626981
 30
0.0
 40
1.7998000000000001
 50
179.99610000000001
 51
257.59829999999988
  0
LINE
  5
7E9E
  8
1
 10
1645.46177782926
 20
1104.052662162698
 30
0.0
 11
1645.46177782926
 21
1142.052662162698
 31
0.0
  0
LINE
  5
7E9F
  8
1
 10
1645.46177782926
 20
1104.052662162698
 30
0.0
 11
1620.46177782926
 21
1104.052662162698
 31
0.0
  0
ARC
  5
7EA0
  8
1
 10
1620.4618778292599
 20
1105.052662162698
 30
0.0
 40
1.0000999999999991
 50
180.0
 51
269.99650000000003
  0
LINE
  5
7EA1
  8
1
 10
1660.4357778292599
 20
1113.0783621626981
 30
0.0
 11
1673.1808937344899
 21
1113.243888043588
 31
0.0
  0
ARC
  5
7EA2
  8
1
 10
1660.46177782926
 20
1111.0784621626981
 30
0.0
 40
2.0
 50
90.744900000000001
 51
179.99819999999991
  0
LINE
  5
7EA3
  8
1
 10
1658.46177782926
 20
1101.052662162698
 30
0.0
 11
1658.46177782926
 21
1111.0785621626981
 31
0.0
  0
LINE
  5
7EA4
  8
1
 10
1666.46177782926
 20
1112.937462162698
 30
0.0
 11
1666.46177782926
 21
1101.052662162698
 31
0.0
  0
LINE
  5
7EA5
  8
1
 10
1659.46177782926
 20
1301.8526621626979
 30
0.0
 11
1620.96177782926
 21
1301.8526621626979
 31
0.0
  0
LINE
  5
7EA6
  8
1
 10
1619.46177782926
 20
1298.052662162698
 30
0.0
 11
1570.841677829261
 21
1286.3838621626981
 31
0.0
  0
ARC
  5
7EA7
  8
1
 10
1571.26167782926
 20
1284.6336621626981
 30
0.0
 40
1.7999000000000001
 50
103.49339999999989
 51
180.00189999999989
  0
ARC
  5
7EA8
  8
1
 10
1620.96177782926
 20
1300.3526621626979
 30
0.0
 40
1.5
 50
90.0
 51
180.0
  0
LINE
  5
7EA9
  8
1
 10
1659.2934778292611
 20
1287.4933621626981
 30
0.0
 11
1667.1220778292609
 21
1301.052662162698
 31
0.0
  0
LINE
  5
7EAB
  8
1
 10
1817.8014778292611
 20
1301.052662162698
 30
0.0
 11
1826.4617778292611
 21
1286.052662162698
 31
0.0
  0
LINE
  5
7EAC
  8
1
 10
1742.4617778292611
 20
1301.052662162698
 30
0.0
 11
1817.8014778292611
 21
1301.052662162698
 31
0.0
  0
LINE
  5
7EAD
  8
1
 10
1668.689027973305
 20
1101.0526621626971
 30
0.0
 11
1619.93409839584
 21
1101.052662162698
 31
0.0
  0
LINE
  5
7EAE
  8
1
 10
1634.811177051826
 20
1009.105895518008
 30
0.0
 11
1619.93409839584
 21
1042.563897612117
 31
0.0
  0
POLYLINE
  5
7EAF
  8
1
 66
     1
 10
0.0
 20
0.0
 30
0.0
  0
VERTEX
  5
88EE
  8
1
 10
1619.93409839584
 20
1101.052662162698
 30
0.0
  0
VERTEX
  5
88EF
  8
1
 10
1619.93409839584
 20
1042.563897612114
 30
0.0
  0
SEQEND
  5
88F0
  8
1
  0
LINE
  5
7EB3
  8
1
 10
971.20197702784935
 20
1966.896337144434
 30
0.0
 11
971.20197702784844
 21
2265.8963371444338
 31
0.0
  0
LINE
  5
7EB4
  8
1
 10
551.20197702784935
 20
1966.896337144434
 30
0.0
 11
551.20197702784935
 21
2276.896337144432
 31
0.0
  0
LINE
  5
7EB5
  8
1
 10
1008.894265224489
 20
2246.8963371444338
 30
0.0
 11
978.20197702784844
 21
2246.8963371444338
 31
0.0
  0
CIRCLE
  5
7EB6
  8
1
 10
993.20197702784935
 20
2246.8963371444338
 30
0.0
 40
6.0
  0
LINE
  5
7EB7
  8
1
 10
993.20197702784935
 20
2263.0310450269808
 30
0.0
 11
993.20197702784935
 21
2227.3639655225402
 31
0.0
  0
LINE
  5
7EB8
  8
1
 10
513.50968883121004
 20
1996.896337144434
 30
0.0
 11
544.20197702785117
 21
1996.896337144434
 31
0.0
  0
CIRCLE
  5
7EB9
  8
1
 10
529.20197702784935
 20
1996.896337144434
 30
0.0
 40
6.0
  0
LINE
  5
7EBA
  8
1
 10
529.20197702785026
 20
2013.031045026981
 30
0.0
 11
529.20197702784935
 21
1977.36396552254
 31
0.0
  0
CIRCLE
  5
7EBB
  8
1
 10
529.20197702784935
 20
2246.8963371444338
 30
0.0
 40
6.0
  0
LINE
  5
7EBC
  8
1
 10
513.50968883121004
 20
2246.8963371444338
 30
0.0
 11
544.20197702785117
 21
2246.8963371444338
 31
0.0
  0
LINE
  5
7EBD
  8
1
 10
529.20197702785026
 20
2263.0310450269808
 30
0.0
 11
529.20197702784935
 21
2227.3639655225402
 31
0.0
  0
LINE
  5
7EBE
  8
1
 10
740.07461659452747
 20
2285.8963371444361
 30
0.0
 11
553.20197702784651
 21
2285.8963371444338
 31
0.0
  0
LINE
  5
7EBF
  8
1
 10
739.7019770279984
 20
2511.896337144432
 30
0.0
 11
553.20197702784753
 21
2511.8963371444338
 31
0.0
  0
POLYLINE
  5
7EC0
  8
1
 66
     1
 10
0.0
 20
0.0
 30
0.0
  0
VERTEX
  5
88F1
  8
1
 10
740.87167424802283
 20
2519.8963371444352
 30
0.0
  0
VERTEX
  5
88F2
  8
1
 10
579.70197702784753
 20
2519.8963371444338
 30
0.0
  0
SEQEND
  5
88F3
  8
1
  0
LINE
  5
7EC4
  8
2
 10
1117.6868517126179
 20
2398.8963371444338
 30
0.0
 11
515.11841807068959
 21
2398.8963371444338
 31
0.0
1001
ACAD
1000
ASC_BOUNDS
1002
{
1070
    19
1005
0
1005
0
1002
}
  0
ARC
  5
7EC5
  8
1
 10
553.20197702784753
 20
2496.8963371444338
 30
0.0
 40
15.0
 50
90.0
 51
180.0
  0
LINE
  5
7EC6
  8
1
 10
538.20197702784662
 20
2300.8963371444338
 30
0.0
 11
538.20197702784753
 21
2496.8963371444338
 31
0.0
  0
ARC
  5
7EC7
  8
1
 10
553.20197702784651
 20
2300.8963371444338
 30
0.0
 40
15.0
 50
180.0
 51
270.0
  0
LINE
  5
7EC8
  8
1
 10
578.70197702784662
 20
2285.8963371444352
 30
0.0
 11
578.70197702784662
 21
2278.8963371444338
 31
0.0
  0
ARC
  5
7EC9
  8
1
 10
579.70197702784662
 20
2278.8963371444338
 30
0.0
 40
1.0
 50
180.0
 51
270.0
  0
ARC
  5
7ECA
  8
1
 10
581.54739683985645
 20
2478.322483992536
 30
0.0
 40
48.656384192584412
 50
43.631651276837509
 51
56.499966334735127
  0
ARC
  5
7ECB
  8
1
 10
577.70197702784753
 20
2512.8963371444338
 30
0.0
 40
1.0
 50
270.0
 51
0.0
  0
ARC
  5
7ECC
  8
1
 10
580.70197702784753
 20
2517.8963371444338
 30
0.0
 40
1.0
 50
89.999999999999275
 51
180.0
  0
ARC
  5
7ECD
  8
1
 10
579.70197702784753
 20
2518.8963371444338
 30
0.0
 40
1.0
 50
89.999999999999915
 51
180.0
  0
LINE
  5
7ECE
  8
1
 10
579.70197702784571
 20
2511.8963371444361
 30
0.0
 11
579.70197702784753
 21
2517.8963371444361
 31
0.0
  0
LINE
  5
7ECF
  8
1
 10
578.70197702784753
 20
2512.8963371444338
 30
0.0
 11
578.70197702784753
 21
2518.8963371444361
 31
0.0
  0
LINE
  5
7ED0
  8
1
 10
580.70197702784753
 20
2518.8963371444361
 30
0.0
 11
608.40267868727994
 21
2518.8963371444352
 31
0.0
  0
LINE
  5
7ED1
  8
1
 10
677.64907702784694
 20
1961.6240165778529
 30
0.0
 11
844.78287702784655
 21
1961.6240165778529
 31
0.0
  0
LINE
  5
7ED2
  8
1
 10
1011.201977027849
 20
2265.8963371444352
 30
0.0
 11
1010.00197702785
 21
2265.8963371444352
 31
0.0
1001
ACAD
1000
ASC_BOUNDS
1002
{
1070
    19
1002
}
  0
LINE
  5
7ED3
  8
1
 10
861.20197702785015
 20
2134.6240165778531
 30
0.0
 11
861.20197702785015
 21
2059.284316577854
 31
0.0
  0
LINE
  5
7ED4
  8
2
 10
761.2019770278439
 20
1908.375047937576
 30
0.0
 11
761.20197702785015
 21
2637.6371558575252
 31
0.0
  0
LINE
  5
7ED5
  8
1
 10
862.00197702785044
 20
2051.6240165778531
 30
0.0
 11
660.40197702784997
 21
2051.6240165778531
 31
0.0
  0
LINE
  5
7ED6
  8
1
 10
665.20197702785015
 20
2011.6240165778529
 30
0.0
 11
860.50197702785044
 21
2011.6240165778529
 31
0.0
  0
LINE
  5
7ED7
  8
1
 10
677.64907702785047
 20
1961.6240165778529
 30
0.0
 11
844.78287702785008
 21
1961.6240165778529
 31
0.0
  0
LINE
  5
7ED8
  8
1
 10
862.00197702785044
 20
2051.6240165778531
 30
0.0
 11
862.00197702785044
 21
2013.1240165778529
 31
0.0
  0
LINE
  5
7ED9
  8
1
 10
858.20197702785026
 20
2011.6240165778529
 30
0.0
 11
846.5331770278508
 21
1963.003916577853
 31
0.0
  0
ARC
  5
7EDA
  8
1
 10
844.78297702785039
 20
1963.4239165778531
 30
0.0
 40
1.7999000000000001
 50
269.99810000000002
 51
346.50659999999999
  0
ARC
  5
7EDB
  8
1
 10
860.50197702785044
 20
2013.1240165778529
 30
0.0
 40
1.5
 50
270.0
 51
0.0
  0
LINE
  5
7EDC
  8
1
 10
847.64267702785037
 20
2051.4557165778542
 30
0.0
 11
861.20197702785015
 21
2059.284316577854
 31
0.0
  0
LINE
  5
7EDD
  8
1
 10
843.20197702785015
 20
2256.6240165778531
 30
0.0
 11
679.20197702785026
 21
2256.6240165778531
 31
0.0
  0
LINE
  5
7EDE
  8
1
 10
747.20197702785015
 20
2267.6240165778531
 30
0.0
 11
747.20197702785015
 21
2272.4515826568099
 31
0.0
  0
LINE
  5
7EDF
  8
1
 10
861.20197702785015
 20
2209.963716577854
 30
0.0
 11
846.20197702785015
 21
2218.6240165778531
 31
0.0
  0
LINE
  5
7EE0
  8
1
 10
861.20197702785015
 20
2134.6240165778531
 30
0.0
 11
861.20197702785015
 21
2209.963716577854
 31
0.0
  0
LINE
  5
7EE1
  8
1
 10
676.20197702785015
 20
2221.6240165778531
 30
0.0
 11
846.20197702785015
 21
2221.6240165778531
 31
0.0
  0
LINE
  5
7EE2
  8
1
 10
724.20197702785026
 20
2262.6240165778531
 30
0.0
 11
798.20197702785015
 21
2262.6240165778531
 31
0.0
  0
ARC
  5
7EE3
  8
1
 10
724.20197702785026
 20
2259.6240165778531
 30
0.0
 40
2.9998999999999989
 50
89.998799999999989
 51
180.0011999999999
  0
LINE
  5
7EE4
  8
1
 10
721.20197702785015
 20
2256.6240165778531
 30
0.0
 11
721.20197702785015
 21
2259.6240165778531
 31
0.0
  0
LINE
  5
7EE5
  8
1
 10
746.60207702784999
 20
2262.6240165778531
 30
0.0
 11
746.60207702784999
 21
2267.6240165778531
 31
0.0
  0
LINE
  5
7EE6
  8
1
 10
775.80197702785063
 20
2262.6240165778531
 30
0.0
 11
775.80197702785063
 21
2267.6240165778531
 31
0.0
  0
ARC
  5
7EE7
  8
1
 10
843.20207702785046
 20
2253.6240165778531
 30
0.0
 40
2.9998999999999989
 50
359.9987999999999
 51
90.001199999999912
  0
LINE
  5
7EE8
  8
1
 10
846.20197702785015
 20
2221.6240165778531
 30
0.0
 11
846.20197702785015
 21
2253.6240165778531
 31
0.0
  0
LINE
  5
7EE9
  8
1
 10
846.20197702785015
 20
2221.6240165778531
 30
0.0
 11
846.20197702785015
 21
2218.6240165778531
 31
0.0
  0
ARC
  5
7EEA
  8
1
 10
798.20207702785035
 20
2259.6240165778531
 30
0.0
 40
2.9998999999999989
 50
359.9987999999999
 51
90.001199999999912
  0
LINE
  5
7EEB
  8
1
 10
801.20197702785015
 20
2256.6240165778531
 30
0.0
 11
801.20197702785015
 21
2259.6240165778531
 31
0.0
  0
LINE
  5
7EEC
  8
1
 10
664.20197702785015
 20
2011.6240165778529
 30
0.0
 11
675.87077702785064
 21
1963.003916577853
 31
0.0
  0
LINE
  5
7EED
  8
1
 10
660.40197702784997
 20
2051.6240165778531
 30
0.0
 11
660.40197702784997
 21
2013.1240165778529
 31
0.0
  0
ARC
  5
7EEE
  8
1
 10
677.62097702785013
 20
1963.4239165778531
 30
0.0
 40
1.7999000000000001
 50
193.49339999999989
 51
270.00189999999992
  0
ARC
  5
7EEF
  8
1
 10
661.90197702785008
 20
2013.1240165778529
 30
0.0
 40
1.5
 50
180.0
 51
270.0
  0
LINE
  5
7EF0
  8
1
 10
674.76127702785016
 20
2051.4557165778542
 30
0.0
 11
661.20197702785015
 21
2059.284316577854
 31
0.0
  0
LINE
  5
7EF1
  8
1
 10
676.20197702785015
 20
2221.6240165778531
 30
0.0
 11
676.20197702785015
 21
2218.6240165778531
 31
0.0
  0
LINE
  5
7EF2
  8
1
 10
661.20197702785015
 20
2209.963716577854
 30
0.0
 11
676.20197702785015
 21
2218.6240165778531
 31
0.0
  0
LINE
  5
7EF3
  8
1
 10
676.20197702785015
 20
2221.6240165778531
 30
0.0
 11
676.20197702785015
 21
2253.6240165778531
 31
0.0
  0
ARC
  5
7EF4
  8
1
 10
679.20187702785006
 20
2253.6240165778531
 30
0.0
 40
2.9998999999999989
 50
89.998800000000045
 51
180.00120000000001
  0
LINE
  5
7EF5
  8
1
 10
661.20197702785015
 20
2209.9637165778531
 30
0.0
 11
661.20197702785015
 21
2059.284316577854
 31
0.0
  0
POLYLINE
  5
7EF6
  8
1
 66
     1
 10
0.0
 20
0.0
 30
0.0
  0
VERTEX
  5
88F4
  8
1
 10
740.87167424802283
 20
2277.8963371444329
 30
0.0
  0
VERTEX
  5
88F5
  8
1
 10
579.70197702784662
 20
2277.8963371444329
 30
0.0
  0
SEQEND
  5
88F6
  8
1
  0
LINE
  5
7EFA
  8
1
 10
557.70197702785117
 20
1966.8963371444329
 30
0.0
 11
557.70197702785026
 21
2276.8963371444329
 31
0.0
  0
LINE
  5
7EFB
  8
1
 10
964.70197702785015
 20
1966.8963371444429
 30
0.0
 11
964.70197702785106
 21
2265.8963371444338
 31
0.0
  0
POLYLINE
  5
7EFC
  8
1
 66
     1
 10
0.0
 20
0.0
 30
0.0
  0
VERTEX
  5
88F7
  8
1
 10
964.70197702785106
 20
2015.2963371444339
 30
0.0
  0
VERTEX
  5
88F8
  8
1
 10
862.00197702785044
 20
2015.296337144433
 30
0.0
  0
SEQEND
  5
88F9
  8
1
  0
POLYLINE
  5
7F00
  8
1
 66
     1
 10
0.0
 20
0.0
 30
0.0
  0
VERTEX
  5
88FA
  8
1
 10
660.40197702785099
 20
2015.296337144433
 30
0.0
  0
VERTEX
  5
88FB
  8
1
 10
557.70197702785117
 20
2015.2963371444321
 30
0.0
  0
SEQEND
  5
88FC
  8
1
  0
LINE
  5
7F04
  8
1
 10
964.70197702785015
 20
1966.8963371444429
 30
0.0
 11
847.46735604244338
 21
1966.8963371444399
 31
0.0
  0
LINE
  5
7F05
  8
1
 10
674.93659801325884
 20
1966.8963371444361
 30
0.0
 11
557.70197702785197
 21
1966.8963371444329
 31
0.0
  0
POLYLINE
  5
7F06
  8
1
 66
     1
 10
0.0
 20
0.0
 30
0.0
  0
VERTEX
  5
88FD
  8
1
 10
964.70197702785015
 20
2228.2963371444339
 30
0.0
  0
VERTEX
  5
88FE
  8
1
 10
846.20197702785015
 20
2228.296337144433
 30
0.0
  0
SEQEND
  5
88FF
  8
1
  0
POLYLINE
  5
7F0A
  8
1
 66
     1
 10
0.0
 20
0.0
 30
0.0
  0
VERTEX
  5
8900
  8
1
 10
676.20197702785015
 20
2228.296337144433
 30
0.0
  0
VERTEX
  5
8901
  8
1
 10
557.70197702785026
 20
2228.2963371444321
 30
0.0
  0
SEQEND
  5
8902
  8
1
  0
POLYLINE
  5
7F0E
  8
1
 66
     1
 10
0.0
 20
0.0
 30
0.0
  0
VERTEX
  5
8903
  8
1
 10
742.87167424802635
 20
2519.8963371444352
 30
0.0
  0
VERTEX
  5
8904
  8
1
 10
742.37167424787447
 20
2519.8963371444352
 30
0.0
  0
SEQEND
  5
8905
  8
1
  0
POLYLINE
  5
7F12
  8
1
 66
     1
 10
0.0
 20
0.0
 30
0.0
  0
VERTEX
  5
8906
  8
1
 10
742.97734301447588
 20
2277.8963371444329
 30
0.0
  0
VERTEX
  5
8907
  8
1
 10
740.87167424802283
 20
2277.8963371444329
 30
0.0
  0
SEQEND
  5
8908
  8
1
  0
LINE
  5
7F16
  8
1
 10
1074.034747884657
 20
2508.224029640151
 30
0.0
 11
766.36920617104352
 21
2289.5686446487148
 31
0.0
  0
LINE
  5
7F17
  8
1
 10
766.36920617104352
 20
2508.224029640151
 30
0.0
 11
1074.034747884657
 21
2289.5686446487148
 31
0.0
  0
LINE
  5
7F18
  8
1
 10
761.20197702785015
 20
2299.3444533809079
 30
0.0
 11
761.20197702785015
 21
2496.8963371444329
 31
0.0
  0
LINE
  5
7F1A
  8
4
 10
2220.0
 20
600.0
 30
0.0
 11
2220.0
 21
360.0
 31
0.0
  0
LINE
  5
7F1B
  8
4
 10
1380.0
 20
600.0
 30
0.0
 11
1380.0
 21
360.0
 31
0.0
  0
LINE
  5
7F1C
  8
4
 10
780.0
 20
600.0
 30
0.0
 11
780.0
 21
360.0
 31
0.0
  0
LINE
  5
7F1F
  8
4
 10
780.0
 20
360.0
 30
0.0
 11
2220.0
 21
360.0
 31
0.0
  0
LINE
  5
7F20
  8
4
 10
780.0
 20
480.0
 30
0.0
 11
2220.0
 21
480.0
 31
0.0
  0
TEXT
  5
7F21
  8
4
 10
826.20249701628188
 20
517.85163103993546
 30
0.0
 40
60.0
  1
機器名称
  0
TEXT
  5
7F22
  8
4
 10
823.509727229757
 20
385.97418807841308
 30
0.0
 40
60.0
  1
機器型番
  0
TEXT
  5
7F23
  8
4
 10
1413.2144945851969
 20
507.08612274908222
 30
0.0
 40
60.0
  1
ミツヤ多翼送風機
  0
TEXT
  5
7F24
  8
4
 10
1423.9853947025761
 20
380.59150113593199
 30
0.0
 40
60.0
  1
MF#2-7
  0
TEXT
  5
7F26
  8
4
 10
973.1750838961724
 20
2860.1146095990189
 30
0.0
 40
64.799999999999997
  1
天枠防振ベット
  0
TEXT
  5
7F27
  8
4
 10
379.40111199533561
 20
3040.6571714391571
 30
0.0
 40
86.400000000000006
  1
遠心式片吸込直動形多翼ファン
  0
LINE
  5
7F28
  8
4
 10
300.0
 20
2963.2905051177659
 30
0.0
 11
2220.0
 21
2963.2905051177659
 31
0.0
  0
LINE
  5
7F29
  8
4
 10
300.0
 20
3203.290505117765
 30
0.0
 11
2220.0
 21
3203.290505117765
 31
0.0
  0
LINE
  5
7F2A
  8
4
 10
780.0
 20
600.0
 30
0.0
 11
2220.0
 21
600.0
 31
0.0
  0
LINE
  5
7F2B
  8
4
 10
300.0
 20
3203.290505117765
 30
0.0
 11
300.0
 21
2963.2905051177659
 31
0.0
  0
TEXT
  5
7F2C
  8
4
 10
450.14448520492982
 20
2858.7833730556122
 30
0.0
 40
64.799999999999997
  1
左回転上向
  0
TEXT
  5
7F2D
  8
4
 10
1762.763471099147
 20
3247.2732977943701
 30
0.0
 40
67.200000000000003
  1
No.
  0
TEXT
  5
7F2E
  8
4
 10
1573.555275120015
 20
2860.1146095990189
 30
0.0
 40
64.799999999999997
  1
縮尺：1/12
  0
LINE
  5
7F2F
  8
4
 10
2220.0
 20
3203.290505117765
 30
0.0
 11
2220.0
 21
2963.2905051177659
 31
0.0
  0
LINE
  5
7F30
  8
4
 10
2520.0
 20
3540.0
 30
0.0
 11
2520.0
 21
3540.0
 31
0.0
  0
LINE
  5
7F31
  8
4
 10
1728.740906831837
 20
3217.5162997504808
 30
0.0
 11
1728.740906831837
 21
3343.9827138597029
 31
0.0
  0
LINE
  5
7F32
  8
4
 10
1728.740906831837
 20
3343.9827138597029
 30
0.0
 11
2220.0
 21
3343.9827138597029
 31
0.0
  0
LINE
  5
7F33
  8
4
 10
2220.0
 20
3343.9827138597029
 30
0.0
 11
2220.0
 21
3217.5162997504808
 31
0.0
  0
LINE
  5
7F34
  8
4
 10
2220.0
 20
3217.5162997504808
 30
0.0
 11
1728.740906831837
 21
3217.5162997504808
 31
0.0
  0
LINE
  5
7F35
  8
4
 10
0.0
 20
0.0
 30
0.0
 11
0.0
 21
3540.0
 31
0.0
  0
LINE
  5
7F36
  8
4
 10
0.0
 20
3540.0
 30
0.0
 11
2520.0
 21
3540.0
 31
0.0
  0
LINE
  5
7F37
  8
4
 10
2520.0
 20
3540.0
 30
0.0
 11
2520.0
 21
0.0
 31
0.0
  0
LINE
  5
7F38
  8
4
 10
2520.0
 20
0.0
 30
0.0
 11
0.0
 21
0.0
 31
0.0
  0
DIMENSION
  5
7F5F
  8
3
  2
*D1
 10
761.2019770278448
 20
1517.4849523254511
 30
0.0
 11
938.9605349283629
 21
1517.4849523254511
 31
0.0
 70
   128
 13
1076.201977027848
 23
1451.05266216271
 33
0.0
 14
761.2019770278448
 24
1451.0526621627009
 34
0.0
1001
ACAD
1000
DSTYLE
1002
{
1070
   287
1070
     3
1070
   287
1070
     3
1070
    40
1040
12.0
1070
   143
1040
0.039
1070
   172
1070
     1
1070
   271
1070
     0
1070
   279
1070
     0
1070
   288
1070
     1
1002
}
  0
DIMENSION
  5
7F6B
  8
3
  2
*D2
 10
539.20197702785572
 20
1517.4849523254511
 30
0.0
 11
650.20197702785015
 21
1547.4849523254511
 31
0.0
 70
     0
 13
761.2019770278448
 23
1451.0526621627009
 33
0.0
 14
539.20197702785572
 24
1180.0526621627009
 34
0.0
1001
ACAD
1000
DSTYLE
1002
{
1070
   287
1070
     4
1070
   287
1070
     4
1070
    40
1040
12.0
1070
    75
1070
     1
1070
   143
1040
0.039
1070
   172
1070
     1
1070
   271
1070
     0
1070
   279
1070
     1
1070
   288
1070
     1
1002
}
  0
DIMENSION
  5
7F82
  8
3
  2
*D3
 10
306.77334262312093
 20
1201.0526621626991
 30
0.0
 11
306.7733426231207
 21
1328.070679132891
 31
0.0
 70
   128
 13
740.20197702784844
 23
1451.0526621627
 33
0.0
 14
471.89995152418669
 24
1201.0526621626991
 34
0.0
 50
270.0
1001
ACAD
1000
DSTYLE
1002
{
1070
   287
1070
     3
1070
   287
1070
     3
1070
    40
1040
12.0
1070
   143
1040
0.039
1070
   172
1070
     1
1070
   271
1070
     0
1070
   279
1070
     0
1070
   288
1070
     1
1002
}
  0
DIMENSION
  5
7F99
  8
3
  2
*D4
 10
306.7733426231207
 20
846.05266216269945
 30
0.0
 11
276.77334262312058
 21
1023.552662162699
 31
0.0
 70
     0
 13
471.89995152418669
 23
1201.0526621626991
 33
0.0
 14
511.20197702783929
 24
846.05266216269945
 34
0.0
 50
270.0
1001
ACAD
1000
DSTYLE
1002
{
1070
   287
1070
     4
1070
   287
1070
     4
1070
    40
1040
12.0
1070
    75
1070
     1
1070
   143
1040
0.039
1070
   172
1070
     1
1070
   271
1070
     0
1070
   279
1070
     1
1070
   288
1070
     1
1002
}
  0
DIMENSION
  5
802D
  8
3
  2
*D6
 10
761.2019770278448
 20
658.73270104055155
 30
0.0
 11
894.98543884268099
 21
658.73270104055155
 31
0.0
 70
   128
 13
1161.2019770278521
 23
784.05266216269945
 33
0.0
 14
761.2019770278448
 24
744.27725714098142
 34
0.0
1001
ACAD
1000
DSTYLE
1002
{
1070
   287
1070
     3
1070
   287
1070
     3
1070
    40
1040
12.0
1070
   143
1040
0.039
1070
   172
1070
     1
1070
   271
1070
     0
1070
   279
1070
     0
1070
   288
1070
     1
1002
}
  0
DIMENSION
  5
8039
  8
3
  2
*D7
 10
361.20197702785208
 20
658.73270104055155
 30
0.0
 11
561.20197702784844
 21
688.73270104055155
 31
0.0
 70
     0
 13
761.2019770278448
 23
744.27725714098142
 33
0.0
 14
361.20197702785208
 24
784.05266216269945
 34
0.0
1001
ACAD
1000
DSTYLE
1002
{
1070
   287
1070
     4
1070
   287
1070
     4
1070
    40
1040
12.0
1070
    75
1070
     1
1070
   143
1040
0.039
1070
   172
1070
     1
1070
   271
1070
     0
1070
   279
1070
     1
1070
   288
1070
     1
1002
}
  0
DIMENSION
  5
8061
  8
3
  2
*D8
 10
2118.734098395842
 20
1541.5183560704049
 30
0.0
 11
2006.4014834983279
 21
1541.5183560704049
 31
0.0
 70
   128
 13
1894.734098395842
 23
1449.8526621627011
 33
0.0
 14
2118.734098395842
 24
1449.8526621627011
 34
0.0
1001
ACAD
1000
DSTYLE
1002
{
1070
   287
1070
     3
1070
   287
1070
     3
1070
    40
1040
12.0
1070
   143
1040
0.039
1070
   172
1070
     1
1070
   271
1070
     0
1070
   279
1070
     0
1070
   288
1070
     1
1002
}
  0
DIMENSION
  5
8070
  8
3
  2
*D9
 10
2006.7340983958411
 20
1762.531000559715
 30
0.0
 11
2067.252263940582
 21
1762.531000559715
 31
0.0
 70
   128
 13
2127.7704294853229
 23
1383.7223755835751
 33
0.0
 14
2006.7340983958411
 24
1587.903168301164
 34
0.0
1001
ACAD
1000
DSTYLE
1002
{
1070
   287
1070
     3
1070
   287
1070
     3
1070
    40
1040
12.0
1070
   143
1040
0.039
1070
   172
1070
     1
1070
   271
1070
     0
1070
   279
1070
     0
1070
   288
1070
     1
1002
}
  0
DIMENSION
  5
8089
  8
3
  2
*D10
 10
1569.46177782926
 20
1762.531000559715
 30
0.0
 11
1788.0979381125501
 21
1801.9595719882871
 31
0.0
 70
     0
  1
(420)
 13
2006.7340983958411
 23
1587.903168301164
 33
0.0
 14
1569.46177782926
 24
1284.6335621626979
 34
0.0
1001
ACAD
1000
DSTYLE
1002
{
1070
   287
1070
     4
1070
   287
1070
     4
1070
    40
1040
12.0
1070
    75
1070
     1
1070
   143
1040
0.039
1070
   172
1070
     1
1070
   271
1070
     0
1070
   279
1070
     1
1070
   288
1070
     1
1002
}
  0
DIMENSION
  5
80AE
  8
3
  2
*D11
 10
2006.7340983958411
 20
655.60981206652377
 30
0.0
 11
1762.661372959941
 21
655.82180157379935
 31
0.0
 70
   128
 13
1471.7340983958411
 23
784.05266216269979
 33
0.0
 14
2006.7340983958411
 24
835.68100979534836
 34
0.0
1001
ACAD
1000
DSTYLE
1002
{
1070
   288
1070
     1
1070
   172
1070
     1
1070
    40
1040
12.0
1070
   271
1070
     0
1070
   143
1040
0.039
1002
}
  0
DIMENSION
  5
80F4
  8
3
  2
*D12
 10
2370.9715372527899
 20
1043.552662162698
 30
0.0
 11
2370.9715372527899
 21
1198.4953814498081
 31
0.0
 70
   128
 13
2127.7340983958411
 23
1358.552662162698
 33
0.0
 14
2127.7340983958411
 24
1043.552662162698
 34
0.0
 50
90.0
1001
ACAD
1000
DSTYLE
1002
{
1070
   287
1070
     3
1070
   287
1070
     3
1070
     3
1000
φ<>
1070
    40
1040
12.0
1070
   143
1040
0.039
1070
   172
1070
     1
1070
   271
1070
     0
1070
   279
1070
     0
1070
   288
1070
     1
1002
}
  0
LINE
  5
81B4
  8
1
 10
963.90197702785281
 20
904.25266216269949
 30
0.0
 11
926.20197702785288
 21
904.25266216269949
 31
0.0
  0
LINE
  5
81B5
  8
1
 10
596.20197702785197
 20
904.25266216269949
 30
0.0
 11
558.50197702785306
 21
904.25266216269949
 31
0.0
  0
LINE
  5
8239
  8
1
 10
1081.2019770278521
 20
824.05266216269956
 30
0.0
 11
441.20197702785202
 21
824.05266216269956
 31
0.0
  0
LINE
  5
823C
  8
2
 10
456.25846718027958
 20
1201.0526621626991
 30
0.0
 11
1050.50400253151
 21
1201.0526621626991
 31
0.0
  0
LINE
  5
8240
  8
1
 10
1161.2019770278521
 20
784.05266216269945
 30
0.0
 11
1161.2019770278521
 21
1684.0526621627
 31
0.0
  0
LINE
  5
8241
  8
1
 10
361.20197702785208
 20
784.05266216269933
 30
0.0
 11
361.20197702785208
 21
1684.0526621626991
 31
0.0
  0
LINE
  5
8242
  8
1
 10
1161.2019770278521
 20
784.05266216269945
 30
0.0
 11
361.20197702785208
 21
784.05266216269945
 31
0.0
  0
LINE
  5
8243
  8
1
 10
401.20197702785202
 20
864.05266216269911
 30
0.0
 11
401.20197702785202
 21
1604.0526621626991
 31
0.0
  0
LINE
  5
8244
  8
1
 10
1121.2019770278521
 20
864.05266216269956
 30
0.0
 11
1121.2019770278521
 21
1604.0526621626991
 31
0.0
  0
LINE
  5
8245
  8
1
 10
1161.2019770278521
 20
1684.0526621626991
 30
0.0
 11
361.20197702785208
 21
1684.0526621626991
 31
0.0
  0
LINE
  5
8246
  8
1
 10
1081.2019770278509
 20
1644.0526621626991
 30
0.0
 11
441.20197702785163
 21
1644.0526621626991
 31
0.0
  0
LINE
  5
8247
  8
1
 10
1161.2019770278521
 20
864.05266216269956
 30
0.0
 11
1121.2019770278521
 21
864.05266216269956
 31
0.0
  0
LINE
  5
8248
  8
1
 10
1081.2019770278521
 20
784.05266216269945
 30
0.0
 11
1081.2019770278521
 21
824.05266216269956
 31
0.0
  0
LINE
  5
8249
  8
1
 10
1121.2019770278521
 20
864.05266216269956
 30
0.0
 11
1081.2019770278521
 21
824.05266216269956
 31
0.0
  0
LINE
  5
824A
  8
1
 10
1081.2019770278521
 20
1684.0526621626991
 30
0.0
 11
1081.2019770278521
 21
1644.0526621626991
 31
0.0
  0
LINE
  5
824B
  8
1
 10
1121.2019770278521
 20
1604.0526621626991
 30
0.0
 11
1081.2019770278521
 21
1644.0526621626991
 31
0.0
  0
LINE
  5
824C
  8
1
 10
1161.2019770278521
 20
1604.0526621626991
 30
0.0
 11
1121.2019770278521
 21
1604.0526621626991
 31
0.0
  0
LINE
  5
824D
  8
1
 10
401.20197702785202
 20
864.05266216269956
 30
0.0
 11
441.20197702785202
 21
824.05266216269956
 31
0.0
  0
LINE
  5
824E
  8
1
 10
441.20197702785202
 20
784.05266216269945
 30
0.0
 11
441.20197702785163
 21
824.05266216269956
 31
0.0
  0
LINE
  5
824F
  8
1
 10
361.20197702785208
 20
864.05266216269956
 30
0.0
 11
401.20197702785202
 21
864.05266216269956
 31
0.0
  0
LINE
  5
8250
  8
1
 10
441.20197702785202
 20
1684.0526621626991
 30
0.0
 11
441.20197702785163
 21
1644.0526621626991
 31
0.0
  0
LINE
  5
8251
  8
1
 10
401.20197702785202
 20
1604.0526621626991
 30
0.0
 11
441.20197702785202
 21
1644.0526621626991
 31
0.0
  0
LINE
  5
8252
  8
1
 10
361.20197702785208
 20
1604.0526621626991
 30
0.0
 11
401.20197702785202
 21
1604.0526621626991
 31
0.0
  0
LINE
  5
8253
  8
1
 10
2271.734098395842
 20
1684.0526621626991
 30
0.0
 11
2271.7340983958402
 21
784.05266216269933
 31
0.0
1001
ACAD
1000
ASC_BOUNDS
1002
{
1070
    19
1002
}
  0
LINE
  5
8254
  8
1
 10
1471.7340983958411
 20
1684.0526621626991
 30
0.0
 11
1471.7340983958411
 21
784.05266216269945
 31
0.0
1001
ACAD
1000
ASC_BOUNDS
1002
{
1070
    19
1002
}
  0
LINE
  5
8255
  8
1
 10
1511.7340983958411
 20
1604.052662162698
 30
0.0
 11
1511.7340983958411
 21
864.05266216270013
 31
0.0
1001
ACAD
1000
ASC_BOUNDS
1002
{
1070
    19
1002
}
  0
LINE
  5
8256
  8
1
 10
2231.734098395842
 20
1604.052662162698
 30
0.0
 11
2231.7340983958402
 21
864.05266216269956
 31
0.0
1001
ACAD
1000
ASC_BOUNDS
1002
{
1070
    19
1002
}
  0
LINE
  5
8257
  8
1
 10
2271.734098395842
 20
1684.0526621626991
 30
0.0
 11
1471.7340983958411
 21
1684.0526621627
 31
0.0
  0
LINE
  5
8258
  8
1
 10
2191.7340983958402
 20
1644.0526621626991
 30
0.0
 11
1551.734098395842
 21
1644.0526621626991
 31
0.0
  0
LINE
  5
8259
  8
1
 10
2271.7340983958411
 20
784.05266216269945
 30
0.0
 11
1471.7340983958411
 21
784.05266216269979
 31
0.0
  0
LINE
  5
825A
  8
1
 10
2191.7340983958402
 20
824.05266216269945
 30
0.0
 11
1551.734098395842
 21
824.05266216269956
 31
0.0
  0
LINE
  5
825B
  8
1
 10
2271.7340983958411
 20
864.05266216269956
 30
0.0
 11
2231.7340983958402
 21
864.05266216269979
 31
0.0
  0
LINE
  5
825C
  8
1
 10
2191.7340983958402
 20
824.05266216269956
 30
0.0
 11
2191.7340983958402
 21
784.05266216269945
 31
0.0
1001
ACAD
1000
ASC_BOUNDS
1002
{
1070
    19
1002
}
  0
LINE
  5
825D
  8
1
 10
2231.7340983958402
 20
864.05266216269956
 30
0.0
 11
2191.7340983958402
 21
824.05266216269956
 31
0.0
  0
LINE
  5
825E
  8
1
 10
2271.7340983958411
 20
1604.0526621626991
 30
0.0
 11
2231.7340983958402
 21
1604.0526621626991
 31
0.0
  0
LINE
  5
825F
  8
1
 10
2191.7340983958402
 20
1644.0526621626991
 30
0.0
 11
2191.7340983958402
 21
1684.0526621626991
 31
0.0
1001
ACAD
1000
ASC_BOUNDS
1002
{
1070
    19
1002
}
  0
LINE
  5
8260
  8
1
 10
2231.7340983958402
 20
1604.0526621626991
 30
0.0
 11
2191.7340983958402
 21
1644.0526621626991
 31
0.0
  0
LINE
  5
8261
  8
1
 10
1471.734098395842
 20
864.05266216269956
 30
0.0
 11
1511.734098395842
 21
864.05266216269979
 31
0.0
  0
LINE
  5
8262
  8
1
 10
1551.734098395842
 20
824.05266216269956
 30
0.0
 11
1551.734098395842
 21
784.05266216269945
 31
0.0
1001
ACAD
1000
ASC_BOUNDS
1002
{
1070
    19
1002
}
  0
LINE
  5
8263
  8
1
 10
1511.734098395842
 20
864.05266216269956
 30
0.0
 11
1551.734098395842
 21
824.05266216269956
 31
0.0
  0
LINE
  5
8264
  8
1
 10
1551.734098395842
 20
1644.0526621626991
 30
0.0
 11
1551.734098395842
 21
1684.0526621626991
 31
0.0
1001
ACAD
1000
ASC_BOUNDS
1002
{
1070
    19
1002
}
  0
LINE
  5
8265
  8
1
 10
1471.734098395842
 20
1604.0526621626991
 30
0.0
 11
1511.734098395842
 21
1604.0526621626991
 31
0.0
  0
LINE
  5
8266
  8
1
 10
1511.734098395842
 20
1604.0526621626991
 30
0.0
 11
1551.734098395842
 21
1644.0526621626991
 31
0.0
  0
LINE
  5
8267
  8
1
 10
1161.20197702785
 20
1863.896337144434
 30
0.0
 11
1161.20197702785
 21
2663.8963371444338
 31
0.0
  0
LINE
  5
8268
  8
1
 10
361.20197702785021
 20
1863.896337144434
 30
0.0
 11
361.20197702785021
 21
2663.8963371444338
 31
0.0
  0
LINE
  5
8269
  8
1
 10
361.20197702785021
 20
1863.896337144434
 30
0.0
 11
1161.20197702785
 21
1863.896337144434
 31
0.0
1001
ACAD
1000
ASC_BOUNDS
1002
{
1070
    19
1002
}
  0
LINE
  5
826A
  8
1
 10
361.20197702785021
 20
2663.8963371444338
 30
0.0
 11
1161.20197702785
 21
2663.8963371444338
 31
0.0
1001
ACAD
1000
ASC_BOUNDS
1002
{
1070
    19
1002
}
  0
LINE
  5
826B
  8
1
 10
401.20197702785009
 20
1903.896337144434
 30
0.0
 11
401.20197702785021
 21
2623.8963371444338
 31
0.0
  0
LINE
  5
826C
  8
1
 10
401.20197702785021
 20
2623.8963371444338
 30
0.0
 11
1121.20197702785
 21
2623.8963371444338
 31
0.0
1001
ACAD
1000
ASC_BOUNDS
1002
{
1070
    19
1002
}
  0
LINE
  5
826D
  8
1
 10
1121.20197702785
 20
1903.896337144434
 30
0.0
 11
1121.20197702785
 21
2623.8963371444338
 31
0.0
  0
LINE
  5
826E
  8
1
 10
401.20197702785021
 20
1903.896337144434
 30
0.0
 11
1121.20197702785
 21
1903.896337144434
 31
0.0
1001
ACAD
1000
ASC_BOUNDS
1002
{
1070
    19
1002
}
  0
DIMENSION
  5
82BD
  8
3
  2
*D13
 10
306.7733426231207
 20
824.05266216269956
 30
0.0
 11
249.34477119454911
 21
835.05266216269945
 31
0.0
 12
0.0
 22
-223.43195413558891
 32
0.0
 70
     0
  1
(<>)
 13
511.20197702783929
 23
846.05266216269945
 33
0.0
 14
441.20197702785163
 24
824.05266216269956
 34
0.0
 50
90.0
1001
ACAD
1000
DSTYLE
1002
{
1070
   288
1070
     1
1070
   172
1070
     1
1070
    75
1070
     1
1070
    40
1040
12.0
1070
   271
1070
     0
1070
     7
1000
_DOT
1070
   143
1040
0.039
1002
}
  0
DIMENSION
  5
82CD
  8
3
  2
*D14
 10
306.7733426231207
 20
784.05266216269945
 30
0.0
 11
276.77334262312058
 21
694.90980501984257
 31
0.0
 70
     0
 13
441.20197702785163
 23
824.05266216269956
 33
0.0
 14
361.20197702785208
 24
784.05266216269945
 34
0.0
 50
90.0
1001
ACAD
1000
DSTYLE
1002
{
1070
   287
1070
     3
1070
   287
1070
     3
1070
    40
1040
12.0
1070
   143
1040
0.039
1070
   172
1070
     1
1070
   271
1070
     0
1070
   279
1070
     0
1070
   288
1070
     1
1070
     6
1000
DOT
1002
}
  0
DIMENSION
  5
8339
  8
3
  2
*D15
 10
2271.7340983958402
 20
655.60981206652377
 30
0.0
 11
2139.2340983958402
 21
685.60981206652377
 31
0.0
 70
     0
 13
2006.7340983958411
 23
835.68100979534836
 33
0.0
 14
2271.7340983958402
 24
784.05266216269945
 34
0.0
1001
ACAD
1000
DSTYLE
1002
{
1070
   287
1070
     4
1070
   287
1070
     4
1070
    40
1040
12.0
1070
    75
1070
     1
1070
   143
1040
0.039
1070
   172
1070
     1
1070
   271
1070
     0
1070
   279
1070
     1
1070
   288
1070
     1
1002
}
  0
DIMENSION
  5
8362
  8
3
  2
*D16
 10
1161.20197702785
 20
2733.5502986037668
 30
0.0
 11
758.19964253033504
 21
2733.5502986037668
 31
0.0
 70
   128
 13
361.20197702785021
 23
2663.8963371444338
 33
0.0
 14
1161.20197702785
 24
2663.8963371444338
 34
0.0
1001
ACAD
1000
DSTYLE
1002
{
1070
   287
1070
     3
1070
   287
1070
     3
1070
    40
1040
12.0
1070
   143
1040
0.039
1070
   172
1070
     1
1070
   271
1070
     0
1070
   279
1070
     0
1070
   288
1070
     1
1002
}
  0
DIMENSION
  5
836F
  8
3
  2
*D17
 10
1317.2408625595251
 20
1863.896337144434
 30
0.0
 11
1317.2408625595251
 21
2244.7929035684028
 31
0.0
 70
   128
 13
1161.20197702785
 23
2663.8963371444338
 33
0.0
 14
1161.20197702785
 24
1863.896337144434
 34
0.0
 50
90.0
1001
ACAD
1000
DSTYLE
1002
{
1070
   287
1070
     3
1070
   287
1070
     3
1070
    40
1040
12.0
1070
   143
1040
0.039
1070
   172
1070
     1
1070
   271
1070
     0
1070
   279
1070
     0
1070
   288
1070
     1
1002
}
  0
DIMENSION
  5
8380
  8
3
  2
*D18
 10
1358.6400238489859
 20
784.05266216269979
 30
0.0
 11
1358.6400238489859
 21
1176.768666004544
 31
0.0
 70
   128
 13
1471.7340983958411
 23
1684.0526621627
 33
0.0
 14
1471.7340983958411
 24
784.05266216269979
 34
0.0
 50
90.0
1001
ACAD
1000
DSTYLE
1002
{
1070
   287
1070
     3
1070
   287
1070
     3
1070
    40
1040
12.0
1070
   143
1040
0.039
1070
   172
1070
     1
1070
   271
1070
     0
1070
   279
1070
     0
1070
   288
1070
     1
1002
}
  0
ENDSEC
  0
EOF
