  0
SECTION
  2
HEADER
  9
$ACADVER
  1
AC1009
  9
$INSBASE
 10
0.0
 20
0.0
 30
0.0
  9
$EXTMIN
 10
0.0
 20
0.0
 30
0.0
  9
$EXTMAX
 10
2520.0
 20
3540.0
 30
0.0
  9
$LIMMIN
 10
0.0
 20
0.0
  9
$LIMMAX
 10
297.0
 20
210.0
  9
$ORTHOMODE
 70
     1
  9
$REGENMODE
 70
     1
  9
$FILLMODE
 70
     0
  9
$QTEXTMODE
 70
     0
  9
$MIRRTEXT
 70
     1
  9
$DRAGMODE
 70
     2
  9
$LTSCALE
 40
100.0
  9
$OSMODE
 70
   545
  9
$ATTMODE
 70
     1
  9
$TEXTSIZE
 40
180.0
  9
$TRACEWID
 40
0.05
  9
$TEXTSTYLE
  7
STANDARD
  9
$CLAYER
  8
3
  9
$CELTYPE
  6
BYLAYER
  9
$CECOLOR
 62
   256
  9
$DIMSCALE
 40
12.0
  9
$DIMASZ
 40
2.0
  9
$DIMEXO
 40
0.5
  9
$DIMDLI
 40
10.0
  9
$DIMRND
 40
0.0
  9
$DIMDLE
 40
0.0
  9
$DIMEXE
 40
1.0
  9
$DIMTP
 40
1.0
  9
$DIMTM
 40
1.0
  9
$DIMTXT
 40
3.0
  9
$DIMCEN
 40
0.0
  9
$DIMTSZ
 40
0.0
  9
$DIMTOL
 70
     0
  9
$DIMLIM
 70
     0
  9
$DIMTIH
 70
     0
  9
$DIMTOH
 70
     0
  9
$DIMSE1
 70
     0
  9
$DIMSE2
 70
     0
  9
$DIMTAD
 70
     1
  9
$DIMZIN
 70
     8
  9
$DIMBLK
  1

  9
$DIMASO
 70
     1
  9
$DIMSHO
 70
     1
  9
$DIMPOST
  1

  9
$DIMAPOST
  1

  9
$DIMALT
 70
     0
  9
$DIMALTD
 70
     2
  9
$DIMALTF
 40
0.039
  9
$DIMLFAC
 40
1.0
  9
$DIMTOFL
 70
     1
  9
$DIMTVP
 40
0.0
  9
$DIMTIX
 70
     0
  9
$DIMSOXD
 70
     0
  9
$DIMSAH
 70
     1
  9
$DIMBLK1
  1
OPEN
  9
$DIMBLK2
  1
OPEN
  9
$DIMSTYLE
  2
IGA
  9
$DIMCLRD
 70
     0
  9
$DIMCLRE
 70
     0
  9
$DIMCLRT
 70
     0
  9
$DIMTFAC
 40
10.0
  9
$DIMGAP
 40
1.0
  9
$LUNITS
 70
     2
  9
$LUPREC
 70
     3
  9
$SKETCHINC
 40
0.1
  9
$FILLETRAD
 40
50.0
  9
$AUNITS
 70
     0
  9
$AUPREC
 70
     0
  9
$MENU
  1
acad
  9
$ELEVATION
 40
0.0
  9
$PELEVATION
 40
0.0
  9
$THICKNESS
 40
0.0
  9
$LIMCHECK
 70
     0
  9
$BLIPMODE
 70
     0
  9
$CHAMFERA
 40
0.5
  9
$CHAMFERB
 40
0.5
  9
$SKPOLY
 70
     0
  9
$TDCREATE
 40
2452824.5915310178
  9
$TDUPDATE
 40
2454953.8263120251
  9
$TDINDWG
 40
0.0380221991
  9
$TDUSRTIMER
 40
0.0380221991
  9
$USRTIMER
 70
     1
  9
$ANGBASE
 50
0.0
  9
$ANGDIR
 70
     0
  9
$PDMODE
 70
     0
  9
$PDSIZE
 40
0.0
  9
$PLINEWID
 40
0.0
  9
$COORDS
 70
     2
  9
$SPLFRAME
 70
     0
  9
$SPLINETYPE
 70
     6
  9
$SPLINESEGS
 70
     8
  9
$ATTDIA
 70
     0
  9
$ATTREQ
 70
     1
  9
$HANDLING
 70
 22529
  9
$HANDSEED
  5
89E0
  9
$SURFTAB1
 70
     6
  9
$SURFTAB2
 70
     6
  9
$SURFTYPE
 70
     6
  9
$SURFU
 70
     6
  9
$SURFV
 70
     6
  9
$UCSNAME
  2

  9
$UCSORG
 10
0.0
 20
0.0
 30
0.0
  9
$UCSXDIR
 10
1.0
 20
0.0
 30
0.0
  9
$UCSYDIR
 10
0.0
 20
1.0
 30
0.0
  9
$PUCSNAME
  2

  9
$PUCSORG
 10
0.0
 20
0.0
 30
0.0
  9
$PUCSXDIR
 10
1.0
 20
0.0
 30
0.0
  9
$PUCSYDIR
 10
0.0
 20
1.0
 30
0.0
  9
$USERI1
 70
     0
  9
$USERI2
 70
     0
  9
$USERI3
 70
     0
  9
$USERI4
 70
     0
  9
$USERI5
 70
     0
  9
$USERR1
 40
0.0
  9
$USERR2
 40
0.0
  9
$USERR3
 40
0.0
  9
$USERR4
 40
0.0
  9
$USERR5
 40
0.0
  9
$WORLDVIEW
 70
     1
  9
$SHADEDGE
 70
     3
  9
$SHADEDIF
 70
    70
  9
$TILEMODE
 70
     1
  9
$MAXACTVP
 70
    16
  9
$PLIMCHECK
 70
     0
  9
$PEXTMIN
 10
1.0000000000000000E+020
 20
1.0000000000000000E+020
 30
1.0000000000000000E+020
  9
$PEXTMAX
 10
-1.0000000000000000E+020
 20
-1.0000000000000000E+020
 30
-1.0000000000000000E+020
  9
$PLIMMIN
 10
0.0
 20
0.0
  9
$PLIMMAX
 10
12.0
 20
9.0
  9
$UNITMODE
 70
     0
  9
$VISRETAIN
 70
     0
  9
$PLINEGEN
 70
     0
  9
$PSLTSCALE
 70
     1
  0
ENDSEC
  0
SECTION
  2
TABLES
  0
TABLE
  2
VPORT
 70
     2
  0
VPORT
  2
*ACTIVE
 70
     0
 10
0.0
 20
0.0
 11
1.0
 21
1.0
 12
1458.310964251923
 22
1926.3094141955389
 13
0.0
 23
0.0
 14
10.0
 24
10.0
 15
10.0
 25
10.0
 16
0.0
 26
0.0
 36
1.0
 17
0.0
 27
0.0
 37
0.0
 40
3882.2957590045962
 41
1.6307901907356941
 42
50.0
 43
0.0
 44
0.0
 50
0.0
 51
0.0
 71
     0
 72
   100
 73
     1
 74
     0
 75
     0
 76
     0
 77
     0
 78
     0
  0
ENDTAB
  0
TABLE
  2
LTYPE
 70
     2
  0
LTYPE
  2
CONTINUOUS
 70
     0
  3
Solid line
 72
    65
 73
     0
 40
0.0
  0
LTYPE
  2
CENTER
 70
     0
  3
____ _ ____ _ ____ _ ____ _ ____ _ ____ _ ____ 
 72
    65
 73
     4
 40
2.0
 49
1.25
 49
-0.25
 49
0.25
 49
-0.25
  0
ENDTAB
  0
TABLE
  2
LAYER
 70
     6
  0
LAYER
  2
0
 70
     0
 62
     7
  6
CONTINUOUS
  0
LAYER
  2
3
 70
     0
 62
     2
  6
CONTINUOUS
  0
LAYER
  2
2
 70
     0
 62
     3
  6
CENTER
  0
LAYER
  2
1
 70
     0
 62
     4
  6
CONTINUOUS
  0
LAYER
  2
4
 70
     0
 62
     7
  6
CONTINUOUS
  0
LAYER
  2
DEFPOINTS
 70
     0
 62
     7
  6
CONTINUOUS
  0
ENDTAB
  0
TABLE
  2
STYLE
 70
     1
  0
STYLE
  2
STANDARD
 70
     0
 40
0.0
 41
1.0
 50
0.0
 71
     0
 42
180.0
  3
simplex.shx
  4
extfont.shx
  0
ENDTAB
  0
TABLE
  2
VIEW
 70
     0
  0
ENDTAB
  0
TABLE
  2
UCS
 70
     0
  0
ENDTAB
  0
TABLE
  2
APPID
 70
     1
  0
APPID
  2
ACAD
 70
     0
  0
ENDTAB
  0
TABLE
  2
DIMSTYLE
 70
     1
  0
DIMSTYLE
  2
IGA
 70
     0
  3

  4

  5

  6
OPEN
  7
OPEN
 40
2.0
 41
2.0
 42
0.5
 43
10.0
 44
1.0
 45
0.0
 46
0.0
 47
1.0
 48
1.0
140
3.0
141
0.0
142
0.0
143
0.03937
144
1.0
145
0.0
146
10.0
147
1.0
 71
     0
 72
     0
 73
     0
 74
     0
 75
     0
 76
     0
 77
     1
 78
     8
170
     0
171
     2
172
     0
173
     1
174
     0
175
     0
176
     0
177
     0
178
     0
  0
ENDTAB
  0
ENDSEC
  0
SECTION
  2
BLOCKS
  0
BLOCK
  8
0
  2
$MODEL_SPACE
 70
     0
 10
0.0
 20
0.0
 30
0.0
  3
$MODEL_SPACE
  1

  0
ENDBLK
  5
1B
  8
0
  0
BLOCK
 67
     1
  8
0
  2
$PAPER_SPACE
 70
     0
 10
0.0
 20
0.0
 30
0.0
  3
$PAPER_SPACE
  1

  0
ENDBLK
  5
18
 67
     1
  8
0
  0
BLOCK
  8
0
  2
_OPEN
 70
     0
 10
0.0
 20
0.0
 30
0.0
  3
_OPEN
  1

  0
LINE
  5
79FD
  8
0
  6
BYBLOCK
 62
     0
 10
-1.0
 20
0.1666666666666666
 30
0.0
 11
0.0
 21
0.0
 31
0.0
  0
LINE
  5
79FE
  8
0
  6
BYBLOCK
 62
     0
 10
0.0
 20
0.0
 30
0.0
 11
-1.0
 21
-0.1666666666666666
 31
0.0
  0
LINE
  5
79FF
  8
0
  6
BYBLOCK
 62
     0
 10
0.0
 20
0.0
 30
0.0
 11
-1.0
 21
0.0
 31
0.0
  0
ENDBLK
  5
7A01
  8
0
  0
BLOCK
  8
0
  2
*D1
 70
     1
 10
0.0
 20
0.0
 30
0.0
  3
*D1
  1

  0
LINE
  5
892C
  8
3
 62
     0
 10
558.17508315170107
 20
1505.376993178957
 30
0.0
 11
347.83597786651097
 21
1505.376993178957
 31
0.0
  0
LINE
  5
892D
  8
3
 62
     0
 10
558.17508315171062
 20
1190.3769931789529
 30
0.0
 11
347.83597786651097
 21
1190.3769931789541
 31
0.0
  0
LINE
  5
892E
  8
3
 62
     0
 10
359.83597786651097
 20
1481.376993178957
 30
0.0
 11
359.83597786651097
 21
1214.3769931789541
 31
0.0
  0
INSERT
  5
892F
  8
3
 62
     0
  2
_OPEN
 10
359.83597786651097
 20
1505.376993178957
 30
0.0
 41
24.0
 42
24.0
 43
24.0
 50
90.0
  0
INSERT
  5
8930
  8
3
 62
     0
  2
_OPEN
 10
359.83597786651097
 20
1190.3769931789541
 30
0.0
 41
24.0
 42
24.0
 43
24.0
 50
270.0
  0
TEXT
  8
3
  40
36
  5
89D1
  62
0
  72
0
  71
0
 10
257.836
 20
1304.42
 30
0.000000
  1
315
  0
POINT
  5
8932
  8
DEFPOINTS
 62
     0
 10
564.17508315170096
 20
1505.376993178957
 30
0.0
  0
POINT
  5
8933
  8
DEFPOINTS
 62
     0
 10
564.17508315171062
 20
1190.3769931789529
 30
0.0
  0
POINT
  5
8934
  8
DEFPOINTS
 62
     0
 10
359.83597786651097
 20
1190.3769931789541
 30
0.0
  0
ENDBLK
  5
84C5
  8
0
  0
BLOCK
  8
0
  2
*D2
 70
     1
 10
0.0
 20
0.0
 30
0.0
  3
*D2
  1

  0
LINE
  5
8935
  8
3
 62
     0
 10
518.87305764804648
 20
1190.3769931789609
 30
0.0
 11
344.9645396684719
 21
1190.3769931789609
 31
0.0
  0
LINE
  5
8936
  8
3
 62
     0
 10
558.17508315169925
 20
835.37699317896102
 30
0.0
 11
344.96453966847179
 21
835.37699317896102
 31
0.0
  0
LINE
  5
8937
  8
3
 62
     0
 10
356.9645396684719
 20
1166.3769931789609
 30
0.0
 11
356.96453966847179
 21
859.37699317896102
 31
0.0
  0
INSERT
  5
8938
  8
3
 62
     0
  2
_OPEN
 10
356.9645396684719
 20
1190.3769931789609
 30
0.0
 41
24.0
 42
24.0
 43
24.0
 50
90.0
  0
INSERT
  5
8939
  8
3
 62
     0
  2
_OPEN
 10
356.96453966847179
 20
835.37699317896102
 30
0.0
 41
24.0
 42
24.0
 43
24.0
 50
270.0
  0
TEXT
  8
3
  40
36
  5
89D2
  62
0
  72
0
  71
0
 10
254.965
 20
949.157
 30
0.000000
  1
355
  0
POINT
  5
893B
  8
DEFPOINTS
 62
     0
 10
524.8730576480466
 20
1190.3769931789609
 30
0.0
  0
POINT
  5
893C
  8
DEFPOINTS
 62
     0
 10
564.17508315169925
 20
835.37699317896102
 30
0.0
  0
POINT
  5
893D
  8
DEFPOINTS
 62
     0
 10
356.96453966847179
 20
835.37699317896102
 30
0.0
  0
ENDBLK
  5
84BA
  8
0
  0
BLOCK
  8
0
  2
_DOT
 70
     0
 10
0.0
 20
0.0
 30
0.0
  3
_DOT
  1

  0
LINE
  5
811D
  8
0
  6
BYBLOCK
 62
     0
 10
0.0
 20
0.0
 30
0.0
 11
-1.0
 21
-0.0000000000000284
 31
0.0
  0
POLYLINE
  5
811E
  8
0
  6
BYBLOCK
 62
     0
 66
     1
 10
0.0
 20
0.0
 30
0.0
 70
     1
 40
0.1666666666666666
 41
0.1666666666666666
  0
VERTEX
  5
8961
  8
0
  6
BYBLOCK
 62
     0
 10
-0.0833333333333286
 20
-0.0000000000000284
 30
0.0
 42
1.0
  0
VERTEX
  5
8962
  8
0
  6
BYBLOCK
 62
     0
 10
0.0833333333333286
 20
-0.0000000000000284
 30
0.0
 42
1.0
  0
SEQEND
  5
8963
  8
0
  6
BYBLOCK
 62
     0
  0
ENDBLK
  5
8007
  8
0
  0
BLOCK
  8
0
  2
*D4
 70
     1
 10
0.0
 20
0.0
 30
0.0
  3
*D4
  1

  0
LINE
  5
893E
  8
3
 62
     0
 10
1894.734098395842
 20
1505.057316647574
 30
0.0
 11
1894.734098395842
 21
1563.8737085527
 31
0.0
  0
LINE
  5
893F
  8
3
 62
     0
 10
2118.734098395842
 20
1499.8579525356299
 30
0.0
 11
2118.734098395842
 21
1563.8737085527
 31
0.0
  0
LINE
  5
8940
  8
3
 62
     0
 10
1918.734098395842
 20
1551.8737085527
 30
0.0
 11
2094.734098395842
 21
1551.8737085527
 31
0.0
  0
INSERT
  5
8941
  8
3
 62
     0
  2
_OPEN
 10
1894.734098395842
 20
1551.8737085527
 30
0.0
 41
24.0
 42
24.0
 43
24.0
 50
180.0
  0
INSERT
  5
8942
  8
3
 62
     0
  2
_OPEN
 10
2118.734098395842
 20
1551.8737085527
 30
0.0
 41
24.0
 42
24.0
 43
24.0
  0
TEXT
  8
3
  40
36
  5
89D3
  62
0
  72
0
  71
0
 10
1934.40
 20
1518.15
 30
0.000000
  1
224
  0
POINT
  5
8944
  8
DEFPOINTS
 62
     0
 10
1894.734098395842
 20
1499.057316647574
 30
0.0
  0
POINT
  5
8945
  8
DEFPOINTS
 62
     0
 10
2118.734098395842
 20
1493.8579525356299
 30
0.0
  0
POINT
  5
8946
  8
DEFPOINTS
 62
     0
 10
2118.734098395842
 20
1551.8737085527
 30
0.0
  0
ENDBLK
  5
8428
  8
0
  0
BLOCK
  8
0
  2
*D5
 70
     1
 10
0.0
 20
0.0
 30
0.0
  3
*D5
  1

  0
LINE
  5
8947
  8
3
 62
     0
 10
2127.7704294853229
 20
1379.0467065998371
 30
0.0
 11
2127.7704294853229
 21
1771.1236539350621
 31
0.0
  0
LINE
  5
8948
  8
3
 62
     0
 10
2006.7340983958411
 20
1606.0841636237751
 30
0.0
 11
2006.7340983958411
 21
1771.1236539350621
 31
0.0
  0
LINE
  5
8949
  8
3
 62
     0
 10
2103.770429485322
 20
1759.1236539350621
 30
0.0
 11
2030.7340983958411
 21
1759.1236539350621
 31
0.0
  0
INSERT
  5
894A
  8
3
 62
     0
  2
_OPEN
 10
2127.7704294853229
 20
1759.1236539350621
 30
0.0
 41
24.0
 42
24.0
 43
24.0
  0
INSERT
  5
894B
  8
3
 62
     0
  2
_OPEN
 10
2006.7340983958411
 20
1759.1236539350621
 30
0.0
 41
24.0
 42
24.0
 43
24.0
 50
180.0
  0
TEXT
  8
3
  40
36
  5
89D4
  62
0
  72
0
  71
0
 10
1995.25
 20
1725.40
 30
0.000000
  1
121
  0
POINT
  5
894D
  8
DEFPOINTS
 62
     0
 10
2127.7704294853229
 20
1373.0467065998371
 30
0.0
  0
POINT
  5
894E
  8
DEFPOINTS
 62
     0
 10
2006.7340983958411
 20
1600.0841636237751
 30
0.0
  0
POINT
  5
894F
  8
DEFPOINTS
 62
     0
 10
2006.7340983958411
 20
1759.1236539350621
 30
0.0
  0
ENDBLK
  5
8580
  8
0
  0
BLOCK
  8
0
  2
*D6
 70
     1
 10
0.0
 20
0.0
 30
0.0
  3
*D6
  1

  0
LINE
  5
8950
  8
3
 62
     0
 10
1569.46177782926
 20
1279.957893178959
 30
0.0
 11
1569.46177782926
 21
1771.1236539350621
 31
0.0
  0
LINE
  5
8951
  8
3
 62
     0
 10
1982.7340983958411
 20
1759.1236539350621
 30
0.0
 11
1593.46177782926
 21
1759.1236539350621
 31
0.0
  0
INSERT
  5
8952
  8
3
 62
     0
  2
_OPEN
 10
2006.7340983958411
 20
1759.1236539350621
 30
0.0
 41
24.0
 42
24.0
 43
24.0
  0
INSERT
  5
8953
  8
3
 62
     0
  2
_OPEN
 10
1569.46177782926
 20
1759.1236539350621
 30
0.0
 41
24.0
 42
24.0
 43
24.0
 50
180.0
  0
TEXT
  8
3
  40
36
  5
89D5
  62
0
  72
0
  71
0
 10
1716.10
 20
1734.83
 30
0.000000
  1
(420)
  0
POINT
  5
8955
  8
DEFPOINTS
 62
     0
 10
2006.7340983958411
 20
1600.0841636237751
 30
0.0
  0
POINT
  5
8956
  8
DEFPOINTS
 62
     0
 10
1569.46177782926
 20
1273.957893178959
 30
0.0
  0
POINT
  5
8957
  8
DEFPOINTS
 62
     0
 10
1569.46177782926
 20
1759.1236539350621
 30
0.0
  0
ENDBLK
  5
8573
  8
0
  0
BLOCK
  8
0
  2
*D7
 70
     1
 10
0.0
 20
0.0
 30
0.0
  3
*D7
  1

  0
LINE
  5
8656
  8
3
 62
     0
 10
1471.7340983958411
 20
767.37699317896136
 30
0.0
 11
1471.7340983958411
 21
597.69231711189605
 31
0.0
  0
LINE
  5
8657
  8
3
 62
     0
 10
2006.7340983958411
 20
819.00534081160993
 30
0.0
 11
2006.7340983958411
 21
597.69231711189605
 31
0.0
  0
LINE
  5
8658
  8
3
 62
     0
 10
1495.7340983958411
 20
609.69231711189605
 30
0.0
 11
1982.7340983958411
 21
609.69231711189605
 31
0.0
  0
TEXT
  5
8659
  8
3
 62
     0
 10
1694.0868275240789
 20
625.70742433918713
 30
0.0
 40
36.0
  1
535
  0
INSERT
  5
865A
  8
3
 62
     0
  2
_OPEN
 10
1471.7340983958411
 20
609.69231711189605
 30
0.0
 41
24.0
 42
24.0
 43
24.0
 50
180.0
  0
INSERT
  5
865B
  8
3
 62
     0
  2
_OPEN
 10
2006.7340983958411
 20
609.69231711189605
 30
0.0
 41
24.0
 42
24.0
 43
24.0
  0
POINT
  5
865C
  8
DEFPOINTS
 62
     0
 10
1471.7340983958411
 20
773.37699317896136
 30
0.0
  0
POINT
  5
865D
  8
DEFPOINTS
 62
     0
 10
2006.7340983958411
 20
825.00534081161004
 30
0.0
  0
POINT
  5
865E
  8
DEFPOINTS
 62
     0
 10
2006.7340983958411
 20
609.69231711189605
 30
0.0
  0
ENDBLK
  5
85B0
  8
0
  0
BLOCK
  8
0
  2
*D8
 70
     1
 10
0.0
 20
0.0
 30
0.0
  3
*D8
  1

  0
LINE
  5
8958
  8
3
 62
     0
 10
2133.7340983958411
 20
1347.8769931789591
 30
0.0
 11
2373.8775977998371
 21
1347.8769931789591
 31
0.0
  0
LINE
  5
8959
  8
3
 62
     0
 10
2133.7340983958411
 20
1032.8769931789591
 30
0.0
 11
2373.8775977998371
 21
1032.8769931789591
 31
0.0
  0
LINE
  5
895A
  8
3
 62
     0
 10
2361.8775977998371
 20
1323.8769931789591
 30
0.0
 11
2361.8775977998371
 21
1056.8769931789591
 31
0.0
  0
INSERT
  5
895B
  8
3
 62
     0
  2
_OPEN
 10
2361.8775977998371
 20
1347.8769931789591
 30
0.0
 41
24.0
 42
24.0
 43
24.0
 50
90.0
  0
INSERT
  5
895C
  8
3
 62
     0
  2
_OPEN
 10
2361.8775977998371
 20
1032.8769931789591
 30
0.0
 41
24.0
 42
24.0
 43
24.0
 50
270.0
  0
TEXT
  8
3
  40
36
  5
89D6
  62
0
  72
0
  71
0
 10
2259.88
 20
1115.72
 30
0.000000
  1
φ315
  0
POINT
  5
895E
  8
DEFPOINTS
 62
     0
 10
2127.7340983958411
 20
1347.8769931789591
 30
0.0
  0
POINT
  5
895F
  8
DEFPOINTS
 62
     0
 10
2127.7340983958411
 20
1032.8769931789591
 30
0.0
  0
POINT
  5
8960
  8
DEFPOINTS
 62
     0
 10
2361.8775977998371
 20
1032.8769931789591
 30
0.0
  0
ENDBLK
  5
8569
  8
0
  0
BLOCK
  8
0
  2
*D9
 70
     1
 10
0.0
 20
0.0
 30
0.0
  3
*D9
  1

  0
LINE
  5
896A
  8
3
 62
     0
 10
564.17508315170062
 20
1532.376993178957
 30
0.0
 11
564.17508315170062
 21
1589.2153754587021
 31
0.0
  0
LINE
  5
896B
  8
3
 62
     0
 10
814.17508315170471
 20
1567.912906142481
 30
0.0
 11
814.17508315170471
 21
1589.2153754587021
 31
0.0
  0
LINE
  5
896C
  8
3
 62
     0
 10
588.17508315170062
 20
1577.2153754587021
 30
0.0
 11
790.17508315170471
 21
1577.2153754587021
 31
0.0
  0
INSERT
  5
896D
  8
3
 62
     0
  2
_OPEN
 10
564.17508315170062
 20
1577.2153754587021
 30
0.0
 41
24.0
 42
24.0
 43
24.0
 50
180.0
  0
INSERT
  5
896E
  8
3
 62
     0
  2
_OPEN
 10
814.17508315170471
 20
1577.2153754587021
 30
0.0
 41
24.0
 42
24.0
 43
24.0
  0
TEXT
  8
3
  40
36
  5
89D7
  62
0
  72
0
  71
0
 10
603.964
 20
1543.50
 30
0.000000
  1
250
  0
POINT
  5
8970
  8
DEFPOINTS
 62
     0
 10
564.17508315170062
 20
1526.376993178957
 30
0.0
  0
POINT
  5
8971
  8
DEFPOINTS
 62
     0
 10
814.17508315170471
 20
1561.9129061424819
 30
0.0
  0
POINT
  5
8972
  8
DEFPOINTS
 62
     0
 10
814.17508315170471
 20
1577.2153754587021
 30
0.0
  0
ENDBLK
  5
83FF
  8
0
  0
BLOCK
  8
0
  2
*D10
 70
     1
 10
0.0
 20
0.0
 30
0.0
  3
*D10
  1

  0
LINE
  5
8973
  8
3
 62
     0
 10
1078.175083151709
 20
1221.8769931789629
 30
0.0
 11
1078.175083151709
 21
1589.2153754587021
 31
0.0
  0
LINE
  5
8974
  8
3
 62
     0
 10
838.17508315170471
 20
1577.2153754587021
 30
0.0
 11
1054.175083151709
 21
1577.2153754587021
 31
0.0
  0
INSERT
  5
8975
  8
3
 62
     0
  2
_OPEN
 10
814.17508315170471
 20
1577.2153754587021
 30
0.0
 41
24.0
 42
24.0
 43
24.0
 50
180.0
  0
INSERT
  5
8976
  8
3
 62
     0
  2
_OPEN
 10
1078.175083151709
 20
1577.2153754587021
 30
0.0
 41
24.0
 42
24.0
 43
24.0
  0
TEXT
  8
3
  40
36
  5
89D8
  62
0
  72
0
  71
0
 10
874.175
 20
1543.50
 30
0.000000
  1
264
  0
POINT
  5
8978
  8
DEFPOINTS
 62
     0
 10
814.17508315170471
 20
1561.9129061424819
 30
0.0
  0
POINT
  5
8979
  8
DEFPOINTS
 62
     0
 10
1078.175083151709
 20
1215.8769931789629
 30
0.0
  0
POINT
  5
897A
  8
DEFPOINTS
 62
     0
 10
1078.175083151709
 20
1577.2153754587021
 30
0.0
  0
ENDBLK
  5
839A
  8
0
  0
BLOCK
  8
0
  2
*D11
 70
     1
 10
0.0
 20
0.0
 30
0.0
  3
*D11
  1

  0
LINE
  5
850C
  8
0
  6
BYBLOCK
 62
     0
 10
488.17508315171102
 20
987.93320863523695
 30
0.0
 11
344.96453966847179
 21
987.93320863523695
 31
0.0
  0
LINE
  5
850D
  8
0
  6
BYBLOCK
 62
     0
 10
356.96453966847179
 20
1033.933208635237
 30
0.0
 11
356.96453966847179
 21
1057.933208635237
 31
0.0
  0
LINE
  5
850E
  8
0
  6
BYBLOCK
 62
     0
 10
356.96453966847179
 20
963.93320863523695
 30
0.0
 11
356.96453966847179
 21
939.93320863523695
 31
0.0
  0
TEXT
  5
850F
  8
3
 62
     0
 10
311.5359682399004
 20
946.64749434952262
 30
0.0
 40
36.0
  1
(22)
 50
90.0
  0
LINE
  5
8510
  8
0
  6
BYBLOCK
 62
     0
 10
356.96453966847179
 20
1009.933208635237
 30
0.0
 11
356.96453966847179
 21
987.93320863523695
 31
0.0
  0
INSERT
  5
8511
  8
0
  6
BYBLOCK
 62
     0
  2
_OPEN
 10
356.96453966847179
 20
1009.933208635237
 30
0.0
 41
24.0
 42
24.0
 43
24.0
 50
270.0
  0
INSERT
  5
8512
  8
0
  6
BYBLOCK
 62
     0
  2
_DOT
 10
356.96453966847179
 20
987.93320863523695
 30
0.0
 41
24.0
 42
24.0
 43
24.0
 50
90.0
  0
POINT
  5
8513
  8
DEFPOINTS
  6
BYBLOCK
 62
     0
 10
564.17508315169925
 20
1009.933208635237
 30
0.0
  0
POINT
  5
8514
  8
DEFPOINTS
  6
BYBLOCK
 62
     0
 10
494.17508315171108
 20
987.93320863523695
 30
0.0
  0
POINT
  5
8515
  8
DEFPOINTS
  6
BYBLOCK
 62
     0
 10
356.96453966847179
 20
987.93320863523695
 30
0.0
  0
ENDBLK
  5
8516
  8
0
  0
BLOCK
  8
0
  2
*D12
 70
     1
 10
0.0
 20
0.0
 30
0.0
  3
*D12
  1

  0
LINE
  5
8992
  8
3
 62
     0
 10
488.17508315171102
 20
813.37699317896113
 30
0.0
 11
344.96453966847179
 21
813.37699317896113
 31
0.0
  0
LINE
  5
8993
  8
3
 62
     0
 10
408.17508315171187
 20
773.37699317896113
 30
0.0
 11
344.96453966847179
 21
773.37699317896113
 31
0.0
  0
LINE
  5
8994
  8
3
 62
     0
 10
356.96453966847179
 20
837.37699317896113
 30
0.0
 11
356.96453966847179
 21
861.37699317896124
 31
0.0
  0
LINE
  5
8995
  8
3
 62
     0
 10
356.96453966847179
 20
749.37699317896113
 30
0.0
 11
356.96453966847179
 21
643.09127889324668
 31
0.0
  0
LINE
  5
8996
  8
3
 62
     0
 10
356.96453966847179
 20
813.37699317896113
 30
0.0
 11
356.96453966847179
 21
773.37699317896113
 31
0.0
  0
INSERT
  5
8997
  8
3
 62
     0
  2
_DOT
 10
356.96453966847179
 20
813.37699317896113
 30
0.0
 41
24.0
 42
24.0
 43
24.0
 50
270.0
  0
INSERT
  5
8998
  8
3
 62
     0
  2
_OPEN
 10
356.96453966847179
 20
773.37699317896113
 30
0.0
 41
24.0
 42
24.0
 43
24.0
 50
90.0
  0
TEXT
  8
3
  40
36
  5
89D9
  62
0
  72
0
  71
0
 10
254.965
 20
620.514
 30
0.000000
  1
40
  0
POINT
  5
899A
  8
DEFPOINTS
 62
     0
 10
494.17508315171108
 20
813.37699317896113
 30
0.0
  0
POINT
  5
899B
  8
DEFPOINTS
 62
     0
 10
414.17508315171199
 20
773.37699317896113
 30
0.0
  0
POINT
  5
899C
  8
DEFPOINTS
 62
     0
 10
356.96453966847179
 20
773.37699317896113
 30
0.0
  0
ENDBLK
  5
8523
  8
0
  0
BLOCK
  8
0
  2
*D13
 70
     1
 10
0.0
 20
0.0
 30
0.0
  3
*D13
  1

  0
LINE
  5
899D
  8
3
 62
     0
 10
414.17508315171199
 20
767.37699317896113
 30
0.0
 11
414.17508315171199
 21
662.67525159909292
 31
0.0
  0
LINE
  5
899E
  8
3
 62
     0
 10
814.17508315171199
 20
740.2637329659583
 30
0.0
 11
814.17508315171199
 21
662.67525159909292
 31
0.0
  0
LINE
  5
899F
  8
3
 62
     0
 10
438.17508315171199
 20
674.6752515990928
 30
0.0
 11
790.17508315171187
 21
674.6752515990928
 31
0.0
  0
INSERT
  5
89A0
  8
3
 62
     0
  2
_OPEN
 10
414.17508315171199
 20
674.6752515990928
 30
0.0
 41
24.0
 42
24.0
 43
24.0
 50
180.0
  0
INSERT
  5
89A1
  8
3
 62
     0
  2
_OPEN
 10
814.17508315171199
 20
674.6752515990928
 30
0.0
 41
24.0
 42
24.0
 43
24.0
  0
TEXT
  8
3
  40
36
  5
89DA
  62
0
  72
0
  71
0
 10
514.111
 20
640.955
 30
0.000000
  1
400
  0
POINT
  5
89A3
  8
DEFPOINTS
 62
     0
 10
414.17508315171199
 20
773.37699317896113
 30
0.0
  0
POINT
  5
89A4
  8
DEFPOINTS
 62
     0
 10
814.17508315171199
 20
746.2637329659583
 30
0.0
  0
POINT
  5
89A5
  8
DEFPOINTS
 62
     0
 10
814.17508315171199
 20
674.6752515990928
 30
0.0
  0
ENDBLK
  5
85BB
  8
0
  0
BLOCK
  8
0
  2
*D14
 70
     1
 10
0.0
 20
0.0
 30
0.0
  3
*D14
  1

  0
LINE
  5
89A6
  8
3
 62
     0
 10
1214.175083151712
 20
767.37699317896113
 30
0.0
 11
1214.175083151712
 21
662.67525159909292
 31
0.0
  0
LINE
  5
89A7
  8
3
 62
     0
 10
838.17508315171199
 20
674.6752515990928
 30
0.0
 11
1190.1750831517111
 21
674.6752515990928
 31
0.0
  0
INSERT
  5
89A8
  8
3
 62
     0
  2
_OPEN
 10
814.17508315171199
 20
674.6752515990928
 30
0.0
 41
24.0
 42
24.0
 43
24.0
 50
180.0
  0
INSERT
  5
89A9
  8
3
 62
     0
  2
_OPEN
 10
1214.175083151712
 20
674.6752515990928
 30
0.0
 41
24.0
 42
24.0
 43
24.0
  0
TEXT
  8
3
  40
36
  5
89DB
  62
0
  72
0
  71
0
 10
942.175
 20
640.955
 30
0.000000
  1
400
  0
POINT
  5
89AB
  8
DEFPOINTS
 62
     0
 10
814.17508315171199
 20
746.2637329659583
 30
0.0
  0
POINT
  5
89AC
  8
DEFPOINTS
 62
     0
 10
1214.175083151712
 20
773.37699317896113
 30
0.0
  0
POINT
  5
89AD
  8
DEFPOINTS
 62
     0
 10
1214.175083151712
 20
674.6752515990928
 30
0.0
  0
ENDBLK
  5
85C5
  8
0
  0
BLOCK
  8
0
  2
*D15
 70
     1
 10
0.0
 20
0.0
 30
0.0
  3
*D15
  1

  0
LINE
  5
89AE
  8
3
 62
     0
 10
2271.7340983958402
 20
767.37699317896113
 30
0.0
 11
2271.7340983958402
 21
597.69231711189605
 31
0.0
  0
LINE
  5
89AF
  8
3
 62
     0
 10
2030.7340983958411
 20
609.69231711189605
 30
0.0
 11
2247.7340983958402
 21
609.69231711189605
 31
0.0
  0
INSERT
  5
89B0
  8
3
 62
     0
  2
_OPEN
 10
2006.7340983958411
 20
609.69231711189605
 30
0.0
 41
24.0
 42
24.0
 43
24.0
 50
180.0
  0
INSERT
  5
89B1
  8
3
 62
     0
  2
_OPEN
 10
2271.7340983958402
 20
609.69231711189605
 30
0.0
 41
24.0
 42
24.0
 43
24.0
  0
TEXT
  8
3
  40
36
  5
89DC
  62
0
  72
0
  71
0
 10
2067.23
 20
575.972
 30
0.000000
  1
265
  0
POINT
  5
89B3
  8
DEFPOINTS
 62
     0
 10
2006.7340983958411
 20
825.00534081161004
 30
0.0
  0
POINT
  5
89B4
  8
DEFPOINTS
 62
     0
 10
2271.7340983958402
 20
773.37699317896113
 30
0.0
  0
POINT
  5
89B5
  8
DEFPOINTS
 62
     0
 10
2271.7340983958402
 20
609.69231711189605
 30
0.0
  0
ENDBLK
  5
85A5
  8
0
  0
BLOCK
  8
0
  2
*D16
 70
     1
 10
0.0
 20
0.0
 30
0.0
  3
*D16
  1

  0
LINE
  5
89B6
  8
3
 62
     0
 10
414.17508315170829
 20
2641.967337726107
 30
0.0
 11
414.17508315170829
 21
2755.6390555125122
 31
0.0
  0
LINE
  5
89B7
  8
3
 62
     0
 10
1214.1750831517079
 20
2641.967337726107
 30
0.0
 11
1214.1750831517079
 21
2755.6390555125122
 31
0.0
  0
LINE
  5
89B8
  8
3
 62
     0
 10
438.17508315170829
 20
2743.6390555125108
 30
0.0
 11
1190.1750831517079
 21
2743.6390555125108
 31
0.0
  0
INSERT
  5
89B9
  8
3
 62
     0
  2
_OPEN
 10
414.17508315170829
 20
2743.6390555125108
 30
0.0
 41
24.0
 42
24.0
 43
24.0
 50
180.0
  0
INSERT
  5
89BA
  8
3
 62
     0
  2
_OPEN
 10
1214.1750831517079
 20
2743.6390555125108
 30
0.0
 41
24.0
 42
24.0
 43
24.0
  0
TEXT
  8
3
  40
36
  5
89DD
  62
0
  72
0
  71
0
 10
742.104
 20
2709.92
 30
0.000000
  1
800
  0
POINT
  5
89BC
  8
DEFPOINTS
 62
     0
 10
414.17508315170829
 20
2635.967337726107
 30
0.0
  0
POINT
  5
89BD
  8
DEFPOINTS
 62
     0
 10
1214.1750831517079
 20
2635.967337726107
 30
0.0
  0
POINT
  5
89BE
  8
DEFPOINTS
 62
     0
 10
1214.1750831517079
 20
2743.6390555125108
 30
0.0
  0
ENDBLK
  5
858C
  8
0
  0
BLOCK
  8
0
  2
*D17
 70
     1
 10
0.0
 20
0.0
 30
0.0
  3
*D17
  1

  0
LINE
  5
89BF
  8
3
 62
     0
 10
1220.1750831517079
 20
2635.967337726107
 30
0.0
 11
1357.192931355243
 21
2635.967337726107
 31
0.0
  0
LINE
  5
89C0
  8
3
 62
     0
 10
1220.1750831517079
 20
1835.967337726107
 30
0.0
 11
1357.192931355243
 21
1835.967337726107
 31
0.0
  0
LINE
  5
89C1
  8
3
 62
     0
 10
1345.192931355243
 20
2611.967337726107
 30
0.0
 11
1345.192931355243
 21
1859.9673377261061
 31
0.0
  0
INSERT
  5
89C2
  8
3
 62
     0
  2
_OPEN
 10
1345.192931355243
 20
2635.967337726107
 30
0.0
 41
24.0
 42
24.0
 43
24.0
 50
90.0
  0
INSERT
  5
89C3
  8
3
 62
     0
  2
_OPEN
 10
1345.192931355243
 20
1835.967337726107
 30
0.0
 41
24.0
 42
24.0
 43
24.0
 50
270.0
  0
TEXT
  8
3
  40
36
  5
89DE
  62
0
  72
0
  71
0
 10
1243.19
 20
2160.13
 30
0.000000
  1
800
  0
POINT
  5
89C5
  8
DEFPOINTS
 62
     0
 10
1214.1750831517079
 20
2635.967337726107
 30
0.0
  0
POINT
  5
89C6
  8
DEFPOINTS
 62
     0
 10
1214.1750831517079
 20
1835.967337726107
 30
0.0
  0
POINT
  5
89C7
  8
DEFPOINTS
 62
     0
 10
1345.192931355243
 20
1835.967337726107
 30
0.0
  0
ENDBLK
  5
8599
  8
0
  0
BLOCK
  8
0
  2
*D18
 70
     1
 10
0.0
 20
0.0
 30
0.0
  3
*D18
  1

  0
LINE
  5
89C8
  8
3
 62
     0
 10
1465.7340983958411
 20
1673.3769931789609
 30
0.0
 11
1365.061102829244
 21
1673.3769931789609
 31
0.0
  0
LINE
  5
89C9
  8
3
 62
     0
 10
1465.7340983958411
 20
773.37699317896136
 30
0.0
 11
1365.061102829244
 21
773.37699317896136
 31
0.0
  0
LINE
  5
89CA
  8
3
 62
     0
 10
1377.061102829244
 20
1649.3769931789609
 30
0.0
 11
1377.061102829244
 21
797.37699317896136
 31
0.0
  0
INSERT
  5
89CB
  8
3
 62
     0
  2
_OPEN
 10
1377.061102829244
 20
1673.3769931789609
 30
0.0
 41
24.0
 42
24.0
 43
24.0
 50
90.0
  0
INSERT
  5
89CC
  8
3
 62
     0
  2
_OPEN
 10
1377.061102829244
 20
773.37699317896136
 30
0.0
 41
24.0
 42
24.0
 43
24.0
 50
270.0
  0
TEXT
  8
3
  40
36
  5
89DF
  62
0
  72
0
  71
0
 10
1275.06
 20
1048.82
 30
0.000000
  1
900
  0
POINT
  5
89CE
  8
DEFPOINTS
 62
     0
 10
1471.7340983958411
 20
1673.3769931789609
 30
0.0
  0
POINT
  5
89CF
  8
DEFPOINTS
 62
     0
 10
1471.7340983958411
 20
773.37699317896136
 30
0.0
  0
POINT
  5
89D0
  8
DEFPOINTS
 62
     0
 10
1377.061102829244
 20
773.37699317896136
 30
0.0
  0
ENDBLK
  5
85D7
  8
0
  0
ENDSEC
  0
SECTION
  2
ENTITIES
  0
POLYLINE
  5
7D77
  8
1
 66
     1
 10
0.0
 20
0.0
 30
0.0
  0
VERTEX
  5
88E7
  8
1
 10
927.15334145223551
 20
985.37699317896124
 30
0.0
 42
-0.1343280102757561
  0
VERTEX
  5
88E8
  8
1
 10
799.40505787141683
 20
971.01314896975589
 30
0.0
 42
-0.3163019945347412
  0
VERTEX
  5
88E9
  8
1
 10
630.79789660929009
 20
1134.0073601306881
 30
0.0
 42
-0.3153658436290411
  0
SEQEND
  5
88EA
  8
1
  0
POLYLINE
  5
7D7C
  8
1
 66
     1
 10
0.0
 20
0.0
 30
0.0
  0
VERTEX
  5
88EB
  8
1
 10
564.17508315170005
 20
1505.376993178957
 30
0.0
  0
VERTEX
  5
88EC
  8
1
 10
788.67508315170153
 20
1505.3769931789629
 30
0.0
 42
-0.2294041480982971
  0
VERTEX
  5
88ED
  8
1
 10
1015.809404644522
 20
1395.3769931789609
 30
0.0
 42
-0.1293935334669464
  0
SEQEND
  5
88EE
  8
1
  0
POLYLINE
  5
7D81
  8
1
 66
     1
 10
0.0
 20
0.0
 30
0.0
  0
VERTEX
  5
88EF
  8
1
 10
564.17508315170005
 20
1506.376993178957
 30
0.0
  0
VERTEX
  5
88F0
  8
1
 10
788.67508315170016
 20
1506.3769931789629
 30
0.0
 42
-0.2301193883723377
  0
VERTEX
  5
88F1
  8
1
 10
1017.082613675553
 20
1395.3769931789609
 30
0.0
 42
-0.129402372482195
  0
SEQEND
  5
88F2
  8
1
  0
POLYLINE
  5
7D86
  8
1
 66
     1
 10
0.0
 20
0.0
 30
0.0
  0
VERTEX
  5
88F3
  8
1
 10
584.1750831516996
 20
1516.3769931789559
 30
0.0
  0
VERTEX
  5
88F4
  8
1
 10
788.67508315169971
 20
1516.3769931789629
 30
0.0
 42
-0.4399944676847409
  0
VERTEX
  5
88F5
  8
1
 10
1087.0911815833069
 20
1190.3769931789609
 30
0.0
 42
-0.1409112112925606
  0
SEQEND
  5
88F6
  8
1
  0
LINE
  5
7D8B
  8
1
 10
1016.875083151712
 20
1275.7769931789601
 30
0.0
 11
1016.875083151716
 21
835.37699317896136
 31
0.0
  0
LINE
  5
7D8C
  8
1
 10
611.47508315171297
 20
1275.776993178961
 30
0.0
 11
611.47508315171581
 21
835.37699317896102
 31
0.0
  0
LINE
  5
7D8D
  8
1
 10
1019.175083151713
 20
1275.7769931789601
 30
0.0
 11
1019.175083151713
 21
835.37699317896102
 31
0.0
  0
LINE
  5
7D8E
  8
1
 10
609.1750831517129
 20
1275.776993178961
 30
0.0
 11
609.1750831517129
 21
837.67699317896097
 31
0.0
  0
CIRCLE
  5
7D8F
  8
1
 10
814.17508315171199
 20
1190.3769931789609
 30
0.0
 40
169.0
  0
POLYLINE
  5
7D90
  8
1
 66
     1
 10
0.0
 20
0.0
 30
0.0
  0
VERTEX
  5
88F7
  8
1
 10
1019.175083151712
 20
1051.1271881868879
 30
0.0
 42
-0.1174780416237573
  0
VERTEX
  5
88F8
  8
1
 10
927.1533414522346
 20
985.37699317896215
 30
0.0
 42
-0.3153658436290411
  0
SEQEND
  5
88F9
  8
1
  0
LINE
  5
7D95
  8
1
 10
611.47508315171399
 20
1080.3769931789609
 30
0.0
 11
649.1750831517129
 21
1048.7089931789601
 31
0.0
  0
LINE
  5
7D96
  8
1
 10
1016.875083151712
 20
1090.3769931789609
 30
0.0
 11
611.47508315171297
 21
1090.3769931789609
 31
0.0
  0
LINE
  5
7D97
  8
1
 10
647.18936886599829
 20
1050.3769931789609
 30
0.0
 11
814.1750831517038
 21
1050.3769931789609
 31
0.0
  0
LINE
  5
7D98
  8
1
 10
642.72324898540319
 20
1236.3173736846579
 30
0.0
 11
658.05987212567015
 21
1232.2079378996029
 31
0.0
  0
CIRCLE
  5
7D99
  8
1
 10
650.93361850886049
 20
1234.1174118012859
 30
0.0
 40
4.0
  0
LINE
  5
7D9A
  8
1
 10
642.72324898540398
 20
1144.436612673263
 30
0.0
 11
658.05987212567015
 21
1148.546048458318
 31
0.0
  0
CIRCLE
  5
7D9B
  8
1
 10
650.93361850885765
 20
1146.6365745566341
 30
0.0
 40
4.0
  0
LINE
  5
7D9C
  8
1
 10
979.1750831517129
 20
1048.7089931789601
 30
0.0
 11
979.1750831517129
 21
893.57699317896106
 31
0.0
  0
LINE
  5
7D9D
  8
1
 10
649.1750831517129
 20
1048.7089931789601
 30
0.0
 11
649.17508315171187
 21
893.57699317896106
 31
0.0
  0
POLYLINE
  5
7D9E
  8
1
 66
     1
 10
0.0
 20
0.0
 30
0.0
  0
VERTEX
  5
88FA
  8
1
 10
1017.082613675553
 20
1395.3769931789609
 30
0.0
 42
-0.2162148363065116
  0
VERTEX
  5
88FB
  8
1
 10
1073.2252944283489
 20
1162.479176370909
 30
0.0
 42
-0.1298622998199493
  0
VERTEX
  5
88FC
  8
1
 10
1019.175083151713
 20
1051.127188186887
 30
0.0
 42
-0.3153658436290411
  0
SEQEND
  5
88FD
  8
1
  0
LINE
  5
7DA3
  8
1
 10
768.23470264601565
 20
1018.925159012652
 30
0.0
 11
772.34413843106995
 21
1034.2617821529179
 31
0.0
  0
CIRCLE
  5
7DA4
  8
1
 10
770.43466452938708
 20
1027.135528536108
 30
0.0
 40
4.0
  0
CIRCLE
  5
7DA5
  8
1
 10
857.91550177403667
 20
1027.135528536108
 30
0.0
 40
4.0
  0
LINE
  5
7DA6
  8
1
 10
860.11546365741015
 20
1018.925159012652
 30
0.0
 11
856.00602787235493
 21
1034.2617821529179
 31
0.0
  0
LINE
  5
7DA7
  8
1
 10
981.16079743742648
 20
1050.3769931789609
 30
0.0
 11
814.1750831517038
 21
1050.3769931789609
 31
0.0
  0
LINE
  5
7DA8
  8
1
 10
688.66362949110044
 20
1064.8655395183489
 30
0.0
 11
699.89081684631401
 21
1076.09272687356
 31
0.0
  0
CIRCLE
  5
7DA9
  8
1
 10
694.67403713118529
 20
1070.875947158434
 30
0.0
 40
4.0
  0
LINE
  5
7DAA
  8
1
 10
939.68653681232536
 20
1064.8655395183489
 30
0.0
 11
928.45934945711258
 21
1076.0927268735611
 31
0.0
  0
CIRCLE
  5
7DAB
  8
1
 10
933.67612917223869
 20
1070.875947158434
 30
0.0
 40
4.0
  0
LINE
  5
7DAC
  8
1
 10
1016.8750831517131
 20
1080.3769931789609
 30
0.0
 11
979.1750831517129
 21
1048.708993178961
 31
0.0
  0
CIRCLE
  5
7DAD
  8
1
 10
977.41654779456428
 20
1146.6365745566341
 30
0.0
 40
4.0
  0
CIRCLE
  5
7DAE
  8
1
 10
977.41654779456348
 20
1234.1174118012859
 30
0.0
 40
4.0
  0
LINE
  5
7DAF
  8
1
 10
985.6269173180217
 20
1236.3173736846579
 30
0.0
 11
970.29029417775484
 21
1232.2079378996029
 31
0.0
  0
LINE
  5
7DB0
  8
1
 10
724.1750831517129
 20
1370.37699317896
 30
0.0
 11
611.47508315171297
 21
1275.7769931789601
 31
0.0
  0
LINE
  5
7DB1
  8
1
 10
564.17508315170062
 20
1526.376993178957
 30
0.0
 11
564.17508315171108
 21
1169.376993178957
 31
0.0
  0
LINE
  5
7DB2
  8
1
 10
904.1750831517129
 20
1370.3769931789609
 30
0.0
 11
1016.8750831517131
 21
1275.7769931789601
 31
0.0
  0
LINE
  5
7DB3
  8
1
 10
584.17508315170187
 20
1488.976993178956
 30
0.0
 11
584.17508315170971
 21
1206.776993178956
 31
0.0
  0
LINE
  5
7DB4
  8
1
 10
565.37508315170044
 20
1526.376993178957
 30
0.0
 11
565.37508315171078
 21
1169.376993178957
 31
0.0
  0
POLYLINE
  5
7DB5
  8
1
 66
     1
 10
0.0
 20
0.0
 30
0.0
  0
VERTEX
  5
88FE
  8
1
 10
609.17508315170915
 20
1173.5219015253849
 30
0.0
 42
-0.1315967463597435
  0
VERTEX
  5
88FF
  8
1
 10
630.80262290860935
 20
1133.982563170945
 30
0.0
 42
-0.2200089805681688
  0
SEQEND
  5
8900
  8
1
  0
LINE
  5
7DB9
  8
1
 10
904.1750831517129
 20
1370.3769931789609
 30
0.0
 11
724.1750831517129
 21
1370.37699317896
 31
0.0
  0
LINE
  5
7DBA
  8
1
 10
688.66362949110135
 20
1315.888446839572
 30
0.0
 11
699.8908168463131
 21
1304.66125948436
 31
0.0
  0
CIRCLE
  5
7DBB
  8
1
 10
694.67403713118529
 20
1309.8780391994869
 30
0.0
 40
4.0
  0
LINE
  5
7DBC
  8
1
 10
768.23470264601565
 20
1361.8288273452699
 30
0.0
 11
772.34413843107075
 21
1346.4922042050041
 31
0.0
  0
CIRCLE
  5
7DBD
  8
1
 10
770.43466452938708
 20
1353.6184578218131
 30
0.0
 40
4.0
  0
CIRCLE
  5
7DBE
  8
1
 10
933.67612917223869
 20
1309.8780391994869
 30
0.0
 40
4.0
  0
LINE
  5
7DBF
  8
1
 10
939.68653681232354
 20
1315.888446839572
 30
0.0
 11
928.45934945711258
 21
1304.66125948436
 31
0.0
  0
CIRCLE
  5
7DC0
  8
1
 10
857.91550177403667
 20
1353.6184578218131
 30
0.0
 40
4.0
  0
LINE
  5
7DC1
  8
1
 10
860.11546365740924
 20
1361.8288273452699
 30
0.0
 11
856.00602787235403
 21
1346.492204205003
 31
0.0
  0
POLYLINE
  5
7DC2
  8
1
 66
     1
 10
0.0
 20
0.0
 30
0.0
  0
VERTEX
  5
8901
  8
1
 10
588.66417614826366
 20
1177.712729564965
 30
0.0
 42
-0.0934525219043797
  0
VERTEX
  5
8902
  8
1
 10
609.17508315171006
 20
1157.822577886554
 30
0.0
 42
-0.1987366729981355
  0
SEQEND
  5
8903
  8
1
  0
POLYLINE
  5
7DC6
  8
1
 66
     1
 10
0.0
 20
0.0
 30
0.0
  0
VERTEX
  5
8904
  8
1
 10
609.17508315171006
 20
1157.822577886554
 30
0.0
 42
-0.0941668855597806
  0
VERTEX
  5
8905
  8
1
 10
621.08648746005508
 20
1131.6168260880529
 30
0.0
 42
-0.1987366729981355
  0
SEQEND
  5
8906
  8
1
  0
LINE
  5
7DCA
  8
1
 10
564.17508315171108
 20
1169.376993178957
 30
0.0
 11
565.37508315171078
 21
1169.376993178957
 31
0.0
  0
LINE
  5
7DCB
  8
1
 10
564.1750831517096
 20
1189.376993178957
 30
0.0
 11
585.1750831517096
 21
1189.376993178957
 31
0.0
  0
LINE
  5
7DCC
  8
1
 10
568.47508315170978
 20
1191.0769931789539
 30
0.0
 11
584.17508315170915
 21
1206.7769931789539
 31
0.0
  0
ARC
  5
7DCD
  8
1
 10
594.17508315170869
 20
1186.057183052126
 30
0.0
 40
10.0
 50
180.00000000000151
 51
236.5581282105166
  0
LINE
  5
7DCE
  8
1
 10
584.17508315171006
 20
1189.3769931789509
 30
0.0
 11
584.17508315171244
 21
1186.0571830521201
 31
0.0
  0
POLYLINE
  5
7DCF
  8
1
 66
     1
 10
0.0
 20
0.0
 30
0.0
  0
VERTEX
  5
8907
  8
1
 10
585.1750831517088
 20
1189.376993178957
 30
0.0
 42
-0.101266720201501
  0
VERTEX
  5
8908
  8
1
 10
590.67449363847254
 20
1188.2516381953481
 30
0.0
 42
-0.0681921917069782
  0
VERTEX
  5
8909
  8
1
 10
609.17508315170915
 20
1173.5219015253849
 30
0.0
 42
-0.2200089805681688
  0
SEQEND
  5
890A
  8
1
  0
POINT
  5
7DD4
  8
1
 10
564.17508315171062
 20
1190.376993178957
 30
0.0
 50
0.0000000000008142
  0
ARC
  5
7DD5
  8
1
 10
569.17508315170869
 20
1190.376993178957
 30
0.0
 40
1.0
 50
126.8698976458065
 51
270.00000000000159
  0
POLYLINE
  5
7DD6
  8
1
 66
     1
 10
0.0
 20
0.0
 30
0.0
  0
VERTEX
  5
890B
  8
1
 10
559.11191993671298
 20
1178.8769931789559
 30
0.0
  0
VERTEX
  5
890C
  8
1
 10
571.38023022065863
 20
1178.876993178957
 30
0.0
  0
SEQEND
  5
890D
  8
1
  0
POINT
  5
7DDA
  8
1
 10
971.67508315170573
 20
1440.376993178972
 30
0.0
 50
0.0000000000008142
  0
POINT
  5
7DDB
  8
1
 10
971.67508315170573
 20
1440.376993178972
 30
0.0
 50
0.0000000000008142
  0
LINE
  5
7DDC
  8
1
 10
568.4750831517008
 20
1504.6769931789561
 30
0.0
 11
584.17508315170187
 21
1488.976993178956
 31
0.0
  0
LINE
  5
7DDD
  8
1
 10
584.17508315170062
 20
1516.3769931789559
 30
0.0
 11
584.17508315170107
 21
1506.3769931789559
 31
0.0
  0
ARC
  5
7DDE
  8
1
 10
569.17508315170005
 20
1505.376993178957
 30
0.0
 40
1.0
 50
90.000000000001606
 51
233.13010235419659
  0
POLYLINE
  5
7DDF
  8
1
 66
     1
 10
0.0
 20
0.0
 30
0.0
  0
VERTEX
  5
890E
  8
1
 10
564.17508315169869
 20
1526.376993178957
 30
0.0
  0
VERTEX
  5
890F
  8
1
 10
565.37508315169771
 20
1526.376993178957
 30
0.0
 42
-0.4696216166052111
  0
SEQEND
  5
8910
  8
1
  0
POLYLINE
  5
7DE3
  8
1
 66
     1
 10
0.0
 20
0.0
 30
0.0
  0
VERTEX
  5
8911
  8
1
 10
559.11191993670354
 20
1516.8769931789559
 30
0.0
  0
VERTEX
  5
8912
  8
1
 10
571.38023022064908
 20
1516.876993178957
 30
0.0
  0
SEQEND
  5
8913
  8
1
  0
LINE
  5
7DE7
  8
1
 10
1885.7340983958411
 20
1315.7769931789589
 30
0.0
 11
1704.1721151878901
 21
1190.3769931789591
 31
0.0
  0
POLYLINE
  5
7DF4
  8
1
 66
     1
 10
0.0
 20
0.0
 30
0.0
  0
VERTEX
  5
8914
  8
1
 10
1885.7340983958391
 20
1371.8769931789609
 30
0.0
  0
VERTEX
  5
8915
  8
1
 10
1885.7340983958411
 20
838.57699317896027
 30
0.0
  0
SEQEND
  5
8916
  8
1
  0
LINE
  5
7E1B
  8
1
 10
1061.867371348349
 20
1968.9673377261061
 30
0.0
 11
1031.1750831517079
 21
1968.9673377261061
 31
0.0
  0
LINE
  5
7E1C
  8
1
 10
1064.175083151709
 20
1938.9673377261061
 30
0.0
 11
1024.175083151709
 21
1938.9673377261061
 31
0.0
  0
LINE
  5
7E21
  8
1
 10
564.17508315170915
 20
1938.9673377261061
 30
0.0
 11
564.17508315170915
 21
2248.9673377261051
 31
0.0
  0
LINE
  5
7E2B
  8
1
 10
1064.175083151709
 20
1938.9673377261061
 30
0.0
 11
1064.1750831517079
 21
2248.967337726117
 31
0.0
  0
CIRCLE
  5
7E2C
  8
1
 10
1046.175083151709
 20
1968.9673377261061
 30
0.0
 40
6.0
  0
LINE
  5
7E2D
  8
1
 10
1046.175083151709
 20
1985.102045608654
 30
0.0
 11
1046.175083151709
 21
1949.4349661042129
 31
0.0
  0
LINE
  5
7E34
  8
1
 10
564.17508315170915
 20
2248.9673377261051
 30
0.0
 11
1064.1750831517079
 21
2248.967337726117
 31
0.0
  0
LINE
  5
7E35
  8
1
 10
604.17508315170915
 20
1938.9673377261081
 30
0.0
 11
564.17508315171006
 21
1938.9673377261061
 31
0.0
  0
LINE
  5
7E36
  8
1
 10
564.17508315170005
 20
837.67699317896086
 30
0.0
 11
564.17508315169925
 21
835.37699317896102
 31
0.0
  0
LINE
  5
7E37
  8
1
 10
564.17508315170005
 20
835.37699317896102
 30
0.0
 11
1064.1750831516979
 21
835.37699317896102
 31
0.0
  0
LINE
  5
7E38
  8
1
 10
564.17508315170005
 20
837.67699317896097
 30
0.0
 11
609.17508315171199
 21
837.67699317896086
 31
0.0
  0
LINE
  5
7E49
  8
1
 10
576.17508315169925
 20
844.45079017464241
 30
0.0
 11
576.17508315169925
 21
787.07187156284215
 31
0.0
1001
ACAD
1000
ASC_BOUNDS
1002
{
1070
    19
1005
0
1005
0
1002
}
  0
LINE
  5
7E54
  8
1
 10
1052.175083151697
 20
844.45079017464241
 30
0.0
 11
1052.175083151697
 21
787.07187156284215
 31
0.0
1001
ACAD
1000
ASC_BOUNDS
1002
{
1070
    19
1005
0
1005
0
1002
}
  0
LINE
  5
7E5A
  8
1
 10
1064.1750831516961
 20
837.67699317896097
 30
0.0
 11
1019.175083151684
 21
837.67699317896086
 31
0.0
  0
LINE
  5
7E5B
  8
1
 10
1064.1750831516961
 20
837.67699317896086
 30
0.0
 11
1064.175083151697
 21
835.37699317896102
 31
0.0
  0
LINE
  5
7E5D
  8
1
 10
1574.7340983958411
 20
835.37699317896011
 30
0.0
 11
1925.7340983958411
 21
835.37699317895988
 31
0.0
  0
LINE
  5
7E62
  8
1
 10
1576.255899665674
 20
838.57699317896027
 30
0.0
 11
1882.5340983958411
 21
838.57699317895981
 31
0.0
  0
POLYLINE
  5
7E63
  8
1
 66
     1
 10
0.0
 20
0.0
 30
0.0
  0
VERTEX
  5
8917
  8
1
 10
1925.7340983958411
 20
838.57699317895981
 30
0.0
  0
VERTEX
  5
8918
  8
1
 10
1925.7340983958411
 20
835.37699317895976
 30
0.0
  0
SEQEND
  5
8919
  8
1
  0
POLYLINE
  5
7E67
  8
1
 66
     1
 10
0.0
 20
0.0
 30
0.0
  0
VERTEX
  5
891A
  8
1
 10
1882.5340983958399
 20
1313.566838867411
 30
0.0
  0
VERTEX
  5
891B
  8
1
 10
1882.5340983958411
 20
835.37699317895988
 30
0.0
  0
SEQEND
  5
891C
  8
1
  0
LINE
  5
7E6B
  8
1
 10
1885.7340983958411
 20
838.57699317895958
 30
0.0
 11
1925.7340983958411
 21
838.57699317895981
 31
0.0
  0
LINE
  5
7E6C
  8
1
 10
1705.5340983958411
 20
1190.3769931789591
 30
0.0
 11
1574.7340983958411
 21
835.37699317896011
 31
0.0
  0
LINE
  5
7E71
  8
1
 10
1854.734098395842
 20
847.81058942727805
 30
0.0
 11
1854.7340983958411
 21
782.81058942727782
 31
0.0
1001
ACAD
1000
ASC_BOUNDS
1002
{
1070
    19
1002
}
  0
LINE
  5
7E72
  8
1
 10
1604.734098395842
 20
847.81058942727702
 30
0.0
 11
1604.7340983958411
 21
782.81058942727964
 31
0.0
1001
ACAD
1000
ASC_BOUNDS
1002
{
1070
    19
1002
}
  0
LINE
  5
7E75
  8
2
 10
2172.6061184428581
 20
1190.3769931789591
 30
0.0
 11
1545.345977829262
 21
1190.3769931789591
 31
0.0
  0
ARC
  5
7E76
  8
1
 10
814.17508315171199
 20
1190.3769931789609
 30
0.0
 40
100.8
 50
180.0
 51
254.20289999999989
  0
ARC
  5
7E77
  8
1
 10
814.17508315171199
 20
1190.3769931789609
 30
0.0
 40
100.8
 50
285.4276999999999
 51
180.0
  0
LINE
  5
7E79
  8
1
 10
786.5573831517122
 20
1093.3769931789609
 30
0.0
 11
841.44448315171212
 21
1093.3769931789609
 31
0.0
  0
LINE
  5
7E7A
  8
1
 10
912.17508315171199
 20
1102.3769931789609
 30
0.0
 11
876.17508315171187
 21
1102.3769931789609
 31
0.0
  0
LINE
  5
7E7B
  8
1
 10
914.17508315171199
 20
1090.3769931789609
 30
0.0
 11
874.17508315171187
 21
1090.3769931789609
 31
0.0
  0
LINE
  5
7E7C
  8
1
 10
913.28288315171176
 20
1102.0450931789601
 30
0.0
 11
896.88208315171221
 21
1132.707093178961
 31
0.0
  0
ARC
  5
7E7D
  8
1
 10
912.17508315171199
 20
1100.3769931789609
 30
0.0
 40
2.0
 50
0.0
 51
90.0
  0
LINE
  5
7E7E
  8
1
 10
914.17508315171199
 20
1090.3769931789609
 30
0.0
 11
914.17508315171199
 21
1100.3769931789609
 31
0.0
  0
LINE
  5
7E7F
  8
1
 10
900.17508315171187
 20
1102.3769931789609
 30
0.0
 11
900.17508315171187
 21
1090.3769931789609
 31
0.0
  0
LINE
  5
7E80
  8
1
 10
888.17508315171199
 20
1090.3769931789609
 30
0.0
 11
888.17508315171199
 21
1102.3769931789609
 31
0.0
  0
LINE
  5
7E81
  8
1
 10
894.17508315171199
 20
1103.7574931789611
 30
0.0
 11
894.17508315171199
 21
1086.4103931789609
 31
0.0
  0
LINE
  5
7E82
  8
1
 10
874.37758315171232
 20
1109.488193178961
 30
0.0
 11
880.61008315171239
 21
1103.2556931789611
 31
0.0
  0
LINE
  5
7E83
  8
1
 10
867.62548315171159
 20
1104.9266931789609
 30
0.0
 11
874.17508315171187
 21
1098.3769931789609
 31
0.0
  0
ARC
  5
7E84
  8
1
 10
876.17508315171187
 20
1100.3769931789609
 30
0.0
 40
2.0
 50
90.0
 51
180.0
  0
ARC
  5
7E85
  8
1
 10
882.73148315171238
 20
1105.3769931789609
 30
0.0
 40
3.0
 50
225.0
 51
270.0
  0
LINE
  5
7E86
  8
1
 10
874.17508315171187
 20
1090.3769931789609
 30
0.0
 11
874.17508315171187
 21
1100.3769931789609
 31
0.0
  0
ARC
  5
7E87
  8
1
 10
716.17508315171187
 20
1100.3769931789609
 30
0.0
 40
2.0
 50
90.0
 51
180.0
  0
LINE
  5
7E88
  8
1
 10
714.17508315171199
 20
1090.3769931789609
 30
0.0
 11
754.17508315171199
 21
1090.3769931789609
 31
0.0
  0
LINE
  5
7E89
  8
1
 10
760.42848315171159
 20
1104.6304931789609
 30
0.0
 11
754.17508315171199
 21
1098.3769931789609
 31
0.0
  0
LINE
  5
7E8A
  8
1
 10
715.26588315171193
 20
1102.416493178961
 30
0.0
 11
731.38458315171192
 21
1132.5507931789609
 31
0.0
  0
LINE
  5
7E8B
  8
1
 10
753.59298315171225
 20
1109.1086931789609
 30
0.0
 11
747.74008315171147
 21
1103.2556931789611
 31
0.0
  0
LINE
  5
7E8C
  8
1
 10
716.17508315171187
 20
1102.3769931789609
 30
0.0
 11
752.17508315171187
 21
1102.3769931789609
 31
0.0
  0
ARC
  5
7E8D
  8
1
 10
745.61868315171159
 20
1105.3769931789609
 30
0.0
 40
3.0
 50
270.0
 51
315.0
  0
ARC
  5
7E8E
  8
1
 10
752.17508315171187
 20
1100.3769931789609
 30
0.0
 40
2.0
 50
0.0
 51
90.0
  0
LINE
  5
7E8F
  8
1
 10
754.17508315171199
 20
1090.3769931789609
 30
0.0
 11
754.17508315171199
 21
1100.3769931789609
 31
0.0
  0
LINE
  5
7E90
  8
1
 10
740.17508315171187
 20
1090.3769931789609
 30
0.0
 11
740.17508315171187
 21
1102.3769931789609
 31
0.0
  0
LINE
  5
7E91
  8
1
 10
728.17508315171187
 20
1102.3769931789609
 30
0.0
 11
728.17508315171187
 21
1090.3769931789609
 31
0.0
  0
LINE
  5
7E92
  8
1
 10
734.17508315171199
 20
1103.7574931789611
 30
0.0
 11
734.17508315171199
 21
1086.4103931789609
 31
0.0
  0
LINE
  5
7E93
  8
1
 10
714.17508315171199
 20
1090.3769931789609
 30
0.0
 11
714.17508315171199
 21
1100.3769931789609
 31
0.0
  0
LINE
  5
7E95
  8
1
 10
1742.4617778292611
 20
1290.3769931789591
 30
0.0
 11
1667.1220778292609
 21
1290.3769931789591
 31
0.0
  0
LINE
  5
7E96
  8
1
 10
1668.689027973305
 20
1090.3769931789591
 30
0.0
 11
1658.46177782926
 21
1090.3769931789591
 31
0.0
  0
LINE
  5
7E97
  8
1
 10
1659.46177782926
 20
1291.1769931789599
 30
0.0
 11
1659.46177782926
 21
1140.3769931789591
 31
0.0
  0
LINE
  5
7E98
  8
1
 10
1619.46177782926
 20
1094.3769931789591
 30
0.0
 11
1619.46177782926
 21
1289.6769931789599
 31
0.0
  0
LINE
  5
7E99
  8
1
 10
1569.46177782926
 20
1106.8240931789589
 30
0.0
 11
1569.46177782926
 21
1273.957893178959
 31
0.0
  0
LINE
  5
7E9A
  8
1
 10
1645.46177782926
 20
1131.3769931789591
 30
0.0
 11
1659.46177782926
 21
1140.3769931789591
 31
0.0
  0
LINE
  5
7E9B
  8
1
 10
1645.3622778292611
 20
1105.3769931789591
 30
0.0
 11
1663.46177782926
 21
1105.3769931789591
 31
0.0
  0
LINE
  5
7E9C
  8
1
 10
1619.46177782926
 20
1094.3769931789591
 30
0.0
 11
1570.8750778292599
 21
1105.0660931789589
 31
0.0
  0
ARC
  5
7E9D
  8
1
 10
1571.2615778292609
 20
1106.823893178959
 30
0.0
 40
1.7998000000000001
 50
179.99610000000001
 51
257.59829999999988
  0
LINE
  5
7E9E
  8
1
 10
1645.46177782926
 20
1093.3769931789591
 30
0.0
 11
1645.46177782926
 21
1131.3769931789591
 31
0.0
  0
LINE
  5
7E9F
  8
1
 10
1645.46177782926
 20
1093.3769931789591
 30
0.0
 11
1620.46177782926
 21
1093.3769931789591
 31
0.0
  0
ARC
  5
7EA0
  8
1
 10
1620.4618778292599
 20
1094.3769931789591
 30
0.0
 40
1.0000999999999991
 50
180.0
 51
269.99650000000003
  0
LINE
  5
7EA1
  8
1
 10
1660.4357778292599
 20
1102.402693178959
 30
0.0
 11
1673.1808937344899
 21
1102.56821905985
 31
0.0
  0
ARC
  5
7EA2
  8
1
 10
1660.46177782926
 20
1100.402793178959
 30
0.0
 40
2.0
 50
90.744900000000001
 51
179.99819999999991
  0
LINE
  5
7EA3
  8
1
 10
1658.46177782926
 20
1090.3769931789591
 30
0.0
 11
1658.46177782926
 21
1100.4028931789589
 31
0.0
  0
LINE
  5
7EA4
  8
1
 10
1666.46177782926
 20
1102.26179317896
 30
0.0
 11
1666.46177782926
 21
1090.3769931789591
 31
0.0
  0
LINE
  5
7EA5
  8
1
 10
1659.46177782926
 20
1291.1769931789599
 30
0.0
 11
1620.96177782926
 21
1291.1769931789599
 31
0.0
  0
LINE
  5
7EA6
  8
1
 10
1619.46177782926
 20
1287.3769931789591
 30
0.0
 11
1570.841677829261
 21
1275.7081931789601
 31
0.0
  0
ARC
  5
7EA7
  8
1
 10
1571.26167782926
 20
1273.957993178959
 30
0.0
 40
1.7999000000000001
 50
103.49339999999989
 51
180.00189999999989
  0
ARC
  5
7EA8
  8
1
 10
1620.96177782926
 20
1289.6769931789599
 30
0.0
 40
1.5
 50
90.0
 51
180.0
  0
LINE
  5
7EA9
  8
1
 10
1659.2934778292611
 20
1276.817693178959
 30
0.0
 11
1667.1220778292609
 21
1290.3769931789591
 31
0.0
  0
LINE
  5
7EAB
  8
1
 10
1817.8014778292611
 20
1290.3769931789591
 30
0.0
 11
1826.4617778292611
 21
1275.37699317896
 31
0.0
  0
LINE
  5
7EAC
  8
1
 10
1742.4617778292611
 20
1290.3769931789591
 30
0.0
 11
1817.8014778292611
 21
1290.3769931789591
 31
0.0
  0
LINE
  5
7EAD
  8
1
 10
1668.689027973305
 20
1090.3769931789591
 30
0.0
 11
1619.93409839584
 21
1090.3769931789591
 31
0.0
  0
LINE
  5
7EAE
  8
1
 10
1634.811177051826
 20
998.43022653427045
 30
0.0
 11
1619.93409839584
 21
1031.8882286283781
 31
0.0
  0
POLYLINE
  5
7EAF
  8
1
 66
     1
 10
0.0
 20
0.0
 30
0.0
  0
VERTEX
  5
891D
  8
1
 10
1619.93409839584
 20
1090.3769931789591
 30
0.0
  0
VERTEX
  5
891E
  8
1
 10
1619.93409839584
 20
1031.8882286283761
 30
0.0
  0
SEQEND
  5
891F
  8
1
  0
LINE
  5
7EB3
  8
1
 10
1024.175083151709
 20
1938.9673377261061
 30
0.0
 11
1024.1750831517079
 21
2248.9673377261161
 31
0.0
  0
LINE
  5
7EB4
  8
1
 10
604.17508315170915
 20
1938.9673377261061
 30
0.0
 11
604.17508315170915
 21
2248.9673377261051
 31
0.0
  0
LINE
  5
7EB5
  8
1
 10
1061.867371348349
 20
2218.967337726107
 30
0.0
 11
1031.1750831517079
 21
2218.967337726107
 31
0.0
  0
CIRCLE
  5
7EB6
  8
1
 10
1046.175083151709
 20
2218.967337726107
 30
0.0
 40
6.0
  0
LINE
  5
7EB7
  8
1
 10
1046.175083151709
 20
2235.102045608654
 30
0.0
 11
1046.175083151709
 21
2199.4349661042129
 31
0.0
  0
LINE
  5
7EB8
  8
1
 10
566.48279495506995
 20
1968.9673377261061
 30
0.0
 11
597.17508315171108
 21
1968.9673377261061
 31
0.0
  0
CIRCLE
  5
7EB9
  8
1
 10
582.17508315170915
 20
1968.9673377261061
 30
0.0
 40
6.0
  0
LINE
  5
7EBA
  8
1
 10
582.17508315171017
 20
1985.102045608654
 30
0.0
 11
582.17508315170915
 21
1949.4349661042129
 31
0.0
  0
CIRCLE
  5
7EBB
  8
1
 10
582.17508315170915
 20
2218.967337726107
 30
0.0
 40
6.0
  0
LINE
  5
7EBC
  8
1
 10
566.48279495506995
 20
2218.967337726107
 30
0.0
 11
597.17508315171108
 21
2218.967337726107
 31
0.0
  0
LINE
  5
7EBD
  8
1
 10
582.17508315171017
 20
2235.102045608654
 30
0.0
 11
582.17508315170915
 21
2199.4349661042129
 31
0.0
  0
LINE
  5
7EC4
  8
2
 10
1159.504383385397
 20
2370.9673377261061
 30
0.0
 11
536.51970627300568
 21
2370.9673377261061
 31
0.0
1001
ACAD
1000
ASC_BOUNDS
1002
{
1070
    19
1005
0
1005
0
1002
}
  0
ARC
  5
7EC9
  8
1
 10
632.67508315170653
 20
2250.967337726107
 30
0.0
 40
1.0
 50
180.0
 51
270.0
  0
LINE
  5
7ED1
  8
1
 10
730.62218315170685
 20
1933.6950171595261
 30
0.0
 11
897.75598315170635
 21
1933.6950171595261
 31
0.0
  0
LINE
  5
7ED3
  8
1
 10
914.17508315171017
 20
2106.6950171595258
 30
0.0
 11
914.17508315171017
 21
2031.3553171595261
 31
0.0
  0
LINE
  5
7ED5
  8
1
 10
914.97508315171035
 20
2023.6950171595261
 30
0.0
 11
713.37508315170987
 21
2023.6950171595261
 31
0.0
  0
LINE
  5
7ED6
  8
1
 10
718.17508315171006
 20
1983.6950171595261
 30
0.0
 11
913.47508315171035
 21
1983.6950171595261
 31
0.0
  0
LINE
  5
7ED7
  8
1
 10
730.62218315171037
 20
1933.6950171595261
 30
0.0
 11
897.7559831517101
 21
1933.6950171595261
 31
0.0
  0
LINE
  5
7ED8
  8
1
 10
914.97508315171035
 20
2023.6950171595261
 30
0.0
 11
914.97508315171035
 21
1985.1950171595261
 31
0.0
  0
LINE
  5
7ED9
  8
1
 10
911.17508315171006
 20
1983.6950171595261
 30
0.0
 11
899.50628315171059
 21
1935.074917159526
 31
0.0
  0
ARC
  5
7EDA
  8
1
 10
897.75608315171019
 20
1935.494917159526
 30
0.0
 40
1.7999000000000001
 50
269.99810000000002
 51
346.50659999999999
  0
ARC
  5
7EDB
  8
1
 10
913.47508315171035
 20
1985.1950171595261
 30
0.0
 40
1.5
 50
270.0
 51
0.0
  0
LINE
  5
7EDC
  8
1
 10
900.61578315171016
 20
2023.526717159526
 30
0.0
 11
914.17508315171017
 21
2031.3553171595261
 31
0.0
  0
LINE
  5
7EDD
  8
1
 10
896.17508315171017
 20
2228.6950171595258
 30
0.0
 11
732.17508315171017
 21
2228.6950171595258
 31
0.0
  0
LINE
  5
7EDE
  8
1
 10
800.17508315171006
 20
2239.6950171595258
 30
0.0
 11
800.17508315171006
 21
2244.5225832384831
 31
0.0
  0
LINE
  5
7EDF
  8
1
 10
914.17508315171017
 20
2182.0347171595272
 30
0.0
 11
899.17508315171006
 21
2190.6950171595258
 31
0.0
  0
LINE
  5
7EE0
  8
1
 10
914.17508315171017
 20
2106.6950171595258
 30
0.0
 11
914.17508315171017
 21
2182.0347171595272
 31
0.0
  0
LINE
  5
7EE1
  8
1
 10
729.17508315171006
 20
2193.6950171595258
 30
0.0
 11
899.17508315171006
 21
2193.6950171595258
 31
0.0
  0
LINE
  5
7EE2
  8
1
 10
777.17508315171017
 20
2234.6950171595258
 30
0.0
 11
851.17508315171006
 21
2234.6950171595258
 31
0.0
  0
ARC
  5
7EE3
  8
1
 10
777.17508315171017
 20
2231.6950171595258
 30
0.0
 40
2.9998999999999989
 50
89.998799999999989
 51
180.0011999999999
  0
LINE
  5
7EE4
  8
1
 10
774.17508315171006
 20
2228.6950171595258
 30
0.0
 11
774.17508315171006
 21
2231.6950171595258
 31
0.0
  0
LINE
  5
7EE5
  8
1
 10
799.57518315170989
 20
2234.6950171595258
 30
0.0
 11
799.57518315170989
 21
2248.9673377261101
 31
0.0
  0
LINE
  5
7EE6
  8
1
 10
828.77508315171042
 20
2234.6950171595258
 30
0.0
 11
828.77508315171042
 21
2248.9673377261111
 31
0.0
  0
ARC
  5
7EE7
  8
1
 10
896.17518315171026
 20
2225.6950171595258
 30
0.0
 40
2.9998999999999989
 50
359.9987999999999
 51
90.001199999999912
  0
LINE
  5
7EE8
  8
1
 10
899.17508315171006
 20
2193.6950171595258
 30
0.0
 11
899.17508315171006
 21
2225.6950171595258
 31
0.0
  0
LINE
  5
7EE9
  8
1
 10
899.17508315171006
 20
2193.6950171595258
 30
0.0
 11
899.17508315171006
 21
2190.6950171595258
 31
0.0
  0
ARC
  5
7EEA
  8
1
 10
851.17518315171037
 20
2231.6950171595258
 30
0.0
 40
2.9998999999999989
 50
359.9987999999999
 51
90.001199999999912
  0
LINE
  5
7EEB
  8
1
 10
854.17508315171017
 20
2228.6950171595258
 30
0.0
 11
854.17508315171017
 21
2231.6950171595258
 31
0.0
  0
LINE
  5
7EEC
  8
1
 10
717.17508315171006
 20
1983.6950171595261
 30
0.0
 11
728.84388315171054
 21
1935.074917159526
 31
0.0
  0
LINE
  5
7EED
  8
1
 10
713.37508315170987
 20
2023.6950171595261
 30
0.0
 11
713.37508315170987
 21
1985.1950171595261
 31
0.0
  0
ARC
  5
7EEE
  8
1
 10
730.59408315171004
 20
1935.494917159526
 30
0.0
 40
1.7999000000000001
 50
193.49339999999989
 51
270.00189999999992
  0
ARC
  5
7EEF
  8
1
 10
714.87508315170999
 20
1985.1950171595261
 30
0.0
 40
1.5
 50
180.0
 51
270.0
  0
LINE
  5
7EF0
  8
1
 10
727.73438315170995
 20
2023.526717159526
 30
0.0
 11
714.17508315171006
 21
2031.3553171595261
 31
0.0
  0
LINE
  5
7EF1
  8
1
 10
729.17508315171006
 20
2193.6950171595258
 30
0.0
 11
729.17508315171006
 21
2190.6950171595258
 31
0.0
  0
LINE
  5
7EF2
  8
1
 10
714.17508315171006
 20
2182.0347171595272
 30
0.0
 11
729.17508315171006
 21
2190.6950171595258
 31
0.0
  0
LINE
  5
7EF3
  8
1
 10
729.17508315171006
 20
2193.6950171595258
 30
0.0
 11
729.17508315171006
 21
2225.6950171595258
 31
0.0
  0
ARC
  5
7EF4
  8
1
 10
732.17498315170997
 20
2225.6950171595258
 30
0.0
 40
2.9998999999999989
 50
89.998800000000045
 51
180.00120000000001
  0
LINE
  5
7EF5
  8
1
 10
714.17508315171006
 20
2182.0347171595249
 30
0.0
 11
714.17508315171006
 21
2031.3553171595261
 31
0.0
  0
LINE
  5
7EFA
  8
1
 10
610.67508315171108
 20
1938.9673377261061
 30
0.0
 11
610.67508315171017
 21
2248.9673377261061
 31
0.0
  0
LINE
  5
7EFB
  8
1
 10
1017.6750831517101
 20
1938.9673377261149
 30
0.0
 11
1017.675083151711
 21
2248.9673377261161
 31
0.0
  0
POLYLINE
  5
7EFC
  8
1
 66
     1
 10
0.0
 20
0.0
 30
0.0
  0
VERTEX
  5
8920
  8
1
 10
1017.675083151711
 20
1987.3673377261071
 30
0.0
  0
VERTEX
  5
8921
  8
1
 10
914.97508315171035
 20
1987.3673377261059
 30
0.0
  0
SEQEND
  5
8922
  8
1
  0
POLYLINE
  5
7F00
  8
1
 66
     1
 10
0.0
 20
0.0
 30
0.0
  0
VERTEX
  5
8923
  8
1
 10
713.3750831517109
 20
1987.367337726105
 30
0.0
  0
VERTEX
  5
8924
  8
1
 10
610.67508315171108
 20
1987.367337726105
 30
0.0
  0
SEQEND
  5
8925
  8
1
  0
LINE
  5
7F04
  8
1
 10
1017.6750831517101
 20
1938.9673377261149
 30
0.0
 11
900.4404621663034
 21
1938.967337726112
 31
0.0
  0
LINE
  5
7F05
  8
1
 10
727.90970413711875
 20
1938.9673377261081
 30
0.0
 11
610.67508315171187
 21
1938.9673377261061
 31
0.0
  0
POLYLINE
  5
7F06
  8
1
 66
     1
 10
0.0
 20
0.0
 30
0.0
  0
VERTEX
  5
8926
  8
1
 10
1017.6750831517101
 20
2200.3673377261071
 30
0.0
  0
VERTEX
  5
8927
  8
1
 10
899.17508315171006
 20
2200.3673377261061
 30
0.0
  0
SEQEND
  5
8928
  8
1
  0
POLYLINE
  5
7F0A
  8
1
 66
     1
 10
0.0
 20
0.0
 30
0.0
  0
VERTEX
  5
8929
  8
1
 10
729.17508315171006
 20
2200.3673377261061
 30
0.0
  0
VERTEX
  5
892A
  8
1
 10
610.67508315171017
 20
2200.3673377261048
 30
0.0
  0
SEQEND
  5
892B
  8
1
  0
LINE
  5
7F1A
  8
4
 10
2220.0
 20
455.68512959208601
 30
0.0
 11
2220.0
 21
215.68512959208601
 31
0.0
  0
LINE
  5
7F1B
  8
4
 10
1380.0
 20
455.68512959208601
 30
0.0
 11
1380.0
 21
215.68512959208601
 31
0.0
  0
LINE
  5
7F1C
  8
4
 10
780.0
 20
455.68512959208601
 30
0.0
 11
780.0
 21
215.68512959208601
 31
0.0
  0
LINE
  5
7F1F
  8
4
 10
780.0
 20
215.68512959208601
 30
0.0
 11
2220.0
 21
215.68512959208601
 31
0.0
  0
LINE
  5
7F20
  8
4
 10
780.0
 20
335.68512959208601
 30
0.0
 11
2220.0
 21
335.68512959208601
 31
0.0
  0
TEXT
  5
7F21
  8
4
 10
826.20249701628188
 20
373.53676063202141
 30
0.0
 40
60.0
  1
機器名称
  0
TEXT
  5
7F22
  8
4
 10
823.509727229757
 20
241.65931767049909
 30
0.0
 40
60.0
  1
機器型番
  0
TEXT
  5
7F23
  8
4
 10
1413.2144945851969
 20
362.77125234116829
 30
0.0
 40
60.0
  1
ミツヤ多翼送風機
  0
TEXT
  5
7F24
  8
4
 10
1423.9853947025761
 20
236.27663072801801
 30
0.0
 40
60.0
  1
MF#2-7
  0
TEXT
  5
7F26
  8
4
 10
973.1750838961724
 20
2860.1146095990189
 30
0.0
 40
64.799999999999997
  1
天枠防振ベット
  0
TEXT
  5
7F27
  8
4
 10
379.40111199533561
 20
3040.6571714391571
 30
0.0
 40
86.400000000000006
  1
遠心式片吸込直動形多翼ファン
  0
LINE
  5
7F28
  8
4
 10
300.0
 20
2963.2905051177659
 30
0.0
 11
2220.0
 21
2963.2905051177659
 31
0.0
  0
LINE
  5
7F29
  8
4
 10
300.0
 20
3203.290505117765
 30
0.0
 11
2220.0
 21
3203.290505117765
 31
0.0
  0
LINE
  5
7F2A
  8
4
 10
780.0
 20
455.68512959208601
 30
0.0
 11
2220.0
 21
455.68512959208601
 31
0.0
  0
LINE
  5
7F2B
  8
4
 10
300.0
 20
3203.290505117765
 30
0.0
 11
300.0
 21
2963.2905051177659
 31
0.0
  0
TEXT
  5
7F2C
  8
4
 10
450.14448520492982
 20
2858.7833730556122
 30
0.0
 40
64.799999999999997
  1
左回転左横向
  0
TEXT
  5
7F2D
  8
4
 10
1762.763471099147
 20
3247.2732977943701
 30
0.0
 40
67.200000000000003
  1
No.
  0
TEXT
  5
7F2E
  8
4
 10
1573.555275120015
 20
2860.1146095990189
 30
0.0
 40
64.799999999999997
  1
縮尺：1/12
  0
LINE
  5
7F2F
  8
4
 10
2220.0
 20
3203.290505117765
 30
0.0
 11
2220.0
 21
2963.2905051177659
 31
0.0
  0
LINE
  5
7F30
  8
4
 10
2520.0
 20
3540.0
 30
0.0
 11
2520.0
 21
3540.0
 31
0.0
  0
LINE
  5
7F31
  8
4
 10
1728.740906831837
 20
3217.5162997504808
 30
0.0
 11
1728.740906831837
 21
3343.9827138597029
 31
0.0
  0
LINE
  5
7F32
  8
4
 10
1728.740906831837
 20
3343.9827138597029
 30
0.0
 11
2220.0
 21
3343.9827138597029
 31
0.0
  0
LINE
  5
7F33
  8
4
 10
2220.0
 20
3343.9827138597029
 30
0.0
 11
2220.0
 21
3217.5162997504808
 31
0.0
  0
LINE
  5
7F34
  8
4
 10
2220.0
 20
3217.5162997504808
 30
0.0
 11
1728.740906831837
 21
3217.5162997504808
 31
0.0
  0
LINE
  5
7F35
  8
4
 10
0.0
 20
0.0
 30
0.0
 11
0.0
 21
3540.0
 31
0.0
  0
LINE
  5
7F36
  8
4
 10
0.0
 20
3540.0
 30
0.0
 11
2520.0
 21
3540.0
 31
0.0
  0
LINE
  5
7F37
  8
4
 10
2520.0
 20
3540.0
 30
0.0
 11
2520.0
 21
0.0
 31
0.0
  0
LINE
  5
7F38
  8
4
 10
2520.0
 20
0.0
 30
0.0
 11
0.0
 21
0.0
 31
0.0
  0
DIMENSION
  5
7F5F
  8
3
  2
*D1
 10
359.83597786651097
 20
1190.3769931789541
 30
0.0
 11
359.8359778665108
 21
1368.135551079472
 31
0.0
 70
   128
 13
564.17508315170096
 23
1505.376993178957
 33
0.0
 14
564.17508315171062
 24
1190.3769931789529
 34
0.0
 50
90.0
1001
ACAD
1000
DSTYLE
1002
{
1070
   287
1070
     3
1070
   287
1070
     3
1070
    40
1040
12.0
1070
   143
1040
0.039
1070
   172
1070
     1
1070
   271
1070
     0
1070
   279
1070
     0
1070
   288
1070
     1
1002
}
  0
DIMENSION
  5
7F99
  8
3
  2
*D2
 10
356.96453966847179
 20
835.37699317896102
 30
0.0
 11
326.96453966847167
 21
1012.876993178961
 31
0.0
 70
     0
 13
524.8730576480466
 23
1190.3769931789609
 33
0.0
 14
564.17508315169925
 24
835.37699317896102
 34
0.0
 50
270.0
1001
ACAD
1000
DSTYLE
1002
{
1070
   287
1070
     3
1070
   287
1070
     3
1070
    40
1040
12.0
1070
   143
1040
0.039
1070
   172
1070
     1
1070
   271
1070
     0
1070
   279
1070
     0
1070
   288
1070
     1
1002
}
  0
DIMENSION
  5
8061
  8
3
  2
*D4
 10
2118.734098395842
 20
1551.8737085527
 30
0.0
 11
2006.4014834983279
 21
1551.8737085527
 31
0.0
 70
   128
 13
1894.734098395842
 23
1499.057316647574
 33
0.0
 14
2118.734098395842
 24
1493.8579525356299
 34
0.0
1001
ACAD
1000
DSTYLE
1002
{
1070
   287
1070
     3
1070
   287
1070
     3
1070
    40
1040
12.0
1070
   143
1040
0.039
1070
   172
1070
     1
1070
   271
1070
     0
1070
   279
1070
     0
1070
   288
1070
     1
1002
}
  0
DIMENSION
  5
8070
  8
3
  2
*D5
 10
2006.7340983958411
 20
1759.1236539350621
 30
0.0
 11
2067.252263940582
 21
1759.1236539350621
 31
0.0
 70
   128
 13
2127.7704294853229
 23
1373.0467065998371
 33
0.0
 14
2006.7340983958411
 24
1600.0841636237751
 34
0.0
1001
ACAD
1000
DSTYLE
1002
{
1070
   287
1070
     3
1070
   287
1070
     3
1070
    40
1040
12.0
1070
   143
1040
0.039
1070
   172
1070
     1
1070
   271
1070
     0
1070
   279
1070
     0
1070
   288
1070
     1
1002
}
  0
DIMENSION
  5
8089
  8
3
  2
*D6
 10
1569.46177782926
 20
1759.1236539350621
 30
0.0
 11
1788.0979381125501
 21
1798.5522253636329
 31
0.0
 70
     0
  1
(420)
 13
2006.7340983958411
 23
1600.0841636237751
 33
0.0
 14
1569.46177782926
 24
1273.957893178959
 34
0.0
1001
ACAD
1000
DSTYLE
1002
{
1070
   287
1070
     4
1070
   287
1070
     4
1070
    40
1040
12.0
1070
    75
1070
     1
1070
   143
1040
0.039
1070
   172
1070
     1
1070
   271
1070
     0
1070
   279
1070
     1
1070
   288
1070
     1
1002
}
  0
DIMENSION
  5
80AE
  8
3
  2
*D7
 10
2006.7340983958411
 20
609.69231711189605
 30
0.0
 11
1740.3725418097929
 21
643.70742433918713
 31
0.0
 70
   128
 13
1471.7340983958411
 23
773.37699317896136
 33
0.0
 14
2006.7340983958411
 24
825.00534081161004
 34
0.0
1001
ACAD
1000
DSTYLE
1002
{
1070
   288
1070
     1
1070
   172
1070
     1
1070
    40
1040
12.0
1070
   271
1070
     0
1070
   143
1040
0.039
1002
}
  0
DIMENSION
  5
80F4
  8
3
  2
*D8
 10
2361.8775977998371
 20
1032.8769931789591
 30
0.0
 11
2361.8775977998371
 21
1179.4432174303529
 31
0.0
 70
   128
 13
2127.7340983958411
 23
1347.8769931789591
 33
0.0
 14
2127.7340983958411
 24
1032.8769931789591
 34
0.0
 50
90.0
1001
ACAD
1000
DSTYLE
1002
{
1070
   287
1070
     3
1070
   287
1070
     3
1070
     3
1000
φ<>
1070
    40
1040
12.0
1070
   143
1040
0.039
1070
   172
1070
     1
1070
   271
1070
     0
1070
   279
1070
     0
1070
   288
1070
     1
1002
}
  0
POLYLINE
  5
81C0
  8
1
 66
     1
 10
0.0
 20
0.0
 30
0.0
  0
VERTEX
  5
8964
  8
1
 10
1088.3726479910219
 20
1190.3769931789609
 30
0.0
 42
-0.1730348317435523
  0
VERTEX
  5
8965
  8
1
 10
1019.175083151713
 20
1035.587582182394
 30
0.0
 42
-0.3171102270576576
  0
SEQEND
  5
8966
  8
1
  0
POLYLINE
  5
81C4
  8
1
 66
     1
 10
0.0
 20
0.0
 30
0.0
  0
VERTEX
  5
8967
  8
1
 10
633.51172009533184
 20
1090.3769931789609
 30
0.0
 42
-0.0510919105555148
  0
VERTEX
  5
8968
  8
1
 10
620.97461921697641
 20
1132.1356707136979
 30
0.0
 42
-0.3154517505481823
  0
SEQEND
  5
8969
  8
1
  0
DIMENSION
  5
81D4
  8
3
  2
*D9
 10
814.17508315170471
 20
1577.2153754587021
 30
0.0
 11
675.9639709804087
 21
1577.2153754587021
 31
0.0
 70
   128
 13
564.17508315170062
 23
1526.376993178957
 33
0.0
 14
814.17508315170471
 24
1561.9129061424819
 34
0.0
1001
ACAD
1000
DSTYLE
1002
{
1070
   287
1070
     3
1070
   287
1070
     3
1070
    40
1040
12.0
1070
   143
1040
0.039
1070
   172
1070
     1
1070
   271
1070
     0
1070
   279
1070
     0
1070
   288
1070
     1
1002
}
  0
DIMENSION
  5
81E0
  8
3
  2
*D10
 10
1078.175083151709
 20
1577.2153754587021
 30
0.0
 11
946.17508315170699
 21
1607.2153754587021
 31
0.0
 70
     0
 13
814.17508315170471
 23
1561.9129061424819
 33
0.0
 14
1078.175083151709
 24
1215.8769931789629
 34
0.0
1001
ACAD
1000
DSTYLE
1002
{
1070
   287
1070
     4
1070
   287
1070
     4
1070
    40
1040
12.0
1070
    75
1070
     1
1070
   143
1040
0.039
1070
   172
1070
     1
1070
   271
1070
     0
1070
   279
1070
     1
1070
   288
1070
     1
1002
}
  0
LINE
  5
81EE
  8
1
 10
564.17508315170562
 20
2503.9673377261051
 30
0.0
 11
564.17508315170505
 21
2237.967337726107
 31
0.0
  0
LINE
  5
81EF
  8
1
 10
584.17508315170505
 20
2465.1673377261068
 30
0.0
 11
584.17508315170505
 21
2276.7673377261071
 31
0.0
  0
LINE
  5
81F0
  8
1
 10
565.37508315170498
 20
2503.967337726107
 30
0.0
 11
565.37508315170498
 21
2237.9673377261061
 31
0.0
  0
LINE
  5
81F1
  8
1
 10
1078.1750831517079
 20
2468.967337726107
 30
0.0
 11
1078.175083151707
 21
2272.967337726107
 31
0.0
  0
LINE
  5
81F2
  8
2
 10
814.17508315170824
 20
1839.787311050841
 30
0.0
 11
814.17508315170824
 21
2511.968690172072
 31
0.0
  0
LINE
  5
81F3
  8
1
 10
814.17508315170824
 20
2483.9673377261051
 30
0.0
 11
1063.1750831517079
 21
2483.967337726107
 31
0.0
  0
ARC
  5
81FD
  8
1
 10
1063.1750831517079
 20
2468.967337726107
 30
0.0
 40
15.0
 50
0.0
 51
90.0
  0
ARC
  5
81FE
  8
1
 10
995.67508315170869
 20
2490.967337726107
 30
0.0
 40
1.0
 50
0.0
 51
90.000000000000057
  0
LINE
  5
81FF
  8
1
 10
996.67508315170869
 20
2483.9673377261061
 30
0.0
 11
996.67508315170869
 21
2490.967337726107
 31
0.0
  0
LINE
  5
8203
  8
1
 10
564.17508315170505
 20
2483.9673377261061
 30
0.0
 11
814.17508315170824
 21
2483.9673377261061
 31
0.0
  0
POLYLINE
  5
8204
  8
1
 66
     1
 10
0.0
 20
0.0
 30
0.0
  0
VERTEX
  5
897B
  8
1
 10
632.6750831517088
 20
2491.967337726107
 30
0.0
  0
VERTEX
  5
897C
  8
1
 10
814.1750831517088
 20
2491.9673377261079
 30
0.0
  0
VERTEX
  5
897D
  8
1
 10
995.67508315170869
 20
2491.9673377261079
 30
0.0
  0
SEQEND
  5
897E
  8
1
  0
LINE
  5
8209
  8
1
 10
565.37508315170498
 20
2483.9673377261061
 30
0.0
 11
584.17508315170505
 21
2465.1673377261068
 31
0.0
  0
LINE
  5
820A
  8
1
 10
564.17508315170562
 20
2503.9673377261061
 30
0.0
 11
565.37508315170498
 21
2503.9673377261061
 31
0.0
1001
ACAD
1000
ASC_BOUNDS
1002
{
1070
    19
1002
}
  0
LINE
  5
820B
  8
1
 10
631.67508315170915
 20
2484.9673377261051
 30
0.0
 11
631.67508315170869
 21
2490.967337726107
 31
0.0
  0
ARC
  5
820C
  8
1
 10
630.67508315170915
 20
2484.9673377261051
 30
0.0
 40
1.0
 50
270.0
 51
0.0
  0
ARC
  5
820D
  8
1
 10
632.6750831517088
 20
2490.967337726107
 30
0.0
 40
1.0
 50
89.999999999999943
 51
180.0
  0
LINE
  5
820F
  8
1
 10
814.1750831517079
 20
2257.9673377261101
 30
0.0
 11
1063.175083151707
 21
2257.9673377261061
 31
0.0
  0
POLYLINE
  5
8210
  8
1
 66
     1
 10
0.0
 20
0.0
 30
0.0
  0
VERTEX
  5
897F
  8
1
 10
834.50538593153215
 20
2249.9673377261061
 30
0.0
  0
VERTEX
  5
8980
  8
1
 10
995.67508315170755
 20
2249.967337726107
 30
0.0
  0
SEQEND
  5
8981
  8
1
  0
LINE
  5
8214
  8
1
 10
994.67508315170755
 20
2250.9673377261051
 30
0.0
 11
966.97438149227503
 21
2250.9673377261061
 31
0.0
  0
LINE
  5
8215
  8
1
 10
995.67508315170915
 20
2257.9673377261051
 30
0.0
 11
995.67508315170755
 21
2251.9673377261051
 31
0.0
  0
LINE
  5
8216
  8
1
 10
996.67508315170744
 20
2256.967337726107
 30
0.0
 11
996.67508315170744
 21
2250.9673377261051
 31
0.0
  0
ARC
  5
8217
  8
1
 10
1063.175083151707
 20
2272.967337726107
 30
0.0
 40
15.0
 50
270.0
 51
0.0
  0
ARC
  5
8218
  8
1
 10
997.67508315170744
 20
2256.967337726107
 30
0.0
 40
1.0
 50
90.0
 51
180.0
  0
ARC
  5
8219
  8
1
 10
994.67508315170755
 20
2251.967337726107
 30
0.0
 40
1.0
 50
269.9999999999992
 51
0.0
  0
ARC
  5
821A
  8
1
 10
995.67508315170755
 20
2250.967337726107
 30
0.0
 40
1.0
 50
269.99999999999977
 51
0.0
  0
ARC
  5
821B
  8
1
 10
993.82966333969887
 20
2291.5411908780052
 30
0.0
 40
48.656384192584412
 50
223.6316512768374
 51
236.49996633473509
  0
ARC
  5
821C
  8
1
 10
633.67508315170835
 20
2251.967337726107
 30
0.0
 40
1.0
 50
180.0
 51
270.00000000000068
  0
LINE
  5
821D
  8
1
 10
564.17508315170562
 20
2257.9673377261061
 30
0.0
 11
814.1750831517079
 21
2257.9673377261061
 31
0.0
  0
POLYLINE
  5
821E
  8
1
 66
     1
 10
0.0
 20
0.0
 30
0.0
  0
VERTEX
  5
8982
  8
1
 10
632.67508315170835
 20
2249.967337726107
 30
0.0
  0
VERTEX
  5
8983
  8
1
 10
814.17508315170824
 20
2249.9673377261061
 30
0.0
  0
VERTEX
  5
8984
  8
1
 10
834.50538593153215
 20
2249.9673377261061
 30
0.0
  0
SEQEND
  5
8985
  8
1
  0
ARC
  5
8223
  8
1
 10
634.52050296371806
 20
2291.5411908780052
 30
0.0
 40
48.656384192584412
 50
303.50003366526488
 51
316.3683487231628
  0
LINE
  5
8224
  8
1
 10
633.67508315170835
 20
2250.967337726107
 30
0.0
 11
661.37578481114258
 21
2250.967337726107
 31
0.0
  0
LINE
  5
8225
  8
1
 10
631.67508315170915
 20
2256.967337726107
 30
0.0
 11
631.67508315170835
 21
2250.967337726107
 31
0.0
  0
LINE
  5
8226
  8
1
 10
632.67508315170835
 20
2257.9673377261061
 30
0.0
 11
632.67508315170835
 21
2251.967337726107
 31
0.0
  0
LINE
  5
8227
  8
1
 10
565.37508315170498
 20
2257.9673377261061
 30
0.0
 11
584.17508315170562
 21
2276.7673377261071
 31
0.0
  0
ARC
  5
8228
  8
1
 10
630.67508315170915
 20
2256.967337726107
 30
0.0
 40
1.0
 50
0.0
 51
90.0
  0
LINE
  5
8229
  8
1
 10
564.17508315170562
 20
2237.967337726107
 30
0.0
 11
565.37508315170498
 21
2237.967337726107
 31
0.0
1001
ACAD
1000
ASC_BOUNDS
1002
{
1070
    19
1002
}
  0
ARC
  5
822A
  8
1
 10
632.67508315170835
 20
2250.967337726107
 30
0.0
 40
1.0
 50
180.0
 51
270.0
  0
LINE
  5
825E
  8
2
 10
2006.7340983958411
 20
1525.636605717513
 30
0.0
 11
2006.7340983958411
 21
822.95140044913126
 31
0.0
1001
ACAD
1000
ASC_BOUNDS
1002
{
1070
    19
1005
0
1005
0
1002
}
  0
LINE
  5
825F
  8
1
 10
1873.7340983958411
 20
1508.3769931789609
 30
0.0
 11
1873.7340983958411
 21
1349.3769931789609
 31
0.0
  0
LINE
  5
8260
  8
1
 10
2139.7340983958411
 20
1508.3769931789609
 30
0.0
 11
2139.734098395842
 21
1349.3769931789609
 31
0.0
  0
LINE
  5
8261
  8
1
 10
1893.73409839584
 20
1493.3769931789609
 30
0.0
 11
1893.7340983958411
 21
1349.3769931789609
 31
0.0
  0
LINE
  5
8262
  8
1
 10
2119.7340983958402
 20
1493.3769931789609
 30
0.0
 11
2119.7340983958411
 21
1349.3769931789609
 31
0.0
  0
LINE
  5
8263
  8
1
 10
1893.7340983958411
 20
1528.3769931789609
 30
0.0
 11
2119.7340983958411
 21
1528.3769931789609
 31
0.0
  0
LINE
  5
8264
  8
1
 10
1908.73409839584
 20
1508.3769931789609
 30
0.0
 11
2104.7340983958402
 21
1508.3769931789609
 31
0.0
  0
ARC
  5
8265
  8
1
 10
1898.067929971417
 20
1503.58470370949
 30
0.0
 40
24.801237822087149
 50
88.460833666865398
 51
168.85878284131431
  0
ARC
  5
8266
  8
1
 10
1908.73409839584
 20
1493.3769931789609
 30
0.0
 40
15.0
 50
90.0
 51
180.0
  0
ARC
  5
8267
  8
1
 10
2119.7340983958411
 20
1508.3769931789609
 30
0.0
 40
20.0
 50
0.0000000000000763
 51
90.0
  0
ARC
  5
8268
  8
1
 10
2104.7340983958402
 20
1493.3769931789609
 30
0.0
 40
15.0
 50
0.0000000000000763
 51
90.0
  0
POLYLINE
  5
826D
  8
1
 66
     1
 10
0.0
 20
0.0
 30
0.0
  0
VERTEX
  5
8986
  8
1
 10
1885.73409839584
 20
1170.0466903991339
 30
0.0
  0
VERTEX
  5
8987
  8
1
 10
1885.73409839584
 20
1008.8769931789579
 30
0.0
  0
SEQEND
  5
8988
  8
1
  0
POLYLINE
  5
8271
  8
1
 66
     1
 10
0.0
 20
0.0
 30
0.0
  0
VERTEX
  5
8989
  8
1
 10
2127.734098395842
 20
1371.87699317896
 30
0.0
  0
VERTEX
  5
898A
  8
1
 10
2127.7340983958411
 20
1008.8769931789579
 30
0.0
  0
SEQEND
  5
898B
  8
1
  0
LINE
  5
8275
  8
1
 10
2119.7340983958379
 20
1190.3769931789591
 30
0.0
 11
2119.7340983958411
 21
982.37699317895886
 31
0.0
  0
LINE
  5
8276
  8
1
 10
1893.7340983958429
 20
1190.37699317896
 30
0.0
 11
1893.7340983958411
 21
982.37699317895795
 31
0.0
  0
LINE
  5
827A
  8
1
 10
2119.7340983958402
 20
1190.3769931789591
 30
0.0
 11
2119.7340983958411
 21
1349.3769931789609
 31
0.0
  0
LINE
  5
827B
  8
1
 10
1893.73409839584
 20
1190.3769931789591
 30
0.0
 11
1893.7340983958411
 21
1349.3769931789609
 31
0.0
  0
LINE
  5
827C
  8
1
 10
1873.7340983958411
 20
1307.488914510659
 30
0.0
 11
1873.7340983958411
 21
1349.3769931789609
 31
0.0
  0
LINE
  5
827D
  8
1
 10
2139.7340983958411
 20
1190.3769931789609
 30
0.0
 11
2139.734098395842
 21
1349.3769931789609
 31
0.0
  0
LINE
  5
8283
  8
1
 10
1873.734098395842
 20
1440.37699317896
 30
0.0
 11
1873.734098395842
 21
1439.1769931789611
 31
0.0
1001
ACAD
1000
ASC_BOUNDS
1002
{
1070
    19
1002
}
  0
POLYLINE
  5
8290
  8
1
 66
     1
 10
0.0
 20
0.0
 30
0.0
  0
VERTEX
  5
898C
  8
1
 10
1885.73409839584
 20
1172.1523591655871
 30
0.0
  0
VERTEX
  5
898D
  8
1
 10
1885.73409839584
 20
1170.0466903991339
 30
0.0
  0
SEQEND
  5
898E
  8
1
  0
ARC
  5
829D
  8
1
 10
2119.7340983958411
 20
1190.3769931789609
 30
0.0
 40
20.0
 50
293.57817847820178
 51
359.99999999999977
  0
POLYLINE
  5
829E
  8
1
 66
     1
 10
0.0
 20
0.0
 30
0.0
  0
VERTEX
  5
898F
  8
1
 10
2127.734098395842
 20
1172.0466903991371
 30
0.0
  0
VERTEX
  5
8990
  8
1
 10
2127.734098395842
 20
1171.546690398985
 30
0.0
  0
SEQEND
  5
8991
  8
1
  0
LINE
  5
82A2
  8
1
 10
1908.7340983958411
 20
967.37699317895783
 30
0.0
 11
2104.7340983958402
 21
967.37699317895886
 31
0.0
  0
ARC
  5
82A3
  8
1
 10
1908.7340983958411
 20
982.37699317895795
 30
0.0
 40
15.0
 50
180.0
 51
270.0
  0
LINE
  5
82A5
  8
1
 10
1893.734098395842
 20
1007.876993178957
 30
0.0
 11
1886.7340983958411
 21
1007.876993178957
 31
0.0
  0
ARC
  5
82A6
  8
1
 10
1886.7340983958411
 20
1008.8769931789579
 30
0.0
 40
1.0
 50
179.99999999999989
 51
270.0
  0
ARC
  5
82A9
  8
1
 10
2104.7340983958402
 20
982.37699317895886
 30
0.0
 40
15.0
 50
270.0
 51
0.0
  0
LINE
  5
82AA
  8
1
 10
2126.734098395842
 20
1009.8769931789579
 30
0.0
 11
2126.734098395842
 21
1037.5776948383909
 31
0.0
  0
ARC
  5
82AB
  8
1
 10
2086.160245243942
 20
1010.722412990967
 30
0.0
 40
48.656384192584412
 50
33.500033665264873
 51
46.368348723162477
  0
LINE
  5
82AC
  8
1
 10
2120.7340983958402
 20
1007.8769931789579
 30
0.0
 11
2126.734098395842
 21
1007.8769931789579
 31
0.0
  0
LINE
  5
82AD
  8
1
 10
2119.7340983958429
 20
1008.876993178957
 30
0.0
 11
2125.7340983958429
 21
1008.8769931789579
 31
0.0
  0
ARC
  5
82AE
  8
1
 10
2126.7340983958411
 20
1008.8769931789579
 30
0.0
 40
1.0
 50
270.0
 51
0.0000000000000763
  0
ARC
  5
82AF
  8
1
 10
2125.7340983958411
 20
1009.8769931789579
 30
0.0
 40
1.0
 50
270.0
 51
0.0000000000007252
  0
ARC
  5
82B0
  8
1
 10
2120.7340983958402
 20
1006.8769931789579
 30
0.0
 40
1.0
 50
90.0
 51
180.0
  0
LINE
  5
8400
  8
1
 10
2120.7340983958402
 20
1372.87699317896
 30
0.0
 11
2126.734098395842
 21
1372.87699317896
 31
0.0
  0
LINE
  5
8401
  8
1
 10
2119.7340983958429
 20
1371.876993178962
 30
0.0
 11
2125.7340983958429
 21
1371.87699317896
 31
0.0
  0
ARC
  5
8402
  8
1
 10
2086.160245243942
 20
1370.0315733669511
 30
0.0
 40
48.656384192584412
 50
313.63165127683749
 51
326.49996633473512
  0
ARC
  5
8403
  8
1
 10
2120.7340983958402
 20
1373.87699317896
 30
0.0
 40
1.0
 50
180.0
 51
270.0
  0
LINE
  5
8404
  8
1
 10
2126.734098395842
 20
1370.87699317896
 30
0.0
 11
2126.734098395842
 21
1343.1762915195279
 31
0.0
  0
ARC
  5
8405
  8
1
 10
2126.7340983958411
 20
1371.87699317896
 30
0.0
 40
1.0
 50
359.99999999999977
 51
90.0
  0
ARC
  5
8406
  8
1
 10
2125.7340983958411
 20
1370.87699317896
 30
0.0
 40
1.0
 50
359.9999999999992
 51
90.0
  0
ARC
  5
8407
  8
1
 10
1886.7340983958411
 20
1371.8769931789609
 30
0.0
 40
1.0
 50
90.0
 51
180.0
  0
LINE
  5
8408
  8
1
 10
1893.734098395842
 20
1372.8769931789609
 30
0.0
 11
1886.7340983958411
 21
1372.8769931789609
 31
0.0
  0
LINE
  5
840D
  8
1
 10
1016.875083151712
 20
893.57699317896106
 30
0.0
 11
979.1750831517129
 21
893.57699317896106
 31
0.0
  0
LINE
  5
840E
  8
1
 10
649.17508315171187
 20
893.57699317896106
 30
0.0
 11
611.47508315171297
 21
893.57699317896106
 31
0.0
  0
LINE
  5
847A
  8
1
 10
1134.1750831517111
 20
813.37699317896113
 30
0.0
 11
494.17508315171187
 21
813.37699317896113
 31
0.0
  0
LINE
  5
847B
  8
2
 10
814.17508315171199
 20
746.2637329659583
 30
0.0
 11
814.17508315171199
 21
1561.9129061424819
 31
0.0
  0
LINE
  5
847D
  8
2
 10
509.23157330413949
 20
1190.3769931789609
 30
0.0
 11
1103.4771086553701
 21
1190.3769931789609
 31
0.0
  0
LINE
  5
8481
  8
1
 10
1214.175083151712
 20
773.37699317896113
 30
0.0
 11
1214.175083151712
 21
1673.3769931789609
 31
0.0
  0
LINE
  5
8482
  8
1
 10
414.17508315171199
 20
773.3769931789609
 30
0.0
 11
414.17508315171199
 21
1673.3769931789609
 31
0.0
  0
LINE
  5
8483
  8
1
 10
1214.175083151712
 20
773.37699317896113
 30
0.0
 11
414.17508315171199
 21
773.37699317896113
 31
0.0
  0
LINE
  5
8484
  8
1
 10
454.17508315171187
 20
853.37699317896056
 30
0.0
 11
454.17508315171187
 21
1593.3769931789609
 31
0.0
  0
LINE
  5
8485
  8
1
 10
1174.1750831517111
 20
853.37699317896124
 30
0.0
 11
1174.1750831517111
 21
1593.3769931789609
 31
0.0
  0
LINE
  5
8486
  8
1
 10
1214.175083151712
 20
1673.3769931789609
 30
0.0
 11
414.17508315171199
 21
1673.3769931789609
 31
0.0
  0
LINE
  5
8487
  8
1
 10
1134.1750831517111
 20
1633.3769931789609
 30
0.0
 11
494.17508315171108
 21
1633.3769931789609
 31
0.0
  0
LINE
  5
8488
  8
1
 10
1214.175083151712
 20
853.37699317896124
 30
0.0
 11
1174.1750831517111
 21
853.37699317896124
 31
0.0
  0
LINE
  5
8489
  8
1
 10
1134.1750831517111
 20
773.37699317896113
 30
0.0
 11
1134.1750831517111
 21
813.37699317896113
 31
0.0
  0
LINE
  5
848A
  8
1
 10
1174.1750831517111
 20
853.37699317896124
 30
0.0
 11
1134.1750831517111
 21
813.37699317896113
 31
0.0
  0
LINE
  5
848B
  8
1
 10
1134.1750831517111
 20
1673.3769931789609
 30
0.0
 11
1134.1750831517111
 21
1633.3769931789609
 31
0.0
  0
LINE
  5
848C
  8
1
 10
1174.1750831517111
 20
1593.3769931789609
 30
0.0
 11
1134.1750831517111
 21
1633.3769931789609
 31
0.0
  0
LINE
  5
848D
  8
1
 10
1214.175083151712
 20
1593.3769931789609
 30
0.0
 11
1174.1750831517111
 21
1593.3769931789609
 31
0.0
  0
LINE
  5
848E
  8
1
 10
454.17508315171187
 20
853.37699317896124
 30
0.0
 11
494.17508315171187
 21
813.37699317896113
 31
0.0
  0
LINE
  5
848F
  8
1
 10
494.17508315171187
 20
773.37699317896113
 30
0.0
 11
494.17508315171108
 21
813.37699317896113
 31
0.0
  0
LINE
  5
8490
  8
1
 10
414.17508315171199
 20
853.37699317896124
 30
0.0
 11
454.17508315171187
 21
853.37699317896124
 31
0.0
  0
LINE
  5
8491
  8
1
 10
494.17508315171187
 20
1673.3769931789609
 30
0.0
 11
494.17508315171108
 21
1633.3769931789609
 31
0.0
  0
LINE
  5
8492
  8
1
 10
454.17508315171187
 20
1593.3769931789609
 30
0.0
 11
494.17508315171187
 21
1633.3769931789609
 31
0.0
  0
LINE
  5
8493
  8
1
 10
414.17508315171199
 20
1593.3769931789609
 30
0.0
 11
454.17508315171187
 21
1593.3769931789609
 31
0.0
  0
LINE
  5
8494
  8
1
 10
2271.734098395842
 20
1673.3769931789609
 30
0.0
 11
2271.7340983958402
 21
773.3769931789609
 31
0.0
1001
ACAD
1000
ASC_BOUNDS
1002
{
1070
    19
1002
}
  0
LINE
  5
8495
  8
1
 10
1471.7340983958411
 20
1673.3769931789609
 30
0.0
 11
1471.7340983958411
 21
773.37699317896113
 31
0.0
1001
ACAD
1000
ASC_BOUNDS
1002
{
1070
    19
1002
}
  0
LINE
  5
8496
  8
1
 10
1511.7340983958411
 20
1593.37699317896
 30
0.0
 11
1511.7340983958411
 21
853.37699317896192
 31
0.0
1001
ACAD
1000
ASC_BOUNDS
1002
{
1070
    19
1002
}
  0
LINE
  5
8497
  8
1
 10
2231.734098395842
 20
1593.37699317896
 30
0.0
 11
2231.7340983958402
 21
853.37699317896124
 31
0.0
1001
ACAD
1000
ASC_BOUNDS
1002
{
1070
    19
1002
}
  0
LINE
  5
8498
  8
1
 10
2271.734098395842
 20
1673.3769931789609
 30
0.0
 11
1471.7340983958411
 21
1673.3769931789609
 31
0.0
  0
LINE
  5
8499
  8
1
 10
2191.7340983958402
 20
1633.3769931789609
 30
0.0
 11
1551.734098395842
 21
1633.3769931789609
 31
0.0
  0
LINE
  5
849A
  8
1
 10
2271.7340983958411
 20
773.37699317896113
 30
0.0
 11
1471.7340983958411
 21
773.37699317896136
 31
0.0
  0
LINE
  5
849B
  8
1
 10
2191.7340983958402
 20
813.37699317896113
 30
0.0
 11
1596.734098395842
 21
813.37699317896113
 31
0.0
  0
LINE
  5
849C
  8
1
 10
2271.7340983958411
 20
853.37699317896124
 30
0.0
 11
2231.7340983958402
 21
853.37699317896136
 31
0.0
  0
LINE
  5
849D
  8
1
 10
2191.7340983958402
 20
813.37699317896113
 30
0.0
 11
2191.7340983958402
 21
773.37699317896113
 31
0.0
1001
ACAD
1000
ASC_BOUNDS
1002
{
1070
    19
1002
}
  0
LINE
  5
849E
  8
1
 10
2231.7340983958402
 20
853.37699317896124
 30
0.0
 11
2191.7340983958402
 21
813.37699317896113
 31
0.0
  0
LINE
  5
849F
  8
1
 10
2271.7340983958411
 20
1593.3769931789609
 30
0.0
 11
2231.7340983958402
 21
1593.3769931789609
 31
0.0
  0
LINE
  5
84A0
  8
1
 10
2191.7340983958402
 20
1633.3769931789609
 30
0.0
 11
2191.7340983958402
 21
1673.3769931789609
 31
0.0
1001
ACAD
1000
ASC_BOUNDS
1002
{
1070
    19
1002
}
  0
LINE
  5
84A1
  8
1
 10
2231.7340983958402
 20
1593.3769931789609
 30
0.0
 11
2191.7340983958402
 21
1633.3769931789609
 31
0.0
  0
LINE
  5
84A2
  8
1
 10
1471.734098395842
 20
853.37699317896124
 30
0.0
 11
1511.734098395842
 21
853.37699317896136
 31
0.0
  0
LINE
  5
84A3
  8
1
 10
1551.734098395842
 20
813.37699317896113
 30
0.0
 11
1551.734098395842
 21
773.37699317896113
 31
0.0
1001
ACAD
1000
ASC_BOUNDS
1002
{
1070
    19
1002
}
  0
LINE
  5
84A4
  8
1
 10
1511.734098395842
 20
853.37699317896124
 30
0.0
 11
1551.734098395842
 21
813.37699317896113
 31
0.0
  0
LINE
  5
84A5
  8
1
 10
1551.734098395842
 20
1633.3769931789609
 30
0.0
 11
1551.734098395842
 21
1673.3769931789609
 31
0.0
1001
ACAD
1000
ASC_BOUNDS
1002
{
1070
    19
1002
}
  0
LINE
  5
84A6
  8
1
 10
1471.734098395842
 20
1593.3769931789609
 30
0.0
 11
1511.734098395842
 21
1593.3769931789609
 31
0.0
  0
LINE
  5
84A7
  8
1
 10
1511.734098395842
 20
1593.3769931789609
 30
0.0
 11
1551.734098395842
 21
1633.3769931789609
 31
0.0
  0
LINE
  5
84A8
  8
1
 10
1214.1750831517079
 20
1835.967337726107
 30
0.0
 11
1214.1750831517079
 21
2635.967337726107
 31
0.0
  0
LINE
  5
84A9
  8
1
 10
414.17508315170829
 20
1835.967337726107
 30
0.0
 11
414.17508315170829
 21
2635.967337726107
 31
0.0
  0
LINE
  5
84AA
  8
1
 10
414.17508315170829
 20
1835.967337726107
 30
0.0
 11
1214.1750831517079
 21
1835.967337726107
 31
0.0
1001
ACAD
1000
ASC_BOUNDS
1002
{
1070
    19
1002
}
  0
LINE
  5
84AB
  8
1
 10
414.17508315170829
 20
2635.967337726107
 30
0.0
 11
1214.1750831517079
 21
2635.967337726107
 31
0.0
1001
ACAD
1000
ASC_BOUNDS
1002
{
1070
    19
1002
}
  0
LINE
  5
84AC
  8
1
 10
454.17508315170841
 20
1875.9673377261061
 30
0.0
 11
454.17508315170841
 21
2595.9673377261061
 31
0.0
  0
LINE
  5
84AD
  8
1
 10
454.17508315170841
 20
2595.9673377261061
 30
0.0
 11
1174.1750831517079
 21
2595.9673377261061
 31
0.0
1001
ACAD
1000
ASC_BOUNDS
1002
{
1070
    19
1002
}
  0
LINE
  5
84AE
  8
1
 10
1174.1750831517079
 20
1875.9673377261061
 30
0.0
 11
1174.1750831517079
 21
2595.9673377261061
 31
0.0
  0
LINE
  5
84AF
  8
1
 10
454.17508315170841
 20
1875.9673377261061
 30
0.0
 11
1174.1750831517079
 21
1875.9673377261061
 31
0.0
1001
ACAD
1000
ASC_BOUNDS
1002
{
1070
    19
1002
}
  0
DIMENSION
  5
84D5
  8
3
  2
*D11
 10
356.96453966847179
 20
813.37699317896113
 30
0.0
 11
299.53596823990023
 21
824.37699317896113
 31
0.0
 12
0.0
 22
-174.55621545627579
 32
0.0
 70
     0
  1
(<>)
 13
564.17508315169925
 23
835.37699317896102
 33
0.0
 14
494.17508315171108
 24
813.37699317896113
 34
0.0
 50
90.0
1001
ACAD
1000
DSTYLE
1002
{
1070
   288
1070
     1
1070
   172
1070
     1
1070
    75
1070
     1
1070
    40
1040
12.0
1070
   271
1070
     0
1070
     7
1000
_DOT
1070
   143
1040
0.039
1002
}
  0
DIMENSION
  5
84E5
  8
3
  2
*D12
 10
356.96453966847179
 20
773.37699317896113
 30
0.0
 11
326.96453966847167
 21
684.23413603610413
 31
0.0
 70
     0
 13
494.17508315171108
 23
813.37699317896113
 33
0.0
 14
414.17508315171199
 24
773.37699317896113
 34
0.0
 50
90.0
1001
ACAD
1000
DSTYLE
1002
{
1070
   287
1070
     3
1070
   287
1070
     3
1070
    40
1040
12.0
1070
   143
1040
0.039
1070
   172
1070
     1
1070
   271
1070
     0
1070
   279
1070
     0
1070
   288
1070
     1
1070
     6
1000
DOT
1002
}
  0
DIMENSION
  5
8530
  8
3
  2
*D13
 10
814.17508315171199
 20
674.6752515990928
 30
0.0
 11
586.11115019333545
 21
674.6752515990928
 31
0.0
 70
   128
 13
414.17508315171199
 23
773.37699317896113
 33
0.0
 14
814.17508315171199
 24
746.2637329659583
 34
0.0
1001
ACAD
1000
DSTYLE
1002
{
1070
   287
1070
     3
1070
   287
1070
     3
1070
    40
1040
12.0
1070
   143
1040
0.039
1070
   172
1070
     1
1070
   271
1070
     0
1070
   279
1070
     0
1070
   288
1070
     1
1002
}
  0
DIMENSION
  5
853C
  8
3
  2
*D14
 10
1214.175083151712
 20
674.6752515990928
 30
0.0
 11
1014.175083151712
 21
704.67525159909292
 31
0.0
 70
     0
 13
814.17508315171199
 23
746.2637329659583
 33
0.0
 14
1214.175083151712
 24
773.37699317896113
 34
0.0
1001
ACAD
1000
DSTYLE
1002
{
1070
   287
1070
     4
1070
   287
1070
     4
1070
    40
1040
12.0
1070
    75
1070
     1
1070
   143
1040
0.039
1070
   172
1070
     1
1070
   271
1070
     0
1070
   279
1070
     1
1070
   288
1070
     1
1002
}
  0
DIMENSION
  5
855E
  8
3
  2
*D15
 10
2271.7340983958402
 20
609.69231711189605
 30
0.0
 11
2139.2340983958402
 21
639.69231711189605
 31
0.0
 70
     0
 13
2006.7340983958411
 23
825.00534081161004
 33
0.0
 14
2271.7340983958402
 24
773.37699317896113
 34
0.0
1001
ACAD
1000
DSTYLE
1002
{
1070
   287
1070
     4
1070
   287
1070
     4
1070
    40
1040
12.0
1070
    75
1070
     1
1070
   143
1040
0.039
1070
   172
1070
     1
1070
   271
1070
     0
1070
   279
1070
     1
1070
   288
1070
     1
1002
}
  0
DIMENSION
  5
858D
  8
3
  2
*D16
 10
1214.1750831517079
 20
2743.6390555125108
 30
0.0
 11
814.10376595039077
 21
2743.6390555125108
 31
0.0
 70
   128
 13
414.17508315170829
 23
2635.967337726107
 33
0.0
 14
1214.1750831517079
 24
2635.967337726107
 34
0.0
1001
ACAD
1000
DSTYLE
1002
{
1070
   287
1070
     3
1070
   287
1070
     3
1070
    40
1040
12.0
1070
   143
1040
0.039
1070
   172
1070
     1
1070
   271
1070
     0
1070
   279
1070
     0
1070
   288
1070
     1
1002
}
  0
DIMENSION
  5
859A
  8
3
  2
*D17
 10
1345.192931355243
 20
1835.967337726107
 30
0.0
 11
1345.1929313552421
 21
2223.846156065209
 31
0.0
 70
   128
 13
1214.1750831517079
 23
2635.967337726107
 33
0.0
 14
1214.1750831517079
 24
1835.967337726107
 34
0.0
 50
90.0
1001
ACAD
1000
DSTYLE
1002
{
1070
   287
1070
     3
1070
   287
1070
     3
1070
    40
1040
12.0
1070
   143
1040
0.039
1070
   172
1070
     1
1070
   271
1070
     0
1070
   279
1070
     0
1070
   288
1070
     1
1002
}
  0
DIMENSION
  5
85D8
  8
3
  2
*D18
 10
1377.061102829244
 20
773.37699317896136
 30
0.0
 11
1377.061102829244
 21
1112.544375981709
 31
0.0
 70
   128
 13
1471.7340983958411
 23
1673.3769931789609
 33
0.0
 14
1471.7340983958411
 24
773.37699317896136
 34
0.0
 50
90.0
1001
ACAD
1000
DSTYLE
1002
{
1070
   287
1070
     3
1070
   287
1070
     3
1070
    40
1040
12.0
1070
   143
1040
0.039
1070
   172
1070
     1
1070
   271
1070
     0
1070
   279
1070
     0
1070
   288
1070
     1
1002
}
  0
ENDSEC
  0
EOF
