  0
SECTION
  2
HEADER
  9
$ACADVER
  1
AC1009
  9
$INSBASE
 10
0.0
 20
0.0
 30
0.0
  9
$EXTMIN
 10
17345.597715035088
 20
2822.8097917420341
 30
0.0
  9
$EXTMAX
 10
20495.597715035088
 20
7247.8097917420337
 30
0.0
  9
$LIMMIN
 10
0.0
 20
0.0
  9
$LIMMAX
 10
297.0
 20
210.0
  9
$ORTHOMODE
 70
     0
  9
$REGENMODE
 70
     1
  9
$FILLMODE
 70
     1
  9
$QTEXTMODE
 70
     0
  9
$MIRRTEXT
 70
     0
  9
$DRAGMODE
 70
     2
  9
$LTSCALE
 40
75.0
  9
$OSMODE
 70
   545
  9
$ATTMODE
 70
     1
  9
$TEXTSIZE
 40
3.5
  9
$TRACEWID
 40
0.05
  9
$TEXTSTYLE
  7
STANDARD
  9
$CLAYER
  8
SP
  9
$CELTYPE
  6
BYLAYER
  9
$CECOLOR
 62
   256
  9
$DIMSCALE
 40
15.0
  9
$DIMASZ
 40
2.5
  9
$DIMEXO
 40
1.0
  9
$DIMDLI
 40
7.0
  9
$DIMRND
 40
0.0
  9
$DIMDLE
 40
0.0
  9
$DIMEXE
 40
1.0
  9
$DIMTP
 40
0.0
  9
$DIMTM
 40
0.0
  9
$DIMTXT
 40
3.0
  9
$DIMCEN
 40
0.0
  9
$DIMTSZ
 40
0.0
  9
$DIMTOL
 70
     0
  9
$DIMLIM
 70
     0
  9
$DIMTIH
 70
     0
  9
$DIMTOH
 70
     0
  9
$DIMSE1
 70
     0
  9
$DIMSE2
 70
     0
  9
$DIMTAD
 70
     1
  9
$DIMZIN
 70
     8
  9
$DIMBLK
  1

  9
$DIMASO
 70
     1
  9
$DIMSHO
 70
     1
  9
$DIMPOST
  1

  9
$DIMAPOST
  1

  9
$DIMALT
 70
     0
  9
$DIMALTD
 70
     2
  9
$DIMALTF
 40
0.03937
  9
$DIMLFAC
 40
1.0
  9
$DIMTOFL
 70
     1
  9
$DIMTVP
 40
0.0
  9
$DIMTIX
 70
     0
  9
$DIMSOXD
 70
     0
  9
$DIMSAH
 70
     1
  9
$DIMBLK1
  1
OPEN
  9
$DIMBLK2
  1
OPEN
  9
$DIMSTYLE
  2
GOD
  9
$DIMCLRD
 70
   256
  9
$DIMCLRE
 70
   256
  9
$DIMCLRT
 70
   256
  9
$DIMTFAC
 40
1.0
  9
$DIMGAP
 40
1.0
  9
$LUNITS
 70
     2
  9
$LUPREC
 70
     3
  9
$SKETCHINC
 40
0.1
  9
$FILLETRAD
 40
0.0
  9
$AUNITS
 70
     0
  9
$AUPREC
 70
     2
  9
$MENU
  1
acad
  9
$ELEVATION
 40
0.0
  9
$PELEVATION
 40
0.0
  9
$THICKNESS
 40
0.0
  9
$LIMCHECK
 70
     0
  9
$BLIPMODE
 70
     0
  9
$CHAMFERA
 40
0.0
  9
$CHAMFERB
 40
0.0
  9
$SKPOLY
 70
     0
  9
$TDCREATE
 40
2454939.604632488
  9
$TDUPDATE
 40
2455012.40671875
  9
$TDINDWG
 40
0.1820522338
  9
$TDUSRTIMER
 40
0.1820522338
  9
$USRTIMER
 70
     1
  9
$ANGBASE
 50
0.0
  9
$ANGDIR
 70
     0
  9
$PDMODE
 70
     0
  9
$PDSIZE
 40
1.0
  9
$PLINEWID
 40
0.0
  9
$COORDS
 70
     2
  9
$SPLFRAME
 70
     0
  9
$SPLINETYPE
 70
     6
  9
$SPLINESEGS
 70
     8
  9
$ATTDIA
 70
     0
  9
$ATTREQ
 70
     1
  9
$HANDLING
 70
 22529
  9
$HANDSEED
  5
75FF
  9
$SURFTAB1
 70
     6
  9
$SURFTAB2
 70
     6
  9
$SURFTYPE
 70
     6
  9
$SURFU
 70
     6
  9
$SURFV
 70
     6
  9
$UCSNAME
  2

  9
$UCSORG
 10
0.0
 20
0.0
 30
0.0
  9
$UCSXDIR
 10
1.0
 20
0.0
 30
0.0
  9
$UCSYDIR
 10
0.0
 20
1.0
 30
0.0
  9
$PUCSNAME
  2

  9
$PUCSORG
 10
0.0
 20
0.0
 30
0.0
  9
$PUCSXDIR
 10
1.0
 20
0.0
 30
0.0
  9
$PUCSYDIR
 10
0.0
 20
1.0
 30
0.0
  9
$USERI1
 70
     0
  9
$USERI2
 70
     0
  9
$USERI3
 70
     0
  9
$USERI4
 70
     0
  9
$USERI5
 70
     0
  9
$USERR1
 40
0.0
  9
$USERR2
 40
0.0
  9
$USERR3
 40
0.0
  9
$USERR4
 40
0.0
  9
$USERR5
 40
0.0
  9
$WORLDVIEW
 70
     1
  9
$SHADEDGE
 70
     3
  9
$SHADEDIF
 70
    70
  9
$TILEMODE
 70
     1
  9
$MAXACTVP
 70
    16
  9
$PLIMCHECK
 70
     0
  9
$PEXTMIN
 10
1.0000000000000000E+020
 20
1.0000000000000000E+020
 30
1.0000000000000000E+020
  9
$PEXTMAX
 10
-1.0000000000000000E+020
 20
-1.0000000000000000E+020
 30
-1.0000000000000000E+020
  9
$PLIMMIN
 10
0.0
 20
0.0
  9
$PLIMMAX
 10
12.0
 20
9.0
  9
$UNITMODE
 70
     0
  9
$VISRETAIN
 70
     0
  9
$PLINEGEN
 70
     0
  9
$PSLTSCALE
 70
     0
  0
ENDSEC
  0
SECTION
  2
TABLES
  0
TABLE
  2
VPORT
 70
     2
  0
VPORT
  2
*ACTIVE
 70
     0
 10
0.0
 20
0.0
 11
1.0
 21
1.0
 12
18920.805562554298
 22
5035.3455343097394
 13
0.0
 23
0.0
 14
5.0
 24
5.0
 15
0.0
 25
0.0
 16
0.0
 26
0.0
 36
1.0
 17
0.0
 27
0.0
 37
0.0
 40
4461.4963967149361
 41
1.6307901907356941
 42
50.0
 43
0.0
 44
0.0
 50
0.0
 51
0.0
 71
     0
 72
   100
 73
     1
 74
     0
 75
     0
 76
     0
 77
     0
 78
     0
  0
ENDTAB
  0
TABLE
  2
LTYPE
 70
     4
  0
LTYPE
  2
CONTINUOUS
 70
     0
  3
Solid line
 72
    65
 73
     0
 40
0.0
  0
LTYPE
  2
CENTER
 70
     0
  3
____ _ ____ _ ____ _ ____ _ ____ _ ____ _ ____ 
 72
    65
 73
     4
 40
2.0
 49
1.25
 49
-0.25
 49
0.25
 49
-0.25
  0
LTYPE
  2
HIDDEN
 70
     0
  3
__ __ __ __ __ __ __ __ __ __ __ __ __ __ __ __
 72
    65
 73
     2
 40
0.375
 49
0.25
 49
-0.125
  0
LTYPE
  2
PHANTOM
 70
     0
  3
______  __  __  ______  __  __  ______  __  __ 
 72
    65
 73
     6
 40
2.5
 49
1.25
 49
-0.25
 49
0.25
 49
-0.25
 49
0.25
 49
-0.25
  0
ENDTAB
  0
TABLE
  2
LAYER
 70
    13
  0
LAYER
  2
0
 70
     0
 62
     7
  6
CONTINUOUS
  0
LAYER
  2
CT
 70
     0
 62
     3
  6
CENTER
  0
LAYER
  2
FUTO
 70
     0
 62
     4
  6
CONTINUOUS
  0
LAYER
  2
HOSO
 70
     0
 62
     7
  6
CONTINUOUS
  0
LAYER
  2
KL
 70
     0
 62
     7
  6
HIDDEN
  0
LAYER
  2
MOJI
 70
     0
 62
     3
  6
CONTINUOUS
  0
LAYER
  2
SL
 70
     0
 62
     1
  6
PHANTOM
  0
LAYER
  2
SP
 70
     0
 62
     2
  6
CONTINUOUS
  0
LAYER
  2
DEFPOINTS
 70
     0
 62
     7
  6
CONTINUOUS
  0
LAYER
  2
3
 70
     0
 62
    -2
  6
CONTINUOUS
  0
LAYER
  2
2
 70
     0
 62
     3
  6
CENTER
  0
LAYER
  2
1
 70
     0
 62
     4
  6
CONTINUOUS
  0
LAYER
  2
4
 70
     0
 62
     7
  6
CONTINUOUS
  0
ENDTAB
  0
TABLE
  2
STYLE
 70
     1
  0
STYLE
  2
STANDARD
 70
     0
 40
0.0
 41
1.0
 50
15.0
 71
     0
 42
3.5
  3
C:\Program Files\AutoCAD LT\simplex.shx
  4
C:\Program Files\AutoCAD LT\extfont.shx
  0
ENDTAB
  0
TABLE
  2
VIEW
 70
     0
  0
ENDTAB
  0
TABLE
  2
UCS
 70
     0
  0
ENDTAB
  0
TABLE
  2
APPID
 70
     1
  0
APPID
  2
ACAD
 70
     0
  0
ENDTAB
  0
TABLE
  2
DIMSTYLE
 70
     4
  0
DIMSTYLE
  2
STANDARD
 70
     0
  3

  4

  5

  6

  7

 40
1.0
 41
0.18
 42
0.0625
 43
0.38
 44
0.18
 45
0.0
 46
0.0
 47
0.0
 48
0.0
140
0.18
141
0.09
142
0.0
143
25.399999999999999
144
1.0
145
0.0
146
1.0
147
0.09
 71
     0
 72
     0
 73
     1
 74
     1
 75
     0
 76
     0
 77
     0
 78
     0
170
     0
171
     2
172
     0
173
     0
174
     0
175
     0
176
     0
177
     0
178
     0
  0
DIMSTYLE
  2
GOD
 70
     0
  3

  4

  5

  6
OPEN
  7
OPEN
 40
15.0
 41
2.5
 42
1.0
 43
7.0
 44
1.0
 45
0.0
 46
0.0
 47
0.0
 48
0.0
140
3.0
141
0.0
142
0.0
143
0.03937
144
1.0
145
0.0
146
1.0
147
1.0
 71
     0
 72
     0
 73
     0
 74
     0
 75
     0
 76
     0
 77
     1
 78
     8
170
     0
171
     2
172
     1
173
     1
174
     0
175
     0
176
   256
177
   256
178
   256
  0
DIMSTYLE
  2
IGA
 70
     0
  3

  4

  5

  6
OPEN
  7
OPEN
 40
2.0
 41
2.0
 42
0.5
 43
10.0
 44
1.0
 45
0.0
 46
0.0
 47
1.0
 48
1.0
140
3.0
141
0.0
142
0.0
143
0.03937
144
1.0
145
0.0
146
10.0
147
1.0
 71
     0
 72
     0
 73
     0
 74
     0
 75
     0
 76
     0
 77
     1
 78
     8
170
     0
171
     2
172
     0
173
     1
174
     0
175
     0
176
     0
177
     0
178
     0
  0
DIMSTYLE
  2
DIA1
 70
     0
  3

  4

  5

  6

  7

 40
1.0
 41
2.0
 42
1.0
 43
10.0
 44
1.0
 45
0.0
 46
0.0
 47
0.0
 48
0.0
140
2.5
141
0.0
142
0.0
143
25.399999999999999
144
1.0
145
0.0
146
1.0
147
0.09
 71
     0
 72
     0
 73
     0
 74
     0
 75
     0
 76
     0
 77
     1
 78
     8
170
     0
171
     2
172
     1
173
     0
174
     0
175
     0
176
     2
177
     2
178
     2
  0
ENDTAB
  0
ENDSEC
  0
SECTION
  2
BLOCKS
  0
BLOCK
  8
0
  2
$MODEL_SPACE
 70
     0
 10
0.0
 20
0.0
 30
0.0
  3
$MODEL_SPACE
  1

  0
ENDBLK
  5
1B
  8
0
  0
BLOCK
 67
     1
  8
0
  2
$PAPER_SPACE
 70
     0
 10
0.0
 20
0.0
 30
0.0
  3
$PAPER_SPACE
  1

  0
ENDBLK
  5
18
 67
     1
  8
0
  0
BLOCK
  8
0
  2
_OPEN
 70
     0
 10
0.0
 20
0.0
 30
0.0
  3
_OPEN
  1

  0
LINE
  5
1E81
  8
0
  6
BYBLOCK
 62
     0
 10
-1.0
 20
0.1666666666666666
 30
0.0
 11
0.0
 21
0.0
 31
0.0
  0
LINE
  5
1E82
  8
0
  6
BYBLOCK
 62
     0
 10
0.0
 20
0.0
 30
0.0
 11
-1.0
 21
-0.1666666666666666
 31
0.0
  0
LINE
  5
1E83
  8
0
  6
BYBLOCK
 62
     0
 10
0.0
 20
0.0
 30
0.0
 11
-1.0
 21
0.0
 31
0.0
  0
ENDBLK
  5
1E84
  8
0
  0
BLOCK
  8
0
  2
_DOT
 70
     0
 10
0.0
 20
0.0
 30
0.0
  3
_DOT
  1

  0
LINE
  5
1EC3
  8
0
  6
BYBLOCK
 62
     0
 10
0.0
 20
0.0
 30
0.0
 11
-1.0
 21
-0.0000000000000284
 31
0.0
  0
POLYLINE
  5
1EC4
  8
0
  6
BYBLOCK
 62
     0
 66
     1
 10
0.0
 20
0.0
 30
0.0
 70
     1
 40
0.1666666666666666
 41
0.1666666666666666
  0
VERTEX
  5
7593
  8
0
  6
BYBLOCK
 62
     0
 10
-0.0833333333333286
 20
-0.0000000000000284
 30
0.0
 42
1.0
  0
VERTEX
  5
7594
  8
0
  6
BYBLOCK
 62
     0
 10
0.0833333333333286
 20
-0.0000000000000284
 30
0.0
 42
1.0
  0
SEQEND
  5
7595
  8
0
  6
BYBLOCK
 62
     0
  0
ENDBLK
  5
1EB8
  8
0
  0
BLOCK
  8
0
  2
A$C5EBD6DA5
 70
     0
 10
0.0
 20
0.0
 30
0.0
  3
A$C5EBD6DA5
  1

  0
POLYLINE
  5
22E6
  8
1
 66
     1
 10
0.0
 20
0.0
 30
0.0
  0
VERTEX
  5
7596
  8
1
 10
8.0000000000027285
 20
-181.50000000000091
 30
0.0
  0
VERTEX
  5
7597
  8
1
 10
8.0000000000009095
 20
181.50000000000091
 30
0.0
  0
SEQEND
  5
7598
  8
1
  0
LINE
  5
22E7
  8
1
 10
1.0000000000009091
 20
182.50000000000091
 30
0.0
 11
7.0000000000027276
 21
182.50000000000091
 31
0.0
  0
ARC
  5
22E8
  8
1
 10
1.0000000000009091
 20
183.50000000000091
 30
0.0
 40
1.0
 50
180.0
 51
270.0
  0
LINE
  5
22E9
  8
1
 10
1.0000000000009091
 20
-182.50000000000091
 30
0.0
 11
7.0000000000027276
 21
-182.50000000000091
 31
0.0
  0
ARC
  5
22EA
  8
1
 10
1.0000000000009091
 20
-183.50000000000091
 30
0.0
 40
1.0
 50
90.0
 51
180.0
  0
ARC
  5
22EB
  8
1
 10
7.0000000000009086
 20
-181.50000000000091
 30
0.0
 40
1.0
 50
270.0
 51
0.0
  0
ARC
  5
22EC
  8
1
 10
7.0000000000009086
 20
181.50000000000091
 30
0.0
 40
1.0
 50
0.0
 51
90.0
  0
ENDBLK
  5
22EE
  8
0
  0
BLOCK
  8
0
  2
A$C2860434C
 70
     0
 10
0.0
 20
0.0
 30
0.0
  3
A$C2860434C
  1

  0
LINE
  5
3F68
  8
FUTO
 10
46.801270116426167
 20
-0.0000088960860012
 30
0.0
 11
8.5860233121038618
 21
70.149984541374579
 31
0.0
  0
LINE
  5
3F69
  8
FUTO
 10
-0.0000161416137416
 20
53.349984541375299
 30
0.0
 11
1.5999838583866219
 21
53.349984541375299
 31
0.0
  0
LINE
  5
3F6A
  8
FUTO
 10
-0.0000161416137416
 20
53.349984541375299
 30
0.0
 11
-0.0000161416137416
 21
68.549984541374215
 31
0.0
  0
LINE
  5
3F6B
  8
FUTO
 10
1.5999838583866219
 20
53.349984541375299
 30
0.0
 11
1.5999838583866219
 21
68.549984541374215
 31
0.0
  0
LINE
  5
3F6C
  8
FUTO
 10
3.1999838583869851
 20
70.149984541374579
 30
0.0
 11
91.769214627616734
 21
70.149984541370941
 31
0.0
  0
LINE
  5
3F6D
  8
FUTO
 10
3.1999838583869851
 20
71.749984541373124
 30
0.0
 11
92.794855653257414
 21
71.749984541373124
 31
0.0
  0
ARC
  5
3F6E
  8
FUTO
 10
3.1999838583869851
 20
68.549984541374215
 30
0.0
 40
3.2000000000000002
 50
90.0
 51
180.0
  0
ARC
  5
3F6F
  8
FUTO
 10
3.1999838583869851
 20
68.549984541374215
 30
0.0
 40
1.6000000000000001
 50
90.0
 51
180.0
  0
ENDBLK
  5
3F71
  8
0
  0
BLOCK
  8
0
  2
_NONE
 70
     0
 10
0.0
 20
0.0
 30
0.0
  3
_NONE
  1

  0
ENDBLK
  5
5AD6
  8
0
  0
BLOCK
  8
0
  2
L-40-3
 70
     0
 10
0.0
 20
0.0
 30
0.0
  3
L-40-3
  1

  0
ARC
  5
6273
  8
0
 10
7.5
 20
7.5
 30
0.0
 40
4.5
 50
180.0
 51
270.0
  0
LINE
  5
6274
  8
0
 10
0.0
 20
0.0
 30
0.0
 11
0.0
 21
40.0
 31
0.0
  0
LINE
  5
6275
  8
0
 10
7.5
 20
3.0
 30
0.0
 11
38.0
 21
3.0
 31
0.0
  0
LINE
  5
6276
  8
0
 10
0.0
 20
0.0
 30
0.0
 11
40.0
 21
0.0
 31
0.0
  0
LINE
  5
6277
  8
0
 10
40.0
 20
0.0
 30
0.0
 11
40.0
 21
1.0
 31
0.0
  0
ARC
  5
6278
  8
0
 10
38.0
 20
1.0
 30
0.0
 40
2.0
 50
0.0
 51
90.0
  0
LINE
  5
6279
  8
0
 10
3.0
 20
7.5
 30
0.0
 11
3.0
 21
38.0
 31
0.0
  0
LINE
  5
627A
  8
0
 10
0.0
 20
40.0
 30
0.0
 11
1.0
 21
40.0
 31
0.0
  0
ARC
  5
627B
  8
0
 10
1.0
 20
38.0
 30
0.0
 40
2.0
 50
0.0
 51
90.0
  0
ENDBLK
  5
627D
  8
0
  0
BLOCK
  8
0
  2
*D44
 70
     1
 10
0.0
 20
0.0
 30
0.0
  3
*D44
  1

  0
LINE
  5
7477
  8
SP
 10
18594.53735377362
 20
5363.4876823828172
 30
0.0
 11
18594.53735377362
 21
5224.5480274389101
 31
0.0
  0
LINE
  5
7478
  8
SP
 10
17974.53735377362
 20
5363.4876823828172
 30
0.0
 11
17974.53735377362
 21
5224.5480274389101
 31
0.0
  0
LINE
  5
7479
  8
SP
 10
18557.03735377362
 20
5239.5480274389101
 30
0.0
 11
18012.03735377362
 21
5239.5480274389101
 31
0.0
  0
INSERT
  5
747A
  8
SP
  2
_OPEN
 10
18594.53735377362
 20
5239.5480274389101
 30
0.0
 41
37.5
 42
37.5
 43
37.5
  0
INSERT
  5
747B
  8
SP
  2
_OPEN
 10
17974.53735377362
 20
5239.5480274389101
 30
0.0
 41
37.5
 42
37.5
 43
37.5
 50
180.0
  0
TEXT
  5
747C
  8
SP
 10
18220.938442507239
 20
5254.5480274389101
 30
0.0
 40
45.0
  1
620
 51
15.0
  0
POINT
  5
747D
  8
DEFPOINTS
 62
     0
 10
18594.53735377362
 20
5378.4876823828172
 30
0.0
  0
POINT
  5
747E
  8
DEFPOINTS
 62
     0
 10
17974.53735377362
 20
5378.4876823828163
 30
0.0
  0
POINT
  5
747F
  8
DEFPOINTS
 62
     0
 10
17974.53735377362
 20
5239.5480274389101
 30
0.0
  0
ENDBLK
  5
724B
  8
0
  0
BLOCK
  8
0
  2
*D45
 70
     1
 10
0.0
 20
0.0
 30
0.0
  3
*D45
  1

  0
LINE
  5
7453
  8
SP
 10
18284.53735377362
 20
4052.0456116650489
 30
0.0
 11
18284.53735377362
 21
3991.7600416717301
 31
0.0
  0
LINE
  5
7454
  8
SP
 10
18594.53735377363
 20
4074.7600416717301
 30
0.0
 11
18594.53735377363
 21
3991.7600416717301
 31
0.0
  0
LINE
  5
7455
  8
SP
 10
18322.03735377362
 20
4006.7600416717301
 30
0.0
 11
18557.03735377363
 21
4006.7600416717301
 31
0.0
  0
INSERT
  5
7456
  8
SP
  2
_OPEN
 10
18284.53735377362
 20
4006.7600416717301
 30
0.0
 41
37.5
 42
37.5
 43
37.5
 50
180.0
  0
INSERT
  5
7457
  8
SP
  2
_OPEN
 10
18594.53735377363
 20
4006.7600416717301
 30
0.0
 41
37.5
 42
37.5
 43
37.5
  0
TEXT
  5
7458
  8
SP
 10
18381.00849694393
 20
4021.7600416717301
 30
0.0
 40
45.0
  1
310
 51
15.0
  0
POINT
  5
7459
  8
DEFPOINTS
 62
     0
 10
18284.53735377362
 20
4067.0456116650489
 30
0.0
  0
POINT
  5
745A
  8
DEFPOINTS
 62
     0
 10
18594.53735377363
 20
4089.7600416717301
 30
0.0
  0
POINT
  5
745B
  8
DEFPOINTS
 62
     0
 10
18594.53735377363
 20
4006.7600416717301
 30
0.0
  0
ENDBLK
  5
7257
  8
0
  0
BLOCK
  8
0
  2
*D46
 70
     1
 10
0.0
 20
0.0
 30
0.0
  3
*D46
  1

  0
LINE
  5
7424
  8
SP
 10
18594.53735377363
 20
4074.7600416717301
 30
0.0
 11
18594.53735377363
 21
3886.760041671731
 31
0.0
  0
LINE
  5
7425
  8
SP
 10
17974.53735377363
 20
4074.7600416717301
 30
0.0
 11
17974.53735377363
 21
3886.760041671731
 31
0.0
  0
LINE
  5
7426
  8
SP
 10
18557.03735377363
 20
3901.7600416717301
 30
0.0
 11
18012.03735377363
 21
3901.7600416717301
 31
0.0
  0
INSERT
  5
7427
  8
SP
  2
_OPEN
 10
18594.53735377363
 20
3901.7600416717301
 30
0.0
 41
37.5
 42
37.5
 43
37.5
  0
INSERT
  5
7428
  8
SP
  2
_OPEN
 10
17974.53735377363
 20
3901.7600416717301
 30
0.0
 41
37.5
 42
37.5
 43
37.5
 50
180.0
  0
TEXT
  5
7429
  8
SP
 10
18220.938442507249
 20
3916.7600416717301
 30
0.0
 40
45.0
  1
620
 51
15.0
  0
POINT
  5
742A
  8
DEFPOINTS
 62
     0
 10
18594.53735377363
 20
4089.7600416717301
 30
0.0
  0
POINT
  5
742B
  8
DEFPOINTS
 62
     0
 10
17974.53735377363
 20
4089.7600416717301
 30
0.0
  0
POINT
  5
742C
  8
DEFPOINTS
 62
     0
 10
17974.53735377363
 20
3901.7600416717301
 30
0.0
  0
ENDBLK
  5
7263
  8
0
  0
BLOCK
  8
0
  2
*D47
 70
     1
 10
0.0
 20
0.0
 30
0.0
  3
*D47
  1

  0
LINE
  5
73EE
  8
SP
 10
18284.53735377362
 20
4794.7585676258132
 30
0.0
 11
18284.53735377362
 21
4858.0152833546381
 31
0.0
  0
LINE
  5
73EF
  8
SP
 10
18548.768635407461
 20
4495.0896188593433
 30
0.0
 11
18548.768635407461
 21
4858.0152833546381
 31
0.0
  0
LINE
  5
73F0
  8
SP
 10
18322.03735377362
 20
4843.0152833546381
 30
0.0
 11
18511.268635407461
 21
4843.0152833546381
 31
0.0
  0
INSERT
  5
73F1
  8
SP
  2
_OPEN
 10
18284.53735377362
 20
4843.0152833546381
 30
0.0
 41
37.5
 42
37.5
 43
37.5
 50
180.0
  0
INSERT
  5
73F2
  8
SP
  2
_OPEN
 10
18548.768635407461
 20
4843.0152833546381
 30
0.0
 41
37.5
 42
37.5
 43
37.5
  0
TEXT
  5
73F3
  8
SP
 10
18355.71480421874
 20
4858.0152833546381
 30
0.0
 40
45.0
  1
264
 51
15.0
  0
POINT
  5
73F4
  8
DEFPOINTS
 62
     0
 10
18284.53735377362
 20
4779.7585676258132
 30
0.0
  0
POINT
  5
73F5
  8
DEFPOINTS
 62
     0
 10
18548.768635407461
 20
4480.0896188593433
 30
0.0
  0
POINT
  5
73F6
  8
DEFPOINTS
 62
     0
 10
18548.768635407461
 20
4843.0152833546381
 30
0.0
  0
ENDBLK
  5
726F
  8
0
  0
BLOCK
  8
0
  2
*D48
 70
     1
 10
0.0
 20
0.0
 30
0.0
  3
*D48
  1

  0
LINE
  5
73E5
  8
SP
 10
18284.53735377362
 20
4794.7585676258132
 30
0.0
 11
18284.53735377362
 21
4858.0152833546381
 31
0.0
  0
LINE
  5
73E6
  8
SP
 10
18034.53735377363
 20
4543.2600416717341
 30
0.0
 11
18034.53735377363
 21
4858.0152833546381
 31
0.0
  0
LINE
  5
73E7
  8
SP
 10
18247.03735377362
 20
4843.0152833546381
 30
0.0
 11
18072.03735377363
 21
4843.0152833546381
 31
0.0
  0
INSERT
  5
73E8
  8
SP
  2
_OPEN
 10
18284.53735377362
 20
4843.0152833546381
 30
0.0
 41
37.5
 42
37.5
 43
37.5
  0
INSERT
  5
73E9
  8
SP
  2
_OPEN
 10
18034.53735377363
 20
4843.0152833546381
 30
0.0
 41
37.5
 42
37.5
 43
37.5
 50
180.0
  0
TEXT
  5
73EA
  8
SP
 10
18097.871136340062
 20
4858.0152833546381
 30
0.0
 40
45.0
  1
250
 51
15.0
  0
POINT
  5
73EB
  8
DEFPOINTS
 62
     0
 10
18284.53735377362
 20
4779.7585676258132
 30
0.0
  0
POINT
  5
73EC
  8
DEFPOINTS
 62
     0
 10
18034.53735377363
 20
4528.2600416717341
 30
0.0
  0
POINT
  5
73ED
  8
DEFPOINTS
 62
     0
 10
18034.53735377363
 20
4843.0152833546381
 30
0.0
  0
ENDBLK
  5
727B
  8
0
  0
BLOCK
  8
0
  2
*D49
 70
     1
 10
0.0
 20
0.0
 30
0.0
  3
*D49
  1

  0
LINE
  5
75A5
  8
SP
 10
18019.537353773641
 20
4151.7600416717314
 30
0.0
 11
17809.53735377363
 21
4151.7600416717314
 31
0.0
  0
LINE
  5
75A6
  8
SP
 10
17959.53735377363
 20
4129.7600416717314
 30
0.0
 11
17809.53735377363
 21
4129.7600416717314
 31
0.0
  0
LINE
  5
75A7
  8
SP
 10
17824.53735377363
 20
4151.7600416717314
 30
0.0
 11
17824.53735377363
 21
4189.2600416717296
 31
0.0
  0
LINE
  5
75A8
  8
SP
 10
17824.53735377363
 20
4129.7600416717314
 30
0.0
 11
17824.53735377363
 21
4092.2600416717301
 31
0.0
  0
TEXT
  8
0
  40
45
  5
75FE
  72
0
  71
0
 10
17681.6
 20
4052.26
 30
0.000000
  1
（22）
  0
LINE
  5
75AA
  8
SP
 10
17824.53735377363
 20
4151.7600416717314
 30
0.0
 11
17824.53735377363
 21
4129.7600416717314
 31
0.0
  0
POINT
  5
75AB
  8
DEFPOINTS
 62
     0
 10
18034.537353773641
 20
4151.7600416717314
 30
0.0
  0
POINT
  5
75AC
  8
DEFPOINTS
 62
     0
 10
17974.53735377363
 20
4129.7600416717314
 30
0.0
  0
POINT
  5
75AD
  8
DEFPOINTS
 62
     0
 10
17824.53735377363
 20
4129.7600416717314
 30
0.0
  0
ENDBLK
  5
7287
  8
0
  0
BLOCK
  8
0
  2
*D50
 70
     1
 10
0.0
 20
0.0
 30
0.0
  3
*D50
  1

  0
LINE
  5
752F
  8
SP
 10
17959.53735377363
 20
4129.7600416717314
 30
0.0
 11
17809.53735377363
 21
4129.7600416717314
 31
0.0
  0
LINE
  5
7530
  8
SP
 10
17959.53735377363
 20
4089.7600416717301
 30
0.0
 11
17809.53735377363
 21
4089.7600416717301
 31
0.0
  0
LINE
  5
7531
  8
SP
 10
17824.53735377363
 20
4167.2600416717296
 30
0.0
 11
17824.53735377363
 21
4204.7600416717314
 31
0.0
  0
LINE
  5
7532
  8
SP
 10
17824.53735377363
 20
4052.2600416717301
 30
0.0
 11
17824.53735377363
 21
3908.3039875482059
 31
0.0
  0
LINE
  5
7533
  8
SP
 10
17824.53735377363
 20
4129.7600416717314
 30
0.0
 11
17824.53735377363
 21
4089.7600416717301
 31
0.0
  0
INSERT
  5
7534
  8
SP
  2
_DOT
 10
17824.53735377363
 20
4129.7600416717314
 30
0.0
 41
37.5
 42
37.5
 43
37.5
 50
270.0
  0
INSERT
  5
7535
  8
SP
  2
_OPEN
 10
17824.53735377363
 20
4089.7600416717301
 30
0.0
 41
37.5
 42
37.5
 43
37.5
 50
90.0
  0
TEXT
  5
7536
  8
SP
 10
17809.53735377363
 20
3919.2847496617428
 30
0.0
 40
45.0
  1
40
 50
90.0
 51
15.0
  0
POINT
  5
7537
  8
DEFPOINTS
 62
     0
 10
17974.53735377363
 20
4129.7600416717314
 30
0.0
  0
POINT
  5
7538
  8
DEFPOINTS
 62
     0
 10
17974.53735377363
 20
4089.7600416717301
 30
0.0
  0
POINT
  5
7539
  8
DEFPOINTS
 62
     0
 10
17824.53735377363
 20
4089.7600416717301
 30
0.0
  0
ENDBLK
  5
7295
  8
0
  0
BLOCK
  8
0
  2
*D51
 70
     1
 10
0.0
 20
0.0
 30
0.0
  3
*D51
  1

  0
LINE
  5
7436
  8
SP
 10
17964.59384392605
 20
4506.7600416717296
 30
0.0
 11
17914.53735377362
 21
4506.7600416717296
 31
0.0
  0
LINE
  5
7437
  8
SP
 10
18019.537353773609
 20
4191.7600416717332
 30
0.0
 11
17914.53735377362
 21
4191.7600416717332
 31
0.0
  0
LINE
  5
7438
  8
SP
 10
17929.53735377362
 20
4469.2600416717296
 30
0.0
 11
17929.53735377362
 21
4229.2600416717332
 31
0.0
  0
INSERT
  5
7439
  8
SP
  2
_OPEN
 10
17929.53735377362
 20
4506.7600416717296
 30
0.0
 41
37.5
 42
37.5
 43
37.5
 50
90.0
  0
INSERT
  5
743A
  8
SP
  2
_OPEN
 10
17929.53735377362
 20
4191.7600416717332
 30
0.0
 41
37.5
 42
37.5
 43
37.5
 50
270.0
  0
TEXT
  5
743B
  8
SP
 10
17914.53735377362
 20
4290.6542597316147
 30
0.0
 40
45.0
  1
315
 50
90.0
 51
15.0
  0
POINT
  5
743C
  8
DEFPOINTS
 62
     0
 10
17979.59384392605
 20
4506.7600416717296
 30
0.0
  0
POINT
  5
743D
  8
DEFPOINTS
 62
     0
 10
18034.53735377362
 20
4191.7600416717332
 30
0.0
  0
POINT
  5
743E
  8
DEFPOINTS
 62
     0
 10
17929.53735377362
 20
4191.7600416717332
 30
0.0
  0
ENDBLK
  5
72A1
  8
0
  0
BLOCK
  8
0
  2
*D52
 70
     1
 10
0.0
 20
0.0
 30
0.0
  3
*D52
  1

  0
LINE
  5
742D
  8
SP
 10
18019.537353773641
 20
4151.7600416717314
 30
0.0
 11
17809.53735377363
 21
4151.7600416717314
 31
0.0
  0
LINE
  5
742E
  8
SP
 10
17964.59384392605
 20
4506.7600416717296
 30
0.0
 11
17809.53735377363
 21
4506.7600416717296
 31
0.0
  0
LINE
  5
742F
  8
SP
 10
17824.53735377363
 20
4189.2600416717296
 30
0.0
 11
17824.53735377363
 21
4469.2600416717296
 31
0.0
  0
INSERT
  5
7430
  8
SP
  2
_OPEN
 10
17824.53735377363
 20
4151.7600416717314
 30
0.0
 41
37.5
 42
37.5
 43
37.5
 50
270.0
  0
INSERT
  5
7431
  8
SP
  2
_OPEN
 10
17824.53735377363
 20
4506.7600416717296
 30
0.0
 41
37.5
 42
37.5
 43
37.5
 50
90.0
  0
TEXT
  5
7432
  8
SP
 10
17809.53735377363
 20
4266.3685454458991
 30
0.0
 40
45.0
  1
355
 50
90.0
 51
15.0
  0
POINT
  5
7433
  8
DEFPOINTS
 62
     0
 10
18034.537353773641
 20
4151.7600416717314
 30
0.0
  0
POINT
  5
7434
  8
DEFPOINTS
 62
     0
 10
17979.59384392605
 20
4506.7600416717296
 30
0.0
  0
POINT
  5
7435
  8
DEFPOINTS
 62
     0
 10
17824.53735377363
 20
4506.7600416717296
 30
0.0
  0
ENDBLK
  5
72AD
  8
0
  0
BLOCK
  8
0
  2
*D53
 70
     1
 10
0.0
 20
0.0
 30
0.0
  3
*D53
  1

  0
LINE
  5
741B
  8
SP
 10
18284.53735377362
 20
4052.0456116650489
 30
0.0
 11
18284.53735377362
 21
3991.7600416717301
 31
0.0
  0
LINE
  5
741C
  8
SP
 10
17974.53735377363
 20
4074.7600416717301
 30
0.0
 11
17974.53735377363
 21
3991.7600416717301
 31
0.0
  0
LINE
  5
741D
  8
SP
 10
18247.03735377362
 20
4006.7600416717301
 30
0.0
 11
18012.03735377363
 21
4006.7600416717301
 31
0.0
  0
INSERT
  5
741E
  8
SP
  2
_OPEN
 10
18284.53735377362
 20
4006.7600416717301
 30
0.0
 41
37.5
 42
37.5
 43
37.5
  0
INSERT
  5
741F
  8
SP
  2
_OPEN
 10
17974.53735377363
 20
4006.7600416717301
 30
0.0
 41
37.5
 42
37.5
 43
37.5
 50
180.0
  0
TEXT
  5
7420
  8
SP
 10
18071.00849694393
 20
4021.7600416717301
 30
0.0
 40
45.0
  1
310
 51
15.0
  0
POINT
  5
7421
  8
DEFPOINTS
 62
     0
 10
18284.53735377362
 20
4067.0456116650489
 30
0.0
  0
POINT
  5
7422
  8
DEFPOINTS
 62
     0
 10
17974.53735377363
 20
4089.7600416717301
 30
0.0
  0
POINT
  5
7423
  8
DEFPOINTS
 62
     0
 10
17974.53735377363
 20
4006.7600416717301
 30
0.0
  0
ENDBLK
  5
72B9
  8
0
  0
BLOCK
  8
0
  2
*D54
 70
     1
 10
0.0
 20
0.0
 30
0.0
  3
*D54
  1

  0
LINE
  5
7412
  8
SP
 10
17964.59384392605
 20
4506.7600416717296
 30
0.0
 11
17809.53735377363
 21
4506.7600416717296
 31
0.0
  0
LINE
  5
7413
  8
SP
 10
18292.39105763843
 20
4729.0472617882024
 30
0.0
 11
17809.53735377363
 21
4729.0472617882024
 31
0.0
  0
LINE
  5
7414
  8
SP
 10
17824.53735377363
 20
4544.2600416717296
 30
0.0
 11
17824.53735377363
 21
4691.5472617882024
 31
0.0
  0
INSERT
  5
7415
  8
SP
  2
_OPEN
 10
17824.53735377363
 20
4506.7600416717296
 30
0.0
 41
37.5
 42
37.5
 43
37.5
 50
270.0
  0
INSERT
  5
7416
  8
SP
  2
_OPEN
 10
17824.53735377363
 20
4729.0472617882024
 30
0.0
 41
37.5
 42
37.5
 43
37.5
 50
90.0
  0
TEXT
  5
7417
  8
SP
 10
17809.53735377363
 20
4556.2374342964013
 30
0.0
 40
45.0
  1
222
 50
90.0
 51
15.0
  0
POINT
  5
7418
  8
DEFPOINTS
 62
     0
 10
17979.59384392605
 20
4506.7600416717296
 30
0.0
  0
POINT
  5
7419
  8
DEFPOINTS
 62
     0
 10
18307.39105763843
 20
4729.0472617882024
 30
0.0
  0
POINT
  5
741A
  8
DEFPOINTS
 62
     0
 10
17824.53735377363
 20
4729.0472617882024
 30
0.0
  0
ENDBLK
  5
72C5
  8
0
  0
BLOCK
  8
0
  2
*D55
 70
     1
 10
0.0
 20
0.0
 30
0.0
  3
*D55
  1

  0
LINE
  5
73DC
  8
SP
 10
18609.53735377362
 20
6078.4876823828181
 30
0.0
 11
18772.648843802559
 21
6078.4876823828181
 31
0.0
  0
LINE
  5
73DD
  8
SP
 10
18609.53735377362
 20
5378.4876823828172
 30
0.0
 11
18772.648843802559
 21
5378.4876823828172
 31
0.0
  0
LINE
  5
73DE
  8
SP
 10
18757.648843802552
 20
6040.987682382819
 30
0.0
 11
18757.648843802552
 21
5415.9876823828172
 31
0.0
  0
INSERT
  5
73DF
  8
SP
  2
_OPEN
 10
18757.648843802552
 20
6078.4876823828181
 30
0.0
 41
37.5
 42
37.5
 43
37.5
 50
90.0
  0
INSERT
  5
73E0
  8
SP
  2
_OPEN
 10
18757.648843802552
 20
5378.4876823828172
 30
0.0
 41
37.5
 42
37.5
 43
37.5
 50
270.0
  0
TEXT
  5
73E1
  8
SP
 10
18742.648843802559
 20
5662.5357506635401
 30
0.0
 40
45.0
  1
700
 50
90.0
 51
15.0
  0
POINT
  5
73E2
  8
DEFPOINTS
 62
     0
 10
18594.53735377362
 20
6078.4876823828181
 30
0.0
  0
POINT
  5
73E3
  8
DEFPOINTS
 62
     0
 10
18594.53735377362
 20
5378.4876823828172
 30
0.0
  0
POINT
  5
73E4
  8
DEFPOINTS
 62
     0
 10
18757.648843802552
 20
5378.4876823828172
 30
0.0
  0
ENDBLK
  5
72D1
  8
0
  0
BLOCK
  8
0
  2
*D56
 70
     1
 10
0.0
 20
0.0
 30
0.0
  3
*D56
  1

  0
LINE
  5
7409
  8
SP
 10
19621.38478131712
 20
4919.0226141733183
 30
0.0
 11
19621.38478131712
 21
4954.0472617882024
 31
0.0
  0
LINE
  5
740A
  8
SP
 10
19201.384781318109
 20
4605.3409819847839
 30
0.0
 11
19201.384781318109
 21
4954.0472617882024
 31
0.0
  0
LINE
  5
740B
  8
SP
 10
19583.88478131712
 20
4939.0472617882033
 30
0.0
 11
19238.884781318109
 21
4939.0472617882033
 31
0.0
  0
INSERT
  5
740C
  8
SP
  2
_OPEN
 10
19621.38478131712
 20
4939.0472617882033
 30
0.0
 41
37.5
 42
37.5
 43
37.5
  0
INSERT
  5
740D
  8
SP
  2
_OPEN
 10
19201.384781318109
 20
4939.0472617882033
 30
0.0
 41
37.5
 42
37.5
 43
37.5
 50
180.0
  0
TEXT
  5
740E
  8
SP
 10
19311.020228707021
 20
4954.0472617882024
 30
0.0
 40
45.0
  1
（420）
 51
15.0
  0
POINT
  5
740F
  8
DEFPOINTS
 62
     0
 10
19621.38478131712
 20
4904.0226141733183
 30
0.0
  0
POINT
  5
7410
  8
DEFPOINTS
 62
     0
 10
19201.384781318109
 20
4590.340981984783
 30
0.0
  0
POINT
  5
7411
  8
DEFPOINTS
 62
     0
 10
19201.384781318109
 20
4939.0472617882033
 30
0.0
  0
ENDBLK
  5
72DD
  8
0
  0
BLOCK
  8
0
  2
*D57
 70
     1
 10
0.0
 20
0.0
 30
0.0
  3
*D57
  1

  0
LINE
  5
7400
  8
SP
 10
19621.38478131712
 20
4919.0226141733183
 30
0.0
 11
19621.38478131712
 21
4954.0472617882024
 31
0.0
  0
LINE
  5
7401
  8
SP
 10
19742.38478131712
 20
4703.2600416717269
 30
0.0
 11
19742.38478131712
 21
4954.0472617882024
 31
0.0
  0
LINE
  5
7402
  8
SP
 10
19658.88478131712
 20
4939.0472617882033
 30
0.0
 11
19704.88478131712
 21
4939.0472617882033
 31
0.0
  0
INSERT
  5
7403
  8
SP
  2
_OPEN
 10
19621.38478131712
 20
4939.0472617882033
 30
0.0
 41
37.5
 42
37.5
 43
37.5
 50
180.0
  0
INSERT
  5
7404
  8
SP
  2
_OPEN
 10
19742.38478131712
 20
4939.0472617882033
 30
0.0
 41
37.5
 42
37.5
 43
37.5
  0
TEXT
  5
7405
  8
SP
 10
19627.046849910999
 20
4954.0472617882024
 30
0.0
 40
45.0
  1
121
 51
15.0
  0
POINT
  5
7406
  8
DEFPOINTS
 62
     0
 10
19621.38478131712
 20
4904.0226141733183
 30
0.0
  0
POINT
  5
7407
  8
DEFPOINTS
 62
     0
 10
19742.38478131712
 20
4688.2600416717269
 30
0.0
  0
POINT
  5
7408
  8
DEFPOINTS
 62
     0
 10
19742.38478131712
 20
4939.0472617882033
 30
0.0
  0
ENDBLK
  5
72E9
  8
0
  0
BLOCK
  8
0
  2
*D58
 70
     1
 10
0.0
 20
0.0
 30
0.0
  3
*D58
  1

  0
LINE
  5
73F7
  8
SP
 10
19509.38478131712
 20
4729.0472617882033
 30
0.0
 11
19509.38478131712
 21
4849.0472617882033
 31
0.0
  0
LINE
  5
73F8
  8
SP
 10
19733.38478131712
 20
4729.0472617882024
 30
0.0
 11
19733.38478131712
 21
4849.0472617882033
 31
0.0
  0
LINE
  5
73F9
  8
SP
 10
19546.88478131712
 20
4834.0472617882033
 30
0.0
 11
19695.88478131712
 21
4834.0472617882033
 31
0.0
  0
INSERT
  5
73FA
  8
SP
  2
_OPEN
 10
19509.38478131712
 20
4834.0472617882033
 30
0.0
 41
37.5
 42
37.5
 43
37.5
 50
180.0
  0
INSERT
  5
73FB
  8
SP
  2
_OPEN
 10
19733.38478131712
 20
4834.0472617882033
 30
0.0
 41
37.5
 42
37.5
 43
37.5
  0
TEXT
  5
73FC
  8
SP
 10
19560.44659094531
 20
4849.0472617882033
 30
0.0
 40
45.0
  1
224
 51
15.0
  0
POINT
  5
73FD
  8
DEFPOINTS
 62
     0
 10
19509.38478131712
 20
4714.0472617882033
 30
0.0
  0
POINT
  5
73FE
  8
DEFPOINTS
 62
     0
 10
19733.38478131712
 20
4714.0472617882024
 30
0.0
  0
POINT
  5
73FF
  8
DEFPOINTS
 62
     0
 10
19733.38478131712
 20
4834.0472617882033
 30
0.0
  0
ENDBLK
  5
72F5
  8
0
  0
BLOCK
  8
0
  2
*D59
 70
     1
 10
0.0
 20
0.0
 30
0.0
  3
*D59
  1

  0
LINE
  5
7465
  8
SP
 10
19141.38478131712
 20
4114.7600416717278
 30
0.0
 11
19141.38478131712
 21
3969.7600416717278
 31
0.0
  0
LINE
  5
7466
  8
SP
 10
19621.38478131712
 20
4052.0456116650489
 30
0.0
 11
19621.38478131712
 21
3969.7600416717278
 31
0.0
  0
LINE
  5
7467
  8
SP
 10
19178.88478131712
 20
3984.7600416717269
 30
0.0
 11
19583.88478131712
 21
3984.7600416717269
 31
0.0
  0
INSERT
  5
7468
  8
SP
  2
_OPEN
 10
19141.38478131712
 20
3984.7600416717269
 30
0.0
 41
37.5
 42
37.5
 43
37.5
 50
180.0
  0
INSERT
  5
7469
  8
SP
  2
_OPEN
 10
19621.38478131712
 20
3984.7600416717269
 30
0.0
 41
37.5
 42
37.5
 43
37.5
  0
TEXT
  5
746A
  8
SP
 10
19317.708944940321
 20
3999.7600416717269
 30
0.0
 40
45.0
  1
480
 51
15.0
  0
POINT
  5
746B
  8
DEFPOINTS
 62
     0
 10
19141.38478131712
 20
4129.7600416717278
 30
0.0
  0
POINT
  5
746C
  8
DEFPOINTS
 62
     0
 10
19621.38478131712
 20
4067.0456116650489
 30
0.0
  0
POINT
  5
746D
  8
DEFPOINTS
 62
     0
 10
19621.38478131712
 20
3984.7600416717269
 30
0.0
  0
ENDBLK
  5
7301
  8
0
  0
BLOCK
  8
0
  2
*D60
 70
     1
 10
0.0
 20
0.0
 30
0.0
  3
*D60
  1

  0
LINE
  5
745C
  8
SP
 10
19141.38478131712
 20
4114.7600416717278
 30
0.0
 11
19141.38478131712
 21
3864.7600416717278
 31
0.0
  0
LINE
  5
745D
  8
SP
 10
19841.38478131712
 20
4114.7600416717278
 30
0.0
 11
19841.38478131712
 21
3864.7600416717278
 31
0.0
  0
LINE
  5
745E
  8
SP
 10
19178.88478131712
 20
3879.7600416717278
 30
0.0
 11
19803.88478131712
 21
3879.7600416717278
 31
0.0
  0
INSERT
  5
745F
  8
SP
  2
_OPEN
 10
19141.38478131712
 20
3879.7600416717278
 30
0.0
 41
37.5
 42
37.5
 43
37.5
 50
180.0
  0
INSERT
  5
7460
  8
SP
  2
_OPEN
 10
19841.38478131712
 20
3879.7600416717278
 30
0.0
 41
37.5
 42
37.5
 43
37.5
  0
TEXT
  5
7461
  8
SP
 10
19425.432849597841
 20
3894.7600416717278
 30
0.0
 40
45.0
  1
700
 51
15.0
  0
POINT
  5
7462
  8
DEFPOINTS
 62
     0
 10
19141.38478131712
 20
4129.7600416717278
 30
0.0
  0
POINT
  5
7463
  8
DEFPOINTS
 62
     0
 10
19841.38478131712
 20
4129.7600416717278
 30
0.0
  0
POINT
  5
7464
  8
DEFPOINTS
 62
     0
 10
19841.38478131712
 20
3879.7600416717278
 30
0.0
  0
ENDBLK
  5
730D
  8
0
  0
BLOCK
  8
0
  2
*D61
 70
     1
 10
0.0
 20
0.0
 30
0.0
  3
*D61
  1

  0
LINE
  5
746E
  8
SP
 10
19621.38478131712
 20
4052.0456116650489
 30
0.0
 11
19621.38478131712
 21
3969.7600416717278
 31
0.0
  0
LINE
  5
746F
  8
SP
 10
19841.38478131712
 20
4114.7600416717278
 30
0.0
 11
19841.38478131712
 21
3969.7600416717278
 31
0.0
  0
LINE
  5
7470
  8
SP
 10
19658.88478131712
 20
3984.7600416717269
 30
0.0
 11
19803.88478131712
 21
3984.7600416717269
 31
0.0
  0
INSERT
  5
7471
  8
SP
  2
_OPEN
 10
19621.38478131712
 20
3984.7600416717269
 30
0.0
 41
37.5
 42
37.5
 43
37.5
 50
180.0
  0
INSERT
  5
7472
  8
SP
  2
_OPEN
 10
19841.38478131712
 20
3984.7600416717269
 30
0.0
 41
37.5
 42
37.5
 43
37.5
  0
TEXT
  5
7473
  8
SP
 10
19669.718563883562
 20
3999.7600416717269
 30
0.0
 40
45.0
  1
220
 51
15.0
  0
POINT
  5
7474
  8
DEFPOINTS
 62
     0
 10
19621.38478131712
 20
4067.0456116650489
 30
0.0
  0
POINT
  5
7475
  8
DEFPOINTS
 62
     0
 10
19841.38478131712
 20
4129.7600416717278
 30
0.0
  0
POINT
  5
7476
  8
DEFPOINTS
 62
     0
 10
19841.38478131712
 20
3984.7600416717269
 30
0.0
  0
ENDBLK
  5
7319
  8
0
  0
BLOCK
  8
0
  2
*D62
 70
     1
 10
0.0
 20
0.0
 30
0.0
  3
*D62
  1

  0
LINE
  5
73D3
  8
SP
 10
19757.38478131712
 20
4664.2600416717269
 30
0.0
 11
19962.814766741481
 21
4664.2600416717269
 31
0.0
  0
LINE
  5
73D4
  8
SP
 10
19757.38478131712
 20
4349.2600416717278
 30
0.0
 11
19962.814766741481
 21
4349.2600416717278
 31
0.0
  0
LINE
  5
73D5
  8
SP
 10
19947.814766741481
 20
4626.7600416717278
 30
0.0
 11
19947.814766741481
 21
4386.7600416717278
 31
0.0
  0
INSERT
  5
73D6
  8
SP
  2
_OPEN
 10
19947.814766741481
 20
4664.2600416717269
 30
0.0
 41
37.5
 42
37.5
 43
37.5
 50
90.0
  0
INSERT
  5
73D7
  8
SP
  2
_OPEN
 10
19947.814766741481
 20
4349.2600416717278
 30
0.0
 41
37.5
 42
37.5
 43
37.5
 50
270.0
  0
TEXT
  5
73D8
  8
SP
 10
19932.814766741481
 20
4428.8122323566931
 30
0.0
 40
45.0
  1
φ315
 50
90.0
 51
15.0
  0
POINT
  5
73D9
  8
DEFPOINTS
 62
     0
 10
19742.38478131712
 20
4664.2600416717269
 30
0.0
  0
POINT
  5
73DA
  8
DEFPOINTS
 62
     0
 10
19742.38478131712
 20
4349.2600416717278
 30
0.0
  0
POINT
  5
73DB
  8
DEFPOINTS
 62
     0
 10
19947.814766741481
 20
4349.2600416717278
 30
0.0
  0
ENDBLK
  5
7325
  8
0
  0
ENDSEC
  0
SECTION
  2
ENTITIES
  0
LINE
  5
2CF0
  8
4
 10
17345.597715035088
 20
2822.8097917420341
 30
0.0
 11
17345.597715035088
 21
7247.8097917420337
 31
0.0
  0
LINE
  5
2CF1
  8
4
 10
20495.597715035088
 20
7247.8097917420337
 30
0.0
 11
20495.597715035088
 21
2822.8097917420341
 31
0.0
  0
LINE
  5
2CF2
  8
4
 10
20495.597715035088
 20
2822.8097917420341
 30
0.0
 11
17345.597715035088
 21
2822.8097917420341
 31
0.0
  0
TEXT
  5
2D01
  8
4
 10
18825.579458413311
 20
3298.5491681619478
 30
0.0
 40
75.0
  1
MF＃2-7
  0
TEXT
  5
2D03
  8
4
 10
18812.115833266591
 20
3456.6674451783861
 30
0.0
 40
75.0
  1
ミツヤ多翼送風機
  0
LINE
  5
2D04
  8
4
 10
18020.597715035088
 20
3572.8097917420332
 30
0.0
 11
19820.597715035088
 21
3572.8097917420332
 31
0.0
  0
LINE
  5
2D05
  8
4
 10
18020.597715035088
 20
3422.8097917420332
 30
0.0
 11
19820.597715035088
 21
3422.8097917420332
 31
0.0
  0
LINE
  5
2D06
  8
4
 10
18020.597715035088
 20
3272.8097917420332
 30
0.0
 11
19820.597715035088
 21
3272.8097917420332
 31
0.0
  0
LINE
  5
2D09
  8
4
 10
18020.597715035088
 20
3572.8097917420332
 30
0.0
 11
18020.597715035088
 21
3272.8097917420332
 31
0.0
  0
TEXT
  5
2D0A
  8
4
 10
18074.984874072288
 20
3305.2775268400501
 30
0.0
 40
75.0
  1
機器型番
  0
TEXT
  5
2D0B
  8
4
 10
18078.350836305439
 20
3470.124330541953
 30
0.0
 40
75.0
  1
機器名称
  0
LINE
  5
2D0C
  8
4
 10
18770.597715035088
 20
3572.8097917420332
 30
0.0
 11
18770.597715035088
 21
3272.8097917420332
 31
0.0
  0
LINE
  5
2D0D
  8
4
 10
19820.597715035088
 20
3572.8097917420332
 30
0.0
 11
19820.597715035088
 21
3272.8097917420332
 31
0.0
  0
TEXT
  5
2D0E
  8
4
 10
17818.481087225049
 20
6396.2890080615489
 30
0.0
 40
80.999999999999986
  1
右回転左横向
  0
LINE
  5
2D0F
  8
4
 10
17345.597715035088
 20
7247.8097917420337
 30
0.0
 11
20495.597715035088
 21
7247.8097917420337
 31
0.0
  0
LINE
  5
2D10
  8
4
 10
17720.597715035088
 20
6826.9229231392419
 30
0.0
 11
20120.597715035088
 21
6826.9229231392419
 31
0.0
  0
LINE
  5
2D11
  8
4
 10
17720.597715035088
 20
6526.9229231392419
 30
0.0
 11
20120.597715035088
 21
6526.9229231392419
 31
0.0
  0
LINE
  5
2E4B
  8
4
 10
17720.597715035088
 20
6826.9229231392419
 30
0.0
 11
17720.597715035088
 21
6526.9229231392419
 31
0.0
  0
LINE
  5
2F6C
  8
4
 10
20120.597715035088
 20
6844.7051664301353
 30
0.0
 11
19506.523848574889
 21
6844.7051664301353
 31
0.0
  0
LINE
  5
2F6D
  8
4
 10
19506.523848574889
 20
7002.7881840666632
 30
0.0
 11
20120.597715035088
 21
7002.7881840666632
 31
0.0
  0
TEXT
  5
2F6F
  8
4
 10
18077.69207095238
 20
6623.6312560409797
 30
0.0
 40
108.0
  1
遠心式片吸込直動形多翼ファン
  0
LINE
  5
2F7D
  8
4
 10
19506.523848574889
 20
6844.7051664301353
 30
0.0
 11
19506.523848574889
 21
7002.7881840666632
 31
0.0
  0
TEXT
  5
2F7E
  8
4
 10
19549.052053909021
 20
6881.9014139849969
 30
0.0
 40
84.000000000000014
  1
No.
  0
LINE
  5
2F7F
  8
4
 10
20120.597715035088
 20
6826.9229231392419
 30
0.0
 11
20120.597715035088
 21
6526.9229231392419
 31
0.0
  0
LINE
  5
2F80
  8
4
 10
20120.597715035088
 20
7002.7881840666632
 30
0.0
 11
20120.597715035088
 21
6844.7051664301353
 31
0.0
  0
LINE
  5
2F81
  8
4
 10
20495.597715035088
 20
7247.8097917420337
 30
0.0
 11
20495.597715035088
 21
7247.8097917420337
 31
0.0
  0
TEXT
  5
614D
  8
4
 10
19524.12014238468
 20
6397.9530537408073
 30
0.0
 40
80.999999999999986
  1
縮尺：1/15
  0
TEXT
  5
614E
  8
4
 10
18499.763808571439
 20
6397.9530537408073
 30
0.0
 40
80.999999999999986
  1
天井吊防振ベッド型
  0
DIMENSION
  5
70EC
  8
SP
  2
*D44
 10
17974.53735377362
 20
5239.5480274389101
 30
0.0
 11
18284.53735377362
 21
5277.0480274389101
 31
0.0
 70
     0
 13
18594.53735377362
 23
5378.4876823828172
 33
0.0
 14
17974.53735377362
 24
5378.4876823828163
 34
0.0
  0
LINE
  5
70ED
  8
FUTO
 10
17974.53735377362
 20
6078.4876823828172
 30
0.0
 11
18594.53735377362
 21
6078.4876823828181
 31
0.0
1001
ACAD
1000
ASC_BOUNDS
1002
{
1070
    19
1005
0
1005
0
1002
}
  0
LINE
  5
70EE
  8
FUTO
 10
17974.53735377362
 20
6038.4876823828172
 30
0.0
 11
18594.53735377362
 21
6038.4876823828172
 31
0.0
1001
ACAD
1000
ASC_BOUNDS
1002
{
1070
    19
1005
0
1005
0
1002
}
  0
LINE
  5
70EF
  8
FUTO
 10
17974.53735377362
 20
5378.4876823828163
 30
0.0
 11
18594.53735377362
 21
5378.4876823828172
 31
0.0
1001
ACAD
1000
ASC_BOUNDS
1002
{
1070
    19
1005
0
1005
0
1002
}
  0
LINE
  5
70F0
  8
FUTO
 10
17974.53735377362
 20
5418.4876823828172
 30
0.0
 11
18594.53735377362
 21
5418.4876823828172
 31
0.0
1001
ACAD
1000
ASC_BOUNDS
1002
{
1070
    19
1005
0
1005
0
1002
}
  0
DIMENSION
  5
70F1
  8
SP
  2
*D45
 10
18594.53735377363
 20
4006.7600416717301
 30
0.0
 11
18439.53735377363
 21
4044.2600416717301
 31
0.0
 70
     0
 13
18284.53735377362
 23
4067.0456116650489
 33
0.0
 14
18594.53735377363
 24
4089.7600416717301
 34
0.0
  0
DIMENSION
  5
70F2
  8
SP
  2
*D46
 10
17974.53735377363
 20
3901.7600416717301
 30
0.0
 11
18284.53735377363
 21
3939.2600416717301
 31
0.0
 70
     0
 13
18594.53735377363
 23
4089.7600416717301
 33
0.0
 14
17974.53735377363
 24
4089.7600416717301
 34
0.0
  0
LINE
  5
70F3
  8
FUTO
 10
17974.53735377363
 20
4089.7600416717301
 30
0.0
 11
18594.53735377363
 21
4089.7600416717301
 31
0.0
  0
LINE
  5
70F4
  8
FUTO
 10
17974.53735377363
 20
4129.7600416717314
 30
0.0
 11
18594.53735377363
 21
4129.7600416717314
 31
0.0
  0
LINE
  5
70F5
  8
FUTO
 10
17974.53735377363
 20
4126.7600416717296
 30
0.0
 11
18594.53735377363
 21
4126.7600416717296
 31
0.0
  0
ARC
  5
70F6
  8
1
 10
18533.53735377362
 20
5956.4876823828172
 30
0.0
 40
15.0
 50
0.0
 51
90.0
  0
ARC
  5
70F7
  8
1
 10
18533.53735377362
 20
5760.4876823828172
 30
0.0
 40
15.0
 50
270.0
 51
0.0
  0
LINE
  5
70F8
  8
2
 10
18609.900482619531
 20
5858.4876823828181
 30
0.0
 11
17986.915805507131
 21
5858.4876823828181
 31
0.0
1001
ACAD
1000
ASC_BOUNDS
1002
{
1070
    19
1005
0
1005
0
1002
}
  0
POLYLINE
  5
70F9
  8
1
 66
     1
 10
0.0
 20
0.0
 30
0.0
  0
VERTEX
  5
7599
  8
1
 10
18487.444884297471
 20
4301.7600416717287
 30
0.0
 42
0.2162148363065116
  0
VERTEX
  5
759A
  8
1
 10
18543.587565050271
 20
4534.6578584797808
 30
0.0
 42
0.1298622998199493
  0
VERTEX
  5
759B
  8
1
 10
18489.53735377363
 20
4646.0098466638028
 30
0.0
 42
0.3153658436290411
  0
SEQEND
  5
759C
  8
1
  0
POLYLINE
  5
70FA
  8
1
 66
     1
 10
0.0
 20
0.0
 30
0.0
  0
VERTEX
  5
759D
  8
1
 10
18495.329931166529
 20
4295.6097542091229
 30
0.0
 42
0.2162335382726867
  0
VERTEX
  5
759E
  8
1
 10
18553.404843583299
 20
4536.5608788197032
 30
0.0
 42
0.1298839697351506
  0
VERTEX
  5
759F
  8
1
 10
18497.119809546311
 20
4652.5295371821712
 30
0.0
 42
0.1298839697351506
  0
SEQEND
  5
75A0
  8
1
  0
LINE
  5
70FB
  8
2
 10
17979.59384392605
 20
4506.7600416717296
 30
0.0
 11
18573.83937927728
 21
4506.7600416717296
 31
0.0
  0
DIMENSION
  5
70FC
  8
SP
  2
*D47
 10
18548.768635407461
 20
4843.0152833546381
 30
0.0
 11
18416.652994590539
 21
4880.5152833546381
 31
0.0
 70
     0
 13
18284.53735377362
 23
4779.7585676258132
 33
0.0
 14
18548.768635407461
 24
4480.0896188593433
 34
0.0
 50
180.0
1001
ACAD
1000
DSTYLE
1002
{
1070
   271
1070
     0
1002
}
  0
LINE
  5
70FD
  8
1
 10
18034.53735377362
 20
5418.4876823828172
 30
0.0
 11
18034.53735377362
 21
6038.4876823828163
 31
0.0
  0
LINE
  5
70FE
  8
2
 10
18284.53735377362
 20
5372.3076557075519
 30
0.0
 11
18284.53735377362
 21
5999.4890348287827
 31
0.0
  0
LINE
  5
70FF
  8
1
 10
18035.737353773609
 20
5991.4876823828181
 30
0.0
 11
18035.737353773609
 21
5725.4876823828172
 31
0.0
  0
LINE
  5
7100
  8
1
 10
18054.53735377362
 20
5952.6876823828179
 30
0.0
 11
18054.53735377362
 21
5764.2876823828183
 31
0.0
  0
LINE
  5
7101
  8
1
 10
18034.53735377362
 20
5991.4876823828154
 30
0.0
 11
18034.53735377362
 21
5725.4876823828172
 31
0.0
  0
POLYLINE
  5
7102
  8
1
 66
     1
 10
0.0
 20
0.0
 30
0.0
  0
VERTEX
  5
75A1
  8
1
 10
18401.215767873418
 20
4721.050297161285
 30
0.0
 42
0.1343314877425494
  0
VERTEX
  5
75A2
  8
1
 10
18268.21922477987
 20
4736.0033284979272
 30
0.0
 42
0.3163064660587118
  0
VERTEX
  5
75A3
  8
1
 10
18091.339433655688
 20
4565.0146659769089
 30
0.0
 42
0.3163064660587118
  0
SEQEND
  5
75A4
  8
1
  0
LINE
  5
7103
  8
2
 10
18284.53735377362
 20
4067.0456116650489
 30
0.0
 11
18284.53735377362
 21
4779.7585676258132
 31
0.0
  0
DIMENSION
  5
7104
  8
SP
  2
*D48
 10
18034.53735377363
 20
4843.0152833546381
 30
0.0
 11
18159.53735377363
 21
4880.5152833546381
 31
0.0
 70
     0
 13
18284.53735377362
 23
4779.7585676258132
 33
0.0
 14
18034.53735377363
 24
4528.2600416717341
 34
0.0
 50
180.0
  0
DIMENSION
  5
7105
  8
SP
  2
*D49
 10
17824.53735377363
 20
4129.7600416717314
 30
0.0
 11
17771.58748096172
 21
4131.9094415580812
 31
0.0
 70
   128
 13
18034.537353773641
 23
4151.7600416717314
 33
0.0
 14
17974.53735377363
 24
4129.7600416717314
 34
0.0
 50
90.0
1001
ACAD
1000
DSTYLE
1002
{
1070
   287
1070
     5
1070
     3
1000
（<>）
1070
   279
1070
     2
1070
   289
1070
     3
1070
     6
1000
NONE
1070
     7
1000
NONE
1002
}
  0
DIMENSION
  5
7106
  8
SP
  2
*D50
 10
17824.53735377363
 20
4089.7600416717301
 30
0.0
 11
17787.03735377363
 21
3961.5320146099712
 31
0.0
 70
     0
 13
17974.53735377363
 23
4129.7600416717314
 33
0.0
 14
17974.53735377363
 24
4089.7600416717301
 34
0.0
 50
90.0
1001
ACAD
1000
DSTYLE
1002
{
1070
     6
1000
DOT
1002
}
  0
LINE
  5
7107
  8
1
 10
18072.237353773638
 20
4589.86004167173
 30
0.0
 11
18072.237353773638
 21
4154.060041671728
 31
0.0
  0
LINE
  5
7108
  8
1
 10
18074.537353773641
 20
4591.6823638303567
 30
0.0
 11
18074.537353773641
 21
4151.7600416717314
 31
0.0
  0
LINE
  5
7109
  8
1
 10
18494.53735377362
 20
4591.6823638303567
 30
0.0
 11
18494.53735377362
 21
4151.7600416717314
 31
0.0
  0
LINE
  5
710A
  8
1
 10
18496.837353773619
 20
4589.86004167173
 30
0.0
 11
18496.837353773619
 21
4154.060041671728
 31
0.0
  0
LINE
  5
710B
  8
1
 10
18038.837353773619
 20
4193.4600416717331
 30
0.0
 11
18054.53735377362
 21
4209.1600416717347
 31
0.0
  0
LINE
  5
710C
  8
FUTO
 10
18035.73735377362
 20
4170.2600416717332
 30
0.0
 11
18035.737353773631
 21
4528.2600416717341
 31
0.0
  0
LINE
  5
710D
  8
FUTO
 10
18034.53735377363
 20
4528.2600416717341
 30
0.0
 11
18034.53735377362
 21
4170.2600416717341
 31
0.0
  0
POLYLINE
  5
710E
  8
1
 66
     1
 10
0.0
 20
0.0
 30
0.0
  0
VERTEX
  5
75AE
  8
1
 10
18054.53735377362
 20
4181.7600416717323
 30
0.0
  0
VERTEX
  5
75AF
  8
1
 10
18259.0495305123
 20
4181.7600416717269
 30
0.0
 42
0.2269714708976296
  0
VERTEX
  5
75B0
  8
1
 10
18495.248073509039
 20
4295.5062237875591
 30
0.0
  0
SEQEND
  5
75B1
  8
1
  0
POLYLINE
  5
710F
  8
1
 66
     1
 10
0.0
 20
0.0
 30
0.0
  0
VERTEX
  5
75B2
  8
1
 10
18034.53735377362
 20
4191.7600416717332
 30
0.0
  0
VERTEX
  5
75B3
  8
1
 10
18259.037353773609
 20
4191.7600416717269
 30
0.0
 42
0.2269607506063405
  0
VERTEX
  5
75B4
  8
1
 10
18487.444884297471
 20
4301.7600416717287
 30
0.0
 42
0.129402372482195
  0
SEQEND
  5
75B5
  8
1
  0
DIMENSION
  5
7110
  8
SP
  2
*D51
 10
17929.53735377362
 20
4191.7600416717332
 30
0.0
 11
17892.03735377362
 21
4349.2600416717351
 31
0.0
 70
     0
 13
17979.59384392605
 23
4506.7600416717296
 33
0.0
 14
18034.53735377362
 24
4191.7600416717332
 34
0.0
 50
90.0
  0
DIMENSION
  5
7111
  8
SP
  2
*D52
 10
17824.53735377363
 20
4506.7600416717296
 30
0.0
 11
17787.03735377363
 21
4329.2600416717332
 31
0.0
 70
     0
 13
18034.537353773641
 23
4151.7600416717314
 33
0.0
 14
17979.59384392605
 24
4506.7600416717296
 34
0.0
 50
90.0
  0
LINE
  5
7112
  8
FUTO
 10
18034.537353773641
 20
4151.7600416717314
 30
0.0
 11
18534.53735377362
 21
4151.7600416717314
 31
0.0
  0
DIMENSION
  5
7113
  8
SP
  2
*D53
 10
17974.53735377363
 20
4006.7600416717301
 30
0.0
 11
18129.53735377362
 21
4044.2600416717301
 31
0.0
 70
     0
 13
18284.53735377362
 23
4067.0456116650489
 33
0.0
 14
17974.53735377363
 24
4089.7600416717301
 34
0.0
  0
LINE
  5
7114
  8
FUTO
 10
18034.537353773641
 20
4129.7600416717314
 30
0.0
 11
18534.53735377362
 21
4129.7600416717314
 31
0.0
  0
LINE
  5
7115
  8
1
 10
18034.537353773641
 20
4154.0600416717289
 30
0.0
 11
18072.237353773638
 21
4154.0600416717289
 31
0.0
  0
LINE
  5
7116
  8
FUTO
 10
17974.53735377363
 20
4089.7600416717301
 30
0.0
 11
17974.53735377363
 21
4129.7600416717314
 31
0.0
  0
LINE
  5
7117
  8
2
 10
18052.53735377363
 20
4117.5499250657704
 30
0.0
 11
18052.53735377363
 21
4165.2640533355616
 31
0.0
  0
LINE
  5
7118
  8
1
 10
18034.537353773641
 20
4154.0600416717289
 30
0.0
 11
18034.537353773641
 21
4151.7600416717314
 31
0.0
  0
LINE
  5
7119
  8
FUTO
 10
18034.53735377362
 20
4170.2600416717341
 30
0.0
 11
18035.73735377362
 21
4170.2600416717332
 31
0.0
  0
ARC
  5
711A
  8
1
 10
18039.53735377362
 20
4192.7600416717332
 30
0.0
 40
1.0
 50
126.8698976457554
 51
270.0
  0
POLYLINE
  5
711B
  8
CT
 66
     1
 10
0.0
 20
0.0
 30
0.0
  0
VERTEX
  5
75B6
  8
CT
 10
18029.47419055862
 20
4180.2600416717341
 30
0.0
  0
VERTEX
  5
75B7
  8
CT
 10
18041.742500842571
 20
4180.2600416717332
 30
0.0
  0
SEQEND
  5
75B8
  8
CT
  0
LINE
  5
711C
  8
FUTO
 10
18054.53735377362
 20
4181.7600416717323
 30
0.0
 11
18054.53735377362
 21
4191.7600416717332
 31
0.0
  0
LINE
  5
711D
  8
2
 10
18516.53735377363
 20
4117.5499250657704
 30
0.0
 11
18516.53735377363
 21
4165.2640533355616
 31
0.0
  0
LINE
  5
711E
  8
1
 10
18534.53735377362
 20
4154.0600416717289
 30
0.0
 11
18534.53735377362
 21
4151.7600416717314
 31
0.0
  0
LINE
  5
711F
  8
1
 10
18534.53735377362
 20
4154.0600416717289
 30
0.0
 11
18496.837353773619
 21
4154.0600416717289
 31
0.0
  0
LINE
  5
7120
  8
1
 10
18194.53735377362
 20
4711.7600416717296
 30
0.0
 11
18072.237353773638
 21
4589.86004167173
 31
0.0
  0
LINE
  5
7121
  8
1
 10
18114.537353773641
 20
4366.7600416717314
 30
0.0
 11
18284.53735377363
 21
4366.7600416717314
 31
0.0
  0
LINE
  5
7122
  8
1
 10
18074.537353773641
 20
4406.7600416717296
 30
0.0
 11
18494.53735377362
 21
4406.7600416717287
 31
0.0
  0
POLYLINE
  5
7123
  8
1
 66
     1
 10
0.0
 20
0.0
 30
0.0
  0
VERTEX
  5
75B9
  8
1
 10
18397.515612074149
 20
4711.7600416717296
 30
0.0
 42
0.1343280102757561
  0
VERTEX
  5
75BA
  8
1
 10
18269.76732849333
 20
4726.1238858809347
 30
0.0
 42
0.3163019945347412
  0
VERTEX
  5
75BB
  8
1
 10
18101.16016723121
 20
4563.1296747200022
 30
0.0
 42
0.3153658436290411
  0
SEQEND
  5
75BC
  8
1
  0
LINE
  5
7124
  8
1
 10
18117.551639487901
 20
4366.7600416717314
 30
0.0
 11
18284.53735377362
 21
4366.7600416717314
 31
0.0
  0
CIRCLE
  5
7125
  8
CT
 10
18284.53735377362
 20
4506.7600416717296
 30
0.0
 40
169.0
  0
LINE
  5
7126
  8
1
 10
18081.837353773619
 20
4406.7600416717296
 30
0.0
 11
18487.237353773609
 21
4406.7600416717296
 31
0.0
  0
DIMENSION
  5
7127
  8
SP
  2
*D54
 10
17824.53735377363
 20
4729.0472617882024
 30
0.0
 11
17787.03735377363
 21
4617.9036517299692
 31
0.0
 70
     0
 13
17979.59384392605
 23
4506.7600416717296
 33
0.0
 14
18307.39105763843
 24
4729.0472617882024
 34
0.0
 50
90.0
1001
ACAD
1000
DSTYLE
1002
{
1070
   271
1070
     0
1002
}
  0
LINE
  5
7128
  8
1
 10
18054.53735377362
 20
4209.1600416717356
 30
0.0
 11
18054.53735377363
 21
4490.3600416717336
 31
0.0
  0
LINE
  5
7129
  8
1
 10
18114.537353773641
 20
4406.7600416717296
 30
0.0
 11
18114.537353773641
 21
4206.7600416717314
 31
0.0
  0
LINE
  5
712A
  8
1
 10
18119.537353773609
 20
4365.092041671729
 30
0.0
 11
18119.537353773609
 21
4209.9600416717303
 31
0.0
  0
LINE
  5
712B
  8
1
 10
18074.537353773641
 20
4206.7600416717314
 30
0.0
 11
18114.537353773641
 21
4206.7600416717314
 31
0.0
  0
LINE
  5
712C
  8
1
 10
18081.837353773619
 20
4209.9600416717303
 30
0.0
 11
18119.537353773609
 21
4209.9600416717303
 31
0.0
  0
POINT
  5
712D
  8
1
 10
18034.537353773609
 20
4349.2600416717278
 30
0.0
  0
POINT
  5
712E
  8
1
 10
18034.537353773609
 20
4349.2600416717278
 30
0.0
  0
LINE
  5
712F
  8
FUTO
 10
18074.537353773641
 20
4406.7600416717296
 30
0.0
 11
18114.537353773641
 21
4366.7600416717314
 31
0.0
  0
LINE
  5
7130
  8
1
 10
18081.837353773619
 20
4396.7600416717296
 30
0.0
 11
18119.537353773609
 21
4365.0920416717308
 31
0.0
  0
LINE
  5
7131
  8
CT
 10
18113.085519607321
 20
4460.819661166026
 30
0.0
 11
18128.42214274759
 21
4464.9290969510812
 31
0.0
  0
CIRCLE
  5
7132
  8
1
 10
18121.295889130779
 20
4463.0196230493984
 30
0.0
 40
4.0
  0
LINE
  5
7133
  8
1
 10
18034.53735377363
 20
4507.7600416717323
 30
0.0
 11
18055.53735377363
 21
4507.7600416717323
 31
0.0
  0
LINE
  5
7134
  8
1
 10
18038.83735377363
 20
4506.0600416717361
 30
0.0
 11
18054.53735377363
 21
4490.3600416717372
 31
0.0
  0
POLYLINE
  5
7135
  8
FUTO
 66
     1
 10
0.0
 20
0.0
 30
0.0
  0
VERTEX
  5
75BD
  8
FUTO
 10
18034.53735377363
 20
4528.2600416717341
 30
0.0
  0
VERTEX
  5
75BE
  8
FUTO
 10
18035.737353773631
 20
4528.2600416717341
 30
0.0
  0
SEQEND
  5
75BF
  8
FUTO
  0
ARC
  5
7136
  8
1
 10
18039.53735377362
 20
4506.7600416717332
 30
0.0
 40
1.0
 50
90.0
 51
233.13010235422891
  0
POINT
  5
7137
  8
1
 10
18034.53735377363
 20
4506.7600416717332
 30
0.0
  0
POLYLINE
  5
7138
  8
CT
 66
     1
 10
0.0
 20
0.0
 30
0.0
  0
VERTEX
  5
75C0
  8
CT
 10
18029.474190558631
 20
4518.2600416717341
 30
0.0
  0
VERTEX
  5
75C1
  8
CT
 10
18041.742500842582
 20
4518.2600416717332
 30
0.0
  0
SEQEND
  5
75C2
  8
CT
  0
LINE
  5
7139
  8
1
 10
18054.53735377363
 20
4507.7600416717396
 30
0.0
 11
18054.53735377363
 21
4511.0798517985704
 31
0.0
  0
ARC
  5
713A
  8
1
 10
18064.53735377362
 20
4511.0798517985641
 30
0.0
 40
10.0
 50
123.4418717894868
 51
180.0
  0
POLYLINE
  5
713B
  8
1
 66
     1
 10
0.0
 20
0.0
 30
0.0
  0
VERTEX
  5
75C3
  8
1
 10
18079.53735377363
 20
4523.6151333253047
 30
0.0
 42
0.1315967463597435
  0
VERTEX
  5
75C4
  8
1
 10
18101.164893530531
 20
4563.1544716797453
 30
0.0
 42
0.2200089805681688
  0
SEQEND
  5
75C5
  8
1
  0
POLYLINE
  5
713C
  8
1
 66
     1
 10
0.0
 20
0.0
 30
0.0
  0
VERTEX
  5
75C6
  8
1
 10
18079.53735377363
 20
4539.3144569641363
 30
0.0
 42
0.0941668855597806
  0
VERTEX
  5
75C7
  8
1
 10
18091.44875808198
 20
4565.5202087626367
 30
0.0
 42
0.1987366729981355
  0
SEQEND
  5
75C8
  8
1
  0
LINE
  5
713D
  8
CT
 10
18113.085519607321
 20
4552.7004221774187
 30
0.0
 11
18128.42214274759
 21
4548.5909863923653
 31
0.0
  0
CIRCLE
  5
713E
  8
1
 10
18121.295889130772
 20
4550.500460294048
 30
0.0
 40
4.0
  0
POLYLINE
  5
713F
  8
1
 66
     1
 10
0.0
 20
0.0
 30
0.0
  0
VERTEX
  5
75C9
  8
1
 10
18055.53735377363
 20
4507.7600416717323
 30
0.0
 42
0.101266720201501
  0
VERTEX
  5
75CA
  8
1
 10
18061.036764260389
 20
4508.8853966553424
 30
0.0
 42
0.0681921917069782
  0
VERTEX
  5
75CB
  8
1
 10
18079.53735377363
 20
4523.6151333253047
 30
0.0
 42
0.2200089805681688
  0
SEQEND
  5
75CC
  8
1
  0
POLYLINE
  5
7140
  8
1
 66
     1
 10
0.0
 20
0.0
 30
0.0
  0
VERTEX
  5
75CD
  8
1
 10
18059.026446770182
 20
4519.4243052857246
 30
0.0
 42
0.0934525219043797
  0
VERTEX
  5
75CE
  8
1
 10
18079.53735377363
 20
4539.3144569641363
 30
0.0
 42
0.1987366729981355
  0
SEQEND
  5
75CF
  8
1
  0
ARC
  5
7141
  8
1
 10
18284.53735377362
 20
4506.7600416717296
 30
0.0
 40
100.8
 50
285.79709999999181
 51
0.0
  0
ARC
  5
7142
  8
1
 10
18284.53735377362
 20
4506.7600416717296
 30
0.0
 40
100.8
 50
0.0
 51
254.5722999998826
  0
LINE
  5
7143
  8
1
 10
18454.53735377362
 20
4366.7600416717314
 30
0.0
 11
18284.53735377363
 21
4366.7600416717314
 31
0.0
  0
LINE
  5
7144
  8
1
 10
18451.52306805933
 20
4366.7600416717314
 30
0.0
 11
18284.53735377362
 21
4366.7600416717314
 31
0.0
  0
ARC
  5
7145
  8
1
 10
18346.537353773609
 20
4416.7600416717296
 30
0.0
 40
2.0
 50
90.0
 51
180.0
  0
LINE
  5
7146
  8
1
 10
18345.119453773608
 20
4425.4917416717299
 30
0.0
 11
18350.972353773621
 21
4419.6387416717298
 31
0.0
  0
LINE
  5
7147
  8
1
 10
18384.53735377362
 20
4406.7600416717296
 30
0.0
 11
18344.53735377362
 21
4406.7600416717296
 31
0.0
  0
LINE
  5
7148
  8
CT
 10
18238.59697326794
 20
4335.3082075054217
 30
0.0
 11
18242.706409052989
 21
4350.6448306456887
 31
0.0
  0
LINE
  5
7149
  8
CT
 10
18330.477734279331
 20
4335.3082075054244
 30
0.0
 11
18326.368298494272
 21
4350.6448306456914
 31
0.0
  0
CIRCLE
  5
714A
  8
1
 10
18240.796935151309
 20
4343.518577028879
 30
0.0
 40
4.0
  0
LINE
  5
714B
  8
CT
 10
18204.53735377362
 20
4420.1405416717298
 30
0.0
 11
18204.53735377362
 21
4402.7934416717299
 31
0.0
  0
LINE
  5
714C
  8
1
 10
18224.334853773609
 20
4425.8712416717299
 30
0.0
 11
18218.102353773618
 21
4419.6387416717298
 31
0.0
  0
ARC
  5
714D
  8
1
 10
18215.980953773611
 20
4421.7600416717296
 30
0.0
 40
3.0
 50
270.0
 51
314.99999999992627
  0
ARC
  5
714E
  8
1
 10
18222.53735377362
 20
4416.7600416717296
 30
0.0
 40
2.0
 50
0.0
 51
90.0
  0
LINE
  5
714F
  8
1
 10
18224.537353773609
 20
4406.7600416717296
 30
0.0
 11
18224.537353773609
 21
4416.7600416717296
 31
0.0
  0
LINE
  5
7150
  8
1
 10
18210.53735377362
 20
4406.7600416717296
 30
0.0
 11
18210.53735377362
 21
4418.7600416717296
 31
0.0
  0
LINE
  5
7151
  8
1
 10
18198.53735377362
 20
4418.7600416717296
 30
0.0
 11
18198.53735377362
 21
4406.7600416717296
 31
0.0
  0
ARC
  5
7152
  8
1
 10
18186.537353773609
 20
4416.7600416717296
 30
0.0
 40
2.0
 50
90.0
 51
180.0
  0
LINE
  5
7153
  8
1
 10
18184.53735377362
 20
4406.7600416717296
 30
0.0
 11
18184.53735377362
 21
4416.7600416717296
 31
0.0
  0
LINE
  5
7154
  8
1
 10
18185.429553773622
 20
4418.4281416717304
 30
0.0
 11
18201.83035377361
 21
4449.0901416717306
 31
0.0
  0
LINE
  5
7155
  8
1
 10
18184.53735377362
 20
4406.7600416717296
 30
0.0
 11
18224.537353773609
 21
4406.7600416717296
 31
0.0
  0
LINE
  5
7156
  8
1
 10
18186.537353773609
 20
4418.7600416717296
 30
0.0
 11
18222.53735377362
 21
4418.7600416717296
 31
0.0
  0
LINE
  5
7157
  8
CT
 10
18159.025900113022
 20
4381.2485880111126
 30
0.0
 11
18170.253087468231
 21
4392.4757753663253
 31
0.0
  0
CIRCLE
  5
7158
  8
1
 10
18165.036307753111
 20
4387.2589956511993
 30
0.0
 40
4.0
  0
LINE
  5
7159
  8
1
 10
18231.086953773611
 20
4421.3097416717301
 30
0.0
 11
18224.537353773609
 21
4414.7600416717296
 31
0.0
  0
LINE
  5
715A
  8
1
 10
18338.283953773611
 20
4421.0135416717303
 30
0.0
 11
18344.53735377362
 21
4414.7600416717296
 31
0.0
  0
LINE
  5
715B
  8
1
 10
18344.53735377362
 20
4406.7600416717296
 30
0.0
 11
18344.53735377362
 21
4416.7600416717296
 31
0.0
  0
CIRCLE
  5
715C
  8
1
 10
18328.277772395959
 20
4343.5185770288817
 30
0.0
 40
4.0
  0
LINE
  5
715D
  8
1
 10
18312.155053773618
 20
4409.7600416717296
 30
0.0
 11
18257.267953773619
 21
4409.7600416717296
 31
0.0
  0
LINE
  5
715E
  8
1
 10
18454.53735377362
 20
4406.7600416717296
 30
0.0
 11
18454.53735377362
 21
4206.7600416717314
 31
0.0
  0
LINE
  5
715F
  8
1
 10
18449.537353773609
 20
4365.092041671729
 30
0.0
 11
18449.537353773609
 21
4209.9600416717303
 31
0.0
  0
LINE
  5
7160
  8
1
 10
18494.53735377362
 20
4206.7600416717314
 30
0.0
 11
18454.53735377362
 21
4206.7600416717314
 31
0.0
  0
LINE
  5
7161
  8
1
 10
18449.537353773609
 20
4209.9600416717303
 30
0.0
 11
18487.237353773609
 21
4209.9600416717303
 31
0.0
  0
LINE
  5
7162
  8
CT
 10
18455.98918793994
 20
4460.8196611660396
 30
0.0
 11
18440.652564799671
 21
4464.9290969510957
 31
0.0
  0
LINE
  5
7163
  8
CT
 10
18410.048807434239
 20
4381.2485880111253
 30
0.0
 11
18398.82162007903
 21
4392.4757753663371
 31
0.0
  0
CIRCLE
  5
7164
  8
1
 10
18404.03839979415
 20
4387.2589956512102
 30
0.0
 40
4.0
  0
LINE
  5
7165
  8
CT
 10
18364.53735377362
 20
4420.1405416717298
 30
0.0
 11
18364.53735377362
 21
4402.7934416717299
 31
0.0
  0
ARC
  5
7166
  8
1
 10
18382.53735377362
 20
4416.7600416717296
 30
0.0
 40
2.0
 50
0.0
 51
90.0
  0
LINE
  5
7167
  8
1
 10
18370.537353773609
 20
4418.7600416717296
 30
0.0
 11
18370.537353773609
 21
4406.7600416717296
 31
0.0
  0
LINE
  5
7168
  8
1
 10
18384.53735377362
 20
4406.7600416717296
 30
0.0
 11
18384.53735377362
 21
4416.7600416717296
 31
0.0
  0
LINE
  5
7169
  8
1
 10
18358.53735377362
 20
4406.7600416717296
 30
0.0
 11
18358.53735377362
 21
4418.7600416717296
 31
0.0
  0
LINE
  5
716A
  8
1
 10
18383.446553773621
 20
4418.7995416717304
 30
0.0
 11
18367.327853773619
 21
4448.9338416717301
 31
0.0
  0
ARC
  5
716B
  8
1
 10
18353.093753773621
 20
4421.7600416717296
 30
0.0
 40
3.0
 50
225.0000000000737
 51
270.0
  0
LINE
  5
716C
  8
1
 10
18382.53735377362
 20
4418.7600416717296
 30
0.0
 11
18346.537353773609
 21
4418.7600416717296
 31
0.0
  0
LINE
  5
716D
  8
FUTO
 10
18494.53735377362
 20
4406.7600416717296
 30
0.0
 11
18454.53735377362
 21
4366.7600416717314
 31
0.0
  0
CIRCLE
  5
716E
  8
1
 10
18447.778818416471
 20
4463.019623049413
 30
0.0
 40
4.0
  0
LINE
  5
716F
  8
1
 10
18487.237353773609
 20
4396.7600416717296
 30
0.0
 11
18449.537353773609
 21
4365.092041671729
 31
0.0
  0
LINE
  5
7170
  8
1
 10
18194.53735377362
 20
4711.7600416717323
 30
0.0
 11
18374.53735377362
 21
4711.7600416717296
 31
0.0
  0
LINE
  5
7171
  8
CT
 10
18238.596973267919
 20
4678.2118758380348
 30
0.0
 11
18242.706409052978
 21
4662.8752526977687
 31
0.0
  0
CIRCLE
  5
7172
  8
1
 10
18240.796935151291
 20
4670.0015063145784
 30
0.0
 40
4.0
  0
LINE
  5
7173
  8
CT
 10
18159.025900113011
 20
4632.2714953323348
 30
0.0
 11
18170.25308746822
 21
4621.044307977123
 31
0.0
  0
CIRCLE
  5
7174
  8
1
 10
18165.036307753089
 20
4626.261087692249
 30
0.0
 40
4.0
  0
LINE
  5
7175
  8
CT
 10
18330.47773427932
 20
4678.2118758380402
 30
0.0
 11
18326.368298494261
 21
4662.8752526977732
 31
0.0
  0
CIRCLE
  5
7176
  8
1
 10
18328.277772395941
 20
4670.0015063145829
 30
0.0
 40
4.0
  0
LINE
  5
7177
  8
1
 10
18374.53735377362
 20
4711.7600416717296
 30
0.0
 11
18496.837353773619
 21
4589.86004167173
 31
0.0
  0
LINE
  5
7178
  8
CT
 10
18455.989187939929
 20
4552.7004221774341
 30
0.0
 11
18440.65256479966
 21
4548.5909863923807
 31
0.0
  0
CIRCLE
  5
7179
  8
1
 10
18447.778818416471
 20
4550.5004602940644
 30
0.0
 40
4.0
  0
POLYLINE
  5
717A
  8
1
 66
     1
 10
0.0
 20
0.0
 30
0.0
  0
VERTEX
  5
75D0
  8
1
 10
18497.07833738019
 20
4652.5774616224926
 30
0.0
 42
0.1174780416237576
  0
VERTEX
  5
75D1
  8
1
 10
18401.285212824168
 20
4721.0223367536964
 30
0.0
 42
0.1174780416237576
  0
SEQEND
  5
75D2
  8
1
  0
POLYLINE
  5
717B
  8
1
 66
     1
 10
0.0
 20
0.0
 30
0.0
  0
VERTEX
  5
75D3
  8
1
 10
18489.53735377363
 20
4646.0098466638019
 30
0.0
 42
0.1174780416237573
  0
VERTEX
  5
75D4
  8
1
 10
18397.515612074149
 20
4711.7600416717287
 30
0.0
 42
0.3153658436290411
  0
SEQEND
  5
75D5
  8
1
  0
LINE
  5
717C
  8
CT
 10
18410.048807434228
 20
4632.2714953323457
 30
0.0
 11
18398.821620079019
 21
4621.0443079771348
 31
0.0
  0
CIRCLE
  5
717D
  8
1
 10
18404.03839979415
 20
4626.2610876922599
 30
0.0
 40
4.0
  0
POLYLINE
  5
717E
  8
1
 66
     1
 10
0.0
 20
0.0
 30
0.0
  0
VERTEX
  5
75D6
  8
1
 10
18074.53735377362
 20
5474.8876823828186
 30
0.0
  0
VERTEX
  5
75D7
  8
1
 10
18190.80134706034
 20
5474.8876823828186
 30
0.0
  0
SEQEND
  5
75D8
  8
1
  0
POLYLINE
  5
717F
  8
1
 66
     1
 10
0.0
 20
0.0
 30
0.0
  0
VERTEX
  5
75D9
  8
1
 10
18074.53735377362
 20
5726.9917190335327
 30
0.0
  0
VERTEX
  5
75DA
  8
1
 10
18269.937353773621
 20
5726.9917190335327
 30
0.0
  0
SEQEND
  5
75DB
  8
1
  0
POLYLINE
  5
7180
  8
1
 66
     1
 10
0.0
 20
0.0
 30
0.0
  0
VERTEX
  5
75DC
  8
1
 10
18103.03735377362
 20
5737.4876823828172
 30
0.0
  0
VERTEX
  5
75DD
  8
1
 10
18284.53735377362
 20
5737.4876823828172
 30
0.0
  0
VERTEX
  5
75DE
  8
1
 10
18304.867656553441
 20
5737.4876823828172
 30
0.0
  0
SEQEND
  5
75DF
  8
1
  0
LINE
  5
7181
  8
1
 10
18034.53735377362
 20
5745.4876823828172
 30
0.0
 11
18284.53735377362
 21
5745.4876823828172
 31
0.0
  0
LINE
  5
7182
  8
1
 10
18074.53735377362
 20
5418.4876823828172
 30
0.0
 11
18074.53735377362
 21
5745.4876823828181
 31
0.0
  0
LINE
  5
7183
  8
1
 10
18074.53735377362
 20
5426.4876823828172
 30
0.0
 11
18074.53735377362
 21
5736.4876823828281
 31
0.0
  0
LINE
  5
7184
  8
1
 10
18034.53735377362
 20
5426.4876823828172
 30
0.0
 11
18034.53735377362
 21
5736.4876823828281
 31
0.0
  0
LINE
  5
7185
  8
1
 10
18034.53735377362
 20
5426.4876823828172
 30
0.0
 11
18074.53735377362
 21
5426.4876823828172
 31
0.0
  0
LINE
  5
7186
  8
FUTO
 10
17974.53735377362
 20
5378.4876823828163
 30
0.0
 11
17974.53735377362
 21
5418.4876823828172
 31
0.0
  0
LINE
  5
7187
  8
CT
 10
18004.53735377362
 20
5412.6223902653646
 30
0.0
 11
18004.53735377362
 21
5376.9553107609254
 31
0.0
  0
LINE
  5
7188
  8
CT
 10
17988.845065576981
 20
5396.4876823828163
 30
0.0
 11
18019.53735377362
 21
5396.4876823828163
 31
0.0
  0
CIRCLE
  5
7189
  8
FUTO
 10
18004.53735377362
 20
5396.4876823828163
 30
0.0
 40
6.5
  0
LINE
  5
718A
  8
1
 10
18035.737353773609
 20
5745.4876823828172
 30
0.0
 11
18054.53735377362
 21
5764.2876823828183
 31
0.0
  0
LINE
  5
718B
  8
1
 10
18074.53735377362
 20
5736.4876823828281
 30
0.0
 11
18034.53735377362
 21
5736.4876823828281
 31
0.0
  0
LINE
  5
718C
  8
1
 10
18034.53735377362
 20
5725.4876823828172
 30
0.0
 11
18035.737353773609
 21
5725.4876823828172
 31
0.0
1001
ACAD
1000
ASC_BOUNDS
1002
{
1070
    19
1002
}
  0
ARC
  5
718D
  8
1
 10
18103.03735377362
 20
5738.4876823828172
 30
0.0
 40
1.0
 50
180.0
 51
270.0
  0
ARC
  5
718E
  8
1
 10
18104.03735377362
 20
5739.4876823828172
 30
0.0
 40
1.0
 50
180.0
 51
270.0
  0
ARC
  5
718F
  8
1
 10
18103.03735377362
 20
5738.4876823828172
 30
0.0
 40
1.0
 50
180.0
 51
270.0
  0
LINE
  5
7190
  8
1
 10
18103.03735377362
 20
5745.4876823828172
 30
0.0
 11
18103.03735377362
 21
5739.4876823828172
 31
0.0
  0
LINE
  5
7191
  8
1
 10
18102.03735377362
 20
5744.4876823828181
 30
0.0
 11
18102.03735377362
 21
5738.4876823828172
 31
0.0
  0
ARC
  5
7192
  8
1
 10
18101.03735377362
 20
5744.4876823828181
 30
0.0
 40
1.0
 50
0.0
 51
90.0
  0
ARC
  5
7193
  8
1
 10
18104.882773585628
 20
5779.0615355347154
 30
0.0
 40
48.656384192584412
 50
303.50003366519968
 51
316.36834872324539
  0
LINE
  5
7194
  8
1
 10
18104.03735377362
 20
5738.4876823828172
 30
0.0
 11
18131.738055433048
 21
5738.4876823828172
 31
0.0
  0
LINE
  5
7195
  8
1
 10
18494.53735377362
 20
5418.4876823828172
 30
0.0
 11
18494.53735377362
 21
5745.4876823828181
 31
0.0
  0
LINE
  5
7196
  8
1
 10
18534.53735377362
 20
5418.4876823828172
 30
0.0
 11
18534.53735377362
 21
5745.5210528357211
 31
0.0
  0
LINE
  5
7197
  8
1
 10
18494.53735377362
 20
5426.4876823828172
 30
0.0
 11
18494.53735377362
 21
5736.4876823828181
 31
0.0
  0
LINE
  5
7198
  8
1
 10
18534.53735377362
 20
5426.4876823828172
 30
0.0
 11
18534.53735377362
 21
5736.4876823828181
 31
0.0
  0
LINE
  5
7199
  8
1
 10
18184.53735377362
 20
5686.8273823828167
 30
0.0
 11
18184.53735377362
 21
5536.1479823828176
 31
0.0
  0
LINE
  5
719A
  8
1
 10
18384.53735377362
 20
5536.1479823828176
 30
0.0
 11
18384.53735377362
 21
5686.8273823828167
 31
0.0
  0
LINE
  5
719B
  8
1
 10
18385.337353773619
 20
5528.4876823828172
 30
0.0
 11
18183.73735377362
 21
5528.4876823828172
 31
0.0
  0
LINE
  5
719C
  8
1
 10
18188.53735377362
 20
5488.4876823828172
 30
0.0
 11
18383.837353773619
 21
5488.4876823828172
 31
0.0
  0
LINE
  5
719D
  8
1
 10
18200.984453773621
 20
5438.4876823828172
 30
0.0
 11
18368.11825377362
 21
5438.4876823828172
 31
0.0
  0
LINE
  5
719E
  8
1
 10
18200.984453773621
 20
5438.4876823828172
 30
0.0
 11
18368.11825377362
 21
5438.4876823828172
 31
0.0
  0
LINE
  5
719F
  8
1
 10
18187.53735377362
 20
5488.4876823828172
 30
0.0
 11
18199.206153773619
 21
5439.8675823828171
 31
0.0
  0
ARC
  5
71A0
  8
1
 10
18200.956353773621
 20
5440.2875823828181
 30
0.0
 40
1.7999000000000001
 50
193.4933999999954
 51
270.0018999998789
  0
LINE
  5
71A1
  8
1
 10
18198.09665377362
 20
5528.3193823828178
 30
0.0
 11
18184.53735377362
 21
5536.1479823828176
 31
0.0
  0
ARC
  5
71A2
  8
1
 10
18185.23735377362
 20
5489.9876823828172
 30
0.0
 40
1.5
 50
180.0
 51
270.0
  0
LINE
  5
71A3
  8
1
 10
18183.73735377362
 20
5528.4876823828172
 30
0.0
 11
18183.73735377362
 21
5489.9876823828172
 31
0.0
  0
LINE
  5
71A4
  8
1
 10
18381.53735377362
 20
5488.4876823828172
 30
0.0
 11
18369.86855377362
 21
5439.8675823828171
 31
0.0
  0
ARC
  5
71A5
  8
1
 10
18368.118353773621
 20
5440.2875823828181
 30
0.0
 40
1.7999000000000001
 50
269.9980999999126
 51
346.50660000000448
  0
LINE
  5
71A6
  8
1
 10
18494.53735377362
 20
5426.4876823828208
 30
0.0
 11
18534.53735377362
 21
5426.4876823828172
 31
0.0
  0
POLYLINE
  5
71A7
  8
1
 66
     1
 10
0.0
 20
0.0
 30
0.0
  0
VERTEX
  5
75E0
  8
1
 10
18378.273360486892
 20
5474.8876823828186
 30
0.0
  0
VERTEX
  5
75E1
  8
1
 10
18494.53735377362
 20
5474.8876823828168
 30
0.0
  0
SEQEND
  5
75E2
  8
1
  0
LINE
  5
71A8
  8
1
 10
18370.978053773619
 20
5528.3193823828178
 30
0.0
 11
18384.53735377362
 21
5536.1479823828176
 31
0.0
  0
ARC
  5
71A9
  8
1
 10
18383.837353773619
 20
5489.9876823828172
 30
0.0
 40
1.5
 50
270.0
 51
0.0
  0
LINE
  5
71AA
  8
1
 10
18385.337353773619
 20
5528.4876823828172
 30
0.0
 11
18385.337353773619
 21
5489.9876823828172
 31
0.0
  0
POLYLINE
  5
71AB
  8
1
 66
     1
 10
0.0
 20
0.0
 30
0.0
  0
VERTEX
  5
75E3
  8
1
 10
18299.137253773621
 20
5726.9917190335327
 30
0.0
  0
VERTEX
  5
75E4
  8
1
 10
18494.53735377362
 20
5726.9917190335327
 30
0.0
  0
SEQEND
  5
75E5
  8
1
  0
LINE
  5
71AC
  8
1
 10
18284.53735377362
 20
5745.4876823828208
 30
0.0
 11
18533.53735377362
 21
5745.4876823828172
 31
0.0
  0
POLYLINE
  5
71AD
  8
1
 66
     1
 10
0.0
 20
0.0
 30
0.0
  0
VERTEX
  5
75E6
  8
1
 10
18304.867656553441
 20
5737.4876823828172
 30
0.0
  0
VERTEX
  5
75E7
  8
1
 10
18466.03735377362
 20
5737.4876823828172
 30
0.0
  0
SEQEND
  5
75E8
  8
1
  0
LINE
  5
71AE
  8
1
 10
18366.53735377362
 20
5716.2153618162356
 30
0.0
 11
18202.53735377362
 21
5716.2153618162356
 31
0.0
  0
LINE
  5
71AF
  8
1
 10
18199.53735377362
 20
5695.4876823828172
 30
0.0
 11
18369.53735377362
 21
5695.4876823828172
 31
0.0
  0
LINE
  5
71B0
  8
1
 10
18247.53735377362
 20
5722.2153618162356
 30
0.0
 11
18321.53735377362
 21
5722.2153618162356
 31
0.0
  0
ARC
  5
71B1
  8
1
 10
18247.53735377362
 20
5719.2153618162356
 30
0.0
 40
2.9998999999999989
 50
89.998799999879139
 51
180.00119999999049
  0
LINE
  5
71B2
  8
1
 10
18244.53735377362
 20
5716.2153618162356
 30
0.0
 11
18244.53735377362
 21
5719.2153618162356
 31
0.0
  0
ARC
  5
71B3
  8
1
 10
18202.537253773618
 20
5713.2153618162356
 30
0.0
 40
2.9998999999999989
 50
89.998799999879139
 51
180.00119999999049
  0
LINE
  5
71B4
  8
1
 10
18184.53735377362
 20
5686.8273823828167
 30
0.0
 11
18199.53735377362
 21
5695.4876823828172
 31
0.0
  0
LINE
  5
71B5
  8
1
 10
18199.53735377362
 20
5698.4876823828172
 30
0.0
 11
18199.53735377362
 21
5695.4876823828172
 31
0.0
  0
LINE
  5
71B6
  8
1
 10
18199.53735377362
 20
5695.4876823828172
 30
0.0
 11
18199.53735377362
 21
5713.2153618162356
 31
0.0
  0
LINE
  5
71B7
  8
1
 10
18299.137353773622
 20
5722.2153618162356
 30
0.0
 11
18299.137353773622
 21
5745.4876823828208
 31
0.0
  0
LINE
  5
71B8
  8
1
 10
18269.937453773618
 20
5722.2153618162356
 30
0.0
 11
18269.937453773618
 21
5745.4876823828172
 31
0.0
  0
LINE
  5
71B9
  8
1
 10
18324.53735377362
 20
5716.2153618162356
 30
0.0
 11
18324.53735377362
 21
5719.2153618162356
 31
0.0
  0
ARC
  5
71BA
  8
1
 10
18321.537453773621
 20
5719.2153618162356
 30
0.0
 40
2.9998999999999989
 50
359.99880000000928
 51
90.001199999912416
  0
LINE
  5
71BB
  8
1
 10
18465.03735377362
 20
5738.4876823828163
 30
0.0
 11
18437.336652114191
 21
5738.4876823828172
 31
0.0
  0
ARC
  5
71BC
  8
1
 10
18464.191933961611
 20
5779.0615355347154
 30
0.0
 40
48.656384192584412
 50
223.6316512767545
 51
236.49996633480009
  0
ARC
  5
71BD
  8
1
 10
18366.537453773621
 20
5713.2153618162356
 30
0.0
 40
2.9998999999999989
 50
359.99880000000928
 51
90.001199999912416
  0
LINE
  5
71BE
  8
1
 10
18384.53735377362
 20
5686.8273823828167
 30
0.0
 11
18369.53735377362
 21
5695.4876823828172
 31
0.0
  0
LINE
  5
71BF
  8
1
 10
18369.53735377362
 20
5698.4876823828172
 30
0.0
 11
18369.53735377362
 21
5695.4876823828172
 31
0.0
  0
LINE
  5
71C0
  8
1
 10
18369.53735377362
 20
5695.4876823828172
 30
0.0
 11
18369.53735377362
 21
5713.2153618162356
 31
0.0
  0
LINE
  5
71C1
  8
FUTO
 10
18494.53735377362
 20
5736.4876823828181
 30
0.0
 11
18534.53735377362
 21
5736.4876823828181
 31
0.0
  0
ARC
  5
71C2
  8
1
 10
18468.03735377362
 20
5744.4876823828181
 30
0.0
 40
1.0
 50
90.0
 51
180.0
  0
LINE
  5
71C3
  8
1
 10
18467.03735377362
 20
5744.4876823828181
 30
0.0
 11
18467.03735377362
 21
5738.4876823828163
 31
0.0
  0
LINE
  5
71C4
  8
1
 10
18466.03735377362
 20
5745.4876823828154
 30
0.0
 11
18466.03735377362
 21
5739.4876823828154
 31
0.0
  0
ARC
  5
71C5
  8
1
 10
18466.03735377362
 20
5738.4876823828172
 30
0.0
 40
1.0
 50
270.0
 51
0.0
  0
ARC
  5
71C6
  8
1
 10
18465.03735377362
 20
5739.4876823828172
 30
0.0
 40
1.0
 50
270.0
 51
0.0
  0
LINE
  5
71C7
  8
1
 10
18034.53735377362
 20
5971.4876823828172
 30
0.0
 11
18284.53735377362
 21
5971.4876823828172
 31
0.0
  0
POLYLINE
  5
71C8
  8
1
 66
     1
 10
0.0
 20
0.0
 30
0.0
  0
VERTEX
  5
75E9
  8
1
 10
18103.03735377362
 20
5979.4876823828172
 30
0.0
  0
VERTEX
  5
75EA
  8
1
 10
18284.53735377362
 20
5979.4876823828172
 30
0.0
  0
VERTEX
  5
75EB
  8
1
 10
18304.867656553441
 20
5979.4876823828172
 30
0.0
  0
SEQEND
  5
75EC
  8
1
  0
LINE
  5
71C9
  8
1
 10
18074.53735377362
 20
5971.4876823828181
 30
0.0
 11
18074.53735377362
 21
6038.4876823828163
 31
0.0
  0
LINE
  5
71CA
  8
1
 10
18035.737353773609
 20
5971.4876823828172
 30
0.0
 11
18054.53735377362
 21
5952.6876823828179
 31
0.0
  0
LINE
  5
71CB
  8
1
 10
18034.53735377362
 20
5991.4876823828181
 30
0.0
 11
18035.737353773609
 21
5991.4876823828181
 31
0.0
1001
ACAD
1000
ASC_BOUNDS
1002
{
1070
    19
1002
}
  0
ARC
  5
71CC
  8
1
 10
18101.03735377362
 20
5972.4876823828172
 30
0.0
 40
1.0
 50
270.0
 51
0.0
  0
LINE
  5
71CD
  8
1
 10
18102.03735377362
 20
5972.4876823828172
 30
0.0
 11
18102.03735377362
 21
5978.4876823828172
 31
0.0
  0
LINE
  5
71CE
  8
1
 10
18103.03735377362
 20
5971.4876823828172
 30
0.0
 11
18103.03735377362
 21
5977.4876823828172
 31
0.0
  0
ARC
  5
71CF
  8
1
 10
18103.03735377362
 20
5978.4876823828172
 30
0.0
 40
1.0
 50
90.0
 51
180.0
  0
ARC
  5
71D0
  8
1
 10
18104.03735377362
 20
5977.4876823828172
 30
0.0
 40
1.0
 50
90.0
 51
180.0
  0
ARC
  5
71D1
  8
1
 10
18103.03735377362
 20
5978.4876823828172
 30
0.0
 40
1.0
 50
90.0
 51
180.0
  0
ARC
  5
71D2
  8
1
 10
18104.882773585628
 20
5937.913829230919
 30
0.0
 40
48.656384192584412
 50
43.631651276754518
 51
56.499966334800199
  0
LINE
  5
71D3
  8
1
 10
18104.03735377362
 20
5978.4876823828172
 30
0.0
 11
18131.738055433048
 21
5978.4876823828172
 31
0.0
  0
LINE
  5
71D4
  8
FUTO
 10
17974.53735377362
 20
6038.4876823828172
 30
0.0
 11
17974.53735377362
 21
6078.4876823828172
 31
0.0
  0
CIRCLE
  5
71D5
  8
FUTO
 10
18004.53735377362
 20
6060.4876823828172
 30
0.0
 40
6.5
  0
LINE
  5
71D6
  8
CT
 10
17988.845065576981
 20
6060.4876823828172
 30
0.0
 11
18019.53735377362
 21
6060.4876823828172
 31
0.0
  0
LINE
  5
71D7
  8
CT
 10
18004.53735377362
 20
6044.352974500267
 30
0.0
 11
18004.53735377362
 21
6080.0200540047081
 31
0.0
  0
LINE
  5
71D8
  8
1
 10
18284.53735377362
 20
5971.4876823828154
 30
0.0
 11
18533.53735377362
 21
5971.4876823828172
 31
0.0
  0
POLYLINE
  5
71D9
  8
1
 66
     1
 10
0.0
 20
0.0
 30
0.0
  0
VERTEX
  5
75ED
  8
1
 10
18304.867656553441
 20
5979.4876823828172
 30
0.0
  0
VERTEX
  5
75EE
  8
1
 10
18466.03735377362
 20
5979.4876823828172
 30
0.0
  0
SEQEND
  5
75EF
  8
1
  0
LINE
  5
71DA
  8
1
 10
18534.53735377362
 20
5971.4543119299142
 30
0.0
 11
18534.53735377362
 21
6038.4876823828163
 31
0.0
  0
LINE
  5
71DB
  8
1
 10
18494.53735377362
 20
5971.4876823828172
 30
0.0
 11
18494.53735377362
 21
6038.4876823828163
 31
0.0
  0
LINE
  5
71DC
  8
1
 10
18465.03735377362
 20
5978.487682382819
 30
0.0
 11
18437.336652114191
 21
5978.4876823828172
 31
0.0
  0
ARC
  5
71DD
  8
1
 10
18464.191933961611
 20
5937.913829230919
 30
0.0
 40
48.656384192584412
 50
123.50003366519979
 51
136.36834872324539
  0
ARC
  5
71DE
  8
1
 10
18465.03735377362
 20
5977.4876823828172
 30
0.0
 40
1.0
 50
0.0
 51
90.0
  0
ARC
  5
71DF
  8
1
 10
18466.03735377362
 20
5978.4876823828172
 30
0.0
 40
1.0
 50
0.0
 51
90.0
  0
LINE
  5
71E0
  8
1
 10
18466.03735377362
 20
5971.487682382819
 30
0.0
 11
18466.03735377362
 21
5977.487682382819
 31
0.0
  0
LINE
  5
71E1
  8
1
 10
18467.03735377362
 20
5972.4876823828172
 30
0.0
 11
18467.03735377362
 21
5978.487682382819
 31
0.0
  0
ARC
  5
71E2
  8
1
 10
18468.03735377362
 20
5972.4876823828172
 30
0.0
 40
1.0
 50
180.0
 51
270.0
  0
DIMENSION
  5
71E3
  8
SP
  2
*D55
 10
18757.648843802552
 20
5378.4876823828172
 30
0.0
 11
18720.148843802559
 21
5728.4876823828199
 31
0.0
 70
     0
 13
18594.53735377362
 23
6078.4876823828181
 33
0.0
 14
18594.53735377362
 24
5378.4876823828172
 34
0.0
 50
90.0
  0
LINE
  5
71E4
  8
1
 10
18548.537353773609
 20
5956.4876823828172
 30
0.0
 11
18548.537353773609
 21
5760.4876823828172
 31
0.0
  0
LINE
  5
71E5
  8
SL
 10
19159.38478131712
 20
4117.6915658069129
 30
0.0
 11
19159.38478131712
 21
4764.4484677983291
 31
0.0
  0
LINE
  5
71E6
  8
SL
 10
19823.38478131712
 20
4117.6915658069129
 30
0.0
 11
19823.38478131712
 21
4764.4484677983291
 31
0.0
  0
LINE
  5
71E7
  8
2
 10
19621.38478131712
 20
4817.8129425966727
 30
0.0
 11
19621.38478131712
 21
4067.0456116650489
 31
0.0
1001
ACAD
1000
ASC_BOUNDS
1002
{
1070
    19
1005
0
1005
0
1002
}
  0
DIMENSION
  5
71E8
  8
SP
  2
*D56
 10
19201.384781318109
 20
4939.0472617882033
 30
0.0
 11
19411.384781317622
 21
4976.5472617882024
 31
0.0
 70
     0
 13
19621.38478131712
 23
4904.0226141733183
 33
0.0
 14
19201.384781318109
 24
4590.340981984783
 34
0.0
1001
ACAD
1000
DSTYLE
1002
{
1070
     3
1000
（<>）
1002
}
  0
DIMENSION
  5
71E9
  8
SP
  2
*D57
 10
19742.38478131712
 20
4939.0472617882033
 30
0.0
 11
19681.88478131712
 21
4976.5472617882024
 31
0.0
 70
     0
 13
19621.38478131712
 23
4904.0226141733183
 33
0.0
 14
19742.38478131712
 24
4688.2600416717269
 34
0.0
  0
DIMENSION
  5
71EA
  8
SP
  2
*D58
 10
19733.38478131712
 20
4834.0472617882033
 30
0.0
 11
19621.38478131712
 21
4871.5472617882033
 31
0.0
 70
     0
 13
19509.38478131712
 23
4714.0472617882033
 33
0.0
 14
19733.38478131712
 24
4714.0472617882024
 34
0.0
  0
DIMENSION
  5
71EB
  8
SP
  2
*D59
 10
19621.38478131712
 20
3984.7600416717269
 30
0.0
 11
19381.38478131712
 21
4022.2600416717269
 31
0.0
 70
     0
 13
19141.38478131712
 23
4129.7600416717278
 33
0.0
 14
19621.38478131712
 24
4067.0456116650489
 34
0.0
  0
DIMENSION
  5
71EC
  8
SP
  2
*D60
 10
19841.38478131712
 20
3879.7600416717278
 30
0.0
 11
19491.38478131712
 21
3917.2600416717278
 31
0.0
 70
     0
 13
19141.38478131712
 23
4129.7600416717278
 33
0.0
 14
19841.38478131712
 24
4129.7600416717278
 34
0.0
  0
LINE
  5
71ED
  8
FUTO
 10
19181.38478131712
 20
4129.7600416717278
 30
0.0
 11
19801.38478131712
 21
4129.7600416717278
 31
0.0
  0
LINE
  5
71EE
  8
FUTO
 10
19182.38478131712
 20
4089.7600416717278
 30
0.0
 11
19802.38478131712
 21
4089.7600416717278
 31
0.0
  0
LINE
  5
71EF
  8
1
 10
19374.38478131712
 20
4606.7600416717269
 30
0.0
 11
19299.045081317119
 21
4606.7600416717269
 31
0.0
  0
LINE
  5
71F0
  8
1
 10
19509.38478131712
 20
4711.7600416717296
 30
0.0
 11
19318.82279810917
 21
4506.7600416717278
 31
0.0
  0
LINE
  5
71F1
  8
2
 10
19773.396765452839
 20
4506.7600416717278
 30
0.0
 11
19159.996660750541
 21
4506.7600416717278
 31
0.0
  0
LINE
  5
71F2
  8
FUTO
 10
19190.38478131712
 20
4154.9600416717276
 30
0.0
 11
19497.184781317119
 21
4154.9600416717276
 31
0.0
  0
LINE
  5
71F3
  8
1
 10
19190.38478131712
 20
4151.7600416717278
 30
0.0
 11
19540.38478131712
 21
4151.7600416717278
 31
0.0
  0
LINE
  5
71F4
  8
FUTO
 10
19320.184781317119
 20
4506.7600416717278
 30
0.0
 11
19190.38478131712
 21
4154.9600416717276
 31
0.0
  0
LINE
  5
71F5
  8
FUTO
 10
18594.53735377363
 20
4089.7600416717301
 30
0.0
 11
18594.53735377363
 21
4129.7600416717314
 31
0.0
  0
INSERT
  5
71F6
  8
FUTO
  2
L-40-3
 10
19181.38478131712
 20
4129.7600416717278
 30
0.0
 41
-1.0
 50
90.0
  0
LINE
  5
71F7
  8
FUTO
 10
19190.38478131712
 20
4151.7600416717278
 30
0.0
 11
19190.38478131712
 21
4154.9600416717276
 31
0.0
  0
LINE
  5
71F8
  8
1
 10
19251.38478131712
 20
4410.7600416717278
 30
0.0
 11
19251.38478131712
 21
4606.0600416717289
 31
0.0
  0
LINE
  5
71F9
  8
1
 10
19291.38478131712
 20
4607.560041671728
 30
0.0
 11
19291.38478131712
 21
4456.7600416717269
 31
0.0
  0
LINE
  5
71FA
  8
1
 10
19201.38478131712
 20
4423.2071416717281
 30
0.0
 11
19201.38478131712
 21
4590.3409416717286
 31
0.0
  0
LINE
  5
71FB
  8
FUTO
 10
19249.861664293141
 20
4315.8983708497799
 30
0.0
 11
19202.263840497701
 21
4403.2715348642687
 31
0.0
  0
LINE
  5
71FC
  8
1
 10
19251.38478131712
 20
4410.7600416717278
 30
0.0
 11
19202.79808131712
 21
4421.4491416717283
 31
0.0
  0
LINE
  5
71FD
  8
FUTO
 10
19194.184781317119
 20
4405.6715348642674
 30
0.0
 11
19282.938649794822
 21
4405.6715348642674
 31
0.0
  0
LINE
  5
71FE
  8
FUTO
 10
19194.184781317119
 20
4403.2715348642687
 30
0.0
 11
19282.05436810468
 21
4403.271534864265
 31
0.0
  0
LINE
  5
71FF
  8
FUTO
 10
19189.38478131712
 20
4378.0715348642707
 30
0.0
 11
19189.38478131712
 21
4400.8715348642681
 31
0.0
  0
LINE
  5
7200
  8
FUTO
 10
19191.784781317121
 20
4378.0715348642707
 30
0.0
 11
19191.784781317121
 21
4400.8715348642681
 31
0.0
  0
ARC
  5
7201
  8
FUTO
 10
19194.184781317119
 20
4400.8715348642681
 30
0.0
 40
4.7999999999999998
 50
90.0
 51
180.0
  0
ARC
  5
7202
  8
FUTO
 10
19194.184781317119
 20
4400.8715348642681
 30
0.0
 40
2.3999999999999999
 50
90.0
 51
180.0
  0
LINE
  5
7203
  8
FUTO
 10
19189.38478131712
 20
4378.0715348642707
 30
0.0
 11
19191.784781317121
 21
4378.0715348642707
 31
0.0
  0
ARC
  5
7204
  8
1
 10
19203.18458131712
 20
4423.2069416717277
 30
0.0
 40
1.7998000000000001
 50
179.9961000000213
 51
257.59830000005792
  0
LINE
  5
7205
  8
1
 10
19277.38478131712
 20
4409.7600416717269
 30
0.0
 11
19277.38478131712
 21
4447.7600416717278
 31
0.0
  0
ARC
  5
7206
  8
1
 10
19252.384881317121
 20
4410.7600416717278
 30
0.0
 40
1.0000999999999991
 50
180.0
 51
269.99649999995819
  0
LINE
  5
7207
  8
1
 10
19277.38478131712
 20
4409.7600416717269
 30
0.0
 11
19252.38478131712
 21
4409.7600416717269
 31
0.0
  0
LINE
  5
7208
  8
1
 10
19277.285281317119
 20
4421.7600416717278
 30
0.0
 11
19288.866471457961
 21
4421.7600416717278
 31
0.0
  0
LINE
  5
7209
  8
1
 10
19277.38478131712
 20
4447.7600416717278
 30
0.0
 11
19291.38478131712
 21
4456.7600416717269
 31
0.0
  0
LINE
  5
720A
  8
1
 10
19251.38478131712
 20
4603.7600416717269
 30
0.0
 11
19202.76468131712
 21
4592.0912416717283
 31
0.0
  0
ARC
  5
720B
  8
1
 10
19203.184681317121
 20
4590.341041671727
 30
0.0
 40
1.7999000000000001
 50
103.49339999989409
 51
180.0018999999831
  0
LINE
  5
720C
  8
1
 10
19291.216481317118
 20
4593.2007416717279
 30
0.0
 11
19299.045081317119
 21
4606.7600416717269
 31
0.0
  0
ARC
  5
720D
  8
1
 10
19252.88478131712
 20
4606.0600416717289
 30
0.0
 40
1.5
 50
90.0
 51
180.0
  0
LINE
  5
720E
  8
1
 10
19291.38478131712
 20
4607.560041671728
 30
0.0
 11
19252.88478131712
 21
4607.560041671728
 31
0.0
  0
ARC
  5
720F
  8
FUTO
 10
19524.38478131712
 20
4196.7600416717278
 30
0.0
 40
16.0
 50
180.0
 51
270.0
  0
ARC
  5
7210
  8
FUTO
 10
19718.384781317131
 20
4196.7600416717278
 30
0.0
 40
16.0
 50
270.0
 51
0.0
  0
ARC
  5
7211
  8
FUTO
 10
19524.38478131712
 20
4196.7600416717278
 30
0.0
 40
15.0
 50
180.0
 51
270.0
  0
ARC
  5
7212
  8
FUTO
 10
19718.384781317131
 20
4196.7600416717278
 30
0.0
 40
15.0
 50
270.0
 51
0.0
  0
ARC
  5
7213
  8
FUTO
 10
19729.38478131712
 20
4195.2600416717323
 30
0.0
 40
25.0
 50
270.0
 51
0.0
  0
POLYLINE
  5
7214
  8
1
 66
     1
 10
0.0
 20
0.0
 30
0.0
  0
VERTEX
  5
75F0
  8
1
 10
19500.38478131712
 20
4702.078152509258
 30
0.0
  0
VERTEX
  5
75F1
  8
1
 10
19500.38478131712
 20
4506.7600416717278
 30
0.0
  0
VERTEX
  5
75F2
  8
1
 10
19500.38478131712
 20
4151.7600416717278
 30
0.0
  0
SEQEND
  5
75F3
  8
1
  0
POLYLINE
  5
7215
  8
1
 66
     1
 10
0.0
 20
0.0
 30
0.0
  0
VERTEX
  5
75F4
  8
1
 10
19497.184781317119
 20
4698.6357030292684
 30
0.0
  0
VERTEX
  5
75F5
  8
1
 10
19497.184781317119
 20
4151.7600416717278
 30
0.0
  0
SEQEND
  5
75F6
  8
1
  0
DIMENSION
  5
7216
  8
SP
  2
*D61
 10
19841.38478131712
 20
3984.7600416717269
 30
0.0
 11
19731.38478131712
 21
4022.2600416717269
 31
0.0
 70
     0
 13
19621.38478131712
 23
4067.0456116650489
 33
0.0
 14
19841.38478131712
 24
4129.7600416717278
 34
0.0
  0
LINE
  5
7217
  8
FUTO
 10
19524.38478131712
 20
4180.7600416717269
 30
0.0
 11
19718.384781317131
 21
4180.7600416717269
 31
0.0
  0
LINE
  5
7218
  8
FUTO
 10
19524.38478131712
 20
4181.7600416717269
 30
0.0
 11
19718.384781317131
 21
4181.7600416717269
 31
0.0
  0
LINE
  5
7219
  8
FUTO
 10
19513.38478131712
 20
4170.2600416717332
 30
0.0
 11
19729.38478131712
 21
4170.2600416717332
 31
0.0
  0
LINE
  5
721A
  8
FUTO
 10
19500.38478131712
 20
4154.9600416717276
 30
0.0
 11
19540.38478131712
 21
4154.9600416717276
 31
0.0
  0
ARC
  5
721B
  8
FUTO
 10
19513.38478131712
 20
4195.2600416717323
 30
0.0
 40
25.0
 50
238.6677485023813
 51
270.0
  0
POLYLINE
  5
721C
  8
FUTO
 66
     1
 10
0.0
 20
0.0
 30
0.0
  0
VERTEX
  5
75F7
  8
FUTO
 10
19540.38478131712
 20
4154.9600416717276
 30
0.0
  0
VERTEX
  5
75F8
  8
FUTO
 10
19540.38478131712
 20
4151.7600416717269
 30
0.0
  0
SEQEND
  5
75F9
  8
FUTO
  0
INSERT
  5
721D
  8
FUTO
  2
L-40-3
 10
19801.38478131712
 20
4129.7600416717278
 30
0.0
 50
270.0
  0
LINE
  5
721E
  8
FUTO
 10
19524.38478131712
 20
4730.0472617882033
 30
0.0
 11
19718.384781317109
 21
4730.0472617882024
 31
0.0
  0
LINE
  5
721F
  8
FUTO
 10
19524.38478131712
 20
4729.0472617882033
 30
0.0
 11
19718.384781317109
 21
4729.0472617882024
 31
0.0
  0
LINE
  5
7220
  8
1
 10
19508.38478131712
 20
4714.0472617882033
 30
0.0
 11
19508.38478131712
 21
4196.7600416717278
 31
0.0
  0
LINE
  5
7221
  8
1
 10
19509.38478131712
 20
4714.0472617882033
 30
0.0
 11
19509.38478131712
 21
4196.7600416717278
 31
0.0
  0
ARC
  5
7222
  8
FUTO
 10
19524.38478131712
 20
4714.0472617882033
 30
0.0
 40
16.0
 50
90.0
 51
180.0
  0
ARC
  5
7223
  8
FUTO
 10
19524.38478131712
 20
4714.0472617882033
 30
0.0
 40
15.0
 50
90.0
 51
180.0
  0
LINE
  5
7224
  8
1
 10
19374.38478131712
 20
4606.7600416717269
 30
0.0
 11
19411.77986308865
 21
4606.7600416717269
 31
0.0
  0
LINE
  5
7225
  8
1
 10
19507.38478131712
 20
4689.2600416717278
 30
0.0
 11
19501.38478131712
 21
4689.2600416717278
 31
0.0
  0
ARC
  5
7226
  8
1
 10
19507.38478131712
 20
4690.260041671726
 30
0.0
 40
1.0
 50
270.0
 51
0.0
  0
ARC
  5
7227
  8
1
 10
19501.38478131712
 20
4688.2600416717269
 30
0.0
 40
1.0
 50
90.0
 51
180.0
  0
LINE
  5
7228
  8
1
 10
19734.384781317109
 20
4714.0472617882024
 30
0.0
 11
19734.384781317131
 21
4196.7600416717278
 31
0.0
  0
POLYLINE
  5
7229
  8
1
 66
     1
 10
0.0
 20
0.0
 30
0.0
  0
VERTEX
  5
75FA
  8
1
 10
19742.38478131712
 20
4688.2600416717287
 30
0.0
  0
VERTEX
  5
75FB
  8
1
 10
19742.38478131712
 20
4506.7600416717287
 30
0.0
  0
VERTEX
  5
75FC
  8
1
 10
19742.38478131712
 20
4325.2600416717314
 30
0.0
  0
SEQEND
  5
75FD
  8
1
  0
LINE
  5
722A
  8
1
 10
19733.38478131712
 20
4714.0472617882024
 30
0.0
 11
19733.384781317131
 21
4196.7600416717278
 31
0.0
  0
LINE
  5
722B
  8
1
 10
19754.38478131712
 20
4195.2600416717323
 30
0.0
 11
19754.38478131712
 21
4503.2600416717341
 31
0.0
  0
DIMENSION
  5
722C
  8
SP
  2
*D62
 10
19947.814766741481
 20
4349.2600416717278
 30
0.0
 11
19910.314766741481
 21
4506.7600416717314
 31
0.0
 70
     0
 13
19742.38478131712
 23
4664.2600416717269
 33
0.0
 14
19742.38478131712
 24
4349.2600416717278
 34
0.0
 50
90.0
1001
ACAD
1000
DSTYLE
1002
{
1070
     3
1000
φ<>
1002
}
  0
ARC
  5
722D
  8
1
 10
19741.38478131712
 20
4325.2600416717314
 30
0.0
 40
1.0
 50
270.0
 51
0.0
  0
ARC
  5
722E
  8
1
 10
19735.38478131712
 20
4323.2600416717296
 30
0.0
 40
1.0
 50
90.0
 51
180.0
  0
LINE
  5
722F
  8
1
 10
19735.38478131712
 20
4324.2600416717314
 30
0.0
 11
19741.38478131712
 21
4324.2600416717314
 31
0.0
  0
LINE
  5
7230
  8
FUTO
 10
19742.38478131712
 20
4349.2600416717278
 30
0.0
 11
19734.384781317109
 21
4349.2600416717278
 31
0.0
  0
ARC
  5
7231
  8
FUTO
 10
19729.38478131712
 20
4503.2600416717341
 30
0.0
 40
25.0
 50
0.0
 51
58.667748502381293
  0
ARC
  5
7232
  8
FUTO
 10
19718.384781317109
 20
4714.0472617882024
 30
0.0
 40
16.0
 50
0.0
 51
90.0
  0
ARC
  5
7233
  8
1
 10
19741.38478131712
 20
4688.2600416717278
 30
0.0
 40
1.0
 50
0.0
 51
90.0
  0
ARC
  5
7234
  8
1
 10
19735.38478131712
 20
4690.2600416717278
 30
0.0
 40
1.0
 50
180.0
 51
270.0
  0
LINE
  5
7235
  8
1
 10
19735.38478131712
 20
4689.2600416717287
 30
0.0
 11
19741.38478131712
 21
4689.2600416717287
 31
0.0
  0
LINE
  5
7236
  8
FUTO
 10
19742.38478131712
 20
4664.2600416717269
 30
0.0
 11
19734.384781317109
 21
4664.2600416717269
 31
0.0
  0
ARC
  5
7237
  8
FUTO
 10
19718.384781317109
 20
4714.0472617882024
 30
0.0
 40
15.0
 50
0.0
 51
90.0
  0
CIRCLE
  5
7238
  8
FUTO
 10
18564.53735377362
 20
5396.4876823828163
 30
0.0
 40
6.5
  0
LINE
  5
7239
  8
CT
 10
18548.845065576981
 20
5396.4876823828163
 30
0.0
 11
18579.53735377362
 21
5396.4876823828163
 31
0.0
  0
LINE
  5
723A
  8
FUTO
 10
18594.53735377362
 20
5378.4876823828172
 30
0.0
 11
18594.53735377362
 21
5418.4876823828172
 31
0.0
  0
LINE
  5
723B
  8
CT
 10
18564.53735377362
 20
5412.6223902653646
 30
0.0
 11
18564.53735377362
 21
5376.9553107609254
 31
0.0
  0
LINE
  5
723C
  8
FUTO
 10
18594.53735377362
 20
6038.4876823828172
 30
0.0
 11
18594.53735377362
 21
6078.4876823828181
 31
0.0
  0
LINE
  5
723D
  8
CT
 10
18564.53735377362
 20
6044.352974500267
 30
0.0
 11
18564.53735377362
 21
6080.0200540047081
 31
0.0
  0
LINE
  5
723E
  8
CT
 10
18548.845065576981
 20
6060.4876823828172
 30
0.0
 11
18579.53735377362
 21
6060.4876823828172
 31
0.0
  0
CIRCLE
  5
723F
  8
FUTO
 10
18564.53735377362
 20
6060.4876823828172
 30
0.0
 40
6.5
  0
ENDSEC
  0
EOF
