  0
SECTION
  2
HEADER
  9
$ACADVER
  1
AC1009
  9
$INSBASE
 10
0.0
 20
0.0
 30
0.0
  9
$EXTMIN
 10
17345.597715035088
 20
2822.8097917420341
 30
0.0
  9
$EXTMAX
 10
20495.597715035088
 20
7247.8097917420337
 30
0.0
  9
$LIMMIN
 10
0.0
 20
0.0
  9
$LIMMAX
 10
297.0
 20
210.0
  9
$ORTHOMODE
 70
     0
  9
$REGENMODE
 70
     1
  9
$FILLMODE
 70
     1
  9
$QTEXTMODE
 70
     0
  9
$MIRRTEXT
 70
     0
  9
$DRAGMODE
 70
     2
  9
$LTSCALE
 40
75.0
  9
$OSMODE
 70
   545
  9
$ATTMODE
 70
     1
  9
$TEXTSIZE
 40
3.5
  9
$TRACEWID
 40
0.05
  9
$TEXTSTYLE
  7
STANDARD
  9
$CLAYER
  8
SP
  9
$CELTYPE
  6
BYLAYER
  9
$CECOLOR
 62
   256
  9
$DIMSCALE
 40
15.0
  9
$DIMASZ
 40
2.5
  9
$DIMEXO
 40
1.0
  9
$DIMDLI
 40
7.0
  9
$DIMRND
 40
0.0
  9
$DIMDLE
 40
0.0
  9
$DIMEXE
 40
1.0
  9
$DIMTP
 40
0.0
  9
$DIMTM
 40
0.0
  9
$DIMTXT
 40
3.0
  9
$DIMCEN
 40
0.0
  9
$DIMTSZ
 40
0.0
  9
$DIMTOL
 70
     0
  9
$DIMLIM
 70
     0
  9
$DIMTIH
 70
     0
  9
$DIMTOH
 70
     0
  9
$DIMSE1
 70
     0
  9
$DIMSE2
 70
     0
  9
$DIMTAD
 70
     1
  9
$DIMZIN
 70
     8
  9
$DIMBLK
  1

  9
$DIMASO
 70
     1
  9
$DIMSHO
 70
     1
  9
$DIMPOST
  1

  9
$DIMAPOST
  1

  9
$DIMALT
 70
     0
  9
$DIMALTD
 70
     2
  9
$DIMALTF
 40
0.03937
  9
$DIMLFAC
 40
1.0
  9
$DIMTOFL
 70
     1
  9
$DIMTVP
 40
0.0
  9
$DIMTIX
 70
     0
  9
$DIMSOXD
 70
     0
  9
$DIMSAH
 70
     1
  9
$DIMBLK1
  1
OPEN
  9
$DIMBLK2
  1
OPEN
  9
$DIMSTYLE
  2
GOD
  9
$DIMCLRD
 70
   256
  9
$DIMCLRE
 70
   256
  9
$DIMCLRT
 70
   256
  9
$DIMTFAC
 40
1.0
  9
$DIMGAP
 40
1.0
  9
$LUNITS
 70
     2
  9
$LUPREC
 70
     3
  9
$SKETCHINC
 40
0.1
  9
$FILLETRAD
 40
0.0
  9
$AUNITS
 70
     0
  9
$AUPREC
 70
     2
  9
$MENU
  1
acad
  9
$ELEVATION
 40
0.0
  9
$PELEVATION
 40
0.0
  9
$THICKNESS
 40
0.0
  9
$LIMCHECK
 70
     0
  9
$BLIPMODE
 70
     0
  9
$CHAMFERA
 40
0.0
  9
$CHAMFERB
 40
0.0
  9
$SKPOLY
 70
     0
  9
$TDCREATE
 40
2454939.604632488
  9
$TDUPDATE
 40
2454953.8265348258
  9
$TDINDWG
 40
0.1811971991
  9
$TDUSRTIMER
 40
0.1811971991
  9
$USRTIMER
 70
     1
  9
$ANGBASE
 50
0.0
  9
$ANGDIR
 70
     0
  9
$PDMODE
 70
     0
  9
$PDSIZE
 40
1.0
  9
$PLINEWID
 40
0.0
  9
$COORDS
 70
     2
  9
$SPLFRAME
 70
     0
  9
$SPLINETYPE
 70
     6
  9
$SPLINESEGS
 70
     8
  9
$ATTDIA
 70
     0
  9
$ATTREQ
 70
     1
  9
$HANDLING
 70
 22529
  9
$HANDSEED
  5
6E7D
  9
$SURFTAB1
 70
     6
  9
$SURFTAB2
 70
     6
  9
$SURFTYPE
 70
     6
  9
$SURFU
 70
     6
  9
$SURFV
 70
     6
  9
$UCSNAME
  2

  9
$UCSORG
 10
0.0
 20
0.0
 30
0.0
  9
$UCSXDIR
 10
1.0
 20
0.0
 30
0.0
  9
$UCSYDIR
 10
0.0
 20
1.0
 30
0.0
  9
$PUCSNAME
  2

  9
$PUCSORG
 10
0.0
 20
0.0
 30
0.0
  9
$PUCSXDIR
 10
1.0
 20
0.0
 30
0.0
  9
$PUCSYDIR
 10
0.0
 20
1.0
 30
0.0
  9
$USERI1
 70
     0
  9
$USERI2
 70
     0
  9
$USERI3
 70
     0
  9
$USERI4
 70
     0
  9
$USERI5
 70
     0
  9
$USERR1
 40
0.0
  9
$USERR2
 40
0.0
  9
$USERR3
 40
0.0
  9
$USERR4
 40
0.0
  9
$USERR5
 40
0.0
  9
$WORLDVIEW
 70
     1
  9
$SHADEDGE
 70
     3
  9
$SHADEDIF
 70
    70
  9
$TILEMODE
 70
     1
  9
$MAXACTVP
 70
    16
  9
$PLIMCHECK
 70
     0
  9
$PEXTMIN
 10
1.0000000000000000E+020
 20
1.0000000000000000E+020
 30
1.0000000000000000E+020
  9
$PEXTMAX
 10
-1.0000000000000000E+020
 20
-1.0000000000000000E+020
 30
-1.0000000000000000E+020
  9
$PLIMMIN
 10
0.0
 20
0.0
  9
$PLIMMAX
 10
12.0
 20
9.0
  9
$UNITMODE
 70
     0
  9
$VISRETAIN
 70
     0
  9
$PLINEGEN
 70
     0
  9
$PSLTSCALE
 70
     0
  0
ENDSEC
  0
SECTION
  2
TABLES
  0
TABLE
  2
VPORT
 70
     2
  0
VPORT
  2
*ACTIVE
 70
     0
 10
0.0
 20
0.0
 11
1.0
 21
1.0
 12
19201.139921855851
 22
5035.3455753429571
 13
0.0
 23
0.0
 14
5.0
 24
5.0
 15
0.0
 25
0.0
 16
0.0
 26
0.0
 36
1.0
 17
0.0
 27
0.0
 37
0.0
 40
4461.2188449245123
 41
1.6307901907356941
 42
50.0
 43
0.0
 44
0.0
 50
0.0
 51
0.0
 71
     0
 72
   100
 73
     1
 74
     0
 75
     0
 76
     0
 77
     0
 78
     0
  0
ENDTAB
  0
TABLE
  2
LTYPE
 70
     4
  0
LTYPE
  2
CONTINUOUS
 70
     0
  3
Solid line
 72
    65
 73
     0
 40
0.0
  0
LTYPE
  2
CENTER
 70
     0
  3
____ _ ____ _ ____ _ ____ _ ____ _ ____ _ ____ 
 72
    65
 73
     4
 40
2.0
 49
1.25
 49
-0.25
 49
0.25
 49
-0.25
  0
LTYPE
  2
HIDDEN
 70
     0
  3
__ __ __ __ __ __ __ __ __ __ __ __ __ __ __ __
 72
    65
 73
     2
 40
0.375
 49
0.25
 49
-0.125
  0
LTYPE
  2
PHANTOM
 70
     0
  3
______  __  __  ______  __  __  ______  __  __ 
 72
    65
 73
     6
 40
2.5
 49
1.25
 49
-0.25
 49
0.25
 49
-0.25
 49
0.25
 49
-0.25
  0
ENDTAB
  0
TABLE
  2
LAYER
 70
    13
  0
LAYER
  2
0
 70
     0
 62
     7
  6
CONTINUOUS
  0
LAYER
  2
CT
 70
     0
 62
     3
  6
CENTER
  0
LAYER
  2
FUTO
 70
     0
 62
     4
  6
CONTINUOUS
  0
LAYER
  2
HOSO
 70
     0
 62
     7
  6
CONTINUOUS
  0
LAYER
  2
KL
 70
     0
 62
     7
  6
HIDDEN
  0
LAYER
  2
MOJI
 70
     0
 62
     3
  6
CONTINUOUS
  0
LAYER
  2
SL
 70
     0
 62
     1
  6
PHANTOM
  0
LAYER
  2
SP
 70
     0
 62
     2
  6
CONTINUOUS
  0
LAYER
  2
DEFPOINTS
 70
     0
 62
     7
  6
CONTINUOUS
  0
LAYER
  2
3
 70
     0
 62
    -2
  6
CONTINUOUS
  0
LAYER
  2
2
 70
     0
 62
     3
  6
CENTER
  0
LAYER
  2
1
 70
     0
 62
     4
  6
CONTINUOUS
  0
LAYER
  2
4
 70
     0
 62
     7
  6
CONTINUOUS
  0
ENDTAB
  0
TABLE
  2
STYLE
 70
     1
  0
STYLE
  2
STANDARD
 70
     0
 40
0.0
 41
1.0
 50
15.0
 71
     0
 42
3.5
  3
C:\Program Files\AutoCAD LT\simplex.shx
  4
C:\Program Files\AutoCAD LT\extfont.shx
  0
ENDTAB
  0
TABLE
  2
VIEW
 70
     0
  0
ENDTAB
  0
TABLE
  2
UCS
 70
     0
  0
ENDTAB
  0
TABLE
  2
APPID
 70
     1
  0
APPID
  2
ACAD
 70
     0
  0
ENDTAB
  0
TABLE
  2
DIMSTYLE
 70
     4
  0
DIMSTYLE
  2
STANDARD
 70
     0
  3

  4

  5

  6

  7

 40
1.0
 41
0.18
 42
0.0625
 43
0.38
 44
0.18
 45
0.0
 46
0.0
 47
0.0
 48
0.0
140
0.18
141
0.09
142
0.0
143
25.399999999999999
144
1.0
145
0.0
146
1.0
147
0.09
 71
     0
 72
     0
 73
     1
 74
     1
 75
     0
 76
     0
 77
     0
 78
     0
170
     0
171
     2
172
     0
173
     0
174
     0
175
     0
176
     0
177
     0
178
     0
  0
DIMSTYLE
  2
GOD
 70
     0
  3

  4

  5

  6
OPEN
  7
OPEN
 40
15.0
 41
2.5
 42
1.0
 43
7.0
 44
1.0
 45
0.0
 46
0.0
 47
0.0
 48
0.0
140
3.0
141
0.0
142
0.0
143
0.03937
144
1.0
145
0.0
146
1.0
147
1.0
 71
     0
 72
     0
 73
     0
 74
     0
 75
     0
 76
     0
 77
     1
 78
     8
170
     0
171
     2
172
     1
173
     1
174
     0
175
     0
176
   256
177
   256
178
   256
  0
DIMSTYLE
  2
IGA
 70
     0
  3

  4

  5

  6
OPEN
  7
OPEN
 40
2.0
 41
2.0
 42
0.5
 43
10.0
 44
1.0
 45
0.0
 46
0.0
 47
1.0
 48
1.0
140
3.0
141
0.0
142
0.0
143
0.03937
144
1.0
145
0.0
146
10.0
147
1.0
 71
     0
 72
     0
 73
     0
 74
     0
 75
     0
 76
     0
 77
     1
 78
     8
170
     0
171
     2
172
     0
173
     1
174
     0
175
     0
176
     0
177
     0
178
     0
  0
DIMSTYLE
  2
DIA1
 70
     0
  3

  4

  5

  6

  7

 40
1.0
 41
2.0
 42
1.0
 43
10.0
 44
1.0
 45
0.0
 46
0.0
 47
0.0
 48
0.0
140
2.5
141
0.0
142
0.0
143
25.399999999999999
144
1.0
145
0.0
146
1.0
147
0.09
 71
     0
 72
     0
 73
     0
 74
     0
 75
     0
 76
     0
 77
     1
 78
     8
170
     0
171
     2
172
     1
173
     0
174
     0
175
     0
176
     2
177
     2
178
     2
  0
ENDTAB
  0
ENDSEC
  0
SECTION
  2
BLOCKS
  0
BLOCK
  8
0
  2
$MODEL_SPACE
 70
     0
 10
0.0
 20
0.0
 30
0.0
  3
$MODEL_SPACE
  1

  0
ENDBLK
  5
1B
  8
0
  0
BLOCK
 67
     1
  8
0
  2
$PAPER_SPACE
 70
     0
 10
0.0
 20
0.0
 30
0.0
  3
$PAPER_SPACE
  1

  0
ENDBLK
  5
18
 67
     1
  8
0
  0
BLOCK
  8
0
  2
_OPEN
 70
     0
 10
0.0
 20
0.0
 30
0.0
  3
_OPEN
  1

  0
LINE
  5
1E81
  8
0
  6
BYBLOCK
 62
     0
 10
-1.0
 20
0.1666666666666666
 30
0.0
 11
0.0
 21
0.0
 31
0.0
  0
LINE
  5
1E82
  8
0
  6
BYBLOCK
 62
     0
 10
0.0
 20
0.0
 30
0.0
 11
-1.0
 21
-0.1666666666666666
 31
0.0
  0
LINE
  5
1E83
  8
0
  6
BYBLOCK
 62
     0
 10
0.0
 20
0.0
 30
0.0
 11
-1.0
 21
0.0
 31
0.0
  0
ENDBLK
  5
1E84
  8
0
  0
BLOCK
  8
0
  2
_DOT
 70
     0
 10
0.0
 20
0.0
 30
0.0
  3
_DOT
  1

  0
LINE
  5
1EC3
  8
0
  6
BYBLOCK
 62
     0
 10
0.0
 20
0.0
 30
0.0
 11
-1.0
 21
-0.0000000000000284
 31
0.0
  0
POLYLINE
  5
1EC4
  8
0
  6
BYBLOCK
 62
     0
 66
     1
 10
0.0
 20
0.0
 30
0.0
 70
     1
 40
0.1666666666666666
 41
0.1666666666666666
  0
VERTEX
  5
6E05
  8
0
  6
BYBLOCK
 62
     0
 10
-0.0833333333333286
 20
-0.0000000000000284
 30
0.0
 42
1.0
  0
VERTEX
  5
6E06
  8
0
  6
BYBLOCK
 62
     0
 10
0.0833333333333286
 20
-0.0000000000000284
 30
0.0
 42
1.0
  0
SEQEND
  5
6E07
  8
0
  6
BYBLOCK
 62
     0
  0
ENDBLK
  5
1EB8
  8
0
  0
BLOCK
  8
0
  2
A$C5EBD6DA5
 70
     0
 10
0.0
 20
0.0
 30
0.0
  3
A$C5EBD6DA5
  1

  0
POLYLINE
  5
22E6
  8
1
 66
     1
 10
0.0
 20
0.0
 30
0.0
  0
VERTEX
  5
6E08
  8
1
 10
8.0000000000027285
 20
-181.50000000000091
 30
0.0
  0
VERTEX
  5
6E09
  8
1
 10
8.0000000000009095
 20
181.50000000000091
 30
0.0
  0
SEQEND
  5
6E0A
  8
1
  0
LINE
  5
22E7
  8
1
 10
1.0000000000009091
 20
182.50000000000091
 30
0.0
 11
7.0000000000027276
 21
182.50000000000091
 31
0.0
  0
ARC
  5
22E8
  8
1
 10
1.0000000000009091
 20
183.50000000000091
 30
0.0
 40
1.0
 50
180.0
 51
270.0
  0
LINE
  5
22E9
  8
1
 10
1.0000000000009091
 20
-182.50000000000091
 30
0.0
 11
7.0000000000027276
 21
-182.50000000000091
 31
0.0
  0
ARC
  5
22EA
  8
1
 10
1.0000000000009091
 20
-183.50000000000091
 30
0.0
 40
1.0
 50
90.0
 51
180.0
  0
ARC
  5
22EB
  8
1
 10
7.0000000000009086
 20
-181.50000000000091
 30
0.0
 40
1.0
 50
270.0
 51
0.0
  0
ARC
  5
22EC
  8
1
 10
7.0000000000009086
 20
181.50000000000091
 30
0.0
 40
1.0
 50
0.0
 51
90.0
  0
ENDBLK
  5
22EE
  8
0
  0
BLOCK
  8
0
  2
*D3
 70
     1
 10
0.0
 20
0.0
 30
0.0
  3
*D3
  1

  0
LINE
  5
49B7
  8
SP
 10
18322.76627709694
 20
4790.6338204631647
 30
0.0
 11
18322.76627709694
 21
4853.8905361919897
 31
0.0
  0
LINE
  5
49B8
  8
SP
 10
18058.534995463098
 20
4490.9648716966949
 30
0.0
 11
18058.534995463098
 21
4853.8905361919897
 31
0.0
  0
LINE
  5
49B9
  8
SP
 10
18285.26627709694
 20
4838.8905361919888
 30
0.0
 11
18096.034995463109
 21
4838.8905361919888
 31
0.0
  0
INSERT
  5
49BA
  8
SP
  2
_OPEN
 10
18322.76627709694
 20
4838.8905361919888
 30
0.0
 41
37.5
 42
37.5
 43
37.5
  0
INSERT
  5
49BB
  8
SP
  2
_OPEN
 10
18058.534995463098
 20
4838.8905361919888
 30
0.0
 41
37.5
 42
37.5
 43
37.5
 50
180.0
  0
TEXT
  5
49BC
  8
SP
 10
18129.712445908219
 20
4853.8905361919897
 30
0.0
 40
45.0
  1
264
 51
15.0
  0
POINT
  5
49BD
  8
DEFPOINTS
 62
     0
 10
18322.76627709694
 20
4775.6338204631638
 30
0.0
  0
POINT
  5
49BE
  8
DEFPOINTS
 62
     0
 10
18058.534995463098
 20
4475.9648716966949
 30
0.0
  0
POINT
  5
49BF
  8
DEFPOINTS
 62
     0
 10
18058.534995463098
 20
4838.8905361919888
 30
0.0
  0
ENDBLK
  5
3F1A
  8
0
  0
BLOCK
  8
0
  2
*D4
 70
     1
 10
0.0
 20
0.0
 30
0.0
  3
*D4
  1

  0
LINE
  5
49AE
  8
SP
 10
18322.76627709694
 20
4790.6338204631647
 30
0.0
 11
18322.76627709694
 21
4853.8905361919897
 31
0.0
  0
LINE
  5
49AF
  8
SP
 10
18572.76627709694
 20
4539.1352945090857
 30
0.0
 11
18572.76627709694
 21
4853.8905361919897
 31
0.0
  0
LINE
  5
49B0
  8
SP
 10
18360.26627709694
 20
4838.8905361919888
 30
0.0
 11
18535.26627709694
 21
4838.8905361919888
 31
0.0
  0
INSERT
  5
49B1
  8
SP
  2
_OPEN
 10
18322.76627709694
 20
4838.8905361919888
 30
0.0
 41
37.5
 42
37.5
 43
37.5
 50
180.0
  0
INSERT
  5
49B2
  8
SP
  2
_OPEN
 10
18572.76627709694
 20
4838.8905361919888
 30
0.0
 41
37.5
 42
37.5
 43
37.5
  0
TEXT
  5
49B3
  8
SP
 10
18386.100059663371
 20
4853.8905361919897
 30
0.0
 40
45.0
  1
250
 51
15.0
  0
POINT
  5
49B4
  8
DEFPOINTS
 62
     0
 10
18322.76627709694
 20
4775.6338204631638
 30
0.0
  0
POINT
  5
49B5
  8
DEFPOINTS
 62
     0
 10
18572.76627709694
 20
4524.1352945090848
 30
0.0
  0
POINT
  5
49B6
  8
DEFPOINTS
 62
     0
 10
18572.76627709694
 20
4838.8905361919888
 30
0.0
  0
ENDBLK
  5
3F32
  8
0
  0
BLOCK
  8
0
  2
*D5
 70
     1
 10
0.0
 20
0.0
 30
0.0
  3
*D5
  1

  0
LINE
  5
49FF
  8
SP
 10
18642.70978694451
 20
4502.6352945090821
 30
0.0
 11
18692.766277096951
 21
4502.6352945090821
 31
0.0
  0
LINE
  5
4A00
  8
SP
 10
18587.766277096951
 20
4187.6352945090839
 30
0.0
 11
18692.766277096951
 21
4187.6352945090839
 31
0.0
  0
LINE
  5
4A01
  8
SP
 10
18677.766277096951
 20
4465.1352945090821
 30
0.0
 11
18677.766277096951
 21
4225.1352945090848
 31
0.0
  0
INSERT
  5
4A02
  8
SP
  2
_OPEN
 10
18677.766277096951
 20
4502.6352945090821
 30
0.0
 41
37.5
 42
37.5
 43
37.5
 50
90.0
  0
INSERT
  5
4A03
  8
SP
  2
_OPEN
 10
18677.766277096951
 20
4187.6352945090839
 30
0.0
 41
37.5
 42
37.5
 43
37.5
 50
270.0
  0
TEXT
  5
4A04
  8
SP
 10
18662.766277096951
 20
4286.5295125689672
 30
0.0
 40
45.0
  1
315
 50
90.0
 51
15.0
  0
POINT
  5
4A05
  8
DEFPOINTS
 62
     0
 10
18627.70978694451
 20
4502.6352945090821
 30
0.0
  0
POINT
  5
4A06
  8
DEFPOINTS
 62
     0
 10
18572.766277096951
 20
4187.6352945090839
 30
0.0
  0
POINT
  5
4A07
  8
DEFPOINTS
 62
     0
 10
18677.766277096951
 20
4187.6352945090839
 30
0.0
  0
ENDBLK
  5
3F4A
  8
0
  0
BLOCK
  8
0
  2
*D6
 70
     1
 10
0.0
 20
0.0
 30
0.0
  3
*D6
  1

  0
LINE
  5
6D32
  8
SP
 10
18587.76627709694
 20
4147.6352945090821
 30
0.0
 11
18797.76627709694
 21
4147.6352945090821
 31
0.0
  0
LINE
  5
6D33
  8
SP
 10
18642.70978694451
 20
4502.6352945090821
 30
0.0
 11
18797.76627709694
 21
4502.6352945090821
 31
0.0
  0
LINE
  5
6D34
  8
SP
 10
18782.766277096929
 20
4185.1352945090821
 30
0.0
 11
18782.766277096929
 21
4465.1352945090821
 31
0.0
  0
INSERT
  5
6D35
  8
SP
  2
_OPEN
 10
18782.766277096929
 20
4147.6352945090821
 30
0.0
 41
37.5
 42
37.5
 43
37.5
 50
270.0
  0
INSERT
  5
6D36
  8
SP
  2
_OPEN
 10
18782.766277096929
 20
4502.6352945090821
 30
0.0
 41
37.5
 42
37.5
 43
37.5
 50
90.0
  0
TEXT
  5
6D37
  8
SP
 10
18767.766277096929
 20
4262.2437982832507
 30
0.0
 40
45.0
  1
355
 50
90.0
 51
15.0
  0
POINT
  5
6D38
  8
DEFPOINTS
 62
     0
 10
18572.76627709694
 20
4147.6352945090821
 30
0.0
  0
POINT
  5
6D39
  8
DEFPOINTS
 62
     0
 10
18627.70978694451
 20
4502.6352945090821
 30
0.0
  0
POINT
  5
6D3A
  8
DEFPOINTS
 62
     0
 10
18782.766277096929
 20
4502.6352945090821
 30
0.0
  0
ENDBLK
  5
3F57
  8
0
  0
BLOCK
  8
0
  2
*D7
 70
     1
 10
0.0
 20
0.0
 30
0.0
  3
*D7
  1

  0
LINE
  5
49DB
  8
SP
 10
18642.70978694451
 20
4502.6352945090821
 30
0.0
 11
18797.76627709694
 21
4502.6352945090821
 31
0.0
  0
LINE
  5
49DC
  8
SP
 10
18314.91257323213
 20
4724.922514625554
 30
0.0
 11
18797.76627709694
 21
4724.922514625553
 31
0.0
  0
LINE
  5
49DD
  8
SP
 10
18782.766277096929
 20
4540.1352945090821
 30
0.0
 11
18782.766277096929
 21
4687.422514625553
 31
0.0
  0
INSERT
  5
49DE
  8
SP
  2
_OPEN
 10
18782.766277096929
 20
4502.6352945090821
 30
0.0
 41
37.5
 42
37.5
 43
37.5
 50
270.0
  0
INSERT
  5
49DF
  8
SP
  2
_OPEN
 10
18782.766277096929
 20
4724.922514625553
 30
0.0
 41
37.5
 42
37.5
 43
37.5
 50
90.0
  0
TEXT
  5
49E0
  8
SP
 10
18767.766277096929
 20
4552.1126871337528
 30
0.0
 40
45.0
  1
222
 50
90.0
 51
15.0
  0
POINT
  5
49E1
  8
DEFPOINTS
 62
     0
 10
18627.70978694451
 20
4502.6352945090821
 30
0.0
  0
POINT
  5
49E2
  8
DEFPOINTS
 62
     0
 10
18299.91257323213
 20
4724.922514625554
 30
0.0
  0
POINT
  5
49E3
  8
DEFPOINTS
 62
     0
 10
18782.766277096929
 20
4724.922514625553
 30
0.0
  0
ENDBLK
  5
3F66
  8
0
  0
BLOCK
  8
0
  2
A$C2860434C
 70
     0
 10
0.0
 20
0.0
 30
0.0
  3
A$C2860434C
  1

  0
LINE
  5
3F68
  8
FUTO
 10
46.801270116426167
 20
-0.0000088960860012
 30
0.0
 11
8.5860233121038618
 21
70.149984541374579
 31
0.0
  0
LINE
  5
3F69
  8
FUTO
 10
-0.0000161416137416
 20
53.349984541375299
 30
0.0
 11
1.5999838583866219
 21
53.349984541375299
 31
0.0
  0
LINE
  5
3F6A
  8
FUTO
 10
-0.0000161416137416
 20
53.349984541375299
 30
0.0
 11
-0.0000161416137416
 21
68.549984541374215
 31
0.0
  0
LINE
  5
3F6B
  8
FUTO
 10
1.5999838583866219
 20
53.349984541375299
 30
0.0
 11
1.5999838583866219
 21
68.549984541374215
 31
0.0
  0
LINE
  5
3F6C
  8
FUTO
 10
3.1999838583869851
 20
70.149984541374579
 30
0.0
 11
91.769214627616734
 21
70.149984541370941
 31
0.0
  0
LINE
  5
3F6D
  8
FUTO
 10
3.1999838583869851
 20
71.749984541373124
 30
0.0
 11
92.794855653257414
 21
71.749984541373124
 31
0.0
  0
ARC
  5
3F6E
  8
FUTO
 10
3.1999838583869851
 20
68.549984541374215
 30
0.0
 40
3.2000000000000002
 50
90.0
 51
180.0
  0
ARC
  5
3F6F
  8
FUTO
 10
3.1999838583869851
 20
68.549984541374215
 30
0.0
 40
1.6000000000000001
 50
90.0
 51
180.0
  0
ENDBLK
  5
3F71
  8
0
  0
BLOCK
  8
0
  2
*D9
 70
     1
 10
0.0
 20
0.0
 30
0.0
  3
*D9
  1

  0
LINE
  5
49C0
  8
SP
 10
19659.613704640451
 20
4914.8978670106699
 30
0.0
 11
19659.613704640451
 21
4949.922514625554
 31
0.0
  0
LINE
  5
49C1
  8
SP
 10
19239.613704641441
 20
4601.2162348221354
 30
0.0
 11
19239.613704641441
 21
4949.922514625554
 31
0.0
  0
LINE
  5
49C2
  8
SP
 10
19622.113704640451
 20
4934.922514625554
 30
0.0
 11
19277.113704641441
 21
4934.922514625554
 31
0.0
  0
INSERT
  5
49C3
  8
SP
  2
_OPEN
 10
19659.613704640451
 20
4934.922514625554
 30
0.0
 41
37.5
 42
37.5
 43
37.5
  0
INSERT
  5
49C4
  8
SP
  2
_OPEN
 10
19239.613704641441
 20
4934.922514625554
 30
0.0
 41
37.5
 42
37.5
 43
37.5
 50
180.0
  0
TEXT
  5
49C5
  8
SP
 10
19349.249152030341
 20
4949.922514625554
 30
0.0
 40
45.0
  1
（420）
 51
15.0
  0
POINT
  5
49C6
  8
DEFPOINTS
 62
     0
 10
19659.613704640451
 20
4899.8978670106699
 30
0.0
  0
POINT
  5
49C7
  8
DEFPOINTS
 62
     0
 10
19239.613704641441
 20
4586.2162348221354
 30
0.0
  0
POINT
  5
49C8
  8
DEFPOINTS
 62
     0
 10
19239.613704641441
 20
4934.922514625554
 30
0.0
  0
ENDBLK
  5
46F5
  8
0
  0
BLOCK
  8
0
  2
*D10
 70
     1
 10
0.0
 20
0.0
 30
0.0
  3
*D10
  1

  0
LINE
  5
49C9
  8
SP
 10
19659.613704640451
 20
4914.8978670106699
 30
0.0
 11
19659.613704640451
 21
4949.922514625554
 31
0.0
  0
LINE
  5
49CA
  8
SP
 10
19780.613704640451
 20
4699.1352945090794
 30
0.0
 11
19780.613704640451
 21
4949.922514625554
 31
0.0
  0
LINE
  5
49CB
  8
SP
 10
19697.113704640451
 20
4934.922514625554
 30
0.0
 11
19743.113704640451
 21
4934.922514625554
 31
0.0
  0
INSERT
  5
49CC
  8
SP
  2
_OPEN
 10
19659.613704640451
 20
4934.922514625554
 30
0.0
 41
37.5
 42
37.5
 43
37.5
 50
180.0
  0
INSERT
  5
49CD
  8
SP
  2
_OPEN
 10
19780.613704640451
 20
4934.922514625554
 30
0.0
 41
37.5
 42
37.5
 43
37.5
  0
TEXT
  5
49CE
  8
SP
 10
19665.275773234331
 20
4949.922514625554
 30
0.0
 40
45.0
  1
121
 51
15.0
  0
POINT
  5
49CF
  8
DEFPOINTS
 62
     0
 10
19659.613704640451
 20
4899.8978670106699
 30
0.0
  0
POINT
  5
49D0
  8
DEFPOINTS
 62
     0
 10
19780.613704640451
 20
4684.1352945090784
 30
0.0
  0
POINT
  5
49D1
  8
DEFPOINTS
 62
     0
 10
19780.613704640451
 20
4934.922514625554
 30
0.0
  0
ENDBLK
  5
4701
  8
0
  0
BLOCK
  8
0
  2
*D11
 70
     1
 10
0.0
 20
0.0
 30
0.0
  3
*D11
  1

  0
LINE
  5
699E
  8
SP
 10
19795.613704640451
 20
4660.1352945090794
 30
0.0
 11
19988.406822022131
 21
4660.1352945090794
 31
0.0
  0
LINE
  5
699F
  8
SP
 10
19795.613704640451
 20
4345.1352945090803
 30
0.0
 11
19988.406822022131
 21
4345.1352945090803
 31
0.0
  0
LINE
  5
69A0
  8
SP
 10
19973.406822022131
 20
4622.6352945090803
 30
0.0
 11
19973.406822022131
 21
4382.6352945090794
 31
0.0
  0
INSERT
  5
69A1
  8
SP
  2
_OPEN
 10
19973.406822022131
 20
4660.1352945090794
 30
0.0
 41
37.5
 42
37.5
 43
37.5
 50
90.0
  0
INSERT
  5
69A2
  8
SP
  2
_OPEN
 10
19973.406822022131
 20
4345.1352945090803
 30
0.0
 41
37.5
 42
37.5
 43
37.5
 50
270.0
  0
TEXT
  5
69A3
  8
SP
 10
19958.406822022131
 20
4424.6874851940438
 30
0.0
 40
45.0
  1
φ315
 50
90.0
 51
15.0
  0
POINT
  5
69A4
  8
DEFPOINTS
 62
     0
 10
19780.613704640451
 20
4660.1352945090794
 30
0.0
  0
POINT
  5
69A5
  8
DEFPOINTS
 62
     0
 10
19780.613704640451
 20
4345.1352945090803
 30
0.0
  0
POINT
  5
69A6
  8
DEFPOINTS
 62
     0
 10
19973.406822022131
 20
4345.1352945090803
 30
0.0
  0
ENDBLK
  5
4725
  8
0
  0
BLOCK
  8
0
  2
*D12
 70
     1
 10
0.0
 20
0.0
 30
0.0
  3
*D12
  1

  0
LINE
  5
49D2
  8
SP
 10
19547.613704640451
 20
4724.922514625554
 30
0.0
 11
19547.613704640451
 21
4844.9225146255549
 31
0.0
  0
LINE
  5
49D3
  8
SP
 10
19771.61370464044
 20
4724.922514625554
 30
0.0
 11
19771.61370464044
 21
4844.9225146255549
 31
0.0
  0
LINE
  5
49D4
  8
SP
 10
19585.113704640451
 20
4829.922514625554
 30
0.0
 11
19734.11370464044
 21
4829.922514625554
 31
0.0
  0
INSERT
  5
49D5
  8
SP
  2
_OPEN
 10
19547.613704640451
 20
4829.922514625554
 30
0.0
 41
37.5
 42
37.5
 43
37.5
 50
180.0
  0
INSERT
  5
49D6
  8
SP
  2
_OPEN
 10
19771.61370464044
 20
4829.922514625554
 30
0.0
 41
37.5
 42
37.5
 43
37.5
  0
TEXT
  5
49D7
  8
SP
 10
19598.675514268642
 20
4844.9225146255549
 30
0.0
 40
45.0
  1
224
 51
15.0
  0
POINT
  5
49D8
  8
DEFPOINTS
 62
     0
 10
19547.613704640451
 20
4709.9225146255549
 30
0.0
  0
POINT
  5
49D9
  8
DEFPOINTS
 62
     0
 10
19771.61370464044
 20
4709.922514625554
 30
0.0
  0
POINT
  5
49DA
  8
DEFPOINTS
 62
     0
 10
19771.61370464044
 20
4829.922514625554
 30
0.0
  0
ENDBLK
  5
4731
  8
0
  0
BLOCK
  8
0
  2
_NONE
 70
     0
 10
0.0
 20
0.0
 30
0.0
  3
_NONE
  1

  0
ENDBLK
  5
5AD6
  8
0
  0
BLOCK
  8
0
  2
L-40-3
 70
     0
 10
0.0
 20
0.0
 30
0.0
  3
L-40-3
  1

  0
ARC
  5
6273
  8
0
 10
7.5
 20
7.5
 30
0.0
 40
4.5
 50
180.0
 51
270.0
  0
LINE
  5
6274
  8
0
 10
0.0
 20
0.0
 30
0.0
 11
0.0
 21
40.0
 31
0.0
  0
LINE
  5
6275
  8
0
 10
7.5
 20
3.0
 30
0.0
 11
38.0
 21
3.0
 31
0.0
  0
LINE
  5
6276
  8
0
 10
0.0
 20
0.0
 30
0.0
 11
40.0
 21
0.0
 31
0.0
  0
LINE
  5
6277
  8
0
 10
40.0
 20
0.0
 30
0.0
 11
40.0
 21
1.0
 31
0.0
  0
ARC
  5
6278
  8
0
 10
38.0
 20
1.0
 30
0.0
 40
2.0
 50
0.0
 51
90.0
  0
LINE
  5
6279
  8
0
 10
3.0
 20
7.5
 30
0.0
 11
3.0
 21
38.0
 31
0.0
  0
LINE
  5
627A
  8
0
 10
0.0
 20
40.0
 30
0.0
 11
1.0
 21
40.0
 31
0.0
  0
ARC
  5
627B
  8
0
 10
1.0
 20
38.0
 30
0.0
 40
2.0
 50
0.0
 51
90.0
  0
ENDBLK
  5
627D
  8
0
  0
BLOCK
  8
0
  2
*D15
 70
     1
 10
0.0
 20
0.0
 30
0.0
  3
*D15
  1

  0
LINE
  5
6BB0
  8
SP
 10
18647.76627709694
 20
6074.3629352201697
 30
0.0
 11
18810.877767125879
 21
6074.3629352201697
 31
0.0
  0
LINE
  5
6BB1
  8
SP
 10
18647.76627709694
 20
5374.3629352201688
 30
0.0
 11
18810.877767125879
 21
5374.3629352201688
 31
0.0
  0
LINE
  5
6BB2
  8
SP
 10
18795.877767125879
 20
6036.8629352201697
 30
0.0
 11
18795.877767125879
 21
5411.8629352201688
 31
0.0
  0
INSERT
  5
6BB3
  8
SP
  2
_OPEN
 10
18795.877767125879
 20
6074.3629352201697
 30
0.0
 41
37.5
 42
37.5
 43
37.5
 50
90.0
  0
INSERT
  5
6BB4
  8
SP
  2
_OPEN
 10
18795.877767125879
 20
5374.3629352201688
 30
0.0
 41
37.5
 42
37.5
 43
37.5
 50
270.0
  0
TEXT
  5
6BB5
  8
SP
 10
18780.877767125879
 20
5658.4110035008916
 30
0.0
 40
45.0
  1
700
 50
90.0
 51
15.0
  0
POINT
  5
6BB6
  8
DEFPOINTS
 62
     0
 10
18632.76627709694
 20
6074.3629352201697
 30
0.0
  0
POINT
  5
6BB7
  8
DEFPOINTS
 62
     0
 10
18632.76627709694
 20
5374.3629352201688
 30
0.0
  0
POINT
  5
6BB8
  8
DEFPOINTS
 62
     0
 10
18795.877767125879
 20
5374.3629352201688
 30
0.0
  0
ENDBLK
  5
6BA3
  8
0
  0
BLOCK
  8
0
  2
*D16
 70
     1
 10
0.0
 20
0.0
 30
0.0
  3
*D16
  1

  0
LINE
  5
6BB9
  8
SP
 10
18632.76627709694
 20
5359.3629352201679
 30
0.0
 11
18632.76627709694
 21
5220.4232802762617
 31
0.0
  0
LINE
  5
6BBA
  8
SP
 10
18012.76627709694
 20
5359.3629352201679
 30
0.0
 11
18012.76627709694
 21
5220.4232802762617
 31
0.0
  0
LINE
  5
6BBB
  8
SP
 10
18595.26627709694
 20
5235.4232802762608
 30
0.0
 11
18050.26627709694
 21
5235.4232802762608
 31
0.0
  0
INSERT
  5
6BBC
  8
SP
  2
_OPEN
 10
18632.76627709694
 20
5235.4232802762608
 30
0.0
 41
37.5
 42
37.5
 43
37.5
  0
INSERT
  5
6BBD
  8
SP
  2
_OPEN
 10
18012.76627709694
 20
5235.4232802762608
 30
0.0
 41
37.5
 42
37.5
 43
37.5
 50
180.0
  0
TEXT
  5
6BBE
  8
SP
 10
18259.167365830559
 20
5250.4232802762617
 30
0.0
 40
45.0
  1
620
 51
15.0
  0
POINT
  5
6BBF
  8
DEFPOINTS
 62
     0
 10
18632.76627709694
 20
5374.3629352201688
 30
0.0
  0
POINT
  5
6BC0
  8
DEFPOINTS
 62
     0
 10
18012.76627709694
 20
5374.3629352201679
 30
0.0
  0
POINT
  5
6BC1
  8
DEFPOINTS
 62
     0
 10
18012.76627709694
 20
5235.4232802762608
 30
0.0
  0
ENDBLK
  5
6BAF
  8
0
  0
BLOCK
  8
0
  2
*D17
 70
     1
 10
0.0
 20
0.0
 30
0.0
  3
*D17
  1

  0
LINE
  5
6D02
  8
SP
 10
18632.766277096951
 20
4070.6352945090821
 30
0.0
 11
18632.766277096951
 21
3882.6352945090821
 31
0.0
  0
LINE
  5
6D03
  8
SP
 10
18012.766277096951
 20
4070.6352945090821
 30
0.0
 11
18012.766277096951
 21
3882.6352945090821
 31
0.0
  0
LINE
  5
6D04
  8
SP
 10
18595.266277096951
 20
3897.6352945090821
 30
0.0
 11
18050.266277096951
 21
3897.6352945090821
 31
0.0
  0
INSERT
  5
6D05
  8
SP
  2
_OPEN
 10
18632.766277096951
 20
3897.6352945090821
 30
0.0
 41
37.5
 42
37.5
 43
37.5
  0
INSERT
  5
6D06
  8
SP
  2
_OPEN
 10
18012.766277096951
 20
3897.6352945090821
 30
0.0
 41
37.5
 42
37.5
 43
37.5
 50
180.0
  0
TEXT
  5
6D07
  8
SP
 10
18259.16736583057
 20
3912.6352945090821
 30
0.0
 40
45.0
  1
620
 51
15.0
  0
POINT
  5
6D08
  8
DEFPOINTS
 62
     0
 10
18632.766277096951
 20
4085.6352945090812
 30
0.0
  0
POINT
  5
6D09
  8
DEFPOINTS
 62
     0
 10
18012.766277096951
 20
4085.6352945090812
 30
0.0
  0
POINT
  5
6D0A
  8
DEFPOINTS
 62
     0
 10
18012.766277096951
 20
3897.6352945090821
 30
0.0
  0
ENDBLK
  5
6CCF
  8
0
  0
BLOCK
  8
0
  2
*D18
 70
     1
 10
0.0
 20
0.0
 30
0.0
  3
*D18
  1

  0
LINE
  5
6D0B
  8
SP
 10
18322.76627709694
 20
4047.9208645024
 30
0.0
 11
18322.76627709694
 21
3987.6352945090821
 31
0.0
  0
LINE
  5
6D0C
  8
SP
 10
18632.766277096951
 20
4070.6352945090821
 30
0.0
 11
18632.766277096951
 21
3987.6352945090821
 31
0.0
  0
LINE
  5
6D0D
  8
SP
 10
18360.26627709694
 20
4002.6352945090821
 30
0.0
 11
18595.266277096951
 21
4002.6352945090821
 31
0.0
  0
INSERT
  5
6D0E
  8
SP
  2
_OPEN
 10
18322.76627709694
 20
4002.6352945090821
 30
0.0
 41
37.5
 42
37.5
 43
37.5
 50
180.0
  0
INSERT
  5
6D0F
  8
SP
  2
_OPEN
 10
18632.766277096951
 20
4002.6352945090821
 30
0.0
 41
37.5
 42
37.5
 43
37.5
  0
TEXT
  5
6D10
  8
SP
 10
18419.23742026724
 20
4017.6352945090821
 30
0.0
 40
45.0
  1
310
 51
15.0
  0
POINT
  5
6D11
  8
DEFPOINTS
 62
     0
 10
18322.76627709694
 20
4062.9208645024009
 30
0.0
  0
POINT
  5
6D12
  8
DEFPOINTS
 62
     0
 10
18632.766277096951
 20
4085.6352945090812
 30
0.0
  0
POINT
  5
6D13
  8
DEFPOINTS
 62
     0
 10
18632.766277096951
 20
4002.6352945090821
 30
0.0
  0
ENDBLK
  5
6CDB
  8
0
  0
BLOCK
  8
0
  2
*D19
 70
     1
 10
0.0
 20
0.0
 30
0.0
  3
*D19
  1

  0
LINE
  5
6D14
  8
SP
 10
18322.76627709694
 20
4047.9208645024
 30
0.0
 11
18322.76627709694
 21
3987.6352945090821
 31
0.0
  0
LINE
  5
6D15
  8
SP
 10
18012.766277096951
 20
4070.6352945090821
 30
0.0
 11
18012.766277096951
 21
3987.6352945090821
 31
0.0
  0
LINE
  5
6D16
  8
SP
 10
18285.26627709694
 20
4002.6352945090821
 30
0.0
 11
18050.266277096951
 21
4002.6352945090821
 31
0.0
  0
INSERT
  5
6D17
  8
SP
  2
_OPEN
 10
18322.76627709694
 20
4002.6352945090821
 30
0.0
 41
37.5
 42
37.5
 43
37.5
  0
INSERT
  5
6D18
  8
SP
  2
_OPEN
 10
18012.766277096951
 20
4002.6352945090821
 30
0.0
 41
37.5
 42
37.5
 43
37.5
 50
180.0
  0
TEXT
  5
6D19
  8
SP
 10
18109.23742026724
 20
4017.6352945090821
 30
0.0
 40
45.0
  1
310
 51
15.0
  0
POINT
  5
6D1A
  8
DEFPOINTS
 62
     0
 10
18322.76627709694
 20
4062.9208645024009
 30
0.0
  0
POINT
  5
6D1B
  8
DEFPOINTS
 62
     0
 10
18012.766277096951
 20
4085.6352945090812
 30
0.0
  0
POINT
  5
6D1C
  8
DEFPOINTS
 62
     0
 10
18012.766277096951
 20
4002.6352945090821
 30
0.0
  0
ENDBLK
  5
6CE7
  8
0
  0
BLOCK
  8
0
  2
*D20
 70
     1
 10
0.0
 20
0.0
 30
0.0
  3
*D20
  1

  0
LINE
  5
6E70
  8
SP
 10
18647.766277096929
 20
4125.6352945090821
 30
0.0
 11
18797.76627709694
 21
4125.6352945090821
 31
0.0
  0
LINE
  5
6E71
  8
SP
 10
18647.766277096929
 20
4085.6352945090812
 30
0.0
 11
18797.76627709694
 21
4085.6352945090812
 31
0.0
  0
LINE
  5
6E72
  8
SP
 10
18782.766277096929
 20
4163.1352945090821
 30
0.0
 11
18782.766277096929
 21
4200.635294509083
 31
0.0
  0
LINE
  5
6E73
  8
SP
 10
18782.766277096929
 20
4048.1352945090821
 30
0.0
 11
18782.766277096929
 21
3904.1792403855579
 31
0.0
  0
LINE
  5
6E74
  8
SP
 10
18782.766277096929
 20
4125.6352945090821
 30
0.0
 11
18782.766277096929
 21
4085.6352945090812
 31
0.0
  0
INSERT
  5
6E75
  8
SP
  2
_DOT
 10
18782.766277096929
 20
4125.6352945090821
 30
0.0
 41
37.5
 42
37.5
 43
37.5
 50
270.0
  0
INSERT
  5
6E76
  8
SP
  2
_OPEN
 10
18782.766277096929
 20
4085.6352945090812
 30
0.0
 41
37.5
 42
37.5
 43
37.5
 50
90.0
  0
TEXT
  8
0
  40
45
  5
6E7B
  72
0
  71
0
 10
18655.3
 20
3877.76
 30
0.000000
  1
40
  0
POINT
  5
6E78
  8
DEFPOINTS
 62
     0
 10
18632.766277096929
 20
4125.6352945090821
 30
0.0
  0
POINT
  5
6E79
  8
DEFPOINTS
 62
     0
 10
18632.766277096929
 20
4085.6352945090812
 30
0.0
  0
POINT
  5
6E7A
  8
DEFPOINTS
 62
     0
 10
18782.766277096929
 20
4085.6352945090812
 30
0.0
  0
ENDBLK
  5
6D4A
  8
0
  0
BLOCK
  8
0
  2
*D21
 70
     1
 10
0.0
 20
0.0
 30
0.0
  3
*D21
  1

  0
LINE
  5
6E67
  8
SP
 10
18587.766277096929
 20
4147.6352945090821
 30
0.0
 11
18797.76627709694
 21
4147.6352945090821
 31
0.0
  0
LINE
  5
6E68
  8
SP
 10
18647.766277096929
 20
4125.6352945090821
 30
0.0
 11
18797.76627709694
 21
4125.6352945090821
 31
0.0
  0
LINE
  5
6E69
  8
SP
 10
18782.766277096929
 20
4147.6352945090821
 30
0.0
 11
18782.766277096929
 21
4185.1352945090821
 31
0.0
  0
LINE
  5
6E6A
  8
SP
 10
18782.766277096929
 20
4125.6352945090821
 30
0.0
 11
18782.766277096929
 21
4088.1352945090821
 31
0.0
  0
TEXT
  8
0
  40
45
  5
6E7C
  72
0
  71
0
 10
18745.7
 20
4048.13
 30
0.000000
  1
（22）
  0
LINE
  5
6E6C
  8
SP
 10
18782.766277096929
 20
4147.6352945090821
 30
0.0
 11
18782.766277096929
 21
4125.6352945090821
 31
0.0
  0
POINT
  5
6E6D
  8
DEFPOINTS
 62
     0
 10
18572.766277096918
 20
4147.6352945090821
 30
0.0
  0
POINT
  5
6E6E
  8
DEFPOINTS
 62
     0
 10
18632.766277096929
 20
4125.6352945090821
 30
0.0
  0
POINT
  5
6E6F
  8
DEFPOINTS
 62
     0
 10
18782.766277096929
 20
4125.6352945090821
 30
0.0
  0
ENDBLK
  5
6D56
  8
0
  0
BLOCK
  8
0
  2
*D22
 70
     1
 10
0.0
 20
0.0
 30
0.0
  3
*D22
  1

  0
LINE
  5
6DC9
  8
SP
 10
19179.613704640451
 20
4110.6352945090794
 30
0.0
 11
19179.613704640451
 21
3965.6352945090789
 31
0.0
  0
LINE
  5
6DCA
  8
SP
 10
19659.613704640451
 20
4047.9208645024
 30
0.0
 11
19659.613704640451
 21
3965.6352945090789
 31
0.0
  0
LINE
  5
6DCB
  8
SP
 10
19217.113704640451
 20
3980.6352945090789
 30
0.0
 11
19622.113704640451
 21
3980.6352945090789
 31
0.0
  0
INSERT
  5
6DCC
  8
SP
  2
_OPEN
 10
19179.613704640451
 20
3980.6352945090789
 30
0.0
 41
37.5
 42
37.5
 43
37.5
 50
180.0
  0
INSERT
  5
6DCD
  8
SP
  2
_OPEN
 10
19659.613704640451
 20
3980.6352945090789
 30
0.0
 41
37.5
 42
37.5
 43
37.5
  0
TEXT
  5
6DCE
  8
SP
 10
19355.937868263649
 20
3995.6352945090789
 30
0.0
 40
45.0
  1
480
 51
15.0
  0
POINT
  5
6DCF
  8
DEFPOINTS
 62
     0
 10
19179.613704640451
 20
4125.6352945090803
 30
0.0
  0
POINT
  5
6DD0
  8
DEFPOINTS
 62
     0
 10
19659.613704640451
 20
4062.9208645024009
 30
0.0
  0
POINT
  5
6DD1
  8
DEFPOINTS
 62
     0
 10
19659.613704640451
 20
3980.6352945090789
 30
0.0
  0
ENDBLK
  5
6DB0
  8
0
  0
BLOCK
  8
0
  2
*D23
 70
     1
 10
0.0
 20
0.0
 30
0.0
  3
*D23
  1

  0
LINE
  5
6DD2
  8
SP
 10
19179.613704640451
 20
4110.6352945090794
 30
0.0
 11
19179.613704640451
 21
3860.6352945090798
 31
0.0
  0
LINE
  5
6DD3
  8
SP
 10
19879.613704640451
 20
4110.6352945090794
 30
0.0
 11
19879.613704640451
 21
3860.6352945090798
 31
0.0
  0
LINE
  5
6DD4
  8
SP
 10
19217.113704640451
 20
3875.6352945090789
 30
0.0
 11
19842.113704640451
 21
3875.6352945090789
 31
0.0
  0
INSERT
  5
6DD5
  8
SP
  2
_OPEN
 10
19179.613704640451
 20
3875.6352945090789
 30
0.0
 41
37.5
 42
37.5
 43
37.5
 50
180.0
  0
INSERT
  5
6DD6
  8
SP
  2
_OPEN
 10
19879.613704640451
 20
3875.6352945090789
 30
0.0
 41
37.5
 42
37.5
 43
37.5
  0
TEXT
  5
6DD7
  8
SP
 10
19463.661772921168
 20
3890.6352945090789
 30
0.0
 40
45.0
  1
700
 51
15.0
  0
POINT
  5
6DD8
  8
DEFPOINTS
 62
     0
 10
19179.613704640451
 20
4125.6352945090803
 30
0.0
  0
POINT
  5
6DD9
  8
DEFPOINTS
 62
     0
 10
19879.613704640451
 20
4125.6352945090803
 30
0.0
  0
POINT
  5
6DDA
  8
DEFPOINTS
 62
     0
 10
19879.613704640451
 20
3875.6352945090789
 30
0.0
  0
ENDBLK
  5
6DBC
  8
0
  0
BLOCK
  8
0
  2
*D24
 70
     1
 10
0.0
 20
0.0
 30
0.0
  3
*D24
  1

  0
LINE
  5
6DDB
  8
SP
 10
19659.613704640451
 20
4047.9208645024
 30
0.0
 11
19659.613704640451
 21
3965.6352945090789
 31
0.0
  0
LINE
  5
6DDC
  8
SP
 10
19879.613704640451
 20
4110.6352945090794
 30
0.0
 11
19879.613704640451
 21
3965.6352945090789
 31
0.0
  0
LINE
  5
6DDD
  8
SP
 10
19697.113704640451
 20
3980.6352945090789
 30
0.0
 11
19842.113704640451
 21
3980.6352945090789
 31
0.0
  0
INSERT
  5
6DDE
  8
SP
  2
_OPEN
 10
19659.613704640451
 20
3980.6352945090789
 30
0.0
 41
37.5
 42
37.5
 43
37.5
 50
180.0
  0
INSERT
  5
6DDF
  8
SP
  2
_OPEN
 10
19879.613704640451
 20
3980.6352945090789
 30
0.0
 41
37.5
 42
37.5
 43
37.5
  0
TEXT
  5
6DE0
  8
SP
 10
19707.947487206879
 20
3995.6352945090789
 30
0.0
 40
45.0
  1
220
 51
15.0
  0
POINT
  5
6DE1
  8
DEFPOINTS
 62
     0
 10
19659.613704640451
 20
4062.9208645024009
 30
0.0
  0
POINT
  5
6DE2
  8
DEFPOINTS
 62
     0
 10
19879.613704640451
 20
4125.6352945090803
 30
0.0
  0
POINT
  5
6DE3
  8
DEFPOINTS
 62
     0
 10
19879.613704640451
 20
3980.6352945090789
 30
0.0
  0
ENDBLK
  5
6DC8
  8
0
  0
ENDSEC
  0
SECTION
  2
ENTITIES
  0
LINE
  5
2CF0
  8
4
 10
17345.597715035088
 20
2822.8097917420341
 30
0.0
 11
17345.597715035088
 21
7247.8097917420337
 31
0.0
  0
LINE
  5
2CF1
  8
4
 10
20495.597715035088
 20
7247.8097917420337
 30
0.0
 11
20495.597715035088
 21
2822.8097917420341
 31
0.0
  0
LINE
  5
2CF2
  8
4
 10
20495.597715035088
 20
2822.8097917420341
 30
0.0
 11
17345.597715035088
 21
2822.8097917420341
 31
0.0
  0
TEXT
  5
2D01
  8
4
 10
18825.579458413311
 20
3298.5491681619478
 30
0.0
 40
75.0
  1
MF＃2-7
  0
TEXT
  5
2D03
  8
4
 10
18812.115833266591
 20
3456.6674451783861
 30
0.0
 40
75.0
  1
ミツヤ多翼送風機
  0
LINE
  5
2D04
  8
4
 10
18020.597715035088
 20
3572.8097917420332
 30
0.0
 11
19820.597715035088
 21
3572.8097917420332
 31
0.0
  0
LINE
  5
2D05
  8
4
 10
18020.597715035088
 20
3422.8097917420332
 30
0.0
 11
19820.597715035088
 21
3422.8097917420332
 31
0.0
  0
LINE
  5
2D06
  8
4
 10
18020.597715035088
 20
3272.8097917420332
 30
0.0
 11
19820.597715035088
 21
3272.8097917420332
 31
0.0
  0
LINE
  5
2D09
  8
4
 10
18020.597715035088
 20
3572.8097917420332
 30
0.0
 11
18020.597715035088
 21
3272.8097917420332
 31
0.0
  0
TEXT
  5
2D0A
  8
4
 10
18074.984874072288
 20
3305.2775268400501
 30
0.0
 40
75.0
  1
機器型番
  0
TEXT
  5
2D0B
  8
4
 10
18078.350836305439
 20
3470.124330541953
 30
0.0
 40
75.0
  1
機器名称
  0
LINE
  5
2D0C
  8
4
 10
18770.597715035088
 20
3572.8097917420332
 30
0.0
 11
18770.597715035088
 21
3272.8097917420332
 31
0.0
  0
LINE
  5
2D0D
  8
4
 10
19820.597715035088
 20
3572.8097917420332
 30
0.0
 11
19820.597715035088
 21
3272.8097917420332
 31
0.0
  0
TEXT
  5
2D0E
  8
4
 10
17818.481087225049
 20
6396.2890080615489
 30
0.0
 40
80.999999999999986
  1
左回転右横向
  0
LINE
  5
2D0F
  8
4
 10
17345.597715035088
 20
7247.8097917420337
 30
0.0
 11
20495.597715035088
 21
7247.8097917420337
 31
0.0
  0
LINE
  5
2D10
  8
4
 10
17720.597715035088
 20
6826.9229231392419
 30
0.0
 11
20120.597715035088
 21
6826.9229231392419
 31
0.0
  0
LINE
  5
2D11
  8
4
 10
17720.597715035088
 20
6526.9229231392419
 30
0.0
 11
20120.597715035088
 21
6526.9229231392419
 31
0.0
  0
LINE
  5
2E4B
  8
4
 10
17720.597715035088
 20
6826.9229231392419
 30
0.0
 11
17720.597715035088
 21
6526.9229231392419
 31
0.0
  0
LINE
  5
2F6C
  8
4
 10
20120.597715035088
 20
6844.7051664301353
 30
0.0
 11
19506.523848574889
 21
6844.7051664301353
 31
0.0
  0
LINE
  5
2F6D
  8
4
 10
19506.523848574889
 20
7002.7881840666632
 30
0.0
 11
20120.597715035088
 21
7002.7881840666632
 31
0.0
  0
TEXT
  5
2F6F
  8
4
 10
18077.69207095238
 20
6623.6312560409797
 30
0.0
 40
108.0
  1
遠心式片吸込直動形多翼ファン
  0
LINE
  5
2F7D
  8
4
 10
19506.523848574889
 20
6844.7051664301353
 30
0.0
 11
19506.523848574889
 21
7002.7881840666632
 31
0.0
  0
TEXT
  5
2F7E
  8
4
 10
19549.052053909021
 20
6881.9014139849969
 30
0.0
 40
84.000000000000014
  1
No.
  0
LINE
  5
2F7F
  8
4
 10
20120.597715035088
 20
6826.9229231392419
 30
0.0
 11
20120.597715035088
 21
6526.9229231392419
 31
0.0
  0
LINE
  5
2F80
  8
4
 10
20120.597715035088
 20
7002.7881840666632
 30
0.0
 11
20120.597715035088
 21
6844.7051664301353
 31
0.0
  0
LINE
  5
2F81
  8
4
 10
20495.597715035088
 20
7247.8097917420337
 30
0.0
 11
20495.597715035088
 21
7247.8097917420337
 31
0.0
  0
LINE
  5
39EE
  8
2
 10
18322.76627709694
 20
4062.9208645024009
 30
0.0
 11
18322.76627709694
 21
4775.6338204631638
 31
0.0
  0
POLYLINE
  5
39EF
  8
CT
 66
     1
 10
0.0
 20
0.0
 30
0.0
  0
VERTEX
  5
6E0B
  8
CT
 10
18577.829440311929
 20
4514.1352945090857
 30
0.0
  0
VERTEX
  5
6E0C
  8
CT
 10
18565.561130027989
 20
4514.1352945090848
 30
0.0
  0
SEQEND
  5
6E0D
  8
CT
  0
POLYLINE
  5
39F0
  8
CT
 66
     1
 10
0.0
 20
0.0
 30
0.0
  0
VERTEX
  5
6E0E
  8
CT
 10
18577.82944031194
 20
4176.1352945090848
 30
0.0
  0
VERTEX
  5
6E0F
  8
CT
 10
18565.561130028
 20
4176.1352945090848
 30
0.0
  0
SEQEND
  5
6E10
  8
CT
  0
POLYLINE
  5
3A02
  8
1
 66
     1
 10
0.0
 20
0.0
 30
0.0
  0
VERTEX
  5
6E11
  8
1
 10
18117.76627709694
 20
4641.8850995011544
 30
0.0
 42
-0.1174780416237573
  0
VERTEX
  5
6E12
  8
1
 10
18209.788018796418
 20
4707.6352945090803
 30
0.0
 42
-0.3153658436290411
  0
SEQEND
  5
6E13
  8
1
  0
POLYLINE
  5
3A03
  8
1
 66
     1
 10
0.0
 20
0.0
 30
0.0
  0
VERTEX
  5
6E14
  8
1
 10
18111.973699704031
 20
4291.4850070464754
 30
0.0
 42
-0.2162335382726867
  0
VERTEX
  5
6E15
  8
1
 10
18053.89878728726
 20
4532.4361316570548
 30
0.0
 42
-0.1298839697351506
  0
VERTEX
  5
6E16
  8
1
 10
18110.183821324252
 20
4648.4047900195219
 30
0.0
 42
-0.1298839697351506
  0
SEQEND
  5
6E17
  8
1
  0
POLYLINE
  5
3A04
  8
1
 66
     1
 10
0.0
 20
0.0
 30
0.0
  0
VERTEX
  5
6E18
  8
1
 10
18209.788018796411
 20
4707.6352945090803
 30
0.0
 42
-0.1343280102757561
  0
VERTEX
  5
6E19
  8
1
 10
18337.53630237723
 20
4721.9991387182863
 30
0.0
 42
-0.3163019945347412
  0
VERTEX
  5
6E1A
  8
1
 10
18506.143463639361
 20
4559.0049275573538
 30
0.0
 42
-0.3153658436290411
  0
SEQEND
  5
6E1B
  8
1
  0
POLYLINE
  5
3A05
  8
1
 66
     1
 10
0.0
 20
0.0
 30
0.0
  0
VERTEX
  5
6E1C
  8
1
 10
18206.087862997148
 20
4716.9255499986366
 30
0.0
 42
-0.1343314877425494
  0
VERTEX
  5
6E1D
  8
1
 10
18339.084406090689
 20
4731.8785813352788
 30
0.0
 42
-0.3163064660587118
  0
VERTEX
  5
6E1E
  8
1
 10
18515.964197214878
 20
4560.8899188142614
 30
0.0
 42
-0.3163064660587118
  0
SEQEND
  5
6E1F
  8
1
  0
LINE
  5
3A07
  8
2
 10
18627.70978694451
 20
4502.6352945090821
 30
0.0
 11
18033.464251593279
 21
4502.6352945090821
 31
0.0
  0
CIRCLE
  5
3A0A
  8
CT
 10
18322.766277096951
 20
4502.6352945090821
 30
0.0
 40
169.0
  0
POLYLINE
  5
3A0B
  8
1
 66
     1
 10
0.0
 20
0.0
 30
0.0
  0
VERTEX
  5
6E20
  8
1
 10
18552.766277096951
 20
4177.6352945090839
 30
0.0
  0
VERTEX
  5
6E21
  8
1
 10
18348.254100358259
 20
4177.6352945090794
 30
0.0
 42
-0.2269714708976296
  0
VERTEX
  5
6E22
  8
1
 10
18112.05555736152
 20
4291.3814766249106
 30
0.0
  0
SEQEND
  5
6E23
  8
1
  0
POLYLINE
  5
3A0C
  8
1
 66
     1
 10
0.0
 20
0.0
 30
0.0
  0
VERTEX
  5
6E24
  8
1
 10
18572.766277096951
 20
4187.6352945090839
 30
0.0
  0
VERTEX
  5
6E25
  8
1
 10
18348.266277096951
 20
4187.6352945090794
 30
0.0
 42
-0.2269607506063405
  0
VERTEX
  5
6E26
  8
1
 10
18119.858746573089
 20
4297.6352945090803
 30
0.0
 42
-0.129402372482195
  0
SEQEND
  5
6E27
  8
1
  0
ARC
  5
3A0D
  8
1
 10
18322.766277096951
 20
4502.6352945090821
 30
0.0
 40
100.8
 50
285.42769999999967
 51
180.0
  0
ARC
  5
3A0E
  8
1
 10
18322.766277096951
 20
4502.6352945090821
 30
0.0
 40
100.8
 50
180.0
 51
254.20289999999889
  0
LINE
  5
3A0F
  8
CT
 10
18276.825896591239
 20
4331.183460342776
 30
0.0
 11
18280.935332376292
 21
4346.520083483043
 31
0.0
  0
LINE
  5
3A11
  8
CT
 10
18368.70665760263
 20
4331.1834603427733
 30
0.0
 11
18364.59722181757
 21
4346.5200834830403
 31
0.0
  0
POLYLINE
  5
3A12
  8
1
 66
     1
 10
0.0
 20
0.0
 30
0.0
  0
VERTEX
  5
6E28
  8
1
 10
18119.858746573089
 20
4297.6352945090803
 30
0.0
 42
-0.2162148363065116
  0
VERTEX
  5
6E29
  8
1
 10
18063.716065820299
 20
4530.5331113171333
 30
0.0
 42
-0.1298622998199493
  0
VERTEX
  5
6E2A
  8
1
 10
18117.76627709694
 20
4641.8850995011553
 30
0.0
 42
-0.3153658436290411
  0
SEQEND
  5
6E2B
  8
1
  0
LINE
  5
3A14
  8
1
 10
18376.216677096949
 20
4417.1849945090808
 30
0.0
 11
18382.766277096951
 21
4410.6352945090821
 31
0.0
  0
CIRCLE
  5
3A17
  8
1
 10
18486.007741739792
 20
4458.89487588675
 30
0.0
 40
4.0
  0
LINE
  5
3A18
  8
CT
 10
18494.218111263239
 20
4456.6949140033767
 30
0.0
 11
18478.881488122981
 21
4460.8043497884328
 31
0.0
  0
CIRCLE
  5
3A19
  8
1
 10
18442.267323117459
 20
4383.1342484885508
 30
0.0
 40
4.0
  0
LINE
  5
3A1A
  8
CT
 10
18448.277730757542
 20
4377.1238408484642
 30
0.0
 11
18437.050543402329
 21
4388.3510282036759
 31
0.0
  0
LINE
  5
3A1B
  8
1
 10
18420.766277096951
 20
4414.6352945090812
 30
0.0
 11
18384.766277096951
 21
4414.6352945090812
 31
0.0
  0
LINE
  5
3A1C
  8
1
 10
18422.766277096951
 20
4402.6352945090821
 30
0.0
 11
18382.766277096951
 21
4402.6352945090821
 31
0.0
  0
LINE
  5
3A1D
  8
1
 10
18421.874077096949
 20
4414.303394509082
 30
0.0
 11
18405.473277096949
 21
4444.9653945090822
 31
0.0
  0
LINE
  5
3A1E
  8
1
 10
18422.766277096951
 20
4402.6352945090821
 30
0.0
 11
18422.766277096951
 21
4412.6352945090821
 31
0.0
  0
ARC
  5
3A1F
  8
1
 10
18420.766277096951
 20
4412.6352945090821
 30
0.0
 40
2.0
 50
0.000000000000007
 51
90.0
  0
LINE
  5
3A20
  8
1
 10
18408.766277096951
 20
4414.6352945090812
 30
0.0
 11
18408.766277096951
 21
4402.6352945090821
 31
0.0
  0
LINE
  5
3A21
  8
1
 10
18396.766277096951
 20
4402.6352945090821
 30
0.0
 11
18396.766277096951
 21
4414.6352945090812
 31
0.0
  0
LINE
  5
3A22
  8
1
 10
18382.766277096951
 20
4402.6352945090821
 30
0.0
 11
18382.766277096951
 21
4412.6352945090821
 31
0.0
  0
ARC
  5
3A23
  8
1
 10
18384.766277096951
 20
4412.6352945090821
 30
0.0
 40
2.0
 50
90.0
 51
180.0
  0
ARC
  5
3A24
  8
1
 10
18391.322677096949
 20
4417.6352945090812
 30
0.0
 40
3.0
 50
225.0
 51
270.0
  0
LINE
  5
3A25
  8
1
 10
18382.96877709695
 20
4421.7464945090824
 30
0.0
 11
18389.201277096949
 21
4415.5139945090814
 31
0.0
  0
LINE
  5
3A26
  8
CT
 10
18402.766277096951
 20
4416.0157945090814
 30
0.0
 11
18402.766277096951
 21
4398.6686945090823
 31
0.0
  0
LINE
  5
3A27
  8
1
 10
18224.766277096951
 20
4414.6352945090812
 30
0.0
 11
18260.766277096951
 21
4414.6352945090812
 31
0.0
  0
LINE
  5
3A28
  8
1
 10
18222.766277096951
 20
4402.6352945090821
 30
0.0
 11
18262.766277096951
 21
4402.6352945090821
 31
0.0
  0
CIRCLE
  5
3A29
  8
1
 10
18279.025858474612
 20
4339.3938298662342
 30
0.0
 40
4.0
  0
ARC
  5
3A2A
  8
1
 10
18254.20987709695
 20
4417.6352945090812
 30
0.0
 40
3.0
 50
270.0
 51
315.0
  0
LINE
  5
3A2B
  8
1
 10
18262.184177096951
 20
4421.3669945090815
 30
0.0
 11
18256.33127709695
 21
4415.5139945090814
 31
0.0
  0
LINE
  5
3A2C
  8
1
 10
18262.766277096951
 20
4402.6352945090821
 30
0.0
 11
18262.766277096951
 21
4412.6352945090821
 31
0.0
  0
ARC
  5
3A2D
  8
1
 10
18260.766277096951
 20
4412.6352945090821
 30
0.0
 40
2.0
 50
0.000000000000007
 51
90.0
  0
LINE
  5
3A2E
  8
1
 10
18269.019677096949
 20
4416.8887945090819
 30
0.0
 11
18262.766277096951
 21
4410.6352945090821
 31
0.0
  0
LINE
  5
3A2F
  8
1
 10
18223.857077096949
 20
4414.6747945090819
 30
0.0
 11
18239.975777096952
 21
4444.8090945090808
 31
0.0
  0
LINE
  5
3A30
  8
1
 10
18248.766277096951
 20
4402.6352945090821
 30
0.0
 11
18248.766277096951
 21
4414.6352945090812
 31
0.0
  0
LINE
  5
3A31
  8
1
 10
18222.766277096951
 20
4402.6352945090821
 30
0.0
 11
18222.766277096951
 21
4412.6352945090821
 31
0.0
  0
LINE
  5
3A32
  8
1
 10
18236.766277096951
 20
4414.6352945090812
 30
0.0
 11
18236.766277096951
 21
4402.6352945090821
 31
0.0
  0
ARC
  5
3A33
  8
1
 10
18224.766277096951
 20
4412.6352945090821
 30
0.0
 40
2.0
 50
90.0
 51
180.0
  0
LINE
  5
3A34
  8
CT
 10
18242.766277096951
 20
4416.0157945090814
 30
0.0
 11
18242.766277096951
 21
4398.6686945090823
 31
0.0
  0
CIRCLE
  5
3A35
  8
1
 10
18203.26523107641
 20
4383.1342484885618
 30
0.0
 40
4.0
  0
LINE
  5
3A36
  8
CT
 10
18197.25482343632
 20
4377.1238408484769
 30
0.0
 11
18208.48201079154
 21
4388.3510282036887
 31
0.0
  0
CIRCLE
  5
3A37
  8
1
 10
18366.506695719261
 20
4339.3938298662306
 30
0.0
 40
4.0
  0
LINE
  5
3A38
  8
1
 10
18295.148577096948
 20
4405.6352945090821
 30
0.0
 11
18350.035677096948
 21
4405.6352945090821
 31
0.0
  0
LINE
  5
3A39
  8
FUTO
 10
18571.56627709695
 20
4166.1352945090848
 30
0.0
 11
18571.566277096928
 21
4524.1352945090839
 31
0.0
  0
LINE
  5
3A3A
  8
FUTO
 10
18572.76627709694
 20
4524.1352945090848
 30
0.0
 11
18572.766277096951
 21
4166.1352945090857
 31
0.0
  0
LINE
  5
3A3B
  8
1
 10
18552.76627709694
 20
4205.0352945090863
 30
0.0
 11
18552.76627709694
 21
4486.2352945090861
 31
0.0
  0
LINE
  5
3A3C
  8
FUTO
 10
18572.766277096951
 20
4166.1352945090857
 30
0.0
 11
18571.56627709695
 21
4166.1352945090848
 31
0.0
  0
LINE
  5
3A3D
  8
FUTO
 10
18552.766277096951
 20
4177.6352945090839
 30
0.0
 11
18552.766277096951
 21
4187.6352945090839
 31
0.0
  0
ARC
  5
3A3E
  8
1
 10
18567.766277096951
 20
4188.6352945090848
 30
0.0
 40
1.0
 50
270.0
 51
53.130102354195081
  0
LINE
  5
3A3F
  8
1
 10
18568.466277096952
 20
4189.3352945090846
 30
0.0
 11
18552.76627709694
 21
4205.0352945090863
 31
0.0
  0
CIRCLE
  5
3A41
  8
1
 10
18486.007741739792
 20
4546.3757131313987
 30
0.0
 40
4.0
  0
LINE
  5
3A42
  8
CT
 10
18494.21811126325
 20
4548.5756750147712
 30
0.0
 11
18478.881488122981
 21
4544.466239229715
 31
0.0
  0
POINT
  5
3A44
  8
1
 10
18572.766277096958
 20
4345.1352945090803
 30
0.0
  0
POINT
  5
3A45
  8
1
 10
18572.766277096958
 20
4345.1352945090803
 30
0.0
  0
CIRCLE
  5
3A46
  8
1
 10
18442.26732311747
 20
4622.1363405296006
 30
0.0
 40
4.0
  0
LINE
  5
3A47
  8
CT
 10
18448.27773075756
 20
4628.1467481696873
 30
0.0
 11
18437.050543402351
 21
4616.9195608144746
 31
0.0
  0
POLYLINE
  5
3A48
  8
1
 66
     1
 10
0.0
 20
0.0
 30
0.0
  0
VERTEX
  5
6E2C
  8
1
 10
18527.76627709694
 20
4535.1897098014879
 30
0.0
 42
-0.0941668855597806
  0
VERTEX
  5
6E2D
  8
1
 10
18515.85487278859
 20
4561.3954615999892
 30
0.0
 42
-0.1987366729981355
  0
SEQEND
  5
6E2E
  8
1
  0
POLYLINE
  5
3A49
  8
1
 66
     1
 10
0.0
 20
0.0
 30
0.0
  0
VERTEX
  5
6E2F
  8
1
 10
18527.76627709694
 20
4519.4903861626572
 30
0.0
 42
-0.1315967463597435
  0
VERTEX
  5
6E30
  8
1
 10
18506.138737340039
 20
4559.0297245170959
 30
0.0
 42
-0.2200089805681688
  0
SEQEND
  5
6E31
  8
1
  0
POLYLINE
  5
3A4A
  8
FUTO
 66
     1
 10
0.0
 20
0.0
 30
0.0
  0
VERTEX
  5
6E32
  8
FUTO
 10
18572.76627709694
 20
4524.1352945090848
 30
0.0
  0
VERTEX
  5
6E33
  8
FUTO
 10
18571.566277096928
 20
4524.1352945090848
 30
0.0
  0
SEQEND
  5
6E34
  8
FUTO
  0
ARC
  5
3A4B
  8
1
 10
18567.76627709694
 20
4502.6352945090848
 30
0.0
 40
1.0
 50
306.86989764580488
 51
90.0
  0
POINT
  5
3A4C
  8
1
 10
18572.76627709694
 20
4502.6352945090848
 30
0.0
  0
LINE
  5
3A4D
  8
1
 10
18552.76627709694
 20
4503.6352945090903
 30
0.0
 11
18552.76627709694
 21
4506.955104635922
 31
0.0
  0
LINE
  5
3A4E
  8
1
 10
18572.76627709694
 20
4503.6352945090839
 30
0.0
 11
18551.76627709694
 21
4503.6352945090839
 31
0.0
  0
LINE
  5
3A4F
  8
1
 10
18568.466277096941
 20
4501.9352945090868
 30
0.0
 11
18552.76627709694
 21
4486.2352945090879
 31
0.0
  0
POLYLINE
  5
3A50
  8
1
 66
     1
 10
0.0
 20
0.0
 30
0.0
  0
VERTEX
  5
6E35
  8
1
 10
18551.76627709694
 20
4503.6352945090839
 30
0.0
 42
-0.101266720201501
  0
VERTEX
  5
6E36
  8
1
 10
18546.266866610171
 20
4504.760649492694
 30
0.0
 42
-0.0681921917069782
  0
VERTEX
  5
6E37
  8
1
 10
18527.76627709694
 20
4519.4903861626572
 30
0.0
 42
-0.2200089805681688
  0
SEQEND
  5
6E38
  8
1
  0
ARC
  5
3A51
  8
1
 10
18542.76627709694
 20
4506.9551046359156
 30
0.0
 40
10.0
 50
0.000000000000007
 51
56.558128210519101
  0
POLYLINE
  5
3A52
  8
1
 66
     1
 10
0.0
 20
0.0
 30
0.0
  0
VERTEX
  5
6E39
  8
1
 10
18548.277184100381
 20
4515.2995581230771
 30
0.0
 42
-0.0934525219043797
  0
VERTEX
  5
6E3A
  8
1
 10
18527.76627709694
 20
4535.1897098014879
 30
0.0
 42
-0.1987366729981355
  0
SEQEND
  5
6E3B
  8
1
  0
CIRCLE
  5
3A53
  8
1
 10
18279.025858474619
 20
4665.8767591519336
 30
0.0
 40
4.0
  0
LINE
  5
3A54
  8
CT
 10
18276.82589659125
 20
4674.0871286753918
 30
0.0
 11
18280.93533237631
 21
4658.7505055351248
 31
0.0
  0
CIRCLE
  5
3A55
  8
1
 10
18203.265231076421
 20
4622.1363405296124
 30
0.0
 40
4.0
  0
LINE
  5
3A56
  8
CT
 10
18197.254823436331
 20
4628.1467481696982
 30
0.0
 11
18208.482010791551
 21
4616.9195608144864
 31
0.0
  0
CIRCLE
  5
3A57
  8
1
 10
18366.506695719268
 20
4665.8767591519299
 30
0.0
 40
4.0
  0
LINE
  5
3A58
  8
CT
 10
18368.706657602641
 20
4674.0871286753872
 30
0.0
 11
18364.597221817588
 21
4658.7505055351194
 31
0.0
  0
POLYLINE
  5
3A59
  8
1
 66
     1
 10
0.0
 20
0.0
 30
0.0
  0
VERTEX
  5
6E3C
  8
1
 10
18110.225293490381
 20
4648.4527144598451
 30
0.0
 42
-0.1174780416237576
  0
VERTEX
  5
6E3D
  8
1
 10
18206.018418046391
 20
4716.897589591048
 30
0.0
 42
-0.1174780416237576
  0
SEQEND
  5
6E3E
  8
1
  0
CIRCLE
  5
3A5C
  8
1
 10
18159.524812454089
 20
4458.8948758867637
 30
0.0
 40
4.0
  0
LINE
  5
3A5D
  8
CT
 10
18151.31444293063
 20
4456.6949140033912
 30
0.0
 11
18166.651066070899
 21
4460.8043497884482
 31
0.0
  0
CIRCLE
  5
3A5F
  8
1
 10
18159.524812454089
 20
4546.375713131416
 30
0.0
 40
4.0
  0
LINE
  5
3A60
  8
CT
 10
18151.314442930641
 20
4548.5756750147857
 30
0.0
 11
18166.651066070899
 21
4544.4662392297323
 31
0.0
  0
DIMENSION
  5
3F0E
  8
SP
  2
*D3
 10
18058.534995463098
 20
4838.8905361919888
 30
0.0
 11
18190.650636280021
 21
4876.3905361919897
 31
0.0
 70
     0
 13
18322.76627709694
 23
4775.6338204631638
 33
0.0
 14
18058.534995463098
 24
4475.9648716966949
 34
0.0
1001
ACAD
1000
DSTYLE
1002
{
1070
   271
1070
     0
1002
}
  0
DIMENSION
  5
3F26
  8
SP
  2
*D4
 10
18572.76627709694
 20
4838.8905361919888
 30
0.0
 11
18447.76627709694
 21
4876.3905361919897
 31
0.0
 70
     0
 13
18322.76627709694
 23
4775.6338204631638
 33
0.0
 14
18572.76627709694
 24
4524.1352945090848
 34
0.0
  0
DIMENSION
  5
3F3E
  8
SP
  2
*D5
 10
18677.766277096951
 20
4187.6352945090839
 30
0.0
 11
18640.266277096951
 21
4345.1352945090866
 31
0.0
 70
     0
 13
18627.70978694451
 23
4502.6352945090821
 33
0.0
 14
18572.766277096951
 24
4187.6352945090839
 34
0.0
 50
90.0
  0
DIMENSION
  5
3F4B
  8
SP
  2
*D6
 10
18782.766277096929
 20
4502.6352945090821
 30
0.0
 11
18745.26627709694
 21
4325.1352945090848
 31
0.0
 70
     0
 13
18572.76627709694
 23
4147.6352945090821
 33
0.0
 14
18627.70978694451
 24
4502.6352945090821
 34
0.0
 50
90.0
  0
DIMENSION
  5
3F58
  8
SP
  2
*D7
 10
18782.766277096929
 20
4724.922514625553
 30
0.0
 11
18745.26627709694
 21
4613.7789045673208
 31
0.0
 70
     0
 13
18627.70978694451
 23
4502.6352945090821
 33
0.0
 14
18299.91257323213
 24
4724.922514625554
 34
0.0
 50
90.0
1001
ACAD
1000
DSTYLE
1002
{
1070
   271
1070
     0
1002
}
  0
LINE
  5
469C
  8
1
 10
19771.61370464044
 20
4709.922514625554
 30
0.0
 11
19771.613704640451
 21
4523.8132198675921
 31
0.0
  0
LINE
  5
469D
  8
1
 10
19547.613704640451
 20
4709.9225146255549
 30
0.0
 11
19547.613704640451
 21
4523.8132198675912
 31
0.0
  0
LINE
  5
469E
  8
2
 10
19659.613704640451
 20
4813.6881954340251
 30
0.0
 11
19659.613704640451
 21
4062.9208645024009
 31
0.0
1001
ACAD
1000
ASC_BOUNDS
1002
{
1070
    19
1005
0
1005
0
1002
}
  0
DIMENSION
  5
469F
  8
SP
  2
*D10
 10
19780.613704640451
 20
4934.922514625554
 30
0.0
 11
19720.113704640451
 21
4972.422514625554
 31
0.0
 70
     0
 13
19659.613704640451
 23
4899.8978670106699
 33
0.0
 14
19780.613704640451
 24
4684.1352945090784
 34
0.0
  0
DIMENSION
  5
46A0
  8
SP
  2
*D9
 10
19239.613704641441
 20
4934.922514625554
 30
0.0
 11
19449.613704640949
 21
4972.422514625554
 31
0.0
 70
     0
 13
19659.613704640451
 23
4899.8978670106699
 33
0.0
 14
19239.613704641441
 24
4586.2162348221354
 34
0.0
1001
ACAD
1000
DSTYLE
1002
{
1070
     3
1000
（<>）
1002
}
  0
LINE
  5
46A1
  8
1
 10
19792.613704640451
 20
4191.1352945090857
 30
0.0
 11
19792.613704640451
 21
4499.1352945090857
 31
0.0
  0
LINE
  5
46A2
  8
1
 10
19526.613704640451
 20
4191.1352945090857
 30
0.0
 11
19526.613704640451
 21
4499.1352945090857
 31
0.0
  0
POLYLINE
  5
46A3
  8
1
 66
     1
 10
0.0
 20
0.0
 30
0.0
  0
VERTEX
  5
6E3F
  8
1
 10
19535.41370464045
 20
4694.51095586662
 30
0.0
  0
VERTEX
  5
6E40
  8
1
 10
19535.41370464045
 20
4147.6352945090803
 30
0.0
  0
SEQEND
  5
6E41
  8
1
  0
POLYLINE
  5
46A5
  8
1
 66
     1
 10
0.0
 20
0.0
 30
0.0
  0
VERTEX
  5
6E42
  8
1
 10
19538.613704640451
 20
4697.9534053466105
 30
0.0
  0
VERTEX
  5
6E43
  8
1
 10
19538.613704640451
 20
4502.6352945090794
 30
0.0
  0
VERTEX
  5
6E44
  8
1
 10
19538.613704640451
 20
4147.6352945090803
 30
0.0
  0
SEQEND
  5
6E45
  8
1
  0
LINE
  5
46A6
  8
FUTO
 10
19358.41370464045
 20
4502.6352945090794
 30
0.0
 11
19228.613704640451
 21
4150.8352945090801
 31
0.0
  0
LINE
  5
46A7
  8
1
 10
19538.613704640451
 20
4150.8352945090801
 30
0.0
 11
19578.613704640451
 21
4150.8352945090801
 31
0.0
  0
LINE
  5
46A8
  8
1
 10
19228.613704640451
 20
4147.6352945090803
 30
0.0
 11
19578.613704640451
 21
4147.6352945090803
 31
0.0
  0
LINE
  5
46AA
  8
FUTO
 10
19228.613704640451
 20
4150.8352945090801
 30
0.0
 11
19535.41370464045
 21
4150.8352945090801
 31
0.0
  0
LINE
  5
46AB
  8
FUTO
 10
19228.613704640451
 20
4147.6352945090803
 30
0.0
 11
19228.613704640451
 21
4150.8352945090801
 31
0.0
  0
POLYLINE
  5
46AC
  8
1
 66
     1
 10
0.0
 20
0.0
 30
0.0
  0
VERTEX
  5
6E46
  8
1
 10
19578.613704640451
 20
4150.8352945090801
 30
0.0
  0
VERTEX
  5
6E47
  8
1
 10
19578.613704640451
 20
4147.6352945090794
 30
0.0
  0
SEQEND
  5
6E48
  8
1
  0
LINE
  5
46AE
  8
FUTO
 10
19551.613704640451
 20
4166.1352945090857
 30
0.0
 11
19767.613704640451
 21
4166.1352945090857
 31
0.0
  0
LINE
  5
46AF
  8
2
 10
19811.62568877617
 20
4502.6352945090794
 30
0.0
 11
19198.225584073869
 21
4502.6352945090794
 31
0.0
  0
LINE
  5
46B0
  8
1
 10
19239.613704640451
 20
4419.0823945090797
 30
0.0
 11
19239.613704640451
 21
4586.2161945090802
 31
0.0
  0
LINE
  5
46B1
  8
1
 10
19329.613704640451
 20
4603.4352945090804
 30
0.0
 11
19329.613704640451
 21
4452.6352945090794
 31
0.0
  0
LINE
  5
46B2
  8
1
 10
19289.613704640451
 20
4406.6352945090784
 30
0.0
 11
19289.613704640451
 21
4601.9352945090814
 31
0.0
  0
LINE
  5
46B3
  8
FUTO
 10
19288.09058761648
 20
4311.7736236871306
 30
0.0
 11
19240.492763821021
 21
4399.1467877016212
 31
0.0
  0
LINE
  5
46B7
  8
1
 10
19315.613704640451
 20
4443.6352945090794
 30
0.0
 11
19329.613704640451
 21
4452.6352945090794
 31
0.0
  0
LINE
  5
46B8
  8
1
 10
19315.514204640451
 20
4417.6352945090794
 30
0.0
 11
19327.095394781289
 21
4417.6352945090794
 31
0.0
  0
LINE
  5
46B9
  8
1
 10
19315.613704640451
 20
4405.6352945090794
 30
0.0
 11
19290.613704640451
 21
4405.6352945090794
 31
0.0
  0
ARC
  5
46BA
  8
1
 10
19290.613804640449
 20
4406.6352945090784
 30
0.0
 40
1.0000999999999991
 50
180.0
 51
269.99650000001031
  0
LINE
  5
46BB
  8
1
 10
19315.613704640451
 20
4405.6352945090794
 30
0.0
 11
19315.613704640451
 21
4443.6352945090794
 31
0.0
  0
ARC
  5
46BC
  8
1
 10
19241.413504640452
 20
4419.0821945090802
 30
0.0
 40
1.7998000000000001
 50
179.9961000000213
 51
257.59830000000699
  0
LINE
  5
46BD
  8
FUTO
 10
19227.613704640451
 20
4373.9467877016223
 30
0.0
 11
19230.013704640449
 21
4373.9467877016223
 31
0.0
  0
ARC
  5
46BE
  8
FUTO
 10
19232.41370464045
 20
4396.7467877016197
 30
0.0
 40
2.3999999999999999
 50
89.999999999999986
 51
180.0
  0
ARC
  5
46BF
  8
FUTO
 10
19232.41370464045
 20
4396.7467877016197
 30
0.0
 40
4.7999999999999998
 50
89.999999999999986
 51
180.0
  0
LINE
  5
46C0
  8
FUTO
 10
19230.013704640449
 20
4373.9467877016223
 30
0.0
 11
19230.013704640449
 21
4396.7467877016197
 31
0.0
  0
LINE
  5
46C1
  8
FUTO
 10
19227.613704640451
 20
4373.9467877016223
 30
0.0
 11
19227.613704640451
 21
4396.7467877016197
 31
0.0
  0
LINE
  5
46C2
  8
FUTO
 10
19232.41370464045
 20
4399.1467877016212
 30
0.0
 11
19320.283291428012
 21
4399.1467877016166
 31
0.0
  0
LINE
  5
46C3
  8
FUTO
 10
19232.41370464045
 20
4401.546787701619
 30
0.0
 11
19321.167573118149
 21
4401.546787701619
 31
0.0
  0
LINE
  5
46C4
  8
1
 10
19289.613704640451
 20
4406.6352945090784
 30
0.0
 11
19241.027004640451
 21
4417.324394509079
 31
0.0
  0
LINE
  5
46C5
  8
1
 10
19547.613704640451
 20
4707.6352945090803
 30
0.0
 11
19357.051721432501
 21
4502.6352945090794
 31
0.0
  0
LINE
  5
46C6
  8
1
 10
19412.613704640451
 20
4602.6352945090794
 30
0.0
 11
19337.274004640451
 21
4602.6352945090794
 31
0.0
  0
LINE
  5
46C7
  8
1
 10
19329.613704640451
 20
4603.4352945090804
 30
0.0
 11
19291.113704640451
 21
4603.4352945090804
 31
0.0
  0
ARC
  5
46C8
  8
1
 10
19291.113704640451
 20
4601.9352945090814
 30
0.0
 40
1.5
 50
89.999999999999986
 51
180.0
  0
LINE
  5
46C9
  8
1
 10
19329.44540464045
 20
4589.0759945090804
 30
0.0
 11
19337.274004640451
 21
4602.6352945090794
 31
0.0
  0
ARC
  5
46CA
  8
1
 10
19241.413604640449
 20
4586.2162945090786
 30
0.0
 40
1.7999000000000001
 50
103.4933999999954
 51
180.0018999999831
  0
LINE
  5
46CB
  8
1
 10
19289.613704640451
 20
4599.6352945090794
 30
0.0
 11
19240.993604640451
 21
4587.9664945090799
 31
0.0
  0
LINE
  5
46CD
  8
1
 10
19412.613704640451
 20
4602.6352945090794
 30
0.0
 11
19450.008786411981
 21
4602.6352945090794
 31
0.0
  0
ARC
  5
46CE
  8
1
 10
19539.613704640451
 20
4684.1352945090784
 30
0.0
 40
1.0
 50
89.999999999999986
 51
180.0
  0
ARC
  5
46CF
  8
1
 10
19545.613704640451
 20
4686.1352945090784
 30
0.0
 40
1.0
 50
270.0
 51
0.0
  0
LINE
  5
46D0
  8
1
 10
19545.613704640451
 20
4685.1352945090803
 30
0.0
 11
19539.613704640451
 21
4685.1352945090803
 31
0.0
  0
DIMENSION
  5
46D1
  8
SP
  2
*D11
 10
19973.406822022131
 20
4345.1352945090803
 30
0.0
 11
19935.906822022131
 21
4502.6352945090821
 31
0.0
 70
     0
 13
19780.613704640451
 23
4660.1352945090794
 33
0.0
 14
19780.613704640451
 24
4345.1352945090803
 34
0.0
 50
90.0
1001
ACAD
1000
DSTYLE
1002
{
1070
     3
1000
φ<>
1002
}
  0
ARC
  5
46DB
  8
FUTO
 10
19767.613704640451
 20
4191.1352945090866
 30
0.0
 40
25.0
 50
270.0
 51
359.9999999999979
  0
DIMENSION
  5
46E3
  8
SP
  2
*D12
 10
19771.61370464044
 20
4829.922514625554
 30
0.0
 11
19659.613704640451
 21
4867.422514625554
 31
0.0
 70
     0
 13
19547.613704640451
 23
4709.9225146255549
 33
0.0
 14
19771.61370464044
 24
4709.922514625554
 34
0.0
  0
LINE
  5
46E4
  8
FUTO
 10
19562.613704640451
 20
4724.922514625554
 30
0.0
 11
19756.61370464044
 21
4724.922514625554
 31
0.0
  0
LINE
  5
46E5
  8
FUTO
 10
19551.613704640451
 20
4524.1352945090848
 30
0.0
 11
19767.613704640451
 21
4524.1352945090848
 31
0.0
  0
ARC
  5
46E7
  8
FUTO
 10
19551.613704640451
 20
4499.1352945090857
 30
0.0
 40
25.0
 50
90.0
 51
180.0
  0
ARC
  5
476B
  8
FUTO
 10
19562.613704640451
 20
4709.9225146255549
 30
0.0
 40
15.0
 50
90.0
 51
180.0000000000002
  0
ARC
  5
476C
  8
FUTO
 10
19756.61370464044
 20
4709.922514625554
 30
0.0
 40
15.0
 50
0.0000000000010178
 51
89.999999999999716
  0
ARC
  5
483C
  8
FUTO
 10
19767.613704640451
 20
4499.1352945090857
 30
0.0
 40
25.0
 50
0.0
 51
90.0
  0
LINE
  5
483D
  8
FUTO
 10
19561.613704640451
 20
4504.1352945090848
 30
0.0
 11
19757.613704640451
 21
4504.1352945090857
 31
0.0
  0
LINE
  5
483E
  8
FUTO
 10
19561.613704640451
 20
4186.1352945090848
 30
0.0
 11
19757.613704640451
 21
4186.1352945090848
 31
0.0
  0
LINE
  5
483F
  8
1
 10
19772.613704640451
 20
4201.1352945090848
 30
0.0
 11
19772.613704640451
 21
4489.1352945090857
 31
0.0
  0
LINE
  5
4840
  8
1
 10
19546.613704640451
 20
4201.1352945090848
 30
0.0
 11
19546.613704640451
 21
4489.1352945090848
 31
0.0
  0
ARC
  5
4841
  8
FUTO
 10
19561.613704640451
 20
4201.1352945090848
 30
0.0
 40
15.0
 50
180.0
 51
270.0
  0
ARC
  5
4842
  8
FUTO
 10
19757.613704640451
 20
4201.1352945090848
 30
0.0
 40
15.0
 50
270.0
 51
0.0
  0
ARC
  5
4843
  8
FUTO
 10
19757.613704640451
 20
4489.1352945090857
 30
0.0
 40
15.0
 50
0.0
 51
90.0
  0
ARC
  5
4844
  8
FUTO
 10
19561.613704640451
 20
4489.1352945090848
 30
0.0
 40
15.0
 50
90.000000000000256
 51
180.0
  0
ARC
  5
4845
  8
FUTO
 10
19551.613704640451
 20
4191.1352945090857
 30
0.0
 40
25.0
 50
180.0
 51
270.0
  0
LINE
  5
4A2C
  8
HOSO
 10
19551.007102922649
 20
4499.741896226883
 30
0.0
 11
19768.220306358249
 21
4190.5286927912866
 31
0.0
  0
LINE
  5
4A2D
  8
HOSO
 10
19768.220306358249
 20
4499.7418962268839
 30
0.0
 11
19551.007102922649
 21
4190.5286927912866
 31
0.0
  0
LINE
  5
4D6E
  8
1
 10
18572.76627709694
 20
5987.3629352201669
 30
0.0
 11
18572.76627709694
 21
5721.3629352201679
 31
0.0
  0
LINE
  5
4D6F
  8
1
 10
18552.76627709694
 20
5948.5629352201704
 30
0.0
 11
18552.76627709694
 21
5760.1629352201689
 31
0.0
  0
LINE
  5
4D70
  8
1
 10
18571.56627709695
 20
5987.3629352201679
 30
0.0
 11
18571.56627709695
 21
5721.3629352201679
 31
0.0
  0
LINE
  5
4D71
  8
2
 10
18322.76627709694
 20
5368.1829085449044
 30
0.0
 11
18322.76627709694
 21
5995.3642876661352
 31
0.0
  0
LINE
  5
4D72
  8
1
 10
18058.76627709694
 20
5952.3629352201679
 30
0.0
 11
18058.766277096951
 21
5756.3629352201688
 31
0.0
  0
LINE
  5
4D75
  8
1
 10
18222.76627709694
 20
5532.0232352201701
 30
0.0
 11
18222.76627709694
 21
5682.7026352201692
 31
0.0
  0
LINE
  5
4D76
  8
1
 10
18422.76627709694
 20
5682.7026352201692
 30
0.0
 11
18422.76627709694
 21
5532.0232352201701
 31
0.0
  0
LINE
  5
4D7D
  8
1
 10
18406.319177096939
 20
5434.3629352201679
 30
0.0
 11
18239.185377096939
 21
5434.3629352201679
 31
0.0
  0
LINE
  5
4D7E
  8
1
 10
18406.319177096939
 20
5434.3629352201679
 30
0.0
 11
18239.185377096939
 21
5434.3629352201679
 31
0.0
  0
LINE
  5
4D7F
  8
1
 10
18418.76627709694
 20
5484.3629352201679
 30
0.0
 11
18223.466277096941
 21
5484.3629352201679
 31
0.0
  0
LINE
  5
4D80
  8
1
 10
18221.966277096941
 20
5524.3629352201679
 30
0.0
 11
18423.566277096939
 21
5524.3629352201679
 31
0.0
  0
LINE
  5
4D81
  8
1
 10
18225.76627709694
 20
5484.3629352201679
 30
0.0
 11
18237.435077096939
 21
5435.7428352201678
 31
0.0
  0
ARC
  5
4D86
  8
1
 10
18239.185277096942
 20
5436.1628352201687
 30
0.0
 40
1.7999000000000001
 50
193.49339999999771
 51
270.0018999999993
  0
LINE
  5
4D88
  8
1
 10
18221.966277096941
 20
5524.3629352201679
 30
0.0
 11
18221.966277096941
 21
5485.8629352201679
 31
0.0
  0
ARC
  5
4D89
  8
1
 10
18223.466277096941
 20
5485.8629352201679
 30
0.0
 40
1.5
 50
180.0
 51
270.0
  0
LINE
  5
4D8A
  8
1
 10
18236.325577096941
 20
5524.1946352201694
 30
0.0
 11
18222.76627709694
 21
5532.0232352201701
 31
0.0
  0
LINE
  5
4D8B
  8
1
 10
18419.76627709694
 20
5484.3629352201679
 30
0.0
 11
18408.097477096941
 21
5435.7428352201678
 31
0.0
  0
ARC
  5
4D8D
  8
1
 10
18406.347277096938
 20
5436.1628352201687
 30
0.0
 40
1.7999000000000001
 50
269.99810000000048
 51
346.50660000000221
  0
LINE
  5
4D92
  8
1
 10
18423.566277096939
 20
5524.3629352201679
 30
0.0
 11
18423.566277096939
 21
5485.8629352201679
 31
0.0
  0
ARC
  5
4D93
  8
1
 10
18422.066277096939
 20
5485.8629352201679
 30
0.0
 40
1.5
 50
270.0
 51
0.0
  0
LINE
  5
4D94
  8
1
 10
18409.206977096939
 20
5524.1946352201694
 30
0.0
 11
18422.76627709694
 21
5532.0232352201701
 31
0.0
  0
LINE
  5
4D96
  8
1
 10
18407.76627709694
 20
5691.3629352201688
 30
0.0
 11
18237.76627709694
 21
5691.3629352201688
 31
0.0
  0
LINE
  5
4D97
  8
1
 10
18240.76627709694
 20
5712.0906146535881
 30
0.0
 11
18404.76627709694
 21
5712.0906146535881
 31
0.0
  0
LINE
  5
4D98
  8
1
 10
18359.76627709694
 20
5718.0906146535881
 30
0.0
 11
18285.76627709694
 21
5718.0906146535881
 31
0.0
  0
POLYLINE
  5
4D99
  8
1
 66
     1
 10
0.0
 20
0.0
 30
0.0
  0
VERTEX
  5
6E49
  8
1
 10
18302.435974317119
 20
5733.3629352201688
 30
0.0
  0
VERTEX
  5
6E4A
  8
1
 10
18141.26627709694
 20
5733.3629352201688
 30
0.0
  0
SEQEND
  5
6E4B
  8
1
  0
LINE
  5
4D9A
  8
1
 10
18322.76627709694
 20
5741.3629352201724
 30
0.0
 11
18073.76627709694
 21
5741.3629352201688
 31
0.0
  0
LINE
  5
4D9B
  8
2
 10
17997.403148251029
 20
5854.3629352201688
 30
0.0
 11
18620.387825363428
 21
5854.3629352201688
 31
0.0
1001
ACAD
1000
ASC_BOUNDS
1002
{
1070
    19
1005
0
1005
0
1002
}
  0
ARC
  5
4D9C
  8
1
 10
18073.76627709694
 20
5756.3629352201688
 30
0.0
 40
15.0
 50
180.0
 51
270.0
  0
LINE
  5
4DA1
  8
1
 10
18237.76627709694
 20
5691.3629352201688
 30
0.0
 11
18237.76627709694
 21
5709.0906146535881
 31
0.0
  0
LINE
  5
4DA2
  8
1
 10
18237.76627709694
 20
5694.3629352201688
 30
0.0
 11
18237.76627709694
 21
5691.3629352201688
 31
0.0
  0
LINE
  5
4DA3
  8
1
 10
18222.76627709694
 20
5682.7026352201692
 30
0.0
 11
18237.76627709694
 21
5691.3629352201688
 31
0.0
  0
ARC
  5
4DA4
  8
1
 10
18285.766177096939
 20
5715.0906146535881
 30
0.0
 40
2.9998999999999989
 50
89.998799999999648
 51
180.001199999997
  0
LINE
  5
4DA5
  8
1
 10
18282.76627709694
 20
5712.0906146535881
 30
0.0
 11
18282.76627709694
 21
5715.0906146535881
 31
0.0
  0
ARC
  5
4DA6
  8
1
 10
18240.766177096939
 20
5709.0906146535881
 30
0.0
 40
2.9998999999999989
 50
89.998799999999648
 51
180.001199999997
  0
ARC
  5
4DA7
  8
1
 10
18143.111696908949
 20
5774.936788372067
 30
0.0
 40
48.656384192584412
 50
303.50003366526448
 51
316.3683487231641
  0
ARC
  5
4DA8
  8
1
 10
18142.26627709694
 20
5735.3629352201688
 30
0.0
 40
1.0
 50
180.0
 51
270.0
  0
ARC
  5
4DA9
  8
1
 10
18141.26627709694
 20
5734.3629352201679
 30
0.0
 40
1.0
 50
180.0
 51
270.0
  0
LINE
  5
4DAA
  8
1
 10
18141.26627709694
 20
5741.362935220166
 30
0.0
 11
18141.26627709694
 21
5735.3629352201669
 31
0.0
  0
LINE
  5
4DAB
  8
1
 10
18140.26627709694
 20
5740.3629352201688
 30
0.0
 11
18140.26627709694
 21
5734.3629352201669
 31
0.0
  0
ARC
  5
4DAC
  8
1
 10
18139.26627709694
 20
5740.3629352201688
 30
0.0
 40
1.0
 50
0.0
 51
90.0
  0
LINE
  5
4DAD
  8
1
 10
18142.26627709694
 20
5734.3629352201669
 30
0.0
 11
18169.966978756369
 21
5734.3629352201679
 31
0.0
  0
LINE
  5
4DAE
  8
1
 10
18571.56627709695
 20
5741.3629352201688
 30
0.0
 11
18552.76627709694
 21
5760.1629352201689
 31
0.0
  0
LINE
  5
4DB0
  8
1
 10
18503.26627709694
 20
5734.3629352201679
 30
0.0
 11
18475.565575437511
 21
5734.3629352201679
 31
0.0
  0
LINE
  5
4DB1
  8
1
 10
18572.76627709694
 20
5741.3629352201688
 30
0.0
 11
18322.76627709694
 21
5741.3629352201688
 31
0.0
  0
POLYLINE
  5
4DB2
  8
1
 66
     1
 10
0.0
 20
0.0
 30
0.0
  0
VERTEX
  5
6E4C
  8
1
 10
18504.26627709694
 20
5733.3629352201688
 30
0.0
  0
VERTEX
  5
6E4D
  8
1
 10
18322.76627709694
 20
5733.3629352201688
 30
0.0
  0
VERTEX
  5
6E4E
  8
1
 10
18302.435974317119
 20
5733.3629352201688
 30
0.0
  0
SEQEND
  5
6E4F
  8
1
  0
LINE
  5
4DB3
  8
1
 10
18337.366177096941
 20
5718.0906146535881
 30
0.0
 11
18337.366177096941
 21
5741.3629352201688
 31
0.0
  0
LINE
  5
4DB4
  8
1
 10
18308.166277096941
 20
5718.0906146535881
 30
0.0
 11
18308.166277096941
 21
5741.3629352201724
 31
0.0
  0
LINE
  5
4DB5
  8
1
 10
18407.76627709694
 20
5691.3629352201688
 30
0.0
 11
18407.76627709694
 21
5709.0906146535881
 31
0.0
  0
LINE
  5
4DB6
  8
1
 10
18407.76627709694
 20
5694.3629352201688
 30
0.0
 11
18407.76627709694
 21
5691.3629352201688
 31
0.0
  0
LINE
  5
4DB7
  8
1
 10
18422.76627709694
 20
5682.7026352201692
 30
0.0
 11
18407.76627709694
 21
5691.3629352201688
 31
0.0
  0
ARC
  5
4DB8
  8
1
 10
18502.420857284931
 20
5774.936788372067
 30
0.0
 40
48.656384192584412
 50
223.63165127683581
 51
236.4999663347354
  0
ARC
  5
4DB9
  8
1
 10
18404.766377096941
 20
5709.0906146535881
 30
0.0
 40
2.9998999999999989
 50
359.9988000000028
 51
90.001200000000338
  0
LINE
  5
4DBA
  8
1
 10
18362.76627709694
 20
5712.0906146535881
 30
0.0
 11
18362.76627709694
 21
5715.0906146535881
 31
0.0
  0
ARC
  5
4DBB
  8
1
 10
18359.76627709694
 20
5715.0906146535881
 30
0.0
 40
2.9998999999999989
 50
359.9988000000028
 51
90.001200000000338
  0
LINE
  5
4DBD
  8
1
 10
18572.76627709694
 20
5721.3629352201679
 30
0.0
 11
18571.56627709695
 21
5721.3629352201679
 31
0.0
1001
ACAD
1000
ASC_BOUNDS
1002
{
1070
    19
1002
}
  0
ARC
  5
4DC1
  8
1
 10
18506.26627709694
 20
5740.3629352201688
 30
0.0
 40
1.0
 50
90.0
 51
180.0
  0
LINE
  5
4DC2
  8
1
 10
18505.26627709694
 20
5740.3629352201688
 30
0.0
 11
18505.26627709694
 21
5734.3629352201679
 31
0.0
  0
LINE
  5
4DC3
  8
1
 10
18504.26627709694
 20
5741.3629352201688
 30
0.0
 11
18504.26627709694
 21
5735.3629352201688
 31
0.0
  0
ARC
  5
4DC4
  8
1
 10
18504.26627709694
 20
5734.3629352201679
 30
0.0
 40
1.0
 50
270.0
 51
0.0
  0
ARC
  5
4DC5
  8
1
 10
18503.26627709694
 20
5735.3629352201688
 30
0.0
 40
1.0
 50
270.0
 51
0.0
  0
ARC
  5
4DC6
  8
1
 10
18504.26627709694
 20
5734.3629352201679
 30
0.0
 40
1.0
 50
270.0
 51
0.0
  0
POLYLINE
  5
4DC7
  8
1
 66
     1
 10
0.0
 20
0.0
 30
0.0
  0
VERTEX
  5
6E50
  8
1
 10
18302.435974317119
 20
5975.3629352201688
 30
0.0
  0
VERTEX
  5
6E51
  8
1
 10
18141.26627709694
 20
5975.3629352201688
 30
0.0
  0
SEQEND
  5
6E52
  8
1
  0
LINE
  5
4DC8
  8
1
 10
18322.76627709694
 20
5967.3629352201669
 30
0.0
 11
18073.76627709694
 21
5967.3629352201688
 31
0.0
  0
ARC
  5
4DC9
  8
1
 10
18073.76627709694
 20
5952.3629352201679
 30
0.0
 40
15.0
 50
90.0
 51
180.0
  0
LINE
  5
4DCA
  8
1
 10
18142.26627709694
 20
5974.3629352201697
 30
0.0
 11
18169.966978756369
 21
5974.3629352201688
 31
0.0
  0
ARC
  5
4DCB
  8
1
 10
18139.26627709694
 20
5968.3629352201688
 30
0.0
 40
1.0
 50
270.0
 51
0.0
  0
LINE
  5
4DCC
  8
1
 10
18140.26627709694
 20
5968.3629352201688
 30
0.0
 11
18140.26627709694
 21
5974.3629352201697
 31
0.0
  0
LINE
  5
4DCD
  8
1
 10
18141.26627709694
 20
5967.3629352201706
 30
0.0
 11
18141.26627709694
 21
5973.3629352201706
 31
0.0
  0
ARC
  5
4DCE
  8
1
 10
18141.26627709694
 20
5974.3629352201688
 30
0.0
 40
1.0
 50
90.000000000000028
 51
180.0
  0
ARC
  5
4DCF
  8
1
 10
18142.26627709694
 20
5973.3629352201688
 30
0.0
 40
1.0
 50
90.000000000000028
 51
180.0
  0
ARC
  5
4DD0
  8
1
 10
18143.111696908949
 20
5933.7890820682705
 30
0.0
 40
48.656384192584412
 50
43.631651276835868
 51
56.49996633473549
  0
POLYLINE
  5
4DD1
  8
1
 66
     1
 10
0.0
 20
0.0
 30
0.0
  0
VERTEX
  5
6E53
  8
1
 10
18504.26627709694
 20
5975.3629352201688
 30
0.0
  0
VERTEX
  5
6E54
  8
1
 10
18322.76627709694
 20
5975.3629352201688
 30
0.0
  0
VERTEX
  5
6E55
  8
1
 10
18302.435974317119
 20
5975.3629352201688
 30
0.0
  0
SEQEND
  5
6E56
  8
1
  0
LINE
  5
4DD2
  8
1
 10
18503.26627709694
 20
5974.3629352201688
 30
0.0
 11
18475.565575437511
 21
5974.3629352201688
 31
0.0
  0
LINE
  5
4DD3
  8
1
 10
18572.76627709694
 20
5967.3629352201688
 30
0.0
 11
18322.76627709694
 21
5967.3629352201688
 31
0.0
  0
ARC
  5
4DD4
  8
1
 10
18502.420857284931
 20
5933.7890820682705
 30
0.0
 40
48.656384192584412
 50
123.5000336652645
 51
136.3683487231641
  0
ARC
  5
4DD5
  8
1
 10
18504.26627709694
 20
5974.3629352201688
 30
0.0
 40
1.0
 50
0.0
 51
90.000000000000028
  0
ARC
  5
4DD6
  8
1
 10
18503.26627709694
 20
5973.3629352201688
 30
0.0
 40
1.0
 50
0.0
 51
90.000000000000028
  0
ARC
  5
4DD7
  8
1
 10
18504.26627709694
 20
5974.3629352201688
 30
0.0
 40
1.0
 50
0.0
 51
90.000000000000028
  0
LINE
  5
4DD8
  8
1
 10
18504.26627709694
 20
5967.3629352201688
 30
0.0
 11
18504.26627709694
 21
5973.3629352201688
 31
0.0
  0
LINE
  5
4DD9
  8
1
 10
18505.26627709694
 20
5968.3629352201688
 30
0.0
 11
18505.26627709694
 21
5974.3629352201688
 31
0.0
  0
ARC
  5
4DDA
  8
1
 10
18506.26627709694
 20
5968.3629352201688
 30
0.0
 40
1.0
 50
180.0
 51
270.0
  0
LINE
  5
4DDB
  8
1
 10
18572.76627709694
 20
5987.3629352201679
 30
0.0
 11
18571.56627709695
 21
5987.3629352201679
 31
0.0
1001
ACAD
1000
ASC_BOUNDS
1002
{
1070
    19
1002
}
  0
LINE
  5
4DDC
  8
1
 10
18571.56627709695
 20
5967.3629352201688
 30
0.0
 11
18552.76627709694
 21
5948.5629352201704
 31
0.0
  0
LINE
  5
5843
  8
1
 10
18072.766277096951
 20
4149.9352945090814
 30
0.0
 11
18110.466277096959
 21
4149.9352945090814
 31
0.0
  0
LINE
  5
5844
  8
1
 10
18072.766277096951
 20
4149.9352945090814
 30
0.0
 11
18072.766277096951
 21
4147.6352945090821
 31
0.0
  0
LINE
  5
5845
  8
2
 10
18090.766277096951
 20
4129.4484132242542
 30
0.0
 11
18090.766277096951
 21
4161.1393061729141
 31
0.0
  0
LINE
  5
5846
  8
1
 10
18572.76627709694
 20
4149.9352945090814
 30
0.0
 11
18535.066277096939
 21
4149.9352945090814
 31
0.0
  0
LINE
  5
5847
  8
1
 10
18572.76627709694
 20
4149.9352945090814
 30
0.0
 11
18572.76627709694
 21
4147.6352945090821
 31
0.0
  0
LINE
  5
5848
  8
2
 10
18554.766277096951
 20
4129.4484132242542
 30
0.0
 11
18554.766277096951
 21
4161.1393061729141
 31
0.0
  0
LINE
  5
5849
  8
1
 10
18535.066277096939
 20
4585.7352945090825
 30
0.0
 11
18535.066277096939
 21
4149.9352945090804
 31
0.0
  0
LINE
  5
584A
  8
1
 10
18532.76627709694
 20
4587.5576166677092
 30
0.0
 11
18532.76627709694
 21
4147.6352945090821
 31
0.0
  0
LINE
  5
584B
  8
1
 10
18492.76627709694
 20
4402.6352945090821
 30
0.0
 11
18492.76627709694
 21
4202.6352945090812
 31
0.0
  0
LINE
  5
584C
  8
1
 10
18532.76627709694
 20
4202.6352945090812
 30
0.0
 11
18492.76627709694
 21
4202.6352945090812
 31
0.0
  0
LINE
  5
584D
  8
1
 10
18112.766277096958
 20
4587.5576166677092
 30
0.0
 11
18112.766277096951
 21
4147.6352945090821
 31
0.0
  0
LINE
  5
584E
  8
1
 10
18110.466277096959
 20
4585.7352945090825
 30
0.0
 11
18110.466277096959
 21
4149.9352945090804
 31
0.0
  0
LINE
  5
584F
  8
1
 10
18152.766277096958
 20
4402.6352945090821
 30
0.0
 11
18152.766277096951
 21
4202.6352945090812
 31
0.0
  0
LINE
  5
5850
  8
1
 10
18112.766277096958
 20
4202.6352945090812
 30
0.0
 11
18152.766277096951
 21
4202.6352945090812
 31
0.0
  0
LINE
  5
5851
  8
1
 10
18112.766277096958
 20
4402.6352945090821
 30
0.0
 11
18532.76627709694
 21
4402.6352945090812
 31
0.0
  0
LINE
  5
5852
  8
1
 10
18152.766277096958
 20
4362.6352945090821
 30
0.0
 11
18322.766277096951
 21
4362.6352945090821
 31
0.0
  0
LINE
  5
5853
  8
FUTO
 10
18112.766277096958
 20
4402.6352945090821
 30
0.0
 11
18152.766277096958
 21
4362.6352945090821
 31
0.0
  0
LINE
  5
5854
  8
FUTO
 10
18532.76627709694
 20
4402.6352945090821
 30
0.0
 11
18492.76627709694
 21
4362.6352945090821
 31
0.0
  0
LINE
  5
5855
  8
1
 10
18492.76627709694
 20
4362.6352945090821
 30
0.0
 11
18322.766277096951
 21
4362.6352945090821
 31
0.0
  0
LINE
  5
5856
  8
1
 10
18412.76627709694
 20
4707.6352945090821
 30
0.0
 11
18535.066277096939
 21
4585.7352945090825
 31
0.0
  0
LINE
  5
5857
  8
1
 10
18232.76627709694
 20
4707.6352945090821
 30
0.0
 11
18110.466277096959
 21
4585.7352945090825
 31
0.0
  0
LINE
  5
5858
  8
1
 10
18232.76627709694
 20
4707.6352945090839
 30
0.0
 11
18412.76627709694
 21
4707.6352945090821
 31
0.0
  0
LINE
  5
599C
  8
1
 10
18072.76627709694
 20
5422.3629352201688
 30
0.0
 11
18072.76627709694
 21
5732.3629352201797
 31
0.0
  0
LINE
  5
599D
  8
1
 10
18112.76627709694
 20
5422.3629352201688
 30
0.0
 11
18112.76627709694
 21
5732.3629352201797
 31
0.0
  0
LINE
  5
599E
  8
1
 10
18112.76627709694
 20
5732.3629352201797
 30
0.0
 11
18072.76627709694
 21
5732.3629352201797
 31
0.0
  0
POLYLINE
  5
59A2
  8
1
 66
     1
 10
0.0
 20
0.0
 30
0.0
  0
VERTEX
  5
6E57
  8
1
 10
18112.76627709694
 20
5722.8669718708852
 30
0.0
  0
VERTEX
  5
6E58
  8
1
 10
18308.166277096941
 20
5722.8669718708852
 30
0.0
  0
SEQEND
  5
6E59
  8
1
  0
POLYLINE
  5
59A3
  8
1
 66
     1
 10
0.0
 20
0.0
 30
0.0
  0
VERTEX
  5
6E5A
  8
1
 10
18112.76627709694
 20
5470.7629352201711
 30
0.0
  0
VERTEX
  5
6E5B
  8
1
 10
18229.030270383661
 20
5470.7629352201711
 30
0.0
  0
SEQEND
  5
6E5C
  8
1
  0
LINE
  5
59A5
  8
1
 10
18072.76627709694
 20
5422.3629352201688
 30
0.0
 11
18112.76627709694
 21
5422.3629352201688
 31
0.0
  0
POLYLINE
  5
59A8
  8
1
 66
     1
 10
0.0
 20
0.0
 30
0.0
  0
VERTEX
  5
6E5D
  8
1
 10
18416.502283810209
 20
5470.7629352201711
 30
0.0
  0
VERTEX
  5
6E5E
  8
1
 10
18532.76627709694
 20
5470.7629352201684
 30
0.0
  0
SEQEND
  5
6E5F
  8
1
  0
LINE
  5
59AA
  8
1
 10
18532.76627709694
 20
5422.3629352201724
 30
0.0
 11
18572.76627709694
 21
5422.3629352201688
 31
0.0
  0
LINE
  5
59AD
  8
1
 10
18572.76627709694
 20
5422.3629352201688
 30
0.0
 11
18572.76627709694
 21
5732.3629352201688
 31
0.0
  0
LINE
  5
59AE
  8
1
 10
18532.76627709694
 20
5422.3629352201688
 30
0.0
 11
18532.76627709694
 21
5732.3629352201688
 31
0.0
  0
LINE
  5
59B1
  8
FUTO
 10
18532.76627709694
 20
5732.3629352201688
 30
0.0
 11
18572.76627709694
 21
5732.3629352201688
 31
0.0
  0
POLYLINE
  5
59B2
  8
1
 66
     1
 10
0.0
 20
0.0
 30
0.0
  0
VERTEX
  5
6E60
  8
1
 10
18337.366177096941
 20
5722.8669718708852
 30
0.0
  0
VERTEX
  5
6E61
  8
1
 10
18532.76627709694
 20
5722.8669718708852
 30
0.0
  0
SEQEND
  5
6E62
  8
1
  0
TEXT
  5
614D
  8
4
 10
19524.12014238468
 20
6397.9530537408073
 30
0.0
 40
80.999999999999986
  1
縮尺：1/15
  0
TEXT
  5
614E
  8
4
 10
18499.763808571439
 20
6397.9530537408073
 30
0.0
 40
80.999999999999986
  1
天井吊防振ベッド型
  0
POLYLINE
  5
6202
  8
1
 66
     1
 10
0.0
 20
0.0
 30
0.0
  0
VERTEX
  5
6E63
  8
1
 10
19780.613704640451
 20
4684.1352945090812
 30
0.0
  0
VERTEX
  5
6E64
  8
1
 10
19780.613704640451
 20
4502.6352945090812
 30
0.0
  0
VERTEX
  5
6E65
  8
1
 10
19780.613704640451
 20
4321.1352945090821
 30
0.0
  0
SEQEND
  5
6E66
  8
1
  0
LINE
  5
6203
  8
1
 10
19773.613704640451
 20
4320.135294509083
 30
0.0
 11
19779.613704640451
 21
4320.135294509083
 31
0.0
  0
ARC
  5
6204
  8
1
 10
19773.613704640451
 20
4319.1352945090821
 30
0.0
 40
1.0
 50
90.0
 51
180.0
  0
ARC
  5
6205
  8
1
 10
19779.613704640451
 20
4321.1352945090821
 30
0.0
 40
1.0
 50
270.0
 51
0.0
  0
LINE
  5
6206
  8
FUTO
 10
19780.613704640451
 20
4345.1352945090803
 30
0.0
 11
19772.613704640451
 21
4345.1352945090803
 31
0.0
  0
LINE
  5
6207
  8
FUTO
 10
19780.613704640451
 20
4660.1352945090794
 30
0.0
 11
19772.613704640451
 21
4660.1352945090794
 31
0.0
  0
LINE
  5
6208
  8
1
 10
19773.613704640451
 20
4685.1352945090803
 30
0.0
 11
19779.613704640451
 21
4685.1352945090803
 31
0.0
  0
ARC
  5
6209
  8
1
 10
19773.613704640451
 20
4686.1352945090803
 30
0.0
 40
1.0
 50
180.0
 51
270.0
  0
ARC
  5
620A
  8
1
 10
19779.613704640451
 20
4684.1352945090803
 30
0.0
 40
1.0
 50
0.0
 51
90.0
  0
LINE
  5
620B
  8
FUTO
 10
19562.613704640451
 20
4725.9225146255549
 30
0.0
 11
19756.61370464044
 21
4725.922514625554
 31
0.0
  0
LINE
  5
620C
  8
1
 10
19546.613704640451
 20
4709.9225146255549
 30
0.0
 11
19546.613704640451
 21
4523.8132198675912
 31
0.0
  0
ARC
  5
620D
  8
FUTO
 10
19562.613704640451
 20
4709.9225146255549
 30
0.0
 40
16.0
 50
90.0
 51
180.0000000000002
  0
ARC
  5
620E
  8
FUTO
 10
19756.61370464044
 20
4709.922514625554
 30
0.0
 40
16.0
 50
0.0000000000010178
 51
89.999999999999716
  0
LINE
  5
620F
  8
1
 10
19772.61370464044
 20
4709.922514625554
 30
0.0
 11
19772.613704640451
 21
4523.8132198675921
 31
0.0
  0
LINE
  5
6B7E
  8
FUTO
 10
18012.76627709694
 20
5414.3629352201679
 30
0.0
 11
18632.76627709694
 21
5414.3629352201679
 31
0.0
1001
ACAD
1000
ASC_BOUNDS
1002
{
1070
    19
1005
0
1005
0
1002
}
  0
LINE
  5
6B7F
  8
FUTO
 10
18012.76627709694
 20
5374.3629352201679
 30
0.0
 11
18632.76627709694
 21
5374.3629352201688
 31
0.0
1001
ACAD
1000
ASC_BOUNDS
1002
{
1070
    19
1005
0
1005
0
1002
}
  0
CIRCLE
  5
6B80
  8
FUTO
 10
18042.76627709694
 20
5392.3629352201679
 30
0.0
 40
6.5
  0
LINE
  5
6B81
  8
CT
 10
18027.073988900302
 20
5392.3629352201679
 30
0.0
 11
18057.76627709694
 21
5392.3629352201679
 31
0.0
  0
LINE
  5
6B82
  8
CT
 10
18042.76627709694
 20
5408.4976431027171
 30
0.0
 11
18042.76627709694
 21
5372.8305635982761
 31
0.0
  0
LINE
  5
6B83
  8
FUTO
 10
18012.76627709694
 20
5374.3629352201679
 30
0.0
 11
18012.76627709694
 21
5414.3629352201679
 31
0.0
  0
LINE
  5
6B84
  8
CT
 10
18602.76627709694
 20
5408.4976431027171
 30
0.0
 11
18602.76627709694
 21
5372.8305635982761
 31
0.0
  0
LINE
  5
6B85
  8
FUTO
 10
18632.76627709694
 20
5374.3629352201688
 30
0.0
 11
18632.76627709694
 21
5414.3629352201679
 31
0.0
  0
LINE
  5
6B86
  8
CT
 10
18587.073988900302
 20
5392.3629352201679
 30
0.0
 11
18617.76627709694
 21
5392.3629352201679
 31
0.0
  0
CIRCLE
  5
6B87
  8
FUTO
 10
18602.76627709694
 20
5392.3629352201679
 30
0.0
 40
6.5
  0
LINE
  5
6B88
  8
FUTO
 10
18012.76627709694
 20
6034.3629352201688
 30
0.0
 11
18632.76627709694
 21
6034.3629352201688
 31
0.0
1001
ACAD
1000
ASC_BOUNDS
1002
{
1070
    19
1005
0
1005
0
1002
}
  0
LINE
  5
6B89
  8
FUTO
 10
18012.76627709694
 20
6074.3629352201679
 30
0.0
 11
18632.76627709694
 21
6074.3629352201697
 31
0.0
1001
ACAD
1000
ASC_BOUNDS
1002
{
1070
    19
1005
0
1005
0
1002
}
  0
CIRCLE
  5
6B8A
  8
FUTO
 10
18602.76627709694
 20
6056.3629352201669
 30
0.0
 40
6.5
  0
LINE
  5
6B8B
  8
CT
 10
18587.073988900302
 20
6056.3629352201669
 30
0.0
 11
18617.76627709694
 21
6056.3629352201669
 31
0.0
  0
LINE
  5
6B8C
  8
CT
 10
18602.76627709694
 20
6040.2282273376177
 30
0.0
 11
18602.76627709694
 21
6075.8953068420597
 31
0.0
  0
LINE
  5
6B8D
  8
FUTO
 10
18632.76627709694
 20
6034.3629352201688
 30
0.0
 11
18632.76627709694
 21
6074.3629352201697
 31
0.0
  0
LINE
  5
6B8E
  8
1
 10
18072.76627709694
 20
5414.3629352201679
 30
0.0
 11
18072.76627709694
 21
5741.3963056730736
 31
0.0
  0
LINE
  5
6B8F
  8
1
 10
18112.76627709694
 20
5414.3629352201679
 30
0.0
 11
18112.76627709694
 21
5741.3629352201706
 31
0.0
  0
LINE
  5
6B90
  8
CT
 10
18042.76627709694
 20
6040.2282273376177
 30
0.0
 11
18042.76627709694
 21
6075.8953068420597
 31
0.0
  0
LINE
  5
6B91
  8
CT
 10
18027.073988900302
 20
6056.3629352201669
 30
0.0
 11
18057.76627709694
 21
6056.3629352201669
 31
0.0
  0
CIRCLE
  5
6B92
  8
FUTO
 10
18042.76627709694
 20
6056.3629352201669
 30
0.0
 40
6.5
  0
LINE
  5
6B93
  8
FUTO
 10
18012.76627709694
 20
6034.3629352201688
 30
0.0
 11
18012.76627709694
 21
6074.3629352201679
 31
0.0
  0
LINE
  5
6B94
  8
1
 10
18572.76627709694
 20
5414.3629352201679
 30
0.0
 11
18572.76627709694
 21
6034.3629352201679
 31
0.0
  0
LINE
  5
6B95
  8
1
 10
18532.76627709694
 20
5414.3629352201679
 30
0.0
 11
18532.76627709694
 21
5741.3629352201688
 31
0.0
  0
DIMENSION
  5
6B96
  8
SP
  2
*D15
 10
18795.877767125879
 20
5374.3629352201688
 30
0.0
 11
18758.377767125879
 21
5724.3629352201724
 31
0.0
 70
     0
 13
18632.76627709694
 23
6074.3629352201697
 33
0.0
 14
18632.76627709694
 24
5374.3629352201688
 34
0.0
 50
90.0
  0
DIMENSION
  5
6B97
  8
SP
  2
*D16
 10
18012.76627709694
 20
5235.4232802762608
 30
0.0
 11
18322.76627709694
 21
5272.9232802762617
 31
0.0
 70
     0
 13
18632.76627709694
 23
5374.3629352201688
 33
0.0
 14
18012.76627709694
 24
5374.3629352201679
 34
0.0
  0
LINE
  5
6C4F
  8
1
 10
18112.76627709694
 20
5967.3629352201697
 30
0.0
 11
18112.76627709694
 21
6034.3629352201679
 31
0.0
  0
LINE
  5
6C50
  8
1
 10
18072.76627709694
 20
5967.3295647672649
 30
0.0
 11
18072.76627709694
 21
6034.3629352201679
 31
0.0
  0
LINE
  5
6C51
  8
1
 10
18532.76627709694
 20
5967.3629352201688
 30
0.0
 11
18532.76627709694
 21
6034.3629352201679
 31
0.0
  0
DIMENSION
  5
6CB9
  8
SP
  2
*D17
 10
18012.766277096951
 20
3897.6352945090821
 30
0.0
 11
18322.766277096951
 21
3935.1352945090821
 31
0.0
 70
     0
 13
18632.766277096951
 23
4085.6352945090812
 33
0.0
 14
18012.766277096951
 24
4085.6352945090812
 34
0.0
  0
DIMENSION
  5
6CBA
  8
SP
  2
*D18
 10
18632.766277096951
 20
4002.6352945090821
 30
0.0
 11
18477.76627709694
 21
4040.1352945090821
 31
0.0
 70
     0
 13
18322.76627709694
 23
4062.9208645024009
 33
0.0
 14
18632.766277096951
 24
4085.6352945090812
 34
0.0
  0
LINE
  5
6CBB
  8
FUTO
 10
18012.766277096951
 20
4122.6352945090821
 30
0.0
 11
18632.766277096951
 21
4122.6352945090821
 31
0.0
  0
LINE
  5
6CBC
  8
FUTO
 10
18012.766277096951
 20
4125.6352945090821
 30
0.0
 11
18632.766277096951
 21
4125.6352945090821
 31
0.0
  0
LINE
  5
6CBD
  8
FUTO
 10
18012.766277096951
 20
4085.6352945090812
 30
0.0
 11
18632.766277096951
 21
4085.6352945090812
 31
0.0
  0
DIMENSION
  5
6CBE
  8
SP
  2
*D19
 10
18012.766277096951
 20
4002.6352945090821
 30
0.0
 11
18167.76627709694
 21
4040.1352945090821
 31
0.0
 70
     0
 13
18322.76627709694
 23
4062.9208645024009
 33
0.0
 14
18012.766277096951
 24
4085.6352945090812
 34
0.0
  0
LINE
  5
6CBF
  8
FUTO
 10
18072.766277096951
 20
4125.6352945090821
 30
0.0
 11
18572.76627709694
 21
4125.6352945090821
 31
0.0
  0
LINE
  5
6CC0
  8
FUTO
 10
18012.766277096951
 20
4085.6352945090812
 30
0.0
 11
18012.766277096951
 21
4125.6352945090821
 31
0.0
  0
LINE
  5
6CC1
  8
FUTO
 10
18632.766277096951
 20
4085.6352945090812
 30
0.0
 11
18632.766277096951
 21
4125.6352945090821
 31
0.0
  0
LINE
  5
6D31
  8
FUTO
 10
18072.766277096951
 20
4147.6352945090821
 30
0.0
 11
18572.76627709694
 21
4147.6352945090821
 31
0.0
  0
DIMENSION
  5
6D3B
  8
SP
  2
*D21
 10
18782.766277096929
 20
4125.6352945090821
 30
0.0
 11
18835.71614990884
 21
4127.7846943954319
 31
0.0
 70
   128
 13
18572.766277096918
 23
4147.6352945090821
 33
0.0
 14
18632.766277096929
 24
4125.6352945090821
 34
0.0
 50
90.0
1001
ACAD
1000
DSTYLE
1002
{
1070
   287
1070
     5
1070
   279
1070
     2
1070
     7
1000
NONE
1070
     6
1000
NONE
1070
     3
1000
（<>）
1002
}
  0
DIMENSION
  5
6D3C
  8
SP
  2
*D20
 10
18782.766277096929
 20
4085.6352945090812
 30
0.0
 11
18745.26627709694
 21
3957.4072674473218
 31
0.0
 70
     0
 13
18632.766277096929
 23
4125.6352945090821
 33
0.0
 14
18632.766277096929
 24
4085.6352945090812
 34
0.0
 50
90.0
1001
ACAD
1000
DSTYLE
1002
{
1070
     6
1000
DOT
1002
}
  0
DIMENSION
  5
6D9C
  8
SP
  2
*D22
 10
19659.613704640451
 20
3980.6352945090789
 30
0.0
 11
19419.613704640451
 21
4018.1352945090789
 31
0.0
 70
     0
 13
19179.613704640451
 23
4125.6352945090803
 33
0.0
 14
19659.613704640451
 24
4062.9208645024009
 34
0.0
  0
DIMENSION
  5
6D9D
  8
SP
  2
*D23
 10
19879.613704640451
 20
3875.6352945090789
 30
0.0
 11
19529.613704640451
 21
3913.1352945090789
 31
0.0
 70
     0
 13
19179.613704640451
 23
4125.6352945090803
 33
0.0
 14
19879.613704640451
 24
4125.6352945090803
 34
0.0
  0
LINE
  5
6D9E
  8
FUTO
 10
19219.613704640451
 20
4125.6352945090803
 30
0.0
 11
19839.613704640451
 21
4125.6352945090803
 31
0.0
  0
LINE
  5
6D9F
  8
FUTO
 10
19220.613704640451
 20
4085.6352945090798
 30
0.0
 11
19840.613704640451
 21
4085.6352945090798
 31
0.0
  0
INSERT
  5
6DA0
  8
FUTO
  2
L-40-3
 10
19219.613704640451
 20
4125.6352945090803
 30
0.0
 41
-1.0
 50
90.0
  0
DIMENSION
  5
6DA1
  8
SP
  2
*D24
 10
19879.613704640451
 20
3980.6352945090789
 30
0.0
 11
19769.613704640451
 21
4018.1352945090789
 31
0.0
 70
     0
 13
19659.613704640451
 23
4062.9208645024009
 33
0.0
 14
19879.613704640451
 24
4125.6352945090803
 34
0.0
  0
INSERT
  5
6DA2
  8
FUTO
  2
L-40-3
 10
19839.613704640451
 20
4125.6352945090803
 30
0.0
 50
270.0
  0
LINE
  5
6DA3
  8
SL
 10
19861.613704640451
 20
4113.5668186442654
 30
0.0
 11
19861.613704640451
 21
4760.3237206356807
 31
0.0
  0
LINE
  5
6DA4
  8
SL
 10
19197.613704640451
 20
4113.5668186442654
 30
0.0
 11
19197.613704640451
 21
4760.3237206356807
 31
0.0
  0
ENDSEC
  0
EOF
