  0
SECTION
  2
HEADER
  9
$ACADVER
  1
AC1009
  9
$INSBASE
 10
0.0
 20
0.0
 30
0.0
  9
$EXTMIN
 10
13845.59771503509
 20
2822.8097917420341
 30
0.0
  9
$EXTMAX
 10
16995.597715035088
 20
7247.8097917420337
 30
0.0
  9
$LIMMIN
 10
0.0
 20
0.0
  9
$LIMMAX
 10
297.0
 20
210.0
  9
$ORTHOMODE
 70
     0
  9
$REGENMODE
 70
     1
  9
$FILLMODE
 70
     1
  9
$QTEXTMODE
 70
     0
  9
$MIRRTEXT
 70
     0
  9
$DRAGMODE
 70
     2
  9
$LTSCALE
 40
75.0
  9
$OSMODE
 70
   545
  9
$ATTMODE
 70
     1
  9
$TEXTSIZE
 40
3.5
  9
$TRACEWID
 40
0.05
  9
$TEXTSTYLE
  7
STANDARD
  9
$CLAYER
  8
SP
  9
$CELTYPE
  6
BYLAYER
  9
$CECOLOR
 62
   256
  9
$DIMSCALE
 40
15.0
  9
$DIMASZ
 40
2.5
  9
$DIMEXO
 40
1.0
  9
$DIMDLI
 40
7.0
  9
$DIMRND
 40
0.0
  9
$DIMDLE
 40
0.0
  9
$DIMEXE
 40
1.0
  9
$DIMTP
 40
0.0
  9
$DIMTM
 40
0.0
  9
$DIMTXT
 40
3.0
  9
$DIMCEN
 40
0.0
  9
$DIMTSZ
 40
0.0
  9
$DIMTOL
 70
     0
  9
$DIMLIM
 70
     0
  9
$DIMTIH
 70
     0
  9
$DIMTOH
 70
     0
  9
$DIMSE1
 70
     0
  9
$DIMSE2
 70
     0
  9
$DIMTAD
 70
     1
  9
$DIMZIN
 70
     8
  9
$DIMBLK
  1

  9
$DIMASO
 70
     1
  9
$DIMSHO
 70
     1
  9
$DIMPOST
  1

  9
$DIMAPOST
  1

  9
$DIMALT
 70
     0
  9
$DIMALTD
 70
     2
  9
$DIMALTF
 40
0.03937
  9
$DIMLFAC
 40
1.0
  9
$DIMTOFL
 70
     1
  9
$DIMTVP
 40
0.0
  9
$DIMTIX
 70
     0
  9
$DIMSOXD
 70
     0
  9
$DIMSAH
 70
     1
  9
$DIMBLK1
  1
OPEN
  9
$DIMBLK2
  1
OPEN
  9
$DIMSTYLE
  2
GOD
  9
$DIMCLRD
 70
   256
  9
$DIMCLRE
 70
   256
  9
$DIMCLRT
 70
   256
  9
$DIMTFAC
 40
1.0
  9
$DIMGAP
 40
1.0
  9
$LUNITS
 70
     2
  9
$LUPREC
 70
     3
  9
$SKETCHINC
 40
0.1
  9
$FILLETRAD
 40
0.0
  9
$AUNITS
 70
     0
  9
$AUPREC
 70
     2
  9
$MENU
  1
acad
  9
$ELEVATION
 40
0.0
  9
$PELEVATION
 40
0.0
  9
$THICKNESS
 40
0.0
  9
$LIMCHECK
 70
     0
  9
$BLIPMODE
 70
     0
  9
$CHAMFERA
 40
0.0
  9
$CHAMFERB
 40
0.0
  9
$SKPOLY
 70
     0
  9
$TDCREATE
 40
2454939.604632488
  9
$TDUPDATE
 40
2454953.826604085
  9
$TDINDWG
 40
0.1807248032
  9
$TDUSRTIMER
 40
0.1807248032
  9
$USRTIMER
 70
     1
  9
$ANGBASE
 50
0.0
  9
$ANGDIR
 70
     0
  9
$PDMODE
 70
     0
  9
$PDSIZE
 40
1.0
  9
$PLINEWID
 40
0.0
  9
$COORDS
 70
     2
  9
$SPLFRAME
 70
     0
  9
$SPLINETYPE
 70
     6
  9
$SPLINESEGS
 70
     8
  9
$ATTDIA
 70
     0
  9
$ATTREQ
 70
     1
  9
$HANDLING
 70
 22529
  9
$HANDSEED
  5
6E54
  9
$SURFTAB1
 70
     6
  9
$SURFTAB2
 70
     6
  9
$SURFTYPE
 70
     6
  9
$SURFU
 70
     6
  9
$SURFV
 70
     6
  9
$UCSNAME
  2

  9
$UCSORG
 10
0.0
 20
0.0
 30
0.0
  9
$UCSXDIR
 10
1.0
 20
0.0
 30
0.0
  9
$UCSYDIR
 10
0.0
 20
1.0
 30
0.0
  9
$PUCSNAME
  2

  9
$PUCSORG
 10
0.0
 20
0.0
 30
0.0
  9
$PUCSXDIR
 10
1.0
 20
0.0
 30
0.0
  9
$PUCSYDIR
 10
0.0
 20
1.0
 30
0.0
  9
$USERI1
 70
     0
  9
$USERI2
 70
     0
  9
$USERI3
 70
     0
  9
$USERI4
 70
     0
  9
$USERI5
 70
     0
  9
$USERR1
 40
0.0
  9
$USERR2
 40
0.0
  9
$USERR3
 40
0.0
  9
$USERR4
 40
0.0
  9
$USERR5
 40
0.0
  9
$WORLDVIEW
 70
     1
  9
$SHADEDGE
 70
     3
  9
$SHADEDIF
 70
    70
  9
$TILEMODE
 70
     1
  9
$MAXACTVP
 70
    16
  9
$PLIMCHECK
 70
     0
  9
$PEXTMIN
 10
1.0000000000000000E+020
 20
1.0000000000000000E+020
 30
1.0000000000000000E+020
  9
$PEXTMAX
 10
-1.0000000000000000E+020
 20
-1.0000000000000000E+020
 30
-1.0000000000000000E+020
  9
$PLIMMIN
 10
0.0
 20
0.0
  9
$PLIMMAX
 10
12.0
 20
9.0
  9
$UNITMODE
 70
     0
  9
$VISRETAIN
 70
     0
  9
$PLINEGEN
 70
     0
  9
$PSLTSCALE
 70
     0
  0
ENDSEC
  0
SECTION
  2
TABLES
  0
TABLE
  2
VPORT
 70
     2
  0
VPORT
  2
*ACTIVE
 70
     0
 10
0.0
 20
0.0
 11
1.0
 21
1.0
 12
15700.7988583399
 22
5035.3455753429571
 13
0.0
 23
0.0
 14
5.0
 24
5.0
 15
0.0
 25
0.0
 16
0.0
 26
0.0
 36
1.0
 17
0.0
 27
0.0
 37
0.0
 40
4460.8912884455576
 41
1.6307901907356941
 42
50.0
 43
0.0
 44
0.0
 50
0.0
 51
0.0
 71
     0
 72
   100
 73
     1
 74
     0
 75
     0
 76
     0
 77
     0
 78
     0
  0
ENDTAB
  0
TABLE
  2
LTYPE
 70
     4
  0
LTYPE
  2
CONTINUOUS
 70
     0
  3
Solid line
 72
    65
 73
     0
 40
0.0
  0
LTYPE
  2
CENTER
 70
     0
  3
____ _ ____ _ ____ _ ____ _ ____ _ ____ _ ____ 
 72
    65
 73
     4
 40
2.0
 49
1.25
 49
-0.25
 49
0.25
 49
-0.25
  0
LTYPE
  2
HIDDEN
 70
     0
  3
__ __ __ __ __ __ __ __ __ __ __ __ __ __ __ __
 72
    65
 73
     2
 40
0.375
 49
0.25
 49
-0.125
  0
LTYPE
  2
PHANTOM
 70
     0
  3
______  __  __  ______  __  __  ______  __  __ 
 72
    65
 73
     6
 40
2.5
 49
1.25
 49
-0.25
 49
0.25
 49
-0.25
 49
0.25
 49
-0.25
  0
ENDTAB
  0
TABLE
  2
LAYER
 70
    13
  0
LAYER
  2
0
 70
     0
 62
     7
  6
CONTINUOUS
  0
LAYER
  2
CT
 70
     0
 62
     3
  6
CENTER
  0
LAYER
  2
FUTO
 70
     0
 62
     4
  6
CONTINUOUS
  0
LAYER
  2
HOSO
 70
     0
 62
     7
  6
CONTINUOUS
  0
LAYER
  2
KL
 70
     0
 62
     7
  6
HIDDEN
  0
LAYER
  2
MOJI
 70
     0
 62
     3
  6
CONTINUOUS
  0
LAYER
  2
SL
 70
     0
 62
     1
  6
PHANTOM
  0
LAYER
  2
SP
 70
     0
 62
     2
  6
CONTINUOUS
  0
LAYER
  2
DEFPOINTS
 70
     0
 62
     7
  6
CONTINUOUS
  0
LAYER
  2
3
 70
     0
 62
    -2
  6
CONTINUOUS
  0
LAYER
  2
2
 70
     0
 62
     3
  6
CENTER
  0
LAYER
  2
1
 70
     0
 62
     4
  6
CONTINUOUS
  0
LAYER
  2
4
 70
     0
 62
     7
  6
CONTINUOUS
  0
ENDTAB
  0
TABLE
  2
STYLE
 70
     1
  0
STYLE
  2
STANDARD
 70
     0
 40
0.0
 41
1.0
 50
15.0
 71
     0
 42
3.5
  3
C:\Program Files\AutoCAD LT\simplex.shx
  4
C:\Program Files\AutoCAD LT\extfont.shx
  0
ENDTAB
  0
TABLE
  2
VIEW
 70
     0
  0
ENDTAB
  0
TABLE
  2
UCS
 70
     0
  0
ENDTAB
  0
TABLE
  2
APPID
 70
     1
  0
APPID
  2
ACAD
 70
     0
  0
ENDTAB
  0
TABLE
  2
DIMSTYLE
 70
     4
  0
DIMSTYLE
  2
STANDARD
 70
     0
  3

  4

  5

  6

  7

 40
1.0
 41
0.18
 42
0.0625
 43
0.38
 44
0.18
 45
0.0
 46
0.0
 47
0.0
 48
0.0
140
0.18
141
0.09
142
0.0
143
25.399999999999999
144
1.0
145
0.0
146
1.0
147
0.09
 71
     0
 72
     0
 73
     1
 74
     1
 75
     0
 76
     0
 77
     0
 78
     0
170
     0
171
     2
172
     0
173
     0
174
     0
175
     0
176
     0
177
     0
178
     0
  0
DIMSTYLE
  2
GOD
 70
     0
  3

  4

  5

  6
OPEN
  7
OPEN
 40
15.0
 41
2.5
 42
1.0
 43
7.0
 44
1.0
 45
0.0
 46
0.0
 47
0.0
 48
0.0
140
3.0
141
0.0
142
0.0
143
0.03937
144
1.0
145
0.0
146
1.0
147
1.0
 71
     0
 72
     0
 73
     0
 74
     0
 75
     0
 76
     0
 77
     1
 78
     8
170
     0
171
     2
172
     1
173
     1
174
     0
175
     0
176
   256
177
   256
178
   256
  0
DIMSTYLE
  2
IGA
 70
     0
  3

  4

  5

  6
OPEN
  7
OPEN
 40
2.0
 41
2.0
 42
0.5
 43
10.0
 44
1.0
 45
0.0
 46
0.0
 47
1.0
 48
1.0
140
3.0
141
0.0
142
0.0
143
0.03937
144
1.0
145
0.0
146
10.0
147
1.0
 71
     0
 72
     0
 73
     0
 74
     0
 75
     0
 76
     0
 77
     1
 78
     8
170
     0
171
     2
172
     0
173
     1
174
     0
175
     0
176
     0
177
     0
178
     0
  0
DIMSTYLE
  2
DIA1
 70
     0
  3

  4

  5

  6

  7

 40
1.0
 41
2.0
 42
1.0
 43
10.0
 44
1.0
 45
0.0
 46
0.0
 47
0.0
 48
0.0
140
2.5
141
0.0
142
0.0
143
25.399999999999999
144
1.0
145
0.0
146
1.0
147
0.09
 71
     0
 72
     0
 73
     0
 74
     0
 75
     0
 76
     0
 77
     1
 78
     8
170
     0
171
     2
172
     1
173
     0
174
     0
175
     0
176
     2
177
     2
178
     2
  0
ENDTAB
  0
ENDSEC
  0
SECTION
  2
BLOCKS
  0
BLOCK
  8
0
  2
$MODEL_SPACE
 70
     0
 10
0.0
 20
0.0
 30
0.0
  3
$MODEL_SPACE
  1

  0
ENDBLK
  5
1B
  8
0
  0
BLOCK
 67
     1
  8
0
  2
$PAPER_SPACE
 70
     0
 10
0.0
 20
0.0
 30
0.0
  3
$PAPER_SPACE
  1

  0
ENDBLK
  5
18
 67
     1
  8
0
  0
BLOCK
  8
0
  2
_OPEN
 70
     0
 10
0.0
 20
0.0
 30
0.0
  3
_OPEN
  1

  0
LINE
  5
1E81
  8
0
  6
BYBLOCK
 62
     0
 10
-1.0
 20
0.1666666666666666
 30
0.0
 11
0.0
 21
0.0
 31
0.0
  0
LINE
  5
1E82
  8
0
  6
BYBLOCK
 62
     0
 10
0.0
 20
0.0
 30
0.0
 11
-1.0
 21
-0.1666666666666666
 31
0.0
  0
LINE
  5
1E83
  8
0
  6
BYBLOCK
 62
     0
 10
0.0
 20
0.0
 30
0.0
 11
-1.0
 21
0.0
 31
0.0
  0
ENDBLK
  5
1E84
  8
0
  0
BLOCK
  8
0
  2
_DOT
 70
     0
 10
0.0
 20
0.0
 30
0.0
  3
_DOT
  1

  0
LINE
  5
1EC3
  8
0
  6
BYBLOCK
 62
     0
 10
0.0
 20
0.0
 30
0.0
 11
-1.0
 21
-0.0000000000000284
 31
0.0
  0
POLYLINE
  5
1EC4
  8
0
  6
BYBLOCK
 62
     0
 66
     1
 10
0.0
 20
0.0
 30
0.0
 70
     1
 40
0.1666666666666666
 41
0.1666666666666666
  0
VERTEX
  5
6DE3
  8
0
  6
BYBLOCK
 62
     0
 10
-0.0833333333333286
 20
-0.0000000000000284
 30
0.0
 42
1.0
  0
VERTEX
  5
6DE4
  8
0
  6
BYBLOCK
 62
     0
 10
0.0833333333333286
 20
-0.0000000000000284
 30
0.0
 42
1.0
  0
SEQEND
  5
6DE5
  8
0
  6
BYBLOCK
 62
     0
  0
ENDBLK
  5
1EB8
  8
0
  0
BLOCK
  8
0
  2
A$C5EBD6DA5
 70
     0
 10
0.0
 20
0.0
 30
0.0
  3
A$C5EBD6DA5
  1

  0
POLYLINE
  5
22E6
  8
1
 66
     1
 10
0.0
 20
0.0
 30
0.0
  0
VERTEX
  5
6DE6
  8
1
 10
8.0000000000027285
 20
-181.50000000000091
 30
0.0
  0
VERTEX
  5
6DE7
  8
1
 10
8.0000000000009095
 20
181.50000000000091
 30
0.0
  0
SEQEND
  5
6DE8
  8
1
  0
LINE
  5
22E7
  8
1
 10
1.0000000000009091
 20
182.50000000000091
 30
0.0
 11
7.0000000000027276
 21
182.50000000000091
 31
0.0
  0
ARC
  5
22E8
  8
1
 10
1.0000000000009091
 20
183.50000000000091
 30
0.0
 40
1.0
 50
180.0
 51
270.0
  0
LINE
  5
22E9
  8
1
 10
1.0000000000009091
 20
-182.50000000000091
 30
0.0
 11
7.0000000000027276
 21
-182.50000000000091
 31
0.0
  0
ARC
  5
22EA
  8
1
 10
1.0000000000009091
 20
-183.50000000000091
 30
0.0
 40
1.0
 50
90.0
 51
180.0
  0
ARC
  5
22EB
  8
1
 10
7.0000000000009086
 20
-181.50000000000091
 30
0.0
 40
1.0
 50
270.0
 51
0.0
  0
ARC
  5
22EC
  8
1
 10
7.0000000000009086
 20
181.50000000000091
 30
0.0
 40
1.0
 50
0.0
 51
90.0
  0
ENDBLK
  5
22EE
  8
0
  0
BLOCK
  8
0
  2
A$C2860434C
 70
     0
 10
0.0
 20
0.0
 30
0.0
  3
A$C2860434C
  1

  0
LINE
  5
3F68
  8
FUTO
 10
46.801270116426167
 20
-0.0000088960860012
 30
0.0
 11
8.5860233121038618
 21
70.149984541374579
 31
0.0
  0
LINE
  5
3F69
  8
FUTO
 10
-0.0000161416137416
 20
53.349984541375299
 30
0.0
 11
1.5999838583866219
 21
53.349984541375299
 31
0.0
  0
LINE
  5
3F6A
  8
FUTO
 10
-0.0000161416137416
 20
53.349984541375299
 30
0.0
 11
-0.0000161416137416
 21
68.549984541374215
 31
0.0
  0
LINE
  5
3F6B
  8
FUTO
 10
1.5999838583866219
 20
53.349984541375299
 30
0.0
 11
1.5999838583866219
 21
68.549984541374215
 31
0.0
  0
LINE
  5
3F6C
  8
FUTO
 10
3.1999838583869851
 20
70.149984541374579
 30
0.0
 11
91.769214627616734
 21
70.149984541370941
 31
0.0
  0
LINE
  5
3F6D
  8
FUTO
 10
3.1999838583869851
 20
71.749984541373124
 30
0.0
 11
92.794855653257414
 21
71.749984541373124
 31
0.0
  0
ARC
  5
3F6E
  8
FUTO
 10
3.1999838583869851
 20
68.549984541374215
 30
0.0
 40
3.2000000000000002
 50
90.0
 51
180.0
  0
ARC
  5
3F6F
  8
FUTO
 10
3.1999838583869851
 20
68.549984541374215
 30
0.0
 40
1.6000000000000001
 50
90.0
 51
180.0
  0
ENDBLK
  5
3F71
  8
0
  0
BLOCK
  8
0
  2
*D4
 70
     1
 10
0.0
 20
0.0
 30
0.0
  3
*D4
  1

  0
LINE
  5
6D30
  8
SP
 10
14623.498006363679
 20
4502.6352945090821
 30
0.0
 11
14452.80003186734
 21
4502.6352945090821
 31
0.0
  0
LINE
  5
6D31
  8
SP
 10
14891.300031867329
 20
4752.6352945090748
 30
0.0
 11
14452.80003186734
 21
4752.6352945090748
 31
0.0
  0
LINE
  5
6D32
  8
SP
 10
14467.80003186734
 20
4540.1352945090821
 30
0.0
 11
14467.80003186734
 21
4715.1352945090748
 31
0.0
  0
INSERT
  5
6D33
  8
SP
  2
_OPEN
 10
14467.80003186734
 20
4502.6352945090821
 30
0.0
 41
37.5
 42
37.5
 43
37.5
 50
270.0
  0
INSERT
  5
6D34
  8
SP
  2
_OPEN
 10
14467.80003186734
 20
4752.6352945090748
 30
0.0
 41
37.5
 42
37.5
 43
37.5
 50
90.0
  0
TEXT
  5
6D35
  8
SP
 10
14452.80003186734
 20
4565.9690770755133
 30
0.0
 40
45.0
  1
250
 50
90.0
 51
15.0
  0
POINT
  5
6D36
  8
DEFPOINTS
 62
     0
 10
14638.498006363679
 20
4502.6352945090821
 30
0.0
  0
POINT
  5
6D37
  8
DEFPOINTS
 62
     0
 10
14906.300031867329
 20
4752.6352945090748
 30
0.0
  0
POINT
  5
6D38
  8
DEFPOINTS
 62
     0
 10
14467.80003186734
 20
4752.6352945090748
 30
0.0
  0
ENDBLK
  5
4162
  8
0
  0
BLOCK
  8
0
  2
*D5
 70
     1
 10
0.0
 20
0.0
 30
0.0
  3
*D5
  1

  0
LINE
  5
6D42
  8
SP
 10
14662.800031867349
 20
4147.6352945090821
 30
0.0
 11
14452.800031867349
 21
4147.6352945090821
 31
0.0
  0
LINE
  5
6D43
  8
SP
 10
14623.498006363679
 20
4502.6352945090821
 30
0.0
 11
14452.800031867349
 21
4502.6352945090821
 31
0.0
  0
LINE
  5
6D44
  8
SP
 10
14467.800031867349
 20
4185.1352945090821
 30
0.0
 11
14467.800031867349
 21
4465.1352945090821
 31
0.0
  0
INSERT
  5
6D45
  8
SP
  2
_OPEN
 10
14467.800031867349
 20
4147.6352945090821
 30
0.0
 41
37.5
 42
37.5
 43
37.5
 50
270.0
  0
INSERT
  5
6D46
  8
SP
  2
_OPEN
 10
14467.800031867349
 20
4502.6352945090821
 30
0.0
 41
37.5
 42
37.5
 43
37.5
 50
90.0
  0
TEXT
  5
6D47
  8
SP
 10
14452.800031867349
 20
4262.2437982832498
 30
0.0
 40
45.0
  1
355
 50
90.0
 51
15.0
  0
POINT
  5
6D48
  8
DEFPOINTS
 62
     0
 10
14677.800031867349
 20
4147.6352945090821
 30
0.0
  0
POINT
  5
6D49
  8
DEFPOINTS
 62
     0
 10
14638.498006363679
 20
4502.6352945090821
 30
0.0
  0
POINT
  5
6D4A
  8
DEFPOINTS
 62
     0
 10
14467.800031867349
 20
4502.6352945090821
 30
0.0
  0
ENDBLK
  5
416E
  8
0
  0
BLOCK
  8
0
  2
*D6
 70
     1
 10
0.0
 20
0.0
 30
0.0
  3
*D6
  1

  0
LINE
  5
4232
  8
SP
 10
15242.800031867329
 20
4767.6352945090857
 30
0.0
 11
15242.800031867329
 21
4872.6352945090757
 31
0.0
  0
LINE
  5
4233
  8
SP
 10
14927.80003186734
 20
4790.6338204631647
 30
0.0
 11
14927.80003186734
 21
4872.6352945090757
 31
0.0
  0
LINE
  5
4234
  8
SP
 10
15205.300031867329
 20
4857.6352945090757
 30
0.0
 11
14965.30003186734
 21
4857.6352945090757
 31
0.0
  0
INSERT
  5
4235
  8
SP
  2
_OPEN
 10
15242.800031867329
 20
4857.6352945090757
 30
0.0
 41
37.5
 42
37.5
 43
37.5
  0
INSERT
  5
4236
  8
SP
  2
_OPEN
 10
14927.80003186734
 20
4857.6352945090757
 30
0.0
 41
37.5
 42
37.5
 43
37.5
 50
180.0
  0
TEXT
  5
4237
  8
SP
 10
15026.69424992721
 20
4872.6352945090757
 30
0.0
 40
45.0
  1
315
 51
15.0
  0
POINT
  5
4238
  8
DEFPOINTS
 62
     0
 10
15242.800031867329
 20
4752.6352945090866
 30
0.0
  0
POINT
  5
4239
  8
DEFPOINTS
 62
     0
 10
14927.80003186734
 20
4775.6338204631638
 30
0.0
  0
POINT
  5
423A
  8
DEFPOINTS
 62
     0
 10
14927.80003186734
 20
4857.6352945090757
 30
0.0
  0
ENDBLK
  5
419E
  8
0
  0
BLOCK
  8
0
  2
*D7
 70
     1
 10
0.0
 20
0.0
 30
0.0
  3
*D7
  1

  0
LINE
  5
4229
  8
SP
 10
14927.80003186734
 20
4790.6338204631647
 30
0.0
 11
14927.80003186734
 21
4872.6352945090766
 31
0.0
  0
LINE
  5
422A
  8
SP
 10
14705.512811750859
 20
4494.7815906442738
 30
0.0
 11
14705.512811750859
 21
4872.6352945090766
 31
0.0
  0
LINE
  5
422B
  8
SP
 10
14890.30003186734
 20
4857.6352945090757
 30
0.0
 11
14743.012811750859
 21
4857.6352945090757
 31
0.0
  0
INSERT
  5
422C
  8
SP
  2
_OPEN
 10
14927.80003186734
 20
4857.6352945090757
 30
0.0
 41
37.5
 42
37.5
 43
37.5
  0
INSERT
  5
422D
  8
SP
  2
_OPEN
 10
14705.512811750859
 20
4857.6352945090757
 30
0.0
 41
37.5
 42
37.5
 43
37.5
 50
180.0
  0
TEXT
  5
422E
  8
SP
 10
14754.99020437553
 20
4872.6352945090766
 30
0.0
 40
45.0
  1
222
 51
15.0
  0
POINT
  5
422F
  8
DEFPOINTS
 62
     0
 10
14927.80003186734
 20
4775.6338204631638
 30
0.0
  0
POINT
  5
4230
  8
DEFPOINTS
 62
     0
 10
14705.512811750859
 20
4479.7815906442729
 30
0.0
  0
POINT
  5
4231
  8
DEFPOINTS
 62
     0
 10
14705.512811750859
 20
4857.6352945090757
 30
0.0
  0
ENDBLK
  5
41AA
  8
0
  0
BLOCK
  8
0
  2
*D8
 70
     1
 10
0.0
 20
0.0
 30
0.0
  3
*D8
  1

  0
LINE
  5
4516
  8
SP
 10
16065.375110139979
 20
4767.6352945090839
 30
0.0
 11
16065.375110139979
 21
4872.7513991557198
 31
0.0
  0
LINE
  5
4517
  8
SP
 10
16289.375110139979
 20
4767.6352945090839
 30
0.0
 11
16289.375110139979
 21
4872.7513991557198
 31
0.0
  0
LINE
  5
4518
  8
SP
 10
16102.875110139979
 20
4857.7513991557207
 30
0.0
 11
16251.875110139979
 21
4857.7513991557207
 31
0.0
  0
INSERT
  5
4519
  8
SP
  2
_OPEN
 10
16065.375110139979
 20
4857.7513991557207
 30
0.0
 41
37.5
 42
37.5
 43
37.5
 50
180.0
  0
INSERT
  5
451A
  8
SP
  2
_OPEN
 10
16289.375110139979
 20
4857.7513991557207
 30
0.0
 41
37.5
 42
37.5
 43
37.5
  0
TEXT
  5
451B
  8
SP
 10
16116.436919768181
 20
4872.7513991557198
 30
0.0
 40
45.0
  1
224
 51
15.0
  0
POINT
  5
451C
  8
DEFPOINTS
 62
     0
 10
16065.375110139979
 20
4752.6352945090839
 30
0.0
  0
POINT
  5
451D
  8
DEFPOINTS
 62
     0
 10
16289.375110139979
 20
4752.6352945090839
 30
0.0
  0
POINT
  5
451E
  8
DEFPOINTS
 62
     0
 10
16289.375110139979
 20
4857.7513991557207
 30
0.0
  0
ENDBLK
  5
44E5
  8
0
  0
BLOCK
  8
0
  2
*D9
 70
     1
 10
0.0
 20
0.0
 30
0.0
  3
*D9
  1

  0
LINE
  5
451F
  8
SP
 10
16177.375110139979
 20
4932.7513991557207
 30
0.0
 11
16177.375110139979
 21
4977.6352945090839
 31
0.0
  0
LINE
  5
4520
  8
SP
 10
16298.375110139979
 20
4699.1352945090803
 30
0.0
 11
16298.375110139979
 21
4977.6352945090839
 31
0.0
  0
LINE
  5
4521
  8
SP
 10
16214.875110139979
 20
4962.6352945090839
 30
0.0
 11
16260.875110139979
 21
4962.6352945090839
 31
0.0
  0
INSERT
  5
4522
  8
SP
  2
_OPEN
 10
16177.375110139979
 20
4962.6352945090839
 30
0.0
 41
37.5
 42
37.5
 43
37.5
 50
180.0
  0
INSERT
  5
4523
  8
SP
  2
_OPEN
 10
16298.375110139979
 20
4962.6352945090839
 30
0.0
 41
37.5
 42
37.5
 43
37.5
  0
TEXT
  5
4524
  8
SP
 10
16183.03717873385
 20
4977.6352945090839
 30
0.0
 40
45.0
  1
121
 51
15.0
  0
POINT
  5
4525
  8
DEFPOINTS
 62
     0
 10
16177.375110139979
 20
4917.7513991557198
 30
0.0
  0
POINT
  5
4526
  8
DEFPOINTS
 62
     0
 10
16298.375110139979
 20
4684.1352945090803
 30
0.0
  0
POINT
  5
4527
  8
DEFPOINTS
 62
     0
 10
16298.375110139979
 20
4962.6352945090839
 30
0.0
  0
ENDBLK
  5
44F1
  8
0
  0
BLOCK
  8
0
  2
*D10
 70
     1
 10
0.0
 20
0.0
 30
0.0
  3
*D10
  1

  0
LINE
  5
4528
  8
SP
 10
16177.375110139979
 20
4932.7513991557207
 30
0.0
 11
16177.375110139979
 21
4977.6352945090839
 31
0.0
  0
LINE
  5
4529
  8
SP
 10
15757.375110139979
 20
4601.2161945090802
 30
0.0
 11
15757.375110139979
 21
4977.6352945090839
 31
0.0
  0
LINE
  5
452A
  8
SP
 10
16139.875110139979
 20
4962.6352945090839
 30
0.0
 11
15794.875110139979
 21
4962.6352945090839
 31
0.0
  0
INSERT
  5
452B
  8
SP
  2
_OPEN
 10
16177.375110139979
 20
4962.6352945090839
 30
0.0
 41
37.5
 42
37.5
 43
37.5
  0
INSERT
  5
452C
  8
SP
  2
_OPEN
 10
15757.375110139979
 20
4962.6352945090839
 30
0.0
 41
37.5
 42
37.5
 43
37.5
 50
180.0
  0
TEXT
  5
452D
  8
SP
 10
15867.01055752938
 20
4977.6352945090839
 30
0.0
 40
45.0
  1
（420）
 51
15.0
  0
POINT
  5
452E
  8
DEFPOINTS
 62
     0
 10
16177.375110139979
 20
4917.7513991557198
 30
0.0
  0
POINT
  5
452F
  8
DEFPOINTS
 62
     0
 10
15757.375110139979
 20
4586.2161945090811
 30
0.0
  0
POINT
  5
4530
  8
DEFPOINTS
 62
     0
 10
15757.375110139979
 20
4962.6352945090839
 30
0.0
  0
ENDBLK
  5
44FD
  8
0
  0
BLOCK
  8
0
  2
_NONE
 70
     0
 10
0.0
 20
0.0
 30
0.0
  3
_NONE
  1

  0
ENDBLK
  5
5AD6
  8
0
  0
BLOCK
  8
0
  2
L-40-3
 70
     0
 10
0.0
 20
0.0
 30
0.0
  3
L-40-3
  1

  0
ARC
  5
6273
  8
0
 10
7.5
 20
7.5
 30
0.0
 40
4.5
 50
180.0
 51
270.0
  0
LINE
  5
6274
  8
0
 10
0.0
 20
0.0
 30
0.0
 11
0.0
 21
40.0
 31
0.0
  0
LINE
  5
6275
  8
0
 10
7.5
 20
3.0
 30
0.0
 11
38.0
 21
3.0
 31
0.0
  0
LINE
  5
6276
  8
0
 10
0.0
 20
0.0
 30
0.0
 11
40.0
 21
0.0
 31
0.0
  0
LINE
  5
6277
  8
0
 10
40.0
 20
0.0
 30
0.0
 11
40.0
 21
1.0
 31
0.0
  0
ARC
  5
6278
  8
0
 10
38.0
 20
1.0
 30
0.0
 40
2.0
 50
0.0
 51
90.0
  0
LINE
  5
6279
  8
0
 10
3.0
 20
7.5
 30
0.0
 11
3.0
 21
38.0
 31
0.0
  0
LINE
  5
627A
  8
0
 10
0.0
 20
40.0
 30
0.0
 11
1.0
 21
40.0
 31
0.0
  0
ARC
  5
627B
  8
0
 10
1.0
 20
38.0
 30
0.0
 40
2.0
 50
0.0
 51
90.0
  0
ENDBLK
  5
627D
  8
0
  0
BLOCK
  8
0
  2
*D13
 70
     1
 10
0.0
 20
0.0
 30
0.0
  3
*D13
  1

  0
LINE
  5
69B4
  8
SP
 10
16313.375110139979
 20
4660.1352945090803
 30
0.0
 11
16490.211402213728
 21
4660.1352945090803
 31
0.0
  0
LINE
  5
69B5
  8
SP
 10
16313.375110139979
 20
4345.1352945090803
 30
0.0
 11
16490.211402213728
 21
4345.1352945090803
 31
0.0
  0
LINE
  5
69B6
  8
SP
 10
16475.211402213728
 20
4622.6352945090803
 30
0.0
 11
16475.211402213728
 21
4382.6352945090803
 31
0.0
  0
INSERT
  5
69B7
  8
SP
  2
_OPEN
 10
16475.211402213728
 20
4660.1352945090803
 30
0.0
 41
37.5
 42
37.5
 43
37.5
 50
90.0
  0
INSERT
  5
69B8
  8
SP
  2
_OPEN
 10
16475.211402213728
 20
4345.1352945090803
 30
0.0
 41
37.5
 42
37.5
 43
37.5
 50
270.0
  0
TEXT
  5
69B9
  8
SP
 10
16460.211402213728
 20
4424.6874851940438
 30
0.0
 40
45.0
  1
φ315
 50
90.0
 51
15.0
  0
POINT
  5
69BA
  8
DEFPOINTS
 62
     0
 10
16298.375110139979
 20
4660.1352945090803
 30
0.0
  0
POINT
  5
69BB
  8
DEFPOINTS
 62
     0
 10
16298.375110139979
 20
4345.1352945090803
 30
0.0
  0
POINT
  5
69BC
  8
DEFPOINTS
 62
     0
 10
16475.211402213728
 20
4345.1352945090803
 30
0.0
  0
ENDBLK
  5
69B3
  8
0
  0
BLOCK
  8
0
  2
*D14
 70
     1
 10
0.0
 20
0.0
 30
0.0
  3
*D14
  1

  0
LINE
  5
6C2A
  8
SP
 10
15252.80003186734
 20
6074.3629352201697
 30
0.0
 11
15415.911521896271
 21
6074.3629352201697
 31
0.0
  0
LINE
  5
6C2B
  8
SP
 10
15252.80003186734
 20
5374.3629352201688
 30
0.0
 11
15415.911521896271
 21
5374.3629352201688
 31
0.0
  0
LINE
  5
6C2C
  8
SP
 10
15400.911521896271
 20
6036.8629352201697
 30
0.0
 11
15400.911521896271
 21
5411.8629352201688
 31
0.0
  0
INSERT
  5
6C2D
  8
SP
  2
_OPEN
 10
15400.911521896271
 20
6074.3629352201697
 30
0.0
 41
37.5
 42
37.5
 43
37.5
 50
90.0
  0
INSERT
  5
6C2E
  8
SP
  2
_OPEN
 10
15400.911521896271
 20
5374.3629352201688
 30
0.0
 41
37.5
 42
37.5
 43
37.5
 50
270.0
  0
TEXT
  5
6C2F
  8
SP
 10
15385.911521896271
 20
5658.4110035008916
 30
0.0
 40
45.0
  1
700
 50
90.0
 51
15.0
  0
POINT
  5
6C30
  8
DEFPOINTS
 62
     0
 10
15237.80003186734
 20
6074.3629352201697
 30
0.0
  0
POINT
  5
6C31
  8
DEFPOINTS
 62
     0
 10
15237.80003186734
 20
5374.3629352201688
 30
0.0
  0
POINT
  5
6C32
  8
DEFPOINTS
 62
     0
 10
15400.911521896271
 20
5374.3629352201688
 30
0.0
  0
ENDBLK
  5
6C1D
  8
0
  0
BLOCK
  8
0
  2
*D15
 70
     1
 10
0.0
 20
0.0
 30
0.0
  3
*D15
  1

  0
LINE
  5
6C33
  8
SP
 10
15237.80003186734
 20
5359.3629352201679
 30
0.0
 11
15237.80003186734
 21
5220.4232802762617
 31
0.0
  0
LINE
  5
6C34
  8
SP
 10
14617.80003186734
 20
5359.3629352201679
 30
0.0
 11
14617.80003186734
 21
5220.4232802762617
 31
0.0
  0
LINE
  5
6C35
  8
SP
 10
15200.30003186734
 20
5235.4232802762608
 30
0.0
 11
14655.30003186734
 21
5235.4232802762608
 31
0.0
  0
INSERT
  5
6C36
  8
SP
  2
_OPEN
 10
15237.80003186734
 20
5235.4232802762608
 30
0.0
 41
37.5
 42
37.5
 43
37.5
  0
INSERT
  5
6C37
  8
SP
  2
_OPEN
 10
14617.80003186734
 20
5235.4232802762608
 30
0.0
 41
37.5
 42
37.5
 43
37.5
 50
180.0
  0
TEXT
  5
6C38
  8
SP
 10
14864.201120600959
 20
5250.4232802762617
 30
0.0
 40
45.0
  1
620
 51
15.0
  0
POINT
  5
6C39
  8
DEFPOINTS
 62
     0
 10
15237.80003186734
 20
5374.3629352201688
 30
0.0
  0
POINT
  5
6C3A
  8
DEFPOINTS
 62
     0
 10
14617.80003186734
 20
5374.3629352201679
 30
0.0
  0
POINT
  5
6C3B
  8
DEFPOINTS
 62
     0
 10
14617.80003186734
 20
5235.4232802762608
 30
0.0
  0
ENDBLK
  5
6C29
  8
0
  0
BLOCK
  8
0
  2
*D16
 70
     1
 10
0.0
 20
0.0
 30
0.0
  3
*D16
  1

  0
LINE
  5
6D01
  8
SP
 10
15237.800031867349
 20
4070.6352945090821
 30
0.0
 11
15237.800031867349
 21
3882.6352945090821
 31
0.0
  0
LINE
  5
6D02
  8
SP
 10
14617.800031867349
 20
4070.6352945090821
 30
0.0
 11
14617.800031867349
 21
3882.6352945090821
 31
0.0
  0
LINE
  5
6D03
  8
SP
 10
15200.300031867349
 20
3897.6352945090821
 30
0.0
 11
14655.300031867349
 21
3897.6352945090821
 31
0.0
  0
INSERT
  5
6D04
  8
SP
  2
_OPEN
 10
15237.800031867349
 20
3897.6352945090821
 30
0.0
 41
37.5
 42
37.5
 43
37.5
  0
INSERT
  5
6D05
  8
SP
  2
_OPEN
 10
14617.800031867349
 20
3897.6352945090821
 30
0.0
 41
37.5
 42
37.5
 43
37.5
 50
180.0
  0
TEXT
  5
6D06
  8
SP
 10
14864.20112060097
 20
3912.6352945090821
 30
0.0
 40
45.0
  1
620
 51
15.0
  0
POINT
  5
6D07
  8
DEFPOINTS
 62
     0
 10
15237.800031867349
 20
4085.6352945090812
 30
0.0
  0
POINT
  5
6D08
  8
DEFPOINTS
 62
     0
 10
14617.800031867349
 20
4085.6352945090812
 30
0.0
  0
POINT
  5
6D09
  8
DEFPOINTS
 62
     0
 10
14617.800031867349
 20
3897.6352945090821
 30
0.0
  0
ENDBLK
  5
6CCE
  8
0
  0
BLOCK
  8
0
  2
*D17
 70
     1
 10
0.0
 20
0.0
 30
0.0
  3
*D17
  1

  0
LINE
  5
6D0A
  8
SP
 10
14927.80003186734
 20
4047.9208645024
 30
0.0
 11
14927.80003186734
 21
3987.6352945090821
 31
0.0
  0
LINE
  5
6D0B
  8
SP
 10
15237.800031867349
 20
4070.6352945090821
 30
0.0
 11
15237.800031867349
 21
3987.6352945090821
 31
0.0
  0
LINE
  5
6D0C
  8
SP
 10
14965.30003186734
 20
4002.6352945090821
 30
0.0
 11
15200.300031867349
 21
4002.6352945090821
 31
0.0
  0
INSERT
  5
6D0D
  8
SP
  2
_OPEN
 10
14927.80003186734
 20
4002.6352945090821
 30
0.0
 41
37.5
 42
37.5
 43
37.5
 50
180.0
  0
INSERT
  5
6D0E
  8
SP
  2
_OPEN
 10
15237.800031867349
 20
4002.6352945090821
 30
0.0
 41
37.5
 42
37.5
 43
37.5
  0
TEXT
  5
6D0F
  8
SP
 10
15024.271175037649
 20
4017.6352945090821
 30
0.0
 40
45.0
  1
310
 51
15.0
  0
POINT
  5
6D10
  8
DEFPOINTS
 62
     0
 10
14927.80003186734
 20
4062.9208645024009
 30
0.0
  0
POINT
  5
6D11
  8
DEFPOINTS
 62
     0
 10
15237.800031867349
 20
4085.6352945090812
 30
0.0
  0
POINT
  5
6D12
  8
DEFPOINTS
 62
     0
 10
15237.800031867349
 20
4002.6352945090821
 30
0.0
  0
ENDBLK
  5
6CDA
  8
0
  0
BLOCK
  8
0
  2
*D18
 70
     1
 10
0.0
 20
0.0
 30
0.0
  3
*D18
  1

  0
LINE
  5
6D13
  8
SP
 10
14927.80003186734
 20
4047.9208645024
 30
0.0
 11
14927.80003186734
 21
3987.6352945090821
 31
0.0
  0
LINE
  5
6D14
  8
SP
 10
14617.800031867349
 20
4070.6352945090821
 30
0.0
 11
14617.800031867349
 21
3987.6352945090821
 31
0.0
  0
LINE
  5
6D15
  8
SP
 10
14890.30003186734
 20
4002.6352945090821
 30
0.0
 11
14655.300031867349
 21
4002.6352945090821
 31
0.0
  0
INSERT
  5
6D16
  8
SP
  2
_OPEN
 10
14927.80003186734
 20
4002.6352945090821
 30
0.0
 41
37.5
 42
37.5
 43
37.5
  0
INSERT
  5
6D17
  8
SP
  2
_OPEN
 10
14617.800031867349
 20
4002.6352945090821
 30
0.0
 41
37.5
 42
37.5
 43
37.5
 50
180.0
  0
TEXT
  5
6D18
  8
SP
 10
14714.271175037649
 20
4017.6352945090821
 30
0.0
 40
45.0
  1
310
 51
15.0
  0
POINT
  5
6D19
  8
DEFPOINTS
 62
     0
 10
14927.80003186734
 20
4062.9208645024009
 30
0.0
  0
POINT
  5
6D1A
  8
DEFPOINTS
 62
     0
 10
14617.800031867349
 20
4085.6352945090812
 30
0.0
  0
POINT
  5
6D1B
  8
DEFPOINTS
 62
     0
 10
14617.800031867349
 20
4002.6352945090821
 30
0.0
  0
ENDBLK
  5
6CE6
  8
0
  0
BLOCK
  8
0
  2
*D19
 70
     1
 10
0.0
 20
0.0
 30
0.0
  3
*D19
  1

  0
LINE
  5
6E3E
  8
SP
 10
14602.800031867349
 20
4125.6352945090821
 30
0.0
 11
14452.800031867349
 21
4125.6352945090821
 31
0.0
  0
LINE
  5
6E3F
  8
SP
 10
14602.800031867349
 20
4085.6352945090812
 30
0.0
 11
14452.800031867349
 21
4085.6352945090812
 31
0.0
  0
LINE
  5
6E40
  8
SP
 10
14467.800031867349
 20
4163.1352945090821
 30
0.0
 11
14467.800031867349
 21
4200.635294509083
 31
0.0
  0
LINE
  5
6E41
  8
SP
 10
14467.800031867349
 20
4048.1352945090821
 30
0.0
 11
14467.800031867349
 21
3904.1792403855579
 31
0.0
  0
LINE
  5
6E42
  8
SP
 10
14467.800031867349
 20
4125.6352945090821
 30
0.0
 11
14467.800031867349
 21
4085.6352945090812
 31
0.0
  0
INSERT
  5
6E43
  8
SP
  2
_DOT
 10
14467.800031867349
 20
4125.6352945090821
 30
0.0
 41
37.5
 42
37.5
 43
37.5
 50
270.0
  0
INSERT
  5
6E44
  8
SP
  2
_OPEN
 10
14467.800031867349
 20
4085.6352945090812
 30
0.0
 41
37.5
 42
37.5
 43
37.5
 50
90.0
  0
TEXT
  8
0
  40
45
  5
6E52
  72
0
  71
0
 10
14340.3
 20
3877.76
 30
0.000000
  1
40
  0
POINT
  5
6E46
  8
DEFPOINTS
 62
     0
 10
14617.800031867349
 20
4125.6352945090821
 30
0.0
  0
POINT
  5
6E47
  8
DEFPOINTS
 62
     0
 10
14617.800031867349
 20
4085.6352945090812
 30
0.0
  0
POINT
  5
6E48
  8
DEFPOINTS
 62
     0
 10
14467.800031867349
 20
4085.6352945090812
 30
0.0
  0
ENDBLK
  5
6CF4
  8
0
  0
BLOCK
  8
0
  2
*D20
 70
     1
 10
0.0
 20
0.0
 30
0.0
  3
*D20
  1

  0
LINE
  5
6E49
  8
SP
 10
14662.80003186736
 20
4147.6352945090821
 30
0.0
 11
14452.800031867349
 21
4147.6352945090821
 31
0.0
  0
LINE
  5
6E4A
  8
SP
 10
14602.800031867349
 20
4125.6352945090821
 30
0.0
 11
14452.800031867349
 21
4125.6352945090821
 31
0.0
  0
LINE
  5
6E4B
  8
SP
 10
14467.800031867349
 20
4147.6352945090821
 30
0.0
 11
14467.800031867349
 21
4185.1352945090821
 31
0.0
  0
LINE
  5
6E4C
  8
SP
 10
14467.800031867349
 20
4125.6352945090821
 30
0.0
 11
14467.800031867349
 21
4088.1352945090821
 31
0.0
  0
TEXT
  8
0
  40
45
  5
6E53
  72
0
  71
0
 10
14324.9
 20
4048.13
 30
0.000000
  1
（22）
  0
LINE
  5
6E4E
  8
SP
 10
14467.800031867349
 20
4147.6352945090821
 30
0.0
 11
14467.800031867349
 21
4125.6352945090821
 31
0.0
  0
POINT
  5
6E4F
  8
DEFPOINTS
 62
     0
 10
14677.80003186736
 20
4147.6352945090821
 30
0.0
  0
POINT
  5
6E50
  8
DEFPOINTS
 62
     0
 10
14617.800031867349
 20
4125.6352945090821
 30
0.0
  0
POINT
  5
6E51
  8
DEFPOINTS
 62
     0
 10
14467.800031867349
 20
4125.6352945090821
 30
0.0
  0
ENDBLK
  5
6D00
  8
0
  0
BLOCK
  8
0
  2
*D21
 70
     1
 10
0.0
 20
0.0
 30
0.0
  3
*D21
  1

  0
LINE
  5
6DAB
  8
SP
 10
15697.375110139979
 20
4110.6352945090803
 30
0.0
 11
15697.375110139979
 21
3965.6352945090798
 31
0.0
  0
LINE
  5
6DAC
  8
SP
 10
16177.375110139979
 20
4047.9208645024009
 30
0.0
 11
16177.375110139979
 21
3965.6352945090798
 31
0.0
  0
LINE
  5
6DAD
  8
SP
 10
15734.875110139979
 20
3980.6352945090798
 30
0.0
 11
16139.875110139979
 21
3980.6352945090798
 31
0.0
  0
INSERT
  5
6DAE
  8
SP
  2
_OPEN
 10
15697.375110139979
 20
3980.6352945090798
 30
0.0
 41
37.5
 42
37.5
 43
37.5
 50
180.0
  0
INSERT
  5
6DAF
  8
SP
  2
_OPEN
 10
16177.375110139979
 20
3980.6352945090798
 30
0.0
 41
37.5
 42
37.5
 43
37.5
  0
TEXT
  5
6DB0
  8
SP
 10
15873.699273763181
 20
3995.6352945090798
 30
0.0
 40
45.0
  1
480
 51
15.0
  0
POINT
  5
6DB1
  8
DEFPOINTS
 62
     0
 10
15697.375110139979
 20
4125.6352945090803
 30
0.0
  0
POINT
  5
6DB2
  8
DEFPOINTS
 62
     0
 10
16177.375110139979
 20
4062.9208645024019
 30
0.0
  0
POINT
  5
6DB3
  8
DEFPOINTS
 62
     0
 10
16177.375110139979
 20
3980.6352945090798
 30
0.0
  0
ENDBLK
  5
6D92
  8
0
  0
BLOCK
  8
0
  2
*D22
 70
     1
 10
0.0
 20
0.0
 30
0.0
  3
*D22
  1

  0
LINE
  5
6DB4
  8
SP
 10
15697.375110139979
 20
4110.6352945090803
 30
0.0
 11
15697.375110139979
 21
3860.6352945090798
 31
0.0
  0
LINE
  5
6DB5
  8
SP
 10
16397.375110139979
 20
4110.6352945090803
 30
0.0
 11
16397.375110139979
 21
3860.6352945090798
 31
0.0
  0
LINE
  5
6DB6
  8
SP
 10
15734.875110139979
 20
3875.6352945090798
 30
0.0
 11
16359.875110139979
 21
3875.6352945090798
 31
0.0
  0
INSERT
  5
6DB7
  8
SP
  2
_OPEN
 10
15697.375110139979
 20
3875.6352945090798
 30
0.0
 41
37.5
 42
37.5
 43
37.5
 50
180.0
  0
INSERT
  5
6DB8
  8
SP
  2
_OPEN
 10
16397.375110139979
 20
3875.6352945090798
 30
0.0
 41
37.5
 42
37.5
 43
37.5
  0
TEXT
  5
6DB9
  8
SP
 10
15981.4231784207
 20
3890.6352945090798
 30
0.0
 40
45.0
  1
700
 51
15.0
  0
POINT
  5
6DBA
  8
DEFPOINTS
 62
     0
 10
15697.375110139979
 20
4125.6352945090803
 30
0.0
  0
POINT
  5
6DBB
  8
DEFPOINTS
 62
     0
 10
16397.375110139979
 20
4125.6352945090803
 30
0.0
  0
POINT
  5
6DBC
  8
DEFPOINTS
 62
     0
 10
16397.375110139979
 20
3875.6352945090798
 30
0.0
  0
ENDBLK
  5
6D9E
  8
0
  0
BLOCK
  8
0
  2
*D23
 70
     1
 10
0.0
 20
0.0
 30
0.0
  3
*D23
  1

  0
LINE
  5
6DBD
  8
SP
 10
16177.375110139979
 20
4047.9208645024009
 30
0.0
 11
16177.375110139979
 21
3965.6352945090798
 31
0.0
  0
LINE
  5
6DBE
  8
SP
 10
16397.375110139979
 20
4110.6352945090803
 30
0.0
 11
16397.375110139979
 21
3965.6352945090798
 31
0.0
  0
LINE
  5
6DBF
  8
SP
 10
16214.875110139979
 20
3980.6352945090798
 30
0.0
 11
16359.875110139979
 21
3980.6352945090798
 31
0.0
  0
INSERT
  5
6DC0
  8
SP
  2
_OPEN
 10
16177.375110139979
 20
3980.6352945090798
 30
0.0
 41
37.5
 42
37.5
 43
37.5
 50
180.0
  0
INSERT
  5
6DC1
  8
SP
  2
_OPEN
 10
16397.375110139979
 20
3980.6352945090798
 30
0.0
 41
37.5
 42
37.5
 43
37.5
  0
TEXT
  5
6DC2
  8
SP
 10
16225.708892706411
 20
3995.6352945090798
 30
0.0
 40
45.0
  1
220
 51
15.0
  0
POINT
  5
6DC3
  8
DEFPOINTS
 62
     0
 10
16177.375110139979
 20
4062.9208645024019
 30
0.0
  0
POINT
  5
6DC4
  8
DEFPOINTS
 62
     0
 10
16397.375110139979
 20
4125.6352945090803
 30
0.0
  0
POINT
  5
6DC5
  8
DEFPOINTS
 62
     0
 10
16397.375110139979
 20
3980.6352945090798
 30
0.0
  0
ENDBLK
  5
6DAA
  8
0
  0
ENDSEC
  0
SECTION
  2
ENTITIES
  0
LINE
  5
2CEE
  8
4
 10
13845.59771503509
 20
2822.8097917420341
 30
0.0
 11
13845.59771503509
 21
7247.8097917420337
 31
0.0
  0
LINE
  5
2CEF
  8
4
 10
16995.597715035088
 20
7247.8097917420337
 30
0.0
 11
16995.597715035088
 21
2822.8097917420341
 31
0.0
  0
TEXT
  5
2CF3
  8
4
 10
15312.115833266589
 20
3456.6674451783861
 30
0.0
 40
75.0
  1
ミツヤ多翼送風機
  0
LINE
  5
2CF6
  8
4
 10
14520.59771503509
 20
3272.8097917420332
 30
0.0
 11
16320.59771503509
 21
3272.8097917420332
 31
0.0
  0
LINE
  5
2CF7
  8
4
 10
14520.59771503509
 20
3422.8097917420332
 30
0.0
 11
16320.59771503509
 21
3422.8097917420332
 31
0.0
  0
LINE
  5
2CF8
  8
4
 10
14520.59771503509
 20
3572.8097917420332
 30
0.0
 11
16320.59771503509
 21
3572.8097917420332
 31
0.0
  0
LINE
  5
2CF9
  8
4
 10
16995.597715035088
 20
2822.8097917420341
 30
0.0
 11
13845.59771503509
 21
2822.8097917420341
 31
0.0
  0
TEXT
  5
2CFA
  8
4
 10
14578.350836305441
 20
3470.124330541953
 30
0.0
 40
75.0
  1
機器名称
  0
TEXT
  5
2CFB
  8
4
 10
14574.98487407229
 20
3305.2775268400501
 30
0.0
 40
75.0
  1
機器型番
  0
LINE
  5
2CFD
  8
4
 10
14520.59771503509
 20
3572.8097917420332
 30
0.0
 11
14520.59771503509
 21
3272.8097917420332
 31
0.0
  0
TEXT
  5
2CFE
  8
4
 10
15325.579458413309
 20
3298.5491681619478
 30
0.0
 40
75.0
  1
MF＃2-7
  0
LINE
  5
2CFF
  8
4
 10
15270.59771503509
 20
3572.8097917420332
 30
0.0
 11
15270.59771503509
 21
3272.8097917420332
 31
0.0
  0
LINE
  5
2D00
  8
4
 10
16320.59771503509
 20
3572.8097917420332
 30
0.0
 11
16320.59771503509
 21
3272.8097917420332
 31
0.0
  0
TEXT
  5
2E31
  8
4
 10
14577.69207095238
 20
6623.6312560409797
 30
0.0
 40
108.0
  1
遠心式片吸込直動形多翼ファン
  0
LINE
  5
2E32
  8
4
 10
14220.59771503509
 20
6526.9229231392419
 30
0.0
 11
16620.597715035088
 21
6526.9229231392419
 31
0.0
  0
LINE
  5
2E33
  8
4
 10
14220.59771503509
 20
6826.9229231392419
 30
0.0
 11
16620.597715035088
 21
6826.9229231392419
 31
0.0
  0
LINE
  5
2E34
  8
4
 10
13845.59771503509
 20
7247.8097917420337
 30
0.0
 11
16995.597715035088
 21
7247.8097917420337
 31
0.0
  0
TEXT
  5
2E37
  8
4
 10
14318.481087225049
 20
6396.2890080615489
 30
0.0
 40
80.999999999999986
  1
左回転上向
  0
LINE
  5
2E3C
  8
4
 10
14220.59771503509
 20
6826.9229231392419
 30
0.0
 11
14220.59771503509
 21
6526.9229231392419
 31
0.0
  0
LINE
  5
2E45
  8
4
 10
16006.523848574891
 20
7002.7881840666632
 30
0.0
 11
16620.597715035088
 21
7002.7881840666632
 31
0.0
  0
LINE
  5
2E46
  8
4
 10
16620.597715035088
 20
6844.7051664301353
 30
0.0
 11
16006.523848574891
 21
6844.7051664301353
 31
0.0
  0
TEXT
  5
2E47
  8
4
 10
16049.052053909019
 20
6881.9014139849969
 30
0.0
 40
84.000000000000014
  1
No.
  0
LINE
  5
2E48
  8
4
 10
16006.523848574891
 20
6844.7051664301353
 30
0.0
 11
16006.523848574891
 21
7002.7881840666632
 31
0.0
  0
LINE
  5
2E49
  8
4
 10
16620.597715035088
 20
6826.9229231392419
 30
0.0
 11
16620.597715035088
 21
6526.9229231392419
 31
0.0
  0
LINE
  5
2E4A
  8
4
 10
16620.597715035088
 20
7002.7881840666632
 30
0.0
 11
16620.597715035088
 21
6844.7051664301353
 31
0.0
  0
LINE
  5
2E4C
  8
4
 10
16995.597715035088
 20
7247.8097917420337
 30
0.0
 11
16995.597715035088
 21
7247.8097917420337
 31
0.0
  0
DIMENSION
  5
40E2
  8
SP
  2
*D7
 10
14705.512811750859
 20
4857.6352945090757
 30
0.0
 11
14816.656421809101
 21
4895.1352945090766
 31
0.0
 70
     0
 13
14927.80003186734
 23
4775.6338204631638
 33
0.0
 14
14705.512811750859
 24
4479.7815906442729
 34
0.0
 50
180.0
1001
ACAD
1000
DSTYLE
1002
{
1070
   271
1070
     0
1002
}
  0
DIMENSION
  5
40E3
  8
SP
  2
*D6
 10
14927.80003186734
 20
4857.6352945090757
 30
0.0
 11
15085.300031867329
 21
4895.1352945090757
 31
0.0
 70
     0
 13
15242.800031867329
 23
4752.6352945090866
 33
0.0
 14
14927.80003186734
 24
4775.6338204631638
 34
0.0
 50
180.0
  0
LINE
  5
40E4
  8
2
 10
14927.80003186734
 20
4062.9208645024009
 30
0.0
 11
14927.80003186734
 21
4775.6338204631638
 31
0.0
  0
POLYLINE
  5
40E5
  8
CT
 66
     1
 10
0.0
 20
0.0
 30
0.0
  0
VERTEX
  5
6DE9
  8
CT
 10
14916.300031867329
 20
4757.6984577240737
 30
0.0
  0
VERTEX
  5
6DEA
  8
CT
 10
14916.300031867329
 20
4745.4301474401282
 30
0.0
  0
SEQEND
  5
6DEB
  8
CT
  0
POLYLINE
  5
40E6
  8
CT
 66
     1
 10
0.0
 20
0.0
 30
0.0
  0
VERTEX
  5
6DEC
  8
CT
 10
15254.300031867329
 20
4757.6984577240828
 30
0.0
  0
VERTEX
  5
6DED
  8
CT
 10
15254.300031867329
 20
4745.4301474401382
 30
0.0
  0
SEQEND
  5
6DEE
  8
CT
  0
DIMENSION
  5
40EB
  8
SP
  2
*D5
 10
14467.800031867349
 20
4502.6352945090821
 30
0.0
 11
14430.300031867349
 21
4325.1352945090848
 31
0.0
 70
     0
 13
14677.800031867349
 23
4147.6352945090821
 33
0.0
 14
14638.498006363679
 24
4502.6352945090821
 34
0.0
 50
90.0
  0
DIMENSION
  5
40F7
  8
SP
  2
*D4
 10
14467.80003186734
 20
4752.6352945090748
 30
0.0
 11
14430.30003186734
 21
4627.6352945090812
 31
0.0
 70
     0
 13
14638.498006363679
 23
4502.6352945090821
 33
0.0
 14
14906.300031867329
 24
4752.6352945090748
 34
0.0
 50
90.0
  0
POLYLINE
  5
40F8
  8
1
 66
     1
 10
0.0
 20
0.0
 30
0.0
  0
VERTEX
  5
6DEF
  8
1
 10
14788.550226875261
 20
4297.6352945090739
 30
0.0
 42
-0.1174780416237573
  0
VERTEX
  5
6DF0
  8
1
 10
14722.80003186734
 20
4389.6570362085522
 30
0.0
 42
-0.3153658436290411
  0
SEQEND
  5
6DF1
  8
1
  0
POLYLINE
  5
40F9
  8
1
 66
     1
 10
0.0
 20
0.0
 30
0.0
  0
VERTEX
  5
6DF2
  8
1
 10
15138.950319329941
 20
4291.8427171161702
 30
0.0
 42
-0.2162335382726867
  0
VERTEX
  5
6DF3
  8
1
 10
14897.999194719359
 20
4233.7678046994024
 30
0.0
 42
-0.1298839697351506
  0
VERTEX
  5
6DF4
  8
1
 10
14782.03053635689
 20
4290.0528387363911
 30
0.0
 42
-0.1298839697351506
  0
SEQEND
  5
6DF5
  8
1
  0
POLYLINE
  5
40FA
  8
1
 66
     1
 10
0.0
 20
0.0
 30
0.0
  0
VERTEX
  5
6DF6
  8
1
 10
14722.80003186734
 20
4389.6570362085513
 30
0.0
 42
-0.1343280102757561
  0
VERTEX
  5
6DF7
  8
1
 10
14708.43618765813
 20
4517.40531978937
 30
0.0
 42
-0.3163019945347412
  0
VERTEX
  5
6DF8
  8
1
 10
14871.43039881906
 20
4686.0124810514963
 30
0.0
 42
-0.3153658436290411
  0
SEQEND
  5
6DF9
  8
1
  0
POLYLINE
  5
40FB
  8
1
 66
     1
 10
0.0
 20
0.0
 30
0.0
  0
VERTEX
  5
6DFA
  8
1
 10
14713.509776377779
 20
4385.9568804092933
 30
0.0
 42
-0.1343314877425494
  0
VERTEX
  5
6DFB
  8
1
 10
14698.556745041131
 20
4518.9534235028332
 30
0.0
 42
-0.3163064660587118
  0
VERTEX
  5
6DFC
  8
1
 10
14869.545407562149
 20
4695.8332146270177
 30
0.0
 42
-0.3163064660587118
  0
SEQEND
  5
6DFD
  8
1
  0
LINE
  5
40FD
  8
2
 10
15286.41264429078
 20
4502.6352945090821
 30
0.0
 11
14638.498006363679
 21
4502.6352945090821
 31
0.0
  0
CIRCLE
  5
4100
  8
CT
 10
14927.80003186734
 20
4502.6352945090821
 30
0.0
 40
169.0
  0
POLYLINE
  5
4101
  8
1
 66
     1
 10
0.0
 20
0.0
 30
0.0
  0
VERTEX
  5
6DFE
  8
1
 10
15252.800031867329
 20
4732.6352945090857
 30
0.0
  0
VERTEX
  5
6DFF
  8
1
 10
15252.80003186734
 20
4528.1231177703976
 30
0.0
 42
-0.2269714708976296
  0
VERTEX
  5
6E00
  8
1
 10
15139.053849751501
 20
4291.9245747736586
 30
0.0
  0
SEQEND
  5
6E01
  8
1
  0
POLYLINE
  5
4102
  8
1
 66
     1
 10
0.0
 20
0.0
 30
0.0
  0
VERTEX
  5
6E02
  8
1
 10
15242.800031867329
 20
4752.6352945090866
 30
0.0
  0
VERTEX
  5
6E03
  8
1
 10
15242.80003186734
 20
4528.1352945090866
 30
0.0
 42
-0.2269607506063405
  0
VERTEX
  5
6E04
  8
1
 10
15132.800031867329
 20
4299.7277639852337
 30
0.0
 42
-0.129402372482195
  0
SEQEND
  5
6E05
  8
1
  0
ARC
  5
4103
  8
1
 10
14927.80003186734
 20
4502.6352945090821
 30
0.0
 40
100.8
 50
285.42769999999967
 51
180.0
  0
ARC
  5
4104
  8
1
 10
14927.80003186734
 20
4502.6352945090821
 30
0.0
 40
100.8
 50
180.0
 51
254.20289999999889
  0
LINE
  5
4105
  8
CT
 10
14881.85965136163
 20
4331.183460342776
 30
0.0
 11
14885.969087146679
 21
4346.520083483043
 31
0.0
  0
LINE
  5
4107
  8
CT
 10
14973.740412373019
 20
4331.1834603427733
 30
0.0
 11
14969.630976587971
 21
4346.5200834830403
 31
0.0
  0
POLYLINE
  5
4108
  8
1
 66
     1
 10
0.0
 20
0.0
 30
0.0
  0
VERTEX
  5
6E06
  8
1
 10
15132.800031867329
 20
4299.7277639852337
 30
0.0
 42
-0.2162148363065116
  0
VERTEX
  5
6E07
  8
1
 10
14899.902215059279
 20
4243.5850832324377
 30
0.0
 42
-0.1298622998199493
  0
VERTEX
  5
6E08
  8
1
 10
14788.550226875261
 20
4297.635294509073
 30
0.0
 42
-0.3153658436290411
  0
SEQEND
  5
6E09
  8
1
  0
LINE
  5
410A
  8
1
 10
14981.25043186734
 20
4417.1849945090808
 30
0.0
 11
14987.80003186734
 21
4410.6352945090821
 31
0.0
  0
CIRCLE
  5
410D
  8
1
 10
15091.041496510181
 20
4458.89487588675
 30
0.0
 40
4.0
  0
LINE
  5
410E
  8
CT
 10
15099.251866033641
 20
4456.6949140033767
 30
0.0
 11
15083.91524289337
 21
4460.8043497884328
 31
0.0
  0
CIRCLE
  5
410F
  8
1
 10
15047.30107788786
 20
4383.1342484885508
 30
0.0
 40
4.0
  0
LINE
  5
4110
  8
CT
 10
15053.31148552794
 20
4377.1238408484642
 30
0.0
 11
15042.084298172729
 21
4388.3510282036759
 31
0.0
  0
LINE
  5
4111
  8
1
 10
15025.80003186734
 20
4414.6352945090812
 30
0.0
 11
14989.80003186734
 21
4414.6352945090812
 31
0.0
  0
LINE
  5
4112
  8
1
 10
15027.80003186734
 20
4402.6352945090821
 30
0.0
 11
14987.80003186734
 21
4402.6352945090821
 31
0.0
  0
LINE
  5
4113
  8
1
 10
15026.90783186734
 20
4414.303394509082
 30
0.0
 11
15010.507031867341
 21
4444.9653945090822
 31
0.0
  0
LINE
  5
4114
  8
1
 10
15027.80003186734
 20
4402.6352945090821
 30
0.0
 11
15027.80003186734
 21
4412.6352945090821
 31
0.0
  0
ARC
  5
4115
  8
1
 10
15025.80003186734
 20
4412.6352945090821
 30
0.0
 40
2.0
 50
0.000000000000007
 51
90.0
  0
LINE
  5
4116
  8
1
 10
15013.80003186734
 20
4414.6352945090812
 30
0.0
 11
15013.80003186734
 21
4402.6352945090821
 31
0.0
  0
LINE
  5
4117
  8
1
 10
15001.80003186734
 20
4402.6352945090821
 30
0.0
 11
15001.80003186734
 21
4414.6352945090812
 31
0.0
  0
LINE
  5
4118
  8
1
 10
14987.80003186734
 20
4402.6352945090821
 30
0.0
 11
14987.80003186734
 21
4412.6352945090821
 31
0.0
  0
ARC
  5
4119
  8
1
 10
14989.80003186734
 20
4412.6352945090821
 30
0.0
 40
2.0
 50
90.0
 51
180.0
  0
ARC
  5
411A
  8
1
 10
14996.35643186734
 20
4417.6352945090812
 30
0.0
 40
3.0
 50
225.0
 51
270.0
  0
LINE
  5
411B
  8
1
 10
14988.00253186734
 20
4421.7464945090824
 30
0.0
 11
14994.23503186734
 21
4415.5139945090814
 31
0.0
  0
LINE
  5
411C
  8
CT
 10
15007.80003186734
 20
4416.0157945090814
 30
0.0
 11
15007.80003186734
 21
4398.6686945090823
 31
0.0
  0
LINE
  5
411D
  8
1
 10
14829.80003186734
 20
4414.6352945090812
 30
0.0
 11
14865.80003186734
 21
4414.6352945090812
 31
0.0
  0
LINE
  5
411E
  8
1
 10
14827.80003186734
 20
4402.6352945090821
 30
0.0
 11
14867.80003186734
 21
4402.6352945090821
 31
0.0
  0
CIRCLE
  5
411F
  8
1
 10
14884.059613244999
 20
4339.3938298662342
 30
0.0
 40
4.0
  0
ARC
  5
4120
  8
1
 10
14859.243631867341
 20
4417.6352945090812
 30
0.0
 40
3.0
 50
270.0
 51
315.0
  0
LINE
  5
4121
  8
1
 10
14867.217931867341
 20
4421.3669945090815
 30
0.0
 11
14861.365031867341
 21
4415.5139945090814
 31
0.0
  0
LINE
  5
4122
  8
1
 10
14867.80003186734
 20
4402.6352945090821
 30
0.0
 11
14867.80003186734
 21
4412.6352945090821
 31
0.0
  0
ARC
  5
4123
  8
1
 10
14865.80003186734
 20
4412.6352945090821
 30
0.0
 40
2.0
 50
0.000000000000007
 51
90.0
  0
LINE
  5
4124
  8
1
 10
14874.05343186734
 20
4416.8887945090819
 30
0.0
 11
14867.80003186734
 21
4410.6352945090821
 31
0.0
  0
LINE
  5
4125
  8
1
 10
14828.89083186734
 20
4414.6747945090819
 30
0.0
 11
14845.009531867339
 21
4444.8090945090808
 31
0.0
  0
LINE
  5
4126
  8
1
 10
14853.80003186734
 20
4402.6352945090821
 30
0.0
 11
14853.80003186734
 21
4414.6352945090812
 31
0.0
  0
LINE
  5
4127
  8
1
 10
14827.80003186734
 20
4402.6352945090821
 30
0.0
 11
14827.80003186734
 21
4412.6352945090821
 31
0.0
  0
LINE
  5
4128
  8
1
 10
14841.80003186734
 20
4414.6352945090812
 30
0.0
 11
14841.80003186734
 21
4402.6352945090821
 31
0.0
  0
ARC
  5
4129
  8
1
 10
14829.80003186734
 20
4412.6352945090821
 30
0.0
 40
2.0
 50
90.0
 51
180.0
  0
LINE
  5
412A
  8
CT
 10
14847.80003186734
 20
4416.0157945090814
 30
0.0
 11
14847.80003186734
 21
4398.6686945090823
 31
0.0
  0
CIRCLE
  5
412B
  8
1
 10
14808.298985846801
 20
4383.1342484885618
 30
0.0
 40
4.0
  0
LINE
  5
412C
  8
CT
 10
14802.288578206721
 20
4377.1238408484769
 30
0.0
 11
14813.51576556193
 21
4388.3510282036887
 31
0.0
  0
CIRCLE
  5
412D
  8
1
 10
14971.540450489651
 20
4339.3938298662306
 30
0.0
 40
4.0
  0
LINE
  5
412E
  8
1
 10
14900.18233186734
 20
4405.6352945090821
 30
0.0
 11
14955.06943186734
 21
4405.6352945090821
 31
0.0
  0
LINE
  5
412F
  8
FUTO
 10
15264.300031867329
 20
4751.4352945090859
 30
0.0
 11
14906.300031867329
 21
4751.435294509075
 31
0.0
  0
LINE
  5
4130
  8
FUTO
 10
14906.300031867329
 20
4752.6352945090748
 30
0.0
 11
15264.300031867329
 21
4752.6352945090866
 31
0.0
  0
LINE
  5
4131
  8
1
 10
15225.40003186733
 20
4732.6352945090839
 30
0.0
 11
14944.200031867331
 21
4732.6352945090766
 31
0.0
  0
LINE
  5
4132
  8
FUTO
 10
15264.300031867329
 20
4752.6352945090866
 30
0.0
 11
15264.300031867329
 21
4751.4352945090859
 31
0.0
  0
LINE
  5
4133
  8
FUTO
 10
15252.800031867329
 20
4732.6352945090857
 30
0.0
 11
15242.800031867329
 21
4732.6352945090857
 31
0.0
  0
ARC
  5
4134
  8
1
 10
15241.800031867329
 20
4747.6352945090866
 30
0.0
 40
1.0
 50
0.000000000000007
 51
143.130102354195
  0
LINE
  5
4135
  8
1
 10
15241.10003186733
 20
4748.3352945090846
 30
0.0
 11
15225.40003186733
 21
4732.6352945090839
 31
0.0
  0
CIRCLE
  5
4137
  8
1
 10
15091.04149651019
 20
4546.3757131313987
 30
0.0
 40
4.0
  0
LINE
  5
4138
  8
CT
 10
15099.251866033641
 20
4548.5756750147712
 30
0.0
 11
15083.915242893379
 21
4544.466239229715
 31
0.0
  0
POINT
  5
413A
  8
1
 10
15085.30003186734
 20
4752.635294509093
 30
0.0
  0
POINT
  5
413B
  8
1
 10
15085.30003186734
 20
4752.635294509093
 30
0.0
  0
CIRCLE
  5
413C
  8
1
 10
15047.301077887871
 20
4622.1363405296006
 30
0.0
 40
4.0
  0
LINE
  5
413D
  8
CT
 10
15053.311485527949
 20
4628.1467481696873
 30
0.0
 11
15042.08429817274
 21
4616.9195608144746
 31
0.0
  0
POLYLINE
  5
413E
  8
1
 66
     1
 10
0.0
 20
0.0
 30
0.0
  0
VERTEX
  5
6E0A
  8
1
 10
14895.24561657493
 20
4707.6352945090766
 30
0.0
 42
-0.0941668855597806
  0
VERTEX
  5
6E0B
  8
1
 10
14869.03986477643
 20
4695.7238902007302
 30
0.0
 42
-0.1987366729981355
  0
SEQEND
  5
6E0C
  8
1
  0
POLYLINE
  5
413F
  8
1
 66
     1
 10
0.0
 20
0.0
 30
0.0
  0
VERTEX
  5
6E0D
  8
1
 10
14910.94494021376
 20
4707.6352945090766
 30
0.0
 42
-0.1315967463597435
  0
VERTEX
  5
6E0E
  8
1
 10
14871.40560185932
 20
4686.0077547521769
 30
0.0
 42
-0.2200089805681688
  0
SEQEND
  5
6E0F
  8
1
  0
POLYLINE
  5
4140
  8
FUTO
 66
     1
 10
0.0
 20
0.0
 30
0.0
  0
VERTEX
  5
6E10
  8
FUTO
 10
14906.300031867329
 20
4752.6352945090748
 30
0.0
  0
VERTEX
  5
6E11
  8
FUTO
 10
14906.300031867329
 20
4751.435294509075
 30
0.0
  0
SEQEND
  5
6E12
  8
FUTO
  0
ARC
  5
4141
  8
1
 10
14927.800031867329
 20
4747.6352945090794
 30
0.0
 40
1.0
 50
36.86989764580494
 51
180.0
  0
POINT
  5
4142
  8
1
 10
14927.800031867329
 20
4752.6352945090748
 30
0.0
  0
LINE
  5
4143
  8
1
 10
14926.800031867329
 20
4732.6352945090757
 30
0.0
 11
14923.48022174049
 21
4732.6352945090739
 31
0.0
  0
LINE
  5
4144
  8
1
 10
14926.800031867329
 20
4752.6352945090784
 30
0.0
 11
14926.800031867329
 21
4731.6352945090784
 31
0.0
  0
LINE
  5
4145
  8
1
 10
14928.50003186733
 20
4748.3352945090764
 30
0.0
 11
14944.200031867331
 21
4732.6352945090766
 31
0.0
  0
POLYLINE
  5
4146
  8
1
 66
     1
 10
0.0
 20
0.0
 30
0.0
  0
VERTEX
  5
6E13
  8
1
 10
14926.800031867329
 20
4731.6352945090784
 30
0.0
 42
-0.101266720201501
  0
VERTEX
  5
6E14
  8
1
 10
14925.67467688372
 20
4726.1358840223138
 30
0.0
 42
-0.0681921917069782
  0
VERTEX
  5
6E15
  8
1
 10
14910.94494021376
 20
4707.6352945090766
 30
0.0
 42
-0.2200089805681688
  0
SEQEND
  5
6E16
  8
1
  0
ARC
  5
4147
  8
1
 10
14923.480221740499
 20
4722.6352945090784
 30
0.0
 40
10.0
 50
90.0
 51
146.5581282105191
  0
POLYLINE
  5
4148
  8
1
 66
     1
 10
0.0
 20
0.0
 30
0.0
  0
VERTEX
  5
6E17
  8
1
 10
14915.13576825334
 20
4728.1462015125217
 30
0.0
 42
-0.0934525219043797
  0
VERTEX
  5
6E18
  8
1
 10
14895.24561657493
 20
4707.6352945090766
 30
0.0
 42
-0.1987366729981355
  0
SEQEND
  5
6E19
  8
1
  0
CIRCLE
  5
4149
  8
1
 10
14884.059613245019
 20
4665.8767591519336
 30
0.0
 40
4.0
  0
LINE
  5
414A
  8
CT
 10
14881.85965136165
 20
4674.0871286753918
 30
0.0
 11
14885.969087146699
 21
4658.7505055351248
 31
0.0
  0
CIRCLE
  5
414B
  8
1
 10
14808.298985846821
 20
4622.1363405296124
 30
0.0
 40
4.0
  0
LINE
  5
414C
  8
CT
 10
14802.28857820673
 20
4628.1467481696982
 30
0.0
 11
14813.51576556194
 21
4616.9195608144864
 31
0.0
  0
CIRCLE
  5
414D
  8
1
 10
14971.540450489671
 20
4665.8767591519299
 30
0.0
 40
4.0
  0
LINE
  5
414E
  8
CT
 10
14973.740412373039
 20
4674.0871286753872
 30
0.0
 11
14969.63097658798
 21
4658.7505055351194
 31
0.0
  0
POLYLINE
  5
414F
  8
1
 66
     1
 10
0.0
 20
0.0
 30
0.0
  0
VERTEX
  5
6E1A
  8
1
 10
14781.98261191657
 20
4290.0943109025166
 30
0.0
 42
-0.1174780416237576
  0
VERTEX
  5
6E1B
  8
1
 10
14713.537736785371
 20
4385.8874354585296
 30
0.0
 42
-0.1174780416237576
  0
SEQEND
  5
6E1C
  8
1
  0
CIRCLE
  5
4152
  8
1
 10
14764.55856722448
 20
4458.8948758867637
 30
0.0
 40
4.0
  0
LINE
  5
4153
  8
CT
 10
14756.34819770102
 20
4456.6949140033912
 30
0.0
 11
14771.68482084129
 21
4460.8043497884482
 31
0.0
  0
CIRCLE
  5
4155
  8
1
 10
14764.558567224491
 20
4546.375713131416
 30
0.0
 40
4.0
  0
LINE
  5
4156
  8
CT
 10
14756.348197701031
 20
4548.5756750147857
 30
0.0
 11
14771.684820841299
 21
4544.4662392297323
 31
0.0
  0
DIMENSION
  5
448D
  8
SP
  2
*D10
 10
15757.375110139979
 20
4962.6352945090839
 30
0.0
 11
15967.375110139979
 21
5000.1352945090839
 31
0.0
 70
     0
  1
（420）
 13
16177.375110139979
 23
4917.7513991557198
 33
0.0
 14
15757.375110139979
 24
4586.2161945090811
 34
0.0
  0
DIMENSION
  5
448E
  8
SP
  2
*D9
 10
16298.375110139979
 20
4962.6352945090839
 30
0.0
 11
16237.875110139979
 21
5000.1352945090839
 31
0.0
 70
     0
 13
16177.375110139979
 23
4917.7513991557198
 33
0.0
 14
16298.375110139979
 24
4684.1352945090803
 34
0.0
  0
LINE
  5
448F
  8
2
 10
16177.375110139979
 20
4839.8210851210533
 30
0.0
 11
16177.375110139979
 21
4062.9208645024009
 31
0.0
1001
ACAD
1000
ASC_BOUNDS
1002
{
1070
    19
1005
0
1005
0
1002
}
  0
DIMENSION
  5
4490
  8
SP
  2
*D8
 10
16289.375110139979
 20
4857.7513991557207
 30
0.0
 11
16177.375110139979
 21
4895.2513991557207
 31
0.0
 70
     0
 13
16065.375110139979
 23
4752.6352945090839
 33
0.0
 14
16289.375110139979
 24
4752.6352945090839
 34
0.0
  0
LINE
  5
4492
  8
FUTO
 10
15876.17511013998
 20
4502.6352945090821
 30
0.0
 11
15746.375110139979
 21
4150.8352945090819
 31
0.0
  0
LINE
  5
4493
  8
FUTO
 10
15746.375110139979
 20
4150.8352945090819
 30
0.0
 11
16053.17511013998
 21
4150.8352945090819
 31
0.0
  0
LINE
  5
4494
  8
1
 10
15746.375110139979
 20
4147.635294509083
 30
0.0
 11
16096.375110139979
 21
4147.635294509083
 31
0.0
  0
LINE
  5
4495
  8
1
 10
15930.375110139979
 20
4602.6352945090821
 30
0.0
 11
15855.035410139981
 21
4602.6352945090821
 31
0.0
  0
LINE
  5
4496
  8
2
 10
16343.24713018699
 20
4502.6352945090803
 30
0.0
 11
15715.986989573399
 21
4502.6352945090803
 31
0.0
  0
LINE
  5
4497
  8
FUTO
 10
15746.375110139979
 20
4147.635294509083
 30
0.0
 11
15746.375110139979
 21
4150.8352945090819
 31
0.0
  0
LINE
  5
4498
  8
1
 10
15757.375110139979
 20
4419.0823945090824
 30
0.0
 11
15757.375110139979
 21
4586.2161945090829
 31
0.0
  0
LINE
  5
4499
  8
1
 10
15847.375110139979
 20
4603.4352945090832
 30
0.0
 11
15847.375110139979
 21
4452.6352945090812
 31
0.0
  0
LINE
  5
449A
  8
1
 10
15807.375110139979
 20
4406.6352945090821
 30
0.0
 11
15807.375110139979
 21
4601.9352945090832
 31
0.0
  0
LINE
  5
449B
  8
FUTO
 10
15805.851993116001
 20
4311.7736236871342
 30
0.0
 11
15758.254169320549
 21
4399.146787701623
 31
0.0
  0
LINE
  5
449C
  8
1
 10
15833.375110139979
 20
4443.6352945090821
 30
0.0
 11
15847.375110139979
 21
4452.6352945090812
 31
0.0
  0
LINE
  5
449D
  8
1
 10
15833.275610139979
 20
4417.6352945090812
 30
0.0
 11
15844.856800280821
 21
4417.6352945090812
 31
0.0
  0
LINE
  5
449E
  8
1
 10
15833.375110139979
 20
4405.6352945090821
 30
0.0
 11
15808.375110139979
 21
4405.6352945090821
 31
0.0
  0
ARC
  5
449F
  8
1
 10
15808.37521013998
 20
4406.6352945090821
 30
0.0
 40
1.0000999999999991
 50
180.0
 51
269.99650000001031
  0
LINE
  5
44A0
  8
1
 10
15833.375110139979
 20
4405.6352945090821
 30
0.0
 11
15833.375110139979
 21
4443.6352945090821
 31
0.0
  0
ARC
  5
44A1
  8
1
 10
15759.17491013998
 20
4419.0821945090829
 30
0.0
 40
1.7998000000000001
 50
179.9961000000213
 51
257.59830000000699
  0
LINE
  5
44A2
  8
FUTO
 10
15745.375110139979
 20
4373.946787701625
 30
0.0
 11
15747.775110139981
 21
4373.946787701625
 31
0.0
  0
ARC
  5
44A3
  8
FUTO
 10
15750.17511013998
 20
4396.7467877016234
 30
0.0
 40
2.3999999999999999
 50
89.999999999999986
 51
180.0
  0
ARC
  5
44A4
  8
FUTO
 10
15750.17511013998
 20
4396.7467877016234
 30
0.0
 40
4.7999999999999998
 50
89.999999999999986
 51
180.0
  0
LINE
  5
44A5
  8
FUTO
 10
15747.775110139981
 20
4373.946787701625
 30
0.0
 11
15747.775110139981
 21
4396.7467877016234
 31
0.0
  0
LINE
  5
44A6
  8
FUTO
 10
15745.375110139979
 20
4373.946787701625
 30
0.0
 11
15745.375110139979
 21
4396.7467877016234
 31
0.0
  0
LINE
  5
44A7
  8
FUTO
 10
15750.17511013998
 20
4399.146787701623
 30
0.0
 11
15838.04469692754
 21
4399.1467877016203
 31
0.0
  0
LINE
  5
44A8
  8
FUTO
 10
15750.17511013998
 20
4401.5467877016208
 30
0.0
 11
15838.92897861768
 21
4401.5467877016208
 31
0.0
  0
LINE
  5
44A9
  8
1
 10
15807.375110139979
 20
4406.6352945090821
 30
0.0
 11
15758.78841013998
 21
4417.3243945090817
 31
0.0
  0
LINE
  5
44AA
  8
1
 10
15847.375110139979
 20
4603.4352945090832
 30
0.0
 11
15808.875110139979
 21
4603.4352945090832
 31
0.0
  0
ARC
  5
44AB
  8
1
 10
15808.875110139979
 20
4601.9352945090832
 30
0.0
 40
1.5
 50
89.999999999999986
 51
180.0
  0
LINE
  5
44AC
  8
1
 10
15847.20681013998
 20
4589.0759945090831
 30
0.0
 11
15855.035410139981
 21
4602.6352945090821
 31
0.0
  0
ARC
  5
44AD
  8
1
 10
15759.175010139979
 20
4586.2162945090822
 30
0.0
 40
1.7999000000000001
 50
103.4933999999954
 51
180.0018999999831
  0
LINE
  5
44AE
  8
1
 10
15807.375110139979
 20
4599.6352945090821
 30
0.0
 11
15758.755010139979
 21
4587.9664945090826
 31
0.0
  0
POLYLINE
  5
44AF
  8
1
 66
     1
 10
0.0
 20
0.0
 30
0.0
  0
VERTEX
  5
6E1D
  8
1
 10
16053.17511013998
 20
4694.5109558666181
 30
0.0
  0
VERTEX
  5
6E1E
  8
1
 10
16053.17511013998
 20
4147.635294509083
 30
0.0
  0
SEQEND
  5
6E1F
  8
1
  0
POLYLINE
  5
44B0
  8
1
 66
     1
 10
0.0
 20
0.0
 30
0.0
  0
VERTEX
  5
6E20
  8
1
 10
16056.375110139979
 20
4697.9534053466077
 30
0.0
  0
VERTEX
  5
6E21
  8
1
 10
16056.37511013997
 20
4502.6352945090821
 30
0.0
  0
VERTEX
  5
6E22
  8
1
 10
16056.37511013997
 20
4147.635294509083
 30
0.0
  0
SEQEND
  5
6E23
  8
1
  0
LINE
  5
44B2
  8
1
 10
16056.375110139979
 20
4150.8352945090819
 30
0.0
 11
16096.375110139979
 21
4150.8352945090819
 31
0.0
  0
POLYLINE
  5
44B3
  8
1
 66
     1
 10
0.0
 20
0.0
 30
0.0
  0
VERTEX
  5
6E24
  8
1
 10
16096.375110139979
 20
4150.8352945090819
 30
0.0
  0
VERTEX
  5
6E25
  8
1
 10
16096.375110139979
 20
4147.6352945090821
 30
0.0
  0
SEQEND
  5
6E26
  8
1
  0
LINE
  5
44B7
  8
1
 10
16079.37511013997
 20
4238.4040128752467
 30
0.0
 11
16275.375110139979
 21
4238.4040128752467
 31
0.0
  0
LINE
  5
44B9
  8
1
 10
16064.375110139979
 20
4320.1352945090821
 30
0.0
 11
16057.375110139979
 21
4320.1352945090821
 31
0.0
  0
ARC
  5
44BA
  8
1
 10
16057.375110139979
 20
4321.1352945090812
 30
0.0
 40
1.0
 50
180.0
 51
270.0
  0
LINE
  5
44C3
  8
1
 10
16290.375110139979
 20
4751.4352945090841
 30
0.0
 11
16271.57511013998
 21
4732.635294509083
 31
0.0
  0
LINE
  5
44C4
  8
1
 10
16044.375110139979
 20
4752.6352945090839
 30
0.0
 11
16310.375110139979
 21
4752.6352945090839
 31
0.0
  0
LINE
  5
44C5
  8
1
 10
16044.375110139979
 20
4751.4352945090841
 30
0.0
 11
16310.375110139979
 21
4751.4352945090841
 31
0.0
  0
LINE
  5
44C6
  8
1
 10
16065.375110139979
 20
4707.6352945090803
 30
0.0
 11
15874.813126932029
 21
4502.6352945090821
 31
0.0
  0
LINE
  5
44C7
  8
1
 10
16065.375110139979
 20
4752.6352945090839
 30
0.0
 11
16065.375110139979
 21
4253.4040128752476
 31
0.0
  0
LINE
  5
44C8
  8
1
 10
16064.375110139979
 20
4752.6352945090839
 30
0.0
 11
16064.375110139979
 21
4253.4040128752476
 31
0.0
  0
LINE
  5
44C9
  8
1
 10
15930.375110139979
 20
4602.6352945090821
 30
0.0
 11
15967.77019191151
 21
4602.6352945090821
 31
0.0
  0
LINE
  5
44CA
  8
1
 10
16064.375110139979
 20
4751.4352945090841
 30
0.0
 11
16083.17511013998
 21
4732.635294509083
 31
0.0
  0
ARC
  5
44CB
  8
1
 10
16057.375110139979
 20
4684.1352945090812
 30
0.0
 40
1.0
 50
89.999999999999986
 51
180.0
  0
ARC
  5
44CC
  8
1
 10
16063.375110139979
 20
4686.1352945090812
 30
0.0
 40
1.0
 50
270.0
 51
0.0
  0
LINE
  5
44CD
  8
1
 10
16063.375110139979
 20
4685.1352945090821
 30
0.0
 11
16057.375110139979
 21
4685.1352945090821
 31
0.0
  0
LINE
  5
44CE
  8
1
 10
16044.375110139979
 20
4752.6352945090839
 30
0.0
 11
16044.375110139979
 21
4751.4352945090841
 31
0.0
1001
ACAD
1000
ASC_BOUNDS
1002
{
1070
    19
1002
}
  0
LINE
  5
44CF
  8
1
 10
16083.17511013998
 20
4732.635294509083
 30
0.0
 11
16271.57511013998
 21
4732.635294509083
 31
0.0
  0
LINE
  5
44D0
  8
1
 10
16289.375110139979
 20
4752.6352945090839
 30
0.0
 11
16289.375110139979
 21
4253.4040128752476
 31
0.0
  0
LINE
  5
44D1
  8
1
 10
16290.375110139979
 20
4752.6352945090839
 30
0.0
 11
16290.375110139979
 21
4253.4040128752476
 31
0.0
  0
LINE
  5
44D9
  8
1
 10
16310.375110139979
 20
4752.6352945090839
 30
0.0
 11
16310.375110139979
 21
4751.4352945090841
 31
0.0
1001
ACAD
1000
ASC_BOUNDS
1002
{
1070
    19
1002
}
  0
ARC
  5
4690
  8
1
 10
16275.375110139979
 20
4253.4040128752476
 30
0.0
 40
15.0
 50
270.00000000000023
 51
0.0000000000004962
  0
ARC
  5
4691
  8
1
 10
16079.37511013997
 20
4253.4040128752476
 30
0.0
 40
15.0
 50
179.9999999999994
 51
270.0
  0
LINE
  5
4CA4
  8
2
 10
14927.800031867329
 20
5393.2593981710779
 30
0.0
 11
14927.80003186734
 21
6048.1037539332601
 31
0.0
  0
LINE
  5
4CA5
  8
HOSO
 10
15239.90663358512
 20
5745.7563335023697
 30
0.0
 11
14930.693430149529
 21
5962.969536937967
 31
0.0
  0
LINE
  5
4CA6
  8
HOSO
 10
15239.90663358512
 20
5962.969536937967
 30
0.0
 11
14930.693430149529
 21
5745.7563335023697
 31
0.0
  0
LINE
  5
4CA7
  8
FUTO
 10
14926.300031867329
 20
5952.3629352201679
 30
0.0
 11
14926.300031867329
 21
5756.3629352201688
 31
0.0
  0
LINE
  5
4CA8
  8
FUTO
 10
15244.300031867329
 20
5756.3629352201688
 30
0.0
 11
15244.300031867329
 21
5952.3629352201679
 31
0.0
  0
LINE
  5
4CA9
  8
FUTO
 10
15264.300031867329
 20
5746.3629352201688
 30
0.0
 11
15264.300031867329
 21
5962.3629352201688
 31
0.0
  0
LINE
  5
4CAA
  8
FUTO
 10
14906.300031867329
 20
5962.3629352201688
 30
0.0
 11
14906.300031867329
 21
5746.3629352201688
 31
0.0
  0
LINE
  5
4CAB
  8
1
 10
14704.800031867329
 20
5756.3629352201688
 30
0.0
 11
14704.800031867329
 21
5952.3629352201679
 31
0.0
  0
LINE
  5
4CAF
  8
1
 10
14906.672671434009
 20
5741.3629352201706
 30
0.0
 11
14719.800031867329
 21
5741.3629352201688
 31
0.0
  0
LINE
  5
4CB0
  8
2
 10
15284.28490655211
 20
5854.3629352201688
 30
0.0
 11
14681.716472910181
 21
5854.3629352201688
 31
0.0
1001
ACAD
1000
ASC_BOUNDS
1002
{
1070
    19
1005
0
1005
0
1002
}
  0
LINE
  5
4CB1
  8
1
 10
15027.80003186734
 20
5532.0232352201701
 30
0.0
 11
15027.80003186734
 21
5682.7026352201692
 31
0.0
  0
LINE
  5
4CB2
  8
1
 10
14827.80003186734
 20
5682.7026352201692
 30
0.0
 11
14827.80003186734
 21
5532.0232352201701
 31
0.0
  0
LINE
  5
4CB6
  8
1
 10
14830.80003186734
 20
5484.3629352201679
 30
0.0
 11
14842.46883186734
 21
5435.7428352201678
 31
0.0
  0
LINE
  5
4CB7
  8
1
 10
15024.80003186734
 20
5484.3629352201679
 30
0.0
 11
15013.131231867341
 21
5435.7428352201678
 31
0.0
  0
LINE
  5
4CB9
  8
1
 10
14844.247131867331
 20
5434.3629352201679
 30
0.0
 11
15011.38093186733
 21
5434.3629352201679
 31
0.0
  0
LINE
  5
4CBA
  8
1
 10
14844.24713186734
 20
5434.3629352201679
 30
0.0
 11
15011.380931867339
 21
5434.3629352201679
 31
0.0
  0
ARC
  5
4CBB
  8
1
 10
15011.38103186734
 20
5436.1628352201687
 30
0.0
 40
1.7999000000000001
 50
269.99810000000048
 51
346.50660000000221
  0
ARC
  5
4CBF
  8
1
 10
14844.21903186734
 20
5436.1628352201687
 30
0.0
 40
1.7999000000000001
 50
193.49339999999771
 51
270.0018999999993
  0
LINE
  5
4CC0
  8
1
 10
15028.60003186734
 20
5524.3629352201679
 30
0.0
 11
14827.000031867339
 21
5524.3629352201679
 31
0.0
  0
LINE
  5
4CC1
  8
1
 10
14831.80003186734
 20
5484.3629352201679
 30
0.0
 11
15027.10003186734
 21
5484.3629352201679
 31
0.0
  0
LINE
  5
4CC2
  8
1
 10
15014.240731867339
 20
5524.1946352201694
 30
0.0
 11
15027.80003186734
 21
5532.0232352201701
 31
0.0
  0
ARC
  5
4CC3
  8
1
 10
15027.10003186734
 20
5485.8629352201679
 30
0.0
 40
1.5
 50
270.0
 51
0.000000000000007
  0
LINE
  5
4CC4
  8
1
 10
15028.60003186734
 20
5524.3629352201679
 30
0.0
 11
15028.60003186734
 21
5485.8629352201679
 31
0.0
  0
LINE
  5
4CC6
  8
1
 10
14841.359331867339
 20
5524.1946352201694
 30
0.0
 11
14827.80003186734
 21
5532.0232352201701
 31
0.0
  0
ARC
  5
4CC7
  8
1
 10
14828.500031867339
 20
5485.8629352201679
 30
0.0
 40
1.5
 50
180.0
 51
270.0
  0
LINE
  5
4CC8
  8
1
 10
14827.000031867339
 20
5524.3629352201679
 30
0.0
 11
14827.000031867339
 21
5485.8629352201679
 31
0.0
  0
LINE
  5
4CC9
  8
FUTO
 10
15229.300031867329
 20
5741.3629352201688
 30
0.0
 11
14941.300031867329
 21
5741.3629352201688
 31
0.0
1001
ACAD
1000
ASC_BOUNDS
1002
{
1070
    19
1005
0
1005
0
1002
}
  0
LINE
  5
4CCA
  8
FUTO
 10
15239.300031867329
 20
5721.3629352201679
 30
0.0
 11
14931.300031867329
 21
5721.3629352201679
 31
0.0
1001
ACAD
1000
ASC_BOUNDS
1002
{
1070
    19
1005
0
1005
0
1002
}
  0
ARC
  5
4CCB
  8
FUTO
 10
15229.300031867329
 20
5756.3629352201688
 30
0.0
 40
15.0
 50
270.0
 51
0.0000000000001342
  0
ARC
  5
4CCC
  8
FUTO
 10
15239.300031867329
 20
5746.3629352201697
 30
0.0
 40
25.0
 50
270.00000000000102
 51
359.9999999999979
  0
ARC
  5
4CCD
  8
FUTO
 10
14941.300031867329
 20
5756.3629352201688
 30
0.0
 40
15.0
 50
180.0
 51
270.0
  0
LINE
  5
4CCE
  8
1
 10
15009.80003186734
 20
5712.0906146535881
 30
0.0
 11
14845.80003186734
 21
5712.0906146535881
 31
0.0
  0
LINE
  5
4CCF
  8
1
 10
14842.80003186734
 20
5691.3629352201688
 30
0.0
 11
15012.80003186734
 21
5691.3629352201688
 31
0.0
  0
ARC
  5
4CD1
  8
1
 10
15009.80013186734
 20
5709.0906146535881
 30
0.0
 40
2.9998999999999989
 50
359.99880000000292
 51
90.001200000000338
  0
LINE
  5
4CD2
  8
1
 10
15027.80003186734
 20
5682.7026352201692
 30
0.0
 11
15012.80003186734
 21
5691.3629352201688
 31
0.0
  0
LINE
  5
4CD3
  8
1
 10
15012.80003186734
 20
5694.3629352201688
 30
0.0
 11
15012.80003186734
 21
5691.3629352201688
 31
0.0
  0
LINE
  5
4CD4
  8
1
 10
15012.80003186734
 20
5691.3629352201688
 30
0.0
 11
15012.80003186734
 21
5709.0906146535881
 31
0.0
  0
LINE
  5
4CD9
  8
1
 10
14942.400031867341
 20
5718.0906146535881
 30
0.0
 11
14942.400031867341
 21
5741.3629352201724
 31
0.0
  0
LINE
  5
4CDA
  8
1
 10
14913.200131867339
 20
5718.0906146535881
 30
0.0
 11
14913.200131867339
 21
5741.3629352201688
 31
0.0
  0
ARC
  5
4CDB
  8
1
 10
14890.80003186734
 20
5715.0906146535881
 30
0.0
 40
2.9998999999999989
 50
89.998799999999676
 51
180.00119999999711
  0
LINE
  5
4CDC
  8
1
 10
14887.80003186734
 20
5712.0906146535881
 30
0.0
 11
14887.80003186734
 21
5715.0906146535881
 31
0.0
  0
ARC
  5
4CDD
  8
1
 10
14845.799931867339
 20
5709.0906146535881
 30
0.0
 40
2.9998999999999989
 50
89.998799999999676
 51
180.00119999999711
  0
LINE
  5
4CDE
  8
1
 10
14827.80003186734
 20
5682.7026352201692
 30
0.0
 11
14842.80003186734
 21
5691.3629352201688
 31
0.0
  0
LINE
  5
4CDF
  8
1
 10
14842.80003186734
 20
5694.3629352201688
 30
0.0
 11
14842.80003186734
 21
5691.3629352201688
 31
0.0
  0
LINE
  5
4CE0
  8
1
 10
14842.80003186734
 20
5691.3629352201688
 30
0.0
 11
14842.80003186734
 21
5709.0906146535881
 31
0.0
  0
LINE
  5
4CE1
  8
1
 10
14967.80003186734
 20
5712.0906146535881
 30
0.0
 11
14967.80003186734
 21
5715.0906146535881
 31
0.0
  0
ARC
  5
4CE2
  8
1
 10
14964.80013186734
 20
5715.0906146535881
 30
0.0
 40
2.9998999999999989
 50
359.99880000000292
 51
90.001200000000338
  0
LINE
  5
4CE3
  8
1
 10
14890.80003186734
 20
5718.0906146535881
 30
0.0
 11
14964.80003186734
 21
5718.0906146535881
 31
0.0
  0
ARC
  5
4CE4
  8
FUTO
 10
14931.300031867329
 20
5746.3629352201688
 30
0.0
 40
25.0
 50
180.0
 51
270.0
  0
ARC
  5
4CED
  8
1
 10
14719.800031867329
 20
5756.3629352201688
 30
0.0
 40
15.0
 50
180.0
 51
270.0
  0
ARC
  5
4CF2
  8
1
 10
14748.145451679349
 20
5933.7890820682705
 30
0.0
 40
48.656384192584412
 50
43.631651276835889
 51
56.49996633473549
  0
POLYLINE
  5
4CF3
  8
1
 66
     1
 10
0.0
 20
0.0
 30
0.0
  0
VERTEX
  5
6E27
  8
1
 10
14746.30003186734
 20
5975.3629352201688
 30
0.0
  0
VERTEX
  5
6E28
  8
1
 10
14927.80003186734
 20
5975.3629352201688
 30
0.0
  0
VERTEX
  5
6E29
  8
1
 10
14948.13033464716
 20
5975.3629352201688
 30
0.0
  0
SEQEND
  5
6E2A
  8
1
  0
LINE
  5
4CF4
  8
1
 10
14906.30003186748
 20
5967.3629352201651
 30
0.0
 11
14719.80003186734
 21
5967.3629352201688
 31
0.0
  0
LINE
  5
4CF5
  8
FUTO
 10
15229.300031867329
 20
5967.3629352201688
 30
0.0
 11
14941.300031867329
 21
5967.3629352201688
 31
0.0
1001
ACAD
1000
ASC_BOUNDS
1002
{
1070
    19
1005
0
1005
0
1002
}
  0
LINE
  5
4CF6
  8
FUTO
 10
15239.300031867329
 20
5987.3629352201679
 30
0.0
 11
14931.300031867329
 21
5987.3629352201679
 31
0.0
1001
ACAD
1000
ASC_BOUNDS
1002
{
1070
    19
1005
0
1005
0
1002
}
  0
ARC
  5
4CF7
  8
FUTO
 10
15229.300031867329
 20
5952.3629352201679
 30
0.0
 40
15.0
 50
0.000000000000007
 51
90.0
  0
ARC
  5
4CF8
  8
FUTO
 10
15239.300031867329
 20
5962.362935220166
 30
0.0
 40
25.0
 50
0.0000000000041799
 51
89.999999999998963
  0
POLYLINE
  5
4CF9
  8
1
 66
     1
 10
0.0
 20
0.0
 30
0.0
  0
VERTEX
  5
6E2B
  8
1
 10
14948.13033464716
 20
5975.3629352201688
 30
0.0
  0
VERTEX
  5
6E2C
  8
1
 10
15109.30003186734
 20
5975.3629352201688
 30
0.0
  0
SEQEND
  5
6E2D
  8
1
  0
ARC
  5
4CFA
  8
1
 10
15107.45461205533
 20
5933.7890820682705
 30
0.0
 40
48.656384192584412
 50
123.5000336652644
 51
136.3683487231641
  0
ARC
  5
4CFB
  8
1
 10
15108.30003186734
 20
5973.3629352201688
 30
0.0
 40
1.0
 50
0.000000000000007
 51
89.999999999999986
  0
ARC
  5
4CFC
  8
1
 10
15109.30003186734
 20
5974.3629352201688
 30
0.0
 40
1.0
 50
0.000000000000007
 51
89.999999999999986
  0
LINE
  5
4CFD
  8
1
 10
15109.30003186734
 20
5967.3629352201706
 30
0.0
 11
15109.30003186734
 21
5973.3629352201706
 31
0.0
  0
LINE
  5
4CFE
  8
1
 10
15110.30003186734
 20
5968.3629352201688
 30
0.0
 11
15110.30003186734
 21
5974.3629352201697
 31
0.0
  0
ARC
  5
4CFF
  8
1
 10
15111.30003186734
 20
5968.3629352201688
 30
0.0
 40
1.0
 50
180.0
 51
270.0
  0
LINE
  5
4D00
  8
1
 10
15108.30003186734
 20
5974.3629352201697
 30
0.0
 11
15080.5993302079
 21
5974.3629352201688
 31
0.0
  0
ARC
  5
4D01
  8
FUTO
 10
14941.300031867329
 20
5952.3629352201679
 30
0.0
 40
15.0
 50
90.0
 51
180.0
  0
ARC
  5
4D02
  8
FUTO
 10
14931.30003186732
 20
5962.3629352201697
 30
0.0
 40
25.0
 50
89.999999999995865
 51
180.0000000000021
  0
ARC
  5
4D03
  8
1
 10
14744.30003186734
 20
5968.3629352201688
 30
0.0
 40
1.0
 50
270.0
 51
0.000000000000007
  0
LINE
  5
4D04
  8
1
 10
14745.30003186734
 20
5968.3629352201688
 30
0.0
 11
14745.30003186734
 21
5974.3629352201688
 31
0.0
  0
LINE
  5
4D05
  8
1
 10
14746.30003186734
 20
5967.3629352201688
 30
0.0
 11
14746.30003186734
 21
5973.3629352201688
 31
0.0
  0
ARC
  5
4D06
  8
1
 10
14746.300031867329
 20
5974.3629352201688
 30
0.0
 40
1.0
 50
89.999999999999986
 51
180.0
  0
ARC
  5
4D07
  8
1
 10
14747.30003186734
 20
5973.3629352201688
 30
0.0
 40
1.0
 50
89.999999999999986
 51
180.0
  0
ARC
  5
4D08
  8
1
 10
14746.30003186734
 20
5974.3629352201688
 30
0.0
 40
1.0
 50
89.999999999999986
 51
180.0
  0
LINE
  5
4D09
  8
1
 10
14747.30003186734
 20
5974.3629352201688
 30
0.0
 11
14775.000733526769
 21
5974.3629352201688
 31
0.0
  0
ARC
  5
4D0A
  8
1
 10
14719.80003186734
 20
5952.3629352201679
 30
0.0
 40
15.0
 50
90.0
 51
180.0
  0
LINE
  5
57A8
  8
1
 10
14677.800031867349
 20
4149.9352945090814
 30
0.0
 11
14715.50003186735
 21
4149.9352945090814
 31
0.0
  0
LINE
  5
57A9
  8
1
 10
14677.800031867349
 20
4149.9352945090814
 30
0.0
 11
14677.800031867349
 21
4147.6352945090821
 31
0.0
  0
LINE
  5
57AA
  8
2
 10
14695.80003186734
 20
4114.4213076922242
 30
0.0
 11
14695.80003186734
 21
4161.1393061729141
 31
0.0
  0
LINE
  5
57AB
  8
1
 10
15177.80003186734
 20
4149.9352945090814
 30
0.0
 11
15140.10003186733
 21
4149.9352945090814
 31
0.0
  0
LINE
  5
57AC
  8
1
 10
15177.80003186734
 20
4149.9352945090814
 30
0.0
 11
15177.80003186734
 21
4147.6352945090821
 31
0.0
  0
LINE
  5
57AE
  8
1
 10
15140.10003186733
 20
4585.7352945090825
 30
0.0
 11
15140.10003186733
 21
4149.9352945090804
 31
0.0
  0
LINE
  5
57AF
  8
1
 10
15137.800031867329
 20
4587.5576166677092
 30
0.0
 11
15137.80003186734
 21
4147.6352945090821
 31
0.0
  0
LINE
  5
57B0
  8
1
 10
15097.800031867329
 20
4402.6352945090821
 30
0.0
 11
15097.80003186734
 21
4202.6352945090812
 31
0.0
  0
LINE
  5
57B1
  8
1
 10
15137.800031867329
 20
4202.6352945090812
 30
0.0
 11
15097.80003186734
 21
4202.6352945090812
 31
0.0
  0
LINE
  5
57B2
  8
1
 10
14717.800031867349
 20
4587.5576166677092
 30
0.0
 11
14717.800031867349
 21
4147.6352945090821
 31
0.0
  0
LINE
  5
57B3
  8
1
 10
14715.50003186735
 20
4585.7352945090825
 30
0.0
 11
14715.50003186735
 21
4149.9352945090804
 31
0.0
  0
LINE
  5
57B4
  8
1
 10
14757.800031867349
 20
4402.6352945090821
 30
0.0
 11
14757.800031867349
 21
4202.6352945090812
 31
0.0
  0
LINE
  5
57B5
  8
1
 10
14717.800031867349
 20
4202.6352945090812
 30
0.0
 11
14757.800031867349
 21
4202.6352945090812
 31
0.0
  0
LINE
  5
57B6
  8
1
 10
14717.800031867349
 20
4402.6352945090821
 30
0.0
 11
15137.800031867329
 21
4402.6352945090812
 31
0.0
  0
LINE
  5
57B7
  8
1
 10
14757.800031867349
 20
4362.6352945090821
 30
0.0
 11
14927.80003186734
 21
4362.6352945090821
 31
0.0
  0
LINE
  5
57B8
  8
FUTO
 10
14717.800031867349
 20
4402.6352945090821
 30
0.0
 11
14757.800031867349
 21
4362.6352945090821
 31
0.0
  0
LINE
  5
57B9
  8
FUTO
 10
15137.800031867329
 20
4402.6352945090821
 30
0.0
 11
15097.800031867329
 21
4362.6352945090821
 31
0.0
  0
LINE
  5
57BA
  8
1
 10
15097.800031867329
 20
4362.6352945090821
 30
0.0
 11
14927.80003186734
 21
4362.6352945090821
 31
0.0
  0
LINE
  5
57BB
  8
1
 10
15017.80003186734
 20
4707.6352945090821
 30
0.0
 11
15140.10003186733
 21
4585.7352945090825
 31
0.0
  0
LINE
  5
57BC
  8
1
 10
14837.80003186734
 20
4707.6352945090821
 30
0.0
 11
14715.50003186735
 21
4585.7352945090825
 31
0.0
  0
LINE
  5
57BD
  8
1
 10
14837.80003186734
 20
4707.6352945090839
 30
0.0
 11
15017.80003186734
 21
4707.6352945090821
 31
0.0
  0
LINE
  5
5968
  8
1
 10
14677.800031867329
 20
5422.3629352201688
 30
0.0
 11
14677.80003186734
 21
5732.3629352201797
 31
0.0
  0
LINE
  5
5969
  8
1
 10
14717.800031867329
 20
5422.3629352201688
 30
0.0
 11
14717.80003186734
 21
5732.3629352201797
 31
0.0
  0
LINE
  5
596A
  8
1
 10
14717.80003186734
 20
5732.3629352201797
 30
0.0
 11
14677.80003186734
 21
5732.3629352201797
 31
0.0
  0
POLYLINE
  5
596E
  8
1
 66
     1
 10
0.0
 20
0.0
 30
0.0
  0
VERTEX
  5
6E2E
  8
1
 10
14717.80003186734
 20
5722.8669718708852
 30
0.0
  0
VERTEX
  5
6E2F
  8
1
 10
14913.200031867331
 20
5722.8669718708852
 30
0.0
  0
SEQEND
  5
6E30
  8
1
  0
POLYLINE
  5
596F
  8
1
 66
     1
 10
0.0
 20
0.0
 30
0.0
  0
VERTEX
  5
6E31
  8
1
 10
14717.80003186734
 20
5470.7629352201711
 30
0.0
  0
VERTEX
  5
6E32
  8
1
 10
14834.064025154061
 20
5470.7629352201711
 30
0.0
  0
SEQEND
  5
6E33
  8
1
  0
LINE
  5
5971
  8
1
 10
14677.800031867329
 20
5422.3629352201688
 30
0.0
 11
14717.800031867329
 21
5422.3629352201688
 31
0.0
  0
POLYLINE
  5
5974
  8
1
 66
     1
 10
0.0
 20
0.0
 30
0.0
  0
VERTEX
  5
6E34
  8
1
 10
15021.536038580611
 20
5470.7629352201711
 30
0.0
  0
VERTEX
  5
6E35
  8
1
 10
15137.800031867329
 20
5470.7629352201684
 30
0.0
  0
SEQEND
  5
6E36
  8
1
  0
LINE
  5
5976
  8
1
 10
15137.800031867329
 20
5422.3629352201724
 30
0.0
 11
15177.800031867329
 21
5422.3629352201688
 31
0.0
  0
LINE
  5
5979
  8
1
 10
15177.800031867329
 20
5422.3629352201688
 30
0.0
 11
15177.800031867329
 21
5721.3629352201679
 31
0.0
  0
LINE
  5
597A
  8
1
 10
15137.800031867329
 20
5422.3629352201688
 30
0.0
 11
15137.800031867329
 21
5722.8669718708852
 31
0.0
  0
POLYLINE
  5
597E
  8
1
 66
     1
 10
0.0
 20
0.0
 30
0.0
  0
VERTEX
  5
6E37
  8
1
 10
14942.39993186733
 20
5722.8669718708852
 30
0.0
  0
VERTEX
  5
6E38
  8
1
 10
15137.800031867329
 20
5722.8669718708852
 30
0.0
  0
SEQEND
  5
6E39
  8
1
  0
TEXT
  5
614B
  8
4
 10
14965.57226382746
 20
6397.9530537408073
 30
0.0
 40
80.999999999999986
  1
天井吊防振ベッド型
  0
TEXT
  5
614C
  8
4
 10
16024.12014238468
 20
6397.9530537408073
 30
0.0
 40
80.999999999999986
  1
縮尺：1/15
  0
POLYLINE
  5
61E9
  8
1
 66
     1
 10
0.0
 20
0.0
 30
0.0
  0
VERTEX
  5
6E3A
  8
1
 10
16298.375110139979
 20
4684.1352945090821
 30
0.0
  0
VERTEX
  5
6E3B
  8
1
 10
16298.375110139979
 20
4502.6352945090821
 30
0.0
  0
VERTEX
  5
6E3C
  8
1
 10
16298.375110139979
 20
4321.1352945090821
 30
0.0
  0
SEQEND
  5
6E3D
  8
1
  0
LINE
  5
61EA
  8
1
 10
16291.375110139979
 20
4320.1352945090839
 30
0.0
 11
16297.375110139979
 21
4320.1352945090839
 31
0.0
  0
ARC
  5
61EB
  8
1
 10
16291.375110139979
 20
4319.135294509083
 30
0.0
 40
1.0
 50
90.0
 51
180.0
  0
ARC
  5
61EC
  8
1
 10
16297.375110139979
 20
4321.1352945090821
 30
0.0
 40
1.0
 50
270.0
 51
0.0
  0
LINE
  5
61ED
  8
FUTO
 10
16298.375110139979
 20
4345.1352945090803
 30
0.0
 11
16290.37511013997
 21
4345.1352945090803
 31
0.0
  0
LINE
  5
61EE
  8
FUTO
 10
16298.375110139979
 20
4660.1352945090803
 30
0.0
 11
16290.37511013997
 21
4660.1352945090803
 31
0.0
  0
LINE
  5
61EF
  8
1
 10
16291.375110139979
 20
4685.1352945090821
 30
0.0
 11
16297.375110139979
 21
4685.1352945090821
 31
0.0
  0
ARC
  5
61F0
  8
1
 10
16291.375110139979
 20
4686.1352945090812
 30
0.0
 40
1.0
 50
180.0
 51
270.0
  0
ARC
  5
61F1
  8
1
 10
16297.375110139979
 20
4684.1352945090812
 30
0.0
 40
1.0
 50
0.0
 51
90.0
  0
LINE
  5
61F2
  8
1
 10
16079.37511013997
 20
4239.4040128752467
 30
0.0
 11
16275.375110139979
 21
4239.4040128752467
 31
0.0
  0
ARC
  5
61F3
  8
1
 10
16079.37511013997
 20
4253.4040128752476
 30
0.0
 40
14.0
 50
179.9999999999994
 51
270.0
  0
ARC
  5
61F4
  8
1
 10
16275.375110139979
 20
4253.4040128752476
 30
0.0
 40
14.0
 50
270.00000000000023
 51
0.0000000000004962
  0
DIMENSION
  5
69A7
  8
SP
  2
*D13
 10
16475.211402213728
 20
4345.1352945090803
 30
0.0
 11
16437.711402213728
 21
4502.6352945090821
 31
0.0
 70
     0
 13
16298.375110139979
 23
4660.1352945090803
 33
0.0
 14
16298.375110139979
 24
4345.1352945090803
 34
0.0
 50
90.0
1001
ACAD
1000
DSTYLE
1002
{
1070
     3
1000
φ<>
1002
}
  0
LINE
  5
6BF8
  8
FUTO
 10
14617.80003186734
 20
5414.3629352201679
 30
0.0
 11
15237.80003186734
 21
5414.3629352201679
 31
0.0
1001
ACAD
1000
ASC_BOUNDS
1002
{
1070
    19
1005
0
1005
0
1002
}
  0
LINE
  5
6BF9
  8
FUTO
 10
14617.80003186734
 20
5374.3629352201679
 30
0.0
 11
15237.80003186734
 21
5374.3629352201688
 31
0.0
1001
ACAD
1000
ASC_BOUNDS
1002
{
1070
    19
1005
0
1005
0
1002
}
  0
CIRCLE
  5
6BFA
  8
FUTO
 10
14647.80003186734
 20
5392.3629352201679
 30
0.0
 40
6.5
  0
LINE
  5
6BFB
  8
CT
 10
14632.1077436707
 20
5392.3629352201679
 30
0.0
 11
14662.80003186734
 21
5392.3629352201679
 31
0.0
  0
LINE
  5
6BFC
  8
CT
 10
14647.80003186734
 20
5408.4976431027171
 30
0.0
 11
14647.80003186734
 21
5372.8305635982761
 31
0.0
  0
LINE
  5
6BFD
  8
FUTO
 10
14617.80003186734
 20
5374.3629352201679
 30
0.0
 11
14617.80003186734
 21
5414.3629352201679
 31
0.0
  0
LINE
  5
6BFE
  8
CT
 10
15207.80003186734
 20
5408.4976431027171
 30
0.0
 11
15207.80003186734
 21
5372.8305635982761
 31
0.0
  0
LINE
  5
6BFF
  8
FUTO
 10
15237.80003186734
 20
5374.3629352201688
 30
0.0
 11
15237.80003186734
 21
5414.3629352201679
 31
0.0
  0
LINE
  5
6C00
  8
CT
 10
15192.1077436707
 20
5392.3629352201679
 30
0.0
 11
15222.80003186734
 21
5392.3629352201679
 31
0.0
  0
CIRCLE
  5
6C01
  8
FUTO
 10
15207.80003186734
 20
5392.3629352201679
 30
0.0
 40
6.5
  0
LINE
  5
6C02
  8
FUTO
 10
14617.80003186734
 20
6034.3629352201688
 30
0.0
 11
15237.80003186734
 21
6034.3629352201688
 31
0.0
1001
ACAD
1000
ASC_BOUNDS
1002
{
1070
    19
1005
0
1005
0
1002
}
  0
LINE
  5
6C03
  8
FUTO
 10
14617.80003186734
 20
6074.3629352201679
 30
0.0
 11
15237.80003186734
 21
6074.3629352201697
 31
0.0
1001
ACAD
1000
ASC_BOUNDS
1002
{
1070
    19
1005
0
1005
0
1002
}
  0
CIRCLE
  5
6C04
  8
FUTO
 10
15207.80003186734
 20
6056.3629352201669
 30
0.0
 40
6.5
  0
LINE
  5
6C05
  8
CT
 10
15192.1077436707
 20
6056.3629352201669
 30
0.0
 11
15222.80003186734
 21
6056.3629352201669
 31
0.0
  0
LINE
  5
6C06
  8
CT
 10
15207.80003186734
 20
6040.2282273376177
 30
0.0
 11
15207.80003186734
 21
6075.8953068420597
 31
0.0
  0
LINE
  5
6C07
  8
FUTO
 10
15237.80003186734
 20
6034.3629352201688
 30
0.0
 11
15237.80003186734
 21
6074.3629352201697
 31
0.0
  0
LINE
  5
6C08
  8
1
 10
14677.800031867329
 20
5414.3629352201679
 30
0.0
 11
14677.80003186734
 21
6034.3629352201679
 31
0.0
  0
LINE
  5
6C09
  8
1
 10
14717.800031867329
 20
5414.3629352201679
 30
0.0
 11
14717.80003186734
 21
5741.4968664728503
 31
0.0
  0
LINE
  5
6C0A
  8
CT
 10
14647.80003186734
 20
6040.2282273376177
 30
0.0
 11
14647.80003186734
 21
6075.8953068420597
 31
0.0
  0
LINE
  5
6C0B
  8
CT
 10
14632.1077436707
 20
6056.3629352201669
 30
0.0
 11
14662.80003186734
 21
6056.3629352201669
 31
0.0
  0
CIRCLE
  5
6C0C
  8
FUTO
 10
14647.80003186734
 20
6056.3629352201669
 30
0.0
 40
6.5
  0
LINE
  5
6C0D
  8
FUTO
 10
14617.80003186734
 20
6034.3629352201688
 30
0.0
 11
14617.80003186734
 21
6074.3629352201679
 31
0.0
  0
LINE
  5
6C0E
  8
1
 10
15177.800031867329
 20
5414.3629352201679
 30
0.0
 11
15177.80003186734
 21
5721.3629352201679
 31
0.0
  0
LINE
  5
6C0F
  8
1
 10
15137.800031867329
 20
5414.3629352201679
 30
0.0
 11
15137.80003186734
 21
5722.8669718708852
 31
0.0
  0
DIMENSION
  5
6C10
  8
SP
  2
*D14
 10
15400.911521896271
 20
5374.3629352201688
 30
0.0
 11
15363.411521896271
 21
5724.3629352201724
 31
0.0
 70
     0
 13
15237.80003186734
 23
6074.3629352201697
 33
0.0
 14
15237.80003186734
 24
5374.3629352201688
 34
0.0
 50
90.0
  0
DIMENSION
  5
6C11
  8
SP
  2
*D15
 10
14617.80003186734
 20
5235.4232802762608
 30
0.0
 11
14927.80003186734
 21
5272.9232802762617
 31
0.0
 70
     0
 13
15237.80003186734
 23
5374.3629352201688
 33
0.0
 14
14617.80003186734
 24
5374.3629352201679
 34
0.0
  0
LINE
  5
6C49
  8
1
 10
15137.80003186734
 20
5987.3629352201688
 30
0.0
 11
15137.80003186734
 21
6034.3629352201679
 31
0.0
  0
LINE
  5
6C4A
  8
1
 10
15177.80003186734
 20
5987.3629352201688
 30
0.0
 11
15177.80003186734
 21
6034.3629352201679
 31
0.0
  0
LINE
  5
6C4B
  8
1
 10
14717.80003186734
 20
5967.2290039674872
 30
0.0
 11
14717.80003186734
 21
6034.3629352201679
 31
0.0
  0
DIMENSION
  5
6CB8
  8
SP
  2
*D16
 10
14617.800031867349
 20
3897.6352945090821
 30
0.0
 11
14927.800031867349
 21
3935.1352945090821
 31
0.0
 70
     0
 13
15237.800031867349
 23
4085.6352945090812
 33
0.0
 14
14617.800031867349
 24
4085.6352945090812
 34
0.0
  0
DIMENSION
  5
6CB9
  8
SP
  2
*D17
 10
15237.800031867349
 20
4002.6352945090821
 30
0.0
 11
15082.800031867349
 21
4040.1352945090821
 31
0.0
 70
     0
 13
14927.80003186734
 23
4062.9208645024009
 33
0.0
 14
15237.800031867349
 24
4085.6352945090812
 34
0.0
  0
LINE
  5
6CBA
  8
FUTO
 10
14617.800031867349
 20
4122.6352945090821
 30
0.0
 11
15237.800031867349
 21
4122.6352945090821
 31
0.0
  0
LINE
  5
6CBB
  8
FUTO
 10
14617.800031867349
 20
4125.6352945090821
 30
0.0
 11
15237.800031867349
 21
4125.6352945090821
 31
0.0
  0
LINE
  5
6CBC
  8
FUTO
 10
14617.800031867349
 20
4085.6352945090812
 30
0.0
 11
15237.800031867349
 21
4085.6352945090812
 31
0.0
  0
DIMENSION
  5
6CBD
  8
SP
  2
*D18
 10
14617.800031867349
 20
4002.6352945090821
 30
0.0
 11
14772.800031867349
 21
4040.1352945090821
 31
0.0
 70
     0
 13
14927.80003186734
 23
4062.9208645024009
 33
0.0
 14
14617.800031867349
 24
4085.6352945090812
 34
0.0
  0
LINE
  5
6CBE
  8
FUTO
 10
14677.80003186736
 20
4125.6352945090821
 30
0.0
 11
15177.80003186734
 21
4125.6352945090821
 31
0.0
  0
LINE
  5
6CBF
  8
FUTO
 10
14617.800031867349
 20
4085.6352945090812
 30
0.0
 11
14617.800031867349
 21
4125.6352945090821
 31
0.0
  0
LINE
  5
6CC0
  8
FUTO
 10
15237.800031867349
 20
4085.6352945090812
 30
0.0
 11
15237.800031867349
 21
4125.6352945090821
 31
0.0
  0
DIMENSION
  5
6CC1
  8
SP
  2
*D19
 10
14467.800031867349
 20
4085.6352945090812
 30
0.0
 11
14430.300031867349
 21
3957.4072674473218
 31
0.0
 70
     0
 13
14617.800031867349
 23
4125.6352945090821
 33
0.0
 14
14617.800031867349
 24
4085.6352945090812
 34
0.0
 50
90.0
1001
ACAD
1000
DSTYLE
1002
{
1070
     6
1000
DOT
1002
}
  0
DIMENSION
  5
6CC2
  8
SP
  2
*D20
 10
14467.800031867349
 20
4125.6352945090821
 30
0.0
 11
14414.850159055441
 21
4127.7846943954319
 31
0.0
 70
   128
 13
14677.80003186736
 23
4147.6352945090821
 33
0.0
 14
14617.800031867349
 24
4125.6352945090821
 34
0.0
 50
90.0
1001
ACAD
1000
DSTYLE
1002
{
1070
   287
1070
     5
1070
   279
1070
     2
1070
     7
1000
NONE
1070
     6
1000
NONE
1070
     3
1000
（<>）
1002
}
  0
LINE
  5
6D4B
  8
FUTO
 10
14677.800031867349
 20
4147.6352945090821
 30
0.0
 11
15177.80003186734
 21
4147.6352945090821
 31
0.0
  0
LINE
  5
6D4C
  8
2
 10
15159.800031867329
 20
4114.4213076922242
 30
0.0
 11
15159.800031867329
 21
4161.1393061729141
 31
0.0
  0
DIMENSION
  5
6D7E
  8
SP
  2
*D21
 10
16177.375110139979
 20
3980.6352945090798
 30
0.0
 11
15937.375110139979
 21
4018.1352945090798
 31
0.0
 70
     0
 13
15697.375110139979
 23
4125.6352945090803
 33
0.0
 14
16177.375110139979
 24
4062.9208645024019
 34
0.0
  0
DIMENSION
  5
6D7F
  8
SP
  2
*D22
 10
16397.375110139979
 20
3875.6352945090798
 30
0.0
 11
16047.375110139979
 21
3913.1352945090798
 31
0.0
 70
     0
 13
15697.375110139979
 23
4125.6352945090803
 33
0.0
 14
16397.375110139979
 24
4125.6352945090803
 34
0.0
  0
LINE
  5
6D80
  8
FUTO
 10
15737.375110139979
 20
4125.6352945090803
 30
0.0
 11
16357.375110139979
 21
4125.6352945090803
 31
0.0
  0
LINE
  5
6D81
  8
FUTO
 10
15738.375110139979
 20
4085.6352945090812
 30
0.0
 11
16358.375110139979
 21
4085.6352945090812
 31
0.0
  0
INSERT
  5
6D82
  8
FUTO
  2
L-40-3
 10
15737.375110139979
 20
4125.6352945090803
 30
0.0
 41
-1.0
 50
90.0
  0
DIMENSION
  5
6D83
  8
SP
  2
*D23
 10
16397.375110139979
 20
3980.6352945090798
 30
0.0
 11
16287.375110139979
 21
4018.1352945090798
 31
0.0
 70
     0
 13
16177.375110139979
 23
4062.9208645024019
 33
0.0
 14
16397.375110139979
 24
4125.6352945090803
 34
0.0
  0
INSERT
  5
6D84
  8
FUTO
  2
L-40-3
 10
16357.375110139979
 20
4125.6352945090803
 30
0.0
 50
270.0
  0
LINE
  5
6D85
  8
SL
 10
16379.375110139979
 20
4113.5668186442663
 30
0.0
 11
16379.375110139979
 21
4760.3237206356807
 31
0.0
  0
LINE
  5
6D86
  8
SL
 10
15715.375110139979
 20
4113.5668186442663
 30
0.0
 11
15715.375110139979
 21
4760.3237206356807
 31
0.0
  0
ENDSEC
  0
EOF
