  0
SECTION
  2
HEADER
  9
$ACADVER
  1
AC1009
  9
$INSBASE
 10
0.0
 20
0.0
 30
0.0
  9
$EXTMIN
 10
17345.597715035088
 20
2822.8097917420341
 30
0.0
  9
$EXTMAX
 10
20495.597715035088
 20
7247.8097917420337
 30
0.0
  9
$LIMMIN
 10
0.0
 20
0.0
  9
$LIMMAX
 10
297.0
 20
210.0
  9
$ORTHOMODE
 70
     0
  9
$REGENMODE
 70
     1
  9
$FILLMODE
 70
     1
  9
$QTEXTMODE
 70
     0
  9
$MIRRTEXT
 70
     0
  9
$DRAGMODE
 70
     2
  9
$LTSCALE
 40
75.0
  9
$OSMODE
 70
   545
  9
$ATTMODE
 70
     1
  9
$TEXTSIZE
 40
3.5
  9
$TRACEWID
 40
0.05
  9
$TEXTSTYLE
  7
STANDARD
  9
$CLAYER
  8
SP
  9
$CELTYPE
  6
BYLAYER
  9
$CECOLOR
 62
   256
  9
$DIMSCALE
 40
15.0
  9
$DIMASZ
 40
2.5
  9
$DIMEXO
 40
1.0
  9
$DIMDLI
 40
7.0
  9
$DIMRND
 40
0.0
  9
$DIMDLE
 40
0.0
  9
$DIMEXE
 40
1.0
  9
$DIMTP
 40
0.0
  9
$DIMTM
 40
0.0
  9
$DIMTXT
 40
3.0
  9
$DIMCEN
 40
0.0
  9
$DIMTSZ
 40
0.0
  9
$DIMTOL
 70
     0
  9
$DIMLIM
 70
     0
  9
$DIMTIH
 70
     0
  9
$DIMTOH
 70
     0
  9
$DIMSE1
 70
     0
  9
$DIMSE2
 70
     0
  9
$DIMTAD
 70
     1
  9
$DIMZIN
 70
     8
  9
$DIMBLK
  1

  9
$DIMASO
 70
     1
  9
$DIMSHO
 70
     1
  9
$DIMPOST
  1

  9
$DIMAPOST
  1

  9
$DIMALT
 70
     0
  9
$DIMALTD
 70
     2
  9
$DIMALTF
 40
0.03937
  9
$DIMLFAC
 40
1.0
  9
$DIMTOFL
 70
     1
  9
$DIMTVP
 40
0.0
  9
$DIMTIX
 70
     0
  9
$DIMSOXD
 70
     0
  9
$DIMSAH
 70
     1
  9
$DIMBLK1
  1
OPEN
  9
$DIMBLK2
  1
OPEN
  9
$DIMSTYLE
  2
GOD
  9
$DIMCLRD
 70
   256
  9
$DIMCLRE
 70
   256
  9
$DIMCLRT
 70
   256
  9
$DIMTFAC
 40
1.0
  9
$DIMGAP
 40
1.0
  9
$LUNITS
 70
     2
  9
$LUPREC
 70
     3
  9
$SKETCHINC
 40
0.1
  9
$FILLETRAD
 40
0.0
  9
$AUNITS
 70
     0
  9
$AUPREC
 70
     2
  9
$MENU
  1
acad
  9
$ELEVATION
 40
0.0
  9
$PELEVATION
 40
0.0
  9
$THICKNESS
 40
0.0
  9
$LIMCHECK
 70
     0
  9
$BLIPMODE
 70
     0
  9
$CHAMFERA
 40
0.0
  9
$CHAMFERB
 40
0.0
  9
$SKPOLY
 70
     0
  9
$TDCREATE
 40
2454939.604632488
  9
$TDUPDATE
 40
2455012.4066592478
  9
$TDINDWG
 40
0.1739713657
  9
$TDUSRTIMER
 40
0.1739713657
  9
$USRTIMER
 70
     1
  9
$ANGBASE
 50
0.0
  9
$ANGDIR
 70
     0
  9
$PDMODE
 70
     0
  9
$PDSIZE
 40
1.0
  9
$PLINEWID
 40
0.0
  9
$COORDS
 70
     2
  9
$SPLFRAME
 70
     0
  9
$SPLINETYPE
 70
     6
  9
$SPLINESEGS
 70
     8
  9
$ATTDIA
 70
     0
  9
$ATTREQ
 70
     1
  9
$HANDLING
 70
 22529
  9
$HANDSEED
  5
7481
  9
$SURFTAB1
 70
     6
  9
$SURFTAB2
 70
     6
  9
$SURFTYPE
 70
     6
  9
$SURFU
 70
     6
  9
$SURFV
 70
     6
  9
$UCSNAME
  2

  9
$UCSORG
 10
0.0
 20
0.0
 30
0.0
  9
$UCSXDIR
 10
1.0
 20
0.0
 30
0.0
  9
$UCSYDIR
 10
0.0
 20
1.0
 30
0.0
  9
$PUCSNAME
  2

  9
$PUCSORG
 10
0.0
 20
0.0
 30
0.0
  9
$PUCSXDIR
 10
1.0
 20
0.0
 30
0.0
  9
$PUCSYDIR
 10
0.0
 20
1.0
 30
0.0
  9
$USERI1
 70
     0
  9
$USERI2
 70
     0
  9
$USERI3
 70
     0
  9
$USERI4
 70
     0
  9
$USERI5
 70
     0
  9
$USERR1
 40
0.0
  9
$USERR2
 40
0.0
  9
$USERR3
 40
0.0
  9
$USERR4
 40
0.0
  9
$USERR5
 40
0.0
  9
$WORLDVIEW
 70
     1
  9
$SHADEDGE
 70
     3
  9
$SHADEDIF
 70
    70
  9
$TILEMODE
 70
     1
  9
$MAXACTVP
 70
    16
  9
$PLIMCHECK
 70
     0
  9
$PEXTMIN
 10
1.0000000000000000E+020
 20
1.0000000000000000E+020
 30
1.0000000000000000E+020
  9
$PEXTMAX
 10
-1.0000000000000000E+020
 20
-1.0000000000000000E+020
 30
-1.0000000000000000E+020
  9
$PLIMMIN
 10
0.0
 20
0.0
  9
$PLIMMAX
 10
12.0
 20
9.0
  9
$UNITMODE
 70
     0
  9
$VISRETAIN
 70
     0
  9
$PLINEGEN
 70
     0
  9
$PSLTSCALE
 70
     0
  0
ENDSEC
  0
SECTION
  2
TABLES
  0
TABLE
  2
VPORT
 70
     2
  0
VPORT
  2
*ACTIVE
 70
     0
 10
0.0
 20
0.0
 11
1.0
 21
1.0
 12
18920.805562554298
 22
5035.3455343097394
 13
0.0
 23
0.0
 14
5.0
 24
5.0
 15
0.0
 25
0.0
 16
0.0
 26
0.0
 36
1.0
 17
0.0
 27
0.0
 37
0.0
 40
4461.4963967149361
 41
1.6307901907356941
 42
50.0
 43
0.0
 44
0.0
 50
0.0
 51
0.0
 71
     0
 72
   100
 73
     1
 74
     0
 75
     0
 76
     0
 77
     0
 78
     0
  0
ENDTAB
  0
TABLE
  2
LTYPE
 70
     4
  0
LTYPE
  2
CONTINUOUS
 70
     0
  3
Solid line
 72
    65
 73
     0
 40
0.0
  0
LTYPE
  2
CENTER
 70
     0
  3
____ _ ____ _ ____ _ ____ _ ____ _ ____ _ ____ 
 72
    65
 73
     4
 40
2.0
 49
1.25
 49
-0.25
 49
0.25
 49
-0.25
  0
LTYPE
  2
HIDDEN
 70
     0
  3
__ __ __ __ __ __ __ __ __ __ __ __ __ __ __ __
 72
    65
 73
     2
 40
0.375
 49
0.25
 49
-0.125
  0
LTYPE
  2
PHANTOM
 70
     0
  3
______  __  __  ______  __  __  ______  __  __ 
 72
    65
 73
     6
 40
2.5
 49
1.25
 49
-0.25
 49
0.25
 49
-0.25
 49
0.25
 49
-0.25
  0
ENDTAB
  0
TABLE
  2
LAYER
 70
    13
  0
LAYER
  2
0
 70
     0
 62
     7
  6
CONTINUOUS
  0
LAYER
  2
CT
 70
     0
 62
     3
  6
CENTER
  0
LAYER
  2
FUTO
 70
     0
 62
     4
  6
CONTINUOUS
  0
LAYER
  2
HOSO
 70
     0
 62
     7
  6
CONTINUOUS
  0
LAYER
  2
KL
 70
     0
 62
     7
  6
HIDDEN
  0
LAYER
  2
MOJI
 70
     0
 62
     3
  6
CONTINUOUS
  0
LAYER
  2
SL
 70
     0
 62
     1
  6
PHANTOM
  0
LAYER
  2
SP
 70
     0
 62
     2
  6
CONTINUOUS
  0
LAYER
  2
DEFPOINTS
 70
     0
 62
     7
  6
CONTINUOUS
  0
LAYER
  2
3
 70
     0
 62
    -2
  6
CONTINUOUS
  0
LAYER
  2
2
 70
     0
 62
     3
  6
CENTER
  0
LAYER
  2
1
 70
     0
 62
     4
  6
CONTINUOUS
  0
LAYER
  2
4
 70
     0
 62
     7
  6
CONTINUOUS
  0
ENDTAB
  0
TABLE
  2
STYLE
 70
     1
  0
STYLE
  2
STANDARD
 70
     0
 40
0.0
 41
1.0
 50
15.0
 71
     0
 42
3.5
  3
C:\Program Files\AutoCAD LT\simplex.shx
  4
C:\Program Files\AutoCAD LT\extfont.shx
  0
ENDTAB
  0
TABLE
  2
VIEW
 70
     0
  0
ENDTAB
  0
TABLE
  2
UCS
 70
     0
  0
ENDTAB
  0
TABLE
  2
APPID
 70
     1
  0
APPID
  2
ACAD
 70
     0
  0
ENDTAB
  0
TABLE
  2
DIMSTYLE
 70
     4
  0
DIMSTYLE
  2
STANDARD
 70
     0
  3

  4

  5

  6

  7

 40
1.0
 41
0.18
 42
0.0625
 43
0.38
 44
0.18
 45
0.0
 46
0.0
 47
0.0
 48
0.0
140
0.18
141
0.09
142
0.0
143
25.399999999999999
144
1.0
145
0.0
146
1.0
147
0.09
 71
     0
 72
     0
 73
     1
 74
     1
 75
     0
 76
     0
 77
     0
 78
     0
170
     0
171
     2
172
     0
173
     0
174
     0
175
     0
176
     0
177
     0
178
     0
  0
DIMSTYLE
  2
GOD
 70
     0
  3

  4

  5

  6
OPEN
  7
OPEN
 40
15.0
 41
2.5
 42
1.0
 43
7.0
 44
1.0
 45
0.0
 46
0.0
 47
0.0
 48
0.0
140
3.0
141
0.0
142
0.0
143
0.03937
144
1.0
145
0.0
146
1.0
147
1.0
 71
     0
 72
     0
 73
     0
 74
     0
 75
     0
 76
     0
 77
     1
 78
     8
170
     0
171
     2
172
     1
173
     1
174
     0
175
     0
176
   256
177
   256
178
   256
  0
DIMSTYLE
  2
IGA
 70
     0
  3

  4

  5

  6
OPEN
  7
OPEN
 40
2.0
 41
2.0
 42
0.5
 43
10.0
 44
1.0
 45
0.0
 46
0.0
 47
1.0
 48
1.0
140
3.0
141
0.0
142
0.0
143
0.03937
144
1.0
145
0.0
146
10.0
147
1.0
 71
     0
 72
     0
 73
     0
 74
     0
 75
     0
 76
     0
 77
     1
 78
     8
170
     0
171
     2
172
     0
173
     1
174
     0
175
     0
176
     0
177
     0
178
     0
  0
DIMSTYLE
  2
DIA1
 70
     0
  3

  4

  5

  6

  7

 40
1.0
 41
2.0
 42
1.0
 43
10.0
 44
1.0
 45
0.0
 46
0.0
 47
0.0
 48
0.0
140
2.5
141
0.0
142
0.0
143
25.399999999999999
144
1.0
145
0.0
146
1.0
147
0.09
 71
     0
 72
     0
 73
     0
 74
     0
 75
     0
 76
     0
 77
     1
 78
     8
170
     0
171
     2
172
     1
173
     0
174
     0
175
     0
176
     2
177
     2
178
     2
  0
ENDTAB
  0
ENDSEC
  0
SECTION
  2
BLOCKS
  0
BLOCK
  8
0
  2
$MODEL_SPACE
 70
     0
 10
0.0
 20
0.0
 30
0.0
  3
$MODEL_SPACE
  1

  0
ENDBLK
  5
1B
  8
0
  0
BLOCK
 67
     1
  8
0
  2
$PAPER_SPACE
 70
     0
 10
0.0
 20
0.0
 30
0.0
  3
$PAPER_SPACE
  1

  0
ENDBLK
  5
18
 67
     1
  8
0
  0
BLOCK
  8
0
  2
_OPEN
 70
     0
 10
0.0
 20
0.0
 30
0.0
  3
_OPEN
  1

  0
LINE
  5
1E81
  8
0
  6
BYBLOCK
 62
     0
 10
-1.0
 20
0.1666666666666666
 30
0.0
 11
0.0
 21
0.0
 31
0.0
  0
LINE
  5
1E82
  8
0
  6
BYBLOCK
 62
     0
 10
0.0
 20
0.0
 30
0.0
 11
-1.0
 21
-0.1666666666666666
 31
0.0
  0
LINE
  5
1E83
  8
0
  6
BYBLOCK
 62
     0
 10
0.0
 20
0.0
 30
0.0
 11
-1.0
 21
0.0
 31
0.0
  0
ENDBLK
  5
1E84
  8
0
  0
BLOCK
  8
0
  2
_DOT
 70
     0
 10
0.0
 20
0.0
 30
0.0
  3
_DOT
  1

  0
LINE
  5
1EC3
  8
0
  6
BYBLOCK
 62
     0
 10
0.0
 20
0.0
 30
0.0
 11
-1.0
 21
-0.0000000000000284
 31
0.0
  0
POLYLINE
  5
1EC4
  8
0
  6
BYBLOCK
 62
     0
 66
     1
 10
0.0
 20
0.0
 30
0.0
 70
     1
 40
0.1666666666666666
 41
0.1666666666666666
  0
VERTEX
  5
741F
  8
0
  6
BYBLOCK
 62
     0
 10
-0.0833333333333286
 20
-0.0000000000000284
 30
0.0
 42
1.0
  0
VERTEX
  5
7420
  8
0
  6
BYBLOCK
 62
     0
 10
0.0833333333333286
 20
-0.0000000000000284
 30
0.0
 42
1.0
  0
SEQEND
  5
7421
  8
0
  6
BYBLOCK
 62
     0
  0
ENDBLK
  5
1EB8
  8
0
  0
BLOCK
  8
0
  2
A$C5EBD6DA5
 70
     0
 10
0.0
 20
0.0
 30
0.0
  3
A$C5EBD6DA5
  1

  0
POLYLINE
  5
22E6
  8
1
 66
     1
 10
0.0
 20
0.0
 30
0.0
  0
VERTEX
  5
7422
  8
1
 10
8.0000000000027285
 20
-181.50000000000091
 30
0.0
  0
VERTEX
  5
7423
  8
1
 10
8.0000000000009095
 20
181.50000000000091
 30
0.0
  0
SEQEND
  5
7424
  8
1
  0
LINE
  5
22E7
  8
1
 10
1.0000000000009091
 20
182.50000000000091
 30
0.0
 11
7.0000000000027276
 21
182.50000000000091
 31
0.0
  0
ARC
  5
22E8
  8
1
 10
1.0000000000009091
 20
183.50000000000091
 30
0.0
 40
1.0
 50
180.0
 51
270.0
  0
LINE
  5
22E9
  8
1
 10
1.0000000000009091
 20
-182.50000000000091
 30
0.0
 11
7.0000000000027276
 21
-182.50000000000091
 31
0.0
  0
ARC
  5
22EA
  8
1
 10
1.0000000000009091
 20
-183.50000000000091
 30
0.0
 40
1.0
 50
90.0
 51
180.0
  0
ARC
  5
22EB
  8
1
 10
7.0000000000009086
 20
-181.50000000000091
 30
0.0
 40
1.0
 50
270.0
 51
0.0
  0
ARC
  5
22EC
  8
1
 10
7.0000000000009086
 20
181.50000000000091
 30
0.0
 40
1.0
 50
0.0
 51
90.0
  0
ENDBLK
  5
22EE
  8
0
  0
BLOCK
  8
0
  2
A$C2860434C
 70
     0
 10
0.0
 20
0.0
 30
0.0
  3
A$C2860434C
  1

  0
LINE
  5
3F68
  8
FUTO
 10
46.801270116426167
 20
-0.0000088960860012
 30
0.0
 11
8.5860233121038618
 21
70.149984541374579
 31
0.0
  0
LINE
  5
3F69
  8
FUTO
 10
-0.0000161416137416
 20
53.349984541375299
 30
0.0
 11
1.5999838583866219
 21
53.349984541375299
 31
0.0
  0
LINE
  5
3F6A
  8
FUTO
 10
-0.0000161416137416
 20
53.349984541375299
 30
0.0
 11
-0.0000161416137416
 21
68.549984541374215
 31
0.0
  0
LINE
  5
3F6B
  8
FUTO
 10
1.5999838583866219
 20
53.349984541375299
 30
0.0
 11
1.5999838583866219
 21
68.549984541374215
 31
0.0
  0
LINE
  5
3F6C
  8
FUTO
 10
3.1999838583869851
 20
70.149984541374579
 30
0.0
 11
91.769214627616734
 21
70.149984541370941
 31
0.0
  0
LINE
  5
3F6D
  8
FUTO
 10
3.1999838583869851
 20
71.749984541373124
 30
0.0
 11
92.794855653257414
 21
71.749984541373124
 31
0.0
  0
ARC
  5
3F6E
  8
FUTO
 10
3.1999838583869851
 20
68.549984541374215
 30
0.0
 40
3.2000000000000002
 50
90.0
 51
180.0
  0
ARC
  5
3F6F
  8
FUTO
 10
3.1999838583869851
 20
68.549984541374215
 30
0.0
 40
1.6000000000000001
 50
90.0
 51
180.0
  0
ENDBLK
  5
3F71
  8
0
  0
BLOCK
  8
0
  2
_NONE
 70
     0
 10
0.0
 20
0.0
 30
0.0
  3
_NONE
  1

  0
ENDBLK
  5
5AD6
  8
0
  0
BLOCK
  8
0
  2
L-40-3
 70
     0
 10
0.0
 20
0.0
 30
0.0
  3
L-40-3
  1

  0
ARC
  5
6273
  8
0
 10
7.5
 20
7.5
 30
0.0
 40
4.5
 50
180.0
 51
270.0
  0
LINE
  5
6274
  8
0
 10
0.0
 20
0.0
 30
0.0
 11
0.0
 21
40.0
 31
0.0
  0
LINE
  5
6275
  8
0
 10
7.5
 20
3.0
 30
0.0
 11
38.0
 21
3.0
 31
0.0
  0
LINE
  5
6276
  8
0
 10
0.0
 20
0.0
 30
0.0
 11
40.0
 21
0.0
 31
0.0
  0
LINE
  5
6277
  8
0
 10
40.0
 20
0.0
 30
0.0
 11
40.0
 21
1.0
 31
0.0
  0
ARC
  5
6278
  8
0
 10
38.0
 20
1.0
 30
0.0
 40
2.0
 50
0.0
 51
90.0
  0
LINE
  5
6279
  8
0
 10
3.0
 20
7.5
 30
0.0
 11
3.0
 21
38.0
 31
0.0
  0
LINE
  5
627A
  8
0
 10
0.0
 20
40.0
 30
0.0
 11
1.0
 21
40.0
 31
0.0
  0
ARC
  5
627B
  8
0
 10
1.0
 20
38.0
 30
0.0
 40
2.0
 50
0.0
 51
90.0
  0
ENDBLK
  5
627D
  8
0
  0
BLOCK
  8
0
  2
*D40
 70
     1
 10
0.0
 20
0.0
 30
0.0
  3
*D40
  1

  0
LINE
  5
7317
  8
SP
 10
18624.766637942921
 20
5318.4798131814014
 30
0.0
 11
18624.766637942921
 21
5179.5401582374943
 31
0.0
  0
LINE
  5
7318
  8
SP
 10
18004.766637942921
 20
5318.4798131814014
 30
0.0
 11
18004.766637942921
 21
5179.5401582374943
 31
0.0
  0
LINE
  5
7319
  8
SP
 10
18587.266637942921
 20
5194.5401582374943
 30
0.0
 11
18042.266637942921
 21
5194.5401582374943
 31
0.0
  0
INSERT
  5
731A
  8
SP
  2
_OPEN
 10
18624.766637942921
 20
5194.5401582374943
 30
0.0
 41
37.5
 42
37.5
 43
37.5
  0
INSERT
  5
731B
  8
SP
  2
_OPEN
 10
18004.766637942921
 20
5194.5401582374943
 30
0.0
 41
37.5
 42
37.5
 43
37.5
 50
180.0
  0
TEXT
  5
731C
  8
SP
 10
18251.16772667654
 20
5209.5401582374943
 30
0.0
 40
45.0
  1
620
 51
15.0
  0
POINT
  5
731D
  8
DEFPOINTS
 62
     0
 10
18624.766637942921
 20
5333.4798131814014
 30
0.0
  0
POINT
  5
731E
  8
DEFPOINTS
 62
     0
 10
18004.766637942921
 20
5333.4798131813995
 30
0.0
  0
POINT
  5
731F
  8
DEFPOINTS
 62
     0
 10
18004.766637942921
 20
5194.5401582374943
 30
0.0
  0
ENDBLK
  5
712D
  8
0
  0
BLOCK
  8
0
  2
*D41
 70
     1
 10
0.0
 20
0.0
 30
0.0
  3
*D41
  1

  0
LINE
  5
72C6
  8
SP
 10
18314.766637942928
 20
4007.0377424636331
 30
0.0
 11
18314.766637942928
 21
3946.7521724703151
 31
0.0
  0
LINE
  5
72C7
  8
SP
 10
18624.766637942939
 20
4051.7521724703138
 30
0.0
 11
18624.766637942939
 21
3946.7521724703151
 31
0.0
  0
LINE
  5
72C8
  8
SP
 10
18352.266637942928
 20
3961.7521724703138
 30
0.0
 11
18587.266637942939
 21
3961.7521724703138
 31
0.0
  0
INSERT
  5
72C9
  8
SP
  2
_OPEN
 10
18314.766637942928
 20
3961.7521724703138
 30
0.0
 41
37.5
 42
37.5
 43
37.5
 50
180.0
  0
INSERT
  5
72CA
  8
SP
  2
_OPEN
 10
18624.766637942939
 20
3961.7521724703138
 30
0.0
 41
37.5
 42
37.5
 43
37.5
  0
TEXT
  5
72CB
  8
SP
 10
18411.237781113228
 20
3976.7521724703151
 30
0.0
 40
45.0
  1
310
 51
15.0
  0
POINT
  5
72CC
  8
DEFPOINTS
 62
     0
 10
18314.766637942928
 20
4022.0377424636331
 30
0.0
  0
POINT
  5
72CD
  8
DEFPOINTS
 62
     0
 10
18624.766637942939
 20
4066.7521724703151
 30
0.0
  0
POINT
  5
72CE
  8
DEFPOINTS
 62
     0
 10
18624.766637942939
 20
3961.7521724703138
 30
0.0
  0
ENDBLK
  5
7139
  8
0
  0
BLOCK
  8
0
  2
*D42
 70
     1
 10
0.0
 20
0.0
 30
0.0
  3
*D42
  1

  0
LINE
  5
72BD
  8
SP
 10
18624.766637942939
 20
4051.7521724703138
 30
0.0
 11
18624.766637942939
 21
3841.7521724703138
 31
0.0
  0
LINE
  5
72BE
  8
SP
 10
18004.766637942928
 20
4051.7521724703138
 30
0.0
 11
18004.766637942928
 21
3841.7521724703138
 31
0.0
  0
LINE
  5
72BF
  8
SP
 10
18587.266637942939
 20
3856.7521724703151
 30
0.0
 11
18042.266637942939
 21
3856.7521724703151
 31
0.0
  0
INSERT
  5
72C0
  8
SP
  2
_OPEN
 10
18624.766637942939
 20
3856.7521724703151
 30
0.0
 41
37.5
 42
37.5
 43
37.5
  0
INSERT
  5
72C1
  8
SP
  2
_OPEN
 10
18004.766637942928
 20
3856.7521724703151
 30
0.0
 41
37.5
 42
37.5
 43
37.5
 50
180.0
  0
TEXT
  5
72C2
  8
SP
 10
18251.167726676551
 20
3871.7521724703138
 30
0.0
 40
45.0
  1
620
 51
15.0
  0
POINT
  5
72C3
  8
DEFPOINTS
 62
     0
 10
18624.766637942939
 20
4066.7521724703151
 30
0.0
  0
POINT
  5
72C4
  8
DEFPOINTS
 62
     0
 10
18004.766637942928
 20
4066.7521724703151
 30
0.0
  0
POINT
  5
72C5
  8
DEFPOINTS
 62
     0
 10
18004.766637942928
 20
3856.7521724703151
 30
0.0
  0
ENDBLK
  5
7145
  8
0
  0
BLOCK
  8
0
  2
*D43
 70
     1
 10
0.0
 20
0.0
 30
0.0
  3
*D43
  1

  0
LINE
  5
7290
  8
SP
 10
18314.766637942928
 20
4749.7506984243983
 30
0.0
 11
18314.766637942928
 21
4813.0074141532223
 31
0.0
  0
LINE
  5
7291
  8
SP
 10
18578.997919576759
 20
4450.0817496579266
 30
0.0
 11
18578.997919576759
 21
4813.0074141532223
 31
0.0
  0
LINE
  5
7292
  8
SP
 10
18352.266637942928
 20
4798.0074141532223
 30
0.0
 11
18541.497919576759
 21
4798.0074141532223
 31
0.0
  0
INSERT
  5
7293
  8
SP
  2
_OPEN
 10
18314.766637942928
 20
4798.0074141532223
 30
0.0
 41
37.5
 42
37.5
 43
37.5
 50
180.0
  0
INSERT
  5
7294
  8
SP
  2
_OPEN
 10
18578.997919576759
 20
4798.0074141532223
 30
0.0
 41
37.5
 42
37.5
 43
37.5
  0
TEXT
  5
7295
  8
SP
 10
18385.944088388042
 20
4813.0074141532223
 30
0.0
 40
45.0
  1
264
 51
15.0
  0
POINT
  5
7296
  8
DEFPOINTS
 62
     0
 10
18314.766637942928
 20
4734.7506984243973
 30
0.0
  0
POINT
  5
7297
  8
DEFPOINTS
 62
     0
 10
18578.997919576759
 20
4435.0817496579284
 30
0.0
  0
POINT
  5
7298
  8
DEFPOINTS
 62
     0
 10
18578.997919576759
 20
4798.0074141532223
 30
0.0
  0
ENDBLK
  5
7151
  8
0
  0
BLOCK
  8
0
  2
*D44
 70
     1
 10
0.0
 20
0.0
 30
0.0
  3
*D44
  1

  0
LINE
  5
72B4
  8
SP
 10
18314.766637942928
 20
4749.7506984243983
 30
0.0
 11
18314.766637942928
 21
4813.0074141532223
 31
0.0
  0
LINE
  5
72B5
  8
SP
 10
18064.766637942928
 20
4498.2521724703183
 30
0.0
 11
18064.766637942928
 21
4813.0074141532223
 31
0.0
  0
LINE
  5
72B6
  8
SP
 10
18277.266637942928
 20
4798.0074141532223
 30
0.0
 11
18102.266637942928
 21
4798.0074141532223
 31
0.0
  0
INSERT
  5
72B7
  8
SP
  2
_OPEN
 10
18314.766637942928
 20
4798.0074141532223
 30
0.0
 41
37.5
 42
37.5
 43
37.5
  0
INSERT
  5
72B8
  8
SP
  2
_OPEN
 10
18064.766637942928
 20
4798.0074141532223
 30
0.0
 41
37.5
 42
37.5
 43
37.5
 50
180.0
  0
TEXT
  5
72B9
  8
SP
 10
18128.10042050936
 20
4813.0074141532223
 30
0.0
 40
45.0
  1
250
 51
15.0
  0
POINT
  5
72BA
  8
DEFPOINTS
 62
     0
 10
18314.766637942928
 20
4734.7506984243973
 30
0.0
  0
POINT
  5
72BB
  8
DEFPOINTS
 62
     0
 10
18064.766637942928
 20
4483.2521724703183
 30
0.0
  0
POINT
  5
72BC
  8
DEFPOINTS
 62
     0
 10
18064.766637942928
 20
4798.0074141532223
 30
0.0
  0
ENDBLK
  5
715D
  8
0
  0
BLOCK
  8
0
  2
*D45
 70
     1
 10
0.0
 20
0.0
 30
0.0
  3
*D45
  1

  0
LINE
  5
72D8
  8
SP
 10
17994.823128095351
 20
4461.7521724703147
 30
0.0
 11
17944.766637942921
 21
4461.7521724703147
 31
0.0
  0
LINE
  5
72D9
  8
SP
 10
18049.766637942921
 20
4146.7521724703174
 30
0.0
 11
17944.766637942921
 21
4146.7521724703174
 31
0.0
  0
LINE
  5
72DA
  8
SP
 10
17959.766637942921
 20
4424.2521724703138
 30
0.0
 11
17959.766637942921
 21
4184.2521724703174
 31
0.0
  0
INSERT
  5
72DB
  8
SP
  2
_OPEN
 10
17959.766637942921
 20
4461.7521724703147
 30
0.0
 41
37.5
 42
37.5
 43
37.5
 50
90.0
  0
INSERT
  5
72DC
  8
SP
  2
_OPEN
 10
17959.766637942921
 20
4146.7521724703174
 30
0.0
 41
37.5
 42
37.5
 43
37.5
 50
270.0
  0
TEXT
  5
72DD
  8
SP
 10
17944.766637942921
 20
4245.6463905301989
 30
0.0
 40
45.0
  1
315
 50
90.0
 51
15.0
  0
POINT
  5
72DE
  8
DEFPOINTS
 62
     0
 10
18009.823128095351
 20
4461.7521724703147
 30
0.0
  0
POINT
  5
72DF
  8
DEFPOINTS
 62
     0
 10
18064.766637942921
 20
4146.7521724703174
 30
0.0
  0
POINT
  5
72E0
  8
DEFPOINTS
 62
     0
 10
17959.766637942921
 20
4146.7521724703174
 30
0.0
  0
ENDBLK
  5
7169
  8
0
  0
BLOCK
  8
0
  2
*D46
 70
     1
 10
0.0
 20
0.0
 30
0.0
  3
*D46
  1

  0
LINE
  5
72CF
  8
SP
 10
17989.766637942939
 20
4066.7521724703151
 30
0.0
 11
17839.766637942928
 21
4066.7521724703151
 31
0.0
  0
LINE
  5
72D0
  8
SP
 10
17994.823128095351
 20
4461.7521724703147
 30
0.0
 11
17839.766637942928
 21
4461.7521724703147
 31
0.0
  0
LINE
  5
72D1
  8
SP
 10
17854.766637942928
 20
4104.2521724703147
 30
0.0
 11
17854.766637942928
 21
4424.2521724703138
 31
0.0
  0
INSERT
  5
72D2
  8
SP
  2
_OPEN
 10
17854.766637942928
 20
4066.7521724703151
 30
0.0
 41
37.5
 42
37.5
 43
37.5
 50
270.0
  0
INSERT
  5
72D3
  8
SP
  2
_OPEN
 10
17854.766637942928
 20
4461.7521724703147
 30
0.0
 41
37.5
 42
37.5
 43
37.5
 50
90.0
  0
TEXT
  5
72D4
  8
SP
 10
17839.766637942928
 20
4201.3606762444833
 30
0.0
 40
45.0
  1
395
 50
90.0
 51
15.0
  0
POINT
  5
72D5
  8
DEFPOINTS
 62
     0
 10
18004.766637942928
 20
4066.7521724703151
 30
0.0
  0
POINT
  5
72D6
  8
DEFPOINTS
 62
     0
 10
18009.823128095351
 20
4461.7521724703147
 30
0.0
  0
POINT
  5
72D7
  8
DEFPOINTS
 62
     0
 10
17854.766637942928
 20
4461.7521724703147
 30
0.0
  0
ENDBLK
  5
7175
  8
0
  0
BLOCK
  8
0
  2
*D47
 70
     1
 10
0.0
 20
0.0
 30
0.0
  3
*D47
  1

  0
LINE
  5
72E1
  8
SP
 10
18314.766637942928
 20
4007.0377424636331
 30
0.0
 11
18314.766637942928
 21
3946.7521724703151
 31
0.0
  0
LINE
  5
72E2
  8
SP
 10
18004.766637942928
 20
4051.7521724703138
 30
0.0
 11
18004.766637942928
 21
3946.7521724703151
 31
0.0
  0
LINE
  5
72E3
  8
SP
 10
18277.266637942928
 20
3961.7521724703138
 30
0.0
 11
18042.266637942939
 21
3961.7521724703138
 31
0.0
  0
INSERT
  5
72E4
  8
SP
  2
_OPEN
 10
18314.766637942928
 20
3961.7521724703138
 30
0.0
 41
37.5
 42
37.5
 43
37.5
  0
INSERT
  5
72E5
  8
SP
  2
_OPEN
 10
18004.766637942928
 20
3961.7521724703138
 30
0.0
 41
37.5
 42
37.5
 43
37.5
 50
180.0
  0
TEXT
  5
72E6
  8
SP
 10
18101.237781113228
 20
3976.7521724703151
 30
0.0
 40
45.0
  1
310
 51
15.0
  0
POINT
  5
72E7
  8
DEFPOINTS
 62
     0
 10
18314.766637942928
 20
4022.0377424636331
 30
0.0
  0
POINT
  5
72E8
  8
DEFPOINTS
 62
     0
 10
18004.766637942928
 20
4066.7521724703151
 30
0.0
  0
POINT
  5
72E9
  8
DEFPOINTS
 62
     0
 10
18004.766637942928
 20
3961.7521724703138
 30
0.0
  0
ENDBLK
  5
7181
  8
0
  0
BLOCK
  8
0
  2
*D48
 70
     1
 10
0.0
 20
0.0
 30
0.0
  3
*D48
  1

  0
LINE
  5
72EA
  8
SP
 10
17994.823128095351
 20
4461.7521724703147
 30
0.0
 11
17839.766637942928
 21
4461.7521724703147
 31
0.0
  0
LINE
  5
72EB
  8
SP
 10
18322.620341807731
 20
4684.0393925867857
 30
0.0
 11
17839.766637942928
 21
4684.0393925867857
 31
0.0
  0
LINE
  5
72EC
  8
SP
 10
17854.766637942928
 20
4499.2521724703138
 30
0.0
 11
17854.766637942928
 21
4646.5393925867857
 31
0.0
  0
INSERT
  5
72ED
  8
SP
  2
_OPEN
 10
17854.766637942928
 20
4461.7521724703147
 30
0.0
 41
37.5
 42
37.5
 43
37.5
 50
270.0
  0
INSERT
  5
72EE
  8
SP
  2
_OPEN
 10
17854.766637942928
 20
4684.0393925867857
 30
0.0
 41
37.5
 42
37.5
 43
37.5
 50
90.0
  0
TEXT
  5
72EF
  8
SP
 10
17839.766637942928
 20
4511.2295650949864
 30
0.0
 40
45.0
  1
222
 50
90.0
 51
15.0
  0
POINT
  5
72F0
  8
DEFPOINTS
 62
     0
 10
18009.823128095351
 20
4461.7521724703147
 30
0.0
  0
POINT
  5
72F1
  8
DEFPOINTS
 62
     0
 10
18337.620341807731
 20
4684.0393925867857
 30
0.0
  0
POINT
  5
72F2
  8
DEFPOINTS
 62
     0
 10
17854.766637942928
 20
4684.0393925867857
 30
0.0
  0
ENDBLK
  5
718D
  8
0
  0
BLOCK
  8
0
  2
*D49
 70
     1
 10
0.0
 20
0.0
 30
0.0
  3
*D49
  1

  0
LINE
  5
7287
  8
SP
 10
18639.766637942921
 20
6033.4798131814023
 30
0.0
 11
18802.878127971861
 21
6033.4798131814023
 31
0.0
  0
LINE
  5
7288
  8
SP
 10
18639.766637942921
 20
5333.4798131814014
 30
0.0
 11
18802.878127971861
 21
5333.4798131814014
 31
0.0
  0
LINE
  5
7289
  8
SP
 10
18787.878127971861
 20
5995.9798131814032
 30
0.0
 11
18787.878127971861
 21
5370.9798131814014
 31
0.0
  0
INSERT
  5
728A
  8
SP
  2
_OPEN
 10
18787.878127971861
 20
6033.4798131814023
 30
0.0
 41
37.5
 42
37.5
 43
37.5
 50
90.0
  0
INSERT
  5
728B
  8
SP
  2
_OPEN
 10
18787.878127971861
 20
5333.4798131814014
 30
0.0
 41
37.5
 42
37.5
 43
37.5
 50
270.0
  0
TEXT
  5
728C
  8
SP
 10
18772.878127971861
 20
5617.5278814621242
 30
0.0
 40
45.0
  1
700
 50
90.0
 51
15.0
  0
POINT
  5
728D
  8
DEFPOINTS
 62
     0
 10
18624.766637942921
 20
6033.4798131814023
 30
0.0
  0
POINT
  5
728E
  8
DEFPOINTS
 62
     0
 10
18624.766637942921
 20
5333.4798131814014
 30
0.0
  0
POINT
  5
728F
  8
DEFPOINTS
 62
     0
 10
18787.878127971861
 20
5333.4798131814014
 30
0.0
  0
ENDBLK
  5
7199
  8
0
  0
BLOCK
  8
0
  2
*D50
 70
     1
 10
0.0
 20
0.0
 30
0.0
  3
*D50
  1

  0
LINE
  5
72AB
  8
SP
 10
19651.614065486421
 20
4874.0147449719016
 30
0.0
 11
19651.614065486421
 21
4909.0393925867866
 31
0.0
  0
LINE
  5
72AC
  8
SP
 10
19231.614065487411
 20
4560.3331127833681
 30
0.0
 11
19231.614065487411
 21
4909.0393925867866
 31
0.0
  0
LINE
  5
72AD
  8
SP
 10
19614.114065486421
 20
4894.0393925867866
 30
0.0
 11
19269.114065487411
 21
4894.0393925867866
 31
0.0
  0
INSERT
  5
72AE
  8
SP
  2
_OPEN
 10
19651.614065486421
 20
4894.0393925867866
 30
0.0
 41
37.5
 42
37.5
 43
37.5
  0
INSERT
  5
72AF
  8
SP
  2
_OPEN
 10
19231.614065487411
 20
4894.0393925867866
 30
0.0
 41
37.5
 42
37.5
 43
37.5
 50
180.0
  0
TEXT
  5
72B0
  8
SP
 10
19341.249512876318
 20
4909.0393925867866
 30
0.0
 40
45.0
  1
（420）
 51
15.0
  0
POINT
  5
72B1
  8
DEFPOINTS
 62
     0
 10
19651.614065486421
 20
4859.0147449719016
 30
0.0
  0
POINT
  5
72B2
  8
DEFPOINTS
 62
     0
 10
19231.614065487411
 20
4545.3331127833671
 30
0.0
  0
POINT
  5
72B3
  8
DEFPOINTS
 62
     0
 10
19231.614065487411
 20
4894.0393925867866
 30
0.0
  0
ENDBLK
  5
71A5
  8
0
  0
BLOCK
  8
0
  2
*D51
 70
     1
 10
0.0
 20
0.0
 30
0.0
  3
*D51
  1

  0
LINE
  5
72A2
  8
SP
 10
19651.614065486421
 20
4874.0147449719016
 30
0.0
 11
19651.614065486421
 21
4909.0393925867866
 31
0.0
  0
LINE
  5
72A3
  8
SP
 10
19772.614065486421
 20
4658.2521724703111
 30
0.0
 11
19772.614065486421
 21
4909.0393925867866
 31
0.0
  0
LINE
  5
72A4
  8
SP
 10
19689.114065486421
 20
4894.0393925867866
 30
0.0
 11
19735.114065486421
 21
4894.0393925867866
 31
0.0
  0
INSERT
  5
72A5
  8
SP
  2
_OPEN
 10
19651.614065486421
 20
4894.0393925867866
 30
0.0
 41
37.5
 42
37.5
 43
37.5
 50
180.0
  0
INSERT
  5
72A6
  8
SP
  2
_OPEN
 10
19772.614065486421
 20
4894.0393925867866
 30
0.0
 41
37.5
 42
37.5
 43
37.5
  0
TEXT
  5
72A7
  8
SP
 10
19657.276134080301
 20
4909.0393925867866
 30
0.0
 40
45.0
  1
121
 51
15.0
  0
POINT
  5
72A8
  8
DEFPOINTS
 62
     0
 10
19651.614065486421
 20
4859.0147449719016
 30
0.0
  0
POINT
  5
72A9
  8
DEFPOINTS
 62
     0
 10
19772.614065486421
 20
4643.2521724703111
 30
0.0
  0
POINT
  5
72AA
  8
DEFPOINTS
 62
     0
 10
19772.614065486421
 20
4894.0393925867866
 30
0.0
  0
ENDBLK
  5
71B1
  8
0
  0
BLOCK
  8
0
  2
*D52
 70
     1
 10
0.0
 20
0.0
 30
0.0
  3
*D52
  1

  0
LINE
  5
7299
  8
SP
 10
19539.614065486421
 20
4684.0393925867884
 30
0.0
 11
19539.614065486421
 21
4804.0393925867866
 31
0.0
  0
LINE
  5
729A
  8
SP
 10
19763.61406548641
 20
4684.0393925867857
 30
0.0
 11
19763.61406548641
 21
4804.0393925867866
 31
0.0
  0
LINE
  5
729B
  8
SP
 10
19577.114065486421
 20
4789.0393925867857
 30
0.0
 11
19726.11406548641
 21
4789.0393925867857
 31
0.0
  0
INSERT
  5
729C
  8
SP
  2
_OPEN
 10
19539.614065486421
 20
4789.0393925867857
 30
0.0
 41
37.5
 42
37.5
 43
37.5
 50
180.0
  0
INSERT
  5
729D
  8
SP
  2
_OPEN
 10
19763.61406548641
 20
4789.0393925867857
 30
0.0
 41
37.5
 42
37.5
 43
37.5
  0
TEXT
  5
729E
  8
SP
 10
19590.675875114612
 20
4804.0393925867866
 30
0.0
 40
45.0
  1
224
 51
15.0
  0
POINT
  5
729F
  8
DEFPOINTS
 62
     0
 10
19539.614065486421
 20
4669.0393925867866
 30
0.0
  0
POINT
  5
72A0
  8
DEFPOINTS
 62
     0
 10
19763.61406548641
 20
4669.0393925867857
 30
0.0
  0
POINT
  5
72A1
  8
DEFPOINTS
 62
     0
 10
19763.61406548641
 20
4789.0393925867857
 30
0.0
  0
ENDBLK
  5
71BD
  8
0
  0
BLOCK
  8
0
  2
*D53
 70
     1
 10
0.0
 20
0.0
 30
0.0
  3
*D53
  1

  0
LINE
  5
72FC
  8
SP
 10
19171.614065486421
 20
4091.752172470312
 30
0.0
 11
19171.614065486421
 21
3946.7521724703111
 31
0.0
  0
LINE
  5
72FD
  8
SP
 10
19651.614065486421
 20
4007.0377424636322
 30
0.0
 11
19651.614065486421
 21
3946.7521724703111
 31
0.0
  0
LINE
  5
72FE
  8
SP
 10
19209.114065486421
 20
3961.752172470312
 30
0.0
 11
19614.114065486421
 21
3961.752172470312
 31
0.0
  0
INSERT
  5
72FF
  8
SP
  2
_OPEN
 10
19171.614065486421
 20
3961.752172470312
 30
0.0
 41
37.5
 42
37.5
 43
37.5
 50
180.0
  0
INSERT
  5
7300
  8
SP
  2
_OPEN
 10
19651.614065486421
 20
3961.752172470312
 30
0.0
 41
37.5
 42
37.5
 43
37.5
  0
TEXT
  5
7301
  8
SP
 10
19347.938229109619
 20
3976.752172470312
 30
0.0
 40
45.0
  1
480
 51
15.0
  0
POINT
  5
7302
  8
DEFPOINTS
 62
     0
 10
19171.614065486421
 20
4106.7521724703111
 30
0.0
  0
POINT
  5
7303
  8
DEFPOINTS
 62
     0
 10
19651.614065486421
 20
4022.0377424636308
 30
0.0
  0
POINT
  5
7304
  8
DEFPOINTS
 62
     0
 10
19651.614065486421
 20
3961.752172470312
 30
0.0
  0
ENDBLK
  5
71C9
  8
0
  0
BLOCK
  8
0
  2
*D54
 70
     1
 10
0.0
 20
0.0
 30
0.0
  3
*D54
  1

  0
LINE
  5
72F3
  8
SP
 10
19171.614065486421
 20
4091.752172470312
 30
0.0
 11
19171.614065486421
 21
3841.752172470312
 31
0.0
  0
LINE
  5
72F4
  8
SP
 10
19871.614065486421
 20
4091.752172470312
 30
0.0
 11
19871.614065486421
 21
3841.752172470312
 31
0.0
  0
LINE
  5
72F5
  8
SP
 10
19209.114065486421
 20
3856.7521724703111
 30
0.0
 11
19834.114065486421
 21
3856.7521724703111
 31
0.0
  0
INSERT
  5
72F6
  8
SP
  2
_OPEN
 10
19171.614065486421
 20
3856.7521724703111
 30
0.0
 41
37.5
 42
37.5
 43
37.5
 50
180.0
  0
INSERT
  5
72F7
  8
SP
  2
_OPEN
 10
19871.614065486421
 20
3856.7521724703111
 30
0.0
 41
37.5
 42
37.5
 43
37.5
  0
TEXT
  5
72F8
  8
SP
 10
19455.662133767139
 20
3871.752172470312
 30
0.0
 40
45.0
  1
700
 51
15.0
  0
POINT
  5
72F9
  8
DEFPOINTS
 62
     0
 10
19171.614065486421
 20
4106.7521724703111
 30
0.0
  0
POINT
  5
72FA
  8
DEFPOINTS
 62
     0
 10
19871.614065486421
 20
4106.7521724703111
 30
0.0
  0
POINT
  5
72FB
  8
DEFPOINTS
 62
     0
 10
19871.614065486421
 20
3856.7521724703111
 30
0.0
  0
ENDBLK
  5
71D5
  8
0
  0
BLOCK
  8
0
  2
*D55
 70
     1
 10
0.0
 20
0.0
 30
0.0
  3
*D55
  1

  0
LINE
  5
7305
  8
SP
 10
19651.614065486421
 20
4007.0377424636322
 30
0.0
 11
19651.614065486421
 21
3946.7521724703111
 31
0.0
  0
LINE
  5
7306
  8
SP
 10
19871.614065486421
 20
4091.752172470312
 30
0.0
 11
19871.614065486421
 21
3946.7521724703111
 31
0.0
  0
LINE
  5
7307
  8
SP
 10
19689.114065486421
 20
3961.752172470312
 30
0.0
 11
19834.114065486421
 21
3961.752172470312
 31
0.0
  0
INSERT
  5
7308
  8
SP
  2
_OPEN
 10
19651.614065486421
 20
3961.752172470312
 30
0.0
 41
37.5
 42
37.5
 43
37.5
 50
180.0
  0
INSERT
  5
7309
  8
SP
  2
_OPEN
 10
19871.614065486421
 20
3961.752172470312
 30
0.0
 41
37.5
 42
37.5
 43
37.5
  0
TEXT
  5
730A
  8
SP
 10
19699.94784805286
 20
3976.752172470312
 30
0.0
 40
45.0
  1
220
 51
15.0
  0
POINT
  5
730B
  8
DEFPOINTS
 62
     0
 10
19651.614065486421
 20
4022.0377424636308
 30
0.0
  0
POINT
  5
730C
  8
DEFPOINTS
 62
     0
 10
19871.614065486421
 20
4106.7521724703111
 30
0.0
  0
POINT
  5
730D
  8
DEFPOINTS
 62
     0
 10
19871.614065486421
 20
3961.752172470312
 30
0.0
  0
ENDBLK
  5
71E1
  8
0
  0
BLOCK
  8
0
  2
*D56
 70
     1
 10
0.0
 20
0.0
 30
0.0
  3
*D56
  1

  0
LINE
  5
730E
  8
SP
 10
19787.614065486421
 20
4619.252172470312
 30
0.0
 11
19993.044050910779
 21
4619.252172470312
 31
0.0
  0
LINE
  5
730F
  8
SP
 10
19787.614065486421
 20
4304.252172470312
 30
0.0
 11
19993.044050910779
 21
4304.252172470312
 31
0.0
  0
LINE
  5
7310
  8
SP
 10
19978.044050910779
 20
4581.752172470312
 30
0.0
 11
19978.044050910779
 21
4341.752172470312
 31
0.0
  0
INSERT
  5
7311
  8
SP
  2
_OPEN
 10
19978.044050910779
 20
4619.252172470312
 30
0.0
 41
37.5
 42
37.5
 43
37.5
 50
90.0
  0
INSERT
  5
7312
  8
SP
  2
_OPEN
 10
19978.044050910779
 20
4304.252172470312
 30
0.0
 41
37.5
 42
37.5
 43
37.5
 50
270.0
  0
TEXT
  5
7313
  8
SP
 10
19963.044050910779
 20
4383.8043631552764
 30
0.0
 40
45.0
  1
φ315
 50
90.0
 51
15.0
  0
POINT
  5
7314
  8
DEFPOINTS
 62
     0
 10
19772.614065486421
 20
4619.252172470312
 30
0.0
  0
POINT
  5
7315
  8
DEFPOINTS
 62
     0
 10
19772.614065486421
 20
4304.252172470312
 30
0.0
  0
POINT
  5
7316
  8
DEFPOINTS
 62
     0
 10
19978.044050910779
 20
4304.252172470312
 30
0.0
  0
ENDBLK
  5
71ED
  8
0
  0
ENDSEC
  0
SECTION
  2
ENTITIES
  0
LINE
  5
2CF0
  8
4
 10
17345.597715035088
 20
2822.8097917420341
 30
0.0
 11
17345.597715035088
 21
7247.8097917420337
 31
0.0
  0
LINE
  5
2CF1
  8
4
 10
20495.597715035088
 20
7247.8097917420337
 30
0.0
 11
20495.597715035088
 21
2822.8097917420341
 31
0.0
  0
LINE
  5
2CF2
  8
4
 10
20495.597715035088
 20
2822.8097917420341
 30
0.0
 11
17345.597715035088
 21
2822.8097917420341
 31
0.0
  0
TEXT
  5
2D01
  8
4
 10
18825.579458413311
 20
3298.5491681619478
 30
0.0
 40
75.0
  1
MF＃2-7
  0
TEXT
  5
2D03
  8
4
 10
18812.115833266591
 20
3456.6674451783861
 30
0.0
 40
75.0
  1
ミツヤ多翼送風機
  0
LINE
  5
2D04
  8
4
 10
18020.597715035088
 20
3572.8097917420332
 30
0.0
 11
19820.597715035088
 21
3572.8097917420332
 31
0.0
  0
LINE
  5
2D05
  8
4
 10
18020.597715035088
 20
3422.8097917420332
 30
0.0
 11
19820.597715035088
 21
3422.8097917420332
 31
0.0
  0
LINE
  5
2D06
  8
4
 10
18020.597715035088
 20
3272.8097917420332
 30
0.0
 11
19820.597715035088
 21
3272.8097917420332
 31
0.0
  0
LINE
  5
2D09
  8
4
 10
18020.597715035088
 20
3572.8097917420332
 30
0.0
 11
18020.597715035088
 21
3272.8097917420332
 31
0.0
  0
TEXT
  5
2D0A
  8
4
 10
18074.984874072288
 20
3305.2775268400501
 30
0.0
 40
75.0
  1
機器型番
  0
TEXT
  5
2D0B
  8
4
 10
18078.350836305439
 20
3470.124330541953
 30
0.0
 40
75.0
  1
機器名称
  0
LINE
  5
2D0C
  8
4
 10
18770.597715035088
 20
3572.8097917420332
 30
0.0
 11
18770.597715035088
 21
3272.8097917420332
 31
0.0
  0
LINE
  5
2D0D
  8
4
 10
19820.597715035088
 20
3572.8097917420332
 30
0.0
 11
19820.597715035088
 21
3272.8097917420332
 31
0.0
  0
TEXT
  5
2D0E
  8
4
 10
17818.481087225049
 20
6396.2890080615489
 30
0.0
 40
80.999999999999986
  1
右回転左横向
  0
LINE
  5
2D0F
  8
4
 10
17345.597715035088
 20
7247.8097917420337
 30
0.0
 11
20495.597715035088
 21
7247.8097917420337
 31
0.0
  0
LINE
  5
2D10
  8
4
 10
17720.597715035088
 20
6826.9229231392419
 30
0.0
 11
20120.597715035088
 21
6826.9229231392419
 31
0.0
  0
LINE
  5
2D11
  8
4
 10
17720.597715035088
 20
6526.9229231392419
 30
0.0
 11
20120.597715035088
 21
6526.9229231392419
 31
0.0
  0
LINE
  5
2E4B
  8
4
 10
17720.597715035088
 20
6826.9229231392419
 30
0.0
 11
17720.597715035088
 21
6526.9229231392419
 31
0.0
  0
LINE
  5
2F6C
  8
4
 10
20120.597715035088
 20
6844.7051664301353
 30
0.0
 11
19506.523848574889
 21
6844.7051664301353
 31
0.0
  0
LINE
  5
2F6D
  8
4
 10
19506.523848574889
 20
7002.7881840666632
 30
0.0
 11
20120.597715035088
 21
7002.7881840666632
 31
0.0
  0
TEXT
  5
2F6F
  8
4
 10
18077.69207095238
 20
6623.6312560409797
 30
0.0
 40
108.0
  1
遠心式片吸込直動形多翼ファン
  0
LINE
  5
2F7D
  8
4
 10
19506.523848574889
 20
6844.7051664301353
 30
0.0
 11
19506.523848574889
 21
7002.7881840666632
 31
0.0
  0
TEXT
  5
2F7E
  8
4
 10
19549.052053909021
 20
6881.9014139849969
 30
0.0
 40
84.000000000000014
  1
No.
  0
LINE
  5
2F7F
  8
4
 10
20120.597715035088
 20
6826.9229231392419
 30
0.0
 11
20120.597715035088
 21
6526.9229231392419
 31
0.0
  0
LINE
  5
2F80
  8
4
 10
20120.597715035088
 20
7002.7881840666632
 30
0.0
 11
20120.597715035088
 21
6844.7051664301353
 31
0.0
  0
LINE
  5
2F81
  8
4
 10
20495.597715035088
 20
7247.8097917420337
 30
0.0
 11
20495.597715035088
 21
7247.8097917420337
 31
0.0
  0
TEXT
  5
614D
  8
4
 10
19524.12014238468
 20
6397.9530537408073
 30
0.0
 40
80.999999999999986
  1
縮尺：1/15
  0
TEXT
  5
614E
  8
4
 10
18602.32611553579
 20
6397.9530537408073
 30
0.0
 40
80.999999999999986
  1
天井吊ベッド型
  0
DIMENSION
  5
6FD1
  8
SP
  2
*D40
 10
18004.766637942921
 20
5194.5401582374943
 30
0.0
 11
18314.766637942921
 21
5232.0401582374943
 31
0.0
 70
     0
 13
18624.766637942921
 23
5333.4798131814014
 33
0.0
 14
18004.766637942921
 24
5333.4798131813995
 34
0.0
  0
LINE
  5
6FD2
  8
FUTO
 10
18004.766637942921
 20
6033.4798131814014
 30
0.0
 11
18624.766637942921
 21
6033.4798131814023
 31
0.0
1001
ACAD
1000
ASC_BOUNDS
1002
{
1070
    19
1005
0
1005
0
1002
}
  0
LINE
  5
6FD3
  8
FUTO
 10
18004.766637942921
 20
5993.4798131814014
 30
0.0
 11
18624.766637942921
 21
5993.4798131814014
 31
0.0
1001
ACAD
1000
ASC_BOUNDS
1002
{
1070
    19
1005
0
1005
0
1002
}
  0
LINE
  5
6FD4
  8
FUTO
 10
18004.766637942921
 20
5333.4798131813995
 30
0.0
 11
18624.766637942921
 21
5333.4798131814014
 31
0.0
1001
ACAD
1000
ASC_BOUNDS
1002
{
1070
    19
1005
0
1005
0
1002
}
  0
LINE
  5
6FD5
  8
FUTO
 10
18004.766637942921
 20
5373.4798131814014
 30
0.0
 11
18624.766637942921
 21
5373.4798131814014
 31
0.0
1001
ACAD
1000
ASC_BOUNDS
1002
{
1070
    19
1005
0
1005
0
1002
}
  0
DIMENSION
  5
6FD6
  8
SP
  2
*D41
 10
18624.766637942939
 20
3961.7521724703138
 30
0.0
 11
18469.766637942928
 21
3999.2521724703138
 31
0.0
 70
     0
 13
18314.766637942928
 23
4022.0377424636331
 33
0.0
 14
18624.766637942939
 24
4066.7521724703151
 34
0.0
  0
DIMENSION
  5
6FD7
  8
SP
  2
*D42
 10
18004.766637942928
 20
3856.7521724703151
 30
0.0
 11
18314.766637942939
 21
3894.2521724703151
 31
0.0
 70
     0
 13
18624.766637942939
 23
4066.7521724703151
 33
0.0
 14
18004.766637942928
 24
4066.7521724703151
 34
0.0
  0
LINE
  5
6FD8
  8
FUTO
 10
18004.766637942928
 20
4066.7521724703151
 30
0.0
 11
18624.766637942939
 21
4066.7521724703151
 31
0.0
  0
LINE
  5
6FD9
  8
FUTO
 10
18004.766637942928
 20
4106.7521724703138
 30
0.0
 11
18624.766637942939
 21
4106.7521724703138
 31
0.0
  0
LINE
  5
6FDA
  8
FUTO
 10
18004.766637942928
 20
4103.7521724703138
 30
0.0
 11
18624.766637942939
 21
4103.7521724703138
 31
0.0
  0
ARC
  5
6FDB
  8
1
 10
18563.766637942921
 20
5911.4798131814014
 30
0.0
 40
15.0
 50
0.0
 51
90.0
  0
ARC
  5
6FDC
  8
1
 10
18563.766637942921
 20
5715.4798131814014
 30
0.0
 40
15.0
 50
270.0
 51
0.0
  0
LINE
  5
6FDD
  8
2
 10
18640.129766788828
 20
5813.4798131814023
 30
0.0
 11
18017.145089676429
 21
5813.4798131814023
 31
0.0
1001
ACAD
1000
ASC_BOUNDS
1002
{
1070
    19
1005
0
1005
0
1002
}
  0
POLYLINE
  5
6FDE
  8
1
 66
     1
 10
0.0
 20
0.0
 30
0.0
  0
VERTEX
  5
7425
  8
1
 10
18517.674168466769
 20
4256.7521724703138
 30
0.0
 42
0.2162148363065116
  0
VERTEX
  5
7426
  8
1
 10
18573.816849219569
 20
4489.649989278365
 30
0.0
 42
0.1298622998199493
  0
VERTEX
  5
7427
  8
1
 10
18519.766637942928
 20
4601.001977462387
 30
0.0
 42
0.3153658436290411
  0
SEQEND
  5
7428
  8
1
  0
POLYLINE
  5
6FDF
  8
1
 66
     1
 10
0.0
 20
0.0
 30
0.0
  0
VERTEX
  5
7429
  8
1
 10
18525.559215335841
 20
4250.601885007708
 30
0.0
 42
0.2162335382726867
  0
VERTEX
  5
742A
  8
1
 10
18583.634127752601
 20
4491.5530096182883
 30
0.0
 42
0.1298839697351506
  0
VERTEX
  5
742B
  8
1
 10
18527.34909371562
 20
4607.5216679807554
 30
0.0
 42
0.1298839697351506
  0
SEQEND
  5
742C
  8
1
  0
LINE
  5
6FE0
  8
2
 10
18009.823128095351
 20
4461.7521724703147
 30
0.0
 11
18604.068663446578
 21
4461.7521724703147
 31
0.0
  0
DIMENSION
  5
6FE1
  8
SP
  2
*D43
 10
18578.997919576759
 20
4798.0074141532223
 30
0.0
 11
18446.88227875984
 21
4835.5074141532223
 31
0.0
 70
     0
 13
18314.766637942928
 23
4734.7506984243973
 33
0.0
 14
18578.997919576759
 24
4435.0817496579284
 34
0.0
 50
180.0
1001
ACAD
1000
DSTYLE
1002
{
1070
   271
1070
     0
1002
}
  0
LINE
  5
6FE2
  8
1
 10
18064.766637942921
 20
5373.4798131814014
 30
0.0
 11
18064.766637942921
 21
5993.4798131814014
 31
0.0
  0
LINE
  5
6FE3
  8
2
 10
18314.766637942921
 20
5327.2997865061361
 30
0.0
 11
18314.766637942921
 21
5954.4811656273678
 31
0.0
  0
LINE
  5
6FE4
  8
1
 10
18065.966637942922
 20
5946.4798131814014
 30
0.0
 11
18065.966637942922
 21
5680.4798131814023
 31
0.0
  0
LINE
  5
6FE5
  8
1
 10
18084.766637942921
 20
5907.679813181403
 30
0.0
 11
18084.766637942921
 21
5719.2798131814016
 31
0.0
  0
LINE
  5
6FE6
  8
1
 10
18064.766637942921
 20
5946.4798131813995
 30
0.0
 11
18064.766637942921
 21
5680.4798131814023
 31
0.0
  0
POLYLINE
  5
6FE7
  8
1
 66
     1
 10
0.0
 20
0.0
 30
0.0
  0
VERTEX
  5
742D
  8
1
 10
18431.445052042709
 20
4676.0424279598701
 30
0.0
 42
0.1343314877425494
  0
VERTEX
  5
742E
  8
1
 10
18298.448508949172
 20
4690.9954592965114
 30
0.0
 42
0.3163064660587118
  0
VERTEX
  5
742F
  8
1
 10
18121.56871782499
 20
4520.0067967754931
 30
0.0
 42
0.3163064660587118
  0
SEQEND
  5
7430
  8
1
  0
LINE
  5
6FE8
  8
2
 10
18314.766637942928
 20
4022.0377424636331
 30
0.0
 11
18314.766637942928
 21
4734.7506984243973
 31
0.0
  0
DIMENSION
  5
6FE9
  8
SP
  2
*D44
 10
18064.766637942928
 20
4798.0074141532223
 30
0.0
 11
18189.766637942928
 21
4835.5074141532223
 31
0.0
 70
     0
 13
18314.766637942928
 23
4734.7506984243973
 33
0.0
 14
18064.766637942928
 24
4483.2521724703183
 34
0.0
 50
180.0
  0
LINE
  5
6FEA
  8
1
 10
18102.46663794294
 20
4544.8521724703151
 30
0.0
 11
18102.46663794294
 21
4109.0521724703121
 31
0.0
  0
LINE
  5
6FEB
  8
1
 10
18104.766637942939
 20
4546.6744946289409
 30
0.0
 11
18104.766637942939
 21
4106.7521724703138
 31
0.0
  0
LINE
  5
6FEC
  8
1
 10
18524.766637942921
 20
4546.6744946289409
 30
0.0
 11
18524.766637942928
 21
4106.7521724703138
 31
0.0
  0
LINE
  5
6FED
  8
1
 10
18527.06663794292
 20
4544.8521724703151
 30
0.0
 11
18527.06663794292
 21
4109.0521724703121
 31
0.0
  0
LINE
  5
6FEE
  8
1
 10
18069.06663794292
 20
4148.4521724703181
 30
0.0
 11
18084.766637942921
 21
4164.1521724703189
 31
0.0
  0
LINE
  5
6FEF
  8
FUTO
 10
18065.966637942922
 20
4125.2521724703174
 30
0.0
 11
18065.966637942929
 21
4483.2521724703183
 31
0.0
  0
LINE
  5
6FF0
  8
FUTO
 10
18064.766637942928
 20
4483.2521724703183
 30
0.0
 11
18064.766637942921
 21
4125.2521724703183
 31
0.0
  0
POLYLINE
  5
6FF1
  8
1
 66
     1
 10
0.0
 20
0.0
 30
0.0
  0
VERTEX
  5
7431
  8
1
 10
18084.766637942921
 20
4136.7521724703156
 30
0.0
  0
VERTEX
  5
7432
  8
1
 10
18289.278814681609
 20
4136.752172470312
 30
0.0
 42
0.2269714708976296
  0
VERTEX
  5
7433
  8
1
 10
18525.477357678348
 20
4250.4983545861433
 30
0.0
  0
SEQEND
  5
7434
  8
1
  0
POLYLINE
  5
6FF2
  8
1
 66
     1
 10
0.0
 20
0.0
 30
0.0
  0
VERTEX
  5
7435
  8
1
 10
18064.766637942921
 20
4146.7521724703174
 30
0.0
  0
VERTEX
  5
7436
  8
1
 10
18289.266637942921
 20
4146.752172470312
 30
0.0
 42
0.2269607506063405
  0
VERTEX
  5
7437
  8
1
 10
18517.674168466769
 20
4256.7521724703138
 30
0.0
 42
0.129402372482195
  0
SEQEND
  5
7438
  8
1
  0
DIMENSION
  5
6FF3
  8
SP
  2
*D45
 10
17959.766637942921
 20
4146.7521724703174
 30
0.0
 11
17922.266637942921
 21
4304.2521724703192
 31
0.0
 70
     0
 13
18009.823128095351
 23
4461.7521724703147
 33
0.0
 14
18064.766637942921
 24
4146.7521724703174
 34
0.0
 50
90.0
  0
DIMENSION
  5
6FF4
  8
SP
  2
*D46
 10
17854.766637942928
 20
4461.7521724703147
 30
0.0
 11
17817.266637942928
 21
4264.2521724703174
 31
0.0
 70
     0
 13
18004.766637942928
 23
4066.7521724703151
 33
0.0
 14
18009.823128095351
 24
4461.7521724703147
 34
0.0
 50
90.0
  0
DIMENSION
  5
6FF5
  8
SP
  2
*D47
 10
18004.766637942928
 20
3961.7521724703138
 30
0.0
 11
18159.766637942928
 21
3999.2521724703138
 31
0.0
 70
     0
 13
18314.766637942928
 23
4022.0377424636331
 33
0.0
 14
18004.766637942928
 24
4066.7521724703151
 34
0.0
  0
LINE
  5
6FF6
  8
FUTO
 10
18064.766637942939
 20
4106.7521724703138
 30
0.0
 11
18564.766637942928
 21
4106.7521724703138
 31
0.0
  0
LINE
  5
6FF7
  8
1
 10
18064.766637942939
 20
4109.0521724703131
 30
0.0
 11
18102.46663794294
 21
4109.0521724703131
 31
0.0
  0
LINE
  5
6FF8
  8
FUTO
 10
18004.766637942928
 20
4066.7521724703151
 30
0.0
 11
18004.766637942928
 21
4106.7521724703138
 31
0.0
  0
LINE
  5
6FF9
  8
2
 10
18082.766637942928
 20
4088.5652911854868
 30
0.0
 11
18082.766637942928
 21
4120.2561841341467
 31
0.0
  0
LINE
  5
6FFA
  8
1
 10
18064.766637942939
 20
4109.0521724703131
 30
0.0
 11
18064.766637942939
 21
4106.7521724703138
 31
0.0
  0
LINE
  5
6FFB
  8
FUTO
 10
18064.766637942921
 20
4125.2521724703183
 30
0.0
 11
18065.966637942922
 21
4125.2521724703174
 31
0.0
  0
ARC
  5
6FFC
  8
1
 10
18069.76663794291
 20
4147.7521724703174
 30
0.0
 40
1.0
 50
126.8698976457554
 51
270.0
  0
POLYLINE
  5
6FFD
  8
CT
 66
     1
 10
0.0
 20
0.0
 30
0.0
  0
VERTEX
  5
7439
  8
CT
 10
18059.703474727921
 20
4135.2521724703192
 30
0.0
  0
VERTEX
  5
743A
  8
CT
 10
18071.971785011869
 20
4135.2521724703174
 30
0.0
  0
SEQEND
  5
743B
  8
CT
  0
LINE
  5
6FFE
  8
FUTO
 10
18084.766637942921
 20
4136.7521724703156
 30
0.0
 11
18084.766637942921
 21
4146.7521724703174
 31
0.0
  0
LINE
  5
6FFF
  8
2
 10
18546.766637942928
 20
4088.5652911854868
 30
0.0
 11
18546.766637942928
 21
4120.2561841341467
 31
0.0
  0
LINE
  5
7000
  8
1
 10
18564.766637942921
 20
4109.0521724703131
 30
0.0
 11
18564.766637942928
 21
4106.7521724703138
 31
0.0
  0
LINE
  5
7001
  8
1
 10
18564.766637942921
 20
4109.0521724703131
 30
0.0
 11
18527.06663794292
 21
4109.0521724703131
 31
0.0
  0
LINE
  5
7002
  8
1
 10
18224.766637942921
 20
4666.7521724703147
 30
0.0
 11
18102.46663794294
 21
4544.8521724703151
 31
0.0
  0
LINE
  5
7003
  8
1
 10
18144.766637942939
 20
4321.7521724703138
 30
0.0
 11
18314.766637942939
 21
4321.7521724703138
 31
0.0
  0
LINE
  5
7004
  8
1
 10
18104.766637942939
 20
4361.7521724703138
 30
0.0
 11
18524.766637942921
 21
4361.7521724703129
 31
0.0
  0
POLYLINE
  5
7005
  8
1
 66
     1
 10
0.0
 20
0.0
 30
0.0
  0
VERTEX
  5
743C
  8
1
 10
18427.744896243461
 20
4666.7521724703129
 30
0.0
 42
0.1343280102757561
  0
VERTEX
  5
743D
  8
1
 10
18299.996612662639
 20
4681.1160166795189
 30
0.0
 42
0.3163019945347412
  0
VERTEX
  5
743E
  8
1
 10
18131.389451400511
 20
4518.1218055185864
 30
0.0
 42
0.3153658436290411
  0
SEQEND
  5
743F
  8
1
  0
LINE
  5
7006
  8
1
 10
18147.78092365721
 20
4321.7521724703138
 30
0.0
 11
18314.766637942928
 21
4321.7521724703138
 31
0.0
  0
CIRCLE
  5
7007
  8
CT
 10
18314.766637942921
 20
4461.7521724703147
 30
0.0
 40
169.0
  0
LINE
  5
7008
  8
1
 10
18112.06663794292
 20
4361.7521724703138
 30
0.0
 11
18517.466637942922
 21
4361.7521724703138
 31
0.0
  0
DIMENSION
  5
7009
  8
SP
  2
*D48
 10
17854.766637942928
 20
4684.0393925867857
 30
0.0
 11
17817.266637942928
 21
4572.8957825285534
 31
0.0
 70
     0
 13
18009.823128095351
 23
4461.7521724703147
 33
0.0
 14
18337.620341807731
 24
4684.0393925867857
 34
0.0
 50
90.0
1001
ACAD
1000
DSTYLE
1002
{
1070
   271
1070
     0
1002
}
  0
LINE
  5
700A
  8
1
 10
18084.766637942921
 20
4164.1521724703189
 30
0.0
 11
18084.766637942928
 21
4445.3521724703178
 31
0.0
  0
LINE
  5
700B
  8
1
 10
18144.766637942939
 20
4361.7521724703138
 30
0.0
 11
18144.766637942939
 21
4161.7521724703138
 31
0.0
  0
LINE
  5
700C
  8
1
 10
18149.76663794291
 20
4320.0841724703141
 30
0.0
 11
18149.76663794291
 21
4164.9521724703136
 31
0.0
  0
LINE
  5
700D
  8
1
 10
18104.766637942939
 20
4161.7521724703138
 30
0.0
 11
18144.766637942939
 21
4161.7521724703138
 31
0.0
  0
LINE
  5
700E
  8
1
 10
18112.06663794292
 20
4164.9521724703136
 30
0.0
 11
18149.76663794291
 21
4164.9521724703136
 31
0.0
  0
POINT
  5
700F
  8
1
 10
18064.76663794291
 20
4304.252172470312
 30
0.0
  0
POINT
  5
7010
  8
1
 10
18064.76663794291
 20
4304.252172470312
 30
0.0
  0
LINE
  5
7011
  8
FUTO
 10
18104.766637942939
 20
4361.7521724703138
 30
0.0
 11
18144.766637942939
 21
4321.7521724703138
 31
0.0
  0
LINE
  5
7012
  8
1
 10
18112.06663794292
 20
4351.7521724703147
 30
0.0
 11
18149.76663794291
 21
4320.084172470315
 31
0.0
  0
LINE
  5
7013
  8
CT
 10
18143.314803776619
 20
4415.8117919646102
 30
0.0
 11
18158.651426916891
 21
4419.9212277496654
 31
0.0
  0
CIRCLE
  5
7014
  8
1
 10
18151.52517330007
 20
4418.0117538479826
 30
0.0
 40
4.0
  0
LINE
  5
7015
  8
1
 10
18064.766637942928
 20
4462.7521724703174
 30
0.0
 11
18085.766637942928
 21
4462.7521724703174
 31
0.0
  0
LINE
  5
7016
  8
1
 10
18069.066637942931
 20
4461.0521724703203
 30
0.0
 11
18084.766637942928
 21
4445.3521724703214
 31
0.0
  0
POLYLINE
  5
7017
  8
FUTO
 66
     1
 10
0.0
 20
0.0
 30
0.0
  0
VERTEX
  5
7440
  8
FUTO
 10
18064.766637942928
 20
4483.2521724703183
 30
0.0
  0
VERTEX
  5
7441
  8
FUTO
 10
18065.966637942929
 20
4483.2521724703183
 30
0.0
  0
SEQEND
  5
7442
  8
FUTO
  0
ARC
  5
7018
  8
1
 10
18069.766637942928
 20
4461.7521724703174
 30
0.0
 40
1.0
 50
90.0
 51
233.13010235422891
  0
POINT
  5
7019
  8
1
 10
18064.766637942928
 20
4461.7521724703174
 30
0.0
  0
POLYLINE
  5
701A
  8
CT
 66
     1
 10
0.0
 20
0.0
 30
0.0
  0
VERTEX
  5
7443
  8
CT
 10
18059.703474727929
 20
4473.2521724703183
 30
0.0
  0
VERTEX
  5
7444
  8
CT
 10
18071.971785011869
 20
4473.2521724703174
 30
0.0
  0
SEQEND
  5
7445
  8
CT
  0
LINE
  5
701B
  8
1
 10
18084.766637942928
 20
4462.7521724703229
 30
0.0
 11
18084.766637942928
 21
4466.0719825971546
 31
0.0
  0
ARC
  5
701C
  8
1
 10
18094.766637942928
 20
4466.0719825971482
 30
0.0
 40
10.0
 50
123.4418717894868
 51
180.0
  0
POLYLINE
  5
701D
  8
1
 66
     1
 10
0.0
 20
0.0
 30
0.0
  0
VERTEX
  5
7446
  8
1
 10
18109.766637942928
 20
4478.6072641238898
 30
0.0
 42
0.1315967463597435
  0
VERTEX
  5
7447
  8
1
 10
18131.394177699822
 20
4518.1466024783304
 30
0.0
 42
0.2200089805681688
  0
SEQEND
  5
7448
  8
1
  0
POLYLINE
  5
701E
  8
1
 66
     1
 10
0.0
 20
0.0
 30
0.0
  0
VERTEX
  5
7449
  8
1
 10
18109.766637942928
 20
4494.3065877627214
 30
0.0
 42
0.0941668855597806
  0
VERTEX
  5
744A
  8
1
 10
18121.678042251271
 20
4520.5123395612209
 30
0.0
 42
0.1987366729981355
  0
SEQEND
  5
744B
  8
1
  0
LINE
  5
701F
  8
CT
 10
18143.314803776619
 20
4507.6925529760038
 30
0.0
 11
18158.65142691688
 21
4503.5831171909476
 31
0.0
  0
CIRCLE
  5
7020
  8
1
 10
18151.52517330007
 20
4505.4925910926322
 30
0.0
 40
4.0
  0
POLYLINE
  5
7021
  8
1
 66
     1
 10
0.0
 20
0.0
 30
0.0
  0
VERTEX
  5
744C
  8
1
 10
18085.766637942928
 20
4462.7521724703174
 30
0.0
 42
0.101266720201501
  0
VERTEX
  5
744D
  8
1
 10
18091.26604842969
 20
4463.8775274539257
 30
0.0
 42
0.0681921917069782
  0
VERTEX
  5
744E
  8
1
 10
18109.766637942928
 20
4478.6072641238898
 30
0.0
 42
0.2200089805681688
  0
SEQEND
  5
744F
  8
1
  0
POLYLINE
  5
7022
  8
1
 66
     1
 10
0.0
 20
0.0
 30
0.0
  0
VERTEX
  5
7450
  8
1
 10
18089.25573093948
 20
4474.4164360843097
 30
0.0
 42
0.0934525219043797
  0
VERTEX
  5
7451
  8
1
 10
18109.766637942928
 20
4494.3065877627214
 30
0.0
 42
0.1987366729981355
  0
SEQEND
  5
7452
  8
1
  0
ARC
  5
7023
  8
1
 10
18314.766637942921
 20
4461.7521724703147
 30
0.0
 40
100.8
 50
285.79709999999181
 51
0.0
  0
ARC
  5
7024
  8
1
 10
18314.766637942921
 20
4461.7521724703147
 30
0.0
 40
100.8
 50
0.0
 51
254.5722999998826
  0
LINE
  5
7025
  8
1
 10
18484.766637942921
 20
4321.7521724703138
 30
0.0
 11
18314.766637942939
 21
4321.7521724703138
 31
0.0
  0
LINE
  5
7026
  8
1
 10
18481.752352228628
 20
4321.7521724703138
 30
0.0
 11
18314.766637942928
 21
4321.7521724703138
 31
0.0
  0
ARC
  5
7027
  8
1
 10
18376.766637942921
 20
4371.7521724703147
 30
0.0
 40
2.0
 50
90.0
 51
180.0
  0
LINE
  5
7028
  8
1
 10
18375.348737942921
 20
4380.4838724703131
 30
0.0
 11
18381.201637942919
 21
4374.630872470314
 31
0.0
  0
LINE
  5
7029
  8
1
 10
18414.766637942921
 20
4361.7521724703138
 30
0.0
 11
18374.766637942921
 21
4361.7521724703138
 31
0.0
  0
LINE
  5
702A
  8
CT
 10
18268.826257437231
 20
4290.3003383040059
 30
0.0
 11
18272.935693222291
 21
4305.6369614442729
 31
0.0
  0
LINE
  5
702B
  8
CT
 10
18360.707018448629
 20
4290.3003383040086
 30
0.0
 11
18356.59758266358
 21
4305.6369614442747
 31
0.0
  0
CIRCLE
  5
702C
  8
1
 10
18271.026219320611
 20
4298.5107078274632
 30
0.0
 40
4.0
  0
LINE
  5
702D
  8
CT
 10
18234.766637942921
 20
4375.1326724703131
 30
0.0
 11
18234.766637942921
 21
4357.785572470314
 31
0.0
  0
LINE
  5
702E
  8
1
 10
18254.564137942911
 20
4380.8633724703141
 30
0.0
 11
18248.33163794292
 21
4374.630872470314
 31
0.0
  0
ARC
  5
702F
  8
1
 10
18246.21023794292
 20
4376.7521724703147
 30
0.0
 40
3.0
 50
270.0
 51
314.99999999992627
  0
ARC
  5
7030
  8
1
 10
18252.766637942921
 20
4371.7521724703147
 30
0.0
 40
2.0
 50
0.0
 51
90.0
  0
LINE
  5
7031
  8
1
 10
18254.766637942921
 20
4361.7521724703138
 30
0.0
 11
18254.766637942921
 21
4371.7521724703147
 31
0.0
  0
LINE
  5
7032
  8
1
 10
18240.766637942921
 20
4361.7521724703138
 30
0.0
 11
18240.766637942921
 21
4373.7521724703147
 31
0.0
  0
LINE
  5
7033
  8
1
 10
18228.766637942921
 20
4373.7521724703147
 30
0.0
 11
18228.766637942921
 21
4361.7521724703138
 31
0.0
  0
ARC
  5
7034
  8
1
 10
18216.766637942921
 20
4371.7521724703147
 30
0.0
 40
2.0
 50
90.0
 51
180.0
  0
LINE
  5
7035
  8
1
 10
18214.766637942921
 20
4361.7521724703138
 30
0.0
 11
18214.766637942921
 21
4371.7521724703147
 31
0.0
  0
LINE
  5
7036
  8
1
 10
18215.658837942919
 20
4373.4202724703146
 30
0.0
 11
18232.059637942919
 21
4404.0822724703139
 31
0.0
  0
LINE
  5
7037
  8
1
 10
18214.766637942921
 20
4361.7521724703138
 30
0.0
 11
18254.766637942921
 21
4361.7521724703138
 31
0.0
  0
LINE
  5
7038
  8
1
 10
18216.766637942921
 20
4373.7521724703147
 30
0.0
 11
18252.766637942921
 21
4373.7521724703147
 31
0.0
  0
LINE
  5
7039
  8
CT
 10
18189.25518428232
 20
4336.2407188096977
 30
0.0
 11
18200.482371637529
 21
4347.4679061649103
 31
0.0
  0
CIRCLE
  5
703A
  8
1
 10
18195.265591922402
 20
4342.2511264497844
 30
0.0
 40
4.0
  0
LINE
  5
703B
  8
1
 10
18261.31623794292
 20
4376.3018724703143
 30
0.0
 11
18254.766637942921
 21
4369.7521724703147
 31
0.0
  0
LINE
  5
703C
  8
1
 10
18368.51323794292
 20
4376.0056724703154
 30
0.0
 11
18374.766637942921
 21
4369.7521724703147
 31
0.0
  0
LINE
  5
703D
  8
1
 10
18374.766637942921
 20
4361.7521724703138
 30
0.0
 11
18374.766637942921
 21
4371.7521724703147
 31
0.0
  0
CIRCLE
  5
703E
  8
1
 10
18358.50705656526
 20
4298.5107078274668
 30
0.0
 40
4.0
  0
LINE
  5
703F
  8
1
 10
18342.38433794292
 20
4364.7521724703138
 30
0.0
 11
18287.49723794292
 21
4364.7521724703138
 31
0.0
  0
LINE
  5
7040
  8
1
 10
18484.766637942921
 20
4361.7521724703138
 30
0.0
 11
18484.766637942928
 21
4161.7521724703138
 31
0.0
  0
LINE
  5
7041
  8
1
 10
18479.76663794291
 20
4320.0841724703141
 30
0.0
 11
18479.766637942921
 21
4164.9521724703136
 31
0.0
  0
LINE
  5
7042
  8
1
 10
18524.766637942921
 20
4161.7521724703138
 30
0.0
 11
18484.766637942928
 21
4161.7521724703138
 31
0.0
  0
LINE
  5
7043
  8
1
 10
18479.766637942921
 20
4164.9521724703136
 30
0.0
 11
18517.466637942922
 21
4164.9521724703136
 31
0.0
  0
LINE
  5
7044
  8
CT
 10
18486.218472109231
 20
4415.8117919646247
 30
0.0
 11
18470.881848968969
 21
4419.9212277496808
 31
0.0
  0
LINE
  5
7045
  8
CT
 10
18440.278091603541
 20
4336.2407188097086
 30
0.0
 11
18429.050904248332
 21
4347.4679061649213
 31
0.0
  0
CIRCLE
  5
7046
  8
1
 10
18434.267683963459
 20
4342.2511264497944
 30
0.0
 40
4.0
  0
LINE
  5
7047
  8
CT
 10
18394.766637942921
 20
4375.1326724703131
 30
0.0
 11
18394.766637942921
 21
4357.785572470314
 31
0.0
  0
ARC
  5
7048
  8
1
 10
18412.766637942921
 20
4371.7521724703147
 30
0.0
 40
2.0
 50
0.0
 51
90.0
  0
LINE
  5
7049
  8
1
 10
18400.766637942921
 20
4373.7521724703147
 30
0.0
 11
18400.766637942921
 21
4361.7521724703138
 31
0.0
  0
LINE
  5
704A
  8
1
 10
18414.766637942921
 20
4361.7521724703138
 30
0.0
 11
18414.766637942921
 21
4371.7521724703147
 31
0.0
  0
LINE
  5
704B
  8
1
 10
18388.766637942921
 20
4361.7521724703138
 30
0.0
 11
18388.766637942921
 21
4373.7521724703147
 31
0.0
  0
LINE
  5
704C
  8
1
 10
18413.675837942908
 20
4373.7916724703136
 30
0.0
 11
18397.55713794292
 21
4403.9259724703143
 31
0.0
  0
ARC
  5
704D
  8
1
 10
18383.323037942919
 20
4376.7521724703147
 30
0.0
 40
3.0
 50
225.0000000000737
 51
270.0
  0
LINE
  5
704E
  8
1
 10
18412.766637942921
 20
4373.7521724703147
 30
0.0
 11
18376.766637942921
 21
4373.7521724703147
 31
0.0
  0
LINE
  5
704F
  8
FUTO
 10
18524.766637942921
 20
4361.7521724703138
 30
0.0
 11
18484.766637942921
 21
4321.7521724703138
 31
0.0
  0
CIRCLE
  5
7050
  8
1
 10
18478.00810258578
 20
4418.0117538479972
 30
0.0
 40
4.0
  0
LINE
  5
7051
  8
1
 10
18517.466637942922
 20
4351.7521724703147
 30
0.0
 11
18479.76663794291
 21
4320.0841724703141
 31
0.0
  0
LINE
  5
7052
  8
1
 10
18224.766637942921
 20
4666.7521724703156
 30
0.0
 11
18404.766637942921
 21
4666.7521724703147
 31
0.0
  0
LINE
  5
7053
  8
CT
 10
18268.82625743722
 20
4633.2040066366199
 30
0.0
 11
18272.935693222269
 21
4617.8673834963529
 31
0.0
  0
CIRCLE
  5
7054
  8
1
 10
18271.026219320589
 20
4624.9936371131625
 30
0.0
 40
4.0
  0
LINE
  5
7055
  8
CT
 10
18189.255184282309
 20
4587.263626130919
 30
0.0
 11
18200.482371637521
 21
4576.0364387757072
 31
0.0
  0
CIRCLE
  5
7056
  8
1
 10
18195.265591922391
 20
4581.2532184908332
 30
0.0
 40
4.0
  0
LINE
  5
7057
  8
CT
 10
18360.707018448611
 20
4633.2040066366244
 30
0.0
 11
18356.597582663559
 21
4617.8673834963574
 31
0.0
  0
CIRCLE
  5
7058
  8
1
 10
18358.507056565239
 20
4624.9936371131671
 30
0.0
 40
4.0
  0
LINE
  5
7059
  8
1
 10
18404.766637942921
 20
4666.7521724703147
 30
0.0
 11
18527.06663794292
 21
4544.8521724703151
 31
0.0
  0
LINE
  5
705A
  8
CT
 10
18486.218472109231
 20
4507.6925529760201
 30
0.0
 11
18470.881848968969
 21
4503.5831171909649
 31
0.0
  0
CIRCLE
  5
705B
  8
1
 10
18478.008102585769
 20
4505.4925910926477
 30
0.0
 40
4.0
  0
POLYLINE
  5
705C
  8
1
 66
     1
 10
0.0
 20
0.0
 30
0.0
  0
VERTEX
  5
7453
  8
1
 10
18527.307621549491
 20
4607.5695924210777
 30
0.0
 42
0.1174780416237576
  0
VERTEX
  5
7454
  8
1
 10
18431.514496993481
 20
4676.0144675522797
 30
0.0
 42
0.1174780416237576
  0
SEQEND
  5
7455
  8
1
  0
POLYLINE
  5
705D
  8
1
 66
     1
 10
0.0
 20
0.0
 30
0.0
  0
VERTEX
  5
7456
  8
1
 10
18519.766637942928
 20
4601.0019774623861
 30
0.0
 42
0.1174780416237573
  0
VERTEX
  5
7457
  8
1
 10
18427.74489624345
 20
4666.7521724703129
 30
0.0
 42
0.3153658436290411
  0
SEQEND
  5
7458
  8
1
  0
LINE
  5
705E
  8
CT
 10
18440.27809160353
 20
4587.2636261309308
 30
0.0
 11
18429.050904248321
 21
4576.036438775719
 31
0.0
  0
CIRCLE
  5
705F
  8
1
 10
18434.267683963441
 20
4581.253218490845
 30
0.0
 40
4.0
  0
POLYLINE
  5
7060
  8
1
 66
     1
 10
0.0
 20
0.0
 30
0.0
  0
VERTEX
  5
7459
  8
1
 10
18104.766637942921
 20
5429.8798131814028
 30
0.0
  0
VERTEX
  5
745A
  8
1
 10
18221.030631229642
 20
5429.8798131814028
 30
0.0
  0
SEQEND
  5
745B
  8
1
  0
POLYLINE
  5
7061
  8
1
 66
     1
 10
0.0
 20
0.0
 30
0.0
  0
VERTEX
  5
745C
  8
1
 10
18104.766637942921
 20
5681.9838498321178
 30
0.0
  0
VERTEX
  5
745D
  8
1
 10
18300.166637942919
 20
5681.9838498321178
 30
0.0
  0
SEQEND
  5
745E
  8
1
  0
POLYLINE
  5
7062
  8
1
 66
     1
 10
0.0
 20
0.0
 30
0.0
  0
VERTEX
  5
745F
  8
1
 10
18133.266637942921
 20
5692.4798131814014
 30
0.0
  0
VERTEX
  5
7460
  8
1
 10
18314.766637942921
 20
5692.4798131814014
 30
0.0
  0
VERTEX
  5
7461
  8
1
 10
18335.096940722739
 20
5692.4798131814014
 30
0.0
  0
SEQEND
  5
7462
  8
1
  0
LINE
  5
7063
  8
1
 10
18064.766637942921
 20
5700.4798131814014
 30
0.0
 11
18314.766637942921
 21
5700.4798131814014
 31
0.0
  0
LINE
  5
7064
  8
1
 10
18104.766637942921
 20
5373.4798131814014
 30
0.0
 11
18104.766637942921
 21
5700.4798131814023
 31
0.0
  0
LINE
  5
7065
  8
1
 10
18104.766637942921
 20
5381.4798131814014
 30
0.0
 11
18104.766637942921
 21
5691.4798131814132
 31
0.0
  0
LINE
  5
7066
  8
1
 10
18064.766637942921
 20
5381.4798131814014
 30
0.0
 11
18064.766637942921
 21
5691.4798131814132
 31
0.0
  0
LINE
  5
7067
  8
1
 10
18064.766637942921
 20
5381.4798131814014
 30
0.0
 11
18104.766637942921
 21
5381.4798131814014
 31
0.0
  0
LINE
  5
7068
  8
FUTO
 10
18004.766637942921
 20
5333.4798131813995
 30
0.0
 11
18004.766637942921
 21
5373.4798131814014
 31
0.0
  0
LINE
  5
7069
  8
CT
 10
18034.766637942921
 20
5367.6145210639488
 30
0.0
 11
18034.766637942921
 21
5331.9474415595087
 31
0.0
  0
LINE
  5
706A
  8
CT
 10
18019.074349746279
 20
5351.4798131813995
 30
0.0
 11
18049.766637942928
 21
5351.4798131813995
 31
0.0
  0
CIRCLE
  5
706B
  8
FUTO
 10
18034.766637942921
 20
5351.4798131813995
 30
0.0
 40
6.5
  0
LINE
  5
706C
  8
1
 10
18065.966637942922
 20
5700.4798131814014
 30
0.0
 11
18084.766637942921
 21
5719.2798131814016
 31
0.0
  0
LINE
  5
706D
  8
1
 10
18104.766637942921
 20
5691.4798131814132
 30
0.0
 11
18064.766637942921
 21
5691.4798131814132
 31
0.0
  0
LINE
  5
706E
  8
1
 10
18064.766637942921
 20
5680.4798131814023
 30
0.0
 11
18065.966637942922
 21
5680.4798131814023
 31
0.0
1001
ACAD
1000
ASC_BOUNDS
1002
{
1070
    19
1002
}
  0
ARC
  5
706F
  8
1
 10
18133.266637942921
 20
5693.4798131814014
 30
0.0
 40
1.0
 50
180.0
 51
270.0
  0
ARC
  5
7070
  8
1
 10
18134.266637942921
 20
5694.4798131814023
 30
0.0
 40
1.0
 50
180.0
 51
270.0
  0
ARC
  5
7071
  8
1
 10
18133.266637942921
 20
5693.4798131814014
 30
0.0
 40
1.0
 50
180.0
 51
270.0
  0
LINE
  5
7072
  8
1
 10
18133.266637942921
 20
5700.4798131814014
 30
0.0
 11
18133.266637942921
 21
5694.4798131814023
 31
0.0
  0
LINE
  5
7073
  8
1
 10
18132.266637942921
 20
5699.4798131814014
 30
0.0
 11
18132.266637942921
 21
5693.4798131814014
 31
0.0
  0
ARC
  5
7074
  8
1
 10
18131.266637942921
 20
5699.4798131814014
 30
0.0
 40
1.0
 50
0.0
 51
90.0
  0
ARC
  5
7075
  8
1
 10
18135.11205775493
 20
5734.0536663332987
 30
0.0
 40
48.656384192584412
 50
303.50003366519968
 51
316.36834872324539
  0
LINE
  5
7076
  8
1
 10
18134.266637942921
 20
5693.4798131814014
 30
0.0
 11
18161.96733960235
 21
5693.4798131814014
 31
0.0
  0
LINE
  5
7077
  8
1
 10
18524.766637942921
 20
5373.4798131814014
 30
0.0
 11
18524.766637942921
 21
5700.4798131814023
 31
0.0
  0
LINE
  5
7078
  8
1
 10
18564.766637942921
 20
5373.4798131814014
 30
0.0
 11
18564.766637942921
 21
5700.5131836343053
 31
0.0
  0
LINE
  5
7079
  8
1
 10
18524.766637942921
 20
5381.4798131814014
 30
0.0
 11
18524.766637942921
 21
5691.4798131814023
 31
0.0
  0
LINE
  5
707A
  8
1
 10
18564.766637942921
 20
5381.4798131814014
 30
0.0
 11
18564.766637942921
 21
5691.4798131814023
 31
0.0
  0
LINE
  5
707B
  8
1
 10
18214.766637942921
 20
5641.8195131814018
 30
0.0
 11
18214.766637942921
 21
5491.1401131814027
 31
0.0
  0
LINE
  5
707C
  8
1
 10
18414.766637942921
 20
5491.1401131814027
 30
0.0
 11
18414.766637942921
 21
5641.8195131814018
 31
0.0
  0
LINE
  5
707D
  8
1
 10
18415.56663794292
 20
5483.4798131814014
 30
0.0
 11
18213.966637942922
 21
5483.4798131814014
 31
0.0
  0
LINE
  5
707E
  8
1
 10
18218.766637942921
 20
5443.4798131814014
 30
0.0
 11
18414.06663794292
 21
5443.4798131814014
 31
0.0
  0
LINE
  5
707F
  8
1
 10
18231.213737942919
 20
5393.4798131814014
 30
0.0
 11
18398.347537942918
 21
5393.4798131814014
 31
0.0
  0
LINE
  5
7080
  8
1
 10
18231.213737942919
 20
5393.4798131814014
 30
0.0
 11
18398.347537942918
 21
5393.4798131814014
 31
0.0
  0
LINE
  5
7081
  8
1
 10
18217.766637942921
 20
5443.4798131814014
 30
0.0
 11
18229.435437942921
 21
5394.8597131814013
 31
0.0
  0
ARC
  5
7082
  8
1
 10
18231.185637942919
 20
5395.2797131814023
 30
0.0
 40
1.7999000000000001
 50
193.4933999999954
 51
270.0018999998789
  0
LINE
  5
7083
  8
1
 10
18228.325937942918
 20
5483.3115131814011
 30
0.0
 11
18214.766637942921
 21
5491.1401131814027
 31
0.0
  0
ARC
  5
7084
  8
1
 10
18215.466637942922
 20
5444.9798131814014
 30
0.0
 40
1.5
 50
180.0
 51
270.0
  0
LINE
  5
7085
  8
1
 10
18213.966637942922
 20
5483.4798131814014
 30
0.0
 11
18213.966637942922
 21
5444.9798131814014
 31
0.0
  0
LINE
  5
7086
  8
1
 10
18411.766637942921
 20
5443.4798131814014
 30
0.0
 11
18400.097837942922
 21
5394.8597131814013
 31
0.0
  0
ARC
  5
7087
  8
1
 10
18398.347637942919
 20
5395.2797131814023
 30
0.0
 40
1.7999000000000001
 50
269.9980999999126
 51
346.50660000000448
  0
LINE
  5
7088
  8
1
 10
18524.766637942921
 20
5381.479813181405
 30
0.0
 11
18564.766637942921
 21
5381.4798131814014
 31
0.0
  0
POLYLINE
  5
7089
  8
1
 66
     1
 10
0.0
 20
0.0
 30
0.0
  0
VERTEX
  5
7463
  8
1
 10
18408.50264465619
 20
5429.8798131814028
 30
0.0
  0
VERTEX
  5
7464
  8
1
 10
18524.766637942921
 20
5429.879813181401
 30
0.0
  0
SEQEND
  5
7465
  8
1
  0
LINE
  5
708A
  8
1
 10
18401.20733794292
 20
5483.3115131814011
 30
0.0
 11
18414.766637942921
 21
5491.1401131814027
 31
0.0
  0
ARC
  5
708B
  8
1
 10
18414.06663794292
 20
5444.9798131814014
 30
0.0
 40
1.5
 50
270.0
 51
0.0
  0
LINE
  5
708C
  8
1
 10
18415.56663794292
 20
5483.4798131814014
 30
0.0
 11
18415.56663794292
 21
5444.9798131814014
 31
0.0
  0
POLYLINE
  5
708D
  8
1
 66
     1
 10
0.0
 20
0.0
 30
0.0
  0
VERTEX
  5
7466
  8
1
 10
18329.366537942919
 20
5681.9838498321178
 30
0.0
  0
VERTEX
  5
7467
  8
1
 10
18524.766637942921
 20
5681.9838498321178
 30
0.0
  0
SEQEND
  5
7468
  8
1
  0
LINE
  5
708E
  8
1
 10
18314.766637942921
 20
5700.479813181405
 30
0.0
 11
18563.766637942921
 21
5700.4798131814014
 31
0.0
  0
POLYLINE
  5
708F
  8
1
 66
     1
 10
0.0
 20
0.0
 30
0.0
  0
VERTEX
  5
7469
  8
1
 10
18335.096940722739
 20
5692.4798131814014
 30
0.0
  0
VERTEX
  5
746A
  8
1
 10
18496.266637942921
 20
5692.4798131814014
 30
0.0
  0
SEQEND
  5
746B
  8
1
  0
LINE
  5
7090
  8
1
 10
18396.766637942921
 20
5671.2074926148198
 30
0.0
 11
18232.766637942921
 21
5671.2074926148198
 31
0.0
  0
LINE
  5
7091
  8
1
 10
18229.766637942921
 20
5650.4798131814023
 30
0.0
 11
18399.766637942921
 21
5650.4798131814023
 31
0.0
  0
LINE
  5
7092
  8
1
 10
18277.766637942921
 20
5677.2074926148207
 30
0.0
 11
18351.766637942921
 21
5677.2074926148207
 31
0.0
  0
ARC
  5
7093
  8
1
 10
18277.766637942921
 20
5674.2074926148198
 30
0.0
 40
2.9998999999999989
 50
89.998799999879139
 51
180.00119999999049
  0
LINE
  5
7094
  8
1
 10
18274.766637942921
 20
5671.2074926148198
 30
0.0
 11
18274.766637942921
 21
5674.2074926148198
 31
0.0
  0
ARC
  5
7095
  8
1
 10
18232.76653794292
 20
5668.2074926148207
 30
0.0
 40
2.9998999999999989
 50
89.998799999879139
 51
180.00119999999049
  0
LINE
  5
7096
  8
1
 10
18214.766637942921
 20
5641.8195131814018
 30
0.0
 11
18229.766637942921
 21
5650.4798131814023
 31
0.0
  0
LINE
  5
7097
  8
1
 10
18229.766637942921
 20
5653.4798131814023
 30
0.0
 11
18229.766637942921
 21
5650.4798131814023
 31
0.0
  0
LINE
  5
7098
  8
1
 10
18229.766637942921
 20
5650.4798131814023
 30
0.0
 11
18229.766637942921
 21
5668.2074926148207
 31
0.0
  0
LINE
  5
7099
  8
1
 10
18329.36663794292
 20
5677.2074926148207
 30
0.0
 11
18329.36663794292
 21
5700.479813181405
 31
0.0
  0
LINE
  5
709A
  8
1
 10
18300.16673794292
 20
5677.2074926148207
 30
0.0
 11
18300.16673794292
 21
5700.4798131814014
 31
0.0
  0
LINE
  5
709B
  8
1
 10
18354.766637942921
 20
5671.2074926148198
 30
0.0
 11
18354.766637942921
 21
5674.2074926148198
 31
0.0
  0
ARC
  5
709C
  8
1
 10
18351.766737942919
 20
5674.2074926148198
 30
0.0
 40
2.9998999999999989
 50
359.99880000000928
 51
90.001199999912416
  0
LINE
  5
709D
  8
1
 10
18495.266637942921
 20
5693.4798131813995
 30
0.0
 11
18467.565936283489
 21
5693.4798131814014
 31
0.0
  0
ARC
  5
709E
  8
1
 10
18494.421218130909
 20
5734.0536663332987
 30
0.0
 40
48.656384192584412
 50
223.6316512767545
 51
236.49996633480009
  0
ARC
  5
709F
  8
1
 10
18396.766737942919
 20
5668.2074926148207
 30
0.0
 40
2.9998999999999989
 50
359.99880000000928
 51
90.001199999912416
  0
LINE
  5
70A0
  8
1
 10
18414.766637942921
 20
5641.8195131814018
 30
0.0
 11
18399.766637942921
 21
5650.4798131814023
 31
0.0
  0
LINE
  5
70A1
  8
1
 10
18399.766637942921
 20
5653.4798131814023
 30
0.0
 11
18399.766637942921
 21
5650.4798131814023
 31
0.0
  0
LINE
  5
70A2
  8
1
 10
18399.766637942921
 20
5650.4798131814023
 30
0.0
 11
18399.766637942921
 21
5668.2074926148207
 31
0.0
  0
LINE
  5
70A3
  8
FUTO
 10
18524.766637942921
 20
5691.4798131814023
 30
0.0
 11
18564.766637942921
 21
5691.4798131814023
 31
0.0
  0
ARC
  5
70A4
  8
1
 10
18498.266637942921
 20
5699.4798131814014
 30
0.0
 40
1.0
 50
90.0
 51
180.0
  0
LINE
  5
70A5
  8
1
 10
18497.266637942921
 20
5699.4798131814014
 30
0.0
 11
18497.266637942921
 21
5693.4798131813995
 31
0.0
  0
LINE
  5
70A6
  8
1
 10
18496.266637942921
 20
5700.4798131813995
 30
0.0
 11
18496.266637942921
 21
5694.4798131813986
 31
0.0
  0
ARC
  5
70A7
  8
1
 10
18496.266637942921
 20
5693.4798131814014
 30
0.0
 40
1.0
 50
270.0
 51
0.0
  0
ARC
  5
70A8
  8
1
 10
18495.266637942921
 20
5694.4798131814023
 30
0.0
 40
1.0
 50
270.0
 51
0.0
  0
LINE
  5
70A9
  8
1
 10
18064.766637942921
 20
5926.4798131814014
 30
0.0
 11
18314.766637942921
 21
5926.4798131814014
 31
0.0
  0
POLYLINE
  5
70AA
  8
1
 66
     1
 10
0.0
 20
0.0
 30
0.0
  0
VERTEX
  5
746C
  8
1
 10
18133.266637942921
 20
5934.4798131814014
 30
0.0
  0
VERTEX
  5
746D
  8
1
 10
18314.766637942921
 20
5934.4798131814014
 30
0.0
  0
VERTEX
  5
746E
  8
1
 10
18335.096940722739
 20
5934.4798131814014
 30
0.0
  0
SEQEND
  5
746F
  8
1
  0
LINE
  5
70AB
  8
1
 10
18104.766637942921
 20
5926.4798131814023
 30
0.0
 11
18104.766637942921
 21
5993.4798131814014
 31
0.0
  0
LINE
  5
70AC
  8
1
 10
18065.966637942922
 20
5926.4798131814014
 30
0.0
 11
18084.766637942921
 21
5907.679813181403
 31
0.0
  0
LINE
  5
70AD
  8
1
 10
18064.766637942921
 20
5946.4798131814014
 30
0.0
 11
18065.966637942922
 21
5946.4798131814014
 31
0.0
1001
ACAD
1000
ASC_BOUNDS
1002
{
1070
    19
1002
}
  0
ARC
  5
70AE
  8
1
 10
18131.266637942921
 20
5927.4798131814023
 30
0.0
 40
1.0
 50
270.0
 51
0.0
  0
LINE
  5
70AF
  8
1
 10
18132.266637942921
 20
5927.4798131814023
 30
0.0
 11
18132.266637942921
 21
5933.4798131814014
 31
0.0
  0
LINE
  5
70B0
  8
1
 10
18133.266637942921
 20
5926.4798131814014
 30
0.0
 11
18133.266637942921
 21
5932.4798131814023
 31
0.0
  0
ARC
  5
70B1
  8
1
 10
18133.266637942921
 20
5933.4798131814014
 30
0.0
 40
1.0
 50
90.0
 51
180.0
  0
ARC
  5
70B2
  8
1
 10
18134.266637942921
 20
5932.4798131814023
 30
0.0
 40
1.0
 50
90.0
 51
180.0
  0
ARC
  5
70B3
  8
1
 10
18133.266637942921
 20
5933.4798131814014
 30
0.0
 40
1.0
 50
90.0
 51
180.0
  0
ARC
  5
70B4
  8
1
 10
18135.11205775493
 20
5892.9059600295031
 30
0.0
 40
48.656384192584412
 50
43.631651276754518
 51
56.499966334800199
  0
LINE
  5
70B5
  8
1
 10
18134.266637942921
 20
5933.4798131814014
 30
0.0
 11
18161.96733960235
 21
5933.4798131814014
 31
0.0
  0
LINE
  5
70B6
  8
FUTO
 10
18004.766637942921
 20
5993.4798131814014
 30
0.0
 11
18004.766637942921
 21
6033.4798131814014
 31
0.0
  0
CIRCLE
  5
70B7
  8
FUTO
 10
18034.766637942921
 20
6015.4798131813995
 30
0.0
 40
6.5
  0
LINE
  5
70B8
  8
CT
 10
18019.074349746279
 20
6015.4798131813995
 30
0.0
 11
18049.766637942928
 21
6015.4798131813995
 31
0.0
  0
LINE
  5
70B9
  8
CT
 10
18034.766637942921
 20
5999.3451052988512
 30
0.0
 11
18034.766637942921
 21
6035.0121848032923
 31
0.0
  0
LINE
  5
70BA
  8
1
 10
18314.766637942921
 20
5926.4798131813995
 30
0.0
 11
18563.766637942921
 21
5926.4798131814014
 31
0.0
  0
POLYLINE
  5
70BB
  8
1
 66
     1
 10
0.0
 20
0.0
 30
0.0
  0
VERTEX
  5
7470
  8
1
 10
18335.096940722739
 20
5934.4798131814014
 30
0.0
  0
VERTEX
  5
7471
  8
1
 10
18496.266637942921
 20
5934.4798131814014
 30
0.0
  0
SEQEND
  5
7472
  8
1
  0
LINE
  5
70BC
  8
1
 10
18564.766637942921
 20
5926.4464427284965
 30
0.0
 11
18564.766637942921
 21
5993.4798131814014
 31
0.0
  0
LINE
  5
70BD
  8
1
 10
18524.766637942921
 20
5926.4798131814014
 30
0.0
 11
18524.766637942921
 21
5993.4798131814014
 31
0.0
  0
LINE
  5
70BE
  8
1
 10
18495.266637942921
 20
5933.4798131814032
 30
0.0
 11
18467.565936283489
 21
5933.4798131814014
 31
0.0
  0
ARC
  5
70BF
  8
1
 10
18494.421218130909
 20
5892.9059600295031
 30
0.0
 40
48.656384192584412
 50
123.50003366519979
 51
136.36834872324539
  0
ARC
  5
70C0
  8
1
 10
18495.266637942921
 20
5932.4798131814023
 30
0.0
 40
1.0
 50
0.0
 51
90.0
  0
ARC
  5
70C1
  8
1
 10
18496.266637942921
 20
5933.4798131814014
 30
0.0
 40
1.0
 50
0.0
 51
90.0
  0
LINE
  5
70C2
  8
1
 10
18496.266637942921
 20
5926.4798131814032
 30
0.0
 11
18496.266637942921
 21
5932.4798131814032
 31
0.0
  0
LINE
  5
70C3
  8
1
 10
18497.266637942921
 20
5927.4798131814023
 30
0.0
 11
18497.266637942921
 21
5933.4798131814032
 31
0.0
  0
ARC
  5
70C4
  8
1
 10
18498.266637942921
 20
5927.4798131814023
 30
0.0
 40
1.0
 50
180.0
 51
270.0
  0
DIMENSION
  5
70C5
  8
SP
  2
*D49
 10
18787.878127971861
 20
5333.4798131814014
 30
0.0
 11
18750.378127971861
 21
5683.479813181405
 31
0.0
 70
     0
 13
18624.766637942921
 23
6033.4798131814023
 33
0.0
 14
18624.766637942921
 24
5333.4798131814014
 34
0.0
 50
90.0
  0
LINE
  5
70C6
  8
1
 10
18578.766637942921
 20
5911.4798131814014
 30
0.0
 11
18578.766637942921
 21
5715.4798131814014
 31
0.0
  0
LINE
  5
70C7
  8
SL
 10
19189.614065486421
 20
4094.683696605498
 30
0.0
 11
19189.614065486421
 21
4741.4405985969133
 31
0.0
  0
LINE
  5
70C8
  8
SL
 10
19853.614065486421
 20
4094.683696605498
 30
0.0
 11
19853.614065486421
 21
4741.4405985969133
 31
0.0
  0
LINE
  5
70C9
  8
2
 10
19651.614065486421
 20
4772.8050733952559
 30
0.0
 11
19651.614065486421
 21
4022.0377424636331
 31
0.0
1001
ACAD
1000
ASC_BOUNDS
1002
{
1070
    19
1005
0
1005
0
1002
}
  0
DIMENSION
  5
70CA
  8
SP
  2
*D50
 10
19231.614065487411
 20
4894.0393925867866
 30
0.0
 11
19441.61406548692
 21
4931.5393925867857
 31
0.0
 70
     0
 13
19651.614065486421
 23
4859.0147449719016
 33
0.0
 14
19231.614065487411
 24
4545.3331127833671
 34
0.0
1001
ACAD
1000
DSTYLE
1002
{
1070
     3
1000
（<>）
1002
}
  0
DIMENSION
  5
70CB
  8
SP
  2
*D51
 10
19772.614065486421
 20
4894.0393925867866
 30
0.0
 11
19712.114065486421
 21
4931.5393925867857
 31
0.0
 70
     0
 13
19651.614065486421
 23
4859.0147449719016
 33
0.0
 14
19772.614065486421
 24
4643.2521724703111
 34
0.0
  0
DIMENSION
  5
70CC
  8
SP
  2
*D52
 10
19763.61406548641
 20
4789.0393925867857
 30
0.0
 11
19651.614065486421
 21
4826.5393925867866
 31
0.0
 70
     0
 13
19539.614065486421
 23
4669.0393925867866
 33
0.0
 14
19763.61406548641
 24
4669.0393925867857
 34
0.0
  0
DIMENSION
  5
70CD
  8
SP
  2
*D53
 10
19651.614065486421
 20
3961.752172470312
 30
0.0
 11
19411.614065486421
 21
3999.252172470312
 31
0.0
 70
     0
 13
19171.614065486421
 23
4106.7521724703111
 33
0.0
 14
19651.614065486421
 24
4022.0377424636308
 34
0.0
  0
DIMENSION
  5
70CE
  8
SP
  2
*D54
 10
19871.614065486421
 20
3856.7521724703111
 30
0.0
 11
19521.614065486421
 21
3894.2521724703111
 31
0.0
 70
     0
 13
19171.614065486421
 23
4106.7521724703111
 33
0.0
 14
19871.614065486421
 24
4106.7521724703111
 34
0.0
  0
LINE
  5
70CF
  8
FUTO
 10
19211.614065486421
 20
4106.7521724703111
 30
0.0
 11
19831.614065486421
 21
4106.7521724703111
 31
0.0
  0
LINE
  5
70D0
  8
FUTO
 10
19212.614065486421
 20
4066.7521724703111
 30
0.0
 11
19832.614065486421
 21
4066.7521724703111
 31
0.0
  0
LINE
  5
70D1
  8
1
 10
19404.614065486421
 20
4561.752172470312
 30
0.0
 11
19329.274365486421
 21
4561.752172470312
 31
0.0
  0
LINE
  5
70D2
  8
1
 10
19539.614065486421
 20
4666.7521724703129
 30
0.0
 11
19349.052082278471
 21
4461.7521724703111
 31
0.0
  0
LINE
  5
70D3
  8
2
 10
19803.62604962214
 20
4461.7521724703111
 30
0.0
 11
19190.225944919839
 21
4461.7521724703111
 31
0.0
  0
LINE
  5
70D4
  8
FUTO
 10
19220.614065486421
 20
4109.9521724703127
 30
0.0
 11
19527.41406548642
 21
4109.9521724703127
 31
0.0
  0
LINE
  5
70D5
  8
1
 10
19220.614065486421
 20
4106.752172470312
 30
0.0
 11
19570.614065486421
 21
4106.752172470312
 31
0.0
  0
LINE
  5
70D6
  8
FUTO
 10
19350.41406548642
 20
4461.7521724703111
 30
0.0
 11
19220.614065486421
 21
4109.9521724703127
 31
0.0
  0
LINE
  5
70D7
  8
FUTO
 10
18624.766637942939
 20
4066.7521724703151
 30
0.0
 11
18624.766637942939
 21
4106.7521724703138
 31
0.0
  0
INSERT
  5
70D8
  8
FUTO
  2
L-40-3
 10
19211.614065486421
 20
4106.7521724703111
 30
0.0
 41
-1.0
 50
90.0
  0
LINE
  5
70D9
  8
FUTO
 10
19220.614065486421
 20
4106.752172470312
 30
0.0
 11
19220.614065486421
 21
4109.9521724703127
 31
0.0
  0
LINE
  5
70DA
  8
1
 10
19281.614065486421
 20
4365.752172470312
 30
0.0
 11
19281.614065486421
 21
4561.0521724703131
 31
0.0
  0
LINE
  5
70DB
  8
1
 10
19321.614065486421
 20
4562.5521724703131
 30
0.0
 11
19321.614065486421
 21
4411.7521724703111
 31
0.0
  0
LINE
  5
70DC
  8
1
 10
19231.614065486421
 20
4378.1992724703123
 30
0.0
 11
19231.614065486421
 21
4545.3330724703119
 31
0.0
  0
LINE
  5
70DD
  8
FUTO
 10
19280.09094846245
 20
4270.8905016483641
 30
0.0
 11
19232.493124666991
 21
4358.2636656628529
 31
0.0
  0
LINE
  5
70DE
  8
1
 10
19281.614065486421
 20
4365.752172470312
 30
0.0
 11
19233.027365486421
 21
4376.4412724703116
 31
0.0
  0
LINE
  5
70DF
  8
FUTO
 10
19224.41406548642
 20
4360.6636656628507
 30
0.0
 11
19313.16793396413
 21
4360.6636656628507
 31
0.0
  0
LINE
  5
70E0
  8
FUTO
 10
19224.41406548642
 20
4358.2636656628529
 30
0.0
 11
19312.283652273982
 21
4358.2636656628501
 31
0.0
  0
LINE
  5
70E1
  8
FUTO
 10
19219.614065486421
 20
4333.063665662854
 30
0.0
 11
19219.614065486421
 21
4355.8636656628532
 31
0.0
  0
LINE
  5
70E2
  8
FUTO
 10
19222.014065486419
 20
4333.063665662854
 30
0.0
 11
19222.014065486419
 21
4355.8636656628532
 31
0.0
  0
ARC
  5
70E3
  8
FUTO
 10
19224.41406548642
 20
4355.8636656628532
 30
0.0
 40
4.7999999999999998
 50
90.0
 51
180.0
  0
ARC
  5
70E4
  8
FUTO
 10
19224.41406548642
 20
4355.8636656628532
 30
0.0
 40
2.3999999999999999
 50
90.0
 51
180.0
  0
LINE
  5
70E5
  8
FUTO
 10
19219.614065486421
 20
4333.063665662854
 30
0.0
 11
19222.014065486419
 21
4333.063665662854
 31
0.0
  0
ARC
  5
70E6
  8
1
 10
19233.413865486418
 20
4378.1990724703119
 30
0.0
 40
1.7998000000000001
 50
179.9961000000213
 51
257.59830000005792
  0
LINE
  5
70E7
  8
1
 10
19307.614065486421
 20
4364.7521724703111
 30
0.0
 11
19307.614065486421
 21
4402.752172470312
 31
0.0
  0
ARC
  5
70E8
  8
1
 10
19282.614165486419
 20
4365.752172470312
 30
0.0
 40
1.0000999999999991
 50
180.0
 51
269.99649999995819
  0
LINE
  5
70E9
  8
1
 10
19307.614065486421
 20
4364.7521724703111
 30
0.0
 11
19282.614065486421
 21
4364.7521724703111
 31
0.0
  0
LINE
  5
70EA
  8
1
 10
19307.514565486428
 20
4376.752172470312
 30
0.0
 11
19319.09575562727
 21
4376.752172470312
 31
0.0
  0
LINE
  5
70EB
  8
1
 10
19307.614065486421
 20
4402.752172470312
 30
0.0
 11
19321.614065486421
 21
4411.7521724703111
 31
0.0
  0
LINE
  5
70EC
  8
1
 10
19281.614065486421
 20
4558.752172470312
 30
0.0
 11
19232.993965486421
 21
4547.0833724703134
 31
0.0
  0
ARC
  5
70ED
  8
1
 10
19233.413965486419
 20
4545.3331724703121
 30
0.0
 40
1.7999000000000001
 50
103.49339999989409
 51
180.0018999999831
  0
LINE
  5
70EE
  8
1
 10
19321.44576548642
 20
4548.192872470313
 30
0.0
 11
19329.274365486421
 21
4561.752172470312
 31
0.0
  0
ARC
  5
70EF
  8
1
 10
19283.114065486421
 20
4561.0521724703131
 30
0.0
 40
1.5
 50
90.0
 51
180.0
  0
LINE
  5
70F0
  8
1
 10
19321.614065486421
 20
4562.5521724703131
 30
0.0
 11
19283.114065486421
 21
4562.5521724703131
 31
0.0
  0
ARC
  5
70F1
  8
FUTO
 10
19554.614065486421
 20
4151.752172470312
 30
0.0
 40
16.0
 50
180.0
 51
270.0
  0
ARC
  5
70F2
  8
FUTO
 10
19748.614065486428
 20
4151.752172470312
 30
0.0
 40
16.0
 50
270.0
 51
0.0
  0
ARC
  5
70F3
  8
FUTO
 10
19554.614065486421
 20
4151.752172470312
 30
0.0
 40
15.0
 50
180.0
 51
270.0
  0
ARC
  5
70F4
  8
FUTO
 10
19748.614065486428
 20
4151.752172470312
 30
0.0
 40
15.0
 50
270.0
 51
0.0
  0
ARC
  5
70F5
  8
FUTO
 10
19759.614065486421
 20
4150.2521724703174
 30
0.0
 40
25.0
 50
270.0
 51
0.0
  0
POLYLINE
  5
70F6
  8
1
 66
     1
 10
0.0
 20
0.0
 30
0.0
  0
VERTEX
  5
7473
  8
1
 10
19530.614065486421
 20
4657.0702833078431
 30
0.0
  0
VERTEX
  5
7474
  8
1
 10
19530.614065486421
 20
4461.7521724703111
 30
0.0
  0
VERTEX
  5
7475
  8
1
 10
19530.614065486421
 20
4106.752172470312
 30
0.0
  0
SEQEND
  5
7476
  8
1
  0
POLYLINE
  5
70F7
  8
1
 66
     1
 10
0.0
 20
0.0
 30
0.0
  0
VERTEX
  5
7477
  8
1
 10
19527.41406548642
 20
4653.6278338278526
 30
0.0
  0
VERTEX
  5
7478
  8
1
 10
19527.41406548642
 20
4106.752172470312
 30
0.0
  0
SEQEND
  5
7479
  8
1
  0
DIMENSION
  5
70F8
  8
SP
  2
*D55
 10
19871.614065486421
 20
3961.752172470312
 30
0.0
 11
19761.614065486421
 21
3999.252172470312
 31
0.0
 70
     0
 13
19651.614065486421
 23
4022.0377424636308
 33
0.0
 14
19871.614065486421
 24
4106.7521724703111
 34
0.0
  0
LINE
  5
70F9
  8
FUTO
 10
19554.614065486421
 20
4135.7521724703111
 30
0.0
 11
19748.614065486428
 21
4135.7521724703111
 31
0.0
  0
LINE
  5
70FA
  8
FUTO
 10
19554.614065486421
 20
4136.752172470312
 30
0.0
 11
19748.614065486428
 21
4136.752172470312
 31
0.0
  0
LINE
  5
70FB
  8
FUTO
 10
19543.614065486421
 20
4125.2521724703174
 30
0.0
 11
19759.614065486421
 21
4125.2521724703174
 31
0.0
  0
LINE
  5
70FC
  8
FUTO
 10
19530.614065486421
 20
4109.9521724703127
 30
0.0
 11
19570.614065486421
 21
4109.9521724703127
 31
0.0
  0
ARC
  5
70FD
  8
FUTO
 10
19543.614065486421
 20
4150.2521724703174
 30
0.0
 40
25.0
 50
238.6677485023813
 51
270.0
  0
POLYLINE
  5
70FE
  8
FUTO
 66
     1
 10
0.0
 20
0.0
 30
0.0
  0
VERTEX
  5
747A
  8
FUTO
 10
19570.614065486421
 20
4109.9521724703127
 30
0.0
  0
VERTEX
  5
747B
  8
FUTO
 10
19570.614065486421
 20
4106.7521724703111
 30
0.0
  0
SEQEND
  5
747C
  8
FUTO
  0
INSERT
  5
70FF
  8
FUTO
  2
L-40-3
 10
19831.614065486421
 20
4106.7521724703111
 30
0.0
 50
270.0
  0
LINE
  5
7100
  8
FUTO
 10
19554.614065486421
 20
4685.0393925867866
 30
0.0
 11
19748.61406548641
 21
4685.0393925867857
 31
0.0
  0
LINE
  5
7101
  8
FUTO
 10
19554.614065486421
 20
4684.0393925867884
 30
0.0
 11
19748.61406548641
 21
4684.0393925867857
 31
0.0
  0
LINE
  5
7102
  8
1
 10
19538.614065486421
 20
4669.0393925867866
 30
0.0
 11
19538.614065486421
 21
4151.752172470312
 31
0.0
  0
LINE
  5
7103
  8
1
 10
19539.614065486421
 20
4669.0393925867866
 30
0.0
 11
19539.614065486421
 21
4151.752172470312
 31
0.0
  0
ARC
  5
7104
  8
FUTO
 10
19554.614065486421
 20
4669.0393925867866
 30
0.0
 40
16.0
 50
90.0
 51
180.0
  0
ARC
  5
7105
  8
FUTO
 10
19554.614065486421
 20
4669.0393925867866
 30
0.0
 40
15.0
 50
90.0
 51
180.0
  0
LINE
  5
7106
  8
1
 10
19404.614065486421
 20
4561.752172470312
 30
0.0
 11
19442.009147257959
 21
4561.752172470312
 31
0.0
  0
LINE
  5
7107
  8
1
 10
19537.614065486421
 20
4644.252172470312
 30
0.0
 11
19531.614065486421
 21
4644.252172470312
 31
0.0
  0
ARC
  5
7108
  8
1
 10
19537.614065486421
 20
4645.2521724703111
 30
0.0
 40
1.0
 50
270.0
 51
0.0
  0
ARC
  5
7109
  8
1
 10
19531.614065486421
 20
4643.2521724703111
 30
0.0
 40
1.0
 50
90.0
 51
180.0
  0
LINE
  5
710A
  8
1
 10
19764.61406548641
 20
4669.0393925867857
 30
0.0
 11
19764.614065486428
 21
4151.752172470312
 31
0.0
  0
POLYLINE
  5
710B
  8
1
 66
     1
 10
0.0
 20
0.0
 30
0.0
  0
VERTEX
  5
747D
  8
1
 10
19772.614065486421
 20
4643.2521724703129
 30
0.0
  0
VERTEX
  5
747E
  8
1
 10
19772.614065486421
 20
4461.7521724703138
 30
0.0
  0
VERTEX
  5
747F
  8
1
 10
19772.614065486421
 20
4280.2521724703147
 30
0.0
  0
SEQEND
  5
7480
  8
1
  0
LINE
  5
710C
  8
1
 10
19763.61406548641
 20
4669.0393925867857
 30
0.0
 11
19763.614065486428
 21
4151.752172470312
 31
0.0
  0
LINE
  5
710D
  8
1
 10
19784.614065486421
 20
4150.2521724703174
 30
0.0
 11
19784.614065486421
 21
4458.2521724703183
 31
0.0
  0
DIMENSION
  5
710E
  8
SP
  2
*D56
 10
19978.044050910779
 20
4304.252172470312
 30
0.0
 11
19940.544050910779
 21
4461.7521724703147
 31
0.0
 70
     0
 13
19772.614065486421
 23
4619.252172470312
 33
0.0
 14
19772.614065486421
 24
4304.252172470312
 34
0.0
 50
90.0
1001
ACAD
1000
DSTYLE
1002
{
1070
     3
1000
φ<>
1002
}
  0
ARC
  5
710F
  8
1
 10
19771.614065486421
 20
4280.2521724703147
 30
0.0
 40
1.0
 50
270.0
 51
0.0
  0
ARC
  5
7110
  8
1
 10
19765.614065486421
 20
4278.2521724703138
 30
0.0
 40
1.0
 50
90.0
 51
180.0
  0
LINE
  5
7111
  8
1
 10
19765.614065486421
 20
4279.2521724703147
 30
0.0
 11
19771.614065486421
 21
4279.2521724703147
 31
0.0
  0
LINE
  5
7112
  8
FUTO
 10
19772.614065486421
 20
4304.252172470312
 30
0.0
 11
19764.614065486421
 21
4304.252172470312
 31
0.0
  0
ARC
  5
7113
  8
FUTO
 10
19759.614065486421
 20
4458.2521724703183
 30
0.0
 40
25.0
 50
0.0
 51
58.667748502381293
  0
ARC
  5
7114
  8
FUTO
 10
19748.61406548641
 20
4669.0393925867857
 30
0.0
 40
16.0
 50
0.0
 51
90.0
  0
ARC
  5
7115
  8
1
 10
19771.614065486421
 20
4643.2521724703129
 30
0.0
 40
1.0
 50
0.0
 51
90.0
  0
ARC
  5
7116
  8
1
 10
19765.614065486421
 20
4645.2521724703129
 30
0.0
 40
1.0
 50
180.0
 51
270.0
  0
LINE
  5
7117
  8
1
 10
19765.614065486421
 20
4644.2521724703138
 30
0.0
 11
19771.614065486421
 21
4644.2521724703138
 31
0.0
  0
LINE
  5
7118
  8
FUTO
 10
19772.614065486421
 20
4619.252172470312
 30
0.0
 11
19764.614065486421
 21
4619.252172470312
 31
0.0
  0
ARC
  5
7119
  8
FUTO
 10
19748.61406548641
 20
4669.0393925867857
 30
0.0
 40
15.0
 50
0.0
 51
90.0
  0
CIRCLE
  5
711A
  8
FUTO
 10
18594.766637942921
 20
5351.4798131813995
 30
0.0
 40
6.5
  0
LINE
  5
711B
  8
CT
 10
18579.074349746279
 20
5351.4798131813995
 30
0.0
 11
18609.766637942921
 21
5351.4798131813995
 31
0.0
  0
LINE
  5
711C
  8
FUTO
 10
18624.766637942921
 20
5333.4798131814014
 30
0.0
 11
18624.766637942921
 21
5373.4798131814014
 31
0.0
  0
LINE
  5
711D
  8
CT
 10
18594.766637942921
 20
5367.6145210639488
 30
0.0
 11
18594.766637942921
 21
5331.9474415595087
 31
0.0
  0
LINE
  5
711E
  8
FUTO
 10
18624.766637942921
 20
5993.4798131814014
 30
0.0
 11
18624.766637942921
 21
6033.4798131814023
 31
0.0
  0
LINE
  5
711F
  8
CT
 10
18594.766637942921
 20
5999.3451052988512
 30
0.0
 11
18594.766637942921
 21
6035.0121848032923
 31
0.0
  0
LINE
  5
7120
  8
CT
 10
18579.074349746279
 20
6015.4798131813995
 30
0.0
 11
18609.766637942921
 21
6015.4798131813995
 31
0.0
  0
CIRCLE
  5
7121
  8
FUTO
 10
18594.766637942921
 20
6015.4798131813995
 30
0.0
 40
6.5
  0
ENDSEC
  0
EOF
