  0
SECTION
  2
HEADER
  9
$ACADVER
  1
AC1009
  9
$INSBASE
 10
0.0
 20
0.0
 30
0.0
  9
$EXTMIN
 10
3345.597715035095
 20
2822.8097917420341
 30
0.0
  9
$EXTMAX
 10
6495.5977150350964
 20
7247.8097917420337
 30
0.0
  9
$LIMMIN
 10
0.0
 20
0.0
  9
$LIMMAX
 10
297.0
 20
210.0
  9
$ORTHOMODE
 70
     0
  9
$REGENMODE
 70
     1
  9
$FILLMODE
 70
     1
  9
$QTEXTMODE
 70
     0
  9
$MIRRTEXT
 70
     0
  9
$DRAGMODE
 70
     2
  9
$LTSCALE
 40
75.0
  9
$OSMODE
 70
   545
  9
$ATTMODE
 70
     1
  9
$TEXTSIZE
 40
3.5
  9
$TRACEWID
 40
0.05
  9
$TEXTSTYLE
  7
STANDARD
  9
$CLAYER
  8
SP
  9
$CELTYPE
  6
BYLAYER
  9
$CECOLOR
 62
   256
  9
$DIMSCALE
 40
15.0
  9
$DIMASZ
 40
2.5
  9
$DIMEXO
 40
1.0
  9
$DIMDLI
 40
7.0
  9
$DIMRND
 40
0.0
  9
$DIMDLE
 40
0.0
  9
$DIMEXE
 40
1.0
  9
$DIMTP
 40
0.0
  9
$DIMTM
 40
0.0
  9
$DIMTXT
 40
3.0
  9
$DIMCEN
 40
0.0
  9
$DIMTSZ
 40
0.0
  9
$DIMTOL
 70
     0
  9
$DIMLIM
 70
     0
  9
$DIMTIH
 70
     0
  9
$DIMTOH
 70
     0
  9
$DIMSE1
 70
     0
  9
$DIMSE2
 70
     0
  9
$DIMTAD
 70
     1
  9
$DIMZIN
 70
     8
  9
$DIMBLK
  1

  9
$DIMASO
 70
     1
  9
$DIMSHO
 70
     1
  9
$DIMPOST
  1

  9
$DIMAPOST
  1

  9
$DIMALT
 70
     0
  9
$DIMALTD
 70
     2
  9
$DIMALTF
 40
0.03937
  9
$DIMLFAC
 40
1.0
  9
$DIMTOFL
 70
     1
  9
$DIMTVP
 40
0.0
  9
$DIMTIX
 70
     0
  9
$DIMSOXD
 70
     0
  9
$DIMSAH
 70
     1
  9
$DIMBLK1
  1
OPEN
  9
$DIMBLK2
  1
OPEN
  9
$DIMSTYLE
  2
GOD
  9
$DIMCLRD
 70
   256
  9
$DIMCLRE
 70
   256
  9
$DIMCLRT
 70
   256
  9
$DIMTFAC
 40
1.0
  9
$DIMGAP
 40
1.0
  9
$LUNITS
 70
     2
  9
$LUPREC
 70
     3
  9
$SKETCHINC
 40
0.1
  9
$FILLETRAD
 40
0.0
  9
$AUNITS
 70
     0
  9
$AUPREC
 70
     2
  9
$MENU
  1
acad
  9
$ELEVATION
 40
0.0
  9
$PELEVATION
 40
0.0
  9
$THICKNESS
 40
0.0
  9
$LIMCHECK
 70
     0
  9
$BLIPMODE
 70
     0
  9
$CHAMFERA
 40
0.0
  9
$CHAMFERB
 40
0.0
  9
$SKPOLY
 70
     0
  9
$TDCREATE
 40
2454939.604632488
  9
$TDUPDATE
 40
2454953.8267525579
  9
$TDINDWG
 40
0.1747187731
  9
$TDUSRTIMER
 40
0.1747187731
  9
$USRTIMER
 70
     1
  9
$ANGBASE
 50
0.0
  9
$ANGDIR
 70
     0
  9
$PDMODE
 70
     0
  9
$PDSIZE
 40
1.0
  9
$PLINEWID
 40
0.0
  9
$COORDS
 70
     2
  9
$SPLFRAME
 70
     0
  9
$SPLINETYPE
 70
     6
  9
$SPLINESEGS
 70
     8
  9
$ATTDIA
 70
     0
  9
$ATTREQ
 70
     1
  9
$HANDLING
 70
 22529
  9
$HANDSEED
  5
6CD7
  9
$SURFTAB1
 70
     6
  9
$SURFTAB2
 70
     6
  9
$SURFTYPE
 70
     6
  9
$SURFU
 70
     6
  9
$SURFV
 70
     6
  9
$UCSNAME
  2

  9
$UCSORG
 10
0.0
 20
0.0
 30
0.0
  9
$UCSXDIR
 10
1.0
 20
0.0
 30
0.0
  9
$UCSYDIR
 10
0.0
 20
1.0
 30
0.0
  9
$PUCSNAME
  2

  9
$PUCSORG
 10
0.0
 20
0.0
 30
0.0
  9
$PUCSXDIR
 10
1.0
 20
0.0
 30
0.0
  9
$PUCSYDIR
 10
0.0
 20
1.0
 30
0.0
  9
$USERI1
 70
     0
  9
$USERI2
 70
     0
  9
$USERI3
 70
     0
  9
$USERI4
 70
     0
  9
$USERI5
 70
     0
  9
$USERR1
 40
0.0
  9
$USERR2
 40
0.0
  9
$USERR3
 40
0.0
  9
$USERR4
 40
0.0
  9
$USERR5
 40
0.0
  9
$WORLDVIEW
 70
     1
  9
$SHADEDGE
 70
     3
  9
$SHADEDIF
 70
    70
  9
$TILEMODE
 70
     1
  9
$MAXACTVP
 70
    16
  9
$PLIMCHECK
 70
     0
  9
$PEXTMIN
 10
1.0000000000000000E+020
 20
1.0000000000000000E+020
 30
1.0000000000000000E+020
  9
$PEXTMAX
 10
-1.0000000000000000E+020
 20
-1.0000000000000000E+020
 30
-1.0000000000000000E+020
  9
$PLIMMIN
 10
0.0
 20
0.0
  9
$PLIMMAX
 10
12.0
 20
9.0
  9
$UNITMODE
 70
     0
  9
$VISRETAIN
 70
     0
  9
$PLINEGEN
 70
     0
  9
$PSLTSCALE
 70
     0
  0
ENDSEC
  0
SECTION
  2
TABLES
  0
TABLE
  2
VPORT
 70
     2
  0
VPORT
  2
*ACTIVE
 70
     0
 10
0.0
 20
0.0
 11
1.0
 21
1.0
 12
5200.8731850580079
 22
5035.4223933777566
 13
0.0
 23
0.0
 14
5.0
 24
5.0
 15
0.0
 25
0.0
 16
0.0
 26
0.0
 36
1.0
 17
0.0
 27
0.0
 37
0.0
 40
4461.2869042184329
 41
1.6307901907356941
 42
50.0
 43
0.0
 44
0.0
 50
0.0
 51
0.0
 71
     0
 72
   100
 73
     1
 74
     0
 75
     0
 76
     0
 77
     0
 78
     0
  0
ENDTAB
  0
TABLE
  2
LTYPE
 70
     4
  0
LTYPE
  2
CONTINUOUS
 70
     0
  3
Solid line
 72
    65
 73
     0
 40
0.0
  0
LTYPE
  2
CENTER
 70
     0
  3
____ _ ____ _ ____ _ ____ _ ____ _ ____ _ ____ 
 72
    65
 73
     4
 40
2.0
 49
1.25
 49
-0.25
 49
0.25
 49
-0.25
  0
LTYPE
  2
HIDDEN
 70
     0
  3
__ __ __ __ __ __ __ __ __ __ __ __ __ __ __ __
 72
    65
 73
     2
 40
0.375
 49
0.25
 49
-0.125
  0
LTYPE
  2
PHANTOM
 70
     0
  3
______  __  __  ______  __  __  ______  __  __ 
 72
    65
 73
     6
 40
2.5
 49
1.25
 49
-0.25
 49
0.25
 49
-0.25
 49
0.25
 49
-0.25
  0
ENDTAB
  0
TABLE
  2
LAYER
 70
    13
  0
LAYER
  2
0
 70
     0
 62
     7
  6
CONTINUOUS
  0
LAYER
  2
CT
 70
     0
 62
     3
  6
CENTER
  0
LAYER
  2
FUTO
 70
     0
 62
     4
  6
CONTINUOUS
  0
LAYER
  2
HOSO
 70
     0
 62
     7
  6
CONTINUOUS
  0
LAYER
  2
KL
 70
     0
 62
     7
  6
HIDDEN
  0
LAYER
  2
MOJI
 70
     0
 62
     3
  6
CONTINUOUS
  0
LAYER
  2
SL
 70
     0
 62
     1
  6
PHANTOM
  0
LAYER
  2
SP
 70
     0
 62
     2
  6
CONTINUOUS
  0
LAYER
  2
DEFPOINTS
 70
     0
 62
     7
  6
CONTINUOUS
  0
LAYER
  2
3
 70
     0
 62
    -2
  6
CONTINUOUS
  0
LAYER
  2
2
 70
     0
 62
     3
  6
CENTER
  0
LAYER
  2
1
 70
     0
 62
     4
  6
CONTINUOUS
  0
LAYER
  2
4
 70
     0
 62
     7
  6
CONTINUOUS
  0
ENDTAB
  0
TABLE
  2
STYLE
 70
     1
  0
STYLE
  2
STANDARD
 70
     0
 40
0.0
 41
1.0
 50
15.0
 71
     0
 42
3.5
  3
C:\Program Files\AutoCAD LT\simplex.shx
  4
C:\Program Files\AutoCAD LT\extfont.shx
  0
ENDTAB
  0
TABLE
  2
VIEW
 70
     0
  0
ENDTAB
  0
TABLE
  2
UCS
 70
     0
  0
ENDTAB
  0
TABLE
  2
APPID
 70
     1
  0
APPID
  2
ACAD
 70
     0
  0
ENDTAB
  0
TABLE
  2
DIMSTYLE
 70
     4
  0
DIMSTYLE
  2
STANDARD
 70
     0
  3

  4

  5

  6

  7

 40
1.0
 41
0.18
 42
0.0625
 43
0.38
 44
0.18
 45
0.0
 46
0.0
 47
0.0
 48
0.0
140
0.18
141
0.09
142
0.0
143
25.399999999999999
144
1.0
145
0.0
146
1.0
147
0.09
 71
     0
 72
     0
 73
     1
 74
     1
 75
     0
 76
     0
 77
     0
 78
     0
170
     0
171
     2
172
     0
173
     0
174
     0
175
     0
176
     0
177
     0
178
     0
  0
DIMSTYLE
  2
GOD
 70
     0
  3

  4

  5

  6
OPEN
  7
OPEN
 40
15.0
 41
2.5
 42
1.0
 43
7.0
 44
1.0
 45
0.0
 46
0.0
 47
0.0
 48
0.0
140
3.0
141
0.0
142
0.0
143
0.03937
144
1.0
145
0.0
146
1.0
147
1.0
 71
     0
 72
     0
 73
     0
 74
     0
 75
     0
 76
     0
 77
     1
 78
     8
170
     0
171
     2
172
     1
173
     1
174
     0
175
     0
176
   256
177
   256
178
   256
  0
DIMSTYLE
  2
IGA
 70
     0
  3

  4

  5

  6
OPEN
  7
OPEN
 40
2.0
 41
2.0
 42
0.5
 43
10.0
 44
1.0
 45
0.0
 46
0.0
 47
1.0
 48
1.0
140
3.0
141
0.0
142
0.0
143
0.03937
144
1.0
145
0.0
146
10.0
147
1.0
 71
     0
 72
     0
 73
     0
 74
     0
 75
     0
 76
     0
 77
     1
 78
     8
170
     0
171
     2
172
     0
173
     1
174
     0
175
     0
176
     0
177
     0
178
     0
  0
DIMSTYLE
  2
DIA1
 70
     0
  3

  4

  5

  6

  7

 40
1.0
 41
2.0
 42
1.0
 43
10.0
 44
1.0
 45
0.0
 46
0.0
 47
0.0
 48
0.0
140
2.5
141
0.0
142
0.0
143
25.399999999999999
144
1.0
145
0.0
146
1.0
147
0.09
 71
     0
 72
     0
 73
     0
 74
     0
 75
     0
 76
     0
 77
     1
 78
     8
170
     0
171
     2
172
     1
173
     0
174
     0
175
     0
176
     2
177
     2
178
     2
  0
ENDTAB
  0
ENDSEC
  0
SECTION
  2
BLOCKS
  0
BLOCK
  8
0
  2
$MODEL_SPACE
 70
     0
 10
0.0
 20
0.0
 30
0.0
  3
$MODEL_SPACE
  1

  0
ENDBLK
  5
1B
  8
0
  0
BLOCK
 67
     1
  8
0
  2
$PAPER_SPACE
 70
     0
 10
0.0
 20
0.0
 30
0.0
  3
$PAPER_SPACE
  1

  0
ENDBLK
  5
18
 67
     1
  8
0
  0
BLOCK
  8
0
  2
_OPEN
 70
     0
 10
0.0
 20
0.0
 30
0.0
  3
_OPEN
  1

  0
LINE
  5
1E81
  8
0
  6
BYBLOCK
 62
     0
 10
-1.0
 20
0.1666666666666666
 30
0.0
 11
0.0
 21
0.0
 31
0.0
  0
LINE
  5
1E82
  8
0
  6
BYBLOCK
 62
     0
 10
0.0
 20
0.0
 30
0.0
 11
-1.0
 21
-0.1666666666666666
 31
0.0
  0
LINE
  5
1E83
  8
0
  6
BYBLOCK
 62
     0
 10
0.0
 20
0.0
 30
0.0
 11
-1.0
 21
0.0
 31
0.0
  0
ENDBLK
  5
1E84
  8
0
  0
BLOCK
  8
0
  2
_DOT
 70
     0
 10
0.0
 20
0.0
 30
0.0
  3
_DOT
  1

  0
LINE
  5
1EC3
  8
0
  6
BYBLOCK
 62
     0
 10
0.0
 20
0.0
 30
0.0
 11
-1.0
 21
-0.0000000000000284
 31
0.0
  0
POLYLINE
  5
1EC4
  8
0
  6
BYBLOCK
 62
     0
 66
     1
 10
0.0
 20
0.0
 30
0.0
 70
     1
 40
0.1666666666666666
 41
0.1666666666666666
  0
VERTEX
  5
6C7C
  8
0
  6
BYBLOCK
 62
     0
 10
-0.0833333333333286
 20
-0.0000000000000284
 30
0.0
 42
1.0
  0
VERTEX
  5
6C7D
  8
0
  6
BYBLOCK
 62
     0
 10
0.0833333333333286
 20
-0.0000000000000284
 30
0.0
 42
1.0
  0
SEQEND
  5
6C7E
  8
0
  6
BYBLOCK
 62
     0
  0
ENDBLK
  5
1EB8
  8
0
  0
BLOCK
  8
0
  2
A$C5EBD6DA5
 70
     0
 10
0.0
 20
0.0
 30
0.0
  3
A$C5EBD6DA5
  1

  0
POLYLINE
  5
22E6
  8
1
 66
     1
 10
0.0
 20
0.0
 30
0.0
  0
VERTEX
  5
6C7F
  8
1
 10
8.0000000000027285
 20
-181.50000000000091
 30
0.0
  0
VERTEX
  5
6C80
  8
1
 10
8.0000000000009095
 20
181.50000000000091
 30
0.0
  0
SEQEND
  5
6C81
  8
1
  0
LINE
  5
22E7
  8
1
 10
1.0000000000009091
 20
182.50000000000091
 30
0.0
 11
7.0000000000027276
 21
182.50000000000091
 31
0.0
  0
ARC
  5
22E8
  8
1
 10
1.0000000000009091
 20
183.50000000000091
 30
0.0
 40
1.0
 50
180.0
 51
270.0
  0
LINE
  5
22E9
  8
1
 10
1.0000000000009091
 20
-182.50000000000091
 30
0.0
 11
7.0000000000027276
 21
-182.50000000000091
 31
0.0
  0
ARC
  5
22EA
  8
1
 10
1.0000000000009091
 20
-183.50000000000091
 30
0.0
 40
1.0
 50
90.0
 51
180.0
  0
ARC
  5
22EB
  8
1
 10
7.0000000000009086
 20
-181.50000000000091
 30
0.0
 40
1.0
 50
270.0
 51
0.0
  0
ARC
  5
22EC
  8
1
 10
7.0000000000009086
 20
181.50000000000091
 30
0.0
 40
1.0
 50
0.0
 51
90.0
  0
ENDBLK
  5
22EE
  8
0
  0
BLOCK
  8
0
  2
*D3
 70
     1
 10
0.0
 20
0.0
 30
0.0
  3
*D3
  1

  0
LINE
  5
34DB
  8
SP
 10
5527.1758943041414
 20
4767.6352945090839
 30
0.0
 11
5527.1758943041414
 21
4872.7513991557198
 31
0.0
  0
LINE
  5
34DC
  8
SP
 10
5751.1758943041414
 20
4767.6352945090839
 30
0.0
 11
5751.1758943041414
 21
4872.7513991557198
 31
0.0
  0
LINE
  5
34DD
  8
SP
 10
5564.6758943041414
 20
4857.7513991557207
 30
0.0
 11
5713.6758943041423
 21
4857.7513991557207
 31
0.0
  0
INSERT
  5
34DE
  8
SP
  2
_OPEN
 10
5527.1758943041414
 20
4857.7513991557207
 30
0.0
 41
37.5
 42
37.5
 43
37.5
 50
180.0
  0
INSERT
  5
34DF
  8
SP
  2
_OPEN
 10
5751.1758943041414
 20
4857.7513991557207
 30
0.0
 41
37.5
 42
37.5
 43
37.5
  0
TEXT
  5
34E0
  8
SP
 10
5578.2377039323364
 20
4872.7513991557198
 30
0.0
 40
45.0
  1
224
 51
15.0
  0
POINT
  5
34E1
  8
DEFPOINTS
 62
     0
 10
5527.1758943041414
 20
4752.6352945090839
 30
0.0
  0
POINT
  5
34E2
  8
DEFPOINTS
 62
     0
 10
5751.1758943041414
 20
4752.6352945090839
 30
0.0
  0
POINT
  5
34E3
  8
DEFPOINTS
 62
     0
 10
5751.1758943041414
 20
4857.7513991557207
 30
0.0
  0
ENDBLK
  5
34CB
  8
0
  0
BLOCK
  8
0
  2
*D4
 70
     1
 10
0.0
 20
0.0
 30
0.0
  3
*D4
  1

  0
LINE
  5
3510
  8
SP
 10
5639.1758943041395
 20
4932.7513991557207
 30
0.0
 11
5639.1758943041395
 21
4977.6352945090839
 31
0.0
  0
LINE
  5
3511
  8
SP
 10
5760.1758943041395
 20
4699.1352945090803
 30
0.0
 11
5760.1758943041395
 21
4977.6352945090839
 31
0.0
  0
LINE
  5
3512
  8
SP
 10
5676.6758943041395
 20
4962.6352945090839
 30
0.0
 11
5722.6758943041395
 21
4962.6352945090839
 31
0.0
  0
INSERT
  5
3513
  8
SP
  2
_OPEN
 10
5639.1758943041395
 20
4962.6352945090839
 30
0.0
 41
37.5
 42
37.5
 43
37.5
 50
180.0
  0
INSERT
  5
3514
  8
SP
  2
_OPEN
 10
5760.1758943041395
 20
4962.6352945090839
 30
0.0
 41
37.5
 42
37.5
 43
37.5
  0
TEXT
  5
3515
  8
SP
 10
5644.8379628980156
 20
4977.6352945090839
 30
0.0
 40
45.0
  1
121
 51
15.0
  0
POINT
  5
3516
  8
DEFPOINTS
 62
     0
 10
5639.1758943041395
 20
4917.7513991557198
 30
0.0
  0
POINT
  5
3517
  8
DEFPOINTS
 62
     0
 10
5760.1758943041395
 20
4684.1352945090803
 30
0.0
  0
POINT
  5
3518
  8
DEFPOINTS
 62
     0
 10
5760.1758943041395
 20
4962.6352945090839
 30
0.0
  0
ENDBLK
  5
34DA
  8
0
  0
BLOCK
  8
0
  2
*D5
 70
     1
 10
0.0
 20
0.0
 30
0.0
  3
*D5
  1

  0
LINE
  5
3519
  8
SP
 10
5639.1758943041395
 20
4932.7513991557207
 30
0.0
 11
5639.1758943041395
 21
4977.6352945090839
 31
0.0
  0
LINE
  5
351A
  8
SP
 10
5219.1758943041395
 20
4601.2161945090802
 30
0.0
 11
5219.1758943041395
 21
4977.6352945090839
 31
0.0
  0
LINE
  5
351B
  8
SP
 10
5601.6758943041395
 20
4962.6352945090839
 30
0.0
 11
5256.6758943041414
 21
4962.6352945090839
 31
0.0
  0
INSERT
  5
351C
  8
SP
  2
_OPEN
 10
5639.1758943041395
 20
4962.6352945090839
 30
0.0
 41
37.5
 42
37.5
 43
37.5
  0
INSERT
  5
351D
  8
SP
  2
_OPEN
 10
5219.1758943041395
 20
4962.6352945090839
 30
0.0
 41
37.5
 42
37.5
 43
37.5
 50
180.0
  0
TEXT
  5
351E
  8
SP
 10
5328.8113416935403
 20
4977.6352945090839
 30
0.0
 40
45.0
  1
（420）
 51
15.0
  0
POINT
  5
351F
  8
DEFPOINTS
 62
     0
 10
5639.1758943041395
 20
4917.7513991557198
 30
0.0
  0
POINT
  5
3520
  8
DEFPOINTS
 62
     0
 10
5219.1758943041395
 20
4586.2161945090811
 30
0.0
  0
POINT
  5
3521
  8
DEFPOINTS
 62
     0
 10
5219.1758943041395
 20
4962.6352945090839
 30
0.0
  0
ENDBLK
  5
34F9
  8
0
  0
BLOCK
  8
0
  2
*D6
 70
     1
 10
0.0
 20
0.0
 30
0.0
  3
*D6
  1

  0
LINE
  5
4E22
  8
SP
 10
4662.2611187834073
 20
4502.6352945090821
 30
0.0
 11
4748.9976228294481
 21
4502.6352945090821
 31
0.0
  0
LINE
  5
4E23
  8
SP
 10
4415.4976228294499
 20
4752.6352945090748
 30
0.0
 11
4748.9976228294481
 21
4752.6352945090748
 31
0.0
  0
LINE
  5
4E24
  8
SP
 10
4733.9976228294481
 20
4540.1352945090821
 30
0.0
 11
4733.9976228294481
 21
4715.1352945090748
 31
0.0
  0
INSERT
  5
4E25
  8
SP
  2
_OPEN
 10
4733.9976228294481
 20
4502.6352945090821
 30
0.0
 41
37.5
 42
37.5
 43
37.5
 50
270.0
  0
INSERT
  5
4E26
  8
SP
  2
_OPEN
 10
4733.9976228294481
 20
4752.6352945090748
 30
0.0
 41
37.5
 42
37.5
 43
37.5
 50
90.0
  0
TEXT
  5
4E27
  8
SP
 10
4718.9976228294481
 20
4565.9690770755133
 30
0.0
 40
45.0
  1
250
 50
90.0
 51
15.0
  0
POINT
  5
4E28
  8
DEFPOINTS
 62
     0
 10
4647.2611187834063
 20
4502.6352945090821
 30
0.0
  0
POINT
  5
4E29
  8
DEFPOINTS
 62
     0
 10
4400.4976228294499
 20
4752.6352945090748
 30
0.0
  0
POINT
  5
4E2A
  8
DEFPOINTS
 62
     0
 10
4733.9976228294481
 20
4752.6352945090748
 30
0.0
  0
ENDBLK
  5
392D
  8
0
  0
BLOCK
  8
0
  2
*D7
 70
     1
 10
0.0
 20
0.0
 30
0.0
  3
*D7
  1

  0
LINE
  5
6C5D
  8
SP
 10
4703.9976228294518
 20
4107.635294509083
 30
0.0
 11
4748.9976228294381
 21
4107.635294509083
 31
0.0
  0
LINE
  5
6C5E
  8
SP
 10
4662.2611187834073
 20
4502.6352945090821
 30
0.0
 11
4748.9976228294381
 21
4502.6352945090821
 31
0.0
  0
LINE
  5
6C5F
  8
SP
 10
4733.997622829439
 20
4145.1352945090821
 30
0.0
 11
4733.997622829439
 21
4465.1352945090821
 31
0.0
  0
INSERT
  5
6C60
  8
SP
  2
_OPEN
 10
4733.997622829439
 20
4107.635294509083
 30
0.0
 41
37.5
 42
37.5
 43
37.5
 50
270.0
  0
INSERT
  5
6C61
  8
SP
  2
_OPEN
 10
4733.997622829439
 20
4502.6352945090821
 30
0.0
 41
37.5
 42
37.5
 43
37.5
 50
90.0
  0
TEXT
  5
6C62
  8
SP
 10
4718.9976228294381
 20
4242.2437982832489
 30
0.0
 40
45.0
  1
395
 50
90.0
 51
15.0
  0
POINT
  5
6C63
  8
DEFPOINTS
 62
     0
 10
4688.9976228294518
 20
4107.635294509083
 30
0.0
  0
POINT
  5
6C64
  8
DEFPOINTS
 62
     0
 10
4647.2611187834063
 20
4502.6352945090821
 30
0.0
  0
POINT
  5
6C65
  8
DEFPOINTS
 62
     0
 10
4733.997622829439
 20
4502.6352945090821
 30
0.0
  0
ENDBLK
  5
3939
  8
0
  0
BLOCK
  8
0
  2
*D8
 70
     1
 10
0.0
 20
0.0
 30
0.0
  3
*D8
  1

  0
LINE
  5
39AD
  8
SP
 10
4063.997622829449
 20
4767.6352945090857
 30
0.0
 11
4063.997622829449
 21
4872.6352945090757
 31
0.0
  0
LINE
  5
39AE
  8
SP
 10
4378.9976228294436
 20
4790.6338204631647
 30
0.0
 11
4378.9976228294436
 21
4872.6352945090757
 31
0.0
  0
LINE
  5
39AF
  8
SP
 10
4101.497622829449
 20
4857.6352945090757
 30
0.0
 11
4341.4976228294436
 21
4857.6352945090757
 31
0.0
  0
INSERT
  5
39B0
  8
SP
  2
_OPEN
 10
4063.997622829449
 20
4857.6352945090757
 30
0.0
 41
37.5
 42
37.5
 43
37.5
 50
180.0
  0
INSERT
  5
39B1
  8
SP
  2
_OPEN
 10
4378.9976228294436
 20
4857.6352945090757
 30
0.0
 41
37.5
 42
37.5
 43
37.5
  0
TEXT
  5
39B2
  8
SP
 10
4162.8918408893278
 20
4872.6352945090757
 30
0.0
 40
45.0
  1
315
 51
15.0
  0
POINT
  5
39B3
  8
DEFPOINTS
 62
     0
 10
4063.997622829449
 20
4752.6352945090866
 30
0.0
  0
POINT
  5
39B4
  8
DEFPOINTS
 62
     0
 10
4378.9976228294436
 20
4775.6338204631638
 30
0.0
  0
POINT
  5
39B5
  8
DEFPOINTS
 62
     0
 10
4378.9976228294436
 20
4857.6352945090757
 30
0.0
  0
ENDBLK
  5
39A3
  8
0
  0
BLOCK
  8
0
  2
*D9
 70
     1
 10
0.0
 20
0.0
 30
0.0
  3
*D9
  1

  0
LINE
  5
39C5
  8
SP
 10
4378.9976228294436
 20
4790.6338204631647
 30
0.0
 11
4378.9976228294436
 21
4872.6352945090766
 31
0.0
  0
LINE
  5
39C6
  8
SP
 10
4601.2848429459182
 20
4494.7815906442738
 30
0.0
 11
4601.2848429459182
 21
4872.6352945090766
 31
0.0
  0
LINE
  5
39C7
  8
SP
 10
4416.4976228294436
 20
4857.6352945090757
 30
0.0
 11
4563.7848429459182
 21
4857.6352945090757
 31
0.0
  0
INSERT
  5
39C8
  8
SP
  2
_OPEN
 10
4378.9976228294436
 20
4857.6352945090757
 30
0.0
 41
37.5
 42
37.5
 43
37.5
 50
180.0
  0
INSERT
  5
39C9
  8
SP
  2
_OPEN
 10
4601.2848429459182
 20
4857.6352945090757
 30
0.0
 41
37.5
 42
37.5
 43
37.5
  0
TEXT
  5
39CA
  8
SP
 10
4428.4750154541143
 20
4872.6352945090766
 30
0.0
 40
45.0
  1
222
 51
15.0
  0
POINT
  5
39CB
  8
DEFPOINTS
 62
     0
 10
4378.9976228294436
 20
4775.6338204631638
 30
0.0
  0
POINT
  5
39CC
  8
DEFPOINTS
 62
     0
 10
4601.2848429459182
 20
4479.7815906442729
 30
0.0
  0
POINT
  5
39CD
  8
DEFPOINTS
 62
     0
 10
4601.2848429459182
 20
4857.6352945090757
 30
0.0
  0
ENDBLK
  5
39C4
  8
0
  0
BLOCK
  8
0
  2
A$C2860434C
 70
     0
 10
0.0
 20
0.0
 30
0.0
  3
A$C2860434C
  1

  0
LINE
  5
3F68
  8
FUTO
 10
46.801270116426167
 20
-0.0000088960860012
 30
0.0
 11
8.5860233121038618
 21
70.149984541374579
 31
0.0
  0
LINE
  5
3F69
  8
FUTO
 10
-0.0000161416137416
 20
53.349984541375299
 30
0.0
 11
1.5999838583866219
 21
53.349984541375299
 31
0.0
  0
LINE
  5
3F6A
  8
FUTO
 10
-0.0000161416137416
 20
53.349984541375299
 30
0.0
 11
-0.0000161416137416
 21
68.549984541374215
 31
0.0
  0
LINE
  5
3F6B
  8
FUTO
 10
1.5999838583866219
 20
53.349984541375299
 30
0.0
 11
1.5999838583866219
 21
68.549984541374215
 31
0.0
  0
LINE
  5
3F6C
  8
FUTO
 10
3.1999838583869851
 20
70.149984541374579
 30
0.0
 11
91.769214627616734
 21
70.149984541370941
 31
0.0
  0
LINE
  5
3F6D
  8
FUTO
 10
3.1999838583869851
 20
71.749984541373124
 30
0.0
 11
92.794855653257414
 21
71.749984541373124
 31
0.0
  0
ARC
  5
3F6E
  8
FUTO
 10
3.1999838583869851
 20
68.549984541374215
 30
0.0
 40
3.2000000000000002
 50
90.0
 51
180.0
  0
ARC
  5
3F6F
  8
FUTO
 10
3.1999838583869851
 20
68.549984541374215
 30
0.0
 40
1.6000000000000001
 50
90.0
 51
180.0
  0
ENDBLK
  5
3F71
  8
0
  0
BLOCK
  8
0
  2
_NONE
 70
     0
 10
0.0
 20
0.0
 30
0.0
  3
_NONE
  1

  0
ENDBLK
  5
5AD6
  8
0
  0
BLOCK
  8
0
  2
*D12
 70
     1
 10
0.0
 20
0.0
 30
0.0
  3
*D12
  1

  0
LINE
  5
69CF
  8
SP
 10
5775.1758943041395
 20
4660.1352945090803
 30
0.0
 11
5950.2351172597482
 21
4660.1352945090803
 31
0.0
  0
LINE
  5
69D0
  8
SP
 10
5775.1758943041423
 20
4345.1352945090803
 30
0.0
 11
5950.2351172597482
 21
4345.1352945090803
 31
0.0
  0
LINE
  5
69D1
  8
SP
 10
5935.2351172597482
 20
4622.6352945090803
 30
0.0
 11
5935.2351172597482
 21
4382.6352945090803
 31
0.0
  0
INSERT
  5
69D2
  8
SP
  2
_OPEN
 10
5935.2351172597482
 20
4660.1352945090803
 30
0.0
 41
37.5
 42
37.5
 43
37.5
 50
90.0
  0
INSERT
  5
69D3
  8
SP
  2
_OPEN
 10
5935.2351172597482
 20
4345.1352945090803
 30
0.0
 41
37.5
 42
37.5
 43
37.5
 50
270.0
  0
TEXT
  5
69D4
  8
SP
 10
5920.2351172597473
 20
4424.6874851940429
 30
0.0
 40
45.0
  1
φ315
 50
90.0
 51
15.0
  0
POINT
  5
69D5
  8
DEFPOINTS
 62
     0
 10
5760.1758943041395
 20
4660.1352945090803
 30
0.0
  0
POINT
  5
69D6
  8
DEFPOINTS
 62
     0
 10
5760.1758943041432
 20
4345.1352945090803
 30
0.0
  0
POINT
  5
69D7
  8
DEFPOINTS
 62
     0
 10
5935.2351172597482
 20
4345.1352945090803
 30
0.0
  0
ENDBLK
  5
6196
  8
0
  0
BLOCK
  8
0
  2
L-40-3
 70
     0
 10
0.0
 20
0.0
 30
0.0
  3
L-40-3
  1

  0
ARC
  5
6273
  8
0
 10
7.5
 20
7.5
 30
0.0
 40
4.5
 50
180.0
 51
270.0
  0
LINE
  5
6274
  8
0
 10
0.0
 20
0.0
 30
0.0
 11
0.0
 21
40.0
 31
0.0
  0
LINE
  5
6275
  8
0
 10
7.5
 20
3.0
 30
0.0
 11
38.0
 21
3.0
 31
0.0
  0
LINE
  5
6276
  8
0
 10
0.0
 20
0.0
 30
0.0
 11
40.0
 21
0.0
 31
0.0
  0
LINE
  5
6277
  8
0
 10
40.0
 20
0.0
 30
0.0
 11
40.0
 21
1.0
 31
0.0
  0
ARC
  5
6278
  8
0
 10
38.0
 20
1.0
 30
0.0
 40
2.0
 50
0.0
 51
90.0
  0
LINE
  5
6279
  8
0
 10
3.0
 20
7.5
 30
0.0
 11
3.0
 21
38.0
 31
0.0
  0
LINE
  5
627A
  8
0
 10
0.0
 20
40.0
 30
0.0
 11
1.0
 21
40.0
 31
0.0
  0
ARC
  5
627B
  8
0
 10
1.0
 20
38.0
 30
0.0
 40
2.0
 50
0.0
 51
90.0
  0
ENDBLK
  5
627D
  8
0
  0
BLOCK
  8
0
  2
*D14
 70
     1
 10
0.0
 20
0.0
 30
0.0
  3
*D14
  1

  0
LINE
  5
6510
  8
SP
 10
4688.9976228294518
 20
4092.6352945090821
 30
0.0
 11
4688.9976228294518
 21
3882.6352945090821
 31
0.0
  0
LINE
  5
6511
  8
SP
 10
4068.9976228294522
 20
4092.6352945090821
 30
0.0
 11
4068.9976228294522
 21
3882.6352945090821
 31
0.0
  0
LINE
  5
6512
  8
SP
 10
4651.4976228294518
 20
3897.6352945090821
 30
0.0
 11
4106.4976228294518
 21
3897.6352945090821
 31
0.0
  0
INSERT
  5
6513
  8
SP
  2
_OPEN
 10
4688.9976228294518
 20
3897.6352945090821
 30
0.0
 41
37.5
 42
37.5
 43
37.5
  0
INSERT
  5
6514
  8
SP
  2
_OPEN
 10
4068.9976228294522
 20
3897.6352945090821
 30
0.0
 41
37.5
 42
37.5
 43
37.5
 50
180.0
  0
TEXT
  5
6515
  8
SP
 10
4315.3987115630689
 20
3912.6352945090821
 30
0.0
 40
45.0
  1
620
 51
15.0
  0
POINT
  5
6516
  8
DEFPOINTS
 62
     0
 10
4688.9976228294518
 20
4107.635294509083
 30
0.0
  0
POINT
  5
6517
  8
DEFPOINTS
 62
     0
 10
4068.9976228294522
 20
4107.635294509083
 30
0.0
  0
POINT
  5
6518
  8
DEFPOINTS
 62
     0
 10
4068.9976228294522
 20
3897.6352945090821
 30
0.0
  0
ENDBLK
  5
64F7
  8
0
  0
BLOCK
  8
0
  2
*D15
 70
     1
 10
0.0
 20
0.0
 30
0.0
  3
*D15
  1

  0
LINE
  5
6519
  8
SP
 10
4378.9976228294518
 20
4047.9208645024009
 30
0.0
 11
4378.9976228294518
 21
3987.6352945090821
 31
0.0
  0
LINE
  5
651A
  8
SP
 10
4688.9976228294518
 20
4092.6352945090821
 30
0.0
 11
4688.9976228294518
 21
3987.6352945090821
 31
0.0
  0
LINE
  5
651B
  8
SP
 10
4416.4976228294518
 20
4002.6352945090821
 30
0.0
 11
4651.4976228294518
 21
4002.6352945090821
 31
0.0
  0
INSERT
  5
651C
  8
SP
  2
_OPEN
 10
4378.9976228294518
 20
4002.6352945090821
 30
0.0
 41
37.5
 42
37.5
 43
37.5
 50
180.0
  0
INSERT
  5
651D
  8
SP
  2
_OPEN
 10
4688.9976228294518
 20
4002.6352945090821
 30
0.0
 41
37.5
 42
37.5
 43
37.5
  0
TEXT
  5
651E
  8
SP
 10
4475.4687659997508
 20
4017.6352945090821
 30
0.0
 40
45.0
  1
310
 51
15.0
  0
POINT
  5
651F
  8
DEFPOINTS
 62
     0
 10
4378.9976228294518
 20
4062.9208645024019
 30
0.0
  0
POINT
  5
6520
  8
DEFPOINTS
 62
     0
 10
4688.9976228294518
 20
4107.635294509083
 30
0.0
  0
POINT
  5
6521
  8
DEFPOINTS
 62
     0
 10
4688.9976228294518
 20
4002.6352945090821
 30
0.0
  0
ENDBLK
  5
6503
  8
0
  0
BLOCK
  8
0
  2
*D16
 70
     1
 10
0.0
 20
0.0
 30
0.0
  3
*D16
  1

  0
LINE
  5
6522
  8
SP
 10
4378.9976228294518
 20
4047.9208645024009
 30
0.0
 11
4378.9976228294518
 21
3987.6352945090821
 31
0.0
  0
LINE
  5
6523
  8
SP
 10
4068.9976228294522
 20
4092.6352945090821
 30
0.0
 11
4068.9976228294522
 21
3987.6352945090821
 31
0.0
  0
LINE
  5
6524
  8
SP
 10
4341.4976228294518
 20
4002.6352945090821
 30
0.0
 11
4106.4976228294518
 21
4002.6352945090821
 31
0.0
  0
INSERT
  5
6525
  8
SP
  2
_OPEN
 10
4378.9976228294518
 20
4002.6352945090821
 30
0.0
 41
37.5
 42
37.5
 43
37.5
  0
INSERT
  5
6526
  8
SP
  2
_OPEN
 10
4068.9976228294522
 20
4002.6352945090821
 30
0.0
 41
37.5
 42
37.5
 43
37.5
 50
180.0
  0
TEXT
  5
6527
  8
SP
 10
4165.4687659997517
 20
4017.6352945090821
 30
0.0
 40
45.0
  1
310
 51
15.0
  0
POINT
  5
6528
  8
DEFPOINTS
 62
     0
 10
4378.9976228294518
 20
4062.9208645024019
 30
0.0
  0
POINT
  5
6529
  8
DEFPOINTS
 62
     0
 10
4068.9976228294522
 20
4107.635294509083
 30
0.0
  0
POINT
  5
652A
  8
DEFPOINTS
 62
     0
 10
4068.9976228294522
 20
4002.6352945090821
 30
0.0
  0
ENDBLK
  5
650F
  8
0
  0
BLOCK
  8
0
  2
*D17
 70
     1
 10
0.0
 20
0.0
 30
0.0
  3
*D17
  1

  0
LINE
  5
679F
  8
SP
 10
5159.1758943041414
 20
4132.6352945090803
 30
0.0
 11
5159.1758943041414
 21
3882.6352945090798
 31
0.0
  0
LINE
  5
67A0
  8
SP
 10
5859.1758943041395
 20
4132.6352945090803
 30
0.0
 11
5859.1758943041395
 21
3882.6352945090798
 31
0.0
  0
LINE
  5
67A1
  8
SP
 10
5196.6758943041395
 20
3897.6352945090798
 30
0.0
 11
5821.6758943041395
 21
3897.6352945090798
 31
0.0
  0
INSERT
  5
67A2
  8
SP
  2
_OPEN
 10
5159.1758943041414
 20
3897.6352945090798
 30
0.0
 41
37.5
 42
37.5
 43
37.5
 50
180.0
  0
INSERT
  5
67A3
  8
SP
  2
_OPEN
 10
5859.1758943041395
 20
3897.6352945090798
 30
0.0
 41
37.5
 42
37.5
 43
37.5
  0
TEXT
  5
67A4
  8
SP
 10
5443.2239625848588
 20
3912.6352945090798
 30
0.0
 40
45.0
  1
700
 51
15.0
  0
POINT
  5
67A5
  8
DEFPOINTS
 62
     0
 10
5159.1758943041414
 20
4147.6352945090803
 30
0.0
  0
POINT
  5
67A6
  8
DEFPOINTS
 62
     0
 10
5859.1758943041395
 20
4147.6352945090803
 30
0.0
  0
POINT
  5
67A7
  8
DEFPOINTS
 62
     0
 10
5859.1758943041395
 20
3897.6352945090798
 30
0.0
  0
ENDBLK
  5
6786
  8
0
  0
BLOCK
  8
0
  2
*D18
 70
     1
 10
0.0
 20
0.0
 30
0.0
  3
*D18
  1

  0
LINE
  5
67A8
  8
SP
 10
5639.1758943041395
 20
4047.9208645024
 30
0.0
 11
5639.1758943041395
 21
3987.6352945090798
 31
0.0
  0
LINE
  5
67A9
  8
SP
 10
5859.1758943041395
 20
4132.6352945090803
 30
0.0
 11
5859.1758943041395
 21
3987.6352945090798
 31
0.0
  0
LINE
  5
67AA
  8
SP
 10
5676.6758943041395
 20
4002.6352945090798
 30
0.0
 11
5821.6758943041395
 21
4002.6352945090798
 31
0.0
  0
INSERT
  5
67AB
  8
SP
  2
_OPEN
 10
5639.1758943041395
 20
4002.6352945090798
 30
0.0
 41
37.5
 42
37.5
 43
37.5
 50
180.0
  0
INSERT
  5
67AC
  8
SP
  2
_OPEN
 10
5859.1758943041395
 20
4002.6352945090798
 30
0.0
 41
37.5
 42
37.5
 43
37.5
  0
TEXT
  5
67AD
  8
SP
 10
5687.5096768705744
 20
4017.6352945090798
 30
0.0
 40
45.0
  1
220
 51
15.0
  0
POINT
  5
67AE
  8
DEFPOINTS
 62
     0
 10
5639.1758943041395
 20
4062.9208645024
 30
0.0
  0
POINT
  5
67AF
  8
DEFPOINTS
 62
     0
 10
5859.1758943041395
 20
4147.6352945090803
 30
0.0
  0
POINT
  5
67B0
  8
DEFPOINTS
 62
     0
 10
5859.1758943041395
 20
4002.6352945090798
 30
0.0
  0
ENDBLK
  5
6792
  8
0
  0
BLOCK
  8
0
  2
*D19
 70
     1
 10
0.0
 20
0.0
 30
0.0
  3
*D19
  1

  0
LINE
  5
67B1
  8
SP
 10
5159.1758943041414
 20
4132.6352945090803
 30
0.0
 11
5159.1758943041414
 21
3987.6352945090798
 31
0.0
  0
LINE
  5
67B2
  8
SP
 10
5639.1758943041395
 20
4047.9208645024
 30
0.0
 11
5639.1758943041395
 21
3987.6352945090798
 31
0.0
  0
LINE
  5
67B3
  8
SP
 10
5196.6758943041395
 20
4002.6352945090798
 30
0.0
 11
5601.6758943041395
 21
4002.6352945090798
 31
0.0
  0
INSERT
  5
67B4
  8
SP
  2
_OPEN
 10
5159.1758943041414
 20
4002.6352945090798
 30
0.0
 41
37.5
 42
37.5
 43
37.5
 50
180.0
  0
INSERT
  5
67B5
  8
SP
  2
_OPEN
 10
5639.1758943041395
 20
4002.6352945090798
 30
0.0
 41
37.5
 42
37.5
 43
37.5
  0
TEXT
  5
67B6
  8
SP
 10
5335.5000579273401
 20
4017.6352945090798
 30
0.0
 40
45.0
  1
480
 51
15.0
  0
POINT
  5
67B7
  8
DEFPOINTS
 62
     0
 10
5159.1758943041414
 20
4147.6352945090803
 30
0.0
  0
POINT
  5
67B8
  8
DEFPOINTS
 62
     0
 10
5639.1758943041395
 20
4062.9208645024
 30
0.0
  0
POINT
  5
67B9
  8
DEFPOINTS
 62
     0
 10
5639.1758943041395
 20
4002.6352945090798
 30
0.0
  0
ENDBLK
  5
679E
  8
0
  0
BLOCK
  8
0
  2
*D20
 70
     1
 10
0.0
 20
0.0
 30
0.0
  3
*D20
  1

  0
LINE
  5
6A42
  8
SP
 10
4703.9976228294427
 20
6074.3629352201697
 30
0.0
 11
4867.1091128583766
 21
6074.3629352201697
 31
0.0
  0
LINE
  5
6A43
  8
SP
 10
4703.9976228294427
 20
5374.3629352201688
 30
0.0
 11
4867.1091128583766
 21
5374.3629352201688
 31
0.0
  0
LINE
  5
6A44
  8
SP
 10
4852.1091128583776
 20
6036.8629352201697
 30
0.0
 11
4852.1091128583776
 21
5411.8629352201688
 31
0.0
  0
INSERT
  5
6A45
  8
SP
  2
_OPEN
 10
4852.1091128583776
 20
6074.3629352201697
 30
0.0
 41
37.5
 42
37.5
 43
37.5
 50
90.0
  0
INSERT
  5
6A46
  8
SP
  2
_OPEN
 10
4852.1091128583776
 20
5374.3629352201688
 30
0.0
 41
37.5
 42
37.5
 43
37.5
 50
270.0
  0
TEXT
  5
6A47
  8
SP
 10
4837.1091128583766
 20
5658.4110035008889
 30
0.0
 40
45.0
  1
700
 50
90.0
 51
15.0
  0
POINT
  5
6A48
  8
DEFPOINTS
 62
     0
 10
4688.9976228294427
 20
6074.3629352201697
 30
0.0
  0
POINT
  5
6A49
  8
DEFPOINTS
 62
     0
 10
4688.9976228294427
 20
5374.3629352201688
 30
0.0
  0
POINT
  5
6A4A
  8
DEFPOINTS
 62
     0
 10
4852.1091128583776
 20
5374.3629352201688
 30
0.0
  0
ENDBLK
  5
6A35
  8
0
  0
BLOCK
  8
0
  2
*D21
 70
     1
 10
0.0
 20
0.0
 30
0.0
  3
*D21
  1

  0
LINE
  5
6A4B
  8
SP
 10
4688.9976228294427
 20
5359.3629352201679
 30
0.0
 11
4688.9976228294427
 21
5220.4232802762617
 31
0.0
  0
LINE
  5
6A4C
  8
SP
 10
4068.9976228294431
 20
5359.3629352201679
 30
0.0
 11
4068.9976228294431
 21
5220.4232802762617
 31
0.0
  0
LINE
  5
6A4D
  8
SP
 10
4651.4976228294436
 20
5235.4232802762608
 30
0.0
 11
4106.4976228294427
 21
5235.4232802762608
 31
0.0
  0
INSERT
  5
6A4E
  8
SP
  2
_OPEN
 10
4688.9976228294427
 20
5235.4232802762608
 30
0.0
 41
37.5
 42
37.5
 43
37.5
  0
INSERT
  5
6A4F
  8
SP
  2
_OPEN
 10
4068.9976228294431
 20
5235.4232802762608
 30
0.0
 41
37.5
 42
37.5
 43
37.5
 50
180.0
  0
TEXT
  5
6A50
  8
SP
 10
4315.3987115630607
 20
5250.4232802762617
 30
0.0
 40
45.0
  1
620
 51
15.0
  0
POINT
  5
6A51
  8
DEFPOINTS
 62
     0
 10
4688.9976228294427
 20
5374.3629352201688
 30
0.0
  0
POINT
  5
6A52
  8
DEFPOINTS
 62
     0
 10
4068.9976228294431
 20
5374.3629352201679
 30
0.0
  0
POINT
  5
6A53
  8
DEFPOINTS
 62
     0
 10
4068.9976228294431
 20
5235.4232802762608
 30
0.0
  0
ENDBLK
  5
6A41
  8
0
  0
ENDSEC
  0
SECTION
  2
ENTITIES
  0
TEXT
  5
2515
  8
4
 10
4825.5794584133164
 20
3298.5491681619478
 30
0.0
 40
75.0
  1
MF＃2-7
  0
TEXT
  5
2517
  8
4
 10
4812.1158332665918
 20
3456.6674451783861
 30
0.0
 40
75.0
  1
ミツヤ多翼送風機
  0
LINE
  5
2518
  8
4
 10
3345.597715035095
 20
7247.8097917420337
 30
0.0
 11
6495.5977150350964
 21
7247.8097917420337
 31
0.0
  0
LINE
  5
2519
  8
4
 10
3720.597715035095
 20
6826.9229231392419
 30
0.0
 11
6120.5977150350964
 21
6826.9229231392419
 31
0.0
  0
LINE
  5
251A
  8
4
 10
3720.597715035095
 20
6526.9229231392419
 30
0.0
 11
6120.5977150350964
 21
6526.9229231392419
 31
0.0
  0
TEXT
  5
251B
  8
4
 10
4077.6920709523852
 20
6623.6312560409797
 30
0.0
 40
108.0
  1
遠心式片吸込直動形多翼ファン
  0
LINE
  5
251C
  8
4
 10
6495.5977150350964
 20
2822.8097917420341
 30
0.0
 11
3345.597715035095
 21
2822.8097917420341
 31
0.0
  0
LINE
  5
251D
  8
4
 10
4020.597715035095
 20
3572.8097917420332
 30
0.0
 11
5820.5977150350946
 21
3572.8097917420332
 31
0.0
  0
LINE
  5
251E
  8
4
 10
4020.597715035095
 20
3422.8097917420332
 30
0.0
 11
5820.5977150350946
 21
3422.8097917420332
 31
0.0
  0
LINE
  5
251F
  8
4
 10
4020.597715035095
 20
3272.8097917420332
 30
0.0
 11
5820.5977150350946
 21
3272.8097917420332
 31
0.0
  0
LINE
  5
2521
  8
4
 10
3345.597715035095
 20
2822.8097917420341
 30
0.0
 11
3345.597715035095
 21
7247.8097917420337
 31
0.0
  0
TEXT
  5
2523
  8
4
 10
4074.9848740722909
 20
3305.2775268400501
 30
0.0
 40
75.0
  1
機器型番
  0
TEXT
  5
2524
  8
4
 10
4078.350836305448
 20
3470.124330541953
 30
0.0
 40
75.0
  1
機器名称
  0
LINE
  5
2525
  8
4
 10
4020.597715035095
 20
3572.8097917420332
 30
0.0
 11
4020.597715035095
 21
3272.8097917420332
 31
0.0
  0
LINE
  5
2526
  8
4
 10
4770.5977150350946
 20
3572.8097917420332
 30
0.0
 11
4770.5977150350946
 21
3272.8097917420332
 31
0.0
  0
TEXT
  5
2527
  8
4
 10
3818.4810872250491
 20
6396.2890080615489
 30
0.0
 40
80.999999999999986
  1
右回転上向
  0
LINE
  5
2528
  8
4
 10
3720.597715035095
 20
6826.9229231392419
 30
0.0
 11
3720.597715035095
 21
6526.9229231392419
 31
0.0
  0
LINE
  5
2606
  8
4
 10
6495.5977150350964
 20
7247.8097917420337
 30
0.0
 11
6495.5977150350964
 21
2822.8097917420341
 31
0.0
  0
LINE
  5
2607
  8
4
 10
5820.5977150350946
 20
3572.8097917420332
 30
0.0
 11
5820.5977150350973
 21
3272.8097917420332
 31
0.0
  0
LINE
  5
2609
  8
4
 10
6120.5977150350964
 20
6844.7051664301353
 30
0.0
 11
5506.5238485748923
 21
6844.7051664301353
 31
0.0
  0
LINE
  5
260A
  8
4
 10
5506.5238485748923
 20
7002.7881840666632
 30
0.0
 11
6120.5977150350964
 21
7002.7881840666632
 31
0.0
  0
TEXT
  5
2659
  8
4
 10
5549.0520539090303
 20
6881.9014139849969
 30
0.0
 40
84.000000000000014
  1
No.
  0
LINE
  5
265A
  8
4
 10
5506.5238485748923
 20
6844.7051664301353
 30
0.0
 11
5506.5238485748923
 21
7002.7881840666632
 31
0.0
  0
LINE
  5
265B
  8
4
 10
6120.5977150350964
 20
6826.9229231392419
 30
0.0
 11
6120.5977150350964
 21
6526.9229231392419
 31
0.0
  0
LINE
  5
265C
  8
4
 10
6120.5977150350964
 20
7002.7881840666632
 30
0.0
 11
6120.5977150350964
 21
6844.7051664301353
 31
0.0
  0
LINE
  5
265D
  8
4
 10
6495.5977150350964
 20
7247.8097917420337
 30
0.0
 11
6495.5977150350964
 21
7247.8097917420337
 31
0.0
  0
LINE
  5
3404
  8
2
 10
4022.5127481446689
 20
5854.3629352201688
 30
0.0
 11
4625.0811817865979
 21
5854.3629352201688
 31
0.0
1001
ACAD
1000
ASC_BOUNDS
1002
{
1070
    19
1005
0
1005
0
1002
}
  0
LINE
  5
3414
  8
1
 10
4400.4976228292899
 20
5967.3629352201651
 30
0.0
 11
4586.9976228294408
 21
5967.3629352201688
 31
0.0
  0
LINE
  5
3415
  8
1
 10
4400.12498326276
 20
5741.3629352201706
 30
0.0
 11
4586.9976228294418
 21
5741.3629352201688
 31
0.0
  0
LINE
  5
341A
  8
2
 10
4378.9976228294436
 20
5393.2593981710779
 30
0.0
 11
4378.9976228294381
 21
6048.1037539332601
 31
0.0
  0
LINE
  5
345C
  8
1
 10
4601.9976228294418
 20
5756.3629352201688
 30
0.0
 11
4601.9976228294408
 21
5952.3629352201679
 31
0.0
  0
ARC
  5
345D
  8
1
 10
4586.9976228294418
 20
5756.3629352201688
 30
0.0
 40
15.0
 50
270.0
 51
0.0
  0
ARC
  5
3463
  8
1
 10
4586.9976228294408
 20
5952.3629352201679
 30
0.0
 40
15.0
 50
0.0
 51
90.0
  0
LINE
  5
346B
  8
2
 10
5805.0479143511566
 20
4502.6352945090803
 30
0.0
 11
5177.7877737375611
 21
4502.6352945090803
 31
0.0
  0
LINE
  5
346C
  8
1
 10
5506.1758943041423
 20
4752.6352945090839
 30
0.0
 11
5772.1758943041395
 21
4752.6352945090839
 31
0.0
  0
LINE
  5
346D
  8
1
 10
5544.9758943041397
 20
4732.635294509083
 30
0.0
 11
5733.3758943041403
 21
4732.635294509083
 31
0.0
  0
LINE
  5
346E
  8
1
 10
5506.1758943041395
 20
4751.4352945090841
 30
0.0
 11
5772.1758943041414
 21
4751.4352945090841
 31
0.0
  0
LINE
  5
346F
  8
1
 10
5541.1758943041395
 20
4238.4040128752458
 30
0.0
 11
5737.1758943041395
 21
4238.4040128752467
 31
0.0
  0
LINE
  5
348D
  8
2
 10
5639.1758943041395
 20
4839.8210851210533
 30
0.0
 11
5639.1758943041395
 21
4062.9208645024009
 31
0.0
1001
ACAD
1000
ASC_BOUNDS
1002
{
1070
    19
1005
0
1005
0
1002
}
  0
ARC
  5
3493
  8
1
 10
5541.1758943041395
 20
4253.4040128752458
 30
0.0
 40
15.0
 50
180.0
 51
270.0
  0
LINE
  5
349F
  8
1
 10
5527.1758943041414
 20
4752.6352945090839
 30
0.0
 11
5527.1758943041414
 21
4253.4040128752458
 31
0.0
  0
LINE
  5
34A0
  8
1
 10
5526.1758943041423
 20
4752.6352945090839
 30
0.0
 11
5526.1758943041423
 21
4253.4040128752458
 31
0.0
  0
LINE
  5
34A7
  8
1
 10
5526.1758943041423
 20
4751.4352945090841
 30
0.0
 11
5544.9758943041397
 21
4732.635294509083
 31
0.0
  0
LINE
  5
34A8
  8
1
 10
5506.1758943041414
 20
4752.6352945090839
 30
0.0
 11
5506.1758943041414
 21
4751.4352945090841
 31
0.0
1001
ACAD
1000
ASC_BOUNDS
1002
{
1070
    19
1002
}
  0
ARC
  5
34AA
  8
1
 10
5737.1758943041395
 20
4253.4040128752476
 30
0.0
 40
15.0
 50
270.0
 51
0.0
  0
LINE
  5
34AB
  8
1
 10
5751.1758943041414
 20
4752.6352945090839
 30
0.0
 11
5751.1758943041414
 21
4253.4040128752476
 31
0.0
  0
LINE
  5
34AC
  8
1
 10
5752.1758943041414
 20
4752.6352945090839
 30
0.0
 11
5752.1758943041414
 21
4253.4040128752476
 31
0.0
  0
LINE
  5
34BD
  8
1
 10
5752.1758943041414
 20
4751.4352945090841
 30
0.0
 11
5733.3758943041403
 21
4732.635294509083
 31
0.0
  0
LINE
  5
34BE
  8
1
 10
5772.1758943041395
 20
4752.6352945090839
 30
0.0
 11
5772.1758943041395
 21
4751.4352945090841
 31
0.0
1001
ACAD
1000
ASC_BOUNDS
1002
{
1070
    19
1002
}
  0
DIMENSION
  5
34BF
  8
SP
  2
*D3
 10
5751.1758943041414
 20
4857.7513991557207
 30
0.0
 11
5639.1758943041414
 21
4895.2513991557207
 31
0.0
 70
     0
 13
5527.1758943041414
 23
4752.6352945090839
 33
0.0
 14
5751.1758943041414
 24
4752.6352945090839
 34
0.0
  0
DIMENSION
  5
34CE
  8
SP
  2
*D4
 10
5760.1758943041395
 20
4962.6352945090839
 30
0.0
 11
5699.6758943041414
 21
5000.1352945090839
 31
0.0
 70
     0
 13
5639.1758943041395
 23
4917.7513991557198
 33
0.0
 14
5760.1758943041395
 24
4684.1352945090803
 34
0.0
  0
DIMENSION
  5
34ED
  8
SP
  2
*D5
 10
5219.1758943041395
 20
4962.6352945090839
 30
0.0
 11
5429.1758943041395
 21
5000.1352945090839
 31
0.0
 70
     0
  1
（420）
 13
5639.1758943041395
 23
4917.7513991557198
 33
0.0
 14
5219.1758943041395
 24
4586.2161945090811
 34
0.0
  0
POLYLINE
  5
388B
  8
1
 66
     1
 10
0.0
 20
0.0
 30
0.0
  0
VERTEX
  5
6C82
  8
1
 10
4053.9976228294481
 20
4732.6352945090857
 30
0.0
  0
VERTEX
  5
6C83
  8
1
 10
4053.9976228294431
 20
4528.1231177703976
 30
0.0
 42
0.2269714708976296
  0
VERTEX
  5
6C84
  8
1
 10
4167.743804945274
 20
4291.9245747736586
 30
0.0
  0
SEQEND
  5
6C85
  8
1
  0
POLYLINE
  5
388C
  8
1
 66
     1
 10
0.0
 20
0.0
 30
0.0
  0
VERTEX
  5
6C86
  8
1
 10
4063.997622829449
 20
4752.6352945090866
 30
0.0
  0
VERTEX
  5
6C87
  8
1
 10
4063.9976228294431
 20
4528.1352945090866
 30
0.0
 42
0.2269607506063405
  0
VERTEX
  5
6C88
  8
1
 10
4173.9976228294454
 20
4299.7277639852337
 30
0.0
 42
0.129402372482195
  0
SEQEND
  5
6C89
  8
1
  0
LINE
  5
388F
  8
1
 10
4081.3976228294509
 20
4732.6352945090839
 30
0.0
 11
4362.5976228294503
 21
4732.6352945090766
 31
0.0
  0
DIMENSION
  5
3890
  8
SP
  2
*D6
 10
4733.9976228294481
 20
4752.6352945090748
 30
0.0
 11
4696.4976228294481
 21
4627.6352945090803
 31
0.0
 70
     0
 13
4647.2611187834063
 23
4502.6352945090821
 33
0.0
 14
4400.4976228294499
 24
4752.6352945090748
 34
0.0
 50
90.0
  0
LINE
  5
3891
  8
2
 10
4378.9976228294436
 20
4062.9208645024009
 30
0.0
 11
4378.9976228294436
 21
4775.6338204631638
 31
0.0
  0
DIMENSION
  5
3894
  8
SP
  2
*D7
 10
4733.997622829439
 20
4502.6352945090821
 30
0.0
 11
4696.4976228294381
 21
4305.135294509083
 31
0.0
 70
     0
 13
4688.9976228294518
 23
4107.635294509083
 33
0.0
 14
4647.2611187834063
 24
4502.6352945090821
 34
0.0
 50
90.0
  0
POLYLINE
  5
38A2
  8
1
 66
     1
 10
0.0
 20
0.0
 30
0.0
  0
VERTEX
  5
6C8A
  8
1
 10
4167.8473353668387
 20
4291.8427171161702
 30
0.0
 42
0.2162335382726867
  0
VERTEX
  5
6C8B
  8
1
 10
4408.7984599774181
 20
4233.7678046994024
 30
0.0
 42
0.1298839697351506
  0
VERTEX
  5
6C8C
  8
1
 10
4524.7671183398861
 20
4290.0528387363911
 30
0.0
 42
0.1298839697351506
  0
SEQEND
  5
6C8D
  8
1
  0
POLYLINE
  5
38A3
  8
1
 66
     1
 10
0.0
 20
0.0
 30
0.0
  0
VERTEX
  5
6C8E
  8
1
 10
4391.6618864434413
 20
4728.1462015125217
 30
0.0
 42
0.0934525219043797
  0
VERTEX
  5
6C8F
  8
1
 10
4411.5520381218521
 20
4707.6352945090766
 30
0.0
 42
0.1987366729981355
  0
SEQEND
  5
6C90
  8
1
  0
POLYLINE
  5
38A4
  8
1
 66
     1
 10
0.0
 20
0.0
 30
0.0
  0
VERTEX
  5
6C91
  8
1
 10
4395.8527144830214
 20
4707.6352945090766
 30
0.0
 42
0.1315967463597435
  0
VERTEX
  5
6C92
  8
1
 10
4435.3920528374601
 20
4686.0077547521769
 30
0.0
 42
0.2200089805681688
  0
SEQEND
  5
6C93
  8
1
  0
ARC
  5
38A5
  8
1
 10
4378.9976228294363
 20
4502.6352945090821
 30
0.0
 40
100.8
 50
285.79710000000102
 51
0.0
  0
ARC
  5
38A6
  8
1
 10
4378.9976228294363
 20
4502.6352945090821
 30
0.0
 40
100.8
 50
0.0
 51
254.57230000000021
  0
POLYLINE
  5
38A7
  8
1
 66
     1
 10
0.0
 20
0.0
 30
0.0
  0
VERTEX
  5
6C94
  8
1
 10
4173.9976228294454
 20
4299.7277639852337
 30
0.0
 42
0.2162148363065116
  0
VERTEX
  5
6C95
  8
1
 10
4406.8954396374966
 20
4243.5850832324377
 30
0.0
 42
0.1298622998199493
  0
VERTEX
  5
6C96
  8
1
 10
4518.2474278215186
 20
4297.635294509073
 30
0.0
 42
0.3153658436290411
  0
SEQEND
  5
6C97
  8
1
  0
CIRCLE
  5
38A8
  8
CT
 10
4378.9976228294363
 20
4502.6352945090821
 30
0.0
 40
169.0
  0
POLYLINE
  5
38A9
  8
1
 66
     1
 10
0.0
 20
0.0
 30
0.0
  0
VERTEX
  5
6C98
  8
1
 10
4593.2878783189999
 20
4385.9568804092933
 30
0.0
 42
0.1343314877425494
  0
VERTEX
  5
6C99
  8
1
 10
4608.240909655643
 20
4518.9534235028332
 30
0.0
 42
0.3163064660587118
  0
VERTEX
  5
6C9A
  8
1
 10
4437.2522471346247
 20
4695.8332146270177
 30
0.0
 42
0.3163064660587118
  0
SEQEND
  5
6C9B
  8
1
  0
LINE
  5
38AA
  8
1
 10
4406.615322829437
 20
4405.6352945090821
 30
0.0
 11
4351.7282228294371
 21
4405.6352945090821
 31
0.0
  0
POLYLINE
  5
38AD
  8
1
 66
     1
 10
0.0
 20
0.0
 30
0.0
  0
VERTEX
  5
6C9C
  8
1
 10
4583.9976228294454
 20
4389.6570362085513
 30
0.0
 42
0.1343280102757561
  0
VERTEX
  5
6C9D
  8
1
 10
4598.3614670386514
 20
4517.40531978937
 30
0.0
 42
0.3163019945347412
  0
VERTEX
  5
6C9E
  8
1
 10
4435.367255877718
 20
4686.0124810514963
 30
0.0
 42
0.3153658436290411
  0
SEQEND
  5
6C9F
  8
1
  0
POLYLINE
  5
38AE
  8
1
 66
     1
 10
0.0
 20
0.0
 30
0.0
  0
VERTEX
  5
6CA0
  8
1
 10
4524.8150427802093
 20
4290.0943109025166
 30
0.0
 42
0.1174780416237576
  0
VERTEX
  5
6CA1
  8
1
 10
4593.2599179114122
 20
4385.8874354585296
 30
0.0
 42
0.1174780416237576
  0
SEQEND
  5
6CA2
  8
1
  0
LINE
  5
38AF
  8
CT
 10
4333.0572423237554
 20
4331.1834603427733
 30
0.0
 11
4337.1666781088097
 21
4346.5200834830403
 31
0.0
  0
POLYLINE
  5
38B1
  8
1
 66
     1
 10
0.0
 20
0.0
 30
0.0
  0
VERTEX
  5
6CA3
  8
1
 10
4518.2474278215168
 20
4297.6352945090739
 30
0.0
 42
0.1174780416237573
  0
VERTEX
  5
6CA4
  8
1
 10
4583.9976228294454
 20
4389.6570362085522
 30
0.0
 42
0.3153658436290411
  0
SEQEND
  5
6CA5
  8
1
  0
CIRCLE
  5
38B3
  8
1
 10
4335.257204207127
 20
4339.3938298662306
 30
0.0
 40
4.0
  0
LINE
  5
38B4
  8
CT
 10
4298.9976228294372
 20
4416.0157945090814
 30
0.0
 11
4298.9976228294372
 21
4398.6686945090823
 31
0.0
  0
LINE
  5
38B5
  8
1
 10
4318.7951228294369
 20
4421.7464945090824
 30
0.0
 11
4312.5626228294368
 21
4415.5139945090814
 31
0.0
  0
ARC
  5
38B6
  8
1
 10
4310.4412228294368
 20
4417.6352945090812
 30
0.0
 40
3.0
 50
270.0
 51
315.0
  0
LINE
  5
38B7
  8
1
 10
4325.5472228294366
 20
4417.1849945090808
 30
0.0
 11
4318.9976228294372
 21
4410.6352945090821
 31
0.0
  0
ARC
  5
38B8
  8
1
 10
4316.9976228294372
 20
4412.6352945090821
 30
0.0
 40
2.0
 50
0.0
 51
90.0
  0
LINE
  5
38B9
  8
1
 10
4318.9976228294372
 20
4402.6352945090821
 30
0.0
 11
4318.9976228294372
 21
4412.6352945090821
 31
0.0
  0
LINE
  5
38BA
  8
1
 10
4304.9976228294372
 20
4402.6352945090821
 30
0.0
 11
4304.9976228294372
 21
4414.6352945090812
 31
0.0
  0
LINE
  5
38BB
  8
1
 10
4292.9976228294372
 20
4414.6352945090812
 30
0.0
 11
4292.9976228294372
 21
4402.6352945090821
 31
0.0
  0
ARC
  5
38BC
  8
1
 10
4280.9976228294372
 20
4412.6352945090821
 30
0.0
 40
2.0
 50
90.0
 51
180.0
  0
LINE
  5
38BD
  8
1
 10
4278.9976228294372
 20
4402.6352945090821
 30
0.0
 11
4278.9976228294372
 21
4412.6352945090821
 31
0.0
  0
LINE
  5
38BE
  8
1
 10
4279.8898228294383
 20
4414.303394509082
 30
0.0
 11
4296.2906228294369
 21
4444.9653945090822
 31
0.0
  0
LINE
  5
38BF
  8
1
 10
4278.9976228294372
 20
4402.6352945090821
 30
0.0
 11
4318.9976228294372
 21
4402.6352945090821
 31
0.0
  0
LINE
  5
38C0
  8
1
 10
4280.9976228294372
 20
4414.6352945090812
 30
0.0
 11
4316.9976228294372
 21
4414.6352945090812
 31
0.0
  0
LINE
  5
38C1
  8
CT
 10
4253.4861691688402
 20
4377.1238408484642
 30
0.0
 11
4264.713356524052
 21
4388.3510282036759
 31
0.0
  0
CIRCLE
  5
38C2
  8
1
 10
4259.4965768089251
 20
4383.1342484885508
 30
0.0
 40
4.0
  0
LINE
  5
38C3
  8
CT
 10
4207.5457886631411
 20
4456.6949140033767
 30
0.0
 11
4222.8824118034081
 21
4460.8043497884328
 31
0.0
  0
CIRCLE
  5
38C4
  8
1
 10
4215.7561581865994
 20
4458.89487588675
 30
0.0
 40
4.0
  0
LINE
  5
38C7
  8
CT
 10
4424.938003335149
 20
4331.183460342776
 30
0.0
 11
4420.8285675500947
 21
4346.520083483043
 31
0.0
  0
LINE
  5
38CA
  8
CT
 10
4550.4494569957542
 20
4456.6949140033912
 30
0.0
 11
4535.1128338554872
 21
4460.8043497884482
 31
0.0
  0
CIRCLE
  5
38CB
  8
1
 10
4542.2390874722969
 20
4458.8948758867637
 30
0.0
 40
4.0
  0
LINE
  5
38CC
  8
CT
 10
4504.5090764900606
 20
4377.1238408484769
 30
0.0
 11
4493.2818891348479
 21
4388.3510282036887
 31
0.0
  0
CIRCLE
  5
38CD
  8
1
 10
4498.4986688499748
 20
4383.1342484885618
 30
0.0
 40
4.0
  0
LINE
  5
38CE
  8
CT
 10
4458.9976228294372
 20
4416.0157945090814
 30
0.0
 11
4458.9976228294372
 21
4398.6686945090823
 31
0.0
  0
ARC
  5
38CF
  8
1
 10
4476.9976228294372
 20
4412.6352945090821
 30
0.0
 40
2.0
 50
0.0
 51
90.0
  0
LINE
  5
38D0
  8
1
 10
4464.9976228294372
 20
4414.6352945090812
 30
0.0
 11
4464.9976228294372
 21
4402.6352945090821
 31
0.0
  0
LINE
  5
38D1
  8
1
 10
4478.9976228294372
 20
4402.6352945090821
 30
0.0
 11
4478.9976228294372
 21
4412.6352945090821
 31
0.0
  0
LINE
  5
38D2
  8
1
 10
4452.9976228294372
 20
4402.6352945090821
 30
0.0
 11
4452.9976228294372
 21
4414.6352945090812
 31
0.0
  0
LINE
  5
38D3
  8
1
 10
4477.9068228294373
 20
4414.6747945090819
 30
0.0
 11
4461.7881228294373
 21
4444.8090945090808
 31
0.0
  0
LINE
  5
38D4
  8
1
 10
4432.7442228294376
 20
4416.8887945090819
 30
0.0
 11
4438.9976228294372
 21
4410.6352945090821
 31
0.0
  0
ARC
  5
38D5
  8
1
 10
4440.9976228294381
 20
4412.6352945090821
 30
0.0
 40
2.0
 50
90.0
 51
180.0
  0
LINE
  5
38D6
  8
1
 10
4438.9976228294372
 20
4402.6352945090821
 30
0.0
 11
4438.9976228294372
 21
4412.6352945090821
 31
0.0
  0
LINE
  5
38D7
  8
1
 10
4439.5797228294368
 20
4421.3669945090815
 30
0.0
 11
4445.4326228294376
 21
4415.5139945090814
 31
0.0
  0
ARC
  5
38D8
  8
1
 10
4447.5540228294376
 20
4417.6352945090812
 30
0.0
 40
3.0
 50
225.0
 51
270.0
  0
CIRCLE
  5
38D9
  8
1
 10
4422.7380414517766
 20
4339.3938298662342
 30
0.0
 40
4.0
  0
LINE
  5
38DA
  8
1
 10
4478.9976228294372
 20
4402.6352945090821
 30
0.0
 11
4438.9976228294372
 21
4402.6352945090821
 31
0.0
  0
LINE
  5
38DB
  8
1
 10
4476.9976228294372
 20
4414.6352945090812
 30
0.0
 11
4440.9976228294381
 21
4414.6352945090812
 31
0.0
  0
POLYLINE
  5
38DD
  8
1
 66
     1
 10
0.0
 20
0.0
 30
0.0
  0
VERTEX
  5
6CA6
  8
1
 10
4411.5520381218521
 20
4707.6352945090766
 30
0.0
 42
0.0941668855597806
  0
VERTEX
  5
6CA7
  8
1
 10
4437.7577899203534
 20
4695.7238902007302
 30
0.0
 42
0.1987366729981355
  0
SEQEND
  5
6CA8
  8
1
  0
LINE
  5
38DF
  8
2
 10
3989.9628998044941
 20
4502.6352945090821
 30
0.0
 11
4647.2611187834063
 21
4502.6352945090821
 31
0.0
  0
LINE
  5
38E1
  8
CT
 10
4207.5457886631348
 20
4548.5756750147712
 30
0.0
 11
4222.8824118034026
 21
4544.466239229715
 31
0.0
  0
CIRCLE
  5
38E2
  8
1
 10
4215.7561581865921
 20
4546.3757131313987
 30
0.0
 40
4.0
  0
LINE
  5
38E3
  8
CT
 10
4333.057242323739
 20
4674.0871286753872
 30
0.0
 11
4337.1666781087952
 21
4658.7505055351194
 31
0.0
  0
CIRCLE
  5
38E4
  8
1
 10
4335.2572042071124
 20
4665.8767591519299
 30
0.0
 40
4.0
  0
LINE
  5
38E5
  8
CT
 10
4253.4861691688266
 20
4628.1467481696873
 30
0.0
 11
4264.7133565240401
 21
4616.9195608144746
 31
0.0
  0
CIRCLE
  5
38E6
  8
1
 10
4259.4965768089132
 20
4622.1363405296006
 30
0.0
 40
4.0
  0
POINT
  5
38E7
  8
1
 10
4221.4976228294436
 20
4752.635294509093
 30
0.0
  0
POINT
  5
38E8
  8
1
 10
4221.4976228294436
 20
4752.635294509093
 30
0.0
  0
LINE
  5
38EA
  8
CT
 10
4550.4494569957487
 20
4548.5756750147857
 30
0.0
 11
4535.1128338554827
 21
4544.4662392297323
 31
0.0
  0
CIRCLE
  5
38EB
  8
1
 10
4542.2390874722914
 20
4546.375713131416
 30
0.0
 40
4.0
  0
POLYLINE
  5
38EC
  8
FUTO
 66
     1
 10
0.0
 20
0.0
 30
0.0
  0
VERTEX
  5
6CA9
  8
FUTO
 10
4400.4976228294499
 20
4752.6352945090748
 30
0.0
  0
VERTEX
  5
6CAA
  8
FUTO
 10
4400.4976228294499
 20
4751.435294509075
 30
0.0
  0
SEQEND
  5
6CAB
  8
FUTO
  0
POLYLINE
  5
38ED
  8
CT
 66
     1
 10
0.0
 20
0.0
 30
0.0
  0
VERTEX
  5
6CAC
  8
CT
 10
4390.4976228294499
 20
4757.6984577240737
 30
0.0
  0
VERTEX
  5
6CAD
  8
CT
 10
4390.497622829449
 20
4745.4301474401282
 30
0.0
  0
SEQEND
  5
6CAE
  8
CT
  0
ARC
  5
38EE
  8
1
 10
4378.997622829449
 20
4747.6352945090794
 30
0.0
 40
1.0
 50
0.0
 51
143.130102354195
  0
POINT
  5
38EF
  8
1
 10
4378.997622829449
 20
4752.6352945090748
 30
0.0
  0
LINE
  5
38F0
  8
1
 10
4379.9976228294554
 20
4732.6352945090757
 30
0.0
 11
4383.3174329562862
 21
4732.6352945090739
 31
0.0
  0
LINE
  5
38F1
  8
1
 10
4379.9976228294481
 20
4752.6352945090784
 30
0.0
 11
4379.9976228294481
 21
4731.6352945090784
 31
0.0
  0
LINE
  5
38F2
  8
1
 10
4378.2976228294519
 20
4748.3352945090764
 30
0.0
 11
4362.5976228294521
 21
4732.6352945090766
 31
0.0
  0
POLYLINE
  5
38F3
  8
1
 66
     1
 10
0.0
 20
0.0
 30
0.0
  0
VERTEX
  5
6CAF
  8
1
 10
4379.9976228294481
 20
4731.6352945090784
 30
0.0
 42
0.101266720201501
  0
VERTEX
  5
6CB0
  8
1
 10
4381.1229778130582
 20
4726.1358840223138
 30
0.0
 42
0.0681921917069782
  0
VERTEX
  5
6CB1
  8
1
 10
4395.8527144830214
 20
4707.6352945090766
 30
0.0
 42
0.2200089805681688
  0
SEQEND
  5
6CB2
  8
1
  0
ARC
  5
38F4
  8
1
 10
4383.3174329562798
 20
4722.6352945090784
 30
0.0
 40
10.0
 50
33.441871789480892
 51
90.0
  0
LINE
  5
38F5
  8
CT
 10
4504.5090764900497
 20
4628.1467481696982
 30
0.0
 11
4493.2818891348379
 21
4616.9195608144864
 31
0.0
  0
CIRCLE
  5
38F6
  8
1
 10
4498.4986688499639
 20
4622.1363405296124
 30
0.0
 40
4.0
  0
LINE
  5
38F7
  8
CT
 10
4424.9380033351326
 20
4674.0871286753918
 30
0.0
 11
4420.8285675500783
 21
4658.7505055351248
 31
0.0
  0
CIRCLE
  5
38F8
  8
1
 10
4422.7380414517611
 20
4665.8767591519336
 30
0.0
 40
4.0
  0
LINE
  5
38FA
  8
FUTO
 10
4053.9976228294481
 20
4732.6352945090857
 30
0.0
 11
4063.9976228294481
 21
4732.6352945090857
 31
0.0
  0
ARC
  5
38FB
  8
1
 10
4064.9976228294499
 20
4747.6352945090866
 30
0.0
 40
1.0
 50
36.86989764580494
 51
180.0
  0
LINE
  5
38FC
  8
1
 10
4065.6976228294488
 20
4748.3352945090846
 30
0.0
 11
4081.3976228294509
 21
4732.6352945090839
 31
0.0
  0
POLYLINE
  5
38FD
  8
CT
 66
     1
 10
0.0
 20
0.0
 30
0.0
  0
VERTEX
  5
6CB3
  8
CT
 10
4052.4976228294499
 20
4757.6984577240828
 30
0.0
  0
VERTEX
  5
6CB4
  8
CT
 10
4052.497622829449
 20
4745.4301474401382
 30
0.0
  0
SEQEND
  5
6CB5
  8
CT
  0
LINE
  5
3992
  8
FUTO
 10
4400.4976228294499
 20
4752.6352945090748
 30
0.0
 11
4042.4976228294499
 21
4752.6352945090866
 31
0.0
  0
LINE
  5
3993
  8
FUTO
 10
4042.4976228294499
 20
4752.6352945090866
 30
0.0
 11
4042.497622829449
 21
4751.4352945090859
 31
0.0
  0
LINE
  5
3994
  8
FUTO
 10
4042.497622829449
 20
4751.4352945090859
 30
0.0
 11
4400.497622829449
 21
4751.435294509075
 31
0.0
  0
DIMENSION
  5
3997
  8
SP
  2
*D8
 10
4378.9976228294436
 20
4857.6352945090757
 30
0.0
 11
4221.4976228294472
 21
4895.1352945090757
 31
0.0
 70
     0
 13
4063.997622829449
 23
4752.6352945090866
 33
0.0
 14
4378.9976228294436
 24
4775.6338204631638
 34
0.0
  0
DIMENSION
  5
39B6
  8
SP
  2
*D9
 10
4601.2848429459182
 20
4857.6352945090757
 30
0.0
 11
4490.1412328876813
 21
4895.1352945090766
 31
0.0
 70
     0
 13
4378.9976228294436
 23
4775.6338204631638
 33
0.0
 14
4601.2848429459182
 24
4479.7815906442729
 34
0.0
1001
ACAD
1000
DSTYLE
1002
{
1070
   271
1070
     0
1002
}
  0
LINE
  5
39D8
  8
FUTO
 10
4400.497622829449
 20
5962.3629352201688
 30
0.0
 11
4400.497622829449
 21
5746.3629352201688
 31
0.0
  0
LINE
  5
39D9
  8
FUTO
 10
4042.497622829449
 20
5746.3629352201688
 30
0.0
 11
4042.497622829449
 21
5962.3629352201688
 31
0.0
  0
LINE
  5
39DB
  8
FUTO
 10
4067.4976228294481
 20
5987.3629352201679
 30
0.0
 11
4375.4976228294481
 21
5987.3629352201679
 31
0.0
1001
ACAD
1000
ASC_BOUNDS
1002
{
1070
    19
1005
0
1005
0
1002
}
  0
LINE
  5
39DC
  8
FUTO
 10
4067.4976228294481
 20
5721.3629352201679
 30
0.0
 11
4375.4976228294481
 21
5721.3629352201679
 31
0.0
1001
ACAD
1000
ASC_BOUNDS
1002
{
1070
    19
1005
0
1005
0
1002
}
  0
ARC
  5
39DD
  8
FUTO
 10
4067.497622829449
 20
5746.3629352201697
 30
0.0
 40
25.0
 50
180.00000000000199
 51
269.99999999999892
  0
ARC
  5
39DE
  8
FUTO
 10
4067.497622829449
 20
5962.362935220166
 30
0.0
 40
25.0
 50
90.000000000001037
 51
179.99999999999579
  0
ARC
  5
39DF
  8
FUTO
 10
4375.4976228294508
 20
5962.3629352201697
 30
0.0
 40
25.0
 50
359.9999999999979
 51
90.000000000004164
  0
ARC
  5
39E0
  8
FUTO
 10
4375.4976228294481
 20
5746.3629352201688
 30
0.0
 40
25.0
 50
270.0
 51
0.0
  0
LINE
  5
39E1
  8
FUTO
 10
4077.4976228294499
 20
5967.3629352201688
 30
0.0
 11
4365.497622829449
 21
5967.3629352201688
 31
0.0
1001
ACAD
1000
ASC_BOUNDS
1002
{
1070
    19
1005
0
1005
0
1002
}
  0
LINE
  5
39E2
  8
FUTO
 10
4077.497622829449
 20
5741.3629352201688
 30
0.0
 11
4365.497622829449
 21
5741.3629352201688
 31
0.0
1001
ACAD
1000
ASC_BOUNDS
1002
{
1070
    19
1005
0
1005
0
1002
}
  0
LINE
  5
39E3
  8
FUTO
 10
4062.497622829449
 20
5756.3629352201688
 30
0.0
 11
4062.497622829449
 21
5952.3629352201679
 31
0.0
  0
LINE
  5
39E4
  8
FUTO
 10
4380.497622829449
 20
5952.3629352201679
 30
0.0
 11
4380.497622829449
 21
5756.3629352201688
 31
0.0
  0
ARC
  5
39E5
  8
FUTO
 10
4077.4976228294499
 20
5952.3629352201679
 30
0.0
 40
15.0
 50
90.0
 51
180.0
  0
ARC
  5
39E6
  8
FUTO
 10
4077.497622829449
 20
5756.3629352201688
 30
0.0
 40
15.0
 50
179.9999999999998
 51
270.0
  0
ARC
  5
39E7
  8
FUTO
 10
4365.497622829449
 20
5756.3629352201688
 30
0.0
 40
15.0
 50
270.0
 51
0.0
  0
ARC
  5
39E8
  8
FUTO
 10
4365.497622829449
 20
5952.3629352201679
 30
0.0
 40
15.0
 50
0.0
 51
90.0
  0
LINE
  5
39E9
  8
HOSO
 10
4066.8910211116508
 20
5962.969536937967
 30
0.0
 11
4376.1042245472472
 21
5745.7563335023697
 31
0.0
  0
LINE
  5
39EA
  8
HOSO
 10
4066.8910211116508
 20
5745.7563335023697
 30
0.0
 11
4376.1042245472472
 21
5962.969536937967
 31
0.0
  0
LINE
  5
43AD
  8
1
 10
5269.1758943041395
 20
4406.6352945090821
 30
0.0
 11
5269.1758943041395
 21
4601.9352945090832
 31
0.0
  0
LINE
  5
43AE
  8
1
 10
5309.1758943041395
 20
4603.4352945090832
 30
0.0
 11
5309.1758943041395
 21
4452.6352945090812
 31
0.0
  0
LINE
  5
43AF
  8
1
 10
5219.1758943041395
 20
4419.0823945090824
 30
0.0
 11
5219.1758943041395
 21
4586.2161945090829
 31
0.0
  0
LINE
  5
43B0
  8
FUTO
 10
5267.6527772801683
 20
4311.7736236871342
 30
0.0
 11
5220.0549534847169
 21
4399.146787701623
 31
0.0
  0
LINE
  5
43B1
  8
1
 10
5269.1758943041395
 20
4406.6352945090821
 30
0.0
 11
5220.5891943041406
 21
4417.3243945090817
 31
0.0
  0
LINE
  5
43B2
  8
FUTO
 10
5211.9758943041415
 20
4401.5467877016208
 30
0.0
 11
5300.7297627818416
 21
4401.5467877016208
 31
0.0
  0
LINE
  5
43B3
  8
FUTO
 10
5211.9758943041415
 20
4399.146787701623
 30
0.0
 11
5299.845481091701
 21
4399.1467877016203
 31
0.0
  0
LINE
  5
43B4
  8
FUTO
 10
5207.1758943041395
 20
4373.946787701625
 30
0.0
 11
5207.1758943041395
 21
4396.7467877016234
 31
0.0
  0
LINE
  5
43B5
  8
FUTO
 10
5209.575894304141
 20
4373.946787701625
 30
0.0
 11
5209.575894304141
 21
4396.7467877016234
 31
0.0
  0
ARC
  5
43B6
  8
FUTO
 10
5211.9758943041415
 20
4396.7467877016234
 30
0.0
 40
4.7999999999999998
 50
89.999999999999986
 51
180.0
  0
ARC
  5
43B7
  8
FUTO
 10
5211.9758943041415
 20
4396.7467877016234
 30
0.0
 40
2.3999999999999999
 50
89.999999999999986
 51
180.0
  0
LINE
  5
43B8
  8
FUTO
 10
5207.1758943041395
 20
4373.946787701625
 30
0.0
 11
5209.575894304141
 21
4373.946787701625
 31
0.0
  0
ARC
  5
43B9
  8
1
 10
5220.9756943041411
 20
4419.0821945090829
 30
0.0
 40
1.7998000000000001
 50
179.9961000000213
 51
257.59830000000699
  0
LINE
  5
43BA
  8
1
 10
5295.1758943041395
 20
4405.6352945090821
 30
0.0
 11
5295.1758943041395
 21
4443.6352945090821
 31
0.0
  0
ARC
  5
43BB
  8
1
 10
5270.1759943041388
 20
4406.6352945090821
 30
0.0
 40
1.0000999999999991
 50
180.0
 51
269.99650000001031
  0
LINE
  5
43BC
  8
1
 10
5295.1758943041395
 20
4405.6352945090821
 30
0.0
 11
5270.1758943041414
 21
4405.6352945090821
 31
0.0
  0
LINE
  5
43BD
  8
1
 10
5295.0763943041411
 20
4417.6352945090812
 30
0.0
 11
5306.6575844449872
 21
4417.6352945090812
 31
0.0
  0
LINE
  5
43BE
  8
1
 10
5295.1758943041395
 20
4443.6352945090821
 30
0.0
 11
5309.1758943041395
 21
4452.6352945090812
 31
0.0
  0
LINE
  5
43BF
  8
1
 10
5269.1758943041395
 20
4599.6352945090821
 30
0.0
 11
5220.5557943041413
 21
4587.9664945090826
 31
0.0
  0
ARC
  5
43C0
  8
1
 10
5220.9757943041404
 20
4586.2162945090822
 30
0.0
 40
1.7999000000000001
 50
103.4933999999954
 51
180.0018999999831
  0
LINE
  5
43C1
  8
1
 10
5309.0075943041411
 20
4589.0759945090831
 30
0.0
 11
5316.8361943041409
 21
4602.6352945090821
 31
0.0
  0
ARC
  5
43C2
  8
1
 10
5270.6758943041395
 20
4601.9352945090832
 30
0.0
 40
1.5
 50
89.999999999999986
 51
180.0
  0
LINE
  5
43C3
  8
1
 10
5309.1758943041395
 20
4603.4352945090832
 30
0.0
 11
5270.6758943041395
 21
4603.4352945090832
 31
0.0
  0
LINE
  5
43C4
  8
1
 10
5392.1758943041414
 20
4602.6352945090821
 30
0.0
 11
5316.8361943041409
 21
4602.6352945090821
 31
0.0
  0
LINE
  5
43C5
  8
1
 10
5527.1758943041395
 20
4707.6352945090803
 30
0.0
 11
5336.6139110961903
 21
4502.6352945090821
 31
0.0
  0
LINE
  5
43C6
  8
1
 10
5392.1758943041414
 20
4602.6352945090821
 30
0.0
 11
5429.5709760756781
 21
4602.6352945090821
 31
0.0
  0
LINE
  5
43C7
  8
1
 10
5525.1758943041423
 20
4685.1352945090821
 30
0.0
 11
5519.1758943041395
 21
4685.1352945090821
 31
0.0
  0
ARC
  5
43C8
  8
1
 10
5525.1758943041423
 20
4686.1352945090812
 30
0.0
 40
1.0
 50
270.0
 51
0.0
  0
ARC
  5
43C9
  8
1
 10
5519.1758943041395
 20
4684.1352945090812
 30
0.0
 40
1.0
 50
89.999999999999986
 51
180.0
  0
POLYLINE
  5
43CA
  8
1
 66
     1
 10
0.0
 20
0.0
 30
0.0
  0
VERTEX
  5
6CB6
  8
1
 10
5518.1758943041414
 20
4697.9534053466105
 30
0.0
  0
VERTEX
  5
6CB7
  8
1
 10
5518.1758943041386
 20
4502.6352945090821
 30
0.0
  0
VERTEX
  5
6CB8
  8
1
 10
5518.1758943041386
 20
4147.635294509083
 30
0.0
  0
SEQEND
  5
6CB9
  8
1
  0
POLYLINE
  5
43CB
  8
1
 66
     1
 10
0.0
 20
0.0
 30
0.0
  0
VERTEX
  5
6CBA
  8
1
 10
5514.9758943041388
 20
4694.51095586662
 30
0.0
  0
VERTEX
  5
6CBB
  8
1
 10
5514.9758943041397
 20
4147.635294509083
 30
0.0
  0
SEQEND
  5
6CBC
  8
1
  0
ARC
  5
43CC
  8
1
 10
5519.1758943041395
 20
4321.1352945090812
 30
0.0
 40
1.0
 50
180.0
 51
270.0
  0
LINE
  5
43CD
  8
1
 10
5526.1758943041423
 20
4320.1352945090821
 30
0.0
 11
5519.1758943041395
 21
4320.1352945090821
 31
0.0
  0
LINE
  5
43CE
  8
1
 10
5208.1758943041414
 20
4147.635294509083
 30
0.0
 11
5558.1758943041414
 21
4147.635294509083
 31
0.0
  0
POLYLINE
  5
43CF
  8
1
 66
     1
 10
0.0
 20
0.0
 30
0.0
  0
VERTEX
  5
6CBD
  8
1
 10
5558.1758943041414
 20
4150.8352945090819
 30
0.0
  0
VERTEX
  5
6CBE
  8
1
 10
5558.1758943041414
 20
4147.6352945090821
 30
0.0
  0
SEQEND
  5
6CBF
  8
1
  0
LINE
  5
43D0
  8
1
 10
5518.1758943041423
 20
4150.8352945090819
 30
0.0
 11
5558.1758943041414
 21
4150.8352945090819
 31
0.0
  0
LINE
  5
43D1
  8
FUTO
 10
5208.1758943041414
 20
4150.8352945090819
 30
0.0
 11
5514.9758943041397
 21
4150.8352945090819
 31
0.0
  0
LINE
  5
43D2
  8
FUTO
 10
5208.1758943041414
 20
4147.635294509083
 30
0.0
 11
5208.1758943041414
 21
4150.8352945090819
 31
0.0
  0
LINE
  5
43D3
  8
FUTO
 10
5337.9758943041406
 20
4502.6352945090821
 30
0.0
 11
5208.1758943041414
 21
4150.8352945090819
 31
0.0
  0
LINE
  5
43F4
  8
1
 10
4462.5505228294369
 20
5434.3629352201679
 30
0.0
 11
4295.4167228294382
 21
5434.3629352201679
 31
0.0
  0
LINE
  5
43F5
  8
1
 10
4462.5505228294414
 20
5434.3629352201679
 30
0.0
 11
4295.4167228294409
 21
5434.3629352201679
 31
0.0
  0
LINE
  5
43F6
  8
1
 10
4474.9976228294372
 20
5484.3629352201679
 30
0.0
 11
4279.6976228294379
 21
5484.3629352201679
 31
0.0
  0
LINE
  5
43F7
  8
1
 10
4278.1976228294379
 20
5524.3629352201679
 30
0.0
 11
4479.7976228294383
 21
5524.3629352201679
 31
0.0
  0
LINE
  5
43F8
  8
1
 10
4281.9976228294381
 20
5484.3629352201679
 30
0.0
 11
4293.6664228294376
 21
5435.7428352201678
 31
0.0
  0
ARC
  5
43F9
  8
1
 10
4295.416622829438
 20
5436.1628352201687
 30
0.0
 40
1.7999000000000001
 50
193.49339999999771
 51
270.0018999999993
  0
LINE
  5
43FA
  8
1
 10
4278.1976228294379
 20
5524.3629352201679
 30
0.0
 11
4278.1976228294379
 21
5485.8629352201679
 31
0.0
  0
ARC
  5
43FB
  8
1
 10
4279.6976228294379
 20
5485.8629352201679
 30
0.0
 40
1.5
 50
180.0
 51
270.0
  0
LINE
  5
43FC
  8
1
 10
4292.556922829438
 20
5524.1946352201694
 30
0.0
 11
4278.997622829439
 21
5532.0232352201701
 31
0.0
  0
LINE
  5
43FD
  8
1
 10
4475.9976228294381
 20
5484.3629352201679
 30
0.0
 11
4464.3288228294377
 21
5435.7428352201678
 31
0.0
  0
ARC
  5
43FE
  8
1
 10
4462.5786228294382
 20
5436.1628352201687
 30
0.0
 40
1.7999000000000001
 50
269.99810000000048
 51
346.50660000000221
  0
LINE
  5
43FF
  8
1
 10
4479.7976228294383
 20
5524.3629352201679
 30
0.0
 11
4479.7976228294383
 21
5485.8629352201679
 31
0.0
  0
ARC
  5
4400
  8
1
 10
4478.2976228294383
 20
5485.8629352201679
 30
0.0
 40
1.5
 50
270.0
 51
0.0
  0
LINE
  5
4401
  8
1
 10
4465.4383228294382
 20
5524.1946352201694
 30
0.0
 11
4478.9976228294381
 21
5532.0232352201701
 31
0.0
  0
LINE
  5
440A
  8
1
 10
4478.9976228294381
 20
5682.7026352201692
 30
0.0
 11
4478.9976228294381
 21
5532.0232352201701
 31
0.0
  0
LINE
  5
440B
  8
1
 10
4278.997622829439
 20
5532.0232352201701
 30
0.0
 11
4278.997622829439
 21
5682.7026352201692
 31
0.0
  0
LINE
  5
440C
  8
1
 10
4463.9976228294372
 20
5691.3629352201688
 30
0.0
 11
4293.9976228294381
 21
5691.3629352201688
 31
0.0
  0
LINE
  5
440D
  8
1
 10
4296.9976228294381
 20
5712.0906146535881
 30
0.0
 11
4460.9976228294372
 21
5712.0906146535881
 31
0.0
  0
LINE
  5
440E
  8
1
 10
4415.9976228294381
 20
5718.0906146535881
 30
0.0
 11
4341.9976228294372
 21
5718.0906146535881
 31
0.0
  0
LINE
  5
440F
  8
1
 10
4293.9976228294381
 20
5691.3629352201688
 30
0.0
 11
4293.9976228294381
 21
5709.0906146535881
 31
0.0
  0
LINE
  5
4410
  8
1
 10
4293.9976228294381
 20
5694.3629352201688
 30
0.0
 11
4293.9976228294381
 21
5691.3629352201688
 31
0.0
  0
LINE
  5
4411
  8
1
 10
4278.997622829439
 20
5682.7026352201692
 30
0.0
 11
4293.9976228294381
 21
5691.3629352201688
 31
0.0
  0
ARC
  5
4412
  8
1
 10
4341.9975228294379
 20
5715.0906146535881
 30
0.0
 40
2.9998999999999989
 50
89.998799999999648
 51
180.001199999997
  0
LINE
  5
4413
  8
1
 10
4338.9976228294372
 20
5712.0906146535881
 30
0.0
 11
4338.9976228294372
 21
5715.0906146535881
 31
0.0
  0
ARC
  5
4414
  8
1
 10
4296.9975228294379
 20
5709.0906146535881
 30
0.0
 40
2.9998999999999989
 50
89.998799999999648
 51
180.001199999997
  0
LINE
  5
4415
  8
1
 10
4463.9976228294372
 20
5691.3629352201688
 30
0.0
 11
4463.9976228294372
 21
5709.0906146535881
 31
0.0
  0
LINE
  5
4416
  8
1
 10
4463.9976228294372
 20
5694.3629352201688
 30
0.0
 11
4463.9976228294372
 21
5691.3629352201688
 31
0.0
  0
LINE
  5
4417
  8
1
 10
4478.9976228294381
 20
5682.7026352201692
 30
0.0
 11
4463.9976228294372
 21
5691.3629352201688
 31
0.0
  0
ARC
  5
4418
  8
1
 10
4460.9977228294383
 20
5709.0906146535881
 30
0.0
 40
2.9998999999999989
 50
359.9988000000028
 51
90.001200000000338
  0
LINE
  5
4419
  8
1
 10
4418.9976228294381
 20
5712.0906146535881
 30
0.0
 11
4418.9976228294381
 21
5715.0906146535881
 31
0.0
  0
ARC
  5
441A
  8
1
 10
4415.9976228294381
 20
5715.0906146535881
 30
0.0
 40
2.9998999999999989
 50
359.9988000000028
 51
90.001200000000338
  0
LINE
  5
441B
  8
1
 10
4393.5975228294383
 20
5718.0906146535881
 30
0.0
 11
4393.5975228294383
 21
5741.3629352201688
 31
0.0
  0
LINE
  5
441C
  8
1
 10
4364.3976228294378
 20
5718.0906146535881
 30
0.0
 11
4364.3976228294378
 21
5741.3629352201724
 31
0.0
  0
POLYLINE
  5
4438
  8
1
 66
     1
 10
0.0
 20
0.0
 30
0.0
  0
VERTEX
  5
6CC0
  8
1
 10
4358.6673200496161
 20
5975.3629352201688
 30
0.0
  0
VERTEX
  5
6CC1
  8
1
 10
4197.4976228294399
 20
5975.3629352201688
 30
0.0
  0
SEQEND
  5
6CC2
  8
1
  0
LINE
  5
4439
  8
1
 10
4198.4976228294408
 20
5974.3629352201697
 30
0.0
 11
4226.1983244888734
 21
5974.3629352201688
 31
0.0
  0
ARC
  5
443A
  8
1
 10
4195.4976228294399
 20
5968.3629352201688
 30
0.0
 40
1.0
 50
270.0
 51
0.0
  0
LINE
  5
443B
  8
1
 10
4196.4976228294408
 20
5968.3629352201688
 30
0.0
 11
4196.4976228294408
 21
5974.3629352201697
 31
0.0
  0
LINE
  5
443C
  8
1
 10
4197.4976228294381
 20
5967.3629352201706
 30
0.0
 11
4197.4976228294399
 21
5973.3629352201706
 31
0.0
  0
ARC
  5
443D
  8
1
 10
4197.4976228294399
 20
5974.3629352201688
 30
0.0
 40
1.0
 50
90.000000000000028
 51
180.0
  0
ARC
  5
443E
  8
1
 10
4198.4976228294408
 20
5973.3629352201688
 30
0.0
 40
1.0
 50
90.000000000000028
 51
180.0
  0
ARC
  5
443F
  8
1
 10
4199.3430426414488
 20
5933.7890820682705
 30
0.0
 40
48.656384192584412
 50
43.631651276835868
 51
56.49996633473549
  0
POLYLINE
  5
4440
  8
1
 66
     1
 10
0.0
 20
0.0
 30
0.0
  0
VERTEX
  5
6CC3
  8
1
 10
4560.4976228294399
 20
5975.3629352201688
 30
0.0
  0
VERTEX
  5
6CC4
  8
1
 10
4378.9976228294399
 20
5975.3629352201688
 30
0.0
  0
VERTEX
  5
6CC5
  8
1
 10
4358.6673200496161
 20
5975.3629352201688
 30
0.0
  0
SEQEND
  5
6CC6
  8
1
  0
LINE
  5
4441
  8
1
 10
4559.497622829439
 20
5974.3629352201688
 30
0.0
 11
4531.7969211700047
 21
5974.3629352201688
 31
0.0
  0
ARC
  5
4442
  8
1
 10
4558.6522030174292
 20
5933.7890820682705
 30
0.0
 40
48.656384192584412
 50
123.5000336652645
 51
136.3683487231641
  0
ARC
  5
4443
  8
1
 10
4560.4976228294399
 20
5974.3629352201688
 30
0.0
 40
1.0
 50
0.0
 51
90.000000000000028
  0
ARC
  5
4444
  8
1
 10
4559.497622829439
 20
5973.3629352201688
 30
0.0
 40
1.0
 50
0.0
 51
90.000000000000028
  0
ARC
  5
4445
  8
1
 10
4560.4976228294418
 20
5974.3629352201688
 30
0.0
 40
1.0
 50
0.0
 51
90.000000000000028
  0
LINE
  5
4446
  8
1
 10
4560.4976228294399
 20
5967.3629352201688
 30
0.0
 11
4560.4976228294399
 21
5973.3629352201688
 31
0.0
  0
LINE
  5
4447
  8
1
 10
4561.4976228294381
 20
5968.3629352201688
 30
0.0
 11
4561.4976228294399
 21
5974.3629352201688
 31
0.0
  0
ARC
  5
4448
  8
1
 10
4562.497622829439
 20
5968.3629352201688
 30
0.0
 40
1.0
 50
180.0
 51
270.0
  0
LINE
  5
55D6
  8
FUTO
 10
4128.997622829459
 20
4147.6352945090821
 30
0.0
 11
4628.9976228294436
 21
4147.6352945090821
 31
0.0
  0
LINE
  5
55D7
  8
1
 10
4128.9976228294599
 20
4149.9352945090814
 30
0.0
 11
4166.6976228294616
 21
4149.9352945090814
 31
0.0
  0
LINE
  5
55D8
  8
1
 10
4128.9976228294599
 20
4149.9352945090814
 30
0.0
 11
4128.997622829459
 21
4147.6352945090821
 31
0.0
  0
LINE
  5
55D9
  8
2
 10
4146.9976228294508
 20
4129.4484132242542
 30
0.0
 11
4146.9976228294508
 21
4161.1393061729141
 31
0.0
  0
LINE
  5
55DA
  8
1
 10
4628.9976228294436
 20
4149.9352945090814
 30
0.0
 11
4591.297622829441
 21
4149.9352945090814
 31
0.0
  0
LINE
  5
55DB
  8
1
 10
4628.9976228294436
 20
4149.9352945090814
 30
0.0
 11
4628.9976228294436
 21
4147.6352945090821
 31
0.0
  0
LINE
  5
55DC
  8
2
 10
4610.9976228294518
 20
4129.4484132242542
 30
0.0
 11
4610.9976228294518
 21
4161.1393061729141
 31
0.0
  0
LINE
  5
55DD
  8
1
 10
4591.297622829441
 20
4585.7352945090825
 30
0.0
 11
4591.297622829441
 21
4149.9352945090804
 31
0.0
  0
LINE
  5
55DE
  8
1
 10
4588.9976228294408
 20
4587.5576166677092
 30
0.0
 11
4588.9976228294436
 21
4147.6352945090821
 31
0.0
  0
LINE
  5
55DF
  8
1
 10
4548.9976228294418
 20
4402.6352945090821
 30
0.0
 11
4548.9976228294427
 21
4202.6352945090812
 31
0.0
  0
LINE
  5
55E0
  8
1
 10
4588.9976228294427
 20
4202.6352945090812
 30
0.0
 11
4548.9976228294427
 21
4202.6352945090812
 31
0.0
  0
LINE
  5
55E1
  8
1
 10
4168.9976228294618
 20
4587.5576166677092
 30
0.0
 11
4168.997622829459
 21
4147.6352945090821
 31
0.0
  0
LINE
  5
55E2
  8
1
 10
4166.6976228294616
 20
4585.7352945090825
 30
0.0
 11
4166.6976228294616
 21
4149.9352945090804
 31
0.0
  0
LINE
  5
55E3
  8
1
 10
4208.9976228294609
 20
4402.6352945090821
 30
0.0
 11
4208.9976228294599
 21
4202.6352945090812
 31
0.0
  0
LINE
  5
55E4
  8
1
 10
4168.9976228294609
 20
4202.6352945090812
 30
0.0
 11
4208.9976228294599
 21
4202.6352945090812
 31
0.0
  0
LINE
  5
55E5
  8
1
 10
4168.9976228294609
 20
4402.6352945090821
 30
0.0
 11
4588.9976228294408
 21
4402.6352945090812
 31
0.0
  0
LINE
  5
55E6
  8
1
 10
4208.9976228294599
 20
4362.6352945090821
 30
0.0
 11
4378.9976228294518
 21
4362.6352945090821
 31
0.0
  0
LINE
  5
55E7
  8
FUTO
 10
4168.9976228294609
 20
4402.6352945090821
 30
0.0
 11
4208.9976228294599
 21
4362.6352945090821
 31
0.0
  0
LINE
  5
55E8
  8
FUTO
 10
4588.9976228294408
 20
4402.6352945090821
 30
0.0
 11
4548.9976228294427
 21
4362.6352945090821
 31
0.0
  0
LINE
  5
55E9
  8
1
 10
4548.9976228294427
 20
4362.6352945090821
 30
0.0
 11
4378.9976228294518
 21
4362.6352945090821
 31
0.0
  0
LINE
  5
55EA
  8
1
 10
4468.9976228294427
 20
4707.6352945090821
 30
0.0
 11
4591.297622829441
 21
4585.7352945090825
 31
0.0
  0
LINE
  5
55EB
  8
1
 10
4288.9976228294436
 20
4707.6352945090821
 30
0.0
 11
4166.6976228294616
 21
4585.7352945090825
 31
0.0
  0
LINE
  5
55EC
  8
1
 10
4288.9976228294436
 20
4707.6352945090839
 30
0.0
 11
4468.9976228294427
 21
4707.6352945090821
 31
0.0
  0
LINE
  5
58CC
  8
1
 10
4128.997622829439
 20
5422.3629352201688
 30
0.0
 11
4128.9976228294399
 21
5721.3629352201679
 31
0.0
  0
LINE
  5
58CD
  8
1
 10
4168.997622829439
 20
5422.3629352201688
 30
0.0
 11
4168.997622829439
 21
5722.8669718708852
 31
0.0
  0
POLYLINE
  5
58D2
  8
1
 66
     1
 10
0.0
 20
0.0
 30
0.0
  0
VERTEX
  5
6CC7
  8
1
 10
4168.997622829439
 20
5722.8669718708852
 30
0.0
  0
VERTEX
  5
6CC8
  8
1
 10
4364.3976228294378
 20
5722.8669718708852
 30
0.0
  0
SEQEND
  5
6CC9
  8
1
  0
POLYLINE
  5
58D3
  8
1
 66
     1
 10
0.0
 20
0.0
 30
0.0
  0
VERTEX
  5
6CCA
  8
1
 10
4168.997622829439
 20
5470.7629352201711
 30
0.0
  0
VERTEX
  5
6CCB
  8
1
 10
4285.261616116165
 20
5470.7629352201711
 30
0.0
  0
SEQEND
  5
6CCC
  8
1
  0
LINE
  5
58D5
  8
1
 10
4128.997622829439
 20
5422.3629352201688
 30
0.0
 11
4168.997622829439
 21
5422.3629352201688
 31
0.0
  0
POLYLINE
  5
58D8
  8
1
 66
     1
 10
0.0
 20
0.0
 30
0.0
  0
VERTEX
  5
6CCD
  8
1
 10
4472.7336295427103
 20
5470.7629352201711
 30
0.0
  0
VERTEX
  5
6CCE
  8
1
 10
4588.997622829439
 20
5470.7629352201684
 30
0.0
  0
SEQEND
  5
6CCF
  8
1
  0
LINE
  5
58DA
  8
1
 10
4588.997622829439
 20
5422.3629352201724
 30
0.0
 11
4628.9976228294381
 21
5422.3629352201688
 31
0.0
  0
LINE
  5
58DD
  8
1
 10
4628.997622829439
 20
5422.3629352201688
 30
0.0
 11
4628.997622829439
 21
5732.3629352201688
 31
0.0
  0
LINE
  5
58DE
  8
1
 10
4588.997622829439
 20
5422.3629352201688
 30
0.0
 11
4588.997622829439
 21
5732.3629352201688
 31
0.0
  0
LINE
  5
58E1
  8
FUTO
 10
4588.997622829439
 20
5732.3629352201688
 30
0.0
 11
4628.9976228294427
 21
5732.3629352201688
 31
0.0
  0
POLYLINE
  5
58E2
  8
1
 66
     1
 10
0.0
 20
0.0
 30
0.0
  0
VERTEX
  5
6CD0
  8
1
 10
4393.5975228294383
 20
5722.8669718708852
 30
0.0
  0
VERTEX
  5
6CD1
  8
1
 10
4588.997622829439
 20
5722.8669718708852
 30
0.0
  0
SEQEND
  5
6CD2
  8
1
  0
TEXT
  5
6144
  8
4
 10
5524.1201423846869
 20
6397.9530537408073
 30
0.0
 40
80.999999999999986
  1
縮尺：1/15
  0
TEXT
  5
6145
  8
4
 10
4533.951145133622
 20
6397.9530537408073
 30
0.0
 40
80.999999999999986
  1
天井吊ベッド型
  0
POLYLINE
  5
617D
  8
1
 66
     1
 10
0.0
 20
0.0
 30
0.0
  0
VERTEX
  5
6CD3
  8
1
 10
5760.1758943041395
 20
4684.1352945090821
 30
0.0
  0
VERTEX
  5
6CD4
  8
1
 10
5760.1758943041432
 20
4502.6352945090821
 30
0.0
  0
VERTEX
  5
6CD5
  8
1
 10
5760.1758943041432
 20
4321.1352945090821
 30
0.0
  0
SEQEND
  5
6CD6
  8
1
  0
LINE
  5
617E
  8
1
 10
5753.1758943041395
 20
4320.1352945090839
 30
0.0
 11
5759.1758943041423
 21
4320.1352945090839
 31
0.0
  0
ARC
  5
617F
  8
1
 10
5753.1758943041395
 20
4319.135294509083
 30
0.0
 40
1.0
 50
90.0
 51
180.0
  0
ARC
  5
6180
  8
1
 10
5759.1758943041395
 20
4321.1352945090821
 30
0.0
 40
1.0
 50
270.0
 51
0.0
  0
LINE
  5
6181
  8
FUTO
 10
5760.1758943041432
 20
4345.1352945090803
 30
0.0
 11
5752.1758943041368
 21
4345.1352945090803
 31
0.0
  0
LINE
  5
6182
  8
FUTO
 10
5760.1758943041395
 20
4660.1352945090803
 30
0.0
 11
5752.1758943041368
 21
4660.1352945090803
 31
0.0
  0
LINE
  5
6183
  8
1
 10
5753.1758943041395
 20
4685.1352945090821
 30
0.0
 11
5759.1758943041395
 21
4685.1352945090821
 31
0.0
  0
ARC
  5
6184
  8
1
 10
5753.1758943041395
 20
4686.1352945090812
 30
0.0
 40
1.0
 50
180.0
 51
270.0
  0
ARC
  5
6185
  8
1
 10
5759.1758943041395
 20
4684.1352945090812
 30
0.0
 40
1.0
 50
0.0
 51
90.0
  0
LINE
  5
6187
  8
1
 10
5541.1758943041395
 20
4239.4040128752467
 30
0.0
 11
5737.1758943041395
 21
4239.4040128752467
 31
0.0
  0
ARC
  5
6188
  8
1
 10
5541.1758943041395
 20
4253.4040128752458
 30
0.0
 40
14.0
 50
180.0
 51
270.0
  0
ARC
  5
6189
  8
1
 10
5737.1758943041395
 20
4253.4040128752476
 30
0.0
 40
14.0
 50
270.0
 51
0.0
  0
DIMENSION
  5
618A
  8
SP
  2
*D12
 10
5935.2351172597482
 20
4345.1352945090803
 30
0.0
 11
5897.7351172597473
 21
4502.6352945090812
 31
0.0
 70
     0
 13
5760.1758943041395
 23
4660.1352945090803
 33
0.0
 14
5760.1758943041432
 24
4345.1352945090803
 34
0.0
 50
90.0
1001
ACAD
1000
DSTYLE
1002
{
1070
     3
1000
φ<>
1002
}
  0
LINE
  5
64E4
  8
FUTO
 10
4068.9976228294522
 20
4144.6352945090821
 30
0.0
 11
4688.9976228294518
 21
4144.6352945090821
 31
0.0
  0
LINE
  5
64E5
  8
FUTO
 10
4068.9976228294522
 20
4147.6352945090821
 30
0.0
 11
4688.9976228294518
 21
4147.6352945090821
 31
0.0
  0
LINE
  5
64E6
  8
FUTO
 10
4068.9976228294522
 20
4107.635294509083
 30
0.0
 11
4688.9976228294518
 21
4107.635294509083
 31
0.0
  0
LINE
  5
64E7
  8
FUTO
 10
4068.9976228294522
 20
4107.635294509083
 30
0.0
 11
4068.9976228294522
 21
4147.6352945090821
 31
0.0
  0
LINE
  5
64E8
  8
FUTO
 10
4688.9976228294518
 20
4107.635294509083
 30
0.0
 11
4688.9976228294518
 21
4147.6352945090821
 31
0.0
  0
DIMENSION
  5
64E9
  8
SP
  2
*D14
 10
4068.9976228294522
 20
3897.6352945090821
 30
0.0
 11
4378.9976228294518
 21
3935.1352945090821
 31
0.0
 70
     0
 13
4688.9976228294518
 23
4107.635294509083
 33
0.0
 14
4068.9976228294522
 24
4107.635294509083
 34
0.0
  0
DIMENSION
  5
64EA
  8
SP
  2
*D15
 10
4688.9976228294518
 20
4002.6352945090821
 30
0.0
 11
4533.9976228294518
 21
4040.1352945090821
 31
0.0
 70
     0
 13
4378.9976228294518
 23
4062.9208645024019
 33
0.0
 14
4688.9976228294518
 24
4107.635294509083
 34
0.0
  0
DIMENSION
  5
64EB
  8
SP
  2
*D16
 10
4068.9976228294522
 20
4002.6352945090821
 30
0.0
 11
4223.9976228294508
 21
4040.1352945090821
 31
0.0
 70
     0
 13
4378.9976228294518
 23
4062.9208645024019
 33
0.0
 14
4068.9976228294522
 24
4107.635294509083
 34
0.0
  0
LINE
  5
6772
  8
FUTO
 10
5200.1758943041414
 20
4107.6352945090803
 30
0.0
 11
5820.1758943041395
 21
4107.6352945090803
 31
0.0
  0
LINE
  5
6773
  8
FUTO
 10
5199.1758943041395
 20
4147.6352945090803
 30
0.0
 11
5819.1758943041414
 21
4147.6352945090803
 31
0.0
  0
INSERT
  5
6774
  8
FUTO
  2
L-40-3
 10
5819.1758943041414
 20
4147.6352945090803
 30
0.0
 50
270.0
  0
LINE
  5
6775
  8
SL
 10
5841.1758943041395
 20
4135.5668186442663
 30
0.0
 11
5841.1758943041395
 21
4782.3237206356807
 31
0.0
  0
DIMENSION
  5
6776
  8
SP
  2
*D17
 10
5859.1758943041395
 20
3897.6352945090798
 30
0.0
 11
5509.1758943041395
 21
3935.1352945090798
 31
0.0
 70
     0
 13
5159.1758943041414
 23
4147.6352945090803
 33
0.0
 14
5859.1758943041395
 24
4147.6352945090803
 34
0.0
  0
DIMENSION
  5
6777
  8
SP
  2
*D18
 10
5859.1758943041395
 20
4002.6352945090798
 30
0.0
 11
5749.1758943041414
 21
4040.1352945090798
 31
0.0
 70
     0
 13
5639.1758943041395
 23
4062.9208645024
 33
0.0
 14
5859.1758943041395
 24
4147.6352945090803
 34
0.0
  0
DIMENSION
  5
6778
  8
SP
  2
*D19
 10
5639.1758943041395
 20
4002.6352945090798
 30
0.0
 11
5399.1758943041395
 21
4040.1352945090798
 31
0.0
 70
     0
 13
5159.1758943041414
 23
4147.6352945090803
 33
0.0
 14
5639.1758943041395
 24
4062.9208645024
 34
0.0
  0
LINE
  5
6779
  8
SL
 10
5177.1758943041414
 20
4135.5668186442663
 30
0.0
 11
5177.1758943041414
 21
4782.3237206356807
 31
0.0
  0
INSERT
  5
677A
  8
FUTO
  2
L-40-3
 10
5199.1758943041395
 20
4147.6352945090803
 30
0.0
 41
-1.0
 50
90.0
  0
LINE
  5
6A10
  8
FUTO
 10
4068.9976228294431
 20
5414.3629352201679
 30
0.0
 11
4688.9976228294427
 21
5414.3629352201679
 31
0.0
1001
ACAD
1000
ASC_BOUNDS
1002
{
1070
    19
1005
0
1005
0
1002
}
  0
LINE
  5
6A11
  8
FUTO
 10
4068.9976228294431
 20
5374.3629352201679
 30
0.0
 11
4688.9976228294427
 21
5374.3629352201688
 31
0.0
1001
ACAD
1000
ASC_BOUNDS
1002
{
1070
    19
1005
0
1005
0
1002
}
  0
CIRCLE
  5
6A12
  8
FUTO
 10
4098.9976228294427
 20
5392.3629352201679
 30
0.0
 40
6.5
  0
LINE
  5
6A13
  8
CT
 10
4083.3053346328029
 20
5392.3629352201679
 30
0.0
 11
4113.9976228294436
 21
5392.3629352201679
 31
0.0
  0
LINE
  5
6A14
  8
CT
 10
4098.9976228294427
 20
5408.4976431027171
 30
0.0
 11
4098.9976228294427
 21
5372.8305635982761
 31
0.0
  0
LINE
  5
6A15
  8
FUTO
 10
4068.9976228294431
 20
5374.3629352201679
 30
0.0
 11
4068.9976228294431
 21
5414.3629352201679
 31
0.0
  0
LINE
  5
6A16
  8
CT
 10
4658.9976228294436
 20
5408.4976431027171
 30
0.0
 11
4658.9976228294436
 21
5372.8305635982761
 31
0.0
  0
LINE
  5
6A17
  8
FUTO
 10
4688.9976228294427
 20
5374.3629352201688
 30
0.0
 11
4688.9976228294427
 21
5414.3629352201679
 31
0.0
  0
LINE
  5
6A18
  8
CT
 10
4643.3053346328034
 20
5392.3629352201679
 30
0.0
 11
4673.9976228294436
 21
5392.3629352201679
 31
0.0
  0
CIRCLE
  5
6A19
  8
FUTO
 10
4658.9976228294436
 20
5392.3629352201679
 30
0.0
 40
6.5
  0
LINE
  5
6A1A
  8
FUTO
 10
4068.9976228294431
 20
6034.3629352201688
 30
0.0
 11
4688.9976228294427
 21
6034.3629352201688
 31
0.0
1001
ACAD
1000
ASC_BOUNDS
1002
{
1070
    19
1005
0
1005
0
1002
}
  0
LINE
  5
6A1B
  8
FUTO
 10
4068.9976228294431
 20
6074.3629352201679
 30
0.0
 11
4688.9976228294427
 21
6074.3629352201697
 31
0.0
1001
ACAD
1000
ASC_BOUNDS
1002
{
1070
    19
1005
0
1005
0
1002
}
  0
CIRCLE
  5
6A1C
  8
FUTO
 10
4658.9976228294436
 20
6056.3629352201669
 30
0.0
 40
6.5
  0
LINE
  5
6A1D
  8
CT
 10
4643.3053346328034
 20
6056.3629352201669
 30
0.0
 11
4673.9976228294436
 21
6056.3629352201669
 31
0.0
  0
LINE
  5
6A1E
  8
CT
 10
4658.9976228294436
 20
6040.2282273376177
 30
0.0
 11
4658.9976228294436
 21
6075.8953068420597
 31
0.0
  0
LINE
  5
6A1F
  8
FUTO
 10
4688.9976228294427
 20
6034.3629352201688
 30
0.0
 11
4688.9976228294427
 21
6074.3629352201697
 31
0.0
  0
LINE
  5
6A20
  8
1
 10
4128.997622829439
 20
5414.3629352201679
 30
0.0
 11
4128.9976228294399
 21
5721.3629352201679
 31
0.0
  0
LINE
  5
6A21
  8
1
 10
4168.997622829439
 20
5414.3629352201679
 30
0.0
 11
4168.9976228294408
 21
5721.3629352201679
 31
0.0
  0
LINE
  5
6A22
  8
CT
 10
4098.9976228294427
 20
6040.2282273376177
 30
0.0
 11
4098.9976228294427
 21
6075.8953068420597
 31
0.0
  0
LINE
  5
6A23
  8
CT
 10
4083.3053346328029
 20
6056.3629352201669
 30
0.0
 11
4113.9976228294436
 21
6056.3629352201669
 31
0.0
  0
CIRCLE
  5
6A24
  8
FUTO
 10
4098.9976228294427
 20
6056.3629352201669
 30
0.0
 40
6.5
  0
LINE
  5
6A25
  8
FUTO
 10
4068.9976228294431
 20
6034.3629352201688
 30
0.0
 11
4068.9976228294431
 21
6074.3629352201679
 31
0.0
  0
LINE
  5
6A26
  8
1
 10
4628.997622829439
 20
5414.3629352201679
 30
0.0
 11
4628.997622829439
 21
6034.3629352201679
 31
0.0
  0
LINE
  5
6A27
  8
1
 10
4588.997622829439
 20
5414.3629352201679
 30
0.0
 11
4588.997622829439
 21
5741.4968664728503
 31
0.0
  0
DIMENSION
  5
6A28
  8
SP
  2
*D20
 10
4852.1091128583776
 20
5374.3629352201688
 30
0.0
 11
4814.6091128583766
 21
5724.3629352201697
 31
0.0
 70
     0
 13
4688.9976228294427
 23
6074.3629352201697
 33
0.0
 14
4688.9976228294427
 24
5374.3629352201688
 34
0.0
 50
90.0
  0
DIMENSION
  5
6A29
  8
SP
  2
*D21
 10
4068.9976228294431
 20
5235.4232802762608
 30
0.0
 11
4378.9976228294436
 21
5272.9232802762617
 31
0.0
 70
     0
 13
4688.9976228294427
 23
5374.3629352201688
 33
0.0
 14
4068.9976228294431
 24
5374.3629352201679
 34
0.0
  0
LINE
  5
6C40
  8
1
 10
4128.9976228294418
 20
5987.3629352201688
 30
0.0
 11
4128.9976228294418
 21
6034.3629352201679
 31
0.0
  0
LINE
  5
6C41
  8
1
 10
4168.9976228294408
 20
5987.3629352201688
 30
0.0
 11
4168.9976228294408
 21
6034.3629352201679
 31
0.0
  0
LINE
  5
6C42
  8
1
 10
4588.997622829439
 20
5967.2290039674872
 30
0.0
 11
4588.997622829439
 21
6034.3629352201679
 31
0.0
  0
ENDSEC
  0
EOF
