  0
SECTION
  2
HEADER
  9
$ACADVER
  1
AC1009
  9
$INSBASE
 10
0.0
 20
0.0
 30
0.0
  9
$EXTMIN
 10
-154.40228496490451
 20
2822.8097917420341
 30
0.0
  9
$EXTMAX
 10
2995.597715035095
 20
7247.8097917420337
 30
0.0
  9
$LIMMIN
 10
0.0
 20
0.0
  9
$LIMMAX
 10
297.0
 20
210.0
  9
$ORTHOMODE
 70
     0
  9
$REGENMODE
 70
     1
  9
$FILLMODE
 70
     1
  9
$QTEXTMODE
 70
     0
  9
$MIRRTEXT
 70
     0
  9
$DRAGMODE
 70
     2
  9
$LTSCALE
 40
75.0
  9
$OSMODE
 70
   545
  9
$ATTMODE
 70
     1
  9
$TEXTSIZE
 40
3.5
  9
$TRACEWID
 40
0.05
  9
$TEXTSTYLE
  7
STANDARD
  9
$CLAYER
  8
SP
  9
$CELTYPE
  6
BYLAYER
  9
$CECOLOR
 62
   256
  9
$DIMSCALE
 40
15.0
  9
$DIMASZ
 40
2.5
  9
$DIMEXO
 40
1.0
  9
$DIMDLI
 40
7.0
  9
$DIMRND
 40
0.0
  9
$DIMDLE
 40
0.0
  9
$DIMEXE
 40
1.0
  9
$DIMTP
 40
0.0
  9
$DIMTM
 40
0.0
  9
$DIMTXT
 40
3.0
  9
$DIMCEN
 40
0.0
  9
$DIMTSZ
 40
0.0
  9
$DIMTOL
 70
     0
  9
$DIMLIM
 70
     0
  9
$DIMTIH
 70
     0
  9
$DIMTOH
 70
     0
  9
$DIMSE1
 70
     0
  9
$DIMSE2
 70
     0
  9
$DIMTAD
 70
     1
  9
$DIMZIN
 70
     8
  9
$DIMBLK
  1

  9
$DIMASO
 70
     1
  9
$DIMSHO
 70
     1
  9
$DIMPOST
  1

  9
$DIMAPOST
  1

  9
$DIMALT
 70
     0
  9
$DIMALTD
 70
     2
  9
$DIMALTF
 40
0.03937
  9
$DIMLFAC
 40
1.0
  9
$DIMTOFL
 70
     1
  9
$DIMTVP
 40
0.0
  9
$DIMTIX
 70
     0
  9
$DIMSOXD
 70
     0
  9
$DIMSAH
 70
     1
  9
$DIMBLK1
  1
OPEN
  9
$DIMBLK2
  1
OPEN
  9
$DIMSTYLE
  2
GOD
  9
$DIMCLRD
 70
   256
  9
$DIMCLRE
 70
   256
  9
$DIMCLRT
 70
   256
  9
$DIMTFAC
 40
1.0
  9
$DIMGAP
 40
1.0
  9
$LUNITS
 70
     2
  9
$LUPREC
 70
     3
  9
$SKETCHINC
 40
0.1
  9
$FILLETRAD
 40
0.0
  9
$AUNITS
 70
     0
  9
$AUPREC
 70
     2
  9
$MENU
  1
acad
  9
$ELEVATION
 40
0.0
  9
$PELEVATION
 40
0.0
  9
$THICKNESS
 40
0.0
  9
$LIMCHECK
 70
     0
  9
$BLIPMODE
 70
     0
  9
$CHAMFERA
 40
0.0
  9
$CHAMFERB
 40
0.0
  9
$SKPOLY
 70
     0
  9
$TDCREATE
 40
2454939.604632488
  9
$TDUPDATE
 40
2454953.826819479
  9
$TDINDWG
 40
0.174890706
  9
$TDUSRTIMER
 40
0.174890706
  9
$USRTIMER
 70
     1
  9
$ANGBASE
 50
0.0
  9
$ANGDIR
 70
     0
  9
$PDMODE
 70
     0
  9
$PDSIZE
 40
1.0
  9
$PLINEWID
 40
0.0
  9
$COORDS
 70
     2
  9
$SPLFRAME
 70
     0
  9
$SPLINETYPE
 70
     6
  9
$SPLINESEGS
 70
     8
  9
$ATTDIA
 70
     0
  9
$ATTREQ
 70
     1
  9
$HANDLING
 70
 22529
  9
$HANDSEED
  5
6CDA
  9
$SURFTAB1
 70
     6
  9
$SURFTAB2
 70
     6
  9
$SURFTYPE
 70
     6
  9
$SURFU
 70
     6
  9
$SURFV
 70
     6
  9
$UCSNAME
  2

  9
$UCSORG
 10
0.0
 20
0.0
 30
0.0
  9
$UCSXDIR
 10
1.0
 20
0.0
 30
0.0
  9
$UCSYDIR
 10
0.0
 20
1.0
 30
0.0
  9
$PUCSNAME
  2

  9
$PUCSORG
 10
0.0
 20
0.0
 30
0.0
  9
$PUCSXDIR
 10
1.0
 20
0.0
 30
0.0
  9
$PUCSYDIR
 10
0.0
 20
1.0
 30
0.0
  9
$USERI1
 70
     0
  9
$USERI2
 70
     0
  9
$USERI3
 70
     0
  9
$USERI4
 70
     0
  9
$USERI5
 70
     0
  9
$USERR1
 40
0.0
  9
$USERR2
 40
0.0
  9
$USERR3
 40
0.0
  9
$USERR4
 40
0.0
  9
$USERR5
 40
0.0
  9
$WORLDVIEW
 70
     1
  9
$SHADEDGE
 70
     3
  9
$SHADEDIF
 70
    70
  9
$TILEMODE
 70
     1
  9
$MAXACTVP
 70
    16
  9
$PLIMCHECK
 70
     0
  9
$PEXTMIN
 10
1.0000000000000000E+020
 20
1.0000000000000000E+020
 30
1.0000000000000000E+020
  9
$PEXTMAX
 10
-1.0000000000000000E+020
 20
-1.0000000000000000E+020
 30
-1.0000000000000000E+020
  9
$PLIMMIN
 10
0.0
 20
0.0
  9
$PLIMMAX
 10
12.0
 20
9.0
  9
$UNITMODE
 70
     0
  9
$VISRETAIN
 70
     0
  9
$PLINEGEN
 70
     0
  9
$PSLTSCALE
 70
     0
  0
ENDSEC
  0
SECTION
  2
TABLES
  0
TABLE
  2
VPORT
 70
     2
  0
VPORT
  2
*ACTIVE
 70
     0
 10
0.0
 20
0.0
 11
1.0
 21
1.0
 12
1700.9002520484889
 22
5035.4223933777566
 13
0.0
 23
0.0
 14
5.0
 24
5.0
 15
0.0
 25
0.0
 16
0.0
 26
0.0
 36
1.0
 17
0.0
 27
0.0
 37
0.0
 40
4460.9593427423561
 41
1.6307901907356941
 42
50.0
 43
0.0
 44
0.0
 50
0.0
 51
0.0
 71
     0
 72
   100
 73
     1
 74
     0
 75
     0
 76
     0
 77
     0
 78
     0
  0
ENDTAB
  0
TABLE
  2
LTYPE
 70
     4
  0
LTYPE
  2
CONTINUOUS
 70
     0
  3
Solid line
 72
    65
 73
     0
 40
0.0
  0
LTYPE
  2
CENTER
 70
     0
  3
____ _ ____ _ ____ _ ____ _ ____ _ ____ _ ____ 
 72
    65
 73
     4
 40
2.0
 49
1.25
 49
-0.25
 49
0.25
 49
-0.25
  0
LTYPE
  2
HIDDEN
 70
     0
  3
__ __ __ __ __ __ __ __ __ __ __ __ __ __ __ __
 72
    65
 73
     2
 40
0.375
 49
0.25
 49
-0.125
  0
LTYPE
  2
PHANTOM
 70
     0
  3
______  __  __  ______  __  __  ______  __  __ 
 72
    65
 73
     6
 40
2.5
 49
1.25
 49
-0.25
 49
0.25
 49
-0.25
 49
0.25
 49
-0.25
  0
ENDTAB
  0
TABLE
  2
LAYER
 70
    13
  0
LAYER
  2
0
 70
     0
 62
     7
  6
CONTINUOUS
  0
LAYER
  2
CT
 70
     0
 62
     3
  6
CENTER
  0
LAYER
  2
FUTO
 70
     0
 62
     4
  6
CONTINUOUS
  0
LAYER
  2
HOSO
 70
     0
 62
     7
  6
CONTINUOUS
  0
LAYER
  2
KL
 70
     0
 62
     7
  6
HIDDEN
  0
LAYER
  2
MOJI
 70
     0
 62
     3
  6
CONTINUOUS
  0
LAYER
  2
SL
 70
     0
 62
     1
  6
PHANTOM
  0
LAYER
  2
SP
 70
     0
 62
     2
  6
CONTINUOUS
  0
LAYER
  2
DEFPOINTS
 70
     0
 62
     7
  6
CONTINUOUS
  0
LAYER
  2
3
 70
     0
 62
    -2
  6
CONTINUOUS
  0
LAYER
  2
2
 70
     0
 62
     3
  6
CENTER
  0
LAYER
  2
1
 70
     0
 62
     4
  6
CONTINUOUS
  0
LAYER
  2
4
 70
     0
 62
     7
  6
CONTINUOUS
  0
ENDTAB
  0
TABLE
  2
STYLE
 70
     1
  0
STYLE
  2
STANDARD
 70
     0
 40
0.0
 41
1.0
 50
15.0
 71
     0
 42
3.5
  3
C:\Program Files\AutoCAD LT\simplex.shx
  4
C:\Program Files\AutoCAD LT\extfont.shx
  0
ENDTAB
  0
TABLE
  2
VIEW
 70
     0
  0
ENDTAB
  0
TABLE
  2
UCS
 70
     0
  0
ENDTAB
  0
TABLE
  2
APPID
 70
     1
  0
APPID
  2
ACAD
 70
     0
  0
ENDTAB
  0
TABLE
  2
DIMSTYLE
 70
     4
  0
DIMSTYLE
  2
STANDARD
 70
     0
  3

  4

  5

  6

  7

 40
1.0
 41
0.18
 42
0.0625
 43
0.38
 44
0.18
 45
0.0
 46
0.0
 47
0.0
 48
0.0
140
0.18
141
0.09
142
0.0
143
25.399999999999999
144
1.0
145
0.0
146
1.0
147
0.09
 71
     0
 72
     0
 73
     1
 74
     1
 75
     0
 76
     0
 77
     0
 78
     0
170
     0
171
     2
172
     0
173
     0
174
     0
175
     0
176
     0
177
     0
178
     0
  0
DIMSTYLE
  2
GOD
 70
     0
  3

  4

  5

  6
OPEN
  7
OPEN
 40
15.0
 41
2.5
 42
1.0
 43
7.0
 44
1.0
 45
0.0
 46
0.0
 47
0.0
 48
0.0
140
3.0
141
0.0
142
0.0
143
0.03937
144
1.0
145
0.0
146
1.0
147
1.0
 71
     0
 72
     0
 73
     0
 74
     0
 75
     0
 76
     0
 77
     1
 78
     8
170
     0
171
     2
172
     1
173
     1
174
     0
175
     0
176
   256
177
   256
178
   256
  0
DIMSTYLE
  2
IGA
 70
     0
  3

  4

  5

  6
OPEN
  7
OPEN
 40
2.0
 41
2.0
 42
0.5
 43
10.0
 44
1.0
 45
0.0
 46
0.0
 47
1.0
 48
1.0
140
3.0
141
0.0
142
0.0
143
0.03937
144
1.0
145
0.0
146
10.0
147
1.0
 71
     0
 72
     0
 73
     0
 74
     0
 75
     0
 76
     0
 77
     1
 78
     8
170
     0
171
     2
172
     0
173
     1
174
     0
175
     0
176
     0
177
     0
178
     0
  0
DIMSTYLE
  2
DIA1
 70
     0
  3

  4

  5

  6

  7

 40
1.0
 41
2.0
 42
1.0
 43
10.0
 44
1.0
 45
0.0
 46
0.0
 47
0.0
 48
0.0
140
2.5
141
0.0
142
0.0
143
25.399999999999999
144
1.0
145
0.0
146
1.0
147
0.09
 71
     0
 72
     0
 73
     0
 74
     0
 75
     0
 76
     0
 77
     1
 78
     8
170
     0
171
     2
172
     1
173
     0
174
     0
175
     0
176
     2
177
     2
178
     2
  0
ENDTAB
  0
ENDSEC
  0
SECTION
  2
BLOCKS
  0
BLOCK
  8
0
  2
$MODEL_SPACE
 70
     0
 10
0.0
 20
0.0
 30
0.0
  3
$MODEL_SPACE
  1

  0
ENDBLK
  5
1B
  8
0
  0
BLOCK
 67
     1
  8
0
  2
$PAPER_SPACE
 70
     0
 10
0.0
 20
0.0
 30
0.0
  3
$PAPER_SPACE
  1

  0
ENDBLK
  5
18
 67
     1
  8
0
  0
BLOCK
  8
0
  2
_OPEN
 70
     0
 10
0.0
 20
0.0
 30
0.0
  3
_OPEN
  1

  0
LINE
  5
1E81
  8
0
  6
BYBLOCK
 62
     0
 10
-1.0
 20
0.1666666666666666
 30
0.0
 11
0.0
 21
0.0
 31
0.0
  0
LINE
  5
1E82
  8
0
  6
BYBLOCK
 62
     0
 10
0.0
 20
0.0
 30
0.0
 11
-1.0
 21
-0.1666666666666666
 31
0.0
  0
LINE
  5
1E83
  8
0
  6
BYBLOCK
 62
     0
 10
0.0
 20
0.0
 30
0.0
 11
-1.0
 21
0.0
 31
0.0
  0
ENDBLK
  5
1E84
  8
0
  0
BLOCK
  8
0
  2
_DOT
 70
     0
 10
0.0
 20
0.0
 30
0.0
  3
_DOT
  1

  0
LINE
  5
1EC3
  8
0
  6
BYBLOCK
 62
     0
 10
0.0
 20
0.0
 30
0.0
 11
-1.0
 21
-0.0000000000000284
 31
0.0
  0
POLYLINE
  5
1EC4
  8
0
  6
BYBLOCK
 62
     0
 66
     1
 10
0.0
 20
0.0
 30
0.0
 70
     1
 40
0.1666666666666666
 41
0.1666666666666666
  0
VERTEX
  5
6C73
  8
0
  6
BYBLOCK
 62
     0
 10
-0.0833333333333286
 20
-0.0000000000000284
 30
0.0
 42
1.0
  0
VERTEX
  5
6C74
  8
0
  6
BYBLOCK
 62
     0
 10
0.0833333333333286
 20
-0.0000000000000284
 30
0.0
 42
1.0
  0
SEQEND
  5
6C75
  8
0
  6
BYBLOCK
 62
     0
  0
ENDBLK
  5
1EB8
  8
0
  0
BLOCK
  8
0
  2
A$C5EBD6DA5
 70
     0
 10
0.0
 20
0.0
 30
0.0
  3
A$C5EBD6DA5
  1

  0
POLYLINE
  5
22E6
  8
1
 66
     1
 10
0.0
 20
0.0
 30
0.0
  0
VERTEX
  5
6C76
  8
1
 10
8.0000000000027285
 20
-181.50000000000091
 30
0.0
  0
VERTEX
  5
6C77
  8
1
 10
8.0000000000009095
 20
181.50000000000091
 30
0.0
  0
SEQEND
  5
6C78
  8
1
  0
LINE
  5
22E7
  8
1
 10
1.0000000000009091
 20
182.50000000000091
 30
0.0
 11
7.0000000000027276
 21
182.50000000000091
 31
0.0
  0
ARC
  5
22E8
  8
1
 10
1.0000000000009091
 20
183.50000000000091
 30
0.0
 40
1.0
 50
180.0
 51
270.0
  0
LINE
  5
22E9
  8
1
 10
1.0000000000009091
 20
-182.50000000000091
 30
0.0
 11
7.0000000000027276
 21
-182.50000000000091
 31
0.0
  0
ARC
  5
22EA
  8
1
 10
1.0000000000009091
 20
-183.50000000000091
 30
0.0
 40
1.0
 50
90.0
 51
180.0
  0
ARC
  5
22EB
  8
1
 10
7.0000000000009086
 20
-181.50000000000091
 30
0.0
 40
1.0
 50
270.0
 51
0.0
  0
ARC
  5
22EC
  8
1
 10
7.0000000000009086
 20
181.50000000000091
 30
0.0
 40
1.0
 50
0.0
 51
90.0
  0
ENDBLK
  5
22EE
  8
0
  0
BLOCK
  8
0
  2
A$C2860434C
 70
     0
 10
0.0
 20
0.0
 30
0.0
  3
A$C2860434C
  1

  0
LINE
  5
3F68
  8
FUTO
 10
46.801270116426167
 20
-0.0000088960860012
 30
0.0
 11
8.5860233121038618
 21
70.149984541374579
 31
0.0
  0
LINE
  5
3F69
  8
FUTO
 10
-0.0000161416137416
 20
53.349984541375299
 30
0.0
 11
1.5999838583866219
 21
53.349984541375299
 31
0.0
  0
LINE
  5
3F6A
  8
FUTO
 10
-0.0000161416137416
 20
53.349984541375299
 30
0.0
 11
-0.0000161416137416
 21
68.549984541374215
 31
0.0
  0
LINE
  5
3F6B
  8
FUTO
 10
1.5999838583866219
 20
53.349984541375299
 30
0.0
 11
1.5999838583866219
 21
68.549984541374215
 31
0.0
  0
LINE
  5
3F6C
  8
FUTO
 10
3.1999838583869851
 20
70.149984541374579
 30
0.0
 11
91.769214627616734
 21
70.149984541370941
 31
0.0
  0
LINE
  5
3F6D
  8
FUTO
 10
3.1999838583869851
 20
71.749984541373124
 30
0.0
 11
92.794855653257414
 21
71.749984541373124
 31
0.0
  0
ARC
  5
3F6E
  8
FUTO
 10
3.1999838583869851
 20
68.549984541374215
 30
0.0
 40
3.2000000000000002
 50
90.0
 51
180.0
  0
ARC
  5
3F6F
  8
FUTO
 10
3.1999838583869851
 20
68.549984541374215
 30
0.0
 40
1.6000000000000001
 50
90.0
 51
180.0
  0
ENDBLK
  5
3F71
  8
0
  0
BLOCK
  8
0
  2
*D4
 70
     1
 10
0.0
 20
0.0
 30
0.0
  3
*D4
  1

  0
LINE
  5
5513
  8
SP
 10
917.76636565073341
 20
4889.1712074726011
 30
0.0
 11
917.76636565073341
 21
4948.6352945090757
 31
0.0
  0
LINE
  5
5514
  8
SP
 10
1167.7663656507391
 20
4853.6352945090784
 30
0.0
 11
1167.7663656507391
 21
4948.6352945090757
 31
0.0
  0
LINE
  5
5515
  8
SP
 10
955.26636565073341
 20
4933.6352945090757
 30
0.0
 11
1130.2663656507391
 21
4933.6352945090757
 31
0.0
  0
INSERT
  5
5516
  8
SP
  2
_OPEN
 10
917.76636565073341
 20
4933.6352945090757
 30
0.0
 41
37.5
 42
37.5
 43
37.5
 50
180.0
  0
INSERT
  5
5517
  8
SP
  2
_OPEN
 10
1167.7663656507391
 20
4933.6352945090757
 30
0.0
 41
37.5
 42
37.5
 43
37.5
  0
TEXT
  5
5518
  8
SP
 10
981.10014821716948
 20
4948.6352945090757
 30
0.0
 40
45.0
  1
250
 51
15.0
  0
POINT
  5
5519
  8
DEFPOINTS
 62
     0
 10
917.76636565073341
 20
4874.1712074726011
 30
0.0
  0
POINT
  5
551A
  8
DEFPOINTS
 62
     0
 10
1167.7663656507391
 20
4838.6352945090784
 30
0.0
  0
POINT
  5
551B
  8
DEFPOINTS
 62
     0
 10
1167.7663656507391
 20
4933.6352945090757
 30
0.0
  0
ENDBLK
  5
5462
  8
0
  0
BLOCK
  8
0
  2
*D5
 70
     1
 10
0.0
 20
0.0
 30
0.0
  3
*D5
  1

  0
LINE
  5
552E
  8
SP
 10
917.76636565073341
 20
4889.1712074726011
 30
0.0
 11
917.76636565073341
 21
4948.6352945090757
 31
0.0
  0
LINE
  5
552F
  8
SP
 10
653.53508401689817
 20
4544.3057173214684
 30
0.0
 11
653.53508401689817
 21
4948.6352945090757
 31
0.0
  0
LINE
  5
5530
  8
SP
 10
880.26636565073341
 20
4933.6352945090757
 30
0.0
 11
691.03508401689817
 21
4933.6352945090757
 31
0.0
  0
INSERT
  5
5531
  8
SP
  2
_OPEN
 10
917.76636565073341
 20
4933.6352945090757
 30
0.0
 41
37.5
 42
37.5
 43
37.5
  0
INSERT
  5
5532
  8
SP
  2
_OPEN
 10
653.53508401689817
 20
4933.6352945090757
 30
0.0
 41
37.5
 42
37.5
 43
37.5
 50
180.0
  0
TEXT
  5
5533
  8
SP
 10
724.71253446201104
 20
4948.6352945090757
 30
0.0
 40
45.0
  1
264
 51
15.0
  0
POINT
  5
5534
  8
DEFPOINTS
 62
     0
 10
917.76636565073341
 20
4874.1712074726011
 30
0.0
  0
POINT
  5
5535
  8
DEFPOINTS
 62
     0
 10
653.53508401689817
 20
4529.3057173214684
 30
0.0
  0
POINT
  5
5536
  8
DEFPOINTS
 62
     0
 10
653.53508401689817
 20
4933.6352945090757
 30
0.0
  0
ENDBLK
  5
5486
  8
0
  0
BLOCK
  8
0
  2
*D6
 70
     1
 10
0.0
 20
0.0
 30
0.0
  3
*D6
  1

  0
LINE
  5
623D
  8
SP
 10
1222.0683911543911
 20
4502.6352945090812
 30
0.0
 11
1333.4498881917959
 21
4502.6352945090812
 31
0.0
  0
LINE
  5
623E
  8
SP
 10
1182.766365650737
 20
4817.6352945090766
 30
0.0
 11
1333.4498881917971
 21
4817.6352945090766
 31
0.0
  0
LINE
  5
623F
  8
SP
 10
1318.4498881917959
 20
4540.1352945090812
 30
0.0
 11
1318.4498881917971
 21
4780.1352945090784
 31
0.0
  0
INSERT
  5
6240
  8
SP
  2
_OPEN
 10
1318.4498881917959
 20
4502.6352945090812
 30
0.0
 41
37.5
 42
37.5
 43
37.5
 50
270.0
  0
INSERT
  5
6241
  8
SP
  2
_OPEN
 10
1318.4498881917971
 20
4817.6352945090766
 30
0.0
 41
37.5
 42
37.5
 43
37.5
 50
90.0
  0
TEXT
  5
6242
  8
SP
 10
1303.4498881917959
 20
4601.529512568959
 30
0.0
 40
45.0
  1
315
 50
90.0
 51
15.0
  0
POINT
  5
6243
  8
DEFPOINTS
 62
     0
 10
1207.0683911543911
 20
4502.6352945090812
 30
0.0
  0
POINT
  5
6244
  8
DEFPOINTS
 62
     0
 10
1167.766365650737
 20
4817.6352945090766
 30
0.0
  0
POINT
  5
6245
  8
DEFPOINTS
 62
     0
 10
1318.4498881917971
 20
4817.6352945090766
 30
0.0
  0
ENDBLK
  5
549E
  8
0
  0
BLOCK
  8
0
  2
*D7
 70
     1
 10
0.0
 20
0.0
 30
0.0
  3
*D7
  1

  0
LINE
  5
6234
  8
SP
 10
1242.766365650733
 20
4107.6352945090812
 30
0.0
 11
1333.4498881917871
 21
4107.6352945090812
 31
0.0
  0
LINE
  5
6235
  8
SP
 10
1222.0683911543911
 20
4502.6352945090812
 30
0.0
 11
1333.4498881917871
 21
4502.6352945090812
 31
0.0
  0
LINE
  5
6236
  8
SP
 10
1318.4498881917871
 20
4145.1352945090803
 30
0.0
 11
1318.4498881917871
 21
4465.1352945090812
 31
0.0
  0
INSERT
  5
6237
  8
SP
  2
_OPEN
 10
1318.4498881917871
 20
4107.6352945090812
 30
0.0
 41
37.5
 42
37.5
 43
37.5
 50
270.0
  0
INSERT
  5
6238
  8
SP
  2
_OPEN
 10
1318.4498881917871
 20
4502.6352945090812
 30
0.0
 41
37.5
 42
37.5
 43
37.5
 50
90.0
  0
TEXT
  5
6239
  8
SP
 10
1303.4498881917859
 20
4242.2437982832462
 30
0.0
 40
45.0
  1
395
 50
90.0
 51
15.0
  0
POINT
  5
623A
  8
DEFPOINTS
 62
     0
 10
1227.766365650733
 20
4107.6352945090812
 30
0.0
  0
POINT
  5
623B
  8
DEFPOINTS
 62
     0
 10
1207.0683911543911
 20
4502.6352945090812
 30
0.0
  0
POINT
  5
623C
  8
DEFPOINTS
 62
     0
 10
1318.4498881917871
 20
4502.6352945090812
 30
0.0
  0
ENDBLK
  5
54AA
  8
0
  0
BLOCK
  8
0
  2
*D8
 70
     1
 10
0.0
 20
0.0
 30
0.0
  3
*D8
  1

  0
LINE
  5
555B
  8
SP
 10
2292.221875722606
 20
5008.6352945090757
 30
0.0
 11
2292.221875722606
 21
5053.6352945090748
 31
0.0
  0
LINE
  5
555C
  8
SP
 10
2413.221875722606
 20
4699.1352945090794
 30
0.0
 11
2413.221875722606
 21
5053.6352945090748
 31
0.0
  0
LINE
  5
555D
  8
SP
 10
2329.721875722606
 20
5038.6352945090748
 30
0.0
 11
2375.721875722606
 21
5038.6352945090748
 31
0.0
  0
INSERT
  5
555E
  8
SP
  2
_OPEN
 10
2292.221875722606
 20
5038.6352945090748
 30
0.0
 41
37.5
 42
37.5
 43
37.5
 50
180.0
  0
INSERT
  5
555F
  8
SP
  2
_OPEN
 10
2413.221875722606
 20
5038.6352945090748
 30
0.0
 41
37.5
 42
37.5
 43
37.5
  0
TEXT
  5
5560
  8
SP
 10
2297.883944316482
 20
5053.6352945090748
 30
0.0
 40
45.0
  1
121
 51
15.0
  0
POINT
  5
5561
  8
DEFPOINTS
 62
     0
 10
2292.221875722606
 20
4993.6352945090757
 30
0.0
  0
POINT
  5
5562
  8
DEFPOINTS
 62
     0
 10
2413.221875722606
 20
4684.1352945090794
 30
0.0
  0
POINT
  5
5563
  8
DEFPOINTS
 62
     0
 10
2413.221875722606
 20
5038.6352945090748
 30
0.0
  0
ENDBLK
  5
54C2
  8
0
  0
BLOCK
  8
0
  2
*D9
 70
     1
 10
0.0
 20
0.0
 30
0.0
  3
*D9
  1

  0
LINE
  5
5564
  8
SP
 10
2292.221875722606
 20
5008.6352945090757
 30
0.0
 11
2292.221875722606
 21
5053.6352945090748
 31
0.0
  0
LINE
  5
5565
  8
SP
 10
1872.221875723596
 20
4601.2162348221382
 30
0.0
 11
1872.221875723596
 21
5053.6352945090748
 31
0.0
  0
LINE
  5
5566
  8
SP
 10
2254.721875722606
 20
5038.6352945090748
 30
0.0
 11
1909.721875723596
 21
5038.6352945090748
 31
0.0
  0
INSERT
  5
5567
  8
SP
  2
_OPEN
 10
2292.221875722606
 20
5038.6352945090748
 30
0.0
 41
37.5
 42
37.5
 43
37.5
  0
INSERT
  5
5568
  8
SP
  2
_OPEN
 10
1872.221875723596
 20
5038.6352945090748
 30
0.0
 41
37.5
 42
37.5
 43
37.5
 50
180.0
  0
TEXT
  5
5569
  8
SP
 10
1981.8573231124999
 20
5053.6352945090748
 30
0.0
 40
45.0
  1
（420）
 51
15.0
  0
POINT
  5
556A
  8
DEFPOINTS
 62
     0
 10
2292.221875722606
 20
4993.6352945090757
 30
0.0
  0
POINT
  5
556B
  8
DEFPOINTS
 62
     0
 10
1872.221875723596
 20
4586.2162348221382
 30
0.0
  0
POINT
  5
556C
  8
DEFPOINTS
 62
     0
 10
1872.221875723596
 20
5038.6352945090748
 30
0.0
  0
ENDBLK
  5
54CE
  8
0
  0
BLOCK
  8
0
  2
*D10
 70
     1
 10
0.0
 20
0.0
 30
0.0
  3
*D10
  1

  0
LINE
  5
557F
  8
SP
 10
2180.2218757226051
 20
4826.0204593162189
 30
0.0
 11
2180.2218757226051
 21
4948.6352945090757
 31
0.0
  0
LINE
  5
5580
  8
SP
 10
2404.2218757226069
 20
4826.0204593162107
 30
0.0
 11
2404.2218757226069
 21
4948.6352945090757
 31
0.0
  0
LINE
  5
5581
  8
SP
 10
2217.7218757226051
 20
4933.6352945090757
 30
0.0
 11
2366.721875722606
 21
4933.6352945090757
 31
0.0
  0
INSERT
  5
5582
  8
SP
  2
_OPEN
 10
2180.2218757226051
 20
4933.6352945090757
 30
0.0
 41
37.5
 42
37.5
 43
37.5
 50
180.0
  0
INSERT
  5
5583
  8
SP
  2
_OPEN
 10
2404.2218757226069
 20
4933.6352945090757
 30
0.0
 41
37.5
 42
37.5
 43
37.5
  0
TEXT
  5
5584
  8
SP
 10
2231.2836853508002
 20
4948.6352945090757
 30
0.0
 40
45.0
  1
224
 51
15.0
  0
POINT
  5
5585
  8
DEFPOINTS
 62
     0
 10
2180.2218757226051
 20
4811.020459316218
 30
0.0
  0
POINT
  5
5586
  8
DEFPOINTS
 62
     0
 10
2404.2218757226069
 20
4811.0204593162107
 30
0.0
  0
POINT
  5
5587
  8
DEFPOINTS
 62
     0
 10
2404.2218757226069
 20
4933.6352945090757
 30
0.0
  0
ENDBLK
  5
54F2
  8
0
  0
BLOCK
  8
0
  2
*D11
 70
     1
 10
0.0
 20
0.0
 30
0.0
  3
*D11
  1

  0
LINE
  5
6287
  8
SP
 10
2428.221875722606
 20
4660.1352945090812
 30
0.0
 11
2607.3211755119769
 21
4660.1352945090812
 31
0.0
  0
LINE
  5
6288
  8
SP
 10
2428.221875722606
 20
4345.1352945090812
 30
0.0
 11
2607.3211755119769
 21
4345.1352945090812
 31
0.0
  0
LINE
  5
6289
  8
SP
 10
2592.3211755119769
 20
4622.6352945090803
 30
0.0
 11
2592.3211755119769
 21
4382.6352945090812
 31
0.0
  0
INSERT
  5
628A
  8
SP
  2
_OPEN
 10
2592.3211755119769
 20
4660.1352945090812
 30
0.0
 41
37.5
 42
37.5
 43
37.5
 50
90.0
  0
INSERT
  5
628B
  8
SP
  2
_OPEN
 10
2592.3211755119769
 20
4345.1352945090812
 30
0.0
 41
37.5
 42
37.5
 43
37.5
 50
270.0
  0
TEXT
  5
628C
  8
SP
 10
2577.3211755119769
 20
4424.6874851940438
 30
0.0
 40
45.0
  1
φ315
 50
90.0
 51
15.0
  0
POINT
  5
628D
  8
DEFPOINTS
 62
     0
 10
2413.221875722606
 20
4660.1352945090812
 30
0.0
  0
POINT
  5
628E
  8
DEFPOINTS
 62
     0
 10
2413.221875722606
 20
4345.1352945090812
 30
0.0
  0
POINT
  5
628F
  8
DEFPOINTS
 62
     0
 10
2592.3211755119769
 20
4345.1352945090812
 30
0.0
  0
ENDBLK
  5
54FE
  8
0
  0
BLOCK
  8
0
  2
_NONE
 70
     0
 10
0.0
 20
0.0
 30
0.0
  3
_NONE
  1

  0
ENDBLK
  5
5AD6
  8
0
  0
BLOCK
  8
0
  2
*D13
 70
     1
 10
0.0
 20
0.0
 30
0.0
  3
*D13
  1

  0
LINE
  5
624C
  8
SP
 10
1227.766365650733
 20
4092.6352945090812
 30
0.0
 11
1227.766365650733
 21
3882.6352945090812
 31
0.0
  0
LINE
  5
624D
  8
SP
 10
607.76636565073341
 20
4092.6352945090812
 30
0.0
 11
607.76636565073341
 21
3882.6352945090812
 31
0.0
  0
LINE
  5
624E
  8
SP
 10
1190.266365650733
 20
3897.6352945090812
 30
0.0
 11
645.26636565073341
 21
3897.6352945090812
 31
0.0
  0
INSERT
  5
624F
  8
SP
  2
_OPEN
 10
1227.766365650733
 20
3897.6352945090812
 30
0.0
 41
37.5
 42
37.5
 43
37.5
  0
INSERT
  5
6250
  8
SP
  2
_OPEN
 10
607.76636565073341
 20
3897.6352945090812
 30
0.0
 41
37.5
 42
37.5
 43
37.5
 50
180.0
  0
TEXT
  5
6251
  8
SP
 10
854.16745438435225
 20
3912.6352945090812
 30
0.0
 40
45.0
  1
620
 51
15.0
  0
POINT
  5
6252
  8
DEFPOINTS
 62
     0
 10
1227.766365650733
 20
4107.6352945090812
 30
0.0
  0
POINT
  5
6253
  8
DEFPOINTS
 62
     0
 10
607.76636565073341
 20
4107.6352945090812
 30
0.0
  0
POINT
  5
6254
  8
DEFPOINTS
 62
     0
 10
607.76636565073341
 20
3897.6352945090812
 30
0.0
  0
ENDBLK
  5
6256
  8
0
  0
BLOCK
  8
0
  2
*D14
 70
     1
 10
0.0
 20
0.0
 30
0.0
  3
*D14
  1

  0
LINE
  5
6259
  8
SP
 10
917.76636565073341
 20
4047.9208645024
 30
0.0
 11
917.76636565073341
 21
3987.6352945090812
 31
0.0
  0
LINE
  5
625A
  8
SP
 10
607.76636565073341
 20
4092.6352945090812
 30
0.0
 11
607.76636565073341
 21
3987.6352945090812
 31
0.0
  0
LINE
  5
625B
  8
SP
 10
880.26636565073341
 20
4002.6352945090812
 30
0.0
 11
645.26636565073341
 21
4002.6352945090812
 31
0.0
  0
INSERT
  5
625C
  8
SP
  2
_OPEN
 10
917.76636565073341
 20
4002.6352945090812
 30
0.0
 41
37.5
 42
37.5
 43
37.5
  0
INSERT
  5
625D
  8
SP
  2
_OPEN
 10
607.76636565073341
 20
4002.6352945090812
 30
0.0
 41
37.5
 42
37.5
 43
37.5
 50
180.0
  0
TEXT
  5
625E
  8
SP
 10
704.2375088210332
 20
4017.6352945090812
 30
0.0
 40
45.0
  1
310
 51
15.0
  0
POINT
  5
625F
  8
DEFPOINTS
 62
     0
 10
917.76636565073341
 20
4062.9208645024009
 30
0.0
  0
POINT
  5
6260
  8
DEFPOINTS
 62
     0
 10
607.76636565073341
 20
4107.6352945090812
 30
0.0
  0
POINT
  5
6261
  8
DEFPOINTS
 62
     0
 10
607.76636565073341
 20
4002.6352945090812
 30
0.0
  0
ENDBLK
  5
6263
  8
0
  0
BLOCK
  8
0
  2
*D15
 70
     1
 10
0.0
 20
0.0
 30
0.0
  3
*D15
  1

  0
LINE
  5
6266
  8
SP
 10
917.76636565073341
 20
4047.9208645024
 30
0.0
 11
917.76636565073341
 21
3987.6352945090812
 31
0.0
  0
LINE
  5
6267
  8
SP
 10
1227.766365650733
 20
4092.6352945090812
 30
0.0
 11
1227.766365650733
 21
3987.6352945090812
 31
0.0
  0
LINE
  5
6268
  8
SP
 10
955.26636565073341
 20
4002.6352945090812
 30
0.0
 11
1190.266365650733
 21
4002.6352945090812
 31
0.0
  0
INSERT
  5
6269
  8
SP
  2
_OPEN
 10
917.76636565073341
 20
4002.6352945090812
 30
0.0
 41
37.5
 42
37.5
 43
37.5
 50
180.0
  0
INSERT
  5
626A
  8
SP
  2
_OPEN
 10
1227.766365650733
 20
4002.6352945090812
 30
0.0
 41
37.5
 42
37.5
 43
37.5
  0
TEXT
  5
626B
  8
SP
 10
1014.237508821033
 20
4017.6352945090812
 30
0.0
 40
45.0
  1
310
 51
15.0
  0
POINT
  5
626C
  8
DEFPOINTS
 62
     0
 10
917.76636565073341
 20
4062.9208645024009
 30
0.0
  0
POINT
  5
626D
  8
DEFPOINTS
 62
     0
 10
1227.766365650733
 20
4107.6352945090812
 30
0.0
  0
POINT
  5
626E
  8
DEFPOINTS
 62
     0
 10
1227.766365650733
 20
4002.6352945090812
 30
0.0
  0
ENDBLK
  5
6270
  8
0
  0
BLOCK
  8
0
  2
L-40-3
 70
     0
 10
0.0
 20
0.0
 30
0.0
  3
L-40-3
  1

  0
ARC
  5
6273
  8
0
 10
7.5
 20
7.5
 30
0.0
 40
4.5
 50
180.0
 51
270.0
  0
LINE
  5
6274
  8
0
 10
0.0
 20
0.0
 30
0.0
 11
0.0
 21
40.0
 31
0.0
  0
LINE
  5
6275
  8
0
 10
7.5
 20
3.0
 30
0.0
 11
38.0
 21
3.0
 31
0.0
  0
LINE
  5
6276
  8
0
 10
0.0
 20
0.0
 30
0.0
 11
40.0
 21
0.0
 31
0.0
  0
LINE
  5
6277
  8
0
 10
40.0
 20
0.0
 30
0.0
 11
40.0
 21
1.0
 31
0.0
  0
ARC
  5
6278
  8
0
 10
38.0
 20
1.0
 30
0.0
 40
2.0
 50
0.0
 51
90.0
  0
LINE
  5
6279
  8
0
 10
3.0
 20
7.5
 30
0.0
 11
3.0
 21
38.0
 31
0.0
  0
LINE
  5
627A
  8
0
 10
0.0
 20
40.0
 30
0.0
 11
1.0
 21
40.0
 31
0.0
  0
ARC
  5
627B
  8
0
 10
1.0
 20
38.0
 30
0.0
 40
2.0
 50
0.0
 51
90.0
  0
ENDBLK
  5
627D
  8
0
  0
BLOCK
  8
0
  2
*D17
 70
     1
 10
0.0
 20
0.0
 30
0.0
  3
*D17
  1

  0
LINE
  5
64A9
  8
SP
 10
1812.221875722606
 20
4132.6352945090812
 30
0.0
 11
1812.221875722606
 21
3987.6352945090812
 31
0.0
  0
LINE
  5
64AA
  8
SP
 10
2292.221875722606
 20
4047.9208645024
 30
0.0
 11
2292.221875722606
 21
3987.6352945090812
 31
0.0
  0
LINE
  5
64AB
  8
SP
 10
1849.721875722606
 20
4002.6352945090812
 30
0.0
 11
2254.721875722606
 21
4002.6352945090812
 31
0.0
  0
INSERT
  5
64AC
  8
SP
  2
_OPEN
 10
1812.221875722606
 20
4002.6352945090812
 30
0.0
 41
37.5
 42
37.5
 43
37.5
 50
180.0
  0
INSERT
  5
64AD
  8
SP
  2
_OPEN
 10
2292.221875722606
 20
4002.6352945090812
 30
0.0
 41
37.5
 42
37.5
 43
37.5
  0
TEXT
  5
64AE
  8
SP
 10
1988.5460393458061
 20
4017.6352945090812
 30
0.0
 40
45.0
  1
480
 51
15.0
  0
POINT
  5
64AF
  8
DEFPOINTS
 62
     0
 10
1812.221875722606
 20
4147.6352945090812
 30
0.0
  0
POINT
  5
64B0
  8
DEFPOINTS
 62
     0
 10
2292.221875722606
 20
4062.9208645024009
 30
0.0
  0
POINT
  5
64B1
  8
DEFPOINTS
 62
     0
 10
2292.221875722606
 20
4002.6352945090812
 30
0.0
  0
ENDBLK
  5
629C
  8
0
  0
BLOCK
  8
0
  2
*D18
 70
     1
 10
0.0
 20
0.0
 30
0.0
  3
*D18
  1

  0
LINE
  5
64A0
  8
SP
 10
2292.221875722606
 20
4047.9208645024
 30
0.0
 11
2292.221875722606
 21
3987.6352945090812
 31
0.0
  0
LINE
  5
64A1
  8
SP
 10
2512.221875722606
 20
4132.6352945090812
 30
0.0
 11
2512.221875722606
 21
3987.6352945090812
 31
0.0
  0
LINE
  5
64A2
  8
SP
 10
2329.721875722606
 20
4002.6352945090812
 30
0.0
 11
2474.721875722606
 21
4002.6352945090812
 31
0.0
  0
INSERT
  5
64A3
  8
SP
  2
_OPEN
 10
2292.221875722606
 20
4002.6352945090812
 30
0.0
 41
37.5
 42
37.5
 43
37.5
 50
180.0
  0
INSERT
  5
64A4
  8
SP
  2
_OPEN
 10
2512.221875722606
 20
4002.6352945090812
 30
0.0
 41
37.5
 42
37.5
 43
37.5
  0
TEXT
  5
64A5
  8
SP
 10
2340.555658289039
 20
4017.6352945090812
 30
0.0
 40
45.0
  1
220
 51
15.0
  0
POINT
  5
64A6
  8
DEFPOINTS
 62
     0
 10
2292.221875722606
 20
4062.9208645024009
 30
0.0
  0
POINT
  5
64A7
  8
DEFPOINTS
 62
     0
 10
2512.221875722606
 20
4147.6352945090812
 30
0.0
  0
POINT
  5
64A8
  8
DEFPOINTS
 62
     0
 10
2512.221875722606
 20
4002.6352945090812
 30
0.0
  0
ENDBLK
  5
62B2
  8
0
  0
BLOCK
  8
0
  2
*D19
 70
     1
 10
0.0
 20
0.0
 30
0.0
  3
*D19
  1

  0
LINE
  5
62B5
  8
SP
 10
1812.221875722606
 20
4132.6352945090812
 30
0.0
 11
1812.221875722606
 21
3882.6352945090812
 31
0.0
  0
LINE
  5
62B6
  8
SP
 10
2512.221875722606
 20
4132.6352945090812
 30
0.0
 11
2512.221875722606
 21
3882.6352945090812
 31
0.0
  0
LINE
  5
62B7
  8
SP
 10
1849.721875722606
 20
3897.6352945090812
 30
0.0
 11
2474.721875722606
 21
3897.6352945090812
 31
0.0
  0
INSERT
  5
62B8
  8
SP
  2
_OPEN
 10
1812.221875722606
 20
3897.6352945090812
 30
0.0
 41
37.5
 42
37.5
 43
37.5
 50
180.0
  0
INSERT
  5
62B9
  8
SP
  2
_OPEN
 10
2512.221875722606
 20
3897.6352945090812
 30
0.0
 41
37.5
 42
37.5
 43
37.5
  0
TEXT
  5
62BA
  8
SP
 10
2096.2699440033248
 20
3912.6352945090812
 30
0.0
 40
45.0
  1
700
 51
15.0
  0
POINT
  5
62BB
  8
DEFPOINTS
 62
     0
 10
1812.221875722606
 20
4147.6352945090812
 30
0.0
  0
POINT
  5
62BC
  8
DEFPOINTS
 62
     0
 10
2512.221875722606
 20
4147.6352945090812
 30
0.0
  0
POINT
  5
62BD
  8
DEFPOINTS
 62
     0
 10
2512.221875722606
 20
3897.6352945090812
 30
0.0
  0
ENDBLK
  5
62BF
  8
0
  0
BLOCK
  8
0
  2
*D20
 70
     1
 10
0.0
 20
0.0
 30
0.0
  3
*D20
  1

  0
LINE
  5
6486
  8
SP
 10
1227.766365650733
 20
5359.3629352201669
 30
0.0
 11
1227.766365650733
 21
5220.4232802762599
 31
0.0
  0
LINE
  5
6487
  8
SP
 10
607.76636565073318
 20
5359.362935220166
 30
0.0
 11
607.76636565073318
 21
5220.4232802762599
 31
0.0
  0
LINE
  5
6488
  8
SP
 10
1190.266365650733
 20
5235.4232802762599
 30
0.0
 11
645.26636565073318
 21
5235.4232802762599
 31
0.0
  0
INSERT
  5
6489
  8
SP
  2
_OPEN
 10
1227.766365650733
 20
5235.4232802762599
 30
0.0
 41
37.5
 42
37.5
 43
37.5
  0
INSERT
  5
648A
  8
SP
  2
_OPEN
 10
607.76636565073318
 20
5235.4232802762599
 30
0.0
 41
37.5
 42
37.5
 43
37.5
 50
180.0
  0
TEXT
  5
648B
  8
SP
 10
854.16745438435191
 20
5250.4232802762599
 30
0.0
 40
45.0
  1
620
 51
15.0
  0
POINT
  5
648C
  8
DEFPOINTS
 62
     0
 10
1227.766365650733
 20
5374.3629352201669
 30
0.0
  0
POINT
  5
648D
  8
DEFPOINTS
 62
     0
 10
607.76636565073318
 20
5374.3629352201651
 30
0.0
  0
POINT
  5
648E
  8
DEFPOINTS
 62
     0
 10
607.76636565073318
 20
5235.4232802762599
 30
0.0
  0
ENDBLK
  5
6490
  8
0
  0
BLOCK
  8
0
  2
*D21
 70
     1
 10
0.0
 20
0.0
 30
0.0
  3
*D21
  1

  0
LINE
  5
6493
  8
SP
 10
1242.766365650733
 20
6074.3629352201679
 30
0.0
 11
1405.8778556796681
 21
6074.3629352201679
 31
0.0
  0
LINE
  5
6494
  8
SP
 10
1242.766365650733
 20
5374.3629352201669
 30
0.0
 11
1405.8778556796669
 21
5374.3629352201669
 31
0.0
  0
LINE
  5
6495
  8
SP
 10
1390.8778556796681
 20
6036.8629352201679
 30
0.0
 11
1390.8778556796669
 21
5411.8629352201669
 31
0.0
  0
INSERT
  5
6496
  8
SP
  2
_OPEN
 10
1390.8778556796681
 20
6074.3629352201679
 30
0.0
 41
37.5
 42
37.5
 43
37.5
 50
90.0
  0
INSERT
  5
6497
  8
SP
  2
_OPEN
 10
1390.8778556796669
 20
5374.3629352201669
 30
0.0
 41
37.5
 42
37.5
 43
37.5
 50
270.0
  0
TEXT
  5
6498
  8
SP
 10
1375.8778556796669
 20
5658.4110035008871
 30
0.0
 40
45.0
  1
700
 50
90.0
 51
15.0
  0
POINT
  5
6499
  8
DEFPOINTS
 62
     0
 10
1227.766365650733
 20
6074.3629352201679
 30
0.0
  0
POINT
  5
649A
  8
DEFPOINTS
 62
     0
 10
1227.766365650733
 20
5374.3629352201669
 30
0.0
  0
POINT
  5
649B
  8
DEFPOINTS
 62
     0
 10
1390.8778556796669
 20
5374.3629352201669
 30
0.0
  0
ENDBLK
  5
649D
  8
0
  0
ENDSEC
  0
SECTION
  2
ENTITIES
  0
LINE
  5
21AC
  8
4
 10
2995.597715035095
 20
7247.8097917420337
 30
0.0
 11
2995.597715035095
 21
2822.8097917420341
 31
0.0
  0
LINE
  5
21AD
  8
4
 10
-154.40228496490451
 20
2822.8097917420341
 30
0.0
 11
-154.40228496490451
 21
7247.8097917420337
 31
0.0
  0
TEXT
  5
21AE
  8
4
 10
235.7260806120066
 20
6396.2890080615489
 30
0.0
 40
80.999999999999986
  1
右回転右横向
  0
LINE
  5
21AF
  8
4
 10
-154.40228496490451
 20
7247.8097917420337
 30
0.0
 11
2995.597715035095
 21
7247.8097917420337
 31
0.0
  0
LINE
  5
21B0
  8
4
 10
220.5977150350954
 20
6826.9229231392419
 30
0.0
 11
2620.597715035095
 21
6826.9229231392419
 31
0.0
  0
LINE
  5
21B1
  8
4
 10
220.5977150350954
 20
6526.9229231392419
 30
0.0
 11
2620.597715035095
 21
6526.9229231392419
 31
0.0
  0
LINE
  5
21B2
  8
4
 10
220.5977150350954
 20
6826.9229231392419
 30
0.0
 11
220.5977150350954
 21
6526.9229231392419
 31
0.0
  0
LINE
  5
21B3
  8
4
 10
2620.597715035095
 20
6826.9229231392419
 30
0.0
 11
2620.597715035095
 21
6526.9229231392419
 31
0.0
  0
TEXT
  5
21B4
  8
4
 10
2024.1201423846869
 20
6397.9530537408073
 30
0.0
 40
80.999999999999986
  1
縮尺：1/15
  0
TEXT
  5
21B5
  8
4
 10
577.69207095238471
 20
6623.6312560409797
 30
0.0
 40
108.0
  1
遠心式片吸込直動形多翼ファン
  0
TEXT
  5
21B7
  8
4
 10
2049.0520539090298
 20
6881.9014139849969
 30
0.0
 40
84.000000000000014
  1
No.
  0
LINE
  5
21B8
  8
4
 10
2620.597715035095
 20
6844.7051664301353
 30
0.0
 11
2006.5238485748921
 21
6844.7051664301353
 31
0.0
  0
LINE
  5
21B9
  8
4
 10
2006.5238485748921
 20
7002.7881840666632
 30
0.0
 11
2620.597715035095
 21
7002.7881840666632
 31
0.0
  0
LINE
  5
21BA
  8
4
 10
2006.5238485748921
 20
6844.7051664301353
 30
0.0
 11
2006.5238485748921
 21
7002.7881840666632
 31
0.0
  0
LINE
  5
21BB
  8
4
 10
2620.597715035095
 20
7002.7881840666632
 30
0.0
 11
2620.597715035095
 21
6844.7051664301353
 31
0.0
  0
LINE
  5
21BC
  8
4
 10
2995.597715035095
 20
7247.8097917420337
 30
0.0
 11
2995.597715035095
 21
7247.8097917420337
 31
0.0
  0
LINE
  5
21BD
  8
4
 10
2995.597715035095
 20
2822.8097917420341
 30
0.0
 11
-154.40228496490451
 21
2822.8097917420341
 31
0.0
  0
LINE
  5
21BE
  8
4
 10
520.59771503509535
 20
3572.8097917420332
 30
0.0
 11
2320.597715035095
 21
3572.8097917420332
 31
0.0
  0
LINE
  5
21BF
  8
4
 10
520.59771503509535
 20
3422.8097917420332
 30
0.0
 11
2320.597715035095
 21
3422.8097917420332
 31
0.0
  0
LINE
  5
21C0
  8
4
 10
520.59771503509535
 20
3272.8097917420332
 30
0.0
 11
2320.597715035095
 21
3272.8097917420332
 31
0.0
  0
TEXT
  5
21C3
  8
4
 10
1325.5794584133159
 20
3298.5491681619478
 30
0.0
 40
75.0
  1
MF＃2-7
  0
TEXT
  5
21C4
  8
4
 10
574.98487407229175
 20
3305.2775268400501
 30
0.0
 40
75.0
  1
機器型番
  0
TEXT
  5
21C5
  8
4
 10
578.35083630544796
 20
3470.124330541953
 30
0.0
 40
75.0
  1
機器名称
  0
LINE
  5
21C7
  8
4
 10
520.59771503509535
 20
3572.8097917420332
 30
0.0
 11
520.59771503509535
 21
3272.8097917420332
 31
0.0
  0
LINE
  5
21C8
  8
4
 10
1270.597715035095
 20
3572.8097917420332
 30
0.0
 11
1270.597715035095
 21
3272.8097917420332
 31
0.0
  0
TEXT
  5
21C9
  8
4
 10
1312.1158332665921
 20
3456.6674451783861
 30
0.0
 40
75.0
  1
ミツヤ多翼送風機
  0
LINE
  5
21CA
  8
4
 10
2320.597715035095
 20
3572.8097917420332
 30
0.0
 11
2320.597715035095
 21
3272.8097917420332
 31
0.0
  0
DIMENSION
  5
5305
  8
SP
  2
*D10
 10
2404.2218757226069
 20
4933.6352945090757
 30
0.0
 11
2292.221875722606
 21
4971.1352945090757
 31
0.0
 70
     0
 13
2180.2218757226051
 23
4811.020459316218
 33
0.0
 14
2404.2218757226069
 24
4811.0204593162107
 34
0.0
  0
LINE
  5
5306
  8
2
 10
2292.221875722606
 20
4920.9550058418381
 30
0.0
 11
2292.221875722606
 21
4062.9208645024009
 31
0.0
1001
ACAD
1000
ASC_BOUNDS
1002
{
1070
    19
1005
0
1005
0
1002
}
  0
DIMENSION
  5
5307
  8
SP
  2
*D9
 10
1872.221875723596
 20
5038.6352945090748
 30
0.0
 11
2082.2218757231012
 21
5076.1352945090748
 31
0.0
 70
     0
 13
2292.221875722606
 23
4993.6352945090757
 33
0.0
 14
1872.221875723596
 24
4586.2162348221382
 34
0.0
1001
ACAD
1000
DSTYLE
1002
{
1070
     3
1000
（<>）
1002
}
  0
DIMENSION
  5
5308
  8
SP
  2
*D8
 10
2413.221875722606
 20
5038.6352945090748
 30
0.0
 11
2352.721875722606
 21
5076.1352945090748
 31
0.0
 70
     0
 13
2292.221875722606
 23
4993.6352945090757
 33
0.0
 14
2413.221875722606
 24
4684.1352945090794
 34
0.0
  0
LINE
  5
5309
  8
2
 10
917.76636565073341
 20
4062.9208645024009
 30
0.0
 11
917.76636565073341
 21
4874.1712074726011
 31
0.0
  0
DIMENSION
  5
530A
  8
SP
  2
*D5
 10
653.53508401689817
 20
4933.6352945090757
 30
0.0
 11
785.65072483381584
 21
4971.1352945090757
 31
0.0
 70
     0
 13
917.76636565073341
 23
4874.1712074726011
 33
0.0
 14
653.53508401689817
 24
4529.3057173214684
 34
0.0
1001
ACAD
1000
DSTYLE
1002
{
1070
   271
1070
     0
1002
}
  0
DIMENSION
  5
530B
  8
SP
  2
*D4
 10
1167.7663656507391
 20
4933.6352945090757
 30
0.0
 11
1042.7663656507359
 21
4971.1352945090757
 31
0.0
 70
     0
 13
917.76636565073341
 23
4874.1712074726011
 33
0.0
 14
1167.7663656507391
 24
4838.6352945090784
 34
0.0
  0
POLYLINE
  5
530C
  8
1
 66
     1
 10
0.0
 20
0.0
 30
0.0
  0
VERTEX
  5
6C79
  8
1
 10
1147.766365650737
 20
4827.6352945090794
 30
0.0
  0
VERTEX
  5
6C7A
  8
1
 10
943.25418891205015
 20
4827.6352945090821
 30
0.0
 42
0.2269714708976296
  0
VERTEX
  5
6C7B
  8
1
 10
707.05564591531095
 20
4713.8891123932508
 30
0.0
  0
SEQEND
  5
6C7C
  8
1
  0
LINE
  5
530D
  8
1
 10
2045.2218757226069
 20
4602.6352945090812
 30
0.0
 11
2082.129152616094
 21
4602.6352945090812
 31
0.0
  0
LINE
  5
530E
  8
1
 10
2179.221875722606
 20
4707.6352945090803
 30
0.0
 11
1989.659892514655
 21
4502.6352945090812
 31
0.0
  0
LINE
  5
530F
  8
1
 10
1861.2218757226069
 20
4147.635294509083
 30
0.0
 11
2211.221875722606
 21
4147.635294509083
 31
0.0
  0
LINE
  5
5310
  8
FUTO
 10
1861.2218757226069
 20
4150.835294509081
 30
0.0
 11
2168.0218757226062
 21
4150.835294509081
 31
0.0
  0
LINE
  5
5312
  8
2
 10
2444.2338598583228
 20
4502.6352945090812
 30
0.0
 11
1830.8337551560271
 21
4502.6352945090812
 31
0.0
  0
LINE
  5
5313
  8
FUTO
 10
1991.021875722606
 20
4502.6352945090812
 30
0.0
 11
1861.2218757226069
 21
4150.835294509081
 31
0.0
  0
LINE
  5
5314
  8
1
 10
1087.7663656507229
 20
4402.6352945090812
 30
0.0
 11
1087.766365650725
 21
4202.6352945090812
 31
0.0
  0
LINE
  5
5315
  8
1
 10
1127.766365650722
 20
4587.5576166677083
 30
0.0
 11
1127.7663656507259
 21
4147.6352945090812
 31
0.0
  0
LINE
  5
5316
  8
1
 10
1130.066365650722
 20
4585.7352945090806
 30
0.0
 11
1130.066365650722
 21
4149.9352945090777
 31
0.0
  0
DIMENSION
  5
5317
  8
SP
  2
*D7
 10
1318.4498881917871
 20
4502.6352945090812
 30
0.0
 11
1280.9498881917859
 21
4305.1352945090812
 31
0.0
 70
     0
 13
1227.766365650733
 23
4107.6352945090812
 33
0.0
 14
1207.0683911543911
 24
4502.6352945090812
 34
0.0
 50
90.0
  0
LINE
  5
5318
  8
1
 10
747.76636565074296
 20
4402.6352945090812
 30
0.0
 11
747.76636565074114
 21
4202.6352945090812
 31
0.0
  0
POLYLINE
  5
5319
  8
1
 66
     1
 10
0.0
 20
0.0
 30
0.0
  0
VERTEX
  5
6C7D
  8
1
 10
705.22538204416855
 20
4356.8178745583155
 30
0.0
 42
0.1174780416237576
  0
VERTEX
  5
6C7E
  8
1
 10
801.01850660018204
 20
4288.3729994271162
 30
0.0
 42
0.1174780416237576
  0
SEQEND
  5
6C7F
  8
1
  0
LINE
  5
531A
  8
1
 10
705.46636565074414
 20
4585.7352945090806
 30
0.0
 11
705.46636565074414
 21
4149.9352945090777
 31
0.0
  0
LINE
  5
531B
  8
1
 10
707.76636565074432
 20
4587.5576166677083
 30
0.0
 11
707.76636565074057
 21
4147.6352945090812
 31
0.0
  0
POLYLINE
  5
531C
  8
1
 66
     1
 10
0.0
 20
0.0
 30
0.0
  0
VERTEX
  5
6C80
  8
1
 10
804.78810735020272
 20
4297.6352945090803
 30
0.0
 42
0.1343280102757561
  0
VERTEX
  5
6C81
  8
1
 10
932.53639093102117
 20
4283.2714502998761
 30
0.0
 42
0.3163019945347412
  0
VERTEX
  5
6C82
  8
1
 10
1101.143552193148
 20
4446.2656614608086
 30
0.0
 42
0.3153658436290411
  0
SEQEND
  5
6C83
  8
1
  0
POLYLINE
  5
531D
  8
1
 66
     1
 10
0.0
 20
0.0
 30
0.0
  0
VERTEX
  5
6C84
  8
1
 10
801.08795155094401
 20
4288.3450390195248
 30
0.0
 42
0.1343314877425494
  0
VERTEX
  5
6C85
  8
1
 10
934.08449464448461
 20
4273.3920076828826
 30
0.0
 42
0.3163064660587118
  0
VERTEX
  5
6C86
  8
1
 10
1110.964285768669
 20
4444.380670203901
 30
0.0
 42
0.3163064660587118
  0
SEQEND
  5
6C87
  8
1
  0
LINE
  5
5320
  8
FUTO
 10
607.76636565073341
 20
4147.6352945090812
 30
0.0
 11
1227.766365650733
 21
4147.6352945090812
 31
0.0
  0
LINE
  5
5321
  8
2
 10
685.76636565073341
 20
4129.4484132242542
 30
0.0
 11
685.76636565073341
 21
4161.1393061729132
 31
0.0
  0
LINE
  5
5322
  8
1
 10
707.76636565074296
 20
4202.6352945090812
 30
0.0
 11
747.76636565074114
 21
4202.6352945090812
 31
0.0
  0
LINE
  5
5323
  8
1
 10
667.76636565074159
 20
4149.9352945090804
 30
0.0
 11
667.76636565074057
 21
4147.6352945090812
 31
0.0
  0
LINE
  5
5324
  8
1
 10
667.76636565074159
 20
4149.9352945090804
 30
0.0
 11
705.46636565074414
 21
4149.9352945090804
 31
0.0
  0
LINE
  5
5325
  8
2
 10
1149.766365650733
 20
4129.4484132242542
 30
0.0
 11
1149.766365650733
 21
4161.1393061729132
 31
0.0
  0
LINE
  5
5327
  8
1
 10
1127.7663656507241
 20
4202.6352945090812
 30
0.0
 11
1087.766365650725
 21
4202.6352945090812
 31
0.0
  0
LINE
  5
5328
  8
1
 10
1167.766365650725
 20
4149.9352945090804
 30
0.0
 11
1167.7663656507259
 21
4147.6352945090812
 31
0.0
  0
LINE
  5
5329
  8
1
 10
1167.766365650725
 20
4149.9352945090804
 30
0.0
 11
1130.066365650722
 21
4149.9352945090804
 31
0.0
  0
LINE
  5
532A
  8
FUTO
 10
1861.2218757226069
 20
4147.635294509083
 30
0.0
 11
1861.2218757226069
 21
4150.835294509081
 31
0.0
  0
DIMENSION
  5
532B
  8
SP
  2
*D6
 10
1318.4498881917971
 20
4817.6352945090766
 30
0.0
 11
1280.9498881917959
 21
4660.1352945090794
 31
0.0
 70
     0
 13
1207.0683911543911
 23
4502.6352945090812
 33
0.0
 14
1167.766365650737
 24
4817.6352945090766
 34
0.0
 50
90.0
  0
LINE
  5
532C
  8
1
 10
1147.766365650735
 20
4800.2352945090743
 30
0.0
 11
1147.7663656507279
 21
4519.0352945090772
 31
0.0
  0
POLYLINE
  5
532D
  8
FUTO
 66
     1
 10
0.0
 20
0.0
 30
0.0
  0
VERTEX
  5
6C88
  8
FUTO
 10
1167.766365650727
 20
4481.1352945090748
 30
0.0
  0
VERTEX
  5
6C89
  8
FUTO
 10
1167.766365650737
 20
4839.1352945090757
 30
0.0
  0
VERTEX
  5
6C8A
  8
FUTO
 10
1166.566365650737
 20
4839.1352945090766
 30
0.0
  0
VERTEX
  5
6C8B
  8
FUTO
 10
1166.566365650727
 20
4481.1352945090766
 30
0.0
  0
SEQEND
  5
6C8C
  8
FUTO
  0
POLYLINE
  5
532E
  8
1
 66
     1
 10
0.0
 20
0.0
 30
0.0
  0
VERTEX
  5
6C8D
  8
1
 10
714.85883512688497
 20
4707.6352945090803
 30
0.0
 42
0.2162148363065116
  0
VERTEX
  5
6C8E
  8
1
 10
658.71615437408911
 20
4474.7374777010291
 30
0.0
 42
0.1298622998199493
  0
VERTEX
  5
6C8F
  8
1
 10
712.76636565072533
 20
4363.385489517007
 30
0.0
 42
0.3153658436290411
  0
SEQEND
  5
6C90
  8
1
  0
POLYLINE
  5
532F
  8
1
 66
     1
 10
0.0
 20
0.0
 30
0.0
  0
VERTEX
  5
6C91
  8
1
 10
706.97378825782278
 20
4713.785581971687
 30
0.0
 42
0.2162335382726867
  0
VERTEX
  5
6C92
  8
1
 10
648.89887584105395
 20
4472.8344573611066
 30
0.0
 42
0.1298839697351506
  0
VERTEX
  5
6C93
  8
1
 10
705.18390987804253
 20
4356.8657989986386
 30
0.0
 42
0.1298839697351506
  0
SEQEND
  5
6C94
  8
1
  0
CIRCLE
  5
5330
  8
CT
 10
917.76636565072613
 20
4502.6352945090812
 30
0.0
 40
169.0
  0
ARC
  5
5331
  8
1
 10
917.76636565072613
 20
4502.6352945090812
 30
0.0
 40
100.8
 50
0.0
 51
254.57230000000411
  0
LINE
  5
5332
  8
1
 10
857.5638656507258
 20
4421.7464945090796
 30
0.0
 11
851.33136565072573
 21
4415.5139945090796
 31
0.0
  0
LINE
  5
5333
  8
1
 10
817.76636565072613
 20
4402.6352945090812
 30
0.0
 11
857.76636565072624
 21
4402.6352945090812
 31
0.0
  0
LINE
  5
5334
  8
1
 10
819.76636565072613
 20
4414.6352945090812
 30
0.0
 11
855.76636565072602
 21
4414.6352945090812
 31
0.0
  0
LINE
  5
5335
  8
1
 10
747.7663656507425
 20
4362.6352945090821
 30
0.0
 11
917.76636565073431
 21
4362.6352945090821
 31
0.0
  0
LINE
  5
5336
  8
2
 10
612.82285580316102
 20
4502.6352945090812
 30
0.0
 11
1207.0683911543911
 21
4502.6352945090812
 31
0.0
  0
LINE
  5
5337
  8
1
 10
707.76636565074296
 20
4402.6352945090812
 30
0.0
 11
1127.7663656507229
 21
4402.6352945090794
 31
0.0
  0
LINE
  5
5338
  8
1
 10
818.65856565072625
 20
4414.303394509082
 30
0.0
 11
835.05936565072568
 21
4444.9653945090822
 31
0.0
  0
LINE
  5
5339
  8
CT
 10
837.76636565072613
 20
4416.0157945090814
 30
0.0
 11
837.76636565072613
 21
4398.6686945090787
 31
0.0
  0
LINE
  5
533A
  8
1
 10
843.76636565072613
 20
4402.6352945090812
 30
0.0
 11
843.76636565072613
 21
4414.6352945090812
 31
0.0
  0
ARC
  5
533B
  8
1
 10
849.20996565072574
 20
4417.6352945090812
 30
0.0
 40
3.0
 50
270.0
 51
314.99999999999301
  0
LINE
  5
533C
  8
1
 10
817.76636565072613
 20
4402.6352945090812
 30
0.0
 11
817.76636565072613
 21
4412.6352945090812
 31
0.0
  0
ARC
  5
533D
  8
1
 10
819.76636565072613
 20
4412.6352945090812
 30
0.0
 40
2.0
 50
90.0
 51
180.0
  0
LINE
  5
533E
  8
1
 10
831.76636565072602
 20
4414.6352945090812
 30
0.0
 11
831.76636565072602
 21
4402.6352945090812
 31
0.0
  0
CIRCLE
  5
533F
  8
1
 10
798.26531963021444
 20
4383.1342484885481
 30
0.0
 40
4.0
  0
LINE
  5
5340
  8
CT
 10
792.25491199012868
 20
4377.1238408484633
 30
0.0
 11
803.48209934534077
 21
4388.351028203675
 31
0.0
  0
POLYLINE
  5
5341
  8
1
 66
     1
 10
0.0
 20
0.0
 30
0.0
  0
VERTEX
  5
6C95
  8
1
 10
712.76636565072624
 20
4363.3854895170089
 30
0.0
 42
0.1174780416237573
  0
VERTEX
  5
6C96
  8
1
 10
804.78810735020363
 20
4297.635294509083
 30
0.0
 42
0.3153658436290411
  0
SEQEND
  5
6C97
  8
1
  0
LINE
  5
5342
  8
FUTO
 10
707.76636565074296
 20
4402.6352945090812
 30
0.0
 11
747.7663656507425
 21
4362.6352945090821
 31
0.0
  0
CIRCLE
  5
5343
  8
1
 10
754.52490100788145
 20
4546.3757131313987
 30
0.0
 40
4.0
  0
LINE
  5
5344
  8
CT
 10
746.31453148442415
 20
4548.5756750147693
 30
0.0
 11
761.65115462469112
 21
4544.466239229715
 31
0.0
  0
CIRCLE
  5
5345
  8
1
 10
754.52490100788782
 20
4458.8948758867491
 30
0.0
 40
4.0
  0
LINE
  5
5346
  8
CT
 10
746.31453148442961
 20
4456.6949140033767
 30
0.0
 11
761.65115462469646
 21
4460.804349788431
 31
0.0
  0
LINE
  5
5347
  8
1
 10
1016.675565650726
 20
4414.6747945090819
 30
0.0
 11
1000.556865650726
 21
4444.8090945090789
 31
0.0
  0
ARC
  5
5348
  8
1
 10
917.76636565072613
 20
4502.6352945090812
 30
0.0
 40
100.8
 50
285.79709999998698
 51
0.0
  0
LINE
  5
5349
  8
1
 10
1087.7663656507241
 20
4362.6352945090821
 30
0.0
 11
917.76636565073431
 21
4362.6352945090821
 31
0.0
  0
CIRCLE
  5
534A
  8
1
 10
1037.267411671264
 20
4383.1342484885599
 30
0.0
 40
4.0
  0
LINE
  5
534B
  8
CT
 10
1043.277819311349
 20
4377.123840848476
 30
0.0
 11
1032.050631956138
 21
4388.3510282036859
 31
0.0
  0
LINE
  5
534C
  8
1
 10
991.76636565072624
 20
4402.6352945090812
 30
0.0
 11
991.76636565072624
 21
4414.6352945090812
 31
0.0
  0
ARC
  5
534D
  8
1
 10
1015.766365650726
 20
4412.6352945090812
 30
0.0
 40
2.0
 50
0.0
 51
90.0
  0
LINE
  5
534E
  8
CT
 10
997.76636565072602
 20
4416.0157945090814
 30
0.0
 11
997.76636565072602
 21
4398.6686945090787
 31
0.0
  0
LINE
  5
534F
  8
1
 10
1003.766365650726
 20
4414.6352945090812
 30
0.0
 11
1003.766365650726
 21
4402.6352945090812
 31
0.0
  0
LINE
  5
5350
  8
1
 10
1017.766365650726
 20
4402.6352945090812
 30
0.0
 11
1017.766365650726
 21
4412.6352945090812
 31
0.0
  0
LINE
  5
5351
  8
1
 10
977.76636565072613
 20
4402.6352945090812
 30
0.0
 11
977.76636565072613
 21
4412.6352945090812
 31
0.0
  0
ARC
  5
5352
  8
1
 10
979.76636565072613
 20
4412.6352945090812
 30
0.0
 40
2.0
 50
90.0
 51
180.0
  0
ARC
  5
5353
  8
1
 10
986.32276565072641
 20
4417.6352945090812
 30
0.0
 40
3.0
 50
225.00000000000691
 51
270.0
  0
LINE
  5
5354
  8
1
 10
978.34846565072564
 20
4421.3669945090796
 30
0.0
 11
984.20136565072664
 21
4415.5139945090796
 31
0.0
  0
LINE
  5
5355
  8
1
 10
971.51296565072653
 20
4416.8887945090819
 30
0.0
 11
977.76636565072613
 21
4410.6352945090812
 31
0.0
  0
CIRCLE
  5
5356
  8
1
 10
961.5067842730665
 20
4339.3938298662333
 30
0.0
 40
4.0
  0
LINE
  5
5357
  8
CT
 10
963.70674615643827
 20
4331.1834603427751
 30
0.0
 11
959.5973103713834
 21
4346.5200834830412
 31
0.0
  0
LINE
  5
5358
  8
1
 10
1015.766365650726
 20
4414.6352945090812
 30
0.0
 11
979.76636565072613
 21
4414.6352945090812
 31
0.0
  0
LINE
  5
5359
  8
1
 10
1017.766365650726
 20
4402.6352945090812
 30
0.0
 11
977.76636565072613
 21
4402.6352945090812
 31
0.0
  0
CIRCLE
  5
535A
  8
1
 10
874.02594702841577
 20
4339.3938298662297
 30
0.0
 40
4.0
  0
LINE
  5
535B
  8
CT
 10
871.82598514504446
 20
4331.1834603427733
 30
0.0
 11
875.93542093009955
 21
4346.5200834830384
 31
0.0
  0
LINE
  5
535C
  8
1
 10
857.76636565072624
 20
4402.6352945090812
 30
0.0
 11
857.76636565072624
 21
4412.6352945090812
 31
0.0
  0
ARC
  5
535D
  8
1
 10
855.76636565072602
 20
4412.6352945090812
 30
0.0
 40
2.0
 50
0.0
 51
90.0
  0
LINE
  5
535E
  8
1
 10
864.3159656507263
 20
4417.1849945090808
 30
0.0
 11
857.76636565072624
 21
4410.6352945090812
 31
0.0
  0
LINE
  5
535F
  8
1
 10
945.3840656507258
 20
4405.6352945090812
 30
0.0
 11
890.496965650726
 21
4405.6352945090812
 31
0.0
  0
LINE
  5
5360
  8
FUTO
 10
1127.7663656507229
 20
4402.6352945090812
 30
0.0
 11
1087.7663656507241
 21
4362.6352945090821
 31
0.0
  0
POLYLINE
  5
5361
  8
CT
 66
     1
 10
0.0
 20
0.0
 30
0.0
  0
VERTEX
  5
6C98
  8
CT
 10
1172.829528865725
 20
4491.1352945090748
 30
0.0
  0
VERTEX
  5
6C99
  8
CT
 10
1160.561218581779
 20
4491.1352945090766
 30
0.0
  0
SEQEND
  5
6C9A
  8
CT
  0
LINE
  5
5362
  8
1
 10
1167.7663656507279
 20
4501.6352945090766
 30
0.0
 11
1146.7663656507279
 21
4501.6352945090766
 31
0.0
  0
ARC
  5
5363
  8
1
 10
1162.7663656507291
 20
4502.6352945090784
 30
0.0
 40
1.0
 50
270.0
 51
53.130102354213307
  0
LINE
  5
5364
  8
1
 10
1147.766365650727
 20
4501.6352945090721
 30
0.0
 11
1147.766365650725
 21
4498.3154843822404
 31
0.0
  0
LINE
  5
5365
  8
1
 10
1163.466365650728
 20
4503.3352945090737
 30
0.0
 11
1147.7663656507279
 21
4519.0352945090726
 31
0.0
  0
POINT
  5
5366
  8
1
 10
1167.766365650727
 20
4502.6352945090784
 30
0.0
  0
POLYLINE
  5
5367
  8
FUTO
 66
     1
 10
0.0
 20
0.0
 30
0.0
  0
VERTEX
  5
6C9B
  8
FUTO
 10
1167.766365650727
 20
4481.1352945090748
 30
0.0
  0
VERTEX
  5
6C9C
  8
FUTO
 10
1166.566365650727
 20
4481.1352945090748
 30
0.0
  0
SEQEND
  5
6C9D
  8
FUTO
  0
POLYLINE
  5
5368
  8
1
 66
     1
 10
0.0
 20
0.0
 30
0.0
  0
VERTEX
  5
6C9E
  8
1
 10
1146.7663656507291
 20
4501.6352945090766
 30
0.0
 42
0.101266720201501
  0
VERTEX
  5
6C9F
  8
1
 10
1141.2669551639649
 20
4500.5099395254683
 30
0.0
 42
0.0681921917069782
  0
VERTEX
  5
6CA0
  8
1
 10
1122.7663656507279
 20
4485.7802028555043
 30
0.0
 42
0.2200089805681688
  0
SEQEND
  5
6CA1
  8
1
  0
ARC
  5
5369
  8
1
 10
1137.7663656507291
 20
4498.3154843822467
 30
0.0
 40
10.0
 50
303.44187178950801
 51
0.0
  0
CIRCLE
  5
536A
  8
1
 10
1081.007830293581
 20
4546.3757131314151
 30
0.0
 40
4.0
  0
LINE
  5
536B
  8
CT
 10
1089.2181998170381
 20
4548.5756750147848
 30
0.0
 11
1073.8815766767709
 21
4544.4662392297314
 31
0.0
  0
CIRCLE
  5
536C
  8
1
 10
1081.0078302935849
 20
4458.8948758867627
 30
0.0
 40
4.0
  0
LINE
  5
536D
  8
CT
 10
1089.2181998170429
 20
4456.6949140033912
 30
0.0
 11
1073.8815766767759
 21
4460.8043497884473
 31
0.0
  0
POLYLINE
  5
536E
  8
1
 66
     1
 10
0.0
 20
0.0
 30
0.0
  0
VERTEX
  5
6CA2
  8
1
 10
1122.7663656507279
 20
4470.0808792166736
 30
0.0
 42
0.0941668855597806
  0
VERTEX
  5
6CA3
  8
1
 10
1110.8549613423829
 20
4443.8751274181732
 30
0.0
 42
0.1987366729981355
  0
SEQEND
  5
6CA4
  8
1
  0
POLYLINE
  5
536F
  8
1
 66
     1
 10
0.0
 20
0.0
 30
0.0
  0
VERTEX
  5
6CA5
  8
1
 10
1143.2772726541741
 20
4489.9710308950844
 30
0.0
 42
0.0934525219043797
  0
VERTEX
  5
6CA6
  8
1
 10
1122.7663656507279
 20
4470.0808792166736
 30
0.0
 42
0.1987366729981355
  0
SEQEND
  5
6CA7
  8
1
  0
POLYLINE
  5
5370
  8
1
 66
     1
 10
0.0
 20
0.0
 30
0.0
  0
VERTEX
  5
6CA8
  8
1
 10
1122.7663656507279
 20
4485.7802028555043
 30
0.0
 42
0.1315967463597435
  0
VERTEX
  5
6CA9
  8
1
 10
1101.138825893828
 20
4446.2408645010637
 30
0.0
 42
0.2200089805681688
  0
SEQEND
  5
6CAA
  8
1
  0
POLYLINE
  5
5371
  8
1
 66
     1
 10
0.0
 20
0.0
 30
0.0
  0
VERTEX
  5
6CAB
  8
1
 10
1167.766365650737
 20
4817.6352945090766
 30
0.0
  0
VERTEX
  5
6CAC
  8
1
 10
943.26636565073795
 20
4817.635294509083
 30
0.0
 42
0.2269607506063405
  0
VERTEX
  5
6CAD
  8
1
 10
714.85883512688497
 20
4707.6352945090803
 30
0.0
 42
0.129402372482195
  0
SEQEND
  5
6CAE
  8
1
  0
LINE
  5
5372
  8
1
 10
827.76636565072522
 20
4707.635294509083
 30
0.0
 11
1007.766365650725
 21
4707.6352945090803
 31
0.0
  0
CIRCLE
  5
5373
  8
1
 10
798.2653196302017
 20
4622.1363405295988
 30
0.0
 40
4.0
  0
LINE
  5
5374
  8
CT
 10
792.25491199011628
 20
4628.1467481696864
 30
0.0
 11
803.48209934532815
 21
4616.9195608144737
 31
0.0
  0
LINE
  5
5375
  8
1
 10
827.76636565072522
 20
4707.6352945090803
 30
0.0
 11
705.46636565074414
 21
4585.7352945090806
 31
0.0
  0
POINT
  5
5376
  8
1
 10
760.26636565073238
 20
4752.6352945090921
 30
0.0
  0
POINT
  5
5377
  8
1
 10
760.26636565073238
 20
4752.6352945090921
 30
0.0
  0
LINE
  5
5378
  8
1
 10
1007.766365650725
 20
4707.6352945090803
 30
0.0
 11
1130.066365650722
 21
4585.7352945090806
 31
0.0
  0
CIRCLE
  5
5379
  8
1
 10
1037.2674116712531
 20
4622.1363405296106
 30
0.0
 40
4.0
  0
LINE
  5
537A
  8
CT
 10
1043.2778193113379
 20
4628.1467481696964
 30
0.0
 11
1032.0506319561259
 21
4616.9195608144864
 31
0.0
  0
LINE
  5
537B
  8
CT
 10
963.70674615642247
 20
4674.0871286753909
 30
0.0
 11
959.59731037136726
 21
4658.750505535123
 31
0.0
  0
CIRCLE
  5
537C
  8
1
 10
961.50678427305093
 20
4665.8767591519336
 30
0.0
 40
4.0
  0
CIRCLE
  5
537D
  8
1
 10
874.02594702839997
 20
4665.876759151929
 30
0.0
 40
4.0
  0
LINE
  5
537E
  8
CT
 10
871.82598514502843
 20
4674.0871286753863
 30
0.0
 11
875.93542093008364
 21
4658.7505055351194
 31
0.0
  0
LINE
  5
537F
  8
1
 10
1163.4663656507371
 20
4815.9352945090768
 30
0.0
 11
1147.7663656507359
 21
4800.2352945090761
 31
0.0
  0
POLYLINE
  5
5380
  8
CT
 66
     1
 10
0.0
 20
0.0
 30
0.0
  0
VERTEX
  5
6CAF
  8
CT
 10
1172.8295288657339
 20
4829.1352945090748
 30
0.0
  0
VERTEX
  5
6CB0
  8
CT
 10
1160.561218581789
 20
4829.1352945090784
 30
0.0
  0
SEQEND
  5
6CB1
  8
CT
  0
ARC
  5
5381
  8
1
 10
1162.766365650738
 20
4816.6352945090784
 30
0.0
 40
1.0
 50
306.86989764577629
 51
90.0
  0
LINE
  5
5382
  8
FUTO
 10
1147.766365650737
 20
4827.6352945090794
 30
0.0
 11
1147.766365650737
 21
4817.6352945090803
 31
0.0
  0
LINE
  5
5383
  8
1
 10
1922.221875722606
 20
4406.6352945090812
 30
0.0
 11
1922.221875722606
 21
4601.9352945090823
 31
0.0
  0
LINE
  5
5384
  8
1
 10
1962.221875722606
 20
4603.4352945090823
 30
0.0
 11
1962.221875722606
 21
4452.6352945090812
 31
0.0
  0
LINE
  5
5385
  8
1
 10
1872.221875722606
 20
4419.0823945090797
 30
0.0
 11
1872.221875722606
 21
4586.216194509082
 31
0.0
  0
LINE
  5
5386
  8
1
 10
1948.221875722606
 20
4405.6352945090812
 30
0.0
 11
1948.221875722606
 21
4443.6352945090812
 31
0.0
  0
ARC
  5
5387
  8
FUTO
 10
1865.0218757226071
 20
4396.7467877016234
 30
0.0
 40
4.7999999999999998
 50
90.0
 51
180.0
  0
ARC
  5
5388
  8
FUTO
 10
1865.0218757226071
 20
4396.7467877016234
 30
0.0
 40
2.3999999999999999
 50
90.0
 51
180.0
  0
LINE
  5
5389
  8
FUTO
 10
1860.221875722606
 20
4373.9467877016241
 30
0.0
 11
1862.621875722607
 21
4373.9467877016241
 31
0.0
  0
LINE
  5
538A
  8
FUTO
 10
1860.221875722606
 20
4373.9467877016241
 30
0.0
 11
1860.221875722606
 21
4396.7467877016234
 31
0.0
  0
LINE
  5
538B
  8
FUTO
 10
1862.621875722607
 20
4373.9467877016241
 30
0.0
 11
1862.621875722607
 21
4396.7467877016234
 31
0.0
  0
LINE
  5
538C
  8
1
 10
1948.1223757226071
 20
4417.6352945090812
 30
0.0
 11
1959.703565863452
 21
4417.6352945090812
 31
0.0
  0
ARC
  5
538D
  8
1
 10
1923.2219757226051
 20
4406.6352945090812
 30
0.0
 40
1.0000999999999991
 50
180.0
 51
269.99650000001031
  0
LINE
  5
538E
  8
1
 10
1948.221875722606
 20
4405.6352945090812
 30
0.0
 11
1923.221875722606
 21
4405.6352945090812
 31
0.0
  0
ARC
  5
538F
  8
1
 10
1874.0216757226069
 20
4419.082194509082
 30
0.0
 40
1.7998000000000001
 50
179.9961000000213
 51
257.59830000001023
  0
LINE
  5
5390
  8
1
 10
1922.221875722606
 20
4406.6352945090812
 30
0.0
 11
1873.6351757226059
 21
4417.3243945090817
 31
0.0
  0
LINE
  5
5391
  8
FUTO
 10
1920.6987586986329
 20
4311.7736236871342
 30
0.0
 11
1873.1009349031831
 21
4399.146787701623
 31
0.0
  0
LINE
  5
5392
  8
FUTO
 10
1865.0218757226071
 20
4399.146787701623
 30
0.0
 11
1952.8914625101679
 21
4399.1467877016194
 31
0.0
  0
LINE
  5
5393
  8
FUTO
 10
1865.0218757226071
 20
4401.5467877016199
 30
0.0
 11
1953.7757442003081
 21
4401.5467877016199
 31
0.0
  0
LINE
  5
5394
  8
1
 10
1948.221875722606
 20
4443.6352945090812
 30
0.0
 11
1962.221875722606
 21
4452.6352945090812
 31
0.0
  0
LINE
  5
5395
  8
1
 10
1962.0535757226071
 20
4589.0759945090822
 30
0.0
 11
1969.8821757226069
 21
4602.6352945090812
 31
0.0
  0
ARC
  5
5396
  8
1
 10
1923.721875722606
 20
4601.9352945090823
 30
0.0
 40
1.5
 50
90.0
 51
180.0
  0
LINE
  5
5397
  8
1
 10
1962.221875722606
 20
4603.4352945090823
 30
0.0
 11
1923.721875722606
 21
4603.4352945090823
 31
0.0
  0
LINE
  5
5398
  8
1
 10
2045.2218757226069
 20
4602.6352945090812
 30
0.0
 11
1969.8821757226069
 21
4602.6352945090812
 31
0.0
  0
ARC
  5
5399
  8
1
 10
1874.021775722606
 20
4586.2162945090813
 30
0.0
 40
1.7999000000000001
 50
103.4933999999914
 51
180.0018999999831
  0
LINE
  5
539A
  8
1
 10
1922.221875722606
 20
4599.6352945090812
 30
0.0
 11
1873.601775722607
 21
4587.9664945090808
 31
0.0
  0
ARC
  5
539B
  8
FUTO
 10
2194.221875722606
 20
4295.3480743926093
 30
0.0
 40
15.0
 50
180.0
 51
269.99999999999829
  0
POLYLINE
  5
539C
  8
1
 66
     1
 10
0.0
 20
0.0
 30
0.0
  0
VERTEX
  5
6CB2
  8
1
 10
2168.0218757226048
 20
4695.5231612577563
 30
0.0
  0
VERTEX
  5
6CB3
  8
1
 10
2168.0218757226062
 20
4147.635294509083
 30
0.0
  0
SEQEND
  5
6CB4
  8
1
  0
POLYLINE
  5
539D
  8
1
 66
     1
 10
0.0
 20
0.0
 30
0.0
  0
VERTEX
  5
6CB5
  8
1
 10
2171.221875722606
 20
4698.9837707581346
 30
0.0
  0
VERTEX
  5
6CB6
  8
1
 10
2171.2218757226051
 20
4502.6352945090812
 30
0.0
  0
VERTEX
  5
6CB7
  8
1
 10
2171.2218757226051
 20
4147.635294509083
 30
0.0
  0
SEQEND
  5
6CB8
  8
1
  0
ARC
  5
539E
  8
FUTO
 10
2390.2218757226069
 20
4295.3480743926093
 30
0.0
 40
15.0
 50
269.99999999999829
 51
0.0
  0
LINE
  5
53A0
  8
FUTO
 10
2194.221875722606
 20
4280.3480743926066
 30
0.0
 11
2390.221875722606
 21
4280.3480743926066
 31
0.0
  0
POLYLINE
  5
53A1
  8
1
 66
     1
 10
0.0
 20
0.0
 30
0.0
  0
VERTEX
  5
6CB9
  8
1
 10
2211.221875722606
 20
4150.835294509081
 30
0.0
  0
VERTEX
  5
6CBA
  8
1
 10
2211.221875722606
 20
4147.6352945090812
 30
0.0
  0
SEQEND
  5
6CBB
  8
1
  0
LINE
  5
53A2
  8
1
 10
2171.2218757226069
 20
4150.835294509081
 30
0.0
 11
2211.221875722606
 21
4150.835294509081
 31
0.0
  0
DIMENSION
  5
53A4
  8
SP
  2
*D11
 10
2592.3211755119769
 20
4345.1352945090812
 30
0.0
 11
2554.821175511976
 21
4502.6352945090821
 31
0.0
 70
     0
 13
2413.221875722606
 23
4660.1352945090812
 33
0.0
 14
2413.221875722606
 24
4345.1352945090812
 34
0.0
 50
90.0
1001
ACAD
1000
DSTYLE
1002
{
1070
     3
1000
φ<>
1002
}
  0
LINE
  5
53A5
  8
1
 10
2405.221875722606
 20
4805.635294509083
 30
0.0
 11
2405.2218757226092
 21
4527.6352945090821
 31
0.0
  0
LINE
  5
53A6
  8
1
 10
2425.221875722606
 20
4506.1352945090757
 30
0.0
 11
2425.2218757226069
 21
4814.1352945090757
 31
0.0
  0
LINE
  5
53A7
  8
1
 10
2179.2218757226051
 20
4517.635294509083
 30
0.0
 11
2179.221875722606
 21
4661.635294509083
 31
0.0
  0
LINE
  5
53A8
  8
HOSO
 10
2399.10136321547
 20
4511.2473430810714
 30
0.0
 11
2182.894183226887
 21
4815.4680653658897
 31
0.0
  0
LINE
  5
53A9
  8
FUTO
 10
2404.2218757226069
 20
4811.020459316218
 30
0.0
 11
2404.2218757226069
 21
4520.6352945090757
 31
0.0
1001
ACAD
1000
ASC_BOUNDS
1002
{
1070
    19
1005
0
1005
0
1002
}
  0
LINE
  5
53AA
  8
FUTO
 10
2180.2218757226051
 20
4811.020459316218
 30
0.0
 11
2180.2218757226051
 21
4512.2501297019471
 31
0.0
1001
ACAD
1000
ASC_BOUNDS
1002
{
1070
    19
1005
0
1005
0
1002
}
  0
LINE
  5
53AB
  8
HOSO
 10
2401.5495682183232
 20
4815.4680653658897
 30
0.0
 11
2182.894183226887
 21
4507.8025236522762
 31
0.0
  0
LINE
  5
53AC
  8
1
 10
2159.221875722606
 20
4506.1352945090757
 30
0.0
 11
2159.221875722606
 21
4814.1352945090757
 31
0.0
  0
LINE
  5
53AD
  8
1
 10
2405.2218757226028
 20
4481.1352945092322
 30
0.0
 11
2405.221875722606
 21
4295.3480743926084
 31
0.0
  0
LINE
  5
53AE
  8
1
 10
2179.2218757226078
 20
4481.5079340757611
 30
0.0
 11
2179.221875722606
 21
4295.3480743926084
 31
0.0
  0
LINE
  5
53AF
  8
1
 10
2179.2218757226069
 20
4320.1352945090812
 30
0.0
 11
2172.221875722606
 21
4320.1352945090812
 31
0.0
  0
ARC
  5
53B0
  8
1
 10
2172.2218757226051
 20
4321.1352945090794
 30
0.0
 40
1.0
 50
180.0
 51
270.0
  0
LINE
  5
53B8
  8
1
 10
2192.6699919590801
 20
4502.6352945090821
 30
0.0
 11
2380.2218757226092
 21
4502.6352945090821
 31
0.0
  0
LINE
  5
53B9
  8
FUTO
 10
2184.221875722606
 20
4481.1352945090748
 30
0.0
 11
2400.221875722606
 21
4481.1352945090748
 31
0.0
  0
ARC
  5
53BA
  8
1
 10
2194.2218757226042
 20
4517.635294509083
 30
0.0
 40
15.0
 50
180.0
 51
270.0
  0
ARC
  5
53BB
  8
FUTO
 10
2184.221875722606
 20
4506.1352945090784
 30
0.0
 40
25.0
 50
180.0
 51
270.0
  0
ARC
  5
53BC
  8
1
 10
2380.2218757226078
 20
4527.6352945090821
 30
0.0
 40
25.0
 50
270.0
 51
0.0
  0
ARC
  5
53BD
  8
FUTO
 10
2400.221875722606
 20
4506.1352945090784
 30
0.0
 40
25.0
 50
270.0
 51
0.0
  0
LINE
  5
53BE
  8
1
 10
2179.2218757226051
 20
4805.635294509083
 30
0.0
 11
2179.221875722606
 21
4661.635294509083
 31
0.0
  0
ARC
  5
53BF
  8
1
 10
2172.221875722606
 20
4684.1352945090794
 30
0.0
 40
1.0
 50
90.0
 51
180.0
  0
ARC
  5
53C0
  8
1
 10
2178.2218757226078
 20
4686.1352945090794
 30
0.0
 40
1.0
 50
270.0
 51
0.0
  0
LINE
  5
53C1
  8
1
 10
2178.2218757226078
 20
4685.1352945090803
 30
0.0
 11
2172.221875722606
 21
4685.1352945090803
 31
0.0
  0
LINE
  5
53C9
  8
FUTO
 10
2194.2218757226051
 20
4820.635294509083
 30
0.0
 11
2390.2218757226051
 21
4820.635294509083
 31
0.0
  0
LINE
  5
53CA
  8
FUTO
 10
2184.221875722606
 20
4839.1352945090757
 30
0.0
 11
2400.221875722606
 21
4839.1352945090757
 31
0.0
  0
ARC
  5
53CB
  8
FUTO
 10
2194.2218757226042
 20
4805.635294509083
 30
0.0
 40
15.0
 50
90.0
 51
180.0
  0
ARC
  5
53CC
  8
FUTO
 10
2184.221875722606
 20
4814.1352945090757
 30
0.0
 40
25.0
 50
90.0
 51
180.0
  0
ARC
  5
53CD
  8
FUTO
 10
2390.2218757226051
 20
4805.635294509083
 30
0.0
 40
15.0
 50
0.0
 51
90.0
  0
ARC
  5
53CE
  8
FUTO
 10
2400.2218757226069
 20
4814.1352945090757
 30
0.0
 40
25.0
 50
0.0
 51
90.000000000001606
  0
LINE
  5
53CF
  8
2
 10
917.76636565073022
 20
5333.3230328201207
 30
0.0
 11
917.76636565072965
 21
6145.3043982912459
 31
0.0
  0
LINE
  5
53D0
  8
1
 10
1166.5663656507329
 20
5987.3629352201669
 30
0.0
 11
1166.5663656507329
 21
5721.3629352201669
 31
0.0
  0
LINE
  5
53D1
  8
1
 10
1167.766365650732
 20
5987.3629352201669
 30
0.0
 11
1167.766365650732
 21
5721.3629352201669
 31
0.0
  0
LINE
  5
53D7
  8
1
 10
1127.7663656507279
 20
5414.3629352201669
 30
0.0
 11
1127.7663656507291
 21
5741.362935220166
 31
0.0
  0
LINE
  5
53D8
  8
1
 10
1167.7663656507279
 20
5414.3629352201669
 30
0.0
 11
1167.7663656507291
 21
6034.3629352201651
 31
0.0
  0
LINE
  5
53D9
  8
1
 10
1002.766365650727
 20
5691.362935220166
 30
0.0
 11
1002.766365650727
 21
5709.0906146535881
 31
0.0
  0
LINE
  5
53DA
  8
1
 10
832.76636565072795
 20
5691.362935220166
 30
0.0
 11
832.76636565072795
 21
5709.0906146535881
 31
0.0
  0
LINE
  5
53DC
  8
1
 10
707.76636565072874
 20
5414.3629352201669
 30
0.0
 11
707.76636565072977
 21
5741.3629352201688
 31
0.0
  0
LINE
  5
53DD
  8
1
 10
667.76636565072874
 20
5414.3629352201669
 30
0.0
 11
667.76636565073034
 21
5741.3963056730699
 31
0.0
  0
LINE
  5
53DF
  8
1
 10
1001.3192656507269
 20
5434.3629352201679
 30
0.0
 11
834.18546565072802
 21
5434.3629352201679
 31
0.0
  0
LINE
  5
53E0
  8
1
 10
1013.7663656507279
 20
5484.3629352201669
 30
0.0
 11
818.46636565072765
 21
5484.3629352201669
 31
0.0
  0
LINE
  5
53E1
  8
1
 10
816.96636565072777
 20
5524.3629352201669
 30
0.0
 11
1018.566365650728
 21
5524.3629352201669
 31
0.0
  0
LINE
  5
53E2
  8
1
 10
1001.319265650731
 20
5434.3629352201679
 30
0.0
 11
834.18546565073166
 21
5434.3629352201679
 31
0.0
  0
LINE
  5
53E3
  8
1
 10
1002.766365650727
 20
5691.362935220166
 30
0.0
 11
832.76636565072795
 21
5691.362935220166
 31
0.0
  0
LINE
  5
53E4
  8
1
 10
817.76636565072795
 20
5532.0232352201701
 30
0.0
 11
817.76636565072795
 21
5682.7026352201674
 31
0.0
  0
LINE
  5
53E5
  8
1
 10
831.32566565072773
 20
5524.1946352201694
 30
0.0
 11
817.76636565072795
 21
5532.0232352201701
 31
0.0
  0
ARC
  5
53E6
  8
1
 10
818.46636565072765
 20
5485.8629352201669
 30
0.0
 40
1.5
 50
180.0
 51
270.0
  0
LINE
  5
53E7
  8
1
 10
816.96636565072777
 20
5524.3629352201669
 30
0.0
 11
816.96636565072777
 21
5485.8629352201669
 31
0.0
  0
ARC
  5
53E8
  8
1
 10
834.18536565072793
 20
5436.1628352201687
 30
0.0
 40
1.7999000000000001
 50
193.49339999999791
 51
270.0018999999993
  0
LINE
  5
53E9
  8
1
 10
820.76636565072783
 20
5484.3629352201669
 30
0.0
 11
832.4351656507273
 21
5435.7428352201669
 31
0.0
  0
LINE
  5
53EA
  8
CT
 10
637.76636565073329
 20
5408.4976431027153
 30
0.0
 11
637.76636565073329
 21
5372.8305635982742
 31
0.0
  0
POLYLINE
  5
53EB
  8
1
 66
     1
 10
0.0
 20
0.0
 30
0.0
  0
VERTEX
  5
6CBC
  8
1
 10
707.76636565072886
 20
5470.7629352201684
 30
0.0
  0
VERTEX
  5
6CBD
  8
1
 10
824.03035893745493
 20
5470.7629352201684
 30
0.0
  0
SEQEND
  5
6CBE
  8
1
  0
LINE
  5
53EC
  8
CT
 10
622.07407745409307
 20
5392.362935220166
 30
0.0
 11
652.7663656507342
 21
5392.362935220166
 31
0.0
  0
LINE
  5
53EE
  8
1
 10
667.76636565072874
 20
5422.3629352201669
 30
0.0
 11
707.76636565072874
 21
5422.3629352201669
 31
0.0
  0
LINE
  5
53EF
  8
1
 10
817.76636565072795
 20
5682.7026352201674
 30
0.0
 11
832.76636565072795
 21
5691.362935220166
 31
0.0
  0
LINE
  5
53F0
  8
1
 10
832.76636565072795
 20
5694.3629352201669
 30
0.0
 11
832.76636565072795
 21
5691.362935220166
 31
0.0
  0
LINE
  5
53F1
  8
1
 10
1017.7663656507279
 20
5682.7026352201674
 30
0.0
 11
1017.7663656507279
 21
5532.0232352201701
 31
0.0
  0
POLYLINE
  5
53F2
  8
1
 66
     1
 10
0.0
 20
0.0
 30
0.0
  0
VERTEX
  5
6CBF
  8
1
 10
1011.5023723640001
 20
5470.7629352201684
 30
0.0
  0
VERTEX
  5
6CC0
  8
1
 10
1127.7663656507279
 20
5470.7629352201657
 30
0.0
  0
SEQEND
  5
6CC1
  8
1
  0
LINE
  5
53F3
  8
1
 10
1004.2070656507281
 20
5524.1946352201694
 30
0.0
 11
1017.7663656507279
 21
5532.0232352201701
 31
0.0
  0
ARC
  5
53F4
  8
1
 10
1017.066365650728
 20
5485.8629352201669
 30
0.0
 40
1.5
 50
270.0
 51
0.0
  0
LINE
  5
53F5
  8
1
 10
1018.566365650728
 20
5524.3629352201669
 30
0.0
 11
1018.566365650728
 21
5485.8629352201669
 31
0.0
  0
ARC
  5
53F6
  8
1
 10
1001.347365650728
 20
5436.1628352201687
 30
0.0
 40
1.7999000000000001
 50
269.99810000000048
 51
346.50660000000198
  0
LINE
  5
53F7
  8
1
 10
1014.766365650727
 20
5484.3629352201669
 30
0.0
 11
1003.097565650727
 21
5435.7428352201669
 31
0.0
  0
LINE
  5
53FA
  8
1
 10
1127.7663656507279
 20
5422.3629352201706
 30
0.0
 11
1167.766365650727
 21
5422.3629352201669
 31
0.0
  0
LINE
  5
53FC
  8
1
 10
1017.7663656507279
 20
5682.7026352201674
 30
0.0
 11
1002.766365650727
 21
5691.362935220166
 31
0.0
  0
LINE
  5
53FD
  8
1
 10
1002.766365650727
 20
5694.3629352201669
 30
0.0
 11
1002.766365650727
 21
5691.362935220166
 31
0.0
  0
POLYLINE
  5
53FE
  8
1
 66
     1
 10
0.0
 20
0.0
 30
0.0
  0
VERTEX
  5
6CC2
  8
1
 10
897.43606287090597
 20
5975.3629352201669
 30
0.0
  0
VERTEX
  5
6CC3
  8
1
 10
736.26636565073079
 20
5975.3629352201669
 30
0.0
  0
SEQEND
  5
6CC4
  8
1
  0
LINE
  5
53FF
  8
1
 10
917.76636565072965
 20
5967.3629352201669
 30
0.0
 11
668.76636565072965
 21
5967.3629352201669
 31
0.0
  0
POLYLINE
  5
5400
  8
1
 66
     1
 10
0.0
 20
0.0
 30
0.0
  0
VERTEX
  5
6CC5
  8
1
 10
897.43606287090597
 20
5733.3629352201669
 30
0.0
  0
VERTEX
  5
6CC6
  8
1
 10
736.26636565073079
 20
5733.3629352201669
 30
0.0
  0
SEQEND
  5
6CC7
  8
1
  0
POLYLINE
  5
5401
  8
1
 66
     1
 10
0.0
 20
0.0
 30
0.0
  0
VERTEX
  5
6CC8
  8
1
 10
707.76636565072965
 20
5722.8669718708843
 30
0.0
  0
VERTEX
  5
6CC9
  8
1
 10
903.16636565072747
 20
5722.8669718708843
 30
0.0
  0
SEQEND
  5
6CCA
  8
1
  0
LINE
  5
5402
  8
1
 10
917.76636565073022
 20
5741.3629352201706
 30
0.0
 11
668.76636565073113
 21
5741.362935220166
 31
0.0
  0
LINE
  5
5403
  8
2
 10
592.40323680482152
 20
5854.3629352201669
 30
0.0
 11
1215.3879139172129
 21
5854.3629352201669
 31
0.0
1001
ACAD
1000
ASC_BOUNDS
1002
{
1070
    19
1005
0
1005
0
1002
}
  0
LINE
  5
5404
  8
1
 10
835.76636565072795
 20
5712.0906146535881
 30
0.0
 11
999.76636565072795
 21
5712.0906146535881
 31
0.0
  0
LINE
  5
5405
  8
1
 10
653.76636565072965
 20
5952.3629352201669
 30
0.0
 11
653.76636565073056
 21
5756.3629352201669
 31
0.0
  0
ARC
  5
5406
  8
1
 10
668.76636565073056
 20
5756.3629352201669
 30
0.0
 40
15.0
 50
180.0
 51
270.0
  0
ARC
  5
5407
  8
1
 10
835.76626565072775
 20
5709.0906146535881
 30
0.0
 40
2.9998999999999989
 50
89.998799999999648
 51
180.00120000001661
  0
ARC
  5
5408
  8
1
 10
738.11178546273914
 20
5774.9367883720652
 30
0.0
 40
48.656384192584412
 50
303.5000336652368
 51
316.36834872314029
  0
LINE
  5
5409
  8
1
 10
735.26636565073056
 20
5740.3629352201669
 30
0.0
 11
735.26636565073056
 21
5734.3629352201669
 31
0.0
  0
LINE
  5
540A
  8
1
 10
736.26636565072874
 20
5741.362935220166
 30
0.0
 11
736.26636565073056
 21
5735.3629352201669
 31
0.0
  0
ARC
  5
540B
  8
1
 10
736.26636565073056
 20
5734.3629352201669
 30
0.0
 40
1.0
 50
180.0
 51
270.0
  0
ARC
  5
540C
  8
1
 10
737.26636565073056
 20
5735.3629352201669
 30
0.0
 40
1.0
 50
180.0
 51
270.0
  0
ARC
  5
540D
  8
1
 10
734.26636565073068
 20
5740.3629352201669
 30
0.0
 40
1.0
 50
0.0
 51
90.0
  0
LINE
  5
540E
  8
1
 10
737.26636565073056
 20
5734.3629352201669
 30
0.0
 11
764.96706731016309
 21
5734.3629352201669
 31
0.0
  0
LINE
  5
5410
  8
1
 10
707.76636565072965
 20
5732.362935220177
 30
0.0
 11
667.76636565073022
 21
5732.362935220177
 31
0.0
  0
ARC
  5
5411
  8
1
 10
668.76636565072965
 20
5952.3629352201669
 30
0.0
 40
15.0
 50
90.0
 51
180.0
  0
ARC
  5
5412
  8
1
 10
738.11178546273914
 20
5933.7890820682687
 30
0.0
 40
48.656384192584412
 50
43.631651276859671
 51
56.499966334763101
  0
ARC
  5
5413
  8
1
 10
737.26636565073056
 20
5973.362935220166
 30
0.0
 40
1.0
 50
90.0
 51
180.0
  0
ARC
  5
5414
  8
1
 10
736.26636565073056
 20
5974.3629352201669
 30
0.0
 40
1.0
 50
90.0
 51
180.0
  0
LINE
  5
5415
  8
1
 10
736.26636565072874
 20
5967.3629352201706
 30
0.0
 11
736.26636565073056
 21
5973.3629352201706
 31
0.0
  0
LINE
  5
5416
  8
1
 10
735.26636565073056
 20
5968.3629352201669
 30
0.0
 11
735.26636565073056
 21
5974.3629352201697
 31
0.0
  0
ARC
  5
5417
  8
1
 10
734.26636565073068
 20
5968.3629352201669
 30
0.0
 40
1.0
 50
270.0
 51
0.0
  0
LINE
  5
5418
  8
1
 10
737.26636565073056
 20
5974.3629352201697
 30
0.0
 11
764.96706731016309
 21
5974.3629352201669
 31
0.0
  0
LINE
  5
5419
  8
1
 10
1147.766365650733
 20
5948.5629352201668
 30
0.0
 11
1147.766365650733
 21
5760.1629352201689
 31
0.0
  0
POLYLINE
  5
541A
  8
1
 66
     1
 10
0.0
 20
0.0
 30
0.0
  0
VERTEX
  5
6CCB
  8
1
 10
932.36626565072811
 20
5722.8669718708843
 30
0.0
  0
VERTEX
  5
6CCC
  8
1
 10
1127.7663656507279
 20
5722.8669718708843
 30
0.0
  0
SEQEND
  5
6CCD
  8
1
  0
POLYLINE
  5
541B
  8
1
 66
     1
 10
0.0
 20
0.0
 30
0.0
  0
VERTEX
  5
6CCE
  8
1
 10
1099.26636565073
 20
5733.3629352201669
 30
0.0
  0
VERTEX
  5
6CCF
  8
1
 10
917.76636565072965
 20
5733.3629352201669
 30
0.0
  0
VERTEX
  5
6CD0
  8
1
 10
897.43606287090597
 20
5733.3629352201669
 30
0.0
  0
SEQEND
  5
6CD1
  8
1
  0
LINE
  5
541C
  8
1
 10
1167.766365650732
 20
5741.362935220166
 30
0.0
 11
917.76636565073022
 21
5741.362935220166
 31
0.0
  0
ARC
  5
541D
  8
1
 10
999.76646565072804
 20
5709.0906146535881
 30
0.0
 40
2.9998999999999989
 50
359.99879999998331
 51
90.001200000000338
  0
LINE
  5
541E
  8
1
 10
932.36626565072811
 20
5718.0906146535881
 30
0.0
 11
932.36626565072811
 21
5741.362935220166
 31
0.0
  0
LINE
  5
541F
  8
1
 10
957.76636565072795
 20
5712.0906146535881
 30
0.0
 11
957.76636565072795
 21
5715.0906146535881
 31
0.0
  0
ARC
  5
5420
  8
1
 10
954.76636565072795
 20
5715.0906146535881
 30
0.0
 40
2.9998999999999989
 50
359.99879999998331
 51
90.001200000000338
  0
LINE
  5
5421
  8
1
 10
903.16636565072747
 20
5718.0906146535881
 30
0.0
 11
903.16636565072747
 21
5741.3629352201706
 31
0.0
  0
LINE
  5
5422
  8
1
 10
877.76636565072795
 20
5712.0906146535881
 30
0.0
 11
877.76636565072795
 21
5715.0906146535881
 31
0.0
  0
ARC
  5
5423
  8
1
 10
880.76626565072775
 20
5715.0906146535881
 30
0.0
 40
2.9998999999999989
 50
89.998799999999648
 51
180.00120000001661
  0
LINE
  5
5424
  8
1
 10
954.76636565072795
 20
5718.0906146535881
 30
0.0
 11
880.76636565072795
 21
5718.0906146535881
 31
0.0
  0
LINE
  5
5425
  8
1
 10
1167.766365650732
 20
5721.3629352201669
 30
0.0
 11
1166.5663656507329
 21
5721.3629352201669
 31
0.0
1001
ACAD
1000
ASC_BOUNDS
1002
{
1070
    19
1002
}
  0
LINE
  5
5427
  8
FUTO
 10
1127.7663656507279
 20
5732.3629352201669
 30
0.0
 11
1167.766365650732
 21
5732.3629352201669
 31
0.0
  0
LINE
  5
5428
  8
1
 10
1166.5663656507329
 20
5741.362935220166
 30
0.0
 11
1147.766365650732
 21
5760.1629352201689
 31
0.0
  0
LINE
  5
5429
  8
1
 10
1099.26636565073
 20
5741.362935220166
 30
0.0
 11
1099.26636565073
 21
5735.3629352201669
 31
0.0
  0
LINE
  5
542A
  8
1
 10
1100.2663656507279
 20
5740.3629352201669
 30
0.0
 11
1100.2663656507291
 21
5734.3629352201669
 31
0.0
  0
ARC
  5
542B
  8
1
 10
1099.26636565073
 20
5734.3629352201669
 30
0.0
 40
1.0
 50
270.0
 51
0.0
  0
ARC
  5
542C
  8
1
 10
1098.2663656507291
 20
5735.3629352201669
 30
0.0
 40
1.0
 50
270.0
 51
0.0
  0
ARC
  5
542D
  8
1
 10
1099.2663656507309
 20
5734.3629352201669
 30
0.0
 40
1.0
 50
270.0
 51
0.0
  0
ARC
  5
542E
  8
1
 10
1101.2663656507279
 20
5740.3629352201669
 30
0.0
 40
1.0
 50
90.0
 51
180.0
  0
ARC
  5
542F
  8
1
 10
1097.4209458387199
 20
5774.9367883720652
 30
0.0
 40
48.656384192584412
 50
223.6316512768596
 51
236.499966334763
  0
LINE
  5
5430
  8
1
 10
1098.2663656507291
 20
5734.3629352201669
 30
0.0
 11
1070.565663991295
 21
5734.3629352201669
 31
0.0
  0
LINE
  5
5431
  8
1
 10
1167.766365650732
 20
5967.3629352201669
 30
0.0
 11
917.76636565072965
 21
5967.3629352201669
 31
0.0
  0
POLYLINE
  5
5432
  8
1
 66
     1
 10
0.0
 20
0.0
 30
0.0
  0
VERTEX
  5
6CD2
  8
1
 10
1099.26636565073
 20
5975.3629352201669
 30
0.0
  0
VERTEX
  5
6CD3
  8
1
 10
917.76636565072965
 20
5975.3629352201669
 30
0.0
  0
VERTEX
  5
6CD4
  8
1
 10
897.43606287090597
 20
5975.3629352201669
 30
0.0
  0
SEQEND
  5
6CD5
  8
1
  0
LINE
  5
5433
  8
1
 10
1166.5663656507329
 20
5967.3629352201669
 30
0.0
 11
1147.766365650733
 21
5948.5629352201668
 31
0.0
  0
ARC
  5
5434
  8
1
 10
1101.2663656507279
 20
5968.3629352201669
 30
0.0
 40
1.0
 50
180.0
 51
270.0
  0
LINE
  5
5435
  8
1
 10
1100.2663656507279
 20
5968.3629352201669
 30
0.0
 11
1100.2663656507291
 21
5974.3629352201669
 31
0.0
  0
LINE
  5
5436
  8
1
 10
1099.26636565073
 20
5967.3629352201669
 30
0.0
 11
1099.26636565073
 21
5973.362935220166
 31
0.0
  0
ARC
  5
5437
  8
1
 10
1099.2663656507309
 20
5974.3629352201669
 30
0.0
 40
1.0
 50
0.0
 51
90.0
  0
ARC
  5
5438
  8
1
 10
1098.2663656507291
 20
5973.362935220166
 30
0.0
 40
1.0
 50
0.0
 51
90.0
  0
ARC
  5
5439
  8
1
 10
1099.26636565073
 20
5974.3629352201669
 30
0.0
 40
1.0
 50
0.0
 51
90.0
  0
ARC
  5
543A
  8
1
 10
1097.4209458387199
 20
5933.7890820682687
 30
0.0
 40
48.656384192584412
 50
123.5000336652369
 51
136.36834872314029
  0
LINE
  5
543B
  8
1
 10
1098.2663656507291
 20
5974.3629352201669
 30
0.0
 11
1070.565663991295
 21
5974.3629352201669
 31
0.0
  0
LINE
  5
543C
  8
1
 10
1167.766365650732
 20
5987.3629352201669
 30
0.0
 11
1166.5663656507329
 21
5987.3629352201669
 31
0.0
1001
ACAD
1000
ASC_BOUNDS
1002
{
1070
    19
1002
}
  0
TEXT
  5
6143
  8
4
 10
1073.8365203697831
 20
6397.9530537408073
 30
0.0
 40
80.999999999999986
  1
天井吊ベッド型
  0
LINE
  5
6155
  8
1
 10
2178.2218757226078
 20
4481.5079340757611
 30
0.0
 11
2178.221875722606
 21
4295.3480743926084
 31
0.0
  0
LINE
  5
6156
  8
1
 10
2406.2218757226042
 20
4481.1352945092322
 30
0.0
 11
2406.221875722606
 21
4295.3480743926084
 31
0.0
  0
LINE
  5
6157
  8
FUTO
 10
2194.221875722606
 20
4279.3480743926066
 30
0.0
 11
2390.221875722606
 21
4279.3480743926066
 31
0.0
  0
ARC
  5
6158
  8
FUTO
 10
2390.2218757226069
 20
4295.3480743926093
 30
0.0
 40
16.0
 50
269.99999999999829
 51
0.0
  0
ARC
  5
6159
  8
FUTO
 10
2194.221875722606
 20
4295.3480743926093
 30
0.0
 40
16.0
 50
180.0
 51
269.99999999999829
  0
POLYLINE
  5
6167
  8
1
 66
     1
 10
0.0
 20
0.0
 30
0.0
  0
VERTEX
  5
6CD6
  8
1
 10
2413.221875722606
 20
4684.1352945090848
 30
0.0
  0
VERTEX
  5
6CD7
  8
1
 10
2413.2218757226078
 20
4502.6352945090848
 30
0.0
  0
VERTEX
  5
6CD8
  8
1
 10
2413.2218757226078
 20
4321.1352945090857
 30
0.0
  0
SEQEND
  5
6CD9
  8
1
  0
LINE
  5
6168
  8
1
 10
2406.221875722606
 20
4320.1352945090857
 30
0.0
 11
2412.2218757226078
 21
4320.1352945090857
 31
0.0
  0
ARC
  5
6169
  8
1
 10
2406.221875722606
 20
4319.1352945090848
 30
0.0
 40
1.0
 50
90.0
 51
180.0
  0
ARC
  5
616A
  8
1
 10
2412.221875722606
 20
4321.1352945090857
 30
0.0
 40
1.0
 50
270.0
 51
0.0
  0
LINE
  5
616B
  8
FUTO
 10
2413.2218757226078
 20
4345.135294509083
 30
0.0
 11
2405.2218757226019
 21
4345.135294509083
 31
0.0
  0
LINE
  5
616C
  8
FUTO
 10
2413.221875722606
 20
4660.135294509083
 30
0.0
 11
2405.2218757226019
 21
4660.135294509083
 31
0.0
  0
LINE
  5
616D
  8
1
 10
2406.221875722606
 20
4685.1352945090848
 30
0.0
 11
2412.221875722606
 21
4685.1352945090848
 31
0.0
  0
ARC
  5
616E
  8
1
 10
2406.221875722606
 20
4686.1352945090839
 30
0.0
 40
1.0
 50
180.0
 51
270.0
  0
ARC
  5
616F
  8
1
 10
2412.221875722606
 20
4684.1352945090839
 30
0.0
 40
1.0
 50
0.0
 51
90.0
  0
LINE
  5
6216
  8
FUTO
 10
607.76636565073341
 20
4107.6352945090812
 30
0.0
 11
607.76636565073341
 21
4147.6352945090812
 31
0.0
  0
LINE
  5
6217
  8
FUTO
 10
1227.766365650733
 20
4107.6352945090812
 30
0.0
 11
1227.766365650733
 21
4147.6352945090812
 31
0.0
  0
LINE
  5
6218
  8
FUTO
 10
607.76636565073341
 20
4107.6352945090812
 30
0.0
 11
1227.766365650733
 21
4107.6352945090812
 31
0.0
  0
LINE
  5
6246
  8
FUTO
 10
607.76636565073341
 20
4144.6352945090821
 30
0.0
 11
1227.766365650733
 21
4144.6352945090821
 31
0.0
  0
DIMENSION
  5
624A
  8
SP
  2
*D13
 10
607.76636565073341
 20
3897.6352945090812
 30
0.0
 11
917.76636565073341
 21
3935.1352945090798
 31
0.0
 70
     0
 13
1227.766365650733
 23
4107.6352945090812
 33
0.0
 14
607.76636565073341
 24
4107.6352945090812
 34
0.0
  0
DIMENSION
  5
6257
  8
SP
  2
*D14
 10
607.76636565073341
 20
4002.6352945090812
 30
0.0
 11
762.76636565073329
 21
4040.1352945090812
 31
0.0
 70
     0
 13
917.76636565073341
 23
4062.9208645024009
 33
0.0
 14
607.76636565073341
 24
4107.6352945090812
 34
0.0
  0
DIMENSION
  5
6264
  8
SP
  2
*D15
 10
1227.766365650733
 20
4002.6352945090812
 30
0.0
 11
1072.766365650733
 21
4040.1352945090812
 31
0.0
 70
     0
 13
917.76636565073341
 23
4062.9208645024009
 33
0.0
 14
1227.766365650733
 24
4107.6352945090812
 34
0.0
  0
INSERT
  5
627E
  8
FUTO
  2
L-40-3
 10
2472.221875722606
 20
4147.6352945090812
 30
0.0
 50
270.0
  0
INSERT
  5
6281
  8
FUTO
  2
L-40-3
 10
1852.221875722606
 20
4147.6352945090812
 30
0.0
 41
-1.0
 50
90.0
  0
LINE
  5
6282
  8
FUTO
 10
1852.221875722606
 20
4147.6352945090812
 30
0.0
 11
2472.221875722606
 21
4147.6352945090812
 31
0.0
  0
LINE
  5
6283
  8
FUTO
 10
1853.221875722606
 20
4107.6352945090812
 30
0.0
 11
2473.221875722606
 21
4107.6352945090812
 31
0.0
  0
LINE
  5
6284
  8
SL
 10
1830.221875722606
 20
4135.5668186442663
 30
0.0
 11
1830.221875722606
 21
4782.3237206356825
 31
0.0
  0
LINE
  5
6285
  8
SL
 10
2494.221875722606
 20
4135.5668186442663
 30
0.0
 11
2494.221875722606
 21
4782.3237206356825
 31
0.0
  0
DIMENSION
  5
6290
  8
SP
  2
*D17
 10
2292.221875722606
 20
4002.6352945090812
 30
0.0
 11
2052.221875722606
 21
4040.1352945090812
 31
0.0
 70
     0
 13
1812.221875722606
 23
4147.6352945090812
 33
0.0
 14
2292.221875722606
 24
4062.9208645024009
 34
0.0
  0
DIMENSION
  5
62A6
  8
SP
  2
*D18
 10
2512.221875722606
 20
4002.6352945090812
 30
0.0
 11
2402.221875722606
 21
4040.1352945090812
 31
0.0
 70
     0
 13
2292.221875722606
 23
4062.9208645024009
 33
0.0
 14
2512.221875722606
 24
4147.6352945090812
 34
0.0
  0
DIMENSION
  5
62B3
  8
SP
  2
*D19
 10
2512.221875722606
 20
3897.6352945090812
 30
0.0
 11
2162.221875722606
 21
3935.1352945090798
 31
0.0
 70
     0
 13
1812.221875722606
 23
4147.6352945090812
 33
0.0
 14
2512.221875722606
 24
4147.6352945090812
 34
0.0
  0
LINE
  5
62C0
  8
FUTO
 10
607.76636565073329
 20
6034.3629352201669
 30
0.0
 11
607.76636565073341
 21
6074.3629352201669
 31
0.0
  0
LINE
  5
62C1
  8
FUTO
 10
1227.766365650733
 20
6034.3629352201669
 30
0.0
 11
1227.766365650733
 21
6074.3629352201679
 31
0.0
  0
LINE
  5
62C2
  8
FUTO
 10
607.76636565073341
 20
6074.3629352201669
 30
0.0
 11
1227.766365650733
 21
6074.3629352201679
 31
0.0
1001
ACAD
1000
ASC_BOUNDS
1002
{
1070
    19
1005
0
1005
0
1002
}
  0
LINE
  5
62C3
  8
FUTO
 10
607.76636565073318
 20
5374.3629352201651
 30
0.0
 11
1227.766365650733
 21
5374.3629352201669
 31
0.0
1001
ACAD
1000
ASC_BOUNDS
1002
{
1070
    19
1005
0
1005
0
1002
}
  0
LINE
  5
6473
  8
FUTO
 10
607.76636565073329
 20
6034.3629352201669
 30
0.0
 11
1227.766365650733
 21
6034.3629352201669
 31
0.0
1001
ACAD
1000
ASC_BOUNDS
1002
{
1070
    19
1005
0
1005
0
1002
}
  0
LINE
  5
6474
  8
FUTO
 10
607.76636565073341
 20
5414.3629352201669
 30
0.0
 11
1227.766365650733
 21
5414.3629352201669
 31
0.0
1001
ACAD
1000
ASC_BOUNDS
1002
{
1070
    19
1005
0
1005
0
1002
}
  0
LINE
  5
6475
  8
FUTO
 10
607.76636565073318
 20
5374.3629352201651
 30
0.0
 11
607.76636565073341
 21
5414.3629352201669
 31
0.0
  0
LINE
  5
6476
  8
FUTO
 10
1227.766365650733
 20
5374.3629352201669
 30
0.0
 11
1227.766365650733
 21
5414.3629352201669
 31
0.0
  0
CIRCLE
  5
647A
  8
FUTO
 10
637.76636565073329
 20
5392.362935220166
 30
0.0
 40
6.5
  0
CIRCLE
  5
647B
  8
FUTO
 10
1197.766365650733
 20
5392.362935220166
 30
0.0
 40
6.5
  0
LINE
  5
647C
  8
CT
 10
1182.074077454093
 20
5392.362935220166
 30
0.0
 11
1212.7663656507341
 21
5392.362935220166
 31
0.0
  0
LINE
  5
647D
  8
CT
 10
1197.766365650733
 20
5408.4976431027153
 30
0.0
 11
1197.766365650733
 21
5372.8305635982742
 31
0.0
  0
CIRCLE
  5
647E
  8
FUTO
 10
637.76636565073329
 20
6056.362935220166
 30
0.0
 40
6.5
  0
LINE
  5
647F
  8
CT
 10
622.07407745409307
 20
6056.362935220166
 30
0.0
 11
652.7663656507342
 21
6056.362935220166
 31
0.0
  0
LINE
  5
6480
  8
CT
 10
637.76636565073329
 20
6040.2282273376168
 30
0.0
 11
637.76636565073329
 21
6075.8953068420578
 31
0.0
  0
LINE
  5
6481
  8
CT
 10
1197.766365650733
 20
6040.2282273376168
 30
0.0
 11
1197.766365650733
 21
6075.8953068420578
 31
0.0
  0
LINE
  5
6482
  8
CT
 10
1182.074077454093
 20
6056.362935220166
 30
0.0
 11
1212.7663656507341
 21
6056.362935220166
 31
0.0
  0
CIRCLE
  5
6483
  8
FUTO
 10
1197.766365650733
 20
6056.362935220166
 30
0.0
 40
6.5
  0
DIMENSION
  5
6484
  8
SP
  2
*D20
 10
607.76636565073318
 20
5235.4232802762599
 30
0.0
 11
917.76636565073318
 21
5272.9232802762599
 31
0.0
 70
     0
 13
1227.766365650733
 23
5374.3629352201669
 33
0.0
 14
607.76636565073318
 24
5374.3629352201651
 34
0.0
  0
DIMENSION
  5
6491
  8
SP
  2
*D21
 10
1390.8778556796669
 20
5374.3629352201669
 30
0.0
 11
1353.3778556796669
 21
5724.3629352201679
 31
0.0
 70
     0
 13
1227.766365650733
 23
6074.3629352201679
 33
0.0
 14
1227.766365650733
 24
5374.3629352201669
 34
0.0
 50
90.0
  0
LINE
  5
6C3D
  8
1
 10
707.76636565073045
 20
5967.3629352201669
 30
0.0
 11
707.76636565073056
 21
6034.3629352201651
 31
0.0
  0
LINE
  5
6C3E
  8
1
 10
667.76636565073125
 20
5967.329564767263
 30
0.0
 11
667.76636565073147
 21
6034.3629352201651
 31
0.0
  0
LINE
  5
6C3F
  8
1
 10
1127.7663656507291
 20
5967.3629352201669
 30
0.0
 11
1127.7663656507291
 21
6034.3629352201651
 31
0.0
  0
ENDSEC
  0
EOF
