  0
SECTION
  2
HEADER
  9
$ACADVER
  1
AC1009
  9
$INSBASE
 10
0.0
 20
0.0
 30
0.0
  9
$EXTMIN
 10
10345.59771503509
 20
2822.8097917420341
 30
0.0
  9
$EXTMAX
 10
13495.59771503509
 20
7247.8097917420337
 30
0.0
  9
$LIMMIN
 10
0.0
 20
0.0
  9
$LIMMAX
 10
297.0
 20
210.0
  9
$ORTHOMODE
 70
     0
  9
$REGENMODE
 70
     1
  9
$FILLMODE
 70
     1
  9
$QTEXTMODE
 70
     0
  9
$MIRRTEXT
 70
     0
  9
$DRAGMODE
 70
     2
  9
$LTSCALE
 40
75.0
  9
$OSMODE
 70
   545
  9
$ATTMODE
 70
     1
  9
$TEXTSIZE
 40
3.5
  9
$TRACEWID
 40
0.05
  9
$TEXTSTYLE
  7
STANDARD
  9
$CLAYER
  8
SP
  9
$CELTYPE
  6
BYLAYER
  9
$CECOLOR
 62
   256
  9
$DIMSCALE
 40
15.0
  9
$DIMASZ
 40
2.5
  9
$DIMEXO
 40
1.0
  9
$DIMDLI
 40
7.0
  9
$DIMRND
 40
0.0
  9
$DIMDLE
 40
0.0
  9
$DIMEXE
 40
1.0
  9
$DIMTP
 40
0.0
  9
$DIMTM
 40
0.0
  9
$DIMTXT
 40
3.0
  9
$DIMCEN
 40
0.0
  9
$DIMTSZ
 40
0.0
  9
$DIMTOL
 70
     0
  9
$DIMLIM
 70
     0
  9
$DIMTIH
 70
     0
  9
$DIMTOH
 70
     0
  9
$DIMSE1
 70
     0
  9
$DIMSE2
 70
     0
  9
$DIMTAD
 70
     1
  9
$DIMZIN
 70
     8
  9
$DIMBLK
  1

  9
$DIMASO
 70
     1
  9
$DIMSHO
 70
     1
  9
$DIMPOST
  1

  9
$DIMAPOST
  1

  9
$DIMALT
 70
     0
  9
$DIMALTD
 70
     2
  9
$DIMALTF
 40
0.03937
  9
$DIMLFAC
 40
1.0
  9
$DIMTOFL
 70
     1
  9
$DIMTVP
 40
0.0
  9
$DIMTIX
 70
     0
  9
$DIMSOXD
 70
     0
  9
$DIMSAH
 70
     1
  9
$DIMBLK1
  1
OPEN
  9
$DIMBLK2
  1
OPEN
  9
$DIMSTYLE
  2
GOD
  9
$DIMCLRD
 70
   256
  9
$DIMCLRE
 70
   256
  9
$DIMCLRT
 70
   256
  9
$DIMTFAC
 40
1.0
  9
$DIMGAP
 40
1.0
  9
$LUNITS
 70
     2
  9
$LUPREC
 70
     3
  9
$SKETCHINC
 40
0.1
  9
$FILLETRAD
 40
0.0
  9
$AUNITS
 70
     0
  9
$AUPREC
 70
     2
  9
$MENU
  1
acad
  9
$ELEVATION
 40
0.0
  9
$PELEVATION
 40
0.0
  9
$THICKNESS
 40
0.0
  9
$LIMCHECK
 70
     0
  9
$BLIPMODE
 70
     0
  9
$CHAMFERA
 40
0.0
  9
$CHAMFERB
 40
0.0
  9
$SKPOLY
 70
     0
  9
$TDCREATE
 40
2454939.604632488
  9
$TDUPDATE
 40
2454953.8270240161
  9
$TDINDWG
 40
0.1743383102
  9
$TDUSRTIMER
 40
0.1743383102
  9
$USRTIMER
 70
     1
  9
$ANGBASE
 50
0.0
  9
$ANGDIR
 70
     0
  9
$PDMODE
 70
     0
  9
$PDSIZE
 40
1.0
  9
$PLINEWID
 40
0.0
  9
$COORDS
 70
     2
  9
$SPLFRAME
 70
     0
  9
$SPLINETYPE
 70
     6
  9
$SPLINESEGS
 70
     8
  9
$ATTDIA
 70
     0
  9
$ATTREQ
 70
     1
  9
$HANDLING
 70
 22529
  9
$HANDSEED
  5
6CE3
  9
$SURFTAB1
 70
     6
  9
$SURFTAB2
 70
     6
  9
$SURFTYPE
 70
     6
  9
$SURFU
 70
     6
  9
$SURFV
 70
     6
  9
$UCSNAME
  2

  9
$UCSORG
 10
0.0
 20
0.0
 30
0.0
  9
$UCSXDIR
 10
1.0
 20
0.0
 30
0.0
  9
$UCSYDIR
 10
0.0
 20
1.0
 30
0.0
  9
$PUCSNAME
  2

  9
$PUCSORG
 10
0.0
 20
0.0
 30
0.0
  9
$PUCSXDIR
 10
1.0
 20
0.0
 30
0.0
  9
$PUCSYDIR
 10
0.0
 20
1.0
 30
0.0
  9
$USERI1
 70
     0
  9
$USERI2
 70
     0
  9
$USERI3
 70
     0
  9
$USERI4
 70
     0
  9
$USERI5
 70
     0
  9
$USERR1
 40
0.0
  9
$USERR2
 40
0.0
  9
$USERR3
 40
0.0
  9
$USERR4
 40
0.0
  9
$USERR5
 40
0.0
  9
$WORLDVIEW
 70
     1
  9
$SHADEDGE
 70
     3
  9
$SHADEDIF
 70
    70
  9
$TILEMODE
 70
     1
  9
$MAXACTVP
 70
    16
  9
$PLIMCHECK
 70
     0
  9
$PEXTMIN
 10
1.0000000000000000E+020
 20
1.0000000000000000E+020
 30
1.0000000000000000E+020
  9
$PEXTMAX
 10
-1.0000000000000000E+020
 20
-1.0000000000000000E+020
 30
-1.0000000000000000E+020
  9
$PLIMMIN
 10
0.0
 20
0.0
  9
$PLIMMAX
 10
12.0
 20
9.0
  9
$UNITMODE
 70
     0
  9
$VISRETAIN
 70
     0
  9
$PLINEGEN
 70
     0
  9
$PSLTSCALE
 70
     0
  0
ENDSEC
  0
SECTION
  2
TABLES
  0
TABLE
  2
VPORT
 70
     2
  0
VPORT
  2
*ACTIVE
 70
     0
 10
0.0
 20
0.0
 11
1.0
 21
1.0
 12
12201.109088783251
 22
5035.4223933777566
 13
0.0
 23
0.0
 14
5.0
 24
5.0
 15
0.0
 25
0.0
 16
0.0
 26
0.0
 36
1.0
 17
0.0
 27
0.0
 37
0.0
 40
4462.0816725322402
 41
1.6307901907356941
 42
50.0
 43
0.0
 44
0.0
 50
0.0
 51
0.0
 71
     0
 72
   100
 73
     1
 74
     0
 75
     0
 76
     0
 77
     0
 78
     0
  0
ENDTAB
  0
TABLE
  2
LTYPE
 70
     4
  0
LTYPE
  2
CONTINUOUS
 70
     0
  3
Solid line
 72
    65
 73
     0
 40
0.0
  0
LTYPE
  2
CENTER
 70
     0
  3
____ _ ____ _ ____ _ ____ _ ____ _ ____ _ ____ 
 72
    65
 73
     4
 40
2.0
 49
1.25
 49
-0.25
 49
0.25
 49
-0.25
  0
LTYPE
  2
HIDDEN
 70
     0
  3
__ __ __ __ __ __ __ __ __ __ __ __ __ __ __ __
 72
    65
 73
     2
 40
0.375
 49
0.25
 49
-0.125
  0
LTYPE
  2
PHANTOM
 70
     0
  3
______  __  __  ______  __  __  ______  __  __ 
 72
    65
 73
     6
 40
2.5
 49
1.25
 49
-0.25
 49
0.25
 49
-0.25
 49
0.25
 49
-0.25
  0
ENDTAB
  0
TABLE
  2
LAYER
 70
    13
  0
LAYER
  2
0
 70
     0
 62
     7
  6
CONTINUOUS
  0
LAYER
  2
CT
 70
     0
 62
     3
  6
CENTER
  0
LAYER
  2
FUTO
 70
     0
 62
     4
  6
CONTINUOUS
  0
LAYER
  2
HOSO
 70
     0
 62
     7
  6
CONTINUOUS
  0
LAYER
  2
KL
 70
     0
 62
     7
  6
HIDDEN
  0
LAYER
  2
MOJI
 70
     0
 62
     3
  6
CONTINUOUS
  0
LAYER
  2
SL
 70
     0
 62
     1
  6
PHANTOM
  0
LAYER
  2
SP
 70
     0
 62
     2
  6
CONTINUOUS
  0
LAYER
  2
DEFPOINTS
 70
     0
 62
     7
  6
CONTINUOUS
  0
LAYER
  2
3
 70
     0
 62
    -2
  6
CONTINUOUS
  0
LAYER
  2
2
 70
     0
 62
     3
  6
CENTER
  0
LAYER
  2
1
 70
     0
 62
     4
  6
CONTINUOUS
  0
LAYER
  2
4
 70
     0
 62
     7
  6
CONTINUOUS
  0
ENDTAB
  0
TABLE
  2
STYLE
 70
     1
  0
STYLE
  2
STANDARD
 70
     0
 40
0.0
 41
1.0
 50
15.0
 71
     0
 42
3.5
  3
C:\Program Files\AutoCAD LT\simplex.shx
  4
C:\Program Files\AutoCAD LT\extfont.shx
  0
ENDTAB
  0
TABLE
  2
VIEW
 70
     0
  0
ENDTAB
  0
TABLE
  2
UCS
 70
     0
  0
ENDTAB
  0
TABLE
  2
APPID
 70
     1
  0
APPID
  2
ACAD
 70
     0
  0
ENDTAB
  0
TABLE
  2
DIMSTYLE
 70
     4
  0
DIMSTYLE
  2
STANDARD
 70
     0
  3

  4

  5

  6

  7

 40
1.0
 41
0.18
 42
0.0625
 43
0.38
 44
0.18
 45
0.0
 46
0.0
 47
0.0
 48
0.0
140
0.18
141
0.09
142
0.0
143
25.399999999999999
144
1.0
145
0.0
146
1.0
147
0.09
 71
     0
 72
     0
 73
     1
 74
     1
 75
     0
 76
     0
 77
     0
 78
     0
170
     0
171
     2
172
     0
173
     0
174
     0
175
     0
176
     0
177
     0
178
     0
  0
DIMSTYLE
  2
GOD
 70
     0
  3

  4

  5

  6
OPEN
  7
OPEN
 40
15.0
 41
2.5
 42
1.0
 43
7.0
 44
1.0
 45
0.0
 46
0.0
 47
0.0
 48
0.0
140
3.0
141
0.0
142
0.0
143
0.03937
144
1.0
145
0.0
146
1.0
147
1.0
 71
     0
 72
     0
 73
     0
 74
     0
 75
     0
 76
     0
 77
     1
 78
     8
170
     0
171
     2
172
     1
173
     1
174
     0
175
     0
176
   256
177
   256
178
   256
  0
DIMSTYLE
  2
IGA
 70
     0
  3

  4

  5

  6
OPEN
  7
OPEN
 40
2.0
 41
2.0
 42
0.5
 43
10.0
 44
1.0
 45
0.0
 46
0.0
 47
1.0
 48
1.0
140
3.0
141
0.0
142
0.0
143
0.03937
144
1.0
145
0.0
146
10.0
147
1.0
 71
     0
 72
     0
 73
     0
 74
     0
 75
     0
 76
     0
 77
     1
 78
     8
170
     0
171
     2
172
     0
173
     1
174
     0
175
     0
176
     0
177
     0
178
     0
  0
DIMSTYLE
  2
DIA1
 70
     0
  3

  4

  5

  6

  7

 40
1.0
 41
2.0
 42
1.0
 43
10.0
 44
1.0
 45
0.0
 46
0.0
 47
0.0
 48
0.0
140
2.5
141
0.0
142
0.0
143
25.399999999999999
144
1.0
145
0.0
146
1.0
147
0.09
 71
     0
 72
     0
 73
     0
 74
     0
 75
     0
 76
     0
 77
     1
 78
     8
170
     0
171
     2
172
     1
173
     0
174
     0
175
     0
176
     2
177
     2
178
     2
  0
ENDTAB
  0
ENDSEC
  0
SECTION
  2
BLOCKS
  0
BLOCK
  8
0
  2
$MODEL_SPACE
 70
     0
 10
0.0
 20
0.0
 30
0.0
  3
$MODEL_SPACE
  1

  0
ENDBLK
  5
1B
  8
0
  0
BLOCK
 67
     1
  8
0
  2
$PAPER_SPACE
 70
     0
 10
0.0
 20
0.0
 30
0.0
  3
$PAPER_SPACE
  1

  0
ENDBLK
  5
18
 67
     1
  8
0
  0
BLOCK
  8
0
  2
_OPEN
 70
     0
 10
0.0
 20
0.0
 30
0.0
  3
_OPEN
  1

  0
LINE
  5
1E81
  8
0
  6
BYBLOCK
 62
     0
 10
-1.0
 20
0.1666666666666666
 30
0.0
 11
0.0
 21
0.0
 31
0.0
  0
LINE
  5
1E82
  8
0
  6
BYBLOCK
 62
     0
 10
0.0
 20
0.0
 30
0.0
 11
-1.0
 21
-0.1666666666666666
 31
0.0
  0
LINE
  5
1E83
  8
0
  6
BYBLOCK
 62
     0
 10
0.0
 20
0.0
 30
0.0
 11
-1.0
 21
0.0
 31
0.0
  0
ENDBLK
  5
1E84
  8
0
  0
BLOCK
  8
0
  2
_DOT
 70
     0
 10
0.0
 20
0.0
 30
0.0
  3
_DOT
  1

  0
LINE
  5
1EC3
  8
0
  6
BYBLOCK
 62
     0
 10
0.0
 20
0.0
 30
0.0
 11
-1.0
 21
-0.0000000000000284
 31
0.0
  0
POLYLINE
  5
1EC4
  8
0
  6
BYBLOCK
 62
     0
 66
     1
 10
0.0
 20
0.0
 30
0.0
 70
     1
 40
0.1666666666666666
 41
0.1666666666666666
  0
VERTEX
  5
6C7C
  8
0
  6
BYBLOCK
 62
     0
 10
-0.0833333333333286
 20
-0.0000000000000284
 30
0.0
 42
1.0
  0
VERTEX
  5
6C7D
  8
0
  6
BYBLOCK
 62
     0
 10
0.0833333333333286
 20
-0.0000000000000284
 30
0.0
 42
1.0
  0
SEQEND
  5
6C7E
  8
0
  6
BYBLOCK
 62
     0
  0
ENDBLK
  5
1EB8
  8
0
  0
BLOCK
  8
0
  2
A$C5EBD6DA5
 70
     0
 10
0.0
 20
0.0
 30
0.0
  3
A$C5EBD6DA5
  1

  0
POLYLINE
  5
22E6
  8
1
 66
     1
 10
0.0
 20
0.0
 30
0.0
  0
VERTEX
  5
6C7F
  8
1
 10
8.0000000000027285
 20
-181.50000000000091
 30
0.0
  0
VERTEX
  5
6C80
  8
1
 10
8.0000000000009095
 20
181.50000000000091
 30
0.0
  0
SEQEND
  5
6C81
  8
1
  0
LINE
  5
22E7
  8
1
 10
1.0000000000009091
 20
182.50000000000091
 30
0.0
 11
7.0000000000027276
 21
182.50000000000091
 31
0.0
  0
ARC
  5
22E8
  8
1
 10
1.0000000000009091
 20
183.50000000000091
 30
0.0
 40
1.0
 50
180.0
 51
270.0
  0
LINE
  5
22E9
  8
1
 10
1.0000000000009091
 20
-182.50000000000091
 30
0.0
 11
7.0000000000027276
 21
-182.50000000000091
 31
0.0
  0
ARC
  5
22EA
  8
1
 10
1.0000000000009091
 20
-183.50000000000091
 30
0.0
 40
1.0
 50
90.0
 51
180.0
  0
ARC
  5
22EB
  8
1
 10
7.0000000000009086
 20
-181.50000000000091
 30
0.0
 40
1.0
 50
270.0
 51
0.0
  0
ARC
  5
22EC
  8
1
 10
7.0000000000009086
 20
181.50000000000091
 30
0.0
 40
1.0
 50
0.0
 51
90.0
  0
ENDBLK
  5
22EE
  8
0
  0
BLOCK
  8
0
  2
A$C2860434C
 70
     0
 10
0.0
 20
0.0
 30
0.0
  3
A$C2860434C
  1

  0
LINE
  5
3F68
  8
FUTO
 10
46.801270116426167
 20
-0.0000088960860012
 30
0.0
 11
8.5860233121038618
 21
70.149984541374579
 31
0.0
  0
LINE
  5
3F69
  8
FUTO
 10
-0.0000161416137416
 20
53.349984541375299
 30
0.0
 11
1.5999838583866219
 21
53.349984541375299
 31
0.0
  0
LINE
  5
3F6A
  8
FUTO
 10
-0.0000161416137416
 20
53.349984541375299
 30
0.0
 11
-0.0000161416137416
 21
68.549984541374215
 31
0.0
  0
LINE
  5
3F6B
  8
FUTO
 10
1.5999838583866219
 20
53.349984541375299
 30
0.0
 11
1.5999838583866219
 21
68.549984541374215
 31
0.0
  0
LINE
  5
3F6C
  8
FUTO
 10
3.1999838583869851
 20
70.149984541374579
 30
0.0
 11
91.769214627616734
 21
70.149984541370941
 31
0.0
  0
LINE
  5
3F6D
  8
FUTO
 10
3.1999838583869851
 20
71.749984541373124
 30
0.0
 11
92.794855653257414
 21
71.749984541373124
 31
0.0
  0
ARC
  5
3F6E
  8
FUTO
 10
3.1999838583869851
 20
68.549984541374215
 30
0.0
 40
3.2000000000000002
 50
90.0
 51
180.0
  0
ARC
  5
3F6F
  8
FUTO
 10
3.1999838583869851
 20
68.549984541374215
 30
0.0
 40
1.6000000000000001
 50
90.0
 51
180.0
  0
ENDBLK
  5
3F71
  8
0
  0
BLOCK
  8
0
  2
*D4
 70
     1
 10
0.0
 20
0.0
 30
0.0
  3
*D4
  1

  0
LINE
  5
4389
  8
SP
 10
11070.75356201801
 20
4502.6352945090794
 30
0.0
 11
11005.05558752166
 21
4502.6352945090794
 31
0.0
  0
LINE
  5
438A
  8
SP
 10
11110.05558752166
 20
4817.6352945090748
 30
0.0
 11
11005.05558752166
 21
4817.6352945090748
 31
0.0
  0
LINE
  5
438B
  8
SP
 10
11020.05558752166
 20
4540.1352945090794
 30
0.0
 11
11020.05558752166
 21
4780.1352945090748
 31
0.0
  0
INSERT
  5
438C
  8
SP
  2
_OPEN
 10
11020.05558752166
 20
4502.6352945090794
 30
0.0
 41
37.5
 42
37.5
 43
37.5
 50
270.0
  0
INSERT
  5
438D
  8
SP
  2
_OPEN
 10
11020.05558752166
 20
4817.6352945090748
 30
0.0
 41
37.5
 42
37.5
 43
37.5
 50
90.0
  0
TEXT
  5
438E
  8
SP
 10
11005.05558752166
 20
4601.529512568959
 30
0.0
 40
45.0
  1
315
 50
90.0
 51
15.0
  0
POINT
  5
438F
  8
DEFPOINTS
 62
     0
 10
11085.75356201801
 20
4502.6352945090794
 30
0.0
  0
POINT
  5
4390
  8
DEFPOINTS
 62
     0
 10
11125.05558752166
 20
4817.6352945090748
 30
0.0
  0
POINT
  5
4391
  8
DEFPOINTS
 62
     0
 10
11020.05558752166
 20
4817.6352945090748
 30
0.0
  0
ENDBLK
  5
430A
  8
0
  0
BLOCK
  8
0
  2
*D5
 70
     1
 10
0.0
 20
0.0
 30
0.0
  3
*D5
  1

  0
LINE
  5
6C5D
  8
SP
 10
11050.05558752168
 20
4107.6352945090794
 30
0.0
 11
11005.055587521671
 21
4107.6352945090794
 31
0.0
  0
LINE
  5
6C5E
  8
SP
 10
11070.75356201801
 20
4502.6352945090794
 30
0.0
 11
11005.055587521671
 21
4502.6352945090794
 31
0.0
  0
LINE
  5
6C5F
  8
SP
 10
11020.055587521671
 20
4145.1352945090803
 30
0.0
 11
11020.055587521671
 21
4465.1352945090794
 31
0.0
  0
INSERT
  5
6C60
  8
SP
  2
_OPEN
 10
11020.055587521671
 20
4107.6352945090794
 30
0.0
 41
37.5
 42
37.5
 43
37.5
 50
270.0
  0
INSERT
  5
6C61
  8
SP
  2
_OPEN
 10
11020.055587521671
 20
4502.6352945090794
 30
0.0
 41
37.5
 42
37.5
 43
37.5
 50
90.0
  0
TEXT
  5
6C62
  8
SP
 10
11005.055587521671
 20
4242.2437982832462
 30
0.0
 40
45.0
  1
395
 50
90.0
 51
15.0
  0
POINT
  5
6C63
  8
DEFPOINTS
 62
     0
 10
11065.05558752168
 20
4107.6352945090794
 30
0.0
  0
POINT
  5
6C64
  8
DEFPOINTS
 62
     0
 10
11085.75356201801
 20
4502.6352945090794
 30
0.0
  0
POINT
  5
6C65
  8
DEFPOINTS
 62
     0
 10
11020.055587521671
 20
4502.6352945090794
 30
0.0
  0
ENDBLK
  5
4316
  8
0
  0
BLOCK
  8
0
  2
*D6
 70
     1
 10
0.0
 20
0.0
 30
0.0
  3
*D6
  1

  0
LINE
  5
436E
  8
SP
 10
11375.05558752166
 20
4889.1712074726001
 30
0.0
 11
11375.05558752166
 21
4948.6352945090748
 31
0.0
  0
LINE
  5
436F
  8
SP
 10
11125.05558752166
 20
4853.6352945090748
 30
0.0
 11
11125.05558752166
 21
4948.6352945090748
 31
0.0
  0
LINE
  5
4370
  8
SP
 10
11337.55558752166
 20
4933.6352945090748
 30
0.0
 11
11162.55558752166
 21
4933.6352945090748
 31
0.0
  0
INSERT
  5
4371
  8
SP
  2
_OPEN
 10
11375.05558752166
 20
4933.6352945090748
 30
0.0
 41
37.5
 42
37.5
 43
37.5
  0
INSERT
  5
4372
  8
SP
  2
_OPEN
 10
11125.05558752166
 20
4933.6352945090748
 30
0.0
 41
37.5
 42
37.5
 43
37.5
 50
180.0
  0
TEXT
  5
4373
  8
SP
 10
11188.3893700881
 20
4948.6352945090748
 30
0.0
 40
45.0
  1
250
 51
15.0
  0
POINT
  5
4374
  8
DEFPOINTS
 62
     0
 10
11375.05558752166
 20
4874.1712074726001
 30
0.0
  0
POINT
  5
4375
  8
DEFPOINTS
 62
     0
 10
11125.05558752166
 20
4838.6352945090748
 30
0.0
  0
POINT
  5
4376
  8
DEFPOINTS
 62
     0
 10
11125.05558752166
 20
4933.6352945090748
 30
0.0
  0
ENDBLK
  5
4322
  8
0
  0
BLOCK
  8
0
  2
*D7
 70
     1
 10
0.0
 20
0.0
 30
0.0
  3
*D7
  1

  0
LINE
  5
439B
  8
SP
 10
11375.05558752166
 20
4889.1712074726001
 30
0.0
 11
11375.05558752166
 21
4948.6352945090748
 31
0.0
  0
LINE
  5
439C
  8
SP
 10
11639.2868691555
 20
4544.3057173214656
 30
0.0
 11
11639.2868691555
 21
4948.6352945090748
 31
0.0
  0
LINE
  5
439D
  8
SP
 10
11412.55558752166
 20
4933.6352945090748
 30
0.0
 11
11601.7868691555
 21
4933.6352945090748
 31
0.0
  0
INSERT
  5
439E
  8
SP
  2
_OPEN
 10
11375.05558752166
 20
4933.6352945090748
 30
0.0
 41
37.5
 42
37.5
 43
37.5
 50
180.0
  0
INSERT
  5
439F
  8
SP
  2
_OPEN
 10
11639.2868691555
 20
4933.6352945090748
 30
0.0
 41
37.5
 42
37.5
 43
37.5
  0
TEXT
  5
43A0
  8
SP
 10
11446.23303796678
 20
4948.6352945090748
 30
0.0
 40
45.0
  1
264
 51
15.0
  0
POINT
  5
43A1
  8
DEFPOINTS
 62
     0
 10
11375.05558752166
 20
4874.1712074726001
 30
0.0
  0
POINT
  5
43A2
  8
DEFPOINTS
 62
     0
 10
11639.2868691555
 20
4529.3057173214656
 30
0.0
  0
POINT
  5
43A3
  8
DEFPOINTS
 62
     0
 10
11639.2868691555
 20
4933.6352945090748
 30
0.0
  0
ENDBLK
  5
432E
  8
0
  0
BLOCK
  8
0
  2
*D8
 70
     1
 10
0.0
 20
0.0
 30
0.0
  3
*D8
  1

  0
LINE
  5
4674
  8
SP
 10
12572.45460744111
 20
4817.6352945090812
 30
0.0
 11
12572.45460744111
 21
4948.6352945090748
 31
0.0
  0
LINE
  5
4675
  8
SP
 10
12796.454607441099
 20
4817.6352945090812
 30
0.0
 11
12796.454607441099
 21
4948.6352945090748
 31
0.0
  0
LINE
  5
4676
  8
SP
 10
12609.95460744111
 20
4933.6352945090748
 30
0.0
 11
12758.954607441099
 21
4933.6352945090748
 31
0.0
  0
INSERT
  5
4677
  8
SP
  2
_OPEN
 10
12572.45460744111
 20
4933.6352945090748
 30
0.0
 41
37.5
 42
37.5
 43
37.5
 50
180.0
  0
INSERT
  5
4678
  8
SP
  2
_OPEN
 10
12796.454607441099
 20
4933.6352945090748
 30
0.0
 41
37.5
 42
37.5
 43
37.5
  0
TEXT
  5
4679
  8
SP
 10
12623.516417069301
 20
4948.6352945090748
 30
0.0
 40
45.0
  1
224
 51
15.0
  0
POINT
  5
467A
  8
DEFPOINTS
 62
     0
 10
12572.45460744111
 20
4802.6352945090812
 30
0.0
  0
POINT
  5
467B
  8
DEFPOINTS
 62
     0
 10
12796.454607441099
 20
4802.6352945090812
 30
0.0
  0
POINT
  5
467C
  8
DEFPOINTS
 62
     0
 10
12796.454607441099
 20
4933.6352945090748
 30
0.0
  0
ENDBLK
  5
45F8
  8
0
  0
BLOCK
  8
0
  2
*D9
 70
     1
 10
0.0
 20
0.0
 30
0.0
  3
*D9
  1

  0
LINE
  5
4638
  8
SP
 10
12684.45460744111
 20
5008.6352945090748
 30
0.0
 11
12684.45460744111
 21
5053.6352945090739
 31
0.0
  0
LINE
  5
4639
  8
SP
 10
12805.45460744111
 20
4699.1352945090794
 30
0.0
 11
12805.45460744111
 21
5053.6352945090739
 31
0.0
  0
LINE
  5
463A
  8
SP
 10
12721.95460744111
 20
5038.6352945090748
 30
0.0
 11
12767.95460744111
 21
5038.6352945090748
 31
0.0
  0
INSERT
  5
463B
  8
SP
  2
_OPEN
 10
12684.45460744111
 20
5038.6352945090748
 30
0.0
 41
37.5
 42
37.5
 43
37.5
 50
180.0
  0
INSERT
  5
463C
  8
SP
  2
_OPEN
 10
12805.45460744111
 20
5038.6352945090748
 30
0.0
 41
37.5
 42
37.5
 43
37.5
  0
TEXT
  5
463D
  8
SP
 10
12690.116676034981
 20
5053.6352945090739
 30
0.0
 40
45.0
  1
121
 51
15.0
  0
POINT
  5
463E
  8
DEFPOINTS
 62
     0
 10
12684.45460744111
 20
4993.6352945090748
 30
0.0
  0
POINT
  5
463F
  8
DEFPOINTS
 62
     0
 10
12805.45460744111
 20
4684.1352945090784
 30
0.0
  0
POINT
  5
4640
  8
DEFPOINTS
 62
     0
 10
12805.45460744111
 20
5038.6352945090748
 30
0.0
  0
ENDBLK
  5
4604
  8
0
  0
BLOCK
  8
0
  2
*D10
 70
     1
 10
0.0
 20
0.0
 30
0.0
  3
*D10
  1

  0
LINE
  5
4641
  8
SP
 10
12684.45460744111
 20
5008.6352945090748
 30
0.0
 11
12684.45460744111
 21
5053.6352945090739
 31
0.0
  0
LINE
  5
4642
  8
SP
 10
12264.4546074421
 20
4601.2162348221354
 30
0.0
 11
12264.4546074421
 21
5053.6352945090739
 31
0.0
  0
LINE
  5
4643
  8
SP
 10
12646.95460744111
 20
5038.6352945090748
 30
0.0
 11
12301.9546074421
 21
5038.6352945090748
 31
0.0
  0
INSERT
  5
4644
  8
SP
  2
_OPEN
 10
12684.45460744111
 20
5038.6352945090748
 30
0.0
 41
37.5
 42
37.5
 43
37.5
  0
INSERT
  5
4645
  8
SP
  2
_OPEN
 10
12264.4546074421
 20
5038.6352945090748
 30
0.0
 41
37.5
 42
37.5
 43
37.5
 50
180.0
  0
TEXT
  5
4646
  8
SP
 10
12374.090054831
 20
5053.6352945090739
 30
0.0
 40
45.0
  1
（420）
 51
15.0
  0
POINT
  5
4647
  8
DEFPOINTS
 62
     0
 10
12684.45460744111
 20
4993.6352945090748
 30
0.0
  0
POINT
  5
4648
  8
DEFPOINTS
 62
     0
 10
12264.4546074421
 20
4586.2162348221354
 30
0.0
  0
POINT
  5
4649
  8
DEFPOINTS
 62
     0
 10
12264.4546074421
 20
5038.6352945090748
 30
0.0
  0
ENDBLK
  5
4610
  8
0
  0
BLOCK
  8
0
  2
*D11
 70
     1
 10
0.0
 20
0.0
 30
0.0
  3
*D11
  1

  0
LINE
  5
69BD
  8
SP
 10
12820.45460744111
 20
4660.1352945090794
 30
0.0
 11
13004.08540090229
 21
4660.1352945090794
 31
0.0
  0
LINE
  5
69BE
  8
SP
 10
12820.45460744111
 20
4345.1352945090803
 30
0.0
 11
13004.08540090229
 21
4345.1352945090803
 31
0.0
  0
LINE
  5
69BF
  8
SP
 10
12989.08540090229
 20
4622.6352945090803
 30
0.0
 11
12989.08540090229
 21
4382.6352945090794
 31
0.0
  0
INSERT
  5
69C0
  8
SP
  2
_OPEN
 10
12989.08540090229
 20
4660.1352945090794
 30
0.0
 41
37.5
 42
37.5
 43
37.5
 50
90.0
  0
INSERT
  5
69C1
  8
SP
  2
_OPEN
 10
12989.08540090229
 20
4345.1352945090803
 30
0.0
 41
37.5
 42
37.5
 43
37.5
 50
270.0
  0
TEXT
  5
69C2
  8
SP
 10
12974.08540090229
 20
4424.6874851940429
 30
0.0
 40
45.0
  1
φ315
 50
90.0
 51
15.0
  0
POINT
  5
69C3
  8
DEFPOINTS
 62
     0
 10
12805.45460744111
 20
4660.1352945090794
 30
0.0
  0
POINT
  5
69C4
  8
DEFPOINTS
 62
     0
 10
12805.45460744111
 20
4345.1352945090803
 30
0.0
  0
POINT
  5
69C5
  8
DEFPOINTS
 62
     0
 10
12989.08540090229
 20
4345.1352945090803
 30
0.0
  0
ENDBLK
  5
461C
  8
0
  0
BLOCK
  8
0
  2
_NONE
 70
     0
 10
0.0
 20
0.0
 30
0.0
  3
_NONE
  1

  0
ENDBLK
  5
5AD6
  8
0
  0
BLOCK
  8
0
  2
L-40-3
 70
     0
 10
0.0
 20
0.0
 30
0.0
  3
L-40-3
  1

  0
ARC
  5
6273
  8
0
 10
7.5
 20
7.5
 30
0.0
 40
4.5
 50
180.0
 51
270.0
  0
LINE
  5
6274
  8
0
 10
0.0
 20
0.0
 30
0.0
 11
0.0
 21
40.0
 31
0.0
  0
LINE
  5
6275
  8
0
 10
7.5
 20
3.0
 30
0.0
 11
38.0
 21
3.0
 31
0.0
  0
LINE
  5
6276
  8
0
 10
0.0
 20
0.0
 30
0.0
 11
40.0
 21
0.0
 31
0.0
  0
LINE
  5
6277
  8
0
 10
40.0
 20
0.0
 30
0.0
 11
40.0
 21
1.0
 31
0.0
  0
ARC
  5
6278
  8
0
 10
38.0
 20
1.0
 30
0.0
 40
2.0
 50
0.0
 51
90.0
  0
LINE
  5
6279
  8
0
 10
3.0
 20
7.5
 30
0.0
 11
3.0
 21
38.0
 31
0.0
  0
LINE
  5
627A
  8
0
 10
0.0
 20
40.0
 30
0.0
 11
1.0
 21
40.0
 31
0.0
  0
ARC
  5
627B
  8
0
 10
1.0
 20
38.0
 30
0.0
 40
2.0
 50
0.0
 51
90.0
  0
ENDBLK
  5
627D
  8
0
  0
BLOCK
  8
0
  2
*D14
 70
     1
 10
0.0
 20
0.0
 30
0.0
  3
*D14
  1

  0
LINE
  5
6636
  8
SP
 10
11685.05558752168
 20
4092.635294509078
 30
0.0
 11
11685.05558752168
 21
3882.6352945090789
 31
0.0
  0
LINE
  5
6637
  8
SP
 10
11065.05558752168
 20
4092.635294509078
 30
0.0
 11
11065.05558752168
 21
3882.6352945090789
 31
0.0
  0
LINE
  5
6638
  8
SP
 10
11647.55558752168
 20
3897.6352945090789
 30
0.0
 11
11102.55558752168
 21
3897.6352945090789
 31
0.0
  0
INSERT
  5
6639
  8
SP
  2
_OPEN
 10
11685.05558752168
 20
3897.6352945090789
 30
0.0
 41
37.5
 42
37.5
 43
37.5
  0
INSERT
  5
663A
  8
SP
  2
_OPEN
 10
11065.05558752168
 20
3897.6352945090789
 30
0.0
 41
37.5
 42
37.5
 43
37.5
 50
180.0
  0
TEXT
  5
663B
  8
SP
 10
11311.4566762553
 20
3912.6352945090789
 30
0.0
 40
45.0
  1
620
 51
15.0
  0
POINT
  5
663C
  8
DEFPOINTS
 62
     0
 10
11685.05558752168
 20
4107.6352945090794
 30
0.0
  0
POINT
  5
663D
  8
DEFPOINTS
 62
     0
 10
11065.05558752168
 20
4107.6352945090794
 30
0.0
  0
POINT
  5
663E
  8
DEFPOINTS
 62
     0
 10
11065.05558752168
 20
3897.6352945090789
 30
0.0
  0
ENDBLK
  5
661D
  8
0
  0
BLOCK
  8
0
  2
*D15
 70
     1
 10
0.0
 20
0.0
 30
0.0
  3
*D15
  1

  0
LINE
  5
663F
  8
SP
 10
11375.05558752168
 20
4047.9208645023991
 30
0.0
 11
11375.05558752168
 21
3987.6352945090789
 31
0.0
  0
LINE
  5
6640
  8
SP
 10
11685.05558752168
 20
4092.635294509078
 30
0.0
 11
11685.05558752168
 21
3987.6352945090789
 31
0.0
  0
LINE
  5
6641
  8
SP
 10
11412.55558752168
 20
4002.6352945090789
 30
0.0
 11
11647.55558752168
 21
4002.6352945090789
 31
0.0
  0
INSERT
  5
6642
  8
SP
  2
_OPEN
 10
11375.05558752168
 20
4002.6352945090789
 30
0.0
 41
37.5
 42
37.5
 43
37.5
 50
180.0
  0
INSERT
  5
6643
  8
SP
  2
_OPEN
 10
11685.05558752168
 20
4002.6352945090789
 30
0.0
 41
37.5
 42
37.5
 43
37.5
  0
TEXT
  5
6644
  8
SP
 10
11471.52673069198
 20
4017.6352945090789
 30
0.0
 40
45.0
  1
310
 51
15.0
  0
POINT
  5
6645
  8
DEFPOINTS
 62
     0
 10
11375.05558752168
 20
4062.9208645023991
 30
0.0
  0
POINT
  5
6646
  8
DEFPOINTS
 62
     0
 10
11685.05558752168
 20
4107.6352945090794
 30
0.0
  0
POINT
  5
6647
  8
DEFPOINTS
 62
     0
 10
11685.05558752168
 20
4002.6352945090789
 30
0.0
  0
ENDBLK
  5
6629
  8
0
  0
BLOCK
  8
0
  2
*D16
 70
     1
 10
0.0
 20
0.0
 30
0.0
  3
*D16
  1

  0
LINE
  5
6648
  8
SP
 10
11375.05558752168
 20
4047.9208645023991
 30
0.0
 11
11375.05558752168
 21
3987.6352945090789
 31
0.0
  0
LINE
  5
6649
  8
SP
 10
11065.05558752168
 20
4092.635294509078
 30
0.0
 11
11065.05558752168
 21
3987.6352945090789
 31
0.0
  0
LINE
  5
664A
  8
SP
 10
11337.55558752168
 20
4002.6352945090789
 30
0.0
 11
11102.55558752168
 21
4002.6352945090789
 31
0.0
  0
INSERT
  5
664B
  8
SP
  2
_OPEN
 10
11375.05558752168
 20
4002.6352945090789
 30
0.0
 41
37.5
 42
37.5
 43
37.5
  0
INSERT
  5
664C
  8
SP
  2
_OPEN
 10
11065.05558752168
 20
4002.6352945090789
 30
0.0
 41
37.5
 42
37.5
 43
37.5
 50
180.0
  0
TEXT
  5
664D
  8
SP
 10
11161.52673069198
 20
4017.6352945090789
 30
0.0
 40
45.0
  1
310
 51
15.0
  0
POINT
  5
664E
  8
DEFPOINTS
 62
     0
 10
11375.05558752168
 20
4062.9208645023991
 30
0.0
  0
POINT
  5
664F
  8
DEFPOINTS
 62
     0
 10
11065.05558752168
 20
4107.6352945090794
 30
0.0
  0
POINT
  5
6650
  8
DEFPOINTS
 62
     0
 10
11065.05558752168
 20
4002.6352945090789
 30
0.0
  0
ENDBLK
  5
6635
  8
0
  0
BLOCK
  8
0
  2
*D17
 70
     1
 10
0.0
 20
0.0
 30
0.0
  3
*D17
  1

  0
LINE
  5
6891
  8
SP
 10
12204.45460744111
 20
4132.6352945090794
 30
0.0
 11
12204.45460744111
 21
3882.6352945090789
 31
0.0
  0
LINE
  5
6892
  8
SP
 10
12904.45460744111
 20
4132.6352945090794
 30
0.0
 11
12904.45460744111
 21
3882.6352945090789
 31
0.0
  0
LINE
  5
6893
  8
SP
 10
12241.95460744111
 20
3897.6352945090789
 30
0.0
 11
12866.95460744111
 21
3897.6352945090789
 31
0.0
  0
INSERT
  5
6894
  8
SP
  2
_OPEN
 10
12204.45460744111
 20
3897.6352945090789
 30
0.0
 41
37.5
 42
37.5
 43
37.5
 50
180.0
  0
INSERT
  5
6895
  8
SP
  2
_OPEN
 10
12904.45460744111
 20
3897.6352945090789
 30
0.0
 41
37.5
 42
37.5
 43
37.5
  0
TEXT
  5
6896
  8
SP
 10
12488.502675721829
 20
3912.6352945090789
 30
0.0
 40
45.0
  1
700
 51
15.0
  0
POINT
  5
6897
  8
DEFPOINTS
 62
     0
 10
12204.45460744111
 20
4147.6352945090794
 30
0.0
  0
POINT
  5
6898
  8
DEFPOINTS
 62
     0
 10
12904.45460744111
 20
4147.6352945090794
 30
0.0
  0
POINT
  5
6899
  8
DEFPOINTS
 62
     0
 10
12904.45460744111
 20
3897.6352945090789
 30
0.0
  0
ENDBLK
  5
6878
  8
0
  0
BLOCK
  8
0
  2
*D18
 70
     1
 10
0.0
 20
0.0
 30
0.0
  3
*D18
  1

  0
LINE
  5
689A
  8
SP
 10
12684.45460744111
 20
4047.9208645023991
 30
0.0
 11
12684.45460744111
 21
3987.6352945090789
 31
0.0
  0
LINE
  5
689B
  8
SP
 10
12904.45460744111
 20
4132.6352945090794
 30
0.0
 11
12904.45460744111
 21
3987.6352945090789
 31
0.0
  0
LINE
  5
689C
  8
SP
 10
12721.95460744111
 20
4002.6352945090789
 30
0.0
 11
12866.95460744111
 21
4002.6352945090789
 31
0.0
  0
INSERT
  5
689D
  8
SP
  2
_OPEN
 10
12684.45460744111
 20
4002.6352945090789
 30
0.0
 41
37.5
 42
37.5
 43
37.5
 50
180.0
  0
INSERT
  5
689E
  8
SP
  2
_OPEN
 10
12904.45460744111
 20
4002.6352945090789
 30
0.0
 41
37.5
 42
37.5
 43
37.5
  0
TEXT
  5
689F
  8
SP
 10
12732.788390007539
 20
4017.6352945090789
 30
0.0
 40
45.0
  1
220
 51
15.0
  0
POINT
  5
68A0
  8
DEFPOINTS
 62
     0
 10
12684.45460744111
 20
4062.9208645023991
 30
0.0
  0
POINT
  5
68A1
  8
DEFPOINTS
 62
     0
 10
12904.45460744111
 20
4147.6352945090794
 30
0.0
  0
POINT
  5
68A2
  8
DEFPOINTS
 62
     0
 10
12904.45460744111
 20
4002.6352945090789
 30
0.0
  0
ENDBLK
  5
6884
  8
0
  0
BLOCK
  8
0
  2
*D19
 70
     1
 10
0.0
 20
0.0
 30
0.0
  3
*D19
  1

  0
LINE
  5
68A3
  8
SP
 10
12204.45460744111
 20
4132.6352945090794
 30
0.0
 11
12204.45460744111
 21
3987.6352945090789
 31
0.0
  0
LINE
  5
68A4
  8
SP
 10
12684.45460744111
 20
4047.9208645023991
 30
0.0
 11
12684.45460744111
 21
3987.6352945090789
 31
0.0
  0
LINE
  5
68A5
  8
SP
 10
12241.95460744111
 20
4002.6352945090789
 30
0.0
 11
12646.95460744111
 21
4002.6352945090789
 31
0.0
  0
INSERT
  5
68A6
  8
SP
  2
_OPEN
 10
12204.45460744111
 20
4002.6352945090789
 30
0.0
 41
37.5
 42
37.5
 43
37.5
 50
180.0
  0
INSERT
  5
68A7
  8
SP
  2
_OPEN
 10
12684.45460744111
 20
4002.6352945090789
 30
0.0
 41
37.5
 42
37.5
 43
37.5
  0
TEXT
  5
68A8
  8
SP
 10
12380.77877106431
 20
4017.6352945090789
 30
0.0
 40
45.0
  1
480
 51
15.0
  0
POINT
  5
68A9
  8
DEFPOINTS
 62
     0
 10
12204.45460744111
 20
4147.6352945090794
 30
0.0
  0
POINT
  5
68AA
  8
DEFPOINTS
 62
     0
 10
12684.45460744111
 20
4062.9208645023991
 30
0.0
  0
POINT
  5
68AB
  8
DEFPOINTS
 62
     0
 10
12684.45460744111
 20
4002.6352945090789
 30
0.0
  0
ENDBLK
  5
6890
  8
0
  0
BLOCK
  8
0
  2
*D20
 70
     1
 10
0.0
 20
0.0
 30
0.0
  3
*D20
  1

  0
LINE
  5
6B36
  8
SP
 10
11700.055587521671
 20
6074.3629352201697
 30
0.0
 11
11863.167077550601
 21
6074.3629352201697
 31
0.0
  0
LINE
  5
6B37
  8
SP
 10
11700.055587521671
 20
5374.3629352201688
 30
0.0
 11
11863.167077550601
 21
5374.3629352201688
 31
0.0
  0
LINE
  5
6B38
  8
SP
 10
11848.167077550601
 20
6036.8629352201697
 30
0.0
 11
11848.167077550601
 21
5411.8629352201688
 31
0.0
  0
INSERT
  5
6B39
  8
SP
  2
_OPEN
 10
11848.167077550601
 20
6074.3629352201697
 30
0.0
 41
37.5
 42
37.5
 43
37.5
 50
90.0
  0
INSERT
  5
6B3A
  8
SP
  2
_OPEN
 10
11848.167077550601
 20
5374.3629352201688
 30
0.0
 41
37.5
 42
37.5
 43
37.5
 50
270.0
  0
TEXT
  5
6B3B
  8
SP
 10
11833.167077550601
 20
5658.4110035008898
 30
0.0
 40
45.0
  1
700
 50
90.0
 51
15.0
  0
POINT
  5
6B3C
  8
DEFPOINTS
 62
     0
 10
11685.055587521671
 20
6074.3629352201697
 30
0.0
  0
POINT
  5
6B3D
  8
DEFPOINTS
 62
     0
 10
11685.055587521671
 20
5374.3629352201688
 30
0.0
  0
POINT
  5
6B3E
  8
DEFPOINTS
 62
     0
 10
11848.167077550601
 20
5374.3629352201688
 30
0.0
  0
ENDBLK
  5
6B29
  8
0
  0
BLOCK
  8
0
  2
*D21
 70
     1
 10
0.0
 20
0.0
 30
0.0
  3
*D21
  1

  0
LINE
  5
6B3F
  8
SP
 10
11685.055587521671
 20
5359.3629352201679
 30
0.0
 11
11685.055587521671
 21
5220.4232802762617
 31
0.0
  0
LINE
  5
6B40
  8
SP
 10
11065.055587521671
 20
5359.3629352201679
 30
0.0
 11
11065.055587521671
 21
5220.4232802762617
 31
0.0
  0
LINE
  5
6B41
  8
SP
 10
11647.555587521671
 20
5235.4232802762608
 30
0.0
 11
11102.555587521671
 21
5235.4232802762608
 31
0.0
  0
INSERT
  5
6B42
  8
SP
  2
_OPEN
 10
11685.055587521671
 20
5235.4232802762608
 30
0.0
 41
37.5
 42
37.5
 43
37.5
  0
INSERT
  5
6B43
  8
SP
  2
_OPEN
 10
11065.055587521671
 20
5235.4232802762608
 30
0.0
 41
37.5
 42
37.5
 43
37.5
 50
180.0
  0
TEXT
  5
6B44
  8
SP
 10
11311.456676255289
 20
5250.4232802762617
 30
0.0
 40
45.0
  1
620
 51
15.0
  0
POINT
  5
6B45
  8
DEFPOINTS
 62
     0
 10
11685.055587521671
 20
5374.3629352201688
 30
0.0
  0
POINT
  5
6B46
  8
DEFPOINTS
 62
     0
 10
11065.055587521671
 20
5374.3629352201679
 30
0.0
  0
POINT
  5
6B47
  8
DEFPOINTS
 62
     0
 10
11065.055587521671
 20
5235.4232802762608
 30
0.0
  0
ENDBLK
  5
6B35
  8
0
  0
ENDSEC
  0
SECTION
  2
ENTITIES
  0
LINE
  5
28A4
  8
4
 10
13495.59771503509
 20
7247.8097917420337
 30
0.0
 11
13495.59771503509
 21
2822.8097917420341
 31
0.0
  0
LINE
  5
28A5
  8
4
 10
10345.59771503509
 20
2822.8097917420341
 30
0.0
 11
10345.59771503509
 21
7247.8097917420337
 31
0.0
  0
LINE
  5
28A8
  8
4
 10
11020.59771503509
 20
3272.8097917420332
 30
0.0
 11
12820.59771503509
 21
3272.8097917420332
 31
0.0
  0
LINE
  5
28A9
  8
4
 10
11020.59771503509
 20
3422.8097917420332
 30
0.0
 11
12820.59771503509
 21
3422.8097917420332
 31
0.0
  0
LINE
  5
28AA
  8
4
 10
11020.59771503509
 20
3572.8097917420332
 30
0.0
 11
12820.59771503509
 21
3572.8097917420332
 31
0.0
  0
LINE
  5
28AB
  8
4
 10
13495.59771503509
 20
2822.8097917420341
 30
0.0
 11
10345.59771503509
 21
2822.8097917420341
 31
0.0
  0
TEXT
  5
28AC
  8
4
 10
11812.115833266589
 20
3456.6674451783861
 30
0.0
 40
75.0
  1
ミツヤ多翼送風機
  0
TEXT
  5
28AF
  8
4
 10
11078.350836305441
 20
3470.124330541953
 30
0.0
 40
75.0
  1
機器名称
  0
TEXT
  5
28B0
  8
4
 10
11074.98487407229
 20
3305.2775268400501
 30
0.0
 40
75.0
  1
機器型番
  0
LINE
  5
28B2
  8
4
 10
11020.59771503509
 20
3572.8097917420332
 30
0.0
 11
11020.59771503509
 21
3272.8097917420332
 31
0.0
  0
TEXT
  5
28B3
  8
4
 10
11825.579458413309
 20
3298.5491681619478
 30
0.0
 40
75.0
  1
MF＃2-7
  0
LINE
  5
28B4
  8
4
 10
11770.59771503509
 20
3572.8097917420332
 30
0.0
 11
11770.59771503509
 21
3272.8097917420332
 31
0.0
  0
LINE
  5
28B5
  8
4
 10
12820.59771503509
 20
3572.8097917420332
 30
0.0
 11
12820.59771503509
 21
3272.8097917420332
 31
0.0
  0
TEXT
  5
28BD
  8
4
 10
11077.69207095238
 20
6623.6312560409797
 30
0.0
 40
108.0
  1
遠心式片吸込直動形多翼ファン
  0
LINE
  5
28BE
  8
4
 10
10720.59771503509
 20
6526.9229231392419
 30
0.0
 11
13120.59771503509
 21
6526.9229231392419
 31
0.0
  0
LINE
  5
28BF
  8
4
 10
10720.59771503509
 20
6826.9229231392419
 30
0.0
 11
13120.59771503509
 21
6826.9229231392419
 31
0.0
  0
LINE
  5
28C0
  8
4
 10
10345.59771503509
 20
7247.8097917420337
 30
0.0
 11
13495.59771503509
 21
7247.8097917420337
 31
0.0
  0
TEXT
  5
2934
  8
4
 10
10818.48108722504
 20
6396.2890080615489
 30
0.0
 40
80.999999999999986
  1
左回転左横向
  0
LINE
  5
297A
  8
4
 10
10720.59771503509
 20
6826.9229231392419
 30
0.0
 11
10720.59771503509
 21
6526.9229231392419
 31
0.0
  0
LINE
  5
2A3F
  8
4
 10
12506.523848574891
 20
7002.7881840666632
 30
0.0
 11
13120.59771503509
 21
7002.7881840666632
 31
0.0
  0
LINE
  5
2A40
  8
4
 10
13120.59771503509
 20
6844.7051664301353
 30
0.0
 11
12506.523848574891
 21
6844.7051664301353
 31
0.0
  0
TEXT
  5
2A41
  8
4
 10
12549.052053909019
 20
6881.9014139849969
 30
0.0
 40
84.000000000000014
  1
No.
  0
LINE
  5
2A42
  8
4
 10
12506.523848574891
 20
6844.7051664301353
 30
0.0
 11
12506.523848574891
 21
7002.7881840666632
 31
0.0
  0
LINE
  5
2A43
  8
4
 10
13120.59771503509
 20
6826.9229231392419
 30
0.0
 11
13120.59771503509
 21
6526.9229231392419
 31
0.0
  0
LINE
  5
2A44
  8
4
 10
13120.59771503509
 20
7002.7881840666632
 30
0.0
 11
13120.59771503509
 21
6844.7051664301353
 31
0.0
  0
LINE
  5
2A45
  8
4
 10
13495.59771503509
 20
7247.8097917420337
 30
0.0
 11
13495.59771503509
 21
7247.8097917420337
 31
0.0
  0
DIMENSION
  5
4268
  8
SP
  2
*D4
 10
11020.05558752166
 20
4817.6352945090748
 30
0.0
 11
10982.55558752166
 21
4660.1352945090794
 31
0.0
 70
     0
 13
11085.75356201801
 23
4502.6352945090794
 33
0.0
 14
11125.05558752166
 24
4817.6352945090748
 34
0.0
 50
90.0
  0
POLYLINE
  5
4269
  8
1
 66
     1
 10
0.0
 20
0.0
 30
0.0
  0
VERTEX
  5
6C82
  8
1
 10
11145.05558752166
 20
4827.6352945090757
 30
0.0
  0
VERTEX
  5
6C83
  8
1
 10
11349.56776426035
 20
4827.6352945090812
 30
0.0
 42
-0.2269714708976296
  0
VERTEX
  5
6C84
  8
1
 10
11585.76630725709
 20
4713.8891123932499
 30
0.0
  0
SEQEND
  5
6C85
  8
1
  0
POLYLINE
  5
426A
  8
1
 66
     1
 10
0.0
 20
0.0
 30
0.0
  0
VERTEX
  5
6C86
  8
1
 10
11125.05558752166
 20
4817.6352945090748
 30
0.0
  0
VERTEX
  5
6C87
  8
1
 10
11349.55558752166
 20
4817.6352945090812
 30
0.0
 42
-0.2269607506063405
  0
VERTEX
  5
6C88
  8
1
 10
11577.963118045511
 20
4707.6352945090803
 30
0.0
 42
-0.129402372482195
  0
SEQEND
  5
6C89
  8
1
  0
DIMENSION
  5
426B
  8
SP
  2
*D7
 10
11639.2868691555
 20
4933.6352945090748
 30
0.0
 11
11507.17122833858
 21
4971.1352945090748
 31
0.0
 70
     0
 13
11375.05558752166
 23
4874.1712074726001
 33
0.0
 14
11639.2868691555
 24
4529.3057173214656
 34
0.0
 50
179.99999999999989
1001
ACAD
1000
DSTYLE
1002
{
1070
   271
1070
     0
1002
}
  0
POLYLINE
  5
426C
  8
FUTO
 66
     1
 10
0.0
 20
0.0
 30
0.0
  0
VERTEX
  5
6C8A
  8
FUTO
 10
11125.055587521671
 20
4481.1352945090739
 30
0.0
  0
VERTEX
  5
6C8B
  8
FUTO
 10
11125.05558752166
 20
4839.1352945090748
 30
0.0
  0
VERTEX
  5
6C8C
  8
FUTO
 10
11126.25558752166
 20
4839.1352945090757
 30
0.0
  0
VERTEX
  5
6C8D
  8
FUTO
 10
11126.255587521669
 20
4481.1352945090748
 30
0.0
  0
SEQEND
  5
6C8E
  8
FUTO
  0
LINE
  5
426D
  8
1
 10
11145.05558752166
 20
4800.2352945090734
 30
0.0
 11
11145.055587521671
 21
4519.0352945090744
 31
0.0
  0
LINE
  5
426E
  8
2
 10
11375.05558752166
 20
4062.9208645024009
 30
0.0
 11
11375.05558752166
 21
4874.1712074726001
 31
0.0
  0
DIMENSION
  5
4271
  8
SP
  2
*D5
 10
11020.055587521671
 20
4502.6352945090794
 30
0.0
 11
10982.555587521671
 21
4305.1352945090812
 31
0.0
 70
     0
 13
11065.05558752168
 23
4107.6352945090794
 33
0.0
 14
11085.75356201801
 24
4502.6352945090794
 34
0.0
 50
90.0
  0
POLYLINE
  5
427F
  8
1
 66
     1
 10
0.0
 20
0.0
 30
0.0
  0
VERTEX
  5
6C8F
  8
1
 10
11585.84816491458
 20
4713.7855819716851
 30
0.0
 42
-0.2162335382726867
  0
VERTEX
  5
6C90
  8
1
 10
11643.923077331339
 20
4472.8344573611057
 30
0.0
 42
-0.1298839697351506
  0
VERTEX
  5
6C91
  8
1
 10
11587.63804329435
 20
4356.8657989986368
 30
0.0
 42
-0.1298839697351506
  0
SEQEND
  5
6C92
  8
1
  0
POLYLINE
  5
4280
  8
1
 66
     1
 10
0.0
 20
0.0
 30
0.0
  0
VERTEX
  5
6C93
  8
1
 10
11149.54468051822
 20
4489.9710308950825
 30
0.0
 42
-0.0934525219043797
  0
VERTEX
  5
6C94
  8
1
 10
11170.055587521671
 20
4470.0808792166727
 30
0.0
 42
-0.1987366729981355
  0
SEQEND
  5
6C95
  8
1
  0
POLYLINE
  5
4281
  8
1
 66
     1
 10
0.0
 20
0.0
 30
0.0
  0
VERTEX
  5
6C96
  8
1
 10
11170.055587521671
 20
4485.7802028555043
 30
0.0
 42
-0.1315967463597435
  0
VERTEX
  5
6C97
  8
1
 10
11191.683127278569
 20
4446.2408645010637
 30
0.0
 42
-0.2200089805681688
  0
SEQEND
  5
6C98
  8
1
  0
ARC
  5
4282
  8
1
 10
11375.055587521671
 20
4502.6352945090794
 30
0.0
 40
100.8
 50
179.99999999999989
 51
254.20289999999889
  0
ARC
  5
4283
  8
1
 10
11375.055587521671
 20
4502.6352945090794
 30
0.0
 40
100.8
 50
285.42769999999967
 51
179.99999999999989
  0
POLYLINE
  5
4284
  8
1
 66
     1
 10
0.0
 20
0.0
 30
0.0
  0
VERTEX
  5
6C99
  8
1
 10
11577.963118045511
 20
4707.6352945090803
 30
0.0
 42
-0.2162148363065116
  0
VERTEX
  5
6C9A
  8
1
 10
11634.105798798309
 20
4474.7374777010273
 30
0.0
 42
-0.1298622998199493
  0
VERTEX
  5
6C9B
  8
1
 10
11580.055587521671
 20
4363.3854895170061
 30
0.0
 42
-0.3153658436290411
  0
SEQEND
  5
6C9C
  8
1
  0
CIRCLE
  5
4285
  8
CT
 10
11375.055587521671
 20
4502.6352945090794
 30
0.0
 40
169.0
  0
POLYLINE
  5
4286
  8
1
 66
     1
 10
0.0
 20
0.0
 30
0.0
  0
VERTEX
  5
6C9D
  8
1
 10
11491.734001621449
 20
4288.3450390195239
 30
0.0
 42
-0.1343314877425494
  0
VERTEX
  5
6C9E
  8
1
 10
11358.73745852791
 20
4273.3920076828817
 30
0.0
 42
-0.3163064660587118
  0
VERTEX
  5
6C9F
  8
1
 10
11181.85766740373
 20
4444.3806702038992
 30
0.0
 42
-0.3163064660587118
  0
SEQEND
  5
6CA0
  8
1
  0
LINE
  5
4287
  8
1
 10
11347.43788752167
 20
4405.6352945090794
 30
0.0
 11
11402.32498752167
 21
4405.6352945090794
 31
0.0
  0
POLYLINE
  5
428A
  8
1
 66
     1
 10
0.0
 20
0.0
 30
0.0
  0
VERTEX
  5
6CA1
  8
1
 10
11488.0338458222
 20
4297.6352945090794
 30
0.0
 42
-0.1343280102757561
  0
VERTEX
  5
6CA2
  8
1
 10
11360.285562241381
 20
4283.2714502998733
 30
0.0
 42
-0.3163019945347412
  0
VERTEX
  5
6CA3
  8
1
 10
11191.67840097925
 20
4446.2656614608068
 30
0.0
 42
-0.3153658436290411
  0
SEQEND
  5
6CA4
  8
1
  0
POLYLINE
  5
428B
  8
1
 66
     1
 10
0.0
 20
0.0
 30
0.0
  0
VERTEX
  5
6CA5
  8
1
 10
11587.59657112823
 20
4356.8178745583155
 30
0.0
 42
-0.1174780416237576
  0
VERTEX
  5
6CA6
  8
1
 10
11491.80344657221
 20
4288.3729994271134
 30
0.0
 42
-0.1174780416237576
  0
SEQEND
  5
6CA7
  8
1
  0
LINE
  5
428C
  8
CT
 10
11420.99596802735
 20
4331.1834603427696
 30
0.0
 11
11416.886532242301
 21
4346.5200834830384
 31
0.0
  0
POLYLINE
  5
428E
  8
1
 66
     1
 10
0.0
 20
0.0
 30
0.0
  0
VERTEX
  5
6CA8
  8
1
 10
11580.055587521671
 20
4363.385489517007
 30
0.0
 42
-0.1174780416237573
  0
VERTEX
  5
6CA9
  8
1
 10
11488.0338458222
 20
4297.6352945090803
 30
0.0
 42
-0.3153658436290411
  0
SEQEND
  5
6CAA
  8
1
  0
CIRCLE
  5
4290
  8
1
 10
11418.796006143981
 20
4339.393829866227
 30
0.0
 40
4.0
  0
LINE
  5
4291
  8
CT
 10
11455.055587521671
 20
4416.0157945090778
 30
0.0
 11
11455.055587521671
 21
4398.6686945090787
 31
0.0
  0
LINE
  5
4292
  8
1
 10
11435.25808752167
 20
4421.7464945090778
 30
0.0
 11
11441.49058752167
 21
4415.5139945090787
 31
0.0
  0
ARC
  5
4293
  8
1
 10
11443.61198752167
 20
4417.6352945090794
 30
0.0
 40
3.0
 50
225.0
 51
270.0
  0
LINE
  5
4294
  8
1
 10
11428.50598752167
 20
4417.1849945090789
 30
0.0
 11
11435.055587521671
 21
4410.6352945090803
 31
0.0
  0
ARC
  5
4295
  8
1
 10
11437.055587521671
 20
4412.6352945090794
 30
0.0
 40
2.0
 50
89.999999999999986
 51
179.99999999999989
  0
LINE
  5
4296
  8
1
 10
11435.055587521671
 20
4402.6352945090794
 30
0.0
 11
11435.055587521671
 21
4412.6352945090794
 31
0.0
  0
LINE
  5
4297
  8
1
 10
11449.055587521671
 20
4402.6352945090794
 30
0.0
 11
11449.055587521671
 21
4414.6352945090794
 31
0.0
  0
LINE
  5
4298
  8
1
 10
11461.055587521671
 20
4414.6352945090794
 30
0.0
 11
11461.055587521671
 21
4402.6352945090794
 31
0.0
  0
ARC
  5
4299
  8
1
 10
11473.055587521671
 20
4412.6352945090794
 30
0.0
 40
2.0
 50
0.0
 51
89.999999999999986
  0
LINE
  5
429A
  8
1
 10
11475.055587521671
 20
4402.6352945090794
 30
0.0
 11
11475.055587521671
 21
4412.6352945090794
 31
0.0
  0
LINE
  5
429B
  8
1
 10
11474.16338752167
 20
4414.3033945090792
 30
0.0
 11
11457.762587521671
 21
4444.9653945090786
 31
0.0
  0
LINE
  5
429C
  8
1
 10
11475.055587521671
 20
4402.6352945090794
 30
0.0
 11
11435.055587521671
 21
4402.6352945090794
 31
0.0
  0
LINE
  5
429D
  8
1
 10
11473.055587521671
 20
4414.6352945090794
 30
0.0
 11
11437.055587521671
 21
4414.6352945090794
 31
0.0
  0
LINE
  5
429E
  8
CT
 10
11500.56704118227
 20
4377.1238408484624
 30
0.0
 11
11489.339853827059
 21
4388.351028203675
 31
0.0
  0
CIRCLE
  5
429F
  8
1
 10
11494.556633542181
 20
4383.1342484885481
 30
0.0
 40
4.0
  0
LINE
  5
42A0
  8
CT
 10
11546.507421687969
 20
4456.6949140033739
 30
0.0
 11
11531.170798547701
 21
4460.80434978843
 31
0.0
  0
CIRCLE
  5
42A1
  8
1
 10
11538.297052164509
 20
4458.8948758867473
 30
0.0
 40
4.0
  0
LINE
  5
42A4
  8
CT
 10
11329.115207015961
 20
4331.1834603427733
 30
0.0
 11
11333.224642801009
 21
4346.5200834830403
 31
0.0
  0
LINE
  5
42A7
  8
CT
 10
11203.603753355361
 20
4456.6949140033894
 30
0.0
 11
11218.940376495621
 21
4460.8043497884446
 31
0.0
  0
CIRCLE
  5
42A8
  8
1
 10
11211.81412287881
 20
4458.8948758867618
 30
0.0
 40
4.0
  0
LINE
  5
42A9
  8
CT
 10
11249.544133861051
 20
4377.1238408484742
 30
0.0
 11
11260.77132121626
 21
4388.351028203685
 31
0.0
  0
CIRCLE
  5
42AA
  8
1
 10
11255.554541501129
 20
4383.1342484885581
 30
0.0
 40
4.0
  0
LINE
  5
42AB
  8
CT
 10
11295.055587521671
 20
4416.0157945090778
 30
0.0
 11
11295.055587521671
 21
4398.6686945090787
 31
0.0
  0
ARC
  5
42AC
  8
1
 10
11277.055587521671
 20
4412.6352945090794
 30
0.0
 40
2.0
 50
89.999999999999986
 51
179.99999999999989
  0
LINE
  5
42AD
  8
1
 10
11289.055587521671
 20
4414.6352945090794
 30
0.0
 11
11289.055587521671
 21
4402.6352945090794
 31
0.0
  0
LINE
  5
42AE
  8
1
 10
11275.055587521671
 20
4402.6352945090794
 30
0.0
 11
11275.055587521671
 21
4412.6352945090794
 31
0.0
  0
LINE
  5
42AF
  8
1
 10
11301.055587521671
 20
4402.6352945090794
 30
0.0
 11
11301.055587521671
 21
4414.6352945090794
 31
0.0
  0
LINE
  5
42B0
  8
1
 10
11276.14638752167
 20
4414.6747945090792
 30
0.0
 11
11292.26508752167
 21
4444.8090945090789
 31
0.0
  0
LINE
  5
42B1
  8
1
 10
11321.30898752167
 20
4416.8887945090801
 30
0.0
 11
11315.055587521671
 21
4410.6352945090803
 31
0.0
  0
ARC
  5
42B2
  8
1
 10
11313.055587521671
 20
4412.6352945090794
 30
0.0
 40
2.0
 50
0.0
 51
89.999999999999986
  0
LINE
  5
42B3
  8
1
 10
11315.055587521671
 20
4402.6352945090794
 30
0.0
 11
11315.055587521671
 21
4412.6352945090794
 31
0.0
  0
LINE
  5
42B4
  8
1
 10
11314.473487521671
 20
4421.3669945090778
 30
0.0
 11
11308.620587521669
 21
4415.5139945090787
 31
0.0
  0
ARC
  5
42B5
  8
1
 10
11306.499187521669
 20
4417.6352945090794
 30
0.0
 40
3.0
 50
270.0
 51
315.0
  0
CIRCLE
  5
42B6
  8
1
 10
11331.315168899329
 20
4339.3938298662306
 30
0.0
 40
4.0
  0
LINE
  5
42B7
  8
1
 10
11275.055587521671
 20
4402.6352945090794
 30
0.0
 11
11315.055587521671
 21
4402.6352945090794
 31
0.0
  0
LINE
  5
42B8
  8
1
 10
11277.055587521671
 20
4414.6352945090794
 30
0.0
 11
11313.055587521671
 21
4414.6352945090794
 31
0.0
  0
POLYLINE
  5
42BA
  8
1
 66
     1
 10
0.0
 20
0.0
 30
0.0
  0
VERTEX
  5
6CAB
  8
1
 10
11170.055587521671
 20
4470.0808792166727
 30
0.0
 42
-0.0941668855597806
  0
VERTEX
  5
6CAC
  8
1
 10
11181.96699183001
 20
4443.8751274181714
 30
0.0
 42
-0.1987366729981355
  0
SEQEND
  5
6CAD
  8
1
  0
LINE
  5
42BC
  8
2
 10
11679.99909736924
 20
4502.6352945090794
 30
0.0
 11
11085.75356201801
 21
4502.6352945090794
 31
0.0
  0
LINE
  5
42BE
  8
CT
 10
11546.507421687969
 20
4548.5756750147693
 30
0.0
 11
11531.17079854771
 21
4544.4662392297132
 31
0.0
  0
CIRCLE
  5
42BF
  8
1
 10
11538.29705216452
 20
4546.375713131396
 30
0.0
 40
4.0
  0
LINE
  5
42C0
  8
CT
 10
11420.99596802737
 20
4674.0871286753836
 30
0.0
 11
11416.88653224231
 21
4658.7505055351176
 31
0.0
  0
CIRCLE
  5
42C1
  8
1
 10
11418.796006144001
 20
4665.8767591519272
 30
0.0
 40
4.0
  0
LINE
  5
42C2
  8
CT
 10
11500.567041182279
 20
4628.1467481696836
 30
0.0
 11
11489.33985382707
 21
4616.9195608144719
 31
0.0
  0
CIRCLE
  5
42C3
  8
1
 10
11494.556633542201
 20
4622.1363405295979
 30
0.0
 40
4.0
  0
POINT
  5
42C4
  8
1
 10
11532.555587521671
 20
4752.6352945090903
 30
0.0
  0
POINT
  5
42C5
  8
1
 10
11532.555587521671
 20
4752.6352945090903
 30
0.0
  0
LINE
  5
42C7
  8
CT
 10
11203.603753355361
 20
4548.5756750147839
 30
0.0
 11
11218.94037649563
 21
4544.4662392297296
 31
0.0
  0
CIRCLE
  5
42C8
  8
1
 10
11211.814122878821
 20
4546.3757131314132
 30
0.0
 40
4.0
  0
POLYLINE
  5
42C9
  8
FUTO
 66
     1
 10
0.0
 20
0.0
 30
0.0
  0
VERTEX
  5
6CAE
  8
FUTO
 10
11125.055587521671
 20
4481.1352945090739
 30
0.0
  0
VERTEX
  5
6CAF
  8
FUTO
 10
11126.255587521669
 20
4481.1352945090739
 30
0.0
  0
SEQEND
  5
6CB0
  8
FUTO
  0
POLYLINE
  5
42CA
  8
CT
 66
     1
 10
0.0
 20
0.0
 30
0.0
  0
VERTEX
  5
6CB1
  8
CT
 10
11119.992424306671
 20
4491.1352945090739
 30
0.0
  0
VERTEX
  5
6CB2
  8
CT
 10
11132.26073459062
 20
4491.1352945090748
 30
0.0
  0
SEQEND
  5
6CB3
  8
CT
  0
ARC
  5
42CB
  8
1
 10
11130.055587521671
 20
4502.6352945090748
 30
0.0
 40
1.0
 50
126.8698976458049
 51
270.0
  0
POINT
  5
42CC
  8
1
 10
11125.055587521671
 20
4502.6352945090748
 30
0.0
  0
LINE
  5
42CD
  8
1
 10
11145.055587521671
 20
4501.6352945090694
 30
0.0
 11
11145.055587521671
 21
4498.3154843822376
 31
0.0
  0
LINE
  5
42CE
  8
1
 10
11125.055587521671
 20
4501.6352945090757
 30
0.0
 11
11146.055587521671
 21
4501.6352945090757
 31
0.0
  0
LINE
  5
42CF
  8
1
 10
11129.35558752167
 20
4503.3352945090719
 30
0.0
 11
11145.055587521671
 21
4519.0352945090717
 31
0.0
  0
POLYLINE
  5
42D0
  8
1
 66
     1
 10
0.0
 20
0.0
 30
0.0
  0
VERTEX
  5
6CB4
  8
1
 10
11146.055587521671
 20
4501.6352945090757
 30
0.0
 42
-0.101266720201501
  0
VERTEX
  5
6CB5
  8
1
 10
11151.554998008431
 20
4500.5099395254674
 30
0.0
 42
-0.0681921917069782
  0
VERTEX
  5
6CB6
  8
1
 10
11170.055587521671
 20
4485.7802028555043
 30
0.0
 42
-0.2200089805681688
  0
SEQEND
  5
6CB7
  8
1
  0
ARC
  5
42D1
  8
1
 10
11155.055587521671
 20
4498.3154843822449
 30
0.0
 40
10.0
 50
179.99999999999989
 51
236.55812821051899
  0
LINE
  5
42D2
  8
CT
 10
11249.54413386106
 20
4628.1467481696964
 30
0.0
 11
11260.771321216271
 21
4616.9195608144828
 31
0.0
  0
CIRCLE
  5
42D3
  8
1
 10
11255.55454150114
 20
4622.1363405296097
 30
0.0
 40
4.0
  0
LINE
  5
42D4
  8
CT
 10
11329.115207015981
 20
4674.0871286753891
 30
0.0
 11
11333.224642801029
 21
4658.7505055351221
 31
0.0
  0
CIRCLE
  5
42D5
  8
1
 10
11331.315168899349
 20
4665.8767591519318
 30
0.0
 40
4.0
  0
DIMENSION
  5
42D6
  8
SP
  2
*D6
 10
11125.05558752166
 20
4933.6352945090748
 30
0.0
 11
11250.05558752166
 21
4971.1352945090748
 31
0.0
 70
     0
 13
11375.05558752166
 23
4874.1712074726001
 33
0.0
 14
11125.05558752166
 24
4838.6352945090748
 34
0.0
 50
179.99999999999989
  0
LINE
  5
42D7
  8
FUTO
 10
11145.05558752166
 20
4827.6352945090757
 30
0.0
 11
11145.05558752166
 21
4817.6352945090766
 31
0.0
  0
ARC
  5
42D8
  8
1
 10
11130.05558752166
 20
4816.6352945090757
 30
0.0
 40
1.0
 50
89.999999999999986
 51
233.130102354195
  0
LINE
  5
42D9
  8
1
 10
11129.355587521661
 20
4815.935294509075
 30
0.0
 11
11145.05558752166
 21
4800.2352945090743
 31
0.0
  0
POLYLINE
  5
42DA
  8
CT
 66
     1
 10
0.0
 20
0.0
 30
0.0
  0
VERTEX
  5
6CB8
  8
CT
 10
11119.99242430666
 20
4829.1352945090748
 30
0.0
  0
VERTEX
  5
6CB9
  8
CT
 10
11132.260734590611
 20
4829.1352945090748
 30
0.0
  0
SEQEND
  5
6CBA
  8
CT
  0
LINE
  5
457D
  8
1
 10
12551.45460744111
 20
4685.0442197966531
 30
0.0
 11
12551.45460744111
 21
4814.1352945090748
 31
0.0
  0
LINE
  5
457E
  8
1
 10
12817.45460744111
 20
4506.1352945090739
 30
0.0
 11
12817.45460744111
 21
4814.1352945090748
 31
0.0
  0
DIMENSION
  5
457F
  8
SP
  2
*D10
 10
12264.4546074421
 20
5038.6352945090748
 30
0.0
 11
12474.454607441599
 21
5076.1352945090748
 31
0.0
 70
     0
 13
12684.45460744111
 23
4993.6352945090748
 33
0.0
 14
12264.4546074421
 24
4586.2162348221354
 34
0.0
1001
ACAD
1000
DSTYLE
1002
{
1070
     3
1000
（<>）
1002
}
  0
DIMENSION
  5
4580
  8
SP
  2
*D9
 10
12805.45460744111
 20
5038.6352945090748
 30
0.0
 11
12744.95460744111
 21
5076.1352945090748
 31
0.0
 70
     0
 13
12684.45460744111
 23
4993.6352945090748
 33
0.0
 14
12805.45460744111
 24
4684.1352945090784
 34
0.0
  0
LINE
  5
4587
  8
2
 10
12684.45460744111
 20
4920.9550058418363
 30
0.0
 11
12684.45460744111
 21
4062.9208645024009
 31
0.0
1001
ACAD
1000
ASC_BOUNDS
1002
{
1070
    19
1005
0
1005
0
1002
}
  0
LINE
  5
4589
  8
FUTO
 10
12253.45460744111
 20
4150.8352945090801
 30
0.0
 11
12560.254607441109
 21
4150.8352945090801
 31
0.0
  0
LINE
  5
458A
  8
1
 10
12253.45460744111
 20
4147.6352945090803
 30
0.0
 11
12603.45460744111
 21
4147.6352945090803
 31
0.0
  0
LINE
  5
458B
  8
2
 10
12836.46659157682
 20
4502.6352945090794
 30
0.0
 11
12223.06648687453
 21
4502.6352945090794
 31
0.0
  0
LINE
  5
458C
  8
1
 10
12572.454607441099
 20
4707.6352945090803
 30
0.0
 11
12381.892624233151
 21
4502.6352945090794
 31
0.0
  0
LINE
  5
458D
  8
1
 10
12437.45460744111
 20
4602.6352945090794
 30
0.0
 11
12474.84968921264
 21
4602.6352945090794
 31
0.0
  0
LINE
  5
458E
  8
FUTO
 10
12383.254607441109
 20
4502.6352945090794
 30
0.0
 11
12253.45460744111
 21
4150.8352945090801
 31
0.0
  0
LINE
  5
458F
  8
FUTO
 10
12253.45460744111
 20
4147.6352945090803
 30
0.0
 11
12253.45460744111
 21
4150.8352945090801
 31
0.0
  0
LINE
  5
4590
  8
1
 10
12314.45460744111
 20
4406.6352945090784
 30
0.0
 11
12314.45460744111
 21
4601.9352945090814
 31
0.0
  0
LINE
  5
4591
  8
1
 10
12354.45460744111
 20
4603.4352945090804
 30
0.0
 11
12354.45460744111
 21
4452.6352945090794
 31
0.0
  0
LINE
  5
4592
  8
1
 10
12264.45460744111
 20
4419.0823945090797
 30
0.0
 11
12264.45460744111
 21
4586.2161945090802
 31
0.0
  0
LINE
  5
4593
  8
FUTO
 10
12312.93149041713
 20
4311.7736236871306
 30
0.0
 11
12265.33366662168
 21
4399.1467877016212
 31
0.0
  0
LINE
  5
4594
  8
1
 10
12314.45460744111
 20
4406.6352945090784
 30
0.0
 11
12265.86790744111
 21
4417.324394509079
 31
0.0
  0
LINE
  5
4595
  8
FUTO
 10
12257.254607441109
 20
4401.546787701619
 30
0.0
 11
12346.00847591881
 21
4401.546787701619
 31
0.0
  0
LINE
  5
4596
  8
FUTO
 10
12257.254607441109
 20
4399.1467877016212
 30
0.0
 11
12345.124194228671
 21
4399.1467877016166
 31
0.0
  0
LINE
  5
4597
  8
FUTO
 10
12252.45460744111
 20
4373.9467877016223
 30
0.0
 11
12252.45460744111
 21
4396.7467877016197
 31
0.0
  0
LINE
  5
4598
  8
FUTO
 10
12254.85460744111
 20
4373.9467877016223
 30
0.0
 11
12254.85460744111
 21
4396.7467877016197
 31
0.0
  0
ARC
  5
4599
  8
FUTO
 10
12257.254607441109
 20
4396.7467877016197
 30
0.0
 40
4.7999999999999998
 50
89.999999999999986
 51
180.0
  0
ARC
  5
459A
  8
FUTO
 10
12257.254607441109
 20
4396.7467877016197
 30
0.0
 40
2.3999999999999999
 50
89.999999999999986
 51
180.0
  0
LINE
  5
459B
  8
FUTO
 10
12252.45460744111
 20
4373.9467877016223
 30
0.0
 11
12254.85460744111
 21
4373.9467877016223
 31
0.0
  0
ARC
  5
459C
  8
1
 10
12266.254407441111
 20
4419.0821945090802
 30
0.0
 40
1.7998000000000001
 50
179.9961000000213
 51
257.59830000000699
  0
LINE
  5
459D
  8
1
 10
12340.45460744111
 20
4405.6352945090794
 30
0.0
 11
12340.45460744111
 21
4443.6352945090794
 31
0.0
  0
ARC
  5
459E
  8
1
 10
12315.4547074411
 20
4406.6352945090784
 30
0.0
 40
1.0000999999999991
 50
180.0
 51
269.99650000001031
  0
LINE
  5
459F
  8
1
 10
12340.45460744111
 20
4405.6352945090794
 30
0.0
 11
12315.45460744111
 21
4405.6352945090794
 31
0.0
  0
LINE
  5
45A0
  8
1
 10
12340.35510744111
 20
4417.6352945090794
 30
0.0
 11
12351.936297581949
 21
4417.6352945090794
 31
0.0
  0
LINE
  5
45A1
  8
1
 10
12340.45460744111
 20
4443.6352945090794
 30
0.0
 11
12354.45460744111
 21
4452.6352945090794
 31
0.0
  0
LINE
  5
45A2
  8
1
 10
12314.45460744111
 20
4599.6352945090794
 30
0.0
 11
12265.83450744111
 21
4587.9664945090799
 31
0.0
  0
ARC
  5
45A3
  8
1
 10
12266.25450744111
 20
4586.2162945090786
 30
0.0
 40
1.7999000000000001
 50
103.4933999999954
 51
180.0018999999831
  0
LINE
  5
45A4
  8
1
 10
12354.286307441111
 20
4589.0759945090804
 30
0.0
 11
12362.11490744111
 21
4602.6352945090794
 31
0.0
  0
ARC
  5
45A5
  8
1
 10
12315.95460744111
 20
4601.9352945090814
 30
0.0
 40
1.5
 50
89.999999999999986
 51
180.0
  0
LINE
  5
45A6
  8
1
 10
12354.45460744111
 20
4603.4352945090804
 30
0.0
 11
12315.95460744111
 21
4603.4352945090804
 31
0.0
  0
LINE
  5
45A7
  8
1
 10
12437.45460744111
 20
4602.6352945090794
 30
0.0
 11
12362.11490744111
 21
4602.6352945090794
 31
0.0
  0
POLYLINE
  5
45A8
  8
1
 66
     1
 10
0.0
 20
0.0
 30
0.0
  0
VERTEX
  5
6CBB
  8
1
 10
12563.45460744111
 20
4697.9534053466141
 30
0.0
  0
VERTEX
  5
6CBC
  8
1
 10
12563.45460744111
 20
4502.6352945090794
 30
0.0
  0
VERTEX
  5
6CBD
  8
1
 10
12563.45460744111
 20
4147.6352945090803
 30
0.0
  0
SEQEND
  5
6CBE
  8
1
  0
POLYLINE
  5
45AA
  8
1
 66
     1
 10
0.0
 20
0.0
 30
0.0
  0
VERTEX
  5
6CBF
  8
1
 10
12560.254607441109
 20
4694.5109558666236
 30
0.0
  0
VERTEX
  5
6CC0
  8
1
 10
12560.254607441109
 20
4147.6352945090803
 30
0.0
  0
SEQEND
  5
6CC1
  8
1
  0
POLYLINE
  5
45AB
  8
1
 66
     1
 10
0.0
 20
0.0
 30
0.0
  0
VERTEX
  5
6CC2
  8
1
 10
12603.45460744111
 20
4150.8352945090801
 30
0.0
  0
VERTEX
  5
6CC3
  8
1
 10
12603.45460744111
 20
4147.6352945090794
 30
0.0
  0
SEQEND
  5
6CC4
  8
1
  0
LINE
  5
45AC
  8
1
 10
12563.45460744111
 20
4150.8352945090801
 30
0.0
 11
12603.45460744111
 21
4150.8352945090801
 31
0.0
  0
DIMENSION
  5
45AE
  8
SP
  2
*D11
 10
12989.08540090229
 20
4345.1352945090803
 30
0.0
 11
12951.58540090229
 21
4502.6352945090812
 31
0.0
 70
     0
 13
12805.45460744111
 23
4660.1352945090794
 33
0.0
 14
12805.45460744111
 24
4345.1352945090803
 34
0.0
 50
90.0
1001
ACAD
1000
DSTYLE
1002
{
1070
     3
1000
φ<>
1002
}
  0
LINE
  5
45AF
  8
1
 10
12572.45460744111
 20
4802.6352945090812
 30
0.0
 11
12572.45460744111
 21
4294.6352945090766
 31
0.0
  0
LINE
  5
45B0
  8
1
 10
12796.454607441099
 20
4802.6352945090812
 30
0.0
 11
12796.45460744111
 21
4294.6352945090784
 31
0.0
  0
LINE
  5
45B2
  8
1
 10
12587.45460744111
 20
4279.6352945090766
 30
0.0
 11
12781.45460744111
 21
4279.6352945090794
 31
0.0
  0
ARC
  5
45B4
  8
1
 10
12564.45460744111
 20
4321.1352945090794
 30
0.0
 40
1.0
 50
180.0
 51
270.0
  0
LINE
  5
45B5
  8
1
 10
12571.45460744111
 20
4320.1352945090794
 30
0.0
 11
12564.45460744111
 21
4320.1352945090794
 31
0.0
  0
LINE
  5
45C4
  8
1
 10
12570.45460744111
 20
4685.1352945090803
 30
0.0
 11
12564.45460744111
 21
4685.1352945090803
 31
0.0
  0
ARC
  5
45C5
  8
1
 10
12570.45460744111
 20
4686.1352945090784
 30
0.0
 40
1.0
 50
270.0
 51
0.0
  0
ARC
  5
45C6
  8
1
 10
12564.45460744111
 20
4684.1352945090784
 30
0.0
 40
1.0
 50
89.999999999999986
 51
180.0
  0
LINE
  5
45C7
  8
1
 10
12798.45460744111
 20
4685.1352945090803
 30
0.0
 11
12804.45460744111
 21
4685.1352945090803
 31
0.0
  0
ARC
  5
45C9
  8
1
 10
12798.45460744111
 20
4686.1352945090784
 30
0.0
 40
1.0
 50
180.0
 51
270.0
  0
ARC
  5
45CB
  8
1
 10
12804.45460744111
 20
4684.1352945090784
 30
0.0
 40
1.0
 50
0.0
 51
89.999999999999986
  0
DIMENSION
  5
45CE
  8
SP
  2
*D8
 10
12796.454607441099
 20
4933.6352945090748
 30
0.0
 11
12684.454607441099
 21
4971.1352945090748
 31
0.0
 70
     0
 13
12572.45460744111
 23
4802.6352945090812
 33
0.0
 14
12796.454607441099
 24
4802.6352945090812
 34
0.0
  0
LINE
  5
45CF
  8
FUTO
 10
12576.45460744111
 20
4839.1352945090748
 30
0.0
 11
12792.45460744111
 21
4839.1352945090748
 31
0.0
  0
ARC
  5
45D1
  8
FUTO
 10
12576.45460744111
 20
4814.1352945090748
 30
0.0
 40
25.0
 50
90.0
 51
180.0
  0
ARC
  5
45D3
  8
FUTO
 10
12792.45460744111
 20
4814.1352945090748
 30
0.0
 40
25.0
 50
0.0
 51
90.000000000001037
  0
LINE
  5
4653
  8
FUTO
 10
12587.45460744111
 20
4817.6352945090812
 30
0.0
 11
12781.454607441099
 21
4817.6352945090812
 31
0.0
  0
ARC
  5
4669
  8
FUTO
 10
12587.45460744111
 20
4802.6352945090812
 30
0.0
 40
15.0
 50
90.0
 51
180.0
  0
ARC
  5
466A
  8
FUTO
 10
12781.454607441099
 20
4802.6352945090812
 30
0.0
 40
15.0
 50
0.0000000000010178
 51
90.0
  0
ARC
  5
467D
  8
1
 10
12587.45460744111
 20
4294.6352945090766
 30
0.0
 40
15.0
 50
180.0000000000002
 51
270.00000000000023
  0
ARC
  5
467E
  8
1
 10
12781.45460744111
 20
4294.6352945090784
 30
0.0
 40
15.0
 50
270.00000000000023
 51
0.0000000000010178
  0
LINE
  5
4BF0
  8
1
 10
11125.05558752166
 20
5987.3629352201669
 30
0.0
 11
11125.05558752166
 21
5721.3629352201679
 31
0.0
  0
LINE
  5
4BF1
  8
1
 10
11145.05558752166
 20
5948.5629352201704
 30
0.0
 11
11145.05558752166
 21
5760.1629352201689
 31
0.0
  0
LINE
  5
4BF2
  8
1
 10
11126.25558752166
 20
5987.3629352201679
 30
0.0
 11
11126.25558752166
 21
5721.3629352201679
 31
0.0
  0
LINE
  5
4BF3
  8
2
 10
11375.05558752166
 20
5368.1829085449044
 30
0.0
 11
11375.05558752166
 21
5995.3642876661352
 31
0.0
  0
LINE
  5
4BF4
  8
1
 10
11639.05558752166
 20
5952.3629352201679
 30
0.0
 11
11639.05558752166
 21
5756.3629352201688
 31
0.0
  0
LINE
  5
4BF7
  8
1
 10
11125.05558752166
 20
5741.3629352201688
 30
0.0
 11
11375.05558752166
 21
5741.3629352201688
 31
0.0
  0
POLYLINE
  5
4BF8
  8
1
 66
     1
 10
0.0
 20
0.0
 30
0.0
  0
VERTEX
  5
6CC5
  8
1
 10
11193.55558752166
 20
5733.3629352201688
 30
0.0
  0
VERTEX
  5
6CC6
  8
1
 10
11375.05558752166
 20
5733.3629352201688
 30
0.0
  0
VERTEX
  5
6CC7
  8
1
 10
11395.38589030149
 20
5733.3629352201688
 30
0.0
  0
SEQEND
  5
6CC8
  8
1
  0
LINE
  5
4BF9
  8
2
 10
11700.418716367571
 20
5854.3629352201688
 30
0.0
 11
11077.43403925518
 21
5854.3629352201688
 31
0.0
1001
ACAD
1000
ASC_BOUNDS
1002
{
1070
    19
1005
0
1005
0
1002
}
  0
LINE
  5
4C03
  8
1
 10
11126.25558752166
 20
5741.3629352201688
 30
0.0
 11
11145.05558752166
 21
5760.1629352201689
 31
0.0
  0
LINE
  5
4C04
  8
1
 10
11194.55558752166
 20
5734.3629352201679
 30
0.0
 11
11222.256289181099
 21
5734.3629352201679
 31
0.0
  0
ARC
  5
4C05
  8
1
 10
11195.401007333679
 20
5774.936788372067
 30
0.0
 40
48.656384192584412
 50
303.50003366526448
 51
316.3683487231641
  0
LINE
  5
4C07
  8
1
 10
11125.05558752166
 20
5721.3629352201679
 30
0.0
 11
11126.25558752166
 21
5721.3629352201679
 31
0.0
1001
ACAD
1000
ASC_BOUNDS
1002
{
1070
    19
1002
}
  0
ARC
  5
4C0B
  8
1
 10
11191.555587521671
 20
5740.3629352201688
 30
0.0
 40
1.0
 50
0.000000000000007
 51
90.0
  0
LINE
  5
4C0C
  8
1
 10
11192.555587521671
 20
5740.3629352201688
 30
0.0
 11
11192.55558752166
 21
5734.3629352201679
 31
0.0
  0
LINE
  5
4C0D
  8
1
 10
11193.55558752166
 20
5741.3629352201688
 30
0.0
 11
11193.55558752166
 21
5735.3629352201688
 31
0.0
  0
ARC
  5
4C0E
  8
1
 10
11193.55558752166
 20
5734.3629352201679
 30
0.0
 40
1.0
 50
180.0
 51
270.0
  0
ARC
  5
4C0F
  8
1
 10
11194.55558752166
 20
5735.3629352201688
 30
0.0
 40
1.0
 50
180.0
 51
270.0
  0
ARC
  5
4C10
  8
1
 10
11193.55558752166
 20
5734.3629352201679
 30
0.0
 40
1.0
 50
180.0
 51
270.0
  0
LINE
  5
4C11
  8
1
 10
11475.055587521671
 20
5532.0232352201701
 30
0.0
 11
11475.055587521671
 21
5682.7026352201692
 31
0.0
  0
LINE
  5
4C12
  8
1
 10
11275.055587521671
 20
5682.7026352201692
 30
0.0
 11
11275.055587521671
 21
5532.0232352201701
 31
0.0
  0
LINE
  5
4C16
  8
1
 10
11472.055587521671
 20
5484.3629352201679
 30
0.0
 11
11460.386787521669
 21
5435.7428352201678
 31
0.0
  0
LINE
  5
4C18
  8
1
 10
11278.055587521671
 20
5484.3629352201679
 30
0.0
 11
11289.72438752167
 21
5435.7428352201678
 31
0.0
  0
ARC
  5
4C19
  8
1
 10
11458.636587521671
 20
5436.1628352201687
 30
0.0
 40
1.7999000000000001
 50
269.99810000000048
 51
346.50660000000221
  0
ARC
  5
4C1A
  8
1
 10
11291.47458752167
 20
5436.1628352201687
 30
0.0
 40
1.7999000000000001
 50
193.49339999999771
 51
270.0018999999993
  0
LINE
  5
4C1B
  8
1
 10
11291.50268752167
 20
5434.3629352201679
 30
0.0
 11
11458.63648752167
 21
5434.3629352201679
 31
0.0
  0
LINE
  5
4C1C
  8
1
 10
11291.502687521661
 20
5434.3629352201679
 30
0.0
 11
11458.63648752166
 21
5434.3629352201679
 31
0.0
  0
LINE
  5
4C20
  8
1
 10
11461.49628752167
 20
5524.1946352201694
 30
0.0
 11
11475.055587521671
 21
5532.0232352201701
 31
0.0
  0
LINE
  5
4C21
  8
1
 10
11279.055587521671
 20
5484.3629352201679
 30
0.0
 11
11474.35558752167
 21
5484.3629352201679
 31
0.0
  0
LINE
  5
4C22
  8
1
 10
11475.85558752167
 20
5524.3629352201679
 30
0.0
 11
11274.255587521669
 21
5524.3629352201679
 31
0.0
  0
LINE
  5
4C23
  8
1
 10
11274.255587521669
 20
5524.3629352201679
 30
0.0
 11
11274.255587521669
 21
5485.8629352201679
 31
0.0
  0
ARC
  5
4C24
  8
1
 10
11275.755587521669
 20
5485.8629352201679
 30
0.0
 40
1.5
 50
180.0
 51
270.0
  0
LINE
  5
4C25
  8
1
 10
11288.61488752167
 20
5524.1946352201694
 30
0.0
 11
11275.055587521671
 21
5532.0232352201701
 31
0.0
  0
LINE
  5
4C27
  8
1
 10
11475.85558752167
 20
5524.3629352201679
 30
0.0
 11
11475.85558752167
 21
5485.8629352201679
 31
0.0
  0
ARC
  5
4C28
  8
1
 10
11474.35558752167
 20
5485.8629352201679
 30
0.0
 40
1.5
 50
270.0
 51
0.000000000000007
  0
ARC
  5
4C29
  8
1
 10
11624.05558752166
 20
5756.3629352201688
 30
0.0
 40
15.0
 50
270.0
 51
0.000000000000007
  0
LINE
  5
4C2A
  8
1
 10
11475.055587521671
 20
5682.7026352201692
 30
0.0
 11
11460.055587521671
 21
5691.3629352201688
 31
0.0
  0
POLYLINE
  5
4C2C
  8
1
 66
     1
 10
0.0
 20
0.0
 30
0.0
  0
VERTEX
  5
6CC9
  8
1
 10
11395.38589030149
 20
5733.3629352201688
 30
0.0
  0
VERTEX
  5
6CCA
  8
1
 10
11556.55558752166
 20
5733.3629352201688
 30
0.0
  0
SEQEND
  5
6CCB
  8
1
  0
LINE
  5
4C2D
  8
1
 10
11375.05558752166
 20
5741.3629352201724
 30
0.0
 11
11624.05558752166
 21
5741.3629352201688
 31
0.0
  0
LINE
  5
4C2E
  8
1
 10
11460.055587521671
 20
5691.3629352201688
 30
0.0
 11
11460.055587521671
 21
5709.0906146535881
 31
0.0
  0
LINE
  5
4C2F
  8
1
 10
11460.055587521671
 20
5694.3629352201688
 30
0.0
 11
11460.055587521671
 21
5691.3629352201688
 31
0.0
  0
ARC
  5
4C30
  8
1
 10
11457.05568752167
 20
5709.0906146535881
 30
0.0
 40
2.9998999999999989
 50
359.99880000000292
 51
90.001200000000338
  0
LINE
  5
4C31
  8
1
 10
11338.055587521671
 20
5718.0906146535881
 30
0.0
 11
11412.055587521671
 21
5718.0906146535881
 31
0.0
  0
ARC
  5
4C32
  8
1
 10
11412.05568752167
 20
5715.0906146535881
 30
0.0
 40
2.9998999999999989
 50
359.99880000000292
 51
90.001200000000338
  0
LINE
  5
4C33
  8
1
 10
11415.055587521671
 20
5712.0906146535881
 30
0.0
 11
11415.055587521671
 21
5715.0906146535881
 31
0.0
  0
LINE
  5
4C34
  8
1
 10
11360.455687521669
 20
5718.0906146535881
 30
0.0
 11
11360.455687521669
 21
5741.3629352201688
 31
0.0
  0
LINE
  5
4C35
  8
1
 10
11389.655587521671
 20
5718.0906146535881
 30
0.0
 11
11389.655587521671
 21
5741.3629352201724
 31
0.0
  0
LINE
  5
4C36
  8
1
 10
11290.055587521671
 20
5691.3629352201688
 30
0.0
 11
11290.055587521671
 21
5709.0906146535881
 31
0.0
  0
LINE
  5
4C37
  8
1
 10
11290.055587521671
 20
5694.3629352201688
 30
0.0
 11
11290.055587521671
 21
5691.3629352201688
 31
0.0
  0
LINE
  5
4C38
  8
1
 10
11275.055587521671
 20
5682.7026352201692
 30
0.0
 11
11290.055587521671
 21
5691.3629352201688
 31
0.0
  0
ARC
  5
4C39
  8
1
 10
11293.055487521669
 20
5709.0906146535881
 30
0.0
 40
2.9998999999999989
 50
89.998799999999676
 51
180.00119999999711
  0
LINE
  5
4C3A
  8
1
 10
11335.055587521671
 20
5712.0906146535881
 30
0.0
 11
11335.055587521671
 21
5715.0906146535881
 31
0.0
  0
ARC
  5
4C3B
  8
1
 10
11338.055587521671
 20
5715.0906146535881
 30
0.0
 40
2.9998999999999989
 50
89.998799999999676
 51
180.00119999999711
  0
LINE
  5
4C3C
  8
1
 10
11290.055587521671
 20
5691.3629352201688
 30
0.0
 11
11460.055587521671
 21
5691.3629352201688
 31
0.0
  0
LINE
  5
4C3D
  8
1
 10
11457.055587521671
 20
5712.0906146535881
 30
0.0
 11
11293.055587521671
 21
5712.0906146535881
 31
0.0
  0
ARC
  5
4C42
  8
1
 10
11554.71016770966
 20
5774.936788372067
 30
0.0
 40
48.656384192584412
 50
223.63165127683581
 51
236.4999663347354
  0
ARC
  5
4C43
  8
1
 10
11555.55558752166
 20
5735.3629352201688
 30
0.0
 40
1.0
 50
270.0
 51
0.000000000000007
  0
ARC
  5
4C44
  8
1
 10
11556.55558752166
 20
5734.3629352201679
 30
0.0
 40
1.0
 50
270.0
 51
0.000000000000007
  0
LINE
  5
4C45
  8
1
 10
11556.555587521671
 20
5741.362935220166
 30
0.0
 11
11556.55558752166
 21
5735.3629352201669
 31
0.0
  0
LINE
  5
4C46
  8
1
 10
11557.55558752166
 20
5740.3629352201688
 30
0.0
 11
11557.55558752166
 21
5734.3629352201669
 31
0.0
  0
ARC
  5
4C47
  8
1
 10
11558.55558752166
 20
5740.3629352201688
 30
0.0
 40
1.0
 50
90.0
 51
180.0
  0
LINE
  5
4C48
  8
1
 10
11555.55558752166
 20
5734.3629352201669
 30
0.0
 11
11527.854885862231
 21
5734.3629352201679
 31
0.0
  0
POLYLINE
  5
4C49
  8
1
 66
     1
 10
0.0
 20
0.0
 30
0.0
  0
VERTEX
  5
6CCC
  8
1
 10
11193.55558752166
 20
5975.3629352201688
 30
0.0
  0
VERTEX
  5
6CCD
  8
1
 10
11375.05558752166
 20
5975.3629352201688
 30
0.0
  0
VERTEX
  5
6CCE
  8
1
 10
11395.38589030149
 20
5975.3629352201688
 30
0.0
  0
SEQEND
  5
6CCF
  8
1
  0
LINE
  5
4C4A
  8
1
 10
11125.05558752166
 20
5967.3629352201688
 30
0.0
 11
11375.05558752166
 21
5967.3629352201688
 31
0.0
  0
LINE
  5
4C4B
  8
1
 10
11194.55558752166
 20
5974.3629352201688
 30
0.0
 11
11222.256289181099
 21
5974.3629352201688
 31
0.0
  0
ARC
  5
4C4C
  8
1
 10
11195.401007333679
 20
5933.7890820682705
 30
0.0
 40
48.656384192584412
 50
43.631651276835889
 51
56.49996633473549
  0
ARC
  5
4C4D
  8
1
 10
11193.55558752166
 20
5974.3629352201688
 30
0.0
 40
1.0
 50
89.999999999999986
 51
180.0
  0
ARC
  5
4C4E
  8
1
 10
11194.55558752166
 20
5973.3629352201688
 30
0.0
 40
1.0
 50
89.999999999999986
 51
180.0
  0
ARC
  5
4C4F
  8
1
 10
11193.55558752166
 20
5974.3629352201688
 30
0.0
 40
1.0
 50
89.999999999999986
 51
180.0
  0
LINE
  5
4C50
  8
1
 10
11193.55558752166
 20
5967.3629352201688
 30
0.0
 11
11193.55558752166
 21
5973.3629352201688
 31
0.0
  0
LINE
  5
4C51
  8
1
 10
11192.555587521671
 20
5968.3629352201688
 30
0.0
 11
11192.55558752166
 21
5974.3629352201688
 31
0.0
  0
ARC
  5
4C52
  8
1
 10
11191.555587521671
 20
5968.3629352201688
 30
0.0
 40
1.0
 50
270.0
 51
0.000000000000007
  0
LINE
  5
4C53
  8
1
 10
11125.05558752166
 20
5987.3629352201679
 30
0.0
 11
11126.25558752166
 21
5987.3629352201679
 31
0.0
1001
ACAD
1000
ASC_BOUNDS
1002
{
1070
    19
1002
}
  0
LINE
  5
4C54
  8
1
 10
11126.25558752166
 20
5967.3629352201688
 30
0.0
 11
11145.05558752166
 21
5948.5629352201704
 31
0.0
  0
POLYLINE
  5
4C55
  8
1
 66
     1
 10
0.0
 20
0.0
 30
0.0
  0
VERTEX
  5
6CD0
  8
1
 10
11395.38589030149
 20
5975.3629352201688
 30
0.0
  0
VERTEX
  5
6CD1
  8
1
 10
11556.55558752166
 20
5975.3629352201688
 30
0.0
  0
SEQEND
  5
6CD2
  8
1
  0
LINE
  5
4C56
  8
1
 10
11375.05558752166
 20
5967.3629352201669
 30
0.0
 11
11624.05558752166
 21
5967.3629352201688
 31
0.0
  0
LINE
  5
4C57
  8
1
 10
11555.55558752166
 20
5974.3629352201697
 30
0.0
 11
11527.854885862231
 21
5974.3629352201688
 31
0.0
  0
ARC
  5
4C58
  8
1
 10
11558.55558752166
 20
5968.3629352201688
 30
0.0
 40
1.0
 50
180.0
 51
270.0
  0
LINE
  5
4C59
  8
1
 10
11557.55558752166
 20
5968.3629352201688
 30
0.0
 11
11557.55558752166
 21
5974.3629352201697
 31
0.0
  0
LINE
  5
4C5A
  8
1
 10
11556.555587521671
 20
5967.3629352201706
 30
0.0
 11
11556.55558752166
 21
5973.3629352201706
 31
0.0
  0
ARC
  5
4C5B
  8
1
 10
11556.55558752166
 20
5974.3629352201688
 30
0.0
 40
1.0
 50
0.000000000000007
 51
89.999999999999986
  0
ARC
  5
4C5C
  8
1
 10
11555.55558752166
 20
5973.3629352201688
 30
0.0
 40
1.0
 50
0.000000000000007
 51
89.999999999999986
  0
ARC
  5
4C5D
  8
1
 10
11554.71016770966
 20
5933.7890820682705
 30
0.0
 40
48.656384192584412
 50
123.5000336652644
 51
136.3683487231641
  0
ARC
  5
4C5E
  8
1
 10
11624.05558752166
 20
5952.3629352201679
 30
0.0
 40
15.0
 50
0.000000000000007
 51
90.0
  0
ARC
  5
4E35
  8
FUTO
 10
12792.45460744111
 20
4506.1352945090757
 30
0.0
 40
25.0
 50
301.3322514975946
 51
359.9999999999979
  0
LINE
  5
570C
  8
FUTO
 10
11125.055587521691
 20
4147.6352945090794
 30
0.0
 11
11625.055587521671
 21
4147.6352945090794
 31
0.0
  0
LINE
  5
570D
  8
1
 10
11125.055587521691
 20
4149.9352945090777
 30
0.0
 11
11162.755587521689
 21
4149.9352945090777
 31
0.0
  0
LINE
  5
570E
  8
1
 10
11125.055587521691
 20
4149.9352945090777
 30
0.0
 11
11125.055587521691
 21
4147.6352945090794
 31
0.0
  0
LINE
  5
570F
  8
2
 10
11143.05558752168
 20
4129.4484132242542
 30
0.0
 11
11143.05558752168
 21
4161.1393061729123
 31
0.0
  0
LINE
  5
5710
  8
1
 10
11625.055587521671
 20
4149.9352945090777
 30
0.0
 11
11587.35558752167
 21
4149.9352945090777
 31
0.0
  0
LINE
  5
5711
  8
1
 10
11625.055587521671
 20
4149.9352945090777
 30
0.0
 11
11625.055587521671
 21
4147.6352945090794
 31
0.0
  0
LINE
  5
5712
  8
2
 10
11607.05558752168
 20
4129.4484132242542
 30
0.0
 11
11607.05558752168
 21
4161.1393061729123
 31
0.0
  0
LINE
  5
5713
  8
1
 10
11587.35558752167
 20
4585.7352945090788
 30
0.0
 11
11587.35558752167
 21
4149.9352945090759
 31
0.0
  0
LINE
  5
5714
  8
1
 10
11585.055587521671
 20
4587.5576166677056
 30
0.0
 11
11585.055587521671
 21
4147.6352945090794
 31
0.0
  0
LINE
  5
5715
  8
1
 10
11545.055587521671
 20
4402.6352945090794
 30
0.0
 11
11545.055587521671
 21
4202.6352945090794
 31
0.0
  0
LINE
  5
5716
  8
1
 10
11585.055587521671
 20
4202.6352945090794
 30
0.0
 11
11545.055587521671
 21
4202.6352945090794
 31
0.0
  0
LINE
  5
5717
  8
1
 10
11165.055587521691
 20
4587.5576166677056
 30
0.0
 11
11165.055587521691
 21
4147.6352945090794
 31
0.0
  0
LINE
  5
5718
  8
1
 10
11162.755587521689
 20
4585.7352945090788
 30
0.0
 11
11162.755587521689
 21
4149.9352945090759
 31
0.0
  0
LINE
  5
5719
  8
1
 10
11205.055587521691
 20
4402.6352945090794
 30
0.0
 11
11205.055587521691
 21
4202.6352945090794
 31
0.0
  0
LINE
  5
571A
  8
1
 10
11165.055587521691
 20
4202.6352945090794
 30
0.0
 11
11205.055587521691
 21
4202.6352945090794
 31
0.0
  0
LINE
  5
571B
  8
1
 10
11165.055587521691
 20
4402.6352945090794
 30
0.0
 11
11585.055587521671
 21
4402.6352945090766
 31
0.0
  0
LINE
  5
571C
  8
1
 10
11205.055587521691
 20
4362.6352945090794
 30
0.0
 11
11375.05558752168
 21
4362.6352945090794
 31
0.0
  0
LINE
  5
571D
  8
FUTO
 10
11165.055587521691
 20
4402.6352945090794
 30
0.0
 11
11205.055587521691
 21
4362.6352945090794
 31
0.0
  0
LINE
  5
571E
  8
FUTO
 10
11585.055587521671
 20
4402.6352945090794
 30
0.0
 11
11545.055587521671
 21
4362.6352945090794
 31
0.0
  0
LINE
  5
571F
  8
1
 10
11545.055587521671
 20
4362.6352945090794
 30
0.0
 11
11375.05558752168
 21
4362.6352945090794
 31
0.0
  0
LINE
  5
5720
  8
1
 10
11465.055587521671
 20
4707.6352945090803
 30
0.0
 11
11587.35558752167
 21
4585.7352945090788
 31
0.0
  0
LINE
  5
5721
  8
1
 10
11285.055587521671
 20
4707.6352945090803
 30
0.0
 11
11162.755587521689
 21
4585.7352945090788
 31
0.0
  0
LINE
  5
5722
  8
1
 10
11285.055587521671
 20
4707.6352945090803
 30
0.0
 11
11465.055587521671
 21
4707.6352945090803
 31
0.0
  0
LINE
  5
5934
  8
1
 10
11125.05558752166
 20
5422.3629352201688
 30
0.0
 11
11125.05558752166
 21
5732.3629352201797
 31
0.0
  0
LINE
  5
5935
  8
1
 10
11165.05558752166
 20
5422.3629352201688
 30
0.0
 11
11165.05558752166
 21
5732.3629352201797
 31
0.0
  0
LINE
  5
5936
  8
1
 10
11165.05558752166
 20
5732.3629352201797
 30
0.0
 11
11125.05558752166
 21
5732.3629352201797
 31
0.0
  0
POLYLINE
  5
593A
  8
1
 66
     1
 10
0.0
 20
0.0
 30
0.0
  0
VERTEX
  5
6CD3
  8
1
 10
11165.05558752166
 20
5722.8669718708852
 30
0.0
  0
VERTEX
  5
6CD4
  8
1
 10
11360.455587521659
 20
5722.8669718708852
 30
0.0
  0
SEQEND
  5
6CD5
  8
1
  0
POLYLINE
  5
593B
  8
1
 66
     1
 10
0.0
 20
0.0
 30
0.0
  0
VERTEX
  5
6CD6
  8
1
 10
11165.05558752166
 20
5470.7629352201711
 30
0.0
  0
VERTEX
  5
6CD7
  8
1
 10
11281.319580808389
 20
5470.7629352201711
 30
0.0
  0
SEQEND
  5
6CD8
  8
1
  0
LINE
  5
593D
  8
1
 10
11125.05558752166
 20
5422.3629352201688
 30
0.0
 11
11165.05558752166
 21
5422.3629352201688
 31
0.0
  0
POLYLINE
  5
5940
  8
1
 66
     1
 10
0.0
 20
0.0
 30
0.0
  0
VERTEX
  5
6CD9
  8
1
 10
11468.79159423493
 20
5470.7629352201711
 30
0.0
  0
VERTEX
  5
6CDA
  8
1
 10
11585.05558752166
 20
5470.7629352201684
 30
0.0
  0
SEQEND
  5
6CDB
  8
1
  0
LINE
  5
5942
  8
1
 10
11585.05558752166
 20
5422.3629352201724
 30
0.0
 11
11625.05558752166
 21
5422.3629352201688
 31
0.0
  0
LINE
  5
5945
  8
1
 10
11625.05558752166
 20
5422.3629352201688
 30
0.0
 11
11625.05558752166
 21
5732.3629352201688
 31
0.0
  0
LINE
  5
5946
  8
1
 10
11585.05558752166
 20
5422.3629352201688
 30
0.0
 11
11585.05558752166
 21
5732.3629352201688
 31
0.0
  0
LINE
  5
5949
  8
FUTO
 10
11585.05558752166
 20
5732.3629352201688
 30
0.0
 11
11625.055587521671
 21
5732.3629352201688
 31
0.0
  0
POLYLINE
  5
594A
  8
1
 66
     1
 10
0.0
 20
0.0
 30
0.0
  0
VERTEX
  5
6CDC
  8
1
 10
11389.655487521661
 20
5722.8669718708852
 30
0.0
  0
VERTEX
  5
6CDD
  8
1
 10
11585.05558752166
 20
5722.8669718708852
 30
0.0
  0
SEQEND
  5
6CDE
  8
1
  0
TEXT
  5
6149
  8
4
 10
11590.930335465629
 20
6397.9530537408073
 30
0.0
 40
80.999999999999986
  1
天井吊ベッド型
  0
TEXT
  5
614A
  8
4
 10
12524.12014238468
 20
6397.9530537408073
 30
0.0
 40
80.999999999999986
  1
縮尺：1/15
  0
POLYLINE
  5
61CB
  8
1
 66
     1
 10
0.0
 20
0.0
 30
0.0
  0
VERTEX
  5
6CDF
  8
1
 10
12805.45460744111
 20
4684.1352945090812
 30
0.0
  0
VERTEX
  5
6CE0
  8
1
 10
12805.45460744111
 20
4502.6352945090812
 30
0.0
  0
VERTEX
  5
6CE1
  8
1
 10
12805.45460744111
 20
4321.1352945090821
 30
0.0
  0
SEQEND
  5
6CE2
  8
1
  0
LINE
  5
61CC
  8
1
 10
12798.45460744111
 20
4320.135294509083
 30
0.0
 11
12804.45460744111
 21
4320.135294509083
 31
0.0
  0
ARC
  5
61CD
  8
1
 10
12798.45460744111
 20
4319.1352945090821
 30
0.0
 40
1.0
 50
90.0
 51
180.0
  0
ARC
  5
61CE
  8
1
 10
12804.45460744111
 20
4321.1352945090821
 30
0.0
 40
1.0
 50
270.0
 51
0.0
  0
LINE
  5
61CF
  8
FUTO
 10
12805.45460744111
 20
4345.1352945090803
 30
0.0
 11
12797.454607441099
 21
4345.1352945090803
 31
0.0
  0
LINE
  5
61D0
  8
FUTO
 10
12805.45460744111
 20
4660.1352945090794
 30
0.0
 11
12797.454607441099
 21
4660.1352945090794
 31
0.0
  0
LINE
  5
61D1
  8
1
 10
12798.45460744111
 20
4685.1352945090803
 30
0.0
 11
12804.45460744111
 21
4685.1352945090803
 31
0.0
  0
ARC
  5
61D2
  8
1
 10
12798.45460744111
 20
4686.1352945090803
 30
0.0
 40
1.0
 50
180.0
 51
270.0
  0
ARC
  5
61D3
  8
1
 10
12804.45460744111
 20
4684.1352945090803
 30
0.0
 40
1.0
 50
0.0
 51
90.0
  0
LINE
  5
61D4
  8
1
 10
12587.45460744111
 20
4278.6352945090766
 30
0.0
 11
12781.45460744111
 21
4278.6352945090784
 31
0.0
  0
ARC
  5
61D5
  8
1
 10
12781.45460744111
 20
4294.6352945090784
 30
0.0
 40
16.0
 50
270.00000000000023
 51
0.0000000000010178
  0
LINE
  5
61D6
  8
1
 10
12797.454607441099
 20
4802.6352945090812
 30
0.0
 11
12797.45460744111
 21
4294.6352945090784
 31
0.0
  0
LINE
  5
61D7
  8
1
 10
12571.45460744111
 20
4802.6352945090812
 30
0.0
 11
12571.45460744111
 21
4294.6352945090766
 31
0.0
  0
ARC
  5
61D8
  8
1
 10
12587.45460744111
 20
4294.6352945090766
 30
0.0
 40
16.0
 50
180.0000000000002
 51
270.00000000000023
  0
LINE
  5
61D9
  8
FUTO
 10
12587.45460744111
 20
4818.6352945090812
 30
0.0
 11
12781.454607441099
 21
4818.6352945090812
 31
0.0
  0
ARC
  5
61DA
  8
FUTO
 10
12587.45460744111
 20
4802.6352945090812
 30
0.0
 40
16.0
 50
90.0
 51
180.0
  0
ARC
  5
61DB
  8
FUTO
 10
12781.454607441099
 20
4802.6352945090812
 30
0.0
 40
16.0
 50
0.0000000000010178
 51
90.0
  0
LINE
  5
660A
  8
FUTO
 10
11065.05558752168
 20
4144.6352945090794
 30
0.0
 11
11685.05558752168
 21
4144.6352945090794
 31
0.0
  0
LINE
  5
660B
  8
FUTO
 10
11065.05558752168
 20
4147.6352945090794
 30
0.0
 11
11685.05558752168
 21
4147.6352945090794
 31
0.0
  0
LINE
  5
660C
  8
FUTO
 10
11065.05558752168
 20
4107.6352945090794
 30
0.0
 11
11685.05558752168
 21
4107.6352945090794
 31
0.0
  0
LINE
  5
660D
  8
FUTO
 10
11065.05558752168
 20
4107.6352945090794
 30
0.0
 11
11065.05558752168
 21
4147.6352945090794
 31
0.0
  0
LINE
  5
660E
  8
FUTO
 10
11685.05558752168
 20
4107.6352945090794
 30
0.0
 11
11685.05558752168
 21
4147.6352945090794
 31
0.0
  0
DIMENSION
  5
660F
  8
SP
  2
*D14
 10
11065.05558752168
 20
3897.6352945090789
 30
0.0
 11
11375.05558752168
 21
3935.1352945090789
 31
0.0
 70
     0
 13
11685.05558752168
 23
4107.6352945090794
 33
0.0
 14
11065.05558752168
 24
4107.6352945090794
 34
0.0
  0
DIMENSION
  5
6610
  8
SP
  2
*D15
 10
11685.05558752168
 20
4002.6352945090789
 30
0.0
 11
11530.05558752168
 21
4040.1352945090789
 31
0.0
 70
     0
 13
11375.05558752168
 23
4062.9208645023991
 33
0.0
 14
11685.05558752168
 24
4107.6352945090794
 34
0.0
  0
DIMENSION
  5
6611
  8
SP
  2
*D16
 10
11065.05558752168
 20
4002.6352945090789
 30
0.0
 11
11220.05558752168
 21
4040.1352945090789
 31
0.0
 70
     0
 13
11375.05558752168
 23
4062.9208645023991
 33
0.0
 14
11065.05558752168
 24
4107.6352945090794
 34
0.0
  0
LINE
  5
6864
  8
FUTO
 10
12245.45460744111
 20
4107.6352945090794
 30
0.0
 11
12865.45460744111
 21
4107.6352945090794
 31
0.0
  0
LINE
  5
6865
  8
FUTO
 10
12244.45460744111
 20
4147.6352945090794
 30
0.0
 11
12864.45460744111
 21
4147.6352945090794
 31
0.0
  0
INSERT
  5
6866
  8
FUTO
  2
L-40-3
 10
12864.45460744111
 20
4147.6352945090794
 30
0.0
 50
270.0
  0
LINE
  5
6867
  8
SL
 10
12886.45460744111
 20
4135.5668186442663
 30
0.0
 11
12886.45460744111
 21
4782.3237206356798
 31
0.0
  0
DIMENSION
  5
6868
  8
SP
  2
*D17
 10
12904.45460744111
 20
3897.6352945090789
 30
0.0
 11
12554.45460744111
 21
3935.1352945090789
 31
0.0
 70
     0
 13
12204.45460744111
 23
4147.6352945090794
 33
0.0
 14
12904.45460744111
 24
4147.6352945090794
 34
0.0
  0
DIMENSION
  5
6869
  8
SP
  2
*D18
 10
12904.45460744111
 20
4002.6352945090789
 30
0.0
 11
12794.45460744111
 21
4040.1352945090789
 31
0.0
 70
     0
 13
12684.45460744111
 23
4062.9208645023991
 33
0.0
 14
12904.45460744111
 24
4147.6352945090794
 34
0.0
  0
DIMENSION
  5
686A
  8
SP
  2
*D19
 10
12684.45460744111
 20
4002.6352945090789
 30
0.0
 11
12444.45460744111
 21
4040.1352945090789
 31
0.0
 70
     0
 13
12204.45460744111
 23
4147.6352945090794
 33
0.0
 14
12684.45460744111
 24
4062.9208645023991
 34
0.0
  0
LINE
  5
686B
  8
SL
 10
12222.45460744111
 20
4135.5668186442663
 30
0.0
 11
12222.45460744111
 21
4782.3237206356798
 31
0.0
  0
INSERT
  5
686C
  8
FUTO
  2
L-40-3
 10
12244.45460744111
 20
4147.6352945090794
 30
0.0
 41
-1.0
 50
90.0
  0
LINE
  5
6B04
  8
FUTO
 10
11065.055587521671
 20
5414.3629352201679
 30
0.0
 11
11685.055587521671
 21
5414.3629352201679
 31
0.0
1001
ACAD
1000
ASC_BOUNDS
1002
{
1070
    19
1005
0
1005
0
1002
}
  0
LINE
  5
6B05
  8
FUTO
 10
11065.055587521671
 20
5374.3629352201679
 30
0.0
 11
11685.055587521671
 21
5374.3629352201688
 31
0.0
1001
ACAD
1000
ASC_BOUNDS
1002
{
1070
    19
1005
0
1005
0
1002
}
  0
CIRCLE
  5
6B06
  8
FUTO
 10
11095.055587521671
 20
5392.3629352201679
 30
0.0
 40
6.5
  0
LINE
  5
6B07
  8
CT
 10
11079.36329932503
 20
5392.3629352201679
 30
0.0
 11
11110.055587521671
 21
5392.3629352201679
 31
0.0
  0
LINE
  5
6B08
  8
CT
 10
11095.055587521671
 20
5408.4976431027171
 30
0.0
 11
11095.055587521671
 21
5372.8305635982761
 31
0.0
  0
LINE
  5
6B09
  8
FUTO
 10
11065.055587521671
 20
5374.3629352201679
 30
0.0
 11
11065.055587521671
 21
5414.3629352201679
 31
0.0
  0
LINE
  5
6B0A
  8
CT
 10
11655.055587521671
 20
5408.4976431027171
 30
0.0
 11
11655.055587521671
 21
5372.8305635982761
 31
0.0
  0
LINE
  5
6B0B
  8
FUTO
 10
11685.055587521671
 20
5374.3629352201688
 30
0.0
 11
11685.055587521671
 21
5414.3629352201679
 31
0.0
  0
LINE
  5
6B0C
  8
CT
 10
11639.36329932503
 20
5392.3629352201679
 30
0.0
 11
11670.055587521671
 21
5392.3629352201679
 31
0.0
  0
CIRCLE
  5
6B0D
  8
FUTO
 10
11655.055587521671
 20
5392.3629352201679
 30
0.0
 40
6.5
  0
LINE
  5
6B0E
  8
FUTO
 10
11065.055587521671
 20
6034.3629352201688
 30
0.0
 11
11685.055587521671
 21
6034.3629352201688
 31
0.0
1001
ACAD
1000
ASC_BOUNDS
1002
{
1070
    19
1005
0
1005
0
1002
}
  0
LINE
  5
6B0F
  8
FUTO
 10
11065.055587521671
 20
6074.3629352201679
 30
0.0
 11
11685.055587521671
 21
6074.3629352201697
 31
0.0
1001
ACAD
1000
ASC_BOUNDS
1002
{
1070
    19
1005
0
1005
0
1002
}
  0
CIRCLE
  5
6B10
  8
FUTO
 10
11655.055587521671
 20
6056.3629352201669
 30
0.0
 40
6.5
  0
LINE
  5
6B11
  8
CT
 10
11639.36329932503
 20
6056.3629352201669
 30
0.0
 11
11670.055587521671
 21
6056.3629352201669
 31
0.0
  0
LINE
  5
6B12
  8
CT
 10
11655.055587521671
 20
6040.2282273376177
 30
0.0
 11
11655.055587521671
 21
6075.8953068420597
 31
0.0
  0
LINE
  5
6B13
  8
FUTO
 10
11685.055587521671
 20
6034.3629352201688
 30
0.0
 11
11685.055587521671
 21
6074.3629352201697
 31
0.0
  0
LINE
  5
6B14
  8
1
 10
11125.05558752166
 20
5414.3629352201679
 30
0.0
 11
11125.055587521671
 21
6034.3629352201679
 31
0.0
  0
LINE
  5
6B15
  8
1
 10
11165.05558752166
 20
5414.3629352201679
 30
0.0
 11
11165.05558752166
 21
5741.3629352201697
 31
0.0
  0
LINE
  5
6B16
  8
CT
 10
11095.055587521671
 20
6040.2282273376177
 30
0.0
 11
11095.055587521671
 21
6075.8953068420597
 31
0.0
  0
LINE
  5
6B17
  8
CT
 10
11079.36329932503
 20
6056.3629352201669
 30
0.0
 11
11110.055587521671
 21
6056.3629352201669
 31
0.0
  0
CIRCLE
  5
6B18
  8
FUTO
 10
11095.055587521671
 20
6056.3629352201669
 30
0.0
 40
6.5
  0
LINE
  5
6B19
  8
FUTO
 10
11065.055587521671
 20
6034.3629352201688
 30
0.0
 11
11065.055587521671
 21
6074.3629352201679
 31
0.0
  0
LINE
  5
6B1A
  8
1
 10
11625.05558752166
 20
5414.3629352201679
 30
0.0
 11
11625.05558752166
 21
5741.3963056730727
 31
0.0
  0
LINE
  5
6B1B
  8
1
 10
11585.05558752166
 20
5414.3629352201679
 30
0.0
 11
11585.05558752166
 21
5741.3629352201697
 31
0.0
  0
DIMENSION
  5
6B1C
  8
SP
  2
*D20
 10
11848.167077550601
 20
5374.3629352201688
 30
0.0
 11
11810.667077550601
 21
5724.3629352201697
 31
0.0
 70
     0
 13
11685.055587521671
 23
6074.3629352201697
 33
0.0
 14
11685.055587521671
 24
5374.3629352201688
 34
0.0
 50
90.0
  0
DIMENSION
  5
6B1D
  8
SP
  2
*D21
 10
11065.055587521671
 20
5235.4232802762608
 30
0.0
 11
11375.055587521671
 21
5272.9232802762617
 31
0.0
 70
     0
 13
11685.055587521671
 23
5374.3629352201688
 33
0.0
 14
11065.055587521671
 24
5374.3629352201679
 34
0.0
  0
LINE
  5
6C46
  8
1
 10
11585.05558752166
 20
5967.3629352201697
 30
0.0
 11
11585.05558752166
 21
6034.3629352201679
 31
0.0
  0
LINE
  5
6C47
  8
1
 10
11625.05558752166
 20
5967.3295647672649
 30
0.0
 11
11625.05558752166
 21
6034.3629352201679
 31
0.0
  0
LINE
  5
6C48
  8
1
 10
11165.05558752166
 20
5967.3629352201688
 30
0.0
 11
11165.05558752166
 21
6034.3629352201679
 31
0.0
  0
ENDSEC
  0
EOF
