  0
SECTION
  2
HEADER
  9
$ACADVER
  1
AC1015
  9
$ACADMAINTVER
 70
    20
  9
$DWGCODEPAGE
  3
ANSI_932
  9
$INSBASE
 10
0.0
 20
0.0
 30
0.0
  9
$EXTMIN
 10
-0.1922519409645247
 20
-0.2700682027843868
 30
-0.0000000349181948
  9
$EXTMAX
 10
3150.192281278524
 20
4425.270109415065
 30
0.0000000814935746
  9
$LIMMIN
 10
0.0
 20
0.0
  9
$LIMMAX
 10
297.0
 20
210.0
  9
$ORTHOMODE
 70
     1
  9
$REGENMODE
 70
     1
  9
$FILLMODE
 70
     0
  9
$QTEXTMODE
 70
     0
  9
$MIRRTEXT
 70
     1
  9
$LTSCALE
 40
100.0
  9
$ATTMODE
 70
     1
  9
$TEXTSIZE
 40
180.0
  9
$TRACEWID
 40
0.05
  9
$TEXTSTYLE
  7
STANDARD
  9
$CLAYER
  8
3
  9
$CELTYPE
  6
BYLAYER
  9
$CECOLOR
 62
   256
  9
$CELTSCALE
 40
1.0
  9
$DISPSILH
 70
     0
  9
$DIMSCALE
 40
15.0
  9
$DIMASZ
 40
2.0
  9
$DIMEXO
 40
0.5
  9
$DIMDLI
 40
10.0
  9
$DIMRND
 40
0.0
  9
$DIMDLE
 40
0.0
  9
$DIMEXE
 40
1.0
  9
$DIMTP
 40
1.0
  9
$DIMTM
 40
1.0
  9
$DIMTXT
 40
3.0
  9
$DIMCEN
 40
0.0
  9
$DIMTSZ
 40
0.0
  9
$DIMTOL
 70
     0
  9
$DIMLIM
 70
     0
  9
$DIMTIH
 70
     0
  9
$DIMTOH
 70
     0
  9
$DIMSE1
 70
     0
  9
$DIMSE2
 70
     0
  9
$DIMTAD
 70
     1
  9
$DIMZIN
 70
     8
  9
$DIMBLK
  1

  9
$DIMASO
 70
     1
  9
$DIMSHO
 70
     1
  9
$DIMPOST
  1
(<>)
  9
$DIMAPOST
  1

  9
$DIMALT
 70
     0
  9
$DIMALTD
 70
     2
  9
$DIMALTF
 40
0.039
  9
$DIMLFAC
 40
1.0
  9
$DIMTOFL
 70
     1
  9
$DIMTVP
 40
0.0
  9
$DIMTIX
 70
     0
  9
$DIMSOXD
 70
     0
  9
$DIMSAH
 70
     1
  9
$DIMBLK1
  1
OPEN
  9
$DIMBLK2
  1
OPEN
  9
$DIMSTYLE
  2
IGA
  9
$DIMCLRD
 70
     0
  9
$DIMCLRE
 70
     0
  9
$DIMCLRT
 70
     0
  9
$DIMTFAC
 40
10.0
  9
$DIMGAP
 40
1.0
  9
$DIMJUST
 70
     0
  9
$DIMSD1
 70
     0
  9
$DIMSD2
 70
     0
  9
$DIMTOLJ
 70
     1
  9
$DIMTZIN
 70
     8
  9
$DIMALTZ
 70
     0
  9
$DIMALTTZ
 70
     0
  9
$DIMUPT
 70
     0
  9
$DIMDEC
 70
     0
  9
$DIMTDEC
 70
     0
  9
$DIMALTU
 70
     2
  9
$DIMALTTD
 70
     2
  9
$DIMTXSTY
  7
STANDARD
  9
$DIMAUNIT
 70
     0
  9
$DIMADEC
 70
     0
  9
$DIMALTRND
 40
0.0
  9
$DIMAZIN
 70
     0
  9
$DIMDSEP
 70
    46
  9
$DIMATFIT
 70
     3
  9
$DIMFRAC
 70
     0
  9
$DIMLDRBLK
  1
OPEN
  9
$DIMLUNIT
 70
     2
  9
$DIMLWD
 70
    -2
  9
$DIMLWE
 70
    -2
  9
$DIMTMOVE
 70
     2
  9
$LUNITS
 70
     2
  9
$LUPREC
 70
     3
  9
$SKETCHINC
 40
0.1
  9
$FILLETRAD
 40
50.0
  9
$AUNITS
 70
     0
  9
$AUPREC
 70
     0
  9
$MENU
  1
acad
  9
$ELEVATION
 40
0.0
  9
$PELEVATION
 40
0.0
  9
$THICKNESS
 40
0.0
  9
$LIMCHECK
 70
     0
  9
$CHAMFERA
 40
0.5
  9
$CHAMFERB
 40
0.5
  9
$CHAMFERC
 40
20.0
  9
$CHAMFERD
 40
0.0
  9
$SKPOLY
 70
     0
  9
$TDCREATE
 40
2451372.436538773
  9
$TDUCREATE
 40
2451372.061538773
  9
$TDUPDATE
 40
2460259.749845301
  9
$TDUUPDATE
 40
2460259.374845301
  9
$TDINDWG
 40
0.0320342245
  9
$TDUSRTIMER
 40
0.0320342245
  9
$USRTIMER
 70
     1
  9
$ANGBASE
 50
0.0
  9
$ANGDIR
 70
     0
  9
$PDMODE
 70
     0
  9
$PDSIZE
 40
0.0
  9
$PLINEWID
 40
0.0
  9
$SPLFRAME
 70
     0
  9
$SPLINETYPE
 70
     6
  9
$SPLINESEGS
 70
     8
  9
$HANDSEED
  5
86A2
  9
$SURFTAB1
 70
     6
  9
$SURFTAB2
 70
     6
  9
$SURFTYPE
 70
     6
  9
$SURFU
 70
     6
  9
$SURFV
 70
     6
  9
$UCSBASE
  2

  9
$UCSNAME
  2

  9
$UCSORG
 10
0.0
 20
0.0
 30
0.0
  9
$UCSXDIR
 10
1.0
 20
0.0
 30
0.0
  9
$UCSYDIR
 10
0.0
 20
1.0
 30
0.0
  9
$UCSORTHOREF
  2

  9
$UCSORTHOVIEW
 70
     0
  9
$UCSORGTOP
 10
0.0
 20
0.0
 30
0.0
  9
$UCSORGBOTTOM
 10
0.0
 20
0.0
 30
0.0
  9
$UCSORGLEFT
 10
0.0
 20
0.0
 30
0.0
  9
$UCSORGRIGHT
 10
0.0
 20
0.0
 30
0.0
  9
$UCSORGFRONT
 10
0.0
 20
0.0
 30
0.0
  9
$UCSORGBACK
 10
0.0
 20
0.0
 30
0.0
  9
$PUCSBASE
  2

  9
$PUCSNAME
  2

  9
$PUCSORG
 10
0.0
 20
0.0
 30
0.0
  9
$PUCSXDIR
 10
1.0
 20
0.0
 30
0.0
  9
$PUCSYDIR
 10
0.0
 20
1.0
 30
0.0
  9
$PUCSORTHOREF
  2

  9
$PUCSORTHOVIEW
 70
     0
  9
$PUCSORGTOP
 10
0.0
 20
0.0
 30
0.0
  9
$PUCSORGBOTTOM
 10
0.0
 20
0.0
 30
0.0
  9
$PUCSORGLEFT
 10
0.0
 20
0.0
 30
0.0
  9
$PUCSORGRIGHT
 10
0.0
 20
0.0
 30
0.0
  9
$PUCSORGFRONT
 10
0.0
 20
0.0
 30
0.0
  9
$PUCSORGBACK
 10
0.0
 20
0.0
 30
0.0
  9
$USERI1
 70
     0
  9
$USERI2
 70
     0
  9
$USERI3
 70
     0
  9
$USERI4
 70
     0
  9
$USERI5
 70
     0
  9
$USERR1
 40
0.0
  9
$USERR2
 40
0.0
  9
$USERR3
 40
0.0
  9
$USERR4
 40
0.0
  9
$USERR5
 40
0.0
  9
$WORLDVIEW
 70
     1
  9
$SHADEDGE
 70
     3
  9
$SHADEDIF
 70
    70
  9
$TILEMODE
 70
     1
  9
$MAXACTVP
 70
    16
  9
$PINSBASE
 10
0.0
 20
0.0
 30
0.0
  9
$PLIMCHECK
 70
     0
  9
$PEXTMIN
 10
1.000000000000000E+20
 20
1.000000000000000E+20
 30
1.000000000000000E+20
  9
$PEXTMAX
 10
-1.000000000000000E+20
 20
-1.000000000000000E+20
 30
-1.000000000000000E+20
  9
$PLIMMIN
 10
0.0
 20
0.0
  9
$PLIMMAX
 10
12.0
 20
9.0
  9
$UNITMODE
 70
     0
  9
$VISRETAIN
 70
     0
  9
$PLINEGEN
 70
     0
  9
$PSLTSCALE
 70
     1
  9
$TREEDEPTH
 70
  3020
  9
$CMLSTYLE
  2
STANDARD
  9
$CMLJUST
 70
     0
  9
$CMLSCALE
 40
20.0
  9
$PROXYGRAPHICS
 70
     1
  9
$MEASUREMENT
 70
     1
  9
$CELWEIGHT
370
    -1
  9
$ENDCAPS
280
     0
  9
$JOINSTYLE
280
     0
  9
$LWDISPLAY
290
     0
  9
$INSUNITS
 70
     0
  9
$HYPERLINKBASE
  1

  9
$STYLESHEET
  1

  9
$XEDIT
290
     1
  9
$CEPSNTYPE
380
     0
  9
$PSTYLEMODE
290
     1
  9
$FINGERPRINTGUID
  2
{F23E890C-5E47-49FB-B10A-EBA9BAAAD8EC}
  9
$VERSIONGUID
  2
{6C9E9384-C52C-4C2D-B0C1-F075B755A810}
  9
$EXTNAMES
290
     1
  9
$PSVPSCALE
 40
0.0
  9
$OLESTARTUP
290
     0
  0
ENDSEC
  0
SECTION
  2
CLASSES
  0
CLASS
  1
ACDBDICTIONARYWDFLT
  2
AcDbDictionaryWithDefault
  3
ObjectDBX Classes
 90
        0
280
     0
281
     0
  0
CLASS
  1
ACDBPLACEHOLDER
  2
AcDbPlaceHolder
  3
ObjectDBX Classes
 90
        0
280
     0
281
     0
  0
CLASS
  1
LAYOUT
  2
AcDbLayout
  3
ObjectDBX Classes
 90
        0
280
     0
281
     0
  0
CLASS
  1
MATERIAL
  2
AcDbMaterial
  3
ObjectDBX Classes
 90
     1153
280
     0
281
     0
  0
CLASS
  1
VISUALSTYLE
  2
AcDbVisualStyle
  3
ObjectDBX Classes
 90
     4095
280
     0
281
     0
  0
CLASS
  1
TABLESTYLE
  2
AcDbTableStyle
  3
ObjectDBX Classes
 90
     4095
280
     0
281
     0
  0
CLASS
  1
SCALE
  2
AcDbScale
  3
ObjectDBX Classes
 90
     1153
280
     0
281
     0
  0
CLASS
  1
MLEADERSTYLE
  2
AcDbMLeaderStyle
  3
ACDB_MLEADERSTYLE_CLASS
 90
     4095
280
     0
281
     0
  0
CLASS
  1
ACDBSECTIONVIEWSTYLE
  2
AcDbSectionViewStyle
  3
ObjectDBX Classes
 90
     1025
280
     0
281
     0
  0
CLASS
  1
ACDBDETAILVIEWSTYLE
  2
AcDbDetailViewStyle
  3
ObjectDBX Classes
 90
     1025
280
     0
281
     0
  0
CLASS
  1
SORTENTSTABLE
  2
AcDbSortentsTable
  3
ObjectDBX Classes
 90
        0
280
     0
281
     0
  0
CLASS
  1
DICTIONARYVAR
  2
AcDbDictionaryVar
  3
ObjectDBX Classes
 90
        0
280
     0
281
     0
  0
CLASS
  1
CELLSTYLEMAP
  2
AcDbCellStyleMap
  3
ObjectDBX Classes
 90
     1152
280
     0
281
     0
  0
ENDSEC
  0
SECTION
  2
TABLES
  0
TABLE
  2
VPORT
  5
8
330
0
100
AcDbSymbolTable
 70
     1
  0
VPORT
  5
856A
330
8
100
AcDbSymbolTableRecord
100
AcDbViewportTableRecord
  2
*Active
 70
     0
 10
0.0
 20
0.0
 11
1.0
 21
1.0
 12
1575.000014668779
 22
2212.500020606141
 13
0.0
 23
0.0
 14
10.0
 24
10.0
 15
10.0
 25
10.0
 16
0.0
 26
0.0
 36
1.0
 17
0.0
 27
0.0
 37
0.0
 40
4453.87874865916
 41
2.050213675213675
 42
50.0
 43
0.0
 44
0.0
 50
0.0
 51
0.0
 71
     0
 72
   100
 73
     1
 74
     0
 75
     0
 76
     0
 77
     0
 78
     0
281
     0
 65
     1
110
0.0
120
0.0
130
0.0
111
1.0
121
0.0
131
0.0
112
0.0
122
1.0
132
0.0
 79
     0
146
0.0
1001
ACAD_NAV_VCDISPLAY
1070
     3
  0
ENDTAB
  0
TABLE
  2
LTYPE
  5
5
330
0
100
AcDbSymbolTable
 70
     3
  0
LTYPE
  5
13
330
5
100
AcDbSymbolTableRecord
100
AcDbLinetypeTableRecord
  2
BYBLOCK
 70
     0
  3

 72
    65
 73
     0
 40
0.0
  0
LTYPE
  5
14
330
5
100
AcDbSymbolTableRecord
100
AcDbLinetypeTableRecord
  2
BYLAYER
 70
     0
  3

 72
    65
 73
     0
 40
0.0
  0
LTYPE
  5
15
330
5
100
AcDbSymbolTableRecord
100
AcDbLinetypeTableRecord
  2
CONTINUOUS
 70
     0
  3
Solid line
 72
    65
 73
     0
 40
0.0
  0
LTYPE
  5
1F
330
5
100
AcDbSymbolTableRecord
100
AcDbLinetypeTableRecord
  2
CENTER
 70
     0
  3
____ _ ____ _ ____ _ ____ _ ____ _ ____ _ ____ 
 72
    65
 73
     4
 40
2.0
 49
1.25
 74
     0
 49
-0.25
 74
     0
 49
0.25
 74
     0
 49
-0.25
 74
     0
  0
ENDTAB
  0
TABLE
  2
LAYER
  5
2
102
{ACAD_XDICTIONARY
360
8628
102
}
330
0
100
AcDbSymbolTable
 70
     6
  0
LAYER
  5
F
102
{ACAD_XDICTIONARY
360
861B
102
}
330
2
100
AcDbSymbolTableRecord
100
AcDbLayerTableRecord
  2
0
 70
     0
 62
     7
  6
CONTINUOUS
370
    -3
390
84DB
  0
LAYER
  5
31
102
{ACAD_XDICTIONARY
360
861D
102
}
330
2
100
AcDbSymbolTableRecord
100
AcDbLayerTableRecord
  2
3
 70
     0
 62
     2
  6
CONTINUOUS
370
    -3
390
84DB
  0
LAYER
  5
76D0
102
{ACAD_XDICTIONARY
360
861F
102
}
330
2
100
AcDbSymbolTableRecord
100
AcDbLayerTableRecord
  2
2
 70
     0
 62
     3
  6
CENTER
370
    -3
390
84DB
  0
LAYER
  5
76D1
102
{ACAD_XDICTIONARY
360
8621
102
}
330
2
100
AcDbSymbolTableRecord
100
AcDbLayerTableRecord
  2
1
 70
     0
 62
     4
  6
CONTINUOUS
370
    -3
390
84DB
  0
LAYER
  5
76D2
102
{ACAD_XDICTIONARY
360
8623
102
}
330
2
100
AcDbSymbolTableRecord
100
AcDbLayerTableRecord
  2
4
 70
     0
 62
     7
  6
CONTINUOUS
370
    -3
390
84DB
  0
LAYER
  5
7B17
330
2
100
AcDbSymbolTableRecord
100
AcDbLayerTableRecord
  2
DEFPOINTS
 70
     0
 62
     7
  6
CONTINUOUS
290
     0
370
    -3
390
84DB
  0
ENDTAB
  0
TABLE
  2
STYLE
  5
3
330
0
100
AcDbSymbolTable
 70
     1
  0
STYLE
  5
10
330
3
100
AcDbSymbolTableRecord
100
AcDbTextStyleTableRecord
  2
STANDARD
 70
     0
 40
0.0
 41
1.0
 50
0.0
 71
     0
 42
180.0
  3
simplex.shx
  4
extfont.shx
  0
ENDTAB
  0
TABLE
  2
VIEW
  5
6
330
0
100
AcDbSymbolTable
 70
     1
  0
ENDTAB
  0
TABLE
  2
UCS
  5
7
330
0
100
AcDbSymbolTable
 70
     0
  0
ENDTAB
  0
TABLE
  2
APPID
  5
9
330
0
100
AcDbSymbolTable
 70
     5
  0
APPID
  5
11
330
9
100
AcDbSymbolTableRecord
100
AcDbRegAppTableRecord
  2
ACAD
 70
     0
  0
APPID
  5
85BE
330
9
100
AcDbSymbolTableRecord
100
AcDbRegAppTableRecord
  2
AcadAnnoMonitorAlertIconDisabled
 70
     0
  0
APPID
  5
85BF
330
9
100
AcDbSymbolTableRecord
100
AcDbRegAppTableRecord
  2
ACAD_EXEMPT_FROM_CAD_STANDARDS
 70
     0
  0
APPID
  5
862E
330
9
100
AcDbSymbolTableRecord
100
AcDbRegAppTableRecord
  2
ACAD_NAV_VCDISPLAY
 70
     0
  0
APPID
  5
869D
330
9
100
AcDbSymbolTableRecord
100
AcDbRegAppTableRecord
  2
ACAD_MLEADERVER
 70
     0
  0
ENDTAB
  0
TABLE
  2
DIMSTYLE
  5
A
330
0
100
AcDbSymbolTable
 70
     2
100
AcDbDimStyleTable
 71
     1
340
1D
  0
DIMSTYLE
105
1D
102
{ACAD_REACTORS
330
81F9
330
823B
330
846A
330
8477
330
8484
330
8491
330
84B2
330
84CA
330
84D7
102
}
330
A
100
AcDbSymbolTableRecord
100
AcDbDimStyleTableRecord
  2
IGA
 70
     0
 40
2.0
 41
2.0
 42
0.5
 43
10.0
 44
1.0
 47
1.0
 48
1.0
 73
     0
 74
     0
 77
     1
 78
     8
140
3.0
141
0.0
143
0.03937
146
10.0
147
1.0
173
     1
271
     1
272
     0
279
     2
284
     8
340
10
341
79FC
343
79FC
344
79FC
  0
DIMSTYLE
105
7B19
102
{ACAD_REACTORS
330
8194
330
8198
330
8199
330
81C9
330
81D0
330
81DD
330
81DE
330
81DF
330
81E3
330
81EC
330
81ED
102
}
330
A
100
AcDbSymbolTableRecord
100
AcDbDimStyleTableRecord
  2
MATSU
 70
     0
 41
2.0
 42
1.0
 43
10.0
 44
1.0
 73
     0
 74
     0
 77
     1
 78
     8
140
3.0
141
0.0
143
0.03937
147
0.5
172
     1
173
     1
176
   256
177
   256
178
   256
284
     8
289
     0
340
10
341
79FC
343
79FC
344
79FC
  0
ENDTAB
  0
TABLE
  2
BLOCK_RECORD
  5
1
330
0
100
AcDbSymbolTable
 70
    25
  0
BLOCK_RECORD
  5
19
102
{ACAD_XDICTIONARY
360
8509
102
}
330
1
100
AcDbSymbolTableRecord
100
AcDbBlockTableRecord
  2
*MODEL_SPACE
340
84DE
  0
BLOCK_RECORD
  5
16
102
{ACAD_XDICTIONARY
360
8507
102
}
330
1
100
AcDbSymbolTableRecord
100
AcDbBlockTableRecord
  2
*PAPER_SPACE
340
84DF
  0
BLOCK_RECORD
  5
79FC
330
1
100
AcDbSymbolTableRecord
100
AcDbBlockTableRecord
  2
_OPEN
340
0
102
{BLKREFS
331
85DF
331
85E7
331
85E8
331
85F0
331
85F1
331
85F9
331
85FA
331
8602
331
8603
331
8610
331
8611
331
8645
331
8646
331
84AB
331
84AC
331
8525
331
8526
331
8539
331
853A
331
835B
331
835C
331
8366
331
8367
331
8371
331
8372
331
837C
331
837D
331
83C7
331
83C8
331
83D2
331
83D3
331
83DD
331
83DE
331
83E8
331
83E9
331
8412
331
8413
102
}
  0
BLOCK_RECORD
  5
7F1C
330
1
100
AcDbSymbolTableRecord
100
AcDbBlockTableRecord
  2
_DOT
340
0
102
{BLKREFS
331
85DE
102
}
  0
BLOCK_RECORD
  5
7F82
330
1
100
AcDbSymbolTableRecord
100
AcDbBlockTableRecord
  2
YA_N
340
0
102
{BLKREFS
331
8170
331
8171
331
8172
331
8173
331
8174
331
81FC
331
81FD
331
81FE
331
81FF
331
8200
331
8201
331
8202
102
}
  0
BLOCK_RECORD
  5
8251
330
1
100
AcDbSymbolTableRecord
100
AcDbBlockTableRecord
  2
*D3
340
0
  0
BLOCK_RECORD
  5
825D
330
1
100
AcDbSymbolTableRecord
100
AcDbBlockTableRecord
  2
*D4
340
0
  0
BLOCK_RECORD
  5
8269
330
1
100
AcDbSymbolTableRecord
100
AcDbBlockTableRecord
  2
*D5
340
0
  0
BLOCK_RECORD
  5
8275
330
1
100
AcDbSymbolTableRecord
100
AcDbBlockTableRecord
  2
*D6
340
0
  0
BLOCK_RECORD
  5
82C7
330
1
100
AcDbSymbolTableRecord
100
AcDbBlockTableRecord
  2
*D7
340
0
  0
BLOCK_RECORD
  5
82D3
330
1
100
AcDbSymbolTableRecord
100
AcDbBlockTableRecord
  2
*D8
340
0
  0
BLOCK_RECORD
  5
82DF
330
1
100
AcDbSymbolTableRecord
100
AcDbBlockTableRecord
  2
*D9
340
0
  0
BLOCK_RECORD
  5
82EB
330
1
100
AcDbSymbolTableRecord
100
AcDbBlockTableRecord
  2
*D10
340
0
  0
BLOCK_RECORD
  5
82F7
330
1
100
AcDbSymbolTableRecord
100
AcDbBlockTableRecord
  2
*D11
340
0
  0
BLOCK_RECORD
  5
8319
330
1
100
AcDbSymbolTableRecord
100
AcDbBlockTableRecord
  2
*D12
340
0
  0
BLOCK_RECORD
  5
8325
330
1
100
AcDbSymbolTableRecord
100
AcDbBlockTableRecord
  2
*D13
340
0
  0
BLOCK_RECORD
  5
833D
330
1
100
AcDbSymbolTableRecord
100
AcDbBlockTableRecord
  2
*D14
340
0
  0
BLOCK_RECORD
  5
834B
330
1
100
AcDbSymbolTableRecord
100
AcDbBlockTableRecord
  2
*D15
340
0
  0
BLOCK_RECORD
  5
845E
330
1
100
AcDbSymbolTableRecord
100
AcDbBlockTableRecord
  2
*D16
340
0
  0
BLOCK_RECORD
  5
846B
330
1
100
AcDbSymbolTableRecord
100
AcDbBlockTableRecord
  2
*D17
340
0
  0
BLOCK_RECORD
  5
8478
330
1
100
AcDbSymbolTableRecord
100
AcDbBlockTableRecord
  2
*D18
340
0
  0
BLOCK_RECORD
  5
8485
330
1
100
AcDbSymbolTableRecord
100
AcDbBlockTableRecord
  2
*D19
340
0
  0
BLOCK_RECORD
  5
8492
330
1
100
AcDbSymbolTableRecord
100
AcDbBlockTableRecord
  2
_CLOSED
340
0
  0
BLOCK_RECORD
  5
8498
330
1
100
AcDbSymbolTableRecord
100
AcDbBlockTableRecord
  2
_NONE
340
0
  0
BLOCK_RECORD
  5
84A6
330
1
100
AcDbSymbolTableRecord
100
AcDbBlockTableRecord
  2
*D22
340
0
  0
BLOCK_RECORD
  5
84C2
330
1
100
AcDbSymbolTableRecord
100
AcDbBlockTableRecord
  2
*D23
340
0
  0
BLOCK_RECORD
  5
84CB
330
1
100
AcDbSymbolTableRecord
100
AcDbBlockTableRecord
  2
*D24
340
0
  0
ENDTAB
  0
ENDSEC
  0
SECTION
  2
BLOCKS
  0
BLOCK
  5
1A
330
19
100
AcDbEntity
  8
0
100
AcDbBlockBegin
  2
*MODEL_SPACE
 70
     0
 10
0.0
 20
0.0
 30
0.0
  3
*MODEL_SPACE
  1

  0
ENDBLK
  5
1B
330
19
100
AcDbEntity
  8
0
100
AcDbBlockEnd
  0
BLOCK
  5
17
330
16
100
AcDbEntity
 67
     1
  8
0
100
AcDbBlockBegin
  2
*PAPER_SPACE
 70
     0
 10
0.0
 20
0.0
 30
0.0
  3
*PAPER_SPACE
  1

  0
ENDBLK
  5
18
330
16
100
AcDbEntity
 67
     1
  8
0
100
AcDbBlockEnd
  0
BLOCK
  5
7A00
330
79FC
100
AcDbEntity
  8
0
100
AcDbBlockBegin
  2
_OPEN
 70
     0
 10
0.0
 20
0.0
 30
0.0
  3
_OPEN
  1

  0
LINE
  5
79FD
330
79FC
100
AcDbEntity
  8
0
  6
ByBlock
 62
     0
100
AcDbLine
 10
-1.0
 20
0.1666666666666666
 30
0.0
 11
0.0
 21
0.0
 31
0.0
  0
LINE
  5
79FE
330
79FC
100
AcDbEntity
  8
0
  6
ByBlock
 62
     0
100
AcDbLine
 10
0.0
 20
0.0
 30
0.0
 11
-1.0
 21
-0.1666666666666666
 31
0.0
  0
LINE
  5
79FF
330
79FC
100
AcDbEntity
  8
0
  6
ByBlock
 62
     0
100
AcDbLine
 10
0.0
 20
0.0
 30
0.0
 11
-1.0
 21
0.0
 31
0.0
  0
ENDBLK
  5
7A01
330
79FC
100
AcDbEntity
  8
0
100
AcDbBlockEnd
  0
BLOCK
  5
7F1D
330
7F1C
100
AcDbEntity
  8
0
100
AcDbBlockBegin
  2
_DOT
 70
     0
 10
0.0
 20
0.0
 30
0.0
  3
_DOT
  1

  0
LWPOLYLINE
  5
7F33
330
7F1C
100
AcDbEntity
  8
0
  6
ByBlock
 62
     0
100
AcDbPolyline
 90
        2
 70
     1
 43
0.25
 10
-0.125
 20
0.0
 42
1.0
 10
0.125
 20
0.0
 42
1.0
  0
LINE
  5
7F37
330
7F1C
100
AcDbEntity
  8
0
  6
ByBlock
 62
     0
100
AcDbLine
 10
-0.25
 20
0.0
 30
0.0
 11
-1.0
 21
0.0
 31
0.0
  0
ENDBLK
  5
7F23
330
7F1C
100
AcDbEntity
  8
0
100
AcDbBlockEnd
  0
BLOCK
  5
7F83
330
7F82
100
AcDbEntity
  8
0
100
AcDbBlockBegin
  2
YA_N
 70
     0
 10
0.0
 20
0.0
 30
0.0
  3
YA_N
  1

  0
ENDBLK
  5
7F84
330
7F82
100
AcDbEntity
  8
0
100
AcDbBlockEnd
  0
BLOCK
  5
8357
330
8251
100
AcDbEntity
  8
0
100
AcDbBlockBegin
  2
*D3
 70
     1
 10
0.0
 20
0.0
 30
0.0
  3
*D3
  1

  0
LINE
  5
8358
330
8251
100
AcDbEntity
  8
0
  6
ByBlock
100
AcDbLine
 10
6334.782935875764
 20
2002.72456132359
 30
0.0
 11
6510.825656989168
 21
2002.72456132359
 31
0.0
  0
LINE
  5
8359
330
8251
100
AcDbEntity
  8
0
  6
ByBlock
100
AcDbLine
 10
6334.782935875765
 20
1687.72456132359
 30
0.0
 11
6510.825656989168
 21
1687.72456132359
 31
0.0
  0
LINE
  5
835A
330
8251
100
AcDbEntity
  8
0
  6
ByBlock
100
AcDbLine
 10
6495.825656989167
 20
1972.72456132359
 30
0.0
 11
6495.825656989167
 21
1717.72456132359
 31
0.0
  0
INSERT
  5
835B
330
8251
100
AcDbEntity
  8
0
  6
ByBlock
100
AcDbBlockReference
  2
_OPEN
 10
6495.825656989167
 20
2002.72456132359
 30
0.0
 41
30.0
 42
30.0
 43
30.0
 50
90.0
  0
INSERT
  5
835C
330
8251
100
AcDbEntity
  8
0
  6
ByBlock
100
AcDbBlockReference
  2
_OPEN
 10
6495.825656989167
 20
1687.72456132359
 30
0.0
 41
30.0
 42
30.0
 43
30.0
 50
270.0
  0
MTEXT
  5
835D
330
8251
100
AcDbEntity
  8
0
  6
ByBlock
100
AcDbMText
 10
6465.825656989167
 20
1845.22456132359
 30
0.0
 40
45.0
 41
0.0
 71
     5
 72
     5
  1
\A1;\U+03C6 315
 11
0.0
 21
1.0
 31
0.0
 73
     1
 44
1.0
1001
ACAD
1000
MTEXTBEGIN
1070
    73
1070
     1
1070
    44
1040
1.0
1070
    74
1070
     0
1000
MTEXTEND
  0
POINT
  5
835E
330
8251
100
AcDbEntity
  8
DEFPOINTS
  6
ByBlock
 62
     0
100
AcDbPoint
 10
6319.782935875764
 20
2002.72456132359
 30
0.0
  0
POINT
  5
835F
330
8251
100
AcDbEntity
  8
DEFPOINTS
  6
ByBlock
 62
     0
100
AcDbPoint
 10
6319.782935875764
 20
1687.72456132359
 30
0.0
  0
POINT
  5
8360
330
8251
100
AcDbEntity
  8
DEFPOINTS
  6
ByBlock
 62
     0
100
AcDbPoint
 10
6495.825656989167
 20
1687.72456132359
 30
0.0
  0
ENDBLK
  5
8361
330
8251
100
AcDbEntity
  8
0
100
AcDbBlockEnd
  0
BLOCK
  5
8362
330
825D
100
AcDbEntity
  8
0
100
AcDbBlockBegin
  2
*D4
 70
     1
 10
0.0
 20
0.0
 30
0.0
  3
*D4
  1

  0
LINE
  5
8363
330
825D
100
AcDbEntity
  8
0
  6
ByBlock
100
AcDbLine
 10
5208.600002522625
 20
1496.812166989982
 30
0.0
 11
5376.340882497533
 21
1496.812166989982
 31
0.0
  0
LINE
  5
8364
330
825D
100
AcDbEntity
  8
0
  6
ByBlock
100
AcDbLine
 10
5279.30284829874
 20
1847.812166989982
 30
0.0
 11
5376.340882497533
 21
1847.812166989982
 31
0.0
  0
LINE
  5
8365
330
825D
100
AcDbEntity
  8
0
  6
ByBlock
100
AcDbLine
 10
5361.340882497533
 20
1526.812166989982
 30
0.0
 11
5361.340882497533
 21
1817.812166989982
 31
0.0
  0
INSERT
  5
8366
330
825D
100
AcDbEntity
  8
0
  6
ByBlock
100
AcDbBlockReference
  2
_OPEN
 10
5361.340882497533
 20
1496.812166989982
 30
0.0
 41
30.0
 42
30.0
 43
30.0
 50
270.0
  0
INSERT
  5
8367
330
825D
100
AcDbEntity
  8
0
  6
ByBlock
100
AcDbBlockReference
  2
_OPEN
 10
5361.340882497533
 20
1847.812166989982
 30
0.0
 41
30.0
 42
30.0
 43
30.0
 50
90.0
  0
MTEXT
  5
8368
330
825D
100
AcDbEntity
  8
0
  6
ByBlock
100
AcDbMText
 10
5331.340882497533
 20
1672.312166989982
 30
0.0
 40
45.0
 41
0.0
 71
     5
 72
     5
  1
\A1;351
 11
0.0
 21
1.0
 31
0.0
 73
     1
 44
1.0
1001
ACAD
1000
MTEXTBEGIN
1070
    73
1070
     1
1070
    44
1040
1.0
1070
    74
1070
     0
1000
MTEXTEND
  0
POINT
  5
8369
330
825D
100
AcDbEntity
  8
DEFPOINTS
  6
ByBlock
 62
     0
100
AcDbPoint
 10
5193.600002522625
 20
1496.812166989982
 30
0.0
  0
POINT
  5
836A
330
825D
100
AcDbEntity
  8
DEFPOINTS
  6
ByBlock
 62
     0
100
AcDbPoint
 10
5264.30284829874
 20
1847.812166989982
 30
0.0
  0
POINT
  5
836B
330
825D
100
AcDbEntity
  8
DEFPOINTS
  6
ByBlock
 62
     0
100
AcDbPoint
 10
5361.340882497533
 20
1847.812166989982
 30
0.0
  0
ENDBLK
  5
836C
330
825D
100
AcDbEntity
  8
0
100
AcDbBlockEnd
  0
BLOCK
  5
836D
330
8269
100
AcDbEntity
  8
0
100
AcDbBlockBegin
  2
*D5
 70
     1
 10
0.0
 20
0.0
 30
0.0
  3
*D5
  1

  0
LINE
  5
836E
330
8269
100
AcDbEntity
  8
0
  6
ByBlock
100
AcDbLine
 10
5208.600002522625
 20
1496.812166989982
 30
0.0
 11
5298.809389361577
 21
1496.812166989982
 31
0.0
  0
LINE
  5
836F
330
8269
100
AcDbEntity
  8
0
  6
ByBlock
100
AcDbLine
 10
5208.600002522625
 20
1821.812166989982
 30
0.0
 11
5298.809389361577
 21
1821.812166989982
 31
0.0
  0
LINE
  5
8370
330
8269
100
AcDbEntity
  8
0
  6
ByBlock
100
AcDbLine
 10
5283.809389361578
 20
1526.812166989982
 30
0.0
 11
5283.809389361578
 21
1791.812166989982
 31
0.0
  0
INSERT
  5
8371
330
8269
100
AcDbEntity
  8
0
  6
ByBlock
100
AcDbBlockReference
  2
_OPEN
 10
5283.809389361578
 20
1496.812166989982
 30
0.0
 41
30.0
 42
30.0
 43
30.0
 50
270.0
  0
INSERT
  5
8372
330
8269
100
AcDbEntity
  8
0
  6
ByBlock
100
AcDbBlockReference
  2
_OPEN
 10
5283.809389361578
 20
1821.812166989982
 30
0.0
 41
30.0
 42
30.0
 43
30.0
 50
90.0
  0
MTEXT
  5
8373
330
8269
100
AcDbEntity
  8
0
  6
ByBlock
100
AcDbMText
 10
5253.809389361578
 20
1659.312166989982
 30
0.0
 40
45.0
 41
0.0
 71
     5
 72
     5
  1
\A1;325
 11
0.0
 21
1.0
 31
0.0
 73
     1
 44
1.0
1001
ACAD
1000
MTEXTBEGIN
1070
    73
1070
     1
1070
    44
1040
1.0
1070
    74
1070
     0
1000
MTEXTEND
  0
POINT
  5
8374
330
8269
100
AcDbEntity
  8
DEFPOINTS
  6
ByBlock
 62
     0
100
AcDbPoint
 10
5193.600002522625
 20
1496.812166989982
 30
0.0
  0
POINT
  5
8375
330
8269
100
AcDbEntity
  8
DEFPOINTS
  6
ByBlock
 62
     0
100
AcDbPoint
 10
5193.600002522625
 20
1821.812166989982
 30
0.0
  0
POINT
  5
8376
330
8269
100
AcDbEntity
  8
DEFPOINTS
  6
ByBlock
 62
     0
100
AcDbPoint
 10
5283.809389361578
 20
1821.812166989982
 30
0.0
  0
ENDBLK
  5
8377
330
8269
100
AcDbEntity
  8
0
100
AcDbBlockEnd
  0
BLOCK
  5
8378
330
8275
100
AcDbEntity
  8
0
100
AcDbBlockBegin
  2
*D6
 70
     1
 10
0.0
 20
0.0
 30
0.0
  3
*D6
  1

  0
LINE
  5
8379
330
8275
100
AcDbEntity
  8
0
  6
ByBlock
100
AcDbLine
 10
5279.30284829874
 20
1847.812166989982
 30
0.0
 11
5450.845067043054
 21
1847.812166989982
 31
0.0
  0
LINE
  5
837A
330
8275
100
AcDbEntity
  8
0
  6
ByBlock
100
AcDbLine
 10
5175.600002522624
 20
1407.812166989982
 30
0.0
 11
5450.845067043054
 21
1407.812166989982
 31
0.0
  0
LINE
  5
837B
330
8275
100
AcDbEntity
  8
0
  6
ByBlock
100
AcDbLine
 10
5435.845067043055
 20
1817.812166989982
 30
0.0
 11
5435.845067043055
 21
1437.812166989982
 31
0.0
  0
INSERT
  5
837C
330
8275
100
AcDbEntity
  8
0
  6
ByBlock
100
AcDbBlockReference
  2
_OPEN
 10
5435.845067043055
 20
1847.812166989982
 30
0.0
 41
30.0
 42
30.0
 43
30.0
 50
90.0
  0
INSERT
  5
837D
330
8275
100
AcDbEntity
  8
0
  6
ByBlock
100
AcDbBlockReference
  2
_OPEN
 10
5435.845067043055
 20
1407.812166989982
 30
0.0
 41
30.0
 42
30.0
 43
30.0
 50
270.0
  0
MTEXT
  5
837E
330
8275
100
AcDbEntity
  8
0
  6
ByBlock
100
AcDbMText
 10
5405.845067043054
 20
1627.812166989982
 30
0.0
 40
45.0
 41
0.0
 71
     5
 72
     5
  1
\A1;440
 11
0.0
 21
1.0
 31
0.0
 73
     1
 44
1.0
1001
ACAD
1000
MTEXTBEGIN
1070
    73
1070
     1
1070
    44
1040
1.0
1070
    74
1070
     0
1000
MTEXTEND
  0
POINT
  5
837F
330
8275
100
AcDbEntity
  8
DEFPOINTS
  6
ByBlock
 62
     0
100
AcDbPoint
 10
5264.30284829874
 20
1847.812166989982
 30
0.0
  0
POINT
  5
8380
330
8275
100
AcDbEntity
  8
DEFPOINTS
  6
ByBlock
 62
     0
100
AcDbPoint
 10
5160.600002522625
 20
1407.812166989982
 30
0.0
  0
POINT
  5
8381
330
8275
100
AcDbEntity
  8
DEFPOINTS
  6
ByBlock
 62
     0
100
AcDbPoint
 10
5435.845067043055
 20
1407.812166989982
 30
0.0
  0
ENDBLK
  5
8382
330
8275
100
AcDbEntity
  8
0
100
AcDbBlockEnd
  0
BLOCK
  5
83C3
330
82C7
100
AcDbEntity
  8
0
100
AcDbBlockBegin
  2
*D7
 70
     1
 10
0.0
 20
0.0
 30
0.0
  3
*D7
  1

  0
LINE
  5
83C4
330
82C7
100
AcDbEntity
  8
0
  6
ByBlock
100
AcDbLine
 10
6315.582935875763
 20
2086.22456132359
 30
0.0
 11
6315.582935875763
 21
2194.745913488852
 31
0.0
  0
LINE
  5
83C5
330
82C7
100
AcDbEntity
  8
0
  6
ByBlock
100
AcDbLine
 10
5890.582935875763
 20
2086.224561323591
 30
0.0
 11
5890.582935875763
 21
2194.745913488852
 31
0.0
  0
LINE
  5
83C6
330
82C7
100
AcDbEntity
  8
0
  6
ByBlock
100
AcDbLine
 10
6285.582935875764
 20
2179.745913488853
 30
0.0
 11
5920.582935875764
 21
2179.745913488853
 31
0.0
  0
INSERT
  5
83C7
330
82C7
100
AcDbEntity
  8
0
  6
ByBlock
100
AcDbBlockReference
  2
_OPEN
 10
6315.582935875763
 20
2179.745913488853
 30
0.0
 41
30.0
 42
30.0
 43
30.0
  0
INSERT
  5
83C8
330
82C7
100
AcDbEntity
  8
0
  6
ByBlock
100
AcDbBlockReference
  2
_OPEN
 10
5890.582935875763
 20
2179.745913488853
 30
0.0
 41
30.0
 42
30.0
 43
30.0
 50
180.0
  0
MTEXT
  5
83C9
330
82C7
100
AcDbEntity
  8
0
  6
ByBlock
100
AcDbMText
 10
6103.082935875764
 20
2209.745913488852
 30
0.0
 40
45.0
 41
0.0
 71
     5
 72
     5
  1
\A1;425
 73
     1
 44
1.0
1001
ACAD
1000
MTEXTBEGIN
1070
    73
1070
     1
1070
    44
1040
1.0
1070
    74
1070
     0
1000
MTEXTEND
  0
POINT
  5
83CA
330
82C7
100
AcDbEntity
  8
DEFPOINTS
  6
ByBlock
 62
     0
100
AcDbPoint
 10
6315.582935875763
 20
2071.22456132359
 30
0.0
  0
POINT
  5
83CB
330
82C7
100
AcDbEntity
  8
DEFPOINTS
  6
ByBlock
 62
     0
100
AcDbPoint
 10
5890.582935875763
 20
2071.224561323591
 30
0.0
  0
POINT
  5
83CC
330
82C7
100
AcDbEntity
  8
DEFPOINTS
  6
ByBlock
 62
     0
100
AcDbPoint
 10
5890.582935875763
 20
2179.745913488853
 30
0.0
  0
ENDBLK
  5
83CD
330
82C7
100
AcDbEntity
  8
0
100
AcDbBlockEnd
  0
BLOCK
  5
83CE
330
82D3
100
AcDbEntity
  8
0
100
AcDbBlockBegin
  2
*D8
 70
     1
 10
0.0
 20
0.0
 30
0.0
  3
*D8
  1

  0
LINE
  5
83CF
330
82D3
100
AcDbEntity
  8
0
  6
ByBlock
100
AcDbLine
 10
6393.082935875764
 20
1838.224561323591
 30
0.0
 11
6393.082935875764
 21
2286.678000461313
 31
0.0
  0
LINE
  5
83D0
330
82D3
100
AcDbEntity
  8
0
  6
ByBlock
100
AcDbLine
 10
6103.082935875764
 20
2257.702920558481
 30
0.0
 11
6103.082935875764
 21
2286.678000461313
 31
0.0
  0
LINE
  5
83D1
330
82D3
100
AcDbEntity
  8
0
  6
ByBlock
100
AcDbLine
 10
6363.082935875763
 20
2271.678000461313
 30
0.0
 11
6133.082935875764
 21
2271.678000461313
 31
0.0
  0
INSERT
  5
83D2
330
82D3
100
AcDbEntity
  8
0
  6
ByBlock
100
AcDbBlockReference
  2
_OPEN
 10
6393.082935875764
 20
2271.678000461313
 30
0.0
 41
30.0
 42
30.0
 43
30.0
  0
INSERT
  5
83D3
330
82D3
100
AcDbEntity
  8
0
  6
ByBlock
100
AcDbBlockReference
  2
_OPEN
 10
6103.082935875764
 20
2271.678000461313
 30
0.0
 41
30.0
 42
30.0
 43
30.0
 50
180.0
  0
MTEXT
  5
83D4
330
82D3
100
AcDbEntity
  8
0
  6
ByBlock
100
AcDbMText
 10
6248.082935875764
 20
2313.463714747027
 30
0.0
 40
45.0
 41
0.0
 71
     5
 72
     5
  1
\A1;(290)
 73
     1
 44
1.0
1001
ACAD
1000
MTEXTBEGIN
1070
    73
1070
     1
1070
    44
1040
1.0
1070
    74
1070
     0
1000
MTEXTEND
  0
POINT
  5
83D5
330
82D3
100
AcDbEntity
  8
DEFPOINTS
  6
ByBlock
 62
     0
100
AcDbPoint
 10
6393.082935875764
 20
1823.224561323591
 30
0.0
  0
POINT
  5
83D6
330
82D3
100
AcDbEntity
  8
DEFPOINTS
  6
ByBlock
 62
     0
100
AcDbPoint
 10
6103.082935875764
 20
2242.702920558481
 30
0.0
  0
POINT
  5
83D7
330
82D3
100
AcDbEntity
  8
DEFPOINTS
  6
ByBlock
 62
     0
100
AcDbPoint
 10
6103.082935875764
 20
2271.678000461313
 30
0.0
  0
ENDBLK
  5
83D8
330
82D3
100
AcDbEntity
  8
0
100
AcDbBlockEnd
  0
BLOCK
  5
83D9
330
82DF
100
AcDbEntity
  8
0
100
AcDbBlockBegin
  2
*D9
 70
     1
 10
0.0
 20
0.0
 30
0.0
  3
*D9
  1

  0
LINE
  5
83DA
330
82DF
100
AcDbEntity
  8
0
  6
ByBlock
100
AcDbLine
 10
4260.600002522624
 20
3180.391129437393
 30
0.0
 11
4260.600002522624
 21
3290.913364632301
 31
0.0
  0
LINE
  5
83DB
330
82DF
100
AcDbEntity
  8
0
  6
ByBlock
100
AcDbLine
 10
5160.600002522625
 20
3180.391129437393
 30
0.0
 11
5160.600002522625
 21
3290.913364632301
 31
0.0
  0
LINE
  5
83DC
330
82DF
100
AcDbEntity
  8
0
  6
ByBlock
100
AcDbLine
 10
4290.600002522625
 20
3275.9133646323
 30
0.0
 11
5130.600002522625
 21
3275.9133646323
 31
0.0
  0
INSERT
  5
83DD
330
82DF
100
AcDbEntity
  8
0
  6
ByBlock
100
AcDbBlockReference
  2
_OPEN
 10
4260.600002522624
 20
3275.9133646323
 30
0.0
 41
30.0
 42
30.0
 43
30.0
 50
180.0
  0
INSERT
  5
83DE
330
82DF
100
AcDbEntity
  8
0
  6
ByBlock
100
AcDbBlockReference
  2
_OPEN
 10
5160.600002522625
 20
3275.9133646323
 30
0.0
 41
30.0
 42
30.0
 43
30.0
  0
MTEXT
  5
83DF
330
82DF
100
AcDbEntity
  8
0
  6
ByBlock
100
AcDbMText
 10
4710.600002522625
 20
3305.913364632301
 30
0.0
 40
45.0
 41
0.0
 71
     5
 72
     5
  1
\A1;900
 73
     1
 44
1.0
1001
ACAD
1000
MTEXTBEGIN
1070
    73
1070
     1
1070
    44
1040
1.0
1070
    74
1070
     0
1000
MTEXTEND
  0
POINT
  5
83E0
330
82DF
100
AcDbEntity
  8
DEFPOINTS
  6
ByBlock
 62
     0
100
AcDbPoint
 10
4260.600002522624
 20
3165.391129437393
 30
0.0
  0
POINT
  5
83E1
330
82DF
100
AcDbEntity
  8
DEFPOINTS
  6
ByBlock
 62
     0
100
AcDbPoint
 10
5160.600002522625
 20
3165.391129437393
 30
0.0
  0
POINT
  5
83E2
330
82DF
100
AcDbEntity
  8
DEFPOINTS
  6
ByBlock
 62
     0
100
AcDbPoint
 10
5160.600002522625
 20
3275.9133646323
 30
0.0
  0
ENDBLK
  5
83E3
330
82DF
100
AcDbEntity
  8
0
100
AcDbBlockEnd
  0
BLOCK
  5
83E4
330
82EB
100
AcDbEntity
  8
0
100
AcDbBlockBegin
  2
*D10
 70
     1
 10
0.0
 20
0.0
 30
0.0
  3
*D10
  1

  0
LINE
  5
83E5
330
82EB
100
AcDbEntity
  8
0
  6
ByBlock
100
AcDbLine
 10
5175.600002522624
 20
3165.391129437393
 30
0.0
 11
5359.088506657889
 21
3165.391129437393
 31
0.0
  0
LINE
  5
83E6
330
82EB
100
AcDbEntity
  8
0
  6
ByBlock
100
AcDbLine
 10
5175.600002522624
 20
2575.391129437393
 30
0.0
 11
5359.088506657889
 21
2575.391129437393
 31
0.0
  0
LINE
  5
83E7
330
82EB
100
AcDbEntity
  8
0
  6
ByBlock
100
AcDbLine
 10
5344.08850665789
 20
3135.391129437393
 30
0.0
 11
5344.08850665789
 21
2605.391129437393
 31
0.0
  0
INSERT
  5
83E8
330
82EB
100
AcDbEntity
  8
0
  6
ByBlock
100
AcDbBlockReference
  2
_OPEN
 10
5344.08850665789
 20
3165.391129437393
 30
0.0
 41
30.0
 42
30.0
 43
30.0
 50
90.0
  0
INSERT
  5
83E9
330
82EB
100
AcDbEntity
  8
0
  6
ByBlock
100
AcDbBlockReference
  2
_OPEN
 10
5344.08850665789
 20
2575.391129437393
 30
0.0
 41
30.0
 42
30.0
 43
30.0
 50
270.0
  0
MTEXT
  5
83EA
330
82EB
100
AcDbEntity
  8
0
  6
ByBlock
100
AcDbMText
 10
5314.088506657889
 20
2870.391129437393
 30
0.0
 40
45.0
 41
0.0
 71
     5
 72
     5
  1
\A1;590
 11
0.0
 21
1.0
 31
0.0
 73
     1
 44
1.0
1001
ACAD
1000
MTEXTBEGIN
1070
    73
1070
     1
1070
    44
1040
1.0
1070
    74
1070
     0
1000
MTEXTEND
  0
POINT
  5
83EB
330
82EB
100
AcDbEntity
  8
DEFPOINTS
  6
ByBlock
 62
     0
100
AcDbPoint
 10
5160.600002522625
 20
3165.391129437393
 30
0.0
  0
POINT
  5
83EC
330
82EB
100
AcDbEntity
  8
DEFPOINTS
  6
ByBlock
 62
     0
100
AcDbPoint
 10
5160.600002522625
 20
2575.391129437393
 30
0.0
  0
POINT
  5
83ED
330
82EB
100
AcDbEntity
  8
DEFPOINTS
  6
ByBlock
 62
     0
100
AcDbPoint
 10
5344.08850665789
 20
2575.391129437393
 30
0.0
  0
ENDBLK
  5
83EE
330
82EB
100
AcDbEntity
  8
0
100
AcDbBlockEnd
  0
BLOCK
  5
844B
330
82F7
100
AcDbEntity
  8
0
100
AcDbBlockBegin
  2
*D11
 70
     1
 10
0.0
 20
0.0
 30
0.0
  3
*D11
  1

  0
LINE
  5
8643
330
82F7
100
AcDbEntity
  8
3
370
    -2
100
AcDbLine
 10
1936.904899722545
 20
2000.746811732435
 30
0.0
 11
1936.904899722545
 21
2286.678000461313
 31
0.0
  0
LINE
  5
8644
330
82F7
100
AcDbEntity
  8
3
370
    -2
100
AcDbLine
 10
2386.904899722546
 20
2271.678000461313
 30
0.0
 11
1966.904899722545
 21
2271.678000461313
 31
0.0
  0
INSERT
  5
8645
330
82F7
100
AcDbEntity
  8
3
370
    -2
100
AcDbBlockReference
  2
_OPEN
 10
2416.904899722546
 20
2271.678000461313
 30
0.0
 41
30.0
 42
30.0
 43
30.0
  0
INSERT
  5
8646
330
82F7
100
AcDbEntity
  8
3
370
    -2
100
AcDbBlockReference
  2
_OPEN
 10
1936.904899722545
 20
2271.678000461313
 30
0.0
 41
30.0
 42
30.0
 43
30.0
 50
180.0
  0
MTEXT
  5
8647
330
82F7
100
AcDbEntity
  8
3
100
AcDbMText
 10
2176.904899722545
 20
2313.463714747027
 30
0.0
 40
45.0
 41
0.0
 71
     5
 72
     1
  1
\A1;(480)
 73
     1
 44
1.0
1001
ACAD
1000
MTEXTBEGIN
1070
    73
1070
     1
1070
    44
1040
1.0
1070
    74
1070
     0
1000
MTEXTEND
  0
POINT
  5
8648
330
82F7
100
AcDbEntity
  8
DEFPOINTS
 62
     0
100
AcDbPoint
 10
2416.904899722546
 20
2242.702920558481
 30
0.0
  0
POINT
  5
8649
330
82F7
100
AcDbEntity
  8
DEFPOINTS
 62
     0
100
AcDbPoint
 10
1936.904899722545
 20
1985.746811732435
 30
0.0
  0
POINT
  5
864A
330
82F7
100
AcDbEntity
  8
DEFPOINTS
 62
     0
100
AcDbPoint
 10
1936.904899722545
 20
2271.678000461313
 30
0.0
  0
ENDBLK
  5
8454
330
82F7
100
AcDbEntity
  8
0
100
AcDbBlockEnd
  0
BLOCK
  5
840E
330
8319
100
AcDbEntity
  8
0
100
AcDbBlockBegin
  2
*D12
 70
     1
 10
0.0
 20
0.0
 30
0.0
  3
*D12
  1

  0
LINE
  5
840F
330
8319
100
AcDbEntity
  8
0
  6
ByBlock
100
AcDbLine
 10
5193.600002522625
 20
1865.200997314938
 30
0.0
 11
5193.600002522625
 21
2217.910812672774
 31
0.0
  0
LINE
  5
8410
330
8319
100
AcDbEntity
  8
0
  6
ByBlock
100
AcDbLine
 10
4948.600002522624
 20
2127.485681876359
 30
0.0
 11
4948.600002522624
 21
2217.910812672774
 31
0.0
  0
LINE
  5
8411
330
8319
100
AcDbEntity
  8
0
  6
ByBlock
100
AcDbLine
 10
5163.600002522625
 20
2202.910812672774
 30
0.0
 11
4978.600002522625
 21
2202.910812672774
 31
0.0
  0
INSERT
  5
8412
330
8319
100
AcDbEntity
  8
0
  6
ByBlock
100
AcDbBlockReference
  2
_OPEN
 10
5193.600002522625
 20
2202.910812672774
 30
0.0
 41
30.0
 42
30.0
 43
30.0
  0
INSERT
  5
8413
330
8319
100
AcDbEntity
  8
0
  6
ByBlock
100
AcDbBlockReference
  2
_OPEN
 10
4948.600002522624
 20
2202.910812672774
 30
0.0
 41
30.0
 42
30.0
 43
30.0
 50
180.0
  0
MTEXT
  5
8414
330
8319
100
AcDbEntity
  8
0
  6
ByBlock
100
AcDbMText
 10
5071.100002522625
 20
2232.910812672774
 30
0.0
 40
45.0
 41
0.0
 71
     5
 72
     5
  1
\A1;245
 73
     1
 44
1.0
1001
ACAD
1000
MTEXTBEGIN
1070
    73
1070
     1
1070
    44
1040
1.0
1070
    74
1070
     0
1000
MTEXTEND
  0
POINT
  5
8415
330
8319
100
AcDbEntity
  8
DEFPOINTS
  6
ByBlock
 62
     0
100
AcDbPoint
 10
5193.600002522625
 20
1850.200997314938
 30
0.0
  0
POINT
  5
8416
330
8319
100
AcDbEntity
  8
DEFPOINTS
  6
ByBlock
 62
     0
100
AcDbPoint
 10
4948.600002522624
 20
2112.485681876358
 30
0.0
  0
POINT
  5
8417
330
8319
100
AcDbEntity
  8
DEFPOINTS
  6
ByBlock
 62
     0
100
AcDbPoint
 10
4948.600002522624
 20
2202.910812672774
 30
0.0
  0
ENDBLK
  5
8418
330
8319
100
AcDbEntity
  8
0
100
AcDbBlockEnd
  0
BLOCK
  5
8419
330
8325
100
AcDbEntity
  8
0
100
AcDbBlockBegin
  2
*D13
 70
     1
 10
0.0
 20
0.0
 30
0.0
  3
*D13
  1

  0
LINE
  5
8523
330
8325
100
AcDbEntity
  8
3
100
AcDbLine
 10
985.8570854887247
 20
1838.812166989982
 30
0.0
 11
985.8570854887247
 21
2217.910812672774
 31
0.0
  0
LINE
  5
8524
330
8325
100
AcDbEntity
  8
3
100
AcDbLine
 10
1232.421966369406
 20
2202.910812672774
 30
0.0
 11
1015.857085488724
 21
2202.910812672774
 31
0.0
  0
INSERT
  5
8525
330
8325
100
AcDbEntity
  8
3
100
AcDbBlockReference
  2
_OPEN
 10
1262.421966369406
 20
2202.910812672774
 30
0.0
 41
30.0
 42
30.0
 43
30.0
  0
INSERT
  5
8526
330
8325
100
AcDbEntity
  8
3
100
AcDbBlockReference
  2
_OPEN
 10
985.8570854887247
 20
2202.910812672774
 30
0.0
 41
30.0
 42
30.0
 43
30.0
 50
180.0
  0
MTEXT
  5
8527
330
8325
100
AcDbEntity
  8
3
100
AcDbMText
 10
1124.139525929066
 20
2232.910812672774
 30
0.0
 40
45.0
 41
0.0
 71
     5
 72
     5
  1
\A1;274
 73
     1
 44
1.0
1001
ACAD
1000
MTEXTBEGIN
1070
    73
1070
     1
1070
    44
1040
1.0
1070
    74
1070
     0
1000
MTEXTEND
  0
POINT
  5
8528
330
8325
100
AcDbEntity
  8
DEFPOINTS
 62
     0
100
AcDbPoint
 10
1262.421966369406
 20
2127.48222925868
 30
0.0
  0
POINT
  5
8529
330
8325
100
AcDbEntity
  8
DEFPOINTS
 62
     0
100
AcDbPoint
 10
985.8570854887247
 20
1823.812166989982
 30
0.0
  0
POINT
  5
852A
330
8325
100
AcDbEntity
  8
DEFPOINTS
 62
     0
100
AcDbPoint
 10
985.8570854887247
 20
2202.910812672774
 30
0.0
  0
ENDBLK
  5
8422
330
8325
100
AcDbEntity
  8
0
100
AcDbBlockEnd
  0
BLOCK
  5
842F
330
833D
100
AcDbEntity
  8
0
100
AcDbBlockBegin
  2
*D14
 70
     1
 10
0.0
 20
0.0
 30
0.0
  3
*D14
  1

  0
LINE
  5
85D9
330
833D
100
AcDbEntity
  8
3
 62
     0
370
    -2
100
AcDbLine
 10
1481.921966369406
 20
1327.812166989982
 30
0.0
 11
1764.667030889836
 21
1327.812166989982
 31
0.0
  0
LINE
  5
85DA
330
833D
100
AcDbEntity
  8
3
 62
     0
370
    -2
100
AcDbLine
 10
1481.921966369406
 20
1262.812166989982
 30
0.0
 11
1764.667030889836
 21
1262.812166989982
 31
0.0
  0
LINE
  5
85DB
330
833D
100
AcDbEntity
  8
3
 62
     0
370
    -2
100
AcDbLine
 10
1749.667030889836
 20
1357.812166989982
 30
0.0
 11
1749.667030889836
 21
1387.812166989982
 31
0.0
  0
LINE
  5
85DC
330
833D
100
AcDbEntity
  8
3
 62
     0
370
    -2
100
AcDbLine
 10
1749.667030889836
 20
1232.812166989982
 30
0.0
 11
1749.667030889836
 21
1099.955024132839
 31
0.0
  0
LINE
  5
85DD
330
833D
100
AcDbEntity
  8
3
 62
     0
370
    -2
100
AcDbLine
 10
1749.667030889836
 20
1327.812166989982
 30
0.0
 11
1749.667030889836
 21
1262.812166989982
 31
0.0
  0
INSERT
  5
85DE
330
833D
100
AcDbEntity
  8
3
 62
     0
370
    -2
100
AcDbBlockReference
  2
_DOT
 10
1749.667030889836
 20
1327.812166989982
 30
0.0
 41
30.0
 42
30.0
 43
30.0
 50
270.0
  0
INSERT
  5
85DF
330
833D
100
AcDbEntity
  8
3
 62
     0
370
    -2
100
AcDbBlockReference
  2
_OPEN
 10
1749.667030889836
 20
1262.812166989982
 30
0.0
 41
30.0
 42
30.0
 43
30.0
 50
90.0
  0
MTEXT
  5
85E0
330
833D
100
AcDbEntity
  8
3
 62
     0
100
AcDbMText
 10
1712.167030889836
 20
1151.383595561411
 30
0.0
 40
45.0
 41
0.0
 71
     5
 72
     1
  1
\A1;65
 11
0.0000000000000001
 21
1.0
 31
0.0
 73
     1
 44
1.0
1001
ACAD
1000
MTEXTBEGIN
1070
    73
1070
     1
1070
    44
1040
1.0
1070
    74
1070
     0
1000
MTEXTEND
  0
POINT
  5
85E1
330
833D
100
AcDbEntity
  8
DEFPOINTS
 62
     0
100
AcDbPoint
 10
1474.421966369406
 20
1327.812166989982
 30
0.0
  0
POINT
  5
85E2
330
833D
100
AcDbEntity
  8
DEFPOINTS
 62
     0
100
AcDbPoint
 10
1474.421966369406
 20
1262.812166989982
 30
0.0
  0
POINT
  5
85E3
330
833D
100
AcDbEntity
  8
DEFPOINTS
 62
     0
100
AcDbPoint
 10
1749.667030889836
 20
1262.812166989982
 30
0.0
  0
ENDBLK
  5
843B
330
833D
100
AcDbEntity
  8
0
100
AcDbBlockEnd
  0
BLOCK
  5
843C
330
834B
100
AcDbEntity
  8
0
100
AcDbBlockBegin
  2
*D15
 70
     1
 10
0.0
 20
0.0
 30
0.0
  3
*D15
  1

  0
LINE
  5
8536
330
834B
100
AcDbEntity
  8
3
 62
     0
100
AcDbLine
 10
542.4219663694066
 20
1530.312166989981
 30
0.0
 11
542.4219663694066
 21
2288.053961006383
 31
0.0
  0
LINE
  5
8537
330
834B
100
AcDbEntity
  8
3
 62
     0
100
AcDbLine
 10
1507.421966369406
 20
1857.700997314938
 30
0.0
 11
1507.421966369406
 21
2288.053961006383
 31
0.0
  0
LINE
  5
8538
330
834B
100
AcDbEntity
  8
3
 62
     0
100
AcDbLine
 10
572.4219663694066
 20
2273.053961006382
 30
0.0
 11
1477.421966369407
 21
2273.053961006382
 31
0.0
  0
INSERT
  5
8539
330
834B
100
AcDbEntity
  8
3
 62
     0
100
AcDbBlockReference
  2
_OPEN
 10
542.4219663694066
 20
2273.053961006382
 30
0.0
 41
30.0
 42
30.0
 43
30.0
 50
180.0
  0
INSERT
  5
853A
330
834B
100
AcDbEntity
  8
3
 62
     0
100
AcDbBlockReference
  2
_OPEN
 10
1507.421966369406
 20
2273.053961006382
 30
0.0
 41
30.0
 42
30.0
 43
30.0
  0
MTEXT
  5
853B
330
834B
100
AcDbEntity
  8
3
 62
     0
100
AcDbMText
 10
993.3465487092872
 20
2310.553961006382
 30
0.0
 40
45.0
 41
0.0
 71
     5
 72
     5
  1
\A1;965
 73
     1
 44
1.0
1001
ACAD
1000
MTEXTBEGIN
1070
    73
1070
     1
1070
    44
1040
1.0
1070
    74
1070
     0
1000
MTEXTEND
  0
POINT
  5
853C
330
834B
100
AcDbEntity
  8
DEFPOINTS
 62
     0
100
AcDbPoint
 10
542.4219663694066
 20
1522.812166989981
 30
0.0
  0
POINT
  5
853D
330
834B
100
AcDbEntity
  8
DEFPOINTS
 62
     0
100
AcDbPoint
 10
1507.421966369406
 20
1850.200997314938
 30
0.0
  0
POINT
  5
853E
330
834B
100
AcDbEntity
  8
DEFPOINTS
 62
     0
100
AcDbPoint
 10
1507.421966369406
 20
2273.053961006382
 30
0.0
  0
ENDBLK
  5
8446
330
834B
100
AcDbEntity
  8
0
100
AcDbBlockEnd
  0
BLOCK
  5
845F
330
845E
100
AcDbEntity
  8
0
100
AcDbBlockBegin
  2
*D16
 70
     1
 10
0.0
 20
0.0
 30
0.0
  3
*D16
  1

  0
LINE
  5
85E4
330
845E
100
AcDbEntity
  8
3
 62
     0
370
    -2
100
AcDbLine
 10
574.4219663694066
 20
1255.312166989982
 30
0.0
 11
574.4219663694066
 21
1145.325357478412
 31
0.0
  0
LINE
  5
85E5
330
845E
100
AcDbEntity
  8
3
 62
     0
370
    -2
100
AcDbLine
 10
1262.421966369406
 20
1255.312166989982
 30
0.0
 11
1262.421966369406
 21
1145.325357478412
 31
0.0
  0
LINE
  5
85E6
330
845E
100
AcDbEntity
  8
3
 62
     0
370
    -2
100
AcDbLine
 10
604.4219663694065
 20
1160.325357478412
 30
0.0
 11
1232.421966369406
 21
1160.325357478412
 31
0.0
  0
INSERT
  5
85E7
330
845E
100
AcDbEntity
  8
3
 62
     0
370
    -2
100
AcDbBlockReference
  2
_OPEN
 10
574.4219663694066
 20
1160.325357478412
 30
0.0
 41
30.0
 42
30.0
 43
30.0
 50
180.0
  0
INSERT
  5
85E8
330
845E
100
AcDbEntity
  8
3
 62
     0
370
    -2
100
AcDbBlockReference
  2
_OPEN
 10
1262.421966369406
 20
1160.325357478412
 30
0.0
 41
30.0
 42
30.0
 43
30.0
  0
MTEXT
  5
85E9
330
845E
100
AcDbEntity
  8
3
 62
     0
100
AcDbMText
 10
918.4219663694065
 20
1197.825357478412
 30
0.0
 40
45.0
 41
0.0
 71
     5
 72
     1
  1
\A1;688
 73
     1
 44
1.0
1001
ACAD
1000
MTEXTBEGIN
1070
    73
1070
     1
1070
    44
1040
1.0
1070
    74
1070
     0
1000
MTEXTEND
  0
POINT
  5
85EA
330
845E
100
AcDbEntity
  8
DEFPOINTS
 62
     0
100
AcDbPoint
 10
574.4219663694066
 20
1262.812166989982
 30
0.0
  0
POINT
  5
85EB
330
845E
100
AcDbEntity
  8
DEFPOINTS
 62
     0
100
AcDbPoint
 10
1262.421966369406
 20
1262.812166989982
 30
0.0
  0
POINT
  5
85EC
330
845E
100
AcDbEntity
  8
DEFPOINTS
 62
     0
100
AcDbPoint
 10
1262.421966369406
 20
1160.325357478412
 30
0.0
  0
ENDBLK
  5
8469
330
845E
100
AcDbEntity
  8
0
100
AcDbBlockEnd
  0
BLOCK
  5
846C
330
846B
100
AcDbEntity
  8
0
100
AcDbBlockBegin
  2
*D17
 70
     1
 10
0.0
 20
0.0
 30
0.0
  3
*D17
  1

  0
LINE
  5
85ED
330
846B
100
AcDbEntity
  8
3
 62
     0
370
    -2
100
AcDbLine
 10
1262.421966369406
 20
1255.312166989982
 30
0.0
 11
1262.421966369406
 21
1145.325357478412
 31
0.0
  0
LINE
  5
85EE
330
846B
100
AcDbEntity
  8
3
 62
     0
370
    -2
100
AcDbLine
 10
1474.421966369406
 20
1255.312166989982
 30
0.0
 11
1474.421966369406
 21
1145.325357478412
 31
0.0
  0
LINE
  5
85EF
330
846B
100
AcDbEntity
  8
3
 62
     0
370
    -2
100
AcDbLine
 10
1292.421966369406
 20
1160.325357478412
 30
0.0
 11
1444.421966369407
 21
1160.325357478412
 31
0.0
  0
INSERT
  5
85F0
330
846B
100
AcDbEntity
  8
3
 62
     0
370
    -2
100
AcDbBlockReference
  2
_OPEN
 10
1262.421966369406
 20
1160.325357478412
 30
0.0
 41
30.0
 42
30.0
 43
30.0
 50
180.0
  0
INSERT
  5
85F1
330
846B
100
AcDbEntity
  8
3
 62
     0
370
    -2
100
AcDbBlockReference
  2
_OPEN
 10
1474.421966369406
 20
1160.325357478412
 30
0.0
 41
30.0
 42
30.0
 43
30.0
  0
MTEXT
  5
85F2
330
846B
100
AcDbEntity
  8
3
 62
     0
100
AcDbMText
 10
1368.421966369406
 20
1197.825357478412
 30
0.0
 40
45.0
 41
0.0
 71
     5
 72
     1
  1
\A1;212
 73
     1
 44
1.0
1001
ACAD
1000
MTEXTBEGIN
1070
    73
1070
     1
1070
    44
1040
1.0
1070
    74
1070
     0
1000
MTEXTEND
  0
POINT
  5
85F3
330
846B
100
AcDbEntity
  8
DEFPOINTS
 62
     0
100
AcDbPoint
 10
1262.421966369406
 20
1262.812166989982
 30
0.0
  0
POINT
  5
85F4
330
846B
100
AcDbEntity
  8
DEFPOINTS
 62
     0
100
AcDbPoint
 10
1474.421966369406
 20
1262.812166989982
 30
0.0
  0
POINT
  5
85F5
330
846B
100
AcDbEntity
  8
DEFPOINTS
 62
     0
100
AcDbPoint
 10
1474.421966369406
 20
1160.325357478412
 30
0.0
  0
ENDBLK
  5
8476
330
846B
100
AcDbEntity
  8
0
100
AcDbBlockEnd
  0
BLOCK
  5
8479
330
8478
100
AcDbEntity
  8
0
100
AcDbBlockBegin
  2
*D18
 70
     1
 10
0.0
 20
0.0
 30
0.0
  3
*D18
  1

  0
LINE
  5
85F6
330
8478
100
AcDbEntity
  8
3
 62
     0
370
    -2
100
AcDbLine
 10
2081.904899722545
 20
1252.72456132359
 30
0.0
 11
2081.904899722545
 21
1145.325357478412
 31
0.0
  0
LINE
  5
85F7
330
8478
100
AcDbEntity
  8
3
 62
     0
370
    -2
100
AcDbLine
 10
2416.904899722546
 20
1252.724561323591
 30
0.0
 11
2416.904899722546
 21
1145.325357478412
 31
0.0
  0
LINE
  5
85F8
330
8478
100
AcDbEntity
  8
3
 62
     0
370
    -2
100
AcDbLine
 10
2111.904899722546
 20
1160.325357478412
 30
0.0
 11
2386.904899722546
 21
1160.325357478412
 31
0.0
  0
INSERT
  5
85F9
330
8478
100
AcDbEntity
  8
3
 62
     0
370
    -2
100
AcDbBlockReference
  2
_OPEN
 10
2081.904899722545
 20
1160.325357478412
 30
0.0
 41
30.0
 42
30.0
 43
30.0
 50
180.0
  0
INSERT
  5
85FA
330
8478
100
AcDbEntity
  8
3
 62
     0
370
    -2
100
AcDbBlockReference
  2
_OPEN
 10
2416.904899722546
 20
1160.325357478412
 30
0.0
 41
30.0
 42
30.0
 43
30.0
  0
MTEXT
  5
85FB
330
8478
100
AcDbEntity
  8
3
 62
     0
100
AcDbMText
 10
2249.404899722545
 20
1197.825357478412
 30
0.0
 40
45.0
 41
0.0
 71
     5
 72
     1
  1
\A1;335
 73
     1
 44
1.0
1001
ACAD
1000
MTEXTBEGIN
1070
    73
1070
     1
1070
    44
1040
1.0
1070
    74
1070
     0
1000
MTEXTEND
  0
POINT
  5
85FC
330
8478
100
AcDbEntity
  8
DEFPOINTS
 62
     0
100
AcDbPoint
 10
2081.904899722545
 20
1260.22456132359
 30
0.0
  0
POINT
  5
85FD
330
8478
100
AcDbEntity
  8
DEFPOINTS
 62
     0
100
AcDbPoint
 10
2416.904899722546
 20
1260.224561323591
 30
0.0
  0
POINT
  5
85FE
330
8478
100
AcDbEntity
  8
DEFPOINTS
 62
     0
100
AcDbPoint
 10
2416.904899722546
 20
1160.325357478412
 30
0.0
  0
ENDBLK
  5
8483
330
8478
100
AcDbEntity
  8
0
100
AcDbBlockEnd
  0
BLOCK
  5
8486
330
8485
100
AcDbEntity
  8
0
100
AcDbBlockBegin
  2
*D19
 70
     1
 10
0.0
 20
0.0
 30
0.0
  3
*D19
  1

  0
LINE
  5
85FF
330
8485
100
AcDbEntity
  8
3
 62
     0
370
    -2
100
AcDbLine
 10
2416.904899722546
 20
1252.724561323591
 30
0.0
 11
2416.904899722546
 21
1145.325357478412
 31
0.0
  0
LINE
  5
8600
330
8485
100
AcDbEntity
  8
3
 62
     0
370
    -2
100
AcDbLine
 10
2671.904899722546
 20
1252.72456132359
 30
0.0
 11
2671.904899722546
 21
1145.325357478412
 31
0.0
  0
LINE
  5
8601
330
8485
100
AcDbEntity
  8
3
 62
     0
370
    -2
100
AcDbLine
 10
2446.904899722546
 20
1160.325357478412
 30
0.0
 11
2641.904899722546
 21
1160.325357478412
 31
0.0
  0
INSERT
  5
8602
330
8485
100
AcDbEntity
  8
3
 62
     0
370
    -2
100
AcDbBlockReference
  2
_OPEN
 10
2416.904899722546
 20
1160.325357478412
 30
0.0
 41
30.0
 42
30.0
 43
30.0
 50
180.0
  0
INSERT
  5
8603
330
8485
100
AcDbEntity
  8
3
 62
     0
370
    -2
100
AcDbBlockReference
  2
_OPEN
 10
2671.904899722546
 20
1160.325357478412
 30
0.0
 41
30.0
 42
30.0
 43
30.0
  0
MTEXT
  5
8604
330
8485
100
AcDbEntity
  8
3
 62
     0
100
AcDbMText
 10
2544.404899722545
 20
1197.825357478412
 30
0.0
 40
45.0
 41
0.0
 71
     5
 72
     1
  1
\A1;255
 73
     1
 44
1.0
1001
ACAD
1000
MTEXTBEGIN
1070
    73
1070
     1
1070
    44
1040
1.0
1070
    74
1070
     0
1000
MTEXTEND
  0
POINT
  5
8605
330
8485
100
AcDbEntity
  8
DEFPOINTS
 62
     0
100
AcDbPoint
 10
2416.904899722546
 20
1260.224561323591
 30
0.0
  0
POINT
  5
8606
330
8485
100
AcDbEntity
  8
DEFPOINTS
 62
     0
100
AcDbPoint
 10
2671.904899722546
 20
1260.22456132359
 30
0.0
  0
POINT
  5
8607
330
8485
100
AcDbEntity
  8
DEFPOINTS
 62
     0
100
AcDbPoint
 10
2671.904899722546
 20
1160.325357478412
 30
0.0
  0
ENDBLK
  5
8490
330
8485
100
AcDbEntity
  8
0
100
AcDbBlockEnd
  0
BLOCK
  5
8493
330
8492
100
AcDbEntity
  8
0
100
AcDbBlockBegin
  2
_CLOSED
 70
     0
 10
0.0
 20
0.0
 30
0.0
  3
_CLOSED
  1

  0
LINE
  5
8494
330
8492
100
AcDbEntity
  8
0
  6
ByBlock
 62
     0
100
AcDbLine
 10
-1.0
 20
0.1666666666666666
 30
0.0
 11
0.0
 21
0.0
 31
0.0
  0
LINE
  5
8495
330
8492
100
AcDbEntity
  8
0
  6
ByBlock
 62
     0
100
AcDbLine
 10
0.0
 20
0.0
 30
0.0
 11
-1.0
 21
-0.1666666666666666
 31
0.0
  0
LINE
  5
8496
330
8492
100
AcDbEntity
  8
0
  6
ByBlock
 62
     0
100
AcDbLine
 10
-1.0
 20
0.1666666666666666
 30
0.0
 11
-1.0
 21
-0.1666666666666666
 31
0.0
  0
ENDBLK
  5
8497
330
8492
100
AcDbEntity
  8
0
100
AcDbBlockEnd
  0
BLOCK
  5
8499
330
8498
100
AcDbEntity
  8
0
100
AcDbBlockBegin
  2
_NONE
 70
     0
 10
0.0
 20
0.0
 30
0.0
  3
_NONE
  1

  0
CIRCLE
  5
849A
330
8498
100
AcDbEntity
  8
0
  6
ByBlock
 62
     0
100
AcDbCircle
 10
0.0
 20
0.0
 30
0.0
 40
0.25
  0
ENDBLK
  5
849B
330
8498
100
AcDbEntity
  8
0
100
AcDbBlockEnd
  0
BLOCK
  5
84A7
330
84A6
100
AcDbEntity
  8
0
100
AcDbBlockBegin
  2
*D22
 70
     1
 10
0.0
 20
0.0
 30
0.0
  3
*D22
  1

  0
LINE
  5
84A8
330
84A6
100
AcDbEntity
  8
0
  6
ByBlock
 62
     0
100
AcDbLine
 10
1214.222761262532
 20
2073.812166989982
 30
0.0
 11
1765.094707108281
 21
2073.812166989982
 31
0.0
  0
LINE
  5
84A9
330
84A6
100
AcDbEntity
  8
0
  6
ByBlock
 62
     0
100
AcDbLine
 10
1592.421447636447
 20
1847.812166989982
 30
0.0
 11
1765.094707108281
 21
1847.812166989982
 31
0.0
  0
LINE
  5
84AA
330
84A6
100
AcDbEntity
  8
0
  6
ByBlock
 62
     0
100
AcDbLine
 10
1750.094707108281
 20
2043.812166989982
 30
0.0
 11
1750.094707108281
 21
1877.812166989982
 31
0.0
  0
INSERT
  5
84AB
330
84A6
100
AcDbEntity
  8
0
  6
ByBlock
 62
     0
100
AcDbBlockReference
  2
_OPEN
 10
1750.094707108281
 20
2073.812166989982
 30
0.0
 41
30.0
 42
30.0
 43
30.0
 50
90.0
  0
INSERT
  5
84AC
330
84A6
100
AcDbEntity
  8
0
  6
ByBlock
 62
     0
100
AcDbBlockReference
  2
_OPEN
 10
1750.094707108281
 20
1847.812166989982
 30
0.0
 41
30.0
 42
30.0
 43
30.0
 50
270.0
  0
MTEXT
  5
84AD
330
84A6
100
AcDbEntity
  8
0
  6
ByBlock
 62
     0
100
AcDbMText
 10
1712.594707108281
 20
1960.812166989982
 30
0.0
 40
45.0
 41
0.0
 71
     5
 72
     5
  1
\A1;226
 11
0.0
 21
1.0
 31
0.0
 73
     1
 44
1.0
1001
ACAD
1000
MTEXTBEGIN
1070
    73
1070
     1
1070
    44
1040
1.0
1070
    74
1070
     0
1000
MTEXTEND
  0
POINT
  5
84AE
330
84A6
100
AcDbEntity
  8
DEFPOINTS
  6
ByBlock
 62
     0
100
AcDbPoint
 10
1206.722761262532
 20
2073.812166989982
 30
0.0
  0
POINT
  5
84AF
330
84A6
100
AcDbEntity
  8
DEFPOINTS
  6
ByBlock
 62
     0
100
AcDbPoint
 10
1584.921447636447
 20
1847.812166989982
 30
0.0
  0
POINT
  5
84B0
330
84A6
100
AcDbEntity
  8
DEFPOINTS
  6
ByBlock
 62
     0
100
AcDbPoint
 10
1750.094707108281
 20
1847.812166989982
 30
0.0
  0
ENDBLK
  5
84B1
330
84A6
100
AcDbEntity
  8
0
100
AcDbBlockEnd
  0
BLOCK
  5
84C3
330
84C2
100
AcDbEntity
  8
0
100
AcDbBlockBegin
  2
*D23
 70
     1
 10
0.0
 20
0.0
 30
0.0
  3
*D23
  1

  0
LINE
  5
8616
330
84C2
100
AcDbEntity
  8
3
 62
     0
370
    -2
100
AcDbLine
 10
1748.768734955831
 20
1327.812166989982
 30
0.0
 11
1748.768734955831
 21
1407.812166989981
 31
0.0
  0
MTEXT
  5
8617
330
84C2
100
AcDbEntity
  8
3
 62
     0
100
AcDbMText
 10
1804.732628238635
 20
1367.812166989982
 30
0.0
 40
45.0
 41
0.0
 71
     5
 72
     1
  1
\A1;(80)
 11
0.0000000000000001
 21
1.0
 31
0.0
 73
     1
 44
1.0
1001
ACAD
1000
MTEXTBEGIN
1070
    73
1070
     1
1070
    44
1040
1.0
1070
    74
1070
     0
1000
MTEXTEND
  0
POINT
  5
8618
330
84C2
100
AcDbEntity
  8
DEFPOINTS
 62
     0
100
AcDbPoint
 10
1474.421966369406
 20
1327.812166989982
 30
0.0
  0
POINT
  5
8619
330
84C2
100
AcDbEntity
  8
DEFPOINTS
 62
     0
100
AcDbPoint
 10
1474.421966369406
 20
1407.812166989982
 30
0.0
  0
POINT
  5
861A
330
84C2
100
AcDbEntity
  8
DEFPOINTS
 62
     0
100
AcDbPoint
 10
1748.768734955831
 20
1407.812166989981
 30
0.0
  0
ENDBLK
  5
84C9
330
84C2
100
AcDbEntity
  8
0
100
AcDbBlockEnd
  0
BLOCK
  5
84CC
330
84CB
100
AcDbEntity
  8
0
100
AcDbBlockBegin
  2
*D24
 70
     1
 10
0.0
 20
0.0
 30
0.0
  3
*D24
  1

  0
LINE
  5
860D
330
84CB
100
AcDbEntity
  8
3
 62
     0
370
    -2
100
AcDbLine
 10
1221.722761262532
 20
2073.812166989982
 30
0.0
 11
1888.474100987578
 21
2073.812166989982
 31
0.0
  0
LINE
  5
860E
330
84CB
100
AcDbEntity
  8
3
 62
     0
370
    -2
100
AcDbLine
 10
1481.921966369406
 20
1262.812166989982
 30
0.0
 11
1888.474100987578
 21
1262.812166989982
 31
0.0
  0
LINE
  5
860F
330
84CB
100
AcDbEntity
  8
3
 62
     0
370
    -2
100
AcDbLine
 10
1873.474100987578
 20
2043.812166989982
 30
0.0
 11
1873.474100987578
 21
1292.812166989982
 31
0.0
  0
INSERT
  5
8610
330
84CB
100
AcDbEntity
  8
3
 62
     0
370
    -2
100
AcDbBlockReference
  2
_OPEN
 10
1873.474100987578
 20
2073.812166989982
 30
0.0
 41
30.0
 42
30.0
 43
30.0
 50
90.0
  0
INSERT
  5
8611
330
84CB
100
AcDbEntity
  8
3
 62
     0
370
    -2
100
AcDbBlockReference
  2
_OPEN
 10
1873.474100987578
 20
1262.812166989982
 30
0.0
 41
30.0
 42
30.0
 43
30.0
 50
270.0
  0
MTEXT
  5
8612
330
84CB
100
AcDbEntity
  8
3
 62
     0
100
AcDbMText
 10
1824.188386701863
 20
1668.312166989982
 30
0.0
 40
45.0
 41
0.0
 71
     5
 72
     1
  1
\A1;(811)
 11
0.0000000000000001
 21
1.0
 31
0.0
 73
     1
 44
1.0
1001
ACAD
1000
MTEXTBEGIN
1070
    73
1070
     1
1070
    44
1040
1.0
1070
    74
1070
     0
1000
MTEXTEND
  0
POINT
  5
8613
330
84CB
100
AcDbEntity
  8
DEFPOINTS
 62
     0
100
AcDbPoint
 10
1214.222761262532
 20
2073.812166989982
 30
0.0
  0
POINT
  5
8614
330
84CB
100
AcDbEntity
  8
DEFPOINTS
 62
     0
100
AcDbPoint
 10
1474.421966369406
 20
1262.812166989982
 30
0.0
  0
POINT
  5
8615
330
84CB
100
AcDbEntity
  8
DEFPOINTS
 62
     0
100
AcDbPoint
 10
1873.474100987578
 20
1262.812166989982
 30
0.0
  0
ENDBLK
  5
84D6
330
84CB
100
AcDbEntity
  8
0
100
AcDbBlockEnd
  0
ENDSEC
  0
SECTION
  2
ENTITIES
  0
LINE
  5
7EA4
330
19
100
AcDbEntity
  8
4
100
AcDbLine
 10
2775.0
 20
750.0
 30
0.0
 11
2775.0
 21
450.0
 31
0.0
  0
LINE
  5
7EA5
330
19
100
AcDbEntity
  8
4
100
AcDbLine
 10
1725.0
 20
750.0
 30
0.0
 11
1725.0
 21
450.0
 31
0.0
  0
LINE
  5
7EA6
330
19
100
AcDbEntity
  8
4
100
AcDbLine
 10
975.0
 20
750.0
 30
0.0
 11
975.0
 21
450.0
 31
0.0
  0
LINE
  5
7EA9
330
19
100
AcDbEntity
  8
4
100
AcDbLine
 10
975.0
 20
450.0
 30
0.0
 11
2775.0
 21
450.0
 31
0.0
  0
LINE
  5
7EAA
330
19
100
AcDbEntity
  8
4
100
AcDbLine
 10
975.0
 20
600.0
 30
0.0
 11
2775.0
 21
600.0
 31
0.0
  0
TEXT
  5
7EAB
330
19
100
AcDbEntity
  8
4
100
AcDbText
 10
1032.753121270352
 20
647.3145387999193
 30
0.0
 40
75.0
  1
機器名称
100
AcDbText
  0
TEXT
  5
7EAC
330
19
100
AcDbEntity
  8
4
100
AcDbText
 10
1029.387159037196
 20
482.4677350980164
 30
0.0
 40
75.0
  1
機器型番
100
AcDbText
  0
TEXT
  5
7EAD
330
19
100
AcDbEntity
  8
4
100
AcDbText
 10
1767.267801734962
 20
644.6542637068803
 30
0.0
 40
60.0
  1
ミツヤ多翼送風機
100
AcDbText
  0
TEXT
  5
7EAE
330
19
100
AcDbEntity
  8
4
100
AcDbText
 10
1779.981743378221
 20
475.739376419915
 30
0.0
 40
75.0
  1
MF#2-5
100
AcDbText
  0
TEXT
  5
7EB0
330
19
100
AcDbEntity
  8
4
100
AcDbText
 10
1222.527500185471
 20
3575.143261998774
 30
0.0
 40
80.99999999999999
  1
床置防振ベット
100
AcDbText
  0
TEXT
  5
7EB1
330
19
100
AcDbEntity
  8
4
100
AcDbText
 10
474.2513899941696
 20
3800.821464298947
 30
0.0
 40
108.0
  1
遠心式両吸込両持多翼ファン
100
AcDbText
  0
LINE
  5
7EB2
330
19
100
AcDbEntity
  8
4
100
AcDbLine
 10
375.0
 20
3704.113131397207
 30
0.0
 11
2775.0
 21
3704.113131397207
 31
0.0
  0
LINE
  5
7EB3
330
19
100
AcDbEntity
  8
4
100
AcDbLine
 10
375.0
 20
4004.113131397207
 30
0.0
 11
2775.0
 21
4004.113131397207
 31
0.0
  0
LINE
  5
7EB4
330
19
100
AcDbEntity
  8
4
100
AcDbLine
 10
975.0
 20
750.0
 30
0.0
 11
2775.0
 21
750.0
 31
0.0
  0
LINE
  5
7EB5
330
19
100
AcDbEntity
  8
4
100
AcDbLine
 10
375.0
 20
4004.113131397207
 30
0.0
 11
375.0
 21
3704.113131397207
 31
0.0
  0
TEXT
  5
7EB6
330
19
100
AcDbEntity
  8
4
100
AcDbText
 10
568.7392518214182
 20
3573.479216319515
 30
0.0
 40
80.99999999999999
  1
左回転右横向
100
AcDbText
  0
TEXT
  5
7EB7
330
19
100
AcDbEntity
  8
4
100
AcDbText
 10
2203.454338873935
 20
4059.091622242963
 30
0.0
 40
84.00000000000002
  1
No.
100
AcDbText
  0
TEXT
  5
7EB8
330
19
100
AcDbEntity
  8
4
100
AcDbText
 10
1966.94409390002
 20
3575.143261998774
 30
0.0
 40
80.99999999999999
  1
縮尺：1/15
100
AcDbText
  0
LINE
  5
7EB9
330
19
100
AcDbEntity
  8
4
100
AcDbLine
 10
2775.0
 20
4004.113131397207
 30
0.0
 11
2775.0
 21
3704.113131397207
 31
0.0
  0
LINE
  5
7EBA
330
19
100
AcDbEntity
  8
4
100
AcDbLine
 10
3150.0
 20
4425.0
 30
0.0
 11
3150.0
 21
4425.0
 31
0.0
  0
LINE
  5
7EBB
330
19
100
AcDbEntity
  8
4
100
AcDbLine
 10
2160.926133539797
 20
4021.895374688102
 30
0.0
 11
2160.926133539797
 21
4179.978392324628
 31
0.0
  0
LINE
  5
7EBC
330
19
100
AcDbEntity
  8
4
100
AcDbLine
 10
2160.926133539797
 20
4179.978392324628
 30
0.0
 11
2775.0
 21
4179.978392324628
 31
0.0
  0
LINE
  5
7EBD
330
19
100
AcDbEntity
  8
4
100
AcDbLine
 10
2775.0
 20
4179.978392324628
 30
0.0
 11
2775.0
 21
4021.895374688102
 31
0.0
  0
LINE
  5
7EBE
330
19
100
AcDbEntity
  8
4
100
AcDbLine
 10
2775.0
 20
4021.895374688102
 30
0.0
 11
2160.926133539797
 21
4021.895374688102
 31
0.0
  0
LINE
  5
7EBF
330
19
100
AcDbEntity
  8
4
100
AcDbLine
 10
0.0
 20
0.0
 30
0.0
 11
0.0
 21
4425.0
 31
0.0
  0
LINE
  5
7EC0
330
19
100
AcDbEntity
  8
4
100
AcDbLine
 10
0.0
 20
4425.0
 30
0.0
 11
3150.0
 21
4425.0
 31
0.0
  0
LINE
  5
7EC1
330
19
100
AcDbEntity
  8
4
100
AcDbLine
 10
3150.0
 20
4425.0
 30
0.0
 11
3150.0
 21
0.0
 31
0.0
  0
LINE
  5
7EC2
330
19
100
AcDbEntity
  8
4
100
AcDbLine
 10
3150.0
 20
0.0
 30
0.0
 11
0.0
 21
0.0
 31
0.0
  0
INSERT
  5
8170
330
19
100
AcDbEntity
  8
0
100
AcDbBlockReference
  2
YA_N
 10
3652.870438966369
 20
0.636093583309048
 30
0.0
  0
INSERT
  5
8171
330
19
100
AcDbEntity
  8
0
100
AcDbBlockReference
  2
YA_N
 10
3652.870438966369
 20
0.636093583309048
 30
0.0
  0
INSERT
  5
8172
330
19
100
AcDbEntity
  8
0
100
AcDbBlockReference
  2
YA_N
 10
5298.980869284804
 20
349.495905772537
 30
0.0
  0
INSERT
  5
8173
330
19
100
AcDbEntity
  8
0
100
AcDbBlockReference
  2
YA_N
 10
3437.466802296999
 20
-1448.847914662177
 30
0.0
 41
10.0
 42
10.0
 43
10.0
  0
INSERT
  5
8174
330
19
100
AcDbEntity
  8
0
100
AcDbBlockReference
  2
YA_N
 10
3437.466802296999
 20
-1448.847914662177
 30
0.0
 41
10.0
 42
10.0
 43
10.0
  0
DIMENSION
  5
8194
330
19
100
AcDbEntity
  8
3
100
AcDbDimension
  2
*D3
 10
2809.647620835949
 20
1687.72456132359
 30
0.0
 11
2779.647620835949
 21
1845.22456132359
 31
0.0
 12
-3686.178036153219
 22
0.0
 32
0.0
 70
    32
  1
\U+03C6 <>
 71
     5
 42
-1.0
  3
MATSU
100
AcDbAlignedDimension
 13
2633.604899722545
 23
2002.72456132359
 33
0.0
 14
2633.604899722546
 24
1687.72456132359
 34
0.0
 50
90.0
100
AcDbRotatedDimension
1001
ACAD
1000
DSTYLE
1002
{
1070
    40
1040
15.0
1002
}
  0
LINE
  5
8195
330
19
100
AcDbEntity
  8
1
100
AcDbLine
 10
2204.404899722546
 20
2071.224561323591
 30
0.0
 11
2204.404899722546
 21
1494.22456132359
 31
0.0
  0
LINE
  5
8196
330
19
100
AcDbEntity
  8
1
100
AcDbLine
 10
2629.404899722546
 20
2071.224561323591
 30
0.0
 11
2629.404899722546
 21
1494.22456132359
 31
0.0
  0
LINE
  5
8197
330
19
100
AcDbEntity
  8
2
100
AcDbLine
 10
987.4281419934595
 20
1847.812166989982
 30
0.0
 11
1584.921447636447
 21
1847.812166989982
 31
0.0
  0
DIMENSION
  5
8198
330
19
100
AcDbEntity
  8
3
100
AcDbDimension
  2
*D4
 10
1675.162846344315
 20
1847.812166989982
 30
0.0
 11
1645.162846344315
 21
1672.312166989982
 31
0.0
 12
-3686.178036153219
 22
0.0
 32
0.0
 70
    32
  1
351
 71
     5
 42
-1.0
  3
MATSU
100
AcDbAlignedDimension
 13
1507.421966369406
 23
1496.812166989982
 33
0.0
 14
1578.124812145522
 24
1847.812166989982
 34
0.0
 50
270.0
100
AcDbRotatedDimension
1001
ACAD
1000
DSTYLE
1002
{
1070
    40
1040
15.0
1002
}
  0
DIMENSION
  5
8199
330
19
100
AcDbEntity
  8
3
100
AcDbDimension
  2
*D5
 10
1597.631353208359
 20
1821.812166989982
 30
0.0
 11
1567.631353208359
 21
1659.312166989982
 31
0.0
 12
-3686.178036153219
 22
0.0
 32
0.0
 70
    32
  1
325
 71
     5
 42
-1.0
  3
MATSU
100
AcDbAlignedDimension
 13
1507.421966369406
 23
1496.812166989982
 33
0.0
 14
1507.421966369406
 24
1821.812166989982
 34
0.0
 50
270.0
100
AcDbRotatedDimension
1001
ACAD
1000
DSTYLE
1002
{
1070
    40
1040
15.0
1002
}
  0
LINE
  5
819A
330
19
100
AcDbEntity
  8
1
100
AcDbLine
 10
1507.421966369406
 20
1821.812166989982
 30
0.0
 11
1447.80113999928
 21
1821.812166989982
 31
0.0
  0
LINE
  5
819B
330
19
100
AcDbEntity
  8
1
100
AcDbLine
 10
1507.421966369405
 20
1496.812166989982
 30
0.0
 11
1507.421966369405
 21
1470.200997314938
 31
0.0
  0
LINE
  5
819C
330
19
100
AcDbEntity
  8
1
100
AcDbLine
 10
1507.421966369406
 20
1850.200997314938
 30
0.0
 11
1504.421966369406
 21
1850.200997314938
 31
0.0
  0
LINE
  5
819D
330
19
100
AcDbEntity
  8
1
100
AcDbLine
 10
1507.421966369406
 20
1825.200997314938
 30
0.0
 11
1507.421966369406
 21
1850.200997314938
 31
0.0
  0
LINE
  5
819E
330
19
100
AcDbEntity
  8
2
100
AcDbLine
 10
1922.381515151936
 20
1845.22456132359
 30
0.0
 11
2683.194150775513
 21
1845.22456132359
 31
0.0
  0
LINE
  5
819F
330
19
100
AcDbEntity
  8
1
100
AcDbLine
 10
1482.421966369406
 20
1498.771350663452
 30
0.0
 11
1482.421966369406
 21
1499.771350663452
 31
0.0
  0
LINE
  5
81A0
330
19
100
AcDbEntity
  8
1
100
AcDbLine
 10
1482.421966369406
 20
1499.60705178813
 30
0.0
 11
1482.421966369406
 21
1821.812166989982
 31
0.0
  0
LINE
  5
81A1
330
19
100
AcDbEntity
  8
2
100
AcDbLine
 10
1262.421966369406
 20
2112.485681876358
 30
0.0
 11
1262.421966369406
 21
1262.812166989982
 31
0.0
  0
LINE
  5
81A2
330
19
100
AcDbEntity
  8
1
100
AcDbLine
 10
1507.421966369406
 20
1830.200997314937
 30
0.0
 11
1507.421966369406
 21
1491.312709869468
 31
0.0
  0
LWPOLYLINE
  5
81A3
330
19
100
AcDbEntity
  8
1
100
AcDbPolyline
 90
        6
 70
     0
 43
0.0
 10
1507.421966369406
 20
1496.812166989982
 10
1262.26361213642
 20
1524.219741285373
 42
-0.3908380251735333
 10
985.8570854887247
 20
1823.812166989983
 42
-0.4468309864143491
 10
1277.1365304124
 20
2074.288343685842
 42
-0.3826939024088523
 10
1453.632442575656
 20
1866.312166989983
 42
-0.0652413708697207
 10
1447.80113999928
 20
1821.812166989982
 42
-0.1475914163848442
  0
LINE
  5
81AB
330
19
100
AcDbEntity
  8
1
100
AcDbLine
 10
1504.421966369406
 20
1850.200997314938
 30
0.0
 11
1504.421966369406
 21
1470.200997314938
 31
0.0
  0
LINE
  5
81AC
330
19
100
AcDbEntity
  8
1
100
AcDbLine
 10
1507.421966369405
 20
1470.200997314938
 30
0.0
 11
1504.421966369406
 21
1470.200997314938
 31
0.0
  0
LINE
  5
81AD
330
19
100
AcDbEntity
  8
1
100
AcDbLine
 10
2081.904899722545
 20
1405.22456132359
 30
0.0
 11
2671.904899722546
 21
1405.22456132359
 31
0.0
  0
LINE
  5
81AE
330
19
100
AcDbEntity
  8
1
100
AcDbLine
 10
2081.904899722545
 20
1325.22456132359
 30
0.0
 11
2671.904899722546
 21
1325.22456132359
 31
0.0
  0
LINE
  5
81AF
330
19
100
AcDbEntity
  8
1
100
AcDbLine
 10
2081.904899722545
 20
1260.22456132359
 30
0.0
 11
2671.904899722546
 21
1260.22456132359
 31
0.0
  0
LINE
  5
81B0
330
19
100
AcDbEntity
  8
2
100
AcDbLine
 10
2416.904899722546
 20
2171.729662149357
 30
0.0
 11
2416.904899722546
 21
1260.22456132359
 31
0.0
  0
LINE
  5
81B1
330
19
100
AcDbEntity
  8
1
100
AcDbLine
 10
2671.904899722547
 20
1480.22456132359
 30
0.0
 11
2671.904899722547
 21
1405.22456132359
 31
0.0
  0
LINE
  5
81B2
330
19
100
AcDbEntity
  8
1
100
AcDbLine
 10
2081.904899722545
 20
1480.22456132359
 30
0.0
 11
2081.904899722545
 21
1405.22456132359
 31
0.0
  0
LINE
  5
81B3
330
19
100
AcDbEntity
  8
1
100
AcDbLine
 10
2081.904899722545
 20
1325.22456132359
 30
0.0
 11
2081.904899722545
 21
1260.22456132359
 31
0.0
  0
LINE
  5
81B4
330
19
100
AcDbEntity
  8
1
100
AcDbLine
 10
2671.904899722546
 20
1325.22456132359
 30
0.0
 11
2671.904899722546
 21
1260.22456132359
 31
0.0
  0
LINE
  5
81B5
330
19
100
AcDbEntity
  8
1
100
AcDbLine
 10
1474.421966369406
 20
1407.812166989982
 30
0.0
 11
574.4219663694066
 21
1407.812166989982
 31
0.0
  0
LINE
  5
81B6
330
19
100
AcDbEntity
  8
1
100
AcDbLine
 10
1474.421966369406
 20
1327.812166989982
 30
0.0
 11
574.4219663694066
 21
1327.812166989982
 31
0.0
  0
LINE
  5
81B7
330
19
100
AcDbEntity
  8
1
100
AcDbLine
 10
1474.421966369406
 20
1262.812166989982
 30
0.0
 11
574.4219663694066
 21
1262.812166989982
 31
0.0
  0
LINE
  5
81B8
330
19
100
AcDbEntity
  8
1
100
AcDbLine
 10
1474.421966369406
 20
1482.812166989982
 30
0.0
 11
1474.421966369406
 21
1407.812166989982
 31
0.0
  0
LINE
  5
81B9
330
19
100
AcDbEntity
  8
1
100
AcDbLine
 10
574.4219663694066
 20
1482.812166989982
 30
0.0
 11
574.4219663694066
 21
1407.812166989982
 31
0.0
  0
LINE
  5
81BA
330
19
100
AcDbEntity
  8
1
100
AcDbLine
 10
574.4219663694066
 20
1327.812166989982
 30
0.0
 11
574.4219663694066
 21
1262.812166989982
 31
0.0
  0
LINE
  5
81BB
330
19
100
AcDbEntity
  8
1
100
AcDbLine
 10
1474.421966369406
 20
1327.812166989982
 30
0.0
 11
1474.421966369406
 21
1262.812166989982
 31
0.0
  0
LINE
  5
81BC
330
19
100
AcDbEntity
  8
2
100
AcDbLine
 10
742.4219663694066
 20
1853.210166989982
 30
0.0
 11
742.4219663694066
 21
1262.812166989982
 31
0.0
  0
LINE
  5
81BD
330
19
100
AcDbEntity
  8
2
100
AcDbLine
 10
551.79063786807
 20
1689.812166989982
 30
0.0
 11
950.3208663694067
 21
1689.812166989982
 31
0.0
  0
LINE
  5
81BE
330
19
100
AcDbEntity
  8
2
100
AcDbLine
 10
1262.421966369406
 20
2526.726768758966
 30
0.0
 11
1262.421966369406
 21
3197.391714310243
 31
0.0
  0
LINE
  5
81BF
330
19
100
AcDbEntity
  8
1
100
AcDbLine
 10
574.4219663694066
 20
3165.391129437393
 30
0.0
 11
1474.421966369406
 21
3165.391129437393
 31
0.0
  0
LINE
  5
81C0
330
19
100
AcDbEntity
  8
1
100
AcDbLine
 10
574.4219663694066
 20
2575.391129437393
 30
0.0
 11
1474.421966369406
 21
2575.391129437393
 31
0.0
  0
LINE
  5
81C1
330
19
100
AcDbEntity
  8
1
100
AcDbLine
 10
1474.421966369406
 20
2575.391129437393
 30
0.0
 11
1474.421966369406
 21
2697.891129437393
 31
0.0
  0
LINE
  5
81C2
330
19
100
AcDbEntity
  8
1
100
AcDbLine
 10
574.4219663694066
 20
2575.391129437393
 30
0.0
 11
574.4219663694066
 21
3165.391129437393
 31
0.0
  0
LINE
  5
81C3
330
19
100
AcDbEntity
  8
1
100
AcDbLine
 10
2133.904899722546
 20
1830.22456132359
 30
0.0
 11
2154.404899722546
 21
1830.22456132359
 31
0.0
  0
LINE
  5
81C4
330
19
100
AcDbEntity
  8
1
100
AcDbLine
 10
2133.904899722546
 20
1750.22456132359
 30
0.0
 11
2193.904899722545
 21
1750.224561323593
 31
0.0
  0
LINE
  5
81C5
330
19
100
AcDbEntity
  8
1
100
AcDbLine
 10
2123.904899722546
 20
1820.22456132359
 30
0.0
 11
2123.904899722546
 21
1760.22456132359
 31
0.0
  0
LINE
  5
81C6
330
19
100
AcDbEntity
  8
1
100
AcDbLine
 10
2706.904899722545
 20
1820.22456132359
 30
0.0
 11
2706.904899722545
 21
1760.22456132359
 31
0.0
  0
LINE
  5
81C7
330
19
100
AcDbEntity
  8
1
100
AcDbLine
 10
2636.904899722545
 20
1750.22456132359
 30
0.0
 11
2696.904899722545
 21
1750.22456132359
 31
0.0
  0
LINE
  5
81C8
330
19
100
AcDbEntity
  8
1
100
AcDbLine
 10
2636.904899722546
 20
1830.22456132359
 30
0.0
 11
2696.904899722546
 21
1830.22456132359
 31
0.0
  0
DIMENSION
  5
81C9
330
19
100
AcDbEntity
  8
3
100
AcDbDimension
  2
*D6
 10
1749.667030889836
 20
1407.812166989982
 30
0.0
 11
1719.667030889836
 21
1627.812166989982
 31
0.0
 12
-3686.178036153219
 22
0.0
 32
0.0
 70
    32
 71
     5
 42
-1.0
  3
MATSU
100
AcDbAlignedDimension
 13
1578.124812145522
 23
1847.812166989982
 33
0.0
 14
1474.421966369406
 24
1407.812166989982
 34
0.0
 50
90.0
100
AcDbRotatedDimension
1001
ACAD
1000
DSTYLE
1002
{
1070
    40
1040
15.0
1002
}
  0
DIMENSION
  5
81D0
330
19
100
AcDbEntity
  8
3
100
AcDbDimension
  2
*D7
 10
2204.404899722546
 20
2179.745913488853
 30
0.0
 11
2416.904899722546
 21
2209.745913488852
 31
0.0
 12
-3686.178036153219
 22
0.0
 32
0.0
 70
    32
 71
     5
 42
-1.0
  3
MATSU
100
AcDbAlignedDimension
 13
2629.404899722546
 23
2071.22456132359
 33
0.0
 14
2204.404899722546
 24
2071.224561323591
 34
0.0
100
AcDbRotatedDimension
1001
ACAD
1000
DSTYLE
1002
{
1070
    40
1040
15.0
1002
}
  0
CIRCLE
  5
81D1
330
19
100
AcDbEntity
  8
1
100
AcDbCircle
 10
1262.421966369406
 20
1847.812166989982
 30
0.0
 40
157.5
  0
LINE
  5
81D2
330
19
100
AcDbEntity
  8
1
100
AcDbLine
 10
1936.904899722545
 20
1997.812166989982
 30
0.0
 11
1936.904899722546
 21
1539.812166989982
 31
0.0
  0
CIRCLE
  5
81D3
330
19
100
AcDbEntity
  8
1
100
AcDbCircle
 10
1262.421966369406
 20
1847.812166989982
 30
0.0
 40
182.5
  0
LINE
  5
81D4
330
19
100
AcDbEntity
  8
1
100
AcDbLine
 10
2133.904899722546
 20
1830.22456132359
 30
0.0
 11
2123.904899722546
 21
1820.22456132359
 31
0.0
  0
LINE
  5
81D5
330
19
100
AcDbEntity
  8
1
100
AcDbLine
 10
2123.904899722546
 20
1760.22456132359
 30
0.0
 11
2133.904899722546
 21
1750.22456132359
 31
0.0
  0
LINE
  5
81D6
330
19
100
AcDbEntity
  8
1
100
AcDbLine
 10
2696.904899722546
 20
1830.22456132359
 30
0.0
 11
2706.904899722545
 21
1820.22456132359
 31
0.0
  0
LINE
  5
81D7
330
19
100
AcDbEntity
  8
1
100
AcDbLine
 10
2706.904899722545
 20
1760.22456132359
 30
0.0
 11
2696.904899722545
 21
1750.22456132359
 31
0.0
  0
LINE
  5
81D8
330
19
100
AcDbEntity
  8
1
100
AcDbLine
 10
2137.904899722546
 20
1860.22456132359
 30
0.0
 11
2204.404899722546
 21
1860.22456132359
 31
0.0
  0
LINE
  5
81D9
330
19
100
AcDbEntity
  8
1
100
AcDbLine
 10
2137.904899722546
 20
1830.22456132359
 30
0.0
 11
2193.904899722546
 21
1830.224561323591
 31
0.0
  0
LINE
  5
81DA
330
19
100
AcDbEntity
  8
1
100
AcDbLine
 10
2193.904899722546
 20
1830.22456132359
 30
0.0
 11
2193.904899722545
 21
1750.224561323594
 31
0.0
  0
LINE
  5
81DB
330
19
100
AcDbEntity
  8
1
100
AcDbLine
 10
2636.904899722546
 20
1830.22456132359
 30
0.0
 11
2636.904899722545
 21
1750.22456132359
 31
0.0
  0
LINE
  5
81DC
330
19
100
AcDbEntity
  8
1
100
AcDbLine
 10
599.9219663694066
 20
2430.391129437393
 30
0.0
 11
1412.421966369407
 21
2430.391129437393
 31
0.0
  0
DIMENSION
  5
81DD
330
19
100
AcDbEntity
  8
3
100
AcDbDimension
  2
*D8
 10
2416.904899722546
 20
2271.678000461313
 30
0.0
 11
2561.904899722545
 21
2313.463714747027
 31
0.0
 12
-3686.178036153219
 22
0.0
 32
0.0
 70
    32
  1
(<>)
 71
     5
 42
-1.0
  3
MATSU
100
AcDbAlignedDimension
 13
2706.904899722545
 23
1823.224561323591
 33
0.0
 14
2416.904899722546
 24
2242.702920558481
 34
0.0
100
AcDbRotatedDimension
1001
ACAD
1000
DSTYLE
1002
{
1070
    40
1040
15.0
1002
}
  0
DIMENSION
  5
81DE
330
19
100
AcDbEntity
  8
3
100
AcDbDimension
  2
*D9
 10
1474.421966369406
 20
3275.9133646323
 30
0.0
 11
1024.421966369406
 21
3305.913364632301
 31
0.0
 12
-3686.178036153219
 22
0.0
 32
0.0
 70
    32
 71
     5
 42
-1.0
  3
MATSU
100
AcDbAlignedDimension
 13
574.4219663694066
 23
3165.391129437393
 33
0.0
 14
1474.421966369406
 24
3165.391129437393
 34
0.0
100
AcDbRotatedDimension
1001
ACAD
1000
DSTYLE
1002
{
1070
    40
1040
15.0
1002
}
  0
DIMENSION
  5
81DF
330
19
100
AcDbEntity
  8
3
100
AcDbDimension
  2
*D10
 10
1657.910470504671
 20
2575.391129437393
 30
0.0
 11
1627.910470504671
 21
2870.391129437393
 31
0.0
 12
-3686.178036153219
 22
0.0
 32
0.0
 70
    32
 71
     5
 42
-1.0
  3
MATSU
100
AcDbAlignedDimension
 13
1474.421966369406
 23
3165.391129437393
 33
0.0
 14
1474.421966369406
 24
2575.391129437393
 34
0.0
 50
90.0
100
AcDbRotatedDimension
1001
ACAD
1000
DSTYLE
1002
{
1070
    40
1040
15.0
1002
}
  0
LINE
  5
81E0
330
19
100
AcDbEntity
  8
1
100
AcDbLine
 10
1247.421966369407
 20
2631.391129437393
 30
0.0
 11
1247.421966369407
 21
2697.891129437393
 31
0.0
  0
LINE
  5
81E1
330
19
100
AcDbEntity
  8
1
100
AcDbLine
 10
1277.421966369407
 20
2631.391129437393
 30
0.0
 11
1277.421966369407
 21
2697.891129437393
 31
0.0
  0
LINE
  5
81E2
330
19
100
AcDbEntity
  8
1
100
AcDbLine
 10
2138.904899722545
 20
1997.812166989982
 30
0.0
 11
2138.904899722545
 21
1972.15440231683
 31
0.0
  0
DIMENSION
  5
81E3
330
19
100
AcDbEntity
  8
3
100
AcDbDimension
  2
*D11
 10
1936.904899722545
 20
2271.678000461313
 30
0.0
 11
2176.904899722545
 21
2313.463714747027
 31
0.0
 70
    32
  1
(<>)
 71
     5
 42
480.0
  3
MATSU
100
AcDbAlignedDimension
 13
2416.904899722546
 23
2242.702920558481
 33
0.0
 14
1936.904899722545
 24
1985.746811732435
 34
0.0
100
AcDbRotatedDimension
1001
ACAD
1000
DSTYLE
1002
{
1070
   287
1070
     4
1070
    40
1040
15.0
1070
    75
1070
     1
1070
   279
1070
     1
1070
   289
1070
     3
1002
}
  0
LINE
  5
81E4
330
19
100
AcDbEntity
  8
1
100
AcDbLine
 10
1412.421966369407
 20
2430.391129437393
 30
0.0
 11
1412.421966369407
 21
2632.391129437394
 31
0.0
  0
LINE
  5
81E5
330
19
100
AcDbEntity
  8
2
100
AcDbLine
 10
549.3432679644784
 20
2910.391129437393
 30
0.0
 11
1577.345521816063
 21
2910.391129437393
 31
0.0
  0
LINE
  5
81E6
330
19
100
AcDbEntity
  8
1
100
AcDbLine
 10
2138.904899722545
 20
1573.06045835867
 30
0.0
 11
2138.904899722545
 21
1539.812166989982
 31
0.0
  0
LINE
  5
81E7
330
19
100
AcDbEntity
  8
1
100
AcDbLine
 10
996.4219663694066
 20
2697.891129437393
 30
0.0
 11
996.4219663694066
 21
3122.891129437393
 31
0.0
  0
LINE
  5
81E8
330
19
100
AcDbEntity
  8
1
100
AcDbLine
 10
1507.421966369406
 20
3122.891129437393
 30
0.0
 11
996.4219663694066
 21
3122.891129437393
 31
0.0
  0
LINE
  5
81E9
330
19
100
AcDbEntity
  8
1
100
AcDbLine
 10
1507.421966369406
 20
2697.891129437393
 30
0.0
 11
996.4219663694066
 21
2697.891129437393
 31
0.0
  0
DIMENSION
  5
81EC
330
19
100
AcDbEntity
  8
3
100
AcDbDimension
  2
*D12
 10
1262.421966369406
 20
2202.910812672774
 30
0.0
 11
1384.921966369407
 21
2232.910812672774
 31
0.0
 12
-3686.178036153219
 22
0.0
 32
0.0
 70
    32
 71
     5
 42
-1.0
  3
MATSU
100
AcDbAlignedDimension
 13
1507.421966369406
 23
1850.200997314938
 33
0.0
 14
1262.421966369406
 24
2112.485681876358
 34
0.0
100
AcDbRotatedDimension
1001
ACAD
1000
DSTYLE
1002
{
1070
    40
1040
15.0
1002
}
  0
DIMENSION
  5
81ED
330
19
100
AcDbEntity
  8
3
100
AcDbDimension
  2
*D13
 10
985.8570854887247
 20
2202.910812672774
 30
0.0
 11
1124.139525929066
 21
2232.910812672774
 31
0.0
 70
    32
  1
274
 71
     5
 42
-1.0
  3
MATSU
100
AcDbAlignedDimension
 13
1262.421966369406
 23
2127.48222925868
 33
0.0
 14
985.8570854887247
 24
1823.812166989982
 34
0.0
100
AcDbRotatedDimension
1001
ACAD
1000
DSTYLE
1002
{
1070
   287
1070
     4
1070
    40
1040
15.0
1070
    75
1070
     1
1070
   279
1070
     1
1070
   289
1070
     3
1002
}
  0
LINE
  5
81EE
330
19
100
AcDbEntity
  8
1
100
AcDbLine
 10
2204.404899722546
 20
2071.22456132359
 30
0.0
 11
2629.404899722546
 21
2071.224561323591
 31
0.0
  0
LINE
  5
81EF
330
19
100
AcDbEntity
  8
1
100
AcDbLine
 10
2204.404899722546
 20
1494.22456132359
 30
0.0
 11
2629.404899722546
 21
1494.22456132359
 31
0.0
  0
LINE
  5
81F0
330
19
100
AcDbEntity
  8
1
100
AcDbLine
 10
1507.421966369406
 20
2672.891129437393
 30
0.0
 11
1507.421966369406
 21
3147.891129437394
 31
0.0
  0
LINE
  5
81F1
330
19
100
AcDbEntity
  8
1
100
AcDbLine
 10
1507.421966369406
 20
3147.891129437394
 30
0.0
 11
1504.221966369407
 21
3147.891129437394
 31
0.0
  0
LINE
  5
81F2
330
19
100
AcDbEntity
  8
1
100
AcDbLine
 10
1507.421966369406
 20
2672.891129437393
 30
0.0
 11
1504.221966369407
 21
2672.891129437393
 31
0.0
  0
LINE
  5
81F3
330
19
100
AcDbEntity
  8
1
100
AcDbLine
 10
1504.221966369407
 20
2672.891129437393
 30
0.0
 11
1504.221966369407
 21
3147.891129437394
 31
0.0
  0
LINE
  5
81F4
330
19
100
AcDbEntity
  8
1
100
AcDbLine
 10
2204.404899722546
 20
1819.22456132359
 30
0.0
 11
2629.404899722546
 21
1819.22456132359
 31
0.0
  0
LINE
  5
81F5
330
19
100
AcDbEntity
  8
1
100
AcDbLine
 10
2629.404899722546
 20
1819.22456132359
 30
0.0
 11
2204.404899722546
 21
1494.22456132359
 31
0.0
  0
LINE
  5
81F6
330
19
100
AcDbEntity
  8
1
100
AcDbLine
 10
2204.404899722546
 20
1819.22456132359
 30
0.0
 11
2629.404899722546
 21
1494.22456132359
 31
0.0
  0
LINE
  5
81F7
330
19
100
AcDbEntity
  8
1
100
AcDbLine
 10
1474.421966369406
 20
3122.891129437393
 30
0.0
 11
1474.421966369406
 21
3165.391129437393
 31
0.0
  0
DIMENSION
  5
81F9
330
19
100
AcDbEntity
  8
3
100
AcDbDimension
  2
*D14
 10
1749.667030889836
 20
1262.812166989982
 30
0.0
 11
1712.167030889836
 21
1151.383595561411
 31
0.0
 70
    32
 71
     5
 42
65.0
  3
IGA
100
AcDbAlignedDimension
 13
1474.421966369406
 23
1327.812166989982
 33
0.0
 14
1474.421966369406
 24
1262.812166989982
 34
0.0
 50
90.0
100
AcDbRotatedDimension
1001
ACAD
1000
DSTYLE
1002
{
1070
   287
1070
     3
1070
    40
1040
15.0
1070
   143
1040
0.039
1070
   172
1070
     1
1070
   271
1070
     0
1070
   279
1070
     0
1070
   288
1070
     1
1070
     6
1000
DOT
1002
}
  0
LINE
  5
81FA
330
19
100
AcDbEntity
  8
1
100
AcDbLine
 10
1474.421966369406
 20
1482.812166989982
 30
0.0
 11
542.4219663694066
 21
1482.812166989982
 31
0.0
  0
LINE
  5
81FB
330
19
100
AcDbEntity
  8
1
100
AcDbLine
 10
2081.904899722545
 20
1480.22456132359
 30
0.0
 11
2671.904899722546
 21
1480.22456132359
 31
0.0
  0
INSERT
  5
81FC
330
19
100
AcDbEntity
  8
0
100
AcDbBlockReference
  2
YA_N
 10
11862.10854668129
 20
33.86889748444264
 30
0.0
  0
INSERT
  5
81FD
330
19
100
AcDbEntity
  8
0
100
AcDbBlockReference
  2
YA_N
 10
11862.10854668129
 20
33.86889748444264
 30
0.0
  0
INSERT
  5
81FE
330
19
100
AcDbEntity
  8
0
100
AcDbBlockReference
  2
YA_N
 10
13508.21897699973
 20
382.7287096736706
 30
0.0
  0
INSERT
  5
81FF
330
19
100
AcDbEntity
  8
0
100
AcDbBlockReference
  2
YA_N
 10
11646.70491001192
 20
-1415.615110761044
 30
0.0
 41
10.0
 42
10.0
 43
10.0
  0
INSERT
  5
8200
330
19
100
AcDbEntity
  8
0
100
AcDbBlockReference
  2
YA_N
 10
11646.70491001192
 20
-1415.615110761044
 30
0.0
 41
10.0
 42
10.0
 43
10.0
  0
INSERT
  5
8201
330
19
100
AcDbEntity
  8
0
  6
ByBlock
 62
     2
100
AcDbBlockReference
  2
YA_N
 10
13018.01858869887
 20
-366.2297862640428
 30
0.0
 41
30.0
 42
30.0
 43
30.0
 50
90.0
  0
INSERT
  5
8202
330
19
100
AcDbEntity
  8
0
  6
ByBlock
 62
     2
100
AcDbBlockReference
  2
YA_N
 10
13018.01858869887
 20
-366.2297862640428
 30
0.0
 41
30.0
 42
30.0
 43
30.0
 50
90.0
  0
LINE
  5
8203
330
19
100
AcDbEntity
  8
2
100
AcDbLine
 10
551.79063786807
 20
1689.812166989982
 30
0.0
 11
950.3208663694067
 21
1689.812166989982
 31
0.0
  0
ARC
  5
8204
330
19
100
AcDbEntity
  8
1
100
AcDbCircle
 10
742.4219663694066
 20
1689.812166989982
 30
0.0
 40
150.0
100
AcDbArc
 50
106.9012024371063
 51
286.9012024371063
  0
CIRCLE
  5
8205
330
19
100
AcDbEntity
  8
1
100
AcDbCircle
 10
742.4219663694066
 20
1689.812166989982
 30
0.0
 40
75.0
  0
LINE
  5
8206
330
19
100
AcDbEntity
  8
1
100
AcDbLine
 10
907.4219663694066
 20
1557.812166989982
 30
0.0
 11
577.4219663694066
 21
1557.812166989981
 31
0.0
  0
ARC
  5
8207
330
19
100
AcDbEntity
  8
1
100
AcDbCircle
 10
742.4219663694066
 20
1689.812166989982
 30
0.0
 40
142.5
100
AcDbArc
 50
180.0
 51
244.787
  0
ARC
  5
8208
330
19
100
AcDbEntity
  8
1
100
AcDbCircle
 10
742.4219663694066
 20
1689.812166989982
 30
0.0
 40
142.5
100
AcDbArc
 50
295.1874
 51
180.0
  0
LINE
  5
8209
330
19
100
AcDbEntity
  8
1
100
AcDbLine
 10
681.8806663694068
 20
1560.812166989982
 30
0.0
 11
802.9632663694064
 21
1560.812166989982
 31
0.0
  0
LINE
  5
820A
330
19
100
AcDbEntity
  8
1
100
AcDbLine
 10
612.4219663694066
 20
1557.812166989982
 30
0.0
 11
662.4219663694066
 21
1557.812166989982
 31
0.0
  0
LINE
  5
820B
330
19
100
AcDbEntity
  8
1
100
AcDbLine
 10
622.8963663694067
 20
1611.903466989982
 30
0.0
 11
612.4219663694066
 21
1572.812166989982
 31
0.0
  0
LINE
  5
820C
330
19
100
AcDbEntity
  8
1
100
AcDbLine
 10
612.4219663694066
 20
1572.614766989982
 30
0.0
 11
612.4219663694066
 21
1557.812166989982
 31
0.0
  0
LINE
  5
820D
330
19
100
AcDbEntity
  8
1
100
AcDbLine
 10
872.4219663694066
 20
1557.812166989982
 30
0.0
 11
822.4219663694066
 21
1557.812166989982
 31
0.0
  0
LINE
  5
820E
330
19
100
AcDbEntity
  8
1
100
AcDbLine
 10
861.9047663694063
 20
1612.062766989982
 30
0.0
 11
872.4219663694066
 21
1572.812166989982
 31
0.0
  0
LINE
  5
820F
330
19
100
AcDbEntity
  8
1
100
AcDbLine
 10
872.4219663694066
 20
1572.614766989982
 30
0.0
 11
872.4219663694066
 21
1557.812166989982
 31
0.0
  0
LINE
  5
8210
330
19
100
AcDbEntity
  8
1
100
AcDbLine
 10
2204.404899722546
 20
1831.812166989982
 30
0.0
 11
2168.434843861155
 21
1831.812166989982
 31
0.0
  0
LINE
  5
8211
330
19
100
AcDbEntity
  8
1
100
AcDbLine
 10
2204.404899722546
 20
1557.812166989982
 30
0.0
 11
2168.434843861155
 21
1557.812166989982
 31
0.0
  0
LINE
  5
8212
330
19
100
AcDbEntity
  8
1
100
AcDbLine
 10
2168.434843861156
 20
1831.812166989982
 30
0.0
 11
2168.434843861156
 21
1830.224561323591
 31
0.0
  0
LINE
  5
8213
330
19
100
AcDbEntity
  8
1
100
AcDbLine
 10
2158.434843861156
 20
1631.812166989982
 30
0.0
 11
2158.434843861156
 21
1747.812166989982
 31
0.0
  0
LINE
  5
8214
330
19
100
AcDbEntity
  8
1
100
AcDbLine
 10
2168.434843861156
 20
1630.812166989982
 30
0.0
 11
2159.434843861156
 21
1630.812166989982
 31
0.0
  0
ARC
  5
8215
330
19
100
AcDbEntity
  8
1
100
AcDbCircle
 10
2159.434843861156
 20
1631.812166989982
 30
0.0
 40
0.9999
100
AcDbArc
 50
179.9965
 51
270.007
  0
LINE
  5
8216
330
19
100
AcDbEntity
  8
1
100
AcDbLine
 10
2134.434843861156
 20
1711.812166989982
 30
0.0
 11
2106.904899722547
 21
1711.812166989982
 31
0.0
  0
LINE
  5
8217
330
19
100
AcDbEntity
  8
1
100
AcDbLine
 10
2151.434843861156
 20
1670.812166989982
 30
0.0
 11
2106.904899722547
 21
1670.812166989982
 31
0.0
  0
LINE
  5
8218
330
19
100
AcDbEntity
  8
1
100
AcDbLine
 10
2151.434843861156
 20
1708.812166989982
 30
0.0
 11
2106.904899722547
 21
1708.812166989982
 31
0.0
  0
LINE
  5
8219
330
19
100
AcDbEntity
  8
1
100
AcDbLine
 10
2168.434843861156
 20
1748.812166989982
 30
0.0
 11
2159.434843861156
 21
1748.812166989982
 31
0.0
  0
LINE
  5
821A
330
19
100
AcDbEntity
  8
1
100
AcDbLine
 10
2151.434843861156
 20
1669.812166989982
 30
0.0
 11
2151.434843861156
 21
1709.812166989982
 31
0.0
  0
LINE
  5
821B
330
19
100
AcDbEntity
  8
1
100
AcDbLine
 10
2158.434843861156
 20
1669.812166989982
 30
0.0
 11
2151.434843861156
 21
1669.812166989982
 31
0.0
  0
LINE
  5
821C
330
19
100
AcDbEntity
  8
1
100
AcDbLine
 10
2158.434843861156
 20
1709.812166989982
 30
0.0
 11
2151.434843861156
 21
1709.812166989982
 31
0.0
  0
LINE
  5
821D
330
19
100
AcDbEntity
  8
1
100
AcDbLine
 10
2134.434843861156
 20
1708.812166989982
 30
0.0
 11
2134.434843861156
 21
1711.812166989982
 31
0.0
  0
ARC
  5
821E
330
19
100
AcDbEntity
  8
1
100
AcDbCircle
 10
2159.433843861156
 20
1747.812166989982
 30
0.0
 40
0.9998000000000001
100
AcDbArc
 50
89.98600000000001
 51
180.007
  0
LINE
  5
821F
330
19
100
AcDbEntity
  8
1
100
AcDbLine
 10
942.4219663694065
 20
1522.812166989982
 30
0.0
 11
542.4219663694066
 21
1522.812166989981
 31
0.0
  0
LINE
  5
8220
330
19
100
AcDbEntity
  8
1
100
AcDbLine
 10
942.4219663694065
 20
1522.812166989982
 30
0.0
 11
942.4219663694065
 21
1482.812166989982
 31
0.0
  0
LINE
  5
8221
330
19
100
AcDbEntity
  8
1
100
AcDbLine
 10
542.4219663694066
 20
1522.812166989981
 30
0.0
 11
542.4219663694066
 21
1482.812166989981
 31
0.0
  0
LINE
  5
8222
330
19
100
AcDbEntity
  8
1
100
AcDbLine
 10
907.4219663694066
 20
1557.812166989982
 30
0.0
 11
917.4219663694065
 21
1522.812166989982
 31
0.0
  0
LINE
  5
8223
330
19
100
AcDbEntity
  8
1
100
AcDbLine
 10
577.4219663694066
 20
1557.812166989982
 30
0.0
 11
567.4219663694066
 21
1522.812166989981
 31
0.0
  0
LINE
  5
8224
330
19
100
AcDbEntity
  8
1
100
AcDbLine
 10
600.4219663694065
 20
3013.551917363592
 30
0.0
 11
874.4219663694066
 21
3013.551917363592
 31
0.0
  0
LINE
  5
8225
330
19
100
AcDbEntity
  8
1
100
AcDbLine
 10
600.4219663694065
 20
2661.552217363593
 30
0.0
 11
874.4219663694066
 21
2661.552217363593
 31
0.0
  0
LINE
  5
8226
330
19
100
AcDbEntity
  8
1
100
AcDbLine
 10
800.4219663694065
 20
2651.552217363593
 30
0.0
 11
684.4219663694066
 21
2651.552217363593
 31
0.0
  0
LINE
  5
8227
330
19
100
AcDbEntity
  8
1
100
AcDbLine
 10
874.4219663694066
 20
3013.551917363592
 30
0.0
 11
874.4219663694066
 21
2661.552217363592
 31
0.0
  0
LINE
  5
8228
330
19
100
AcDbEntity
  8
1
100
AcDbLine
 10
801.4219663694065
 20
2661.552217363593
 30
0.0
 11
801.4219663694065
 21
2652.552217363593
 31
0.0
  0
ARC
  5
8229
330
19
100
AcDbEntity
  8
1
100
AcDbCircle
 10
800.4219663694065
 20
2652.552217363593
 30
0.0
 40
0.9999
100
AcDbArc
 50
269.9965
 51
0.0069999999999659
  0
LINE
  5
822A
330
19
100
AcDbEntity
  8
1
100
AcDbLine
 10
600.4219663694065
 20
3013.551917363592
 30
0.0
 11
600.4219663694065
 21
2661.552217363592
 31
0.0
  0
LINE
  5
822B
330
19
100
AcDbEntity
  8
2
100
AcDbLine
 10
742.4219663694066
 20
3018.061917363592
 30
0.0
 11
742.4219663694066
 21
2527.040355201614
 31
0.0
  0
LINE
  5
822C
330
19
100
AcDbEntity
  8
1
100
AcDbLine
 10
761.4219663694066
 20
2644.552217363593
 30
0.0
 11
761.4219663694066
 21
2600.391129437394
 31
0.0
  0
LINE
  5
822D
330
19
100
AcDbEntity
  8
1
100
AcDbLine
 10
723.4219663694066
 20
2644.552217363593
 30
0.0
 11
723.4219663694066
 21
2600.391129437394
 31
0.0
  0
LINE
  5
822E
330
19
100
AcDbEntity
  8
1
100
AcDbLine
 10
723.4219663694066
 20
2627.552217363593
 30
0.0
 11
720.4219663694066
 21
2627.552217363593
 31
0.0
  0
LINE
  5
822F
330
19
100
AcDbEntity
  8
1
100
AcDbLine
 10
720.4219663694066
 20
2627.552217363593
 30
0.0
 11
720.4219663694066
 21
2600.391129437394
 31
0.0
  0
LINE
  5
8230
330
19
100
AcDbEntity
  8
1
100
AcDbLine
 10
762.4219663694066
 20
2644.552217363593
 30
0.0
 11
722.4219663694066
 21
2644.552217363593
 31
0.0
  0
LINE
  5
8231
330
19
100
AcDbEntity
  8
1
100
AcDbLine
 10
762.4219663694066
 20
2651.552217363593
 30
0.0
 11
762.4219663694066
 21
2644.552217363593
 31
0.0
  0
LINE
  5
8232
330
19
100
AcDbEntity
  8
1
100
AcDbLine
 10
722.4219663694066
 20
2651.552217363593
 30
0.0
 11
722.4219663694066
 21
2644.552217363593
 31
0.0
  0
LINE
  5
8233
330
19
100
AcDbEntity
  8
1
100
AcDbLine
 10
683.4219663694065
 20
2661.552217363593
 30
0.0
 11
683.4219663694065
 21
2652.552217363593
 31
0.0
  0
ARC
  5
8234
330
19
100
AcDbEntity
  8
1
100
AcDbCircle
 10
684.4219663694066
 20
2652.551217363593
 30
0.0
 40
0.9998000000000001
100
AcDbArc
 50
179.986
 51
270.007
  0
ARC
  5
8235
330
19
100
AcDbEntity
  8
1
100
AcDbCircle
 10
1262.421966369406
 20
1847.812166989982
 30
0.0
 40
150.0
100
AcDbArc
 50
286.9012024371063
 51
106.9012024371062
  0
CIRCLE
  5
8236
330
19
100
AcDbEntity
  8
1
100
AcDbCircle
 10
1262.421966369406
 20
1847.812166989982
 30
0.0
 40
75.0
  0
LINE
  5
8237
330
19
100
AcDbEntity
  8
1
100
AcDbLine
 10
1240.617795842683
 20
1919.572728217174
 30
0.0
 11
720.6177958426833
 21
1761.572728217174
 31
0.0
  0
LINE
  5
8238
330
19
100
AcDbEntity
  8
1
100
AcDbLine
 10
1284.22613689613
 20
1776.05160576279
 30
0.0
 11
764.2261368961299
 21
1618.05160576279
 31
0.0
  0
LINE
  5
8239
330
19
100
AcDbEntity
  8
1
100
AcDbLine
 10
1218.813625315959
 20
1991.333289444365
 30
0.0
 11
698.8136253159591
 21
1833.333289444366
 31
0.0
  0
LINE
  5
823A
330
19
100
AcDbEntity
  8
1
100
AcDbLine
 10
1306.030307422854
 20
1704.291044535598
 30
0.0
 11
786.030307422854
 21
1546.291044535598
 31
0.0
  0
DIMENSION
  5
823B
330
19
100
AcDbEntity
  8
3
100
AcDbDimension
  2
*D15
 10
1507.421966369406
 20
2273.053961006382
 30
0.0
 11
993.3465487092872
 21
2273.053961006382
 31
0.0
 70
   160
 71
     5
 42
-1.0
  3
IGA
100
AcDbAlignedDimension
 13
542.4219663694066
 23
1522.812166989981
 33
0.0
 14
1507.421966369406
 24
1850.200997314938
 34
0.0
100
AcDbRotatedDimension
1001
ACAD
1000
DSTYLE
1002
{
1070
   287
1070
     3
1070
    40
1040
15.0
1070
   143
1040
0.039
1070
   172
1070
     1
1070
   271
1070
     0
1070
   279
1070
     0
1070
   288
1070
     1
1002
}
  0
LINE
  5
823C
330
19
100
AcDbEntity
  8
1
100
AcDbLine
 10
1936.904899722545
 20
1997.812166989982
 30
0.0
 11
2138.904899722545
 21
1997.812166989982
 31
0.0
  0
LINE
  5
823D
330
19
100
AcDbEntity
  8
1
100
AcDbLine
 10
1936.904899722546
 20
1539.812166989982
 30
0.0
 11
2138.904899722547
 21
1539.812166989982
 31
0.0
  0
LINE
  5
823E
330
19
100
AcDbEntity
  8
1
100
AcDbLine
 10
2046.904899722545
 20
1922.812166989982
 30
0.0
 11
2106.904899722545
 21
1922.812166989982
 31
0.0
  0
LINE
  5
823F
330
19
100
AcDbEntity
  8
1
100
AcDbLine
 10
2046.904899722546
 20
1614.812166989981
 30
0.0
 11
2106.904899722547
 21
1614.812166989982
 31
0.0
  0
LINE
  5
8240
330
19
100
AcDbEntity
  8
1
100
AcDbLine
 10
2046.904899722545
 20
1772.812166989982
 30
0.0
 11
2106.904899722545
 21
1772.812166989982
 31
0.0
  0
LINE
  5
8241
330
19
100
AcDbEntity
  8
1
100
AcDbLine
 10
2046.904899722545
 20
1764.812166989982
 30
0.0
 11
2106.904899722545
 21
1764.812166989982
 31
0.0
  0
LINE
  5
8242
330
19
100
AcDbEntity
  8
1
100
AcDbLine
 10
2046.904899722545
 20
1922.812166989982
 30
0.0
 11
2046.904899722546
 21
1614.812166989982
 31
0.0
  0
LINE
  5
8243
330
19
100
AcDbEntity
  8
1
100
AcDbLine
 10
2106.904899722545
 20
1922.812166989982
 30
0.0
 11
2106.904899722547
 21
1614.812166989982
 31
0.0
  0
LINE
  5
8244
330
19
100
AcDbEntity
  8
2
100
AcDbLine
 10
1915.24278153685
 20
1689.812166989982
 30
0.0
 11
2241.651130672876
 21
1689.812166989982
 31
0.0
  0
LINE
  5
8245
330
19
100
AcDbEntity
  8
1
100
AcDbLine
 10
2168.434843861156
 20
1750.224561323592
 30
0.0
 11
2168.434843861156
 21
1557.812166989982
 31
0.0
  0
LINE
  5
8246
330
19
100
AcDbEntity
  8
1
100
AcDbLine
 10
599.9219663694066
 20
2632.391129437393
 30
0.0
 11
1412.421966369407
 21
2632.391129437393
 31
0.0
  0
LINE
  5
8247
330
19
100
AcDbEntity
  8
1
100
AcDbLine
 10
667.4219663694066
 20
2540.391129437393
 30
0.0
 11
817.4219663694065
 21
2540.391129437393
 31
0.0
  0
LINE
  5
8248
330
19
100
AcDbEntity
  8
1
100
AcDbLine
 10
667.4219663694066
 20
2600.391129437394
 30
0.0
 11
817.4219663694065
 21
2600.391129437394
 31
0.0
  0
LINE
  5
8249
330
19
100
AcDbEntity
  8
1
100
AcDbLine
 10
599.9219663694066
 20
2430.391129437393
 30
0.0
 11
599.9219663694066
 21
2632.391129437394
 31
0.0
  0
LINE
  5
824A
330
19
100
AcDbEntity
  8
1
100
AcDbLine
 10
1412.421966369407
 20
2430.391129437393
 30
0.0
 11
1412.421966369407
 21
2632.391129437393
 31
0.0
  0
LINE
  5
824B
330
19
100
AcDbEntity
  8
1
100
AcDbLine
 10
667.4219663694066
 20
2540.391129437393
 30
0.0
 11
667.4219663694066
 21
2600.391129437394
 31
0.0
  0
LINE
  5
824C
330
19
100
AcDbEntity
  8
1
100
AcDbLine
 10
1337.421966369406
 20
2540.391129437393
 30
0.0
 11
1337.421966369406
 21
2600.391129437393
 31
0.0
  0
LINE
  5
824D
330
19
100
AcDbEntity
  8
1
100
AcDbLine
 10
817.4219663694065
 20
2540.391129437393
 30
0.0
 11
817.4219663694065
 21
2600.391129437393
 31
0.0
  0
LINE
  5
824E
330
19
100
AcDbEntity
  8
1
100
AcDbLine
 10
1187.421966369407
 20
2540.391129437393
 30
0.0
 11
1187.421966369407
 21
2600.391129437394
 31
0.0
  0
LINE
  5
824F
330
19
100
AcDbEntity
  8
1
100
AcDbLine
 10
1187.421966369407
 20
2600.391129437393
 30
0.0
 11
1337.421966369406
 21
2600.391129437393
 31
0.0
  0
LINE
  5
8250
330
19
100
AcDbEntity
  8
1
100
AcDbLine
 10
1187.421966369407
 20
2540.391129437393
 30
0.0
 11
1337.421966369406
 21
2540.391129437394
 31
0.0
  0
DIMENSION
  5
846A
330
19
100
AcDbEntity
  8
3
100
AcDbDimension
  2
*D16
 10
1262.421966369406
 20
1160.325357478412
 30
0.0
 11
918.4219663694065
 21
1197.825357478412
 31
0.0
 70
    32
 71
     5
 42
688.0
  3
IGA
100
AcDbAlignedDimension
 13
574.4219663694066
 23
1262.812166989982
 33
0.0
 14
1262.421966369406
 24
1262.812166989982
 34
0.0
100
AcDbRotatedDimension
1001
ACAD
1000
DSTYLE
1002
{
1070
   287
1070
     3
1070
    40
1040
15.0
1070
   143
1040
0.039
1070
   172
1070
     1
1070
   271
1070
     0
1070
   279
1070
     0
1002
}
  0
DIMENSION
  5
8477
330
19
100
AcDbEntity
  8
3
100
AcDbDimension
  2
*D17
 10
1474.421966369406
 20
1160.325357478412
 30
0.0
 11
1368.421966369406
 21
1197.825357478412
 31
0.0
 70
    32
 71
     5
 42
212.0
  3
IGA
100
AcDbAlignedDimension
 13
1262.421966369406
 23
1262.812166989982
 33
0.0
 14
1474.421966369406
 24
1262.812166989982
 34
0.0
100
AcDbRotatedDimension
1001
ACAD
1000
DSTYLE
1002
{
1070
   287
1070
     3
1070
    40
1040
15.0
1070
   143
1040
0.039
1070
   172
1070
     1
1070
   271
1070
     0
1070
   279
1070
     0
1002
}
  0
DIMENSION
  5
8484
330
19
100
AcDbEntity
  8
3
100
AcDbDimension
  2
*D18
 10
2416.904899722546
 20
1160.325357478412
 30
0.0
 11
2249.404899722545
 21
1197.825357478412
 31
0.0
 70
    32
 71
     5
 42
335.0
  3
IGA
100
AcDbAlignedDimension
 13
2081.904899722545
 23
1260.22456132359
 33
0.0
 14
2416.904899722546
 24
1260.224561323591
 34
0.0
100
AcDbRotatedDimension
1001
ACAD
1000
DSTYLE
1002
{
1070
   287
1070
     3
1070
    40
1040
15.0
1070
   143
1040
0.039
1070
   172
1070
     1
1070
   271
1070
     0
1070
   279
1070
     0
1002
}
  0
DIMENSION
  5
8491
330
19
100
AcDbEntity
  8
3
100
AcDbDimension
  2
*D19
 10
2671.904899722546
 20
1160.325357478412
 30
0.0
 11
2544.404899722545
 21
1197.825357478412
 31
0.0
 70
    32
 71
     5
 42
255.0
  3
IGA
100
AcDbAlignedDimension
 13
2416.904899722546
 23
1260.224561323591
 33
0.0
 14
2671.904899722546
 24
1260.22456132359
 34
0.0
100
AcDbRotatedDimension
1001
ACAD
1000
DSTYLE
1002
{
1070
   287
1070
     3
1070
    40
1040
15.0
1070
   143
1040
0.039
1070
   172
1070
     1
1070
   271
1070
     0
1070
   279
1070
     0
1002
}
  0
DIMENSION
  5
84B2
330
19
100
AcDbEntity
  8
3
100
AcDbDimension
  2
*D22
 10
1750.094707108281
 20
1847.812166989982
 30
0.0
 11
1712.594707108281
 21
1960.812166989982
 31
0.0
 70
    32
 71
     5
 42
-1.0
  3
IGA
100
AcDbAlignedDimension
 13
1206.722761262532
 23
2073.812166989982
 33
0.0
 14
1584.921447636447
 24
1847.812166989982
 34
0.0
 50
90.0
100
AcDbRotatedDimension
1001
ACAD
1000
DSTYLE
1002
{
1070
   172
1070
     1
1070
    40
1040
15.0
1070
   271
1070
     0
1070
   143
1040
0.039
1002
}
  0
DIMENSION
  5
84CA
330
19
100
AcDbEntity
  8
3
100
AcDbDimension
  2
*D23
 10
1748.768734955831
 20
1407.812166989981
 30
0.0
 11
1804.732628238635
 21
1367.812166989982
 31
0.0
 70
   160
 71
     5
 42
80.0
  3
IGA
100
AcDbAlignedDimension
 13
1474.421966369406
 23
1327.812166989982
 33
0.0
 14
1474.421966369406
 24
1407.812166989982
 34
0.0
 50
90.0
100
AcDbRotatedDimension
1001
ACAD
1000
DSTYLE
1002
{
1070
     3
1000
(<>)
1070
    40
1040
15.0
1070
    75
1070
     1
1070
    76
1070
     1
1070
   143
1040
0.039
1070
   172
1070
     1
1070
   271
1070
     0
1070
   343
1005
8498
1070
   344
1005
8498
1002
}
  0
DIMENSION
  5
84D7
330
19
100
AcDbEntity
  8
3
100
AcDbDimension
  2
*D24
 10
1873.474100987578
 20
1262.812166989982
 30
0.0
 11
1824.188386701863
 21
1668.312166989982
 31
0.0
 70
    32
 71
     5
 42
811.0000000000002
  3
IGA
100
AcDbAlignedDimension
 13
1214.222761262532
 23
2073.812166989982
 33
0.0
 14
1474.421966369406
 24
1262.812166989982
 34
0.0
 50
90.0
100
AcDbRotatedDimension
1001
ACAD
1000
DSTYLE
1002
{
1070
   172
1070
     1
1070
    40
1040
15.0
1070
     3
1000
(<>)
1070
   271
1070
     0
1070
   143
1040
0.039
1002
}
  0
ENDSEC
  0
SECTION
  2
OBJECTS
  0
DICTIONARY
  5
C
330
0
100
AcDbDictionary
281
     1
  3
ACAD_CIP_PREVIOUS_PRODUCT_INFO
350
85BB
  3
ACAD_COLOR
350
859E
  3
ACAD_DETAILVIEWSTYLE
350
85B7
  3
ACAD_GROUP
350
D
  3
ACAD_LAYOUT
350
84DC
  3
ACAD_MATERIAL
350
856C
  3
ACAD_MLEADERSTYLE
350
85B3
  3
ACAD_MLINESTYLE
350
E
  3
ACAD_PLOTSETTINGS
350
84DD
  3
ACAD_PLOTSTYLENAME
350
84DA
  3
ACAD_SCALELIST
350
85A1
  3
ACAD_SECTIONVIEWSTYLE
350
85B5
  3
ACAD_TABLESTYLE
350
859F
  3
ACAD_VISUALSTYLE
350
8585
  3
ACDB_RECOMPOSE_DATA
350
865B
  3
AcDbVariableDictionary
350
8634
  3
AcDsDecomposeData
350
8662
  3
DWGPROPS
350
865C
  0
DICTIONARY
  5
8628
330
2
100
AcDbDictionary
280
     1
281
     1
  3
ACAD_LAYERSTATES
360
8629
  0
DICTIONARY
  5
861B
330
F
100
AcDbDictionary
280
     1
281
     1
  3
ADSK_XREC_LAYER_RECONCILED
360
861C
  0
DICTIONARY
  5
861D
330
31
100
AcDbDictionary
280
     1
281
     1
  3
ADSK_XREC_LAYER_RECONCILED
360
861E
  0
DICTIONARY
  5
861F
330
76D0
100
AcDbDictionary
280
     1
281
     1
  3
ADSK_XREC_LAYER_RECONCILED
360
8620
  0
DICTIONARY
  5
8621
330
76D1
100
AcDbDictionary
280
     1
281
     1
  3
ADSK_XREC_LAYER_RECONCILED
360
8622
  0
DICTIONARY
  5
8623
330
76D2
100
AcDbDictionary
280
     1
281
     1
  3
ADSK_XREC_LAYER_RECONCILED
360
8624
  0
DICTIONARY
  5
8509
330
19
100
AcDbDictionary
280
     1
281
     1
  3
ACAD_LAYOUTSELFREF
360
850A
  3
ACAD_SORTENTS
360
85BD
  0
DICTIONARY
  5
8507
330
16
100
AcDbDictionary
280
     1
281
     1
  3
ACAD_LAYOUTSELFREF
360
8508
  0
XRECORD
  5
85BB
102
{ACAD_REACTORS
330
C
102
}
330
C
100
AcDbXrecord
280
     1
300
ACDLT
300
2015
300
INVLTS_F_S
  0
DICTIONARY
  5
859E
102
{ACAD_REACTORS
330
C
102
}
330
C
100
AcDbDictionary
281
     1
  0
DICTIONARY
  5
85B7
102
{ACAD_REACTORS
330
C
102
}
330
C
100
AcDbDictionary
281
     1
  3
Metric50
350
85B8
  0
DICTIONARY
  5
D
102
{ACAD_REACTORS
330
C
102
}
330
C
100
AcDbDictionary
281
     1
  0
DICTIONARY
  5
84DC
102
{ACAD_REACTORS
330
C
102
}
330
C
100
AcDbDictionary
281
     1
  3
Model
350
84DE
  3
ﾚｲｱｳﾄ1
350
84DF
  0
DICTIONARY
  5
856C
102
{ACAD_REACTORS
330
C
102
}
330
C
100
AcDbDictionary
281
     1
  3
ByBlock
350
8575
  3
ByLayer
350
856D
  3
Global
350
857D
  0
DICTIONARY
  5
85B3
102
{ACAD_REACTORS
330
C
102
}
330
C
100
AcDbDictionary
281
     1
  3
Standard
350
85B4
  0
DICTIONARY
  5
E
102
{ACAD_REACTORS
330
C
102
}
330
C
100
AcDbDictionary
281
     1
  3
STANDARD
350
1C
  0
DICTIONARY
  5
84DD
102
{ACAD_REACTORS
330
C
102
}
330
C
100
AcDbDictionary
281
     1
  0
ACDBDICTIONARYWDFLT
  5
84DA
102
{ACAD_REACTORS
330
C
102
}
330
C
100
AcDbDictionary
281
     1
  3
Normal
350
84DB
100
AcDbDictionaryWithDefault
340
84DB
  0
DICTIONARY
  5
85A1
102
{ACAD_REACTORS
330
C
102
}
330
C
100
AcDbDictionary
281
     1
  3
A0
350
85A2
  3
A1
350
85A3
  3
A2
350
85A4
  3
A3
350
85A5
  3
A4
350
85A6
  3
A5
350
85A7
  3
A6
350
85A8
  3
A7
350
85A9
  3
A8
350
85AA
  3
A9
350
85AB
  3
B0
350
85AC
  3
B1
350
85AD
  3
B2
350
85AE
  3
B3
350
85AF
  3
B4
350
85B0
  3
B5
350
85B1
  3
B6
350
85B2
  0
DICTIONARY
  5
85B5
102
{ACAD_REACTORS
330
C
102
}
330
C
100
AcDbDictionary
281
     1
  3
Metric50
350
85B6
  0
DICTIONARY
  5
859F
102
{ACAD_REACTORS
330
C
102
}
330
C
100
AcDbDictionary
281
     1
  3
Standard
350
85A0
  0
DICTIONARY
  5
8585
102
{ACAD_REACTORS
330
C
102
}
330
C
100
AcDbDictionary
281
     1
  3
2dWireframe
350
858B
  3
Basic
350
858A
  3
Brighten
350
8591
  3
ColorChange
350
8595
  3
Conceptual
350
858E
  3
Dim
350
8590
  3
EdgeColorOff
350
859D
  3
Facepattern
350
8594
  3
Flat
350
8586
  3
FlatWithEdges
350
8587
  3
Gouraud
350
8588
  3
GouraudWithEdges
350
8589
  3
Hidden
350
858D
  3
JitterOff
350
859B
  3
Linepattern
350
8593
  3
OverhangOff
350
859C
  3
Realistic
350
858F
  3
Shaded
350
859A
  3
Shaded with edges
350
8599
  3
Shades of Gray
350
8596
  3
Sketchy
350
8597
  3
Thicken
350
8592
  3
Wireframe
350
858C
  3
X-Ray
350
8598
  0
XRECORD
  5
865B
102
{ACAD_REACTORS
330
C
102
}
330
C
100
AcDbXrecord
280
     1
 90
        1
330
81E3
330
81ED
330
85A0
  0
DICTIONARY
  5
8634
102
{ACAD_REACTORS
330
C
102
}
330
C
100
AcDbDictionary
281
     1
  3
CANNOSCALE
350
863A
  3
CMLEADERSTYLE
350
8636
  3
CTABLESTYLE
350
8635
  3
CVIEWDETAILSTYLE
350
8637
  3
CVIEWSECTIONSTYLE
350
8638
  3
DIMASSOC
350
8657
  3
INDEXCTL
350
8656
  3
LAYEREVAL
350
863C
  3
LAYERNOTIFY
350
863D
  3
LIGHTINGUNITS
350
863B
  3
MSLTSCALE
350
8639
  3
SORTENTS
350
8655
  3
XCLIPFRAME
350
8658
  0
DICTIONARY
  5
8662
102
{ACAD_REACTORS
330
C
102
}
330
C
100
AcDbDictionary
281
     1
  3
AcDsRecords
350
8664
  3
AcDsSchemas
350
8663
1001
ACAD
1070
     2
  0
XRECORD
  5
865C
102
{ACAD_REACTORS
330
C
102
}
330
C
100
AcDbXrecord
280
     1
  1
DWGPROPS COOKIE
  2

  3

  4

  6

  7

  8
yasukiyo.ogawa
  9

300
=
301
=
302
=
303
=
304
=
305
=
306
=
307
=
308
=
309
=
 40
0.0320333333333333
 41
2451372.436538773
 42
2460259.749845301
  1

 90
        0
  0
DICTIONARY
  5
8629
102
{ACAD_REACTORS
330
8628
102
}
330
8628
100
AcDbDictionary
281
     1
  0
XRECORD
  5
861C
102
{ACAD_REACTORS
330
861B
102
}
330
861B
100
AcDbXrecord
280
     1
290
     1
  0
XRECORD
  5
861E
102
{ACAD_REACTORS
330
861D
102
}
330
861D
100
AcDbXrecord
280
     1
290
     1
  0
XRECORD
  5
8620
102
{ACAD_REACTORS
330
861F
102
}
330
861F
100
AcDbXrecord
280
     1
290
     1
  0
XRECORD
  5
8622
102
{ACAD_REACTORS
330
8621
102
}
330
8621
100
AcDbXrecord
280
     1
290
     1
  0
XRECORD
  5
8624
102
{ACAD_REACTORS
330
8623
102
}
330
8623
100
AcDbXrecord
280
     1
290
     1
  0
XRECORD
  5
850A
102
{ACAD_REACTORS
330
8509
102
}
330
8509
100
AcDbXrecord
280
     1
340
19
  0
SORTENTSTABLE
  5
85BD
102
{ACAD_REACTORS
330
8509
102
}
330
8509
100
AcDbSortentsTable
330
19
331
81EF
  5
81F0
331
822E
  5
822F
331
81B4
  5
81B5
331
822A
  5
822B
331
81B0
  5
81B0
331
81E7
  5
81E8
331
8226
  5
8227
331
8222
  5
8223
331
81AC
  5
81AC
331
81E3
  5
81E4
331
7EC1
  5
7EC1
331
821E
  5
821F
331
821A
  5
821B
331
81A0
  5
81A0
331
81DF
  5
81E0
331
8216
  5
8217
331
8212
  5
8213
331
819C
  5
819C
331
81DB
  5
81DC
331
8198
  5
8198
331
7EBD
  5
7EBD
331
7EB9
  5
7EB9
331
7EB5
  5
7EB5
331
7EB1
  5
7EB1
331
820E
  5
820F
331
824D
  5
824E
331
81D7
  5
81D8
331
81D3
  5
81D4
331
820A
  5
820B
331
8249
  5
824A
331
8194
  5
8194
331
8245
  5
8246
331
8206
  5
8207
331
8241
  5
8242
331
8174
  5
8174
331
8202
  5
8203
331
8170
  5
8170
331
846A
  5
8477
331
7EAD
  5
7EAD
331
7EA9
  5
7EA9
331
7EA5
  5
7EA5
331
81FE
  5
81FF
331
823D
  5
823E
331
81C7
  5
81C8
331
81C3
  5
81C4
331
81FA
  5
81FB
331
8239
  5
823A
331
81BF
  5
81C0
331
81F6
  5
81F7
331
8235
  5
8236
331
8231
  5
8232
331
81BB
  5
81BC
331
81F2
  5
81F3
331
81EE
  5
81EF
331
822D
  5
822E
331
81B7
  5
81B8
331
81B3
  5
81B4
331
8229
  5
822A
331
81AF
  5
81AF
331
81E6
  5
81E7
331
8225
  5
8226
331
8221
  5
8222
331
81AB
  5
81AB
331
81E2
  5
81E3
331
8491
  5
84B2
331
7EC0
  5
7EC0
331
821D
  5
821E
331
81A3
  5
81A3
331
8219
  5
821A
331
819F
  5
819F
331
81DE
  5
81DF
331
8215
  5
8216
331
8211
  5
8212
331
8250
  5
846A
331
819B
  5
819B
331
81DA
  5
81DB
331
7EBC
  5
7EBC
331
7EB8
  5
7EB8
331
7EB4
  5
7EB4
331
7EB0
  5
7EB0
331
81D6
  5
81D7
331
820D
  5
820E
331
824C
  5
824D
331
8197
  5
8197
331
81D2
  5
81D3
331
8209
  5
820A
331
8248
  5
8249
331
8244
  5
8245
331
8205
  5
8206
331
8201
  5
8202
331
8240
  5
8241
331
8173
  5
8173
331
7EAC
  5
7EAC
331
7EA4
  5
7EA4
331
81FD
  5
81FE
331
823C
  5
823D
331
81C6
  5
81C7
331
81C2
  5
81C3
331
81F9
  5
81FA
331
8238
  5
8239
331
8234
  5
8235
331
81BE
  5
81BF
331
81F5
  5
81F6
331
8230
  5
8231
331
81BA
  5
81BB
331
81F1
  5
81F2
331
81ED
  5
81EE
331
822C
  5
822D
331
81B6
  5
81B7
331
81B2
  5
81B3
331
81E9
  5
81EC
331
8228
  5
8229
331
81AE
  5
81AE
331
81E5
  5
81E6
331
8224
  5
8225
331
8220
  5
8221
331
84D7
  5
85BC
331
81E1
  5
81E2
331
8484
  5
8491
331
821C
  5
821D
331
81A2
  5
81A2
331
8218
  5
8219
331
819E
  5
819E
331
81DD
  5
81DE
331
8214
  5
8215
331
8210
  5
8211
331
819A
  5
819A
331
81D9
  5
81DA
331
7EBF
  5
7EBF
331
7EBB
  5
7EBB
331
7EB7
  5
7EB7
331
7EB3
  5
7EB3
331
824F
  5
8250
331
81D5
  5
81D6
331
820C
  5
820D
331
824B
  5
824C
331
8196
  5
8196
331
81D1
  5
81D2
331
8208
  5
8209
331
8247
  5
8248
331
8243
  5
8244
331
8204
  5
8205
331
8200
  5
8201
331
8172
  5
8172
331
81C9
  5
81D0
331
7EAB
  5
7EAB
331
823F
  5
8240
331
81C5
  5
81C6
331
81FC
  5
81FD
331
823B
  5
823C
331
81C1
  5
81C2
331
8237
  5
8238
331
8233
  5
8234
331
81BD
  5
81BE
331
81F4
  5
81F5
331
81F0
  5
81F1
331
81B9
  5
81BA
331
822F
  5
8230
331
81EC
  5
81ED
331
822B
  5
822C
331
81B5
  5
81B6
331
81B1
  5
81B2
331
81E8
  5
81E9
331
8227
  5
8228
331
8223
  5
8224
331
81AD
  5
81AD
331
81E4
  5
81E5
331
81E0
  5
81E1
331
84CA
  5
84D7
331
7EC2
  5
7EC2
331
821F
  5
8220
331
821B
  5
821C
331
81A1
  5
81A1
331
8217
  5
8218
331
819D
  5
819D
331
81DC
  5
81DD
331
8213
  5
8214
331
8199
  5
8199
331
81D8
  5
81D9
331
8477
  5
8484
331
7EBE
  5
7EBE
331
7EBA
  5
7EBA
331
7EB6
  5
7EB6
331
7EB2
  5
7EB2
331
820F
  5
8210
331
824E
  5
824F
331
81D4
  5
81D5
331
820B
  5
820C
331
824A
  5
824B
331
8195
  5
8195
331
81D0
  5
81D1
331
8207
  5
8208
331
8246
  5
8247
331
8242
  5
8243
331
8203
  5
8204
331
8171
  5
8171
331
81C8
  5
81C9
331
84B2
  5
84CA
331
7EAE
  5
7EAE
331
7EAA
  5
7EAA
331
7EA6
  5
7EA6
331
81FF
  5
8200
331
823E
  5
823F
331
81C4
  5
81C5
331
81FB
  5
81FC
331
823A
  5
823B
331
81C0
  5
81C1
331
81F7
  5
81F9
331
8236
  5
8237
331
8232
  5
8233
331
81BC
  5
81BD
331
81F3
  5
81F4
331
81B8
  5
81B9
  0
XRECORD
  5
8508
102
{ACAD_REACTORS
330
8507
102
}
330
8507
100
AcDbXrecord
280
     1
340
16
  0
ACDBDETAILVIEWSTYLE
  5
85B8
102
{ACAD_XDICTIONARY
360
8631
102
}
102
{ACAD_REACTORS
330
85B7
102
}
330
85B7
100
AcDbModelDocViewStyle
 70
     0
  3
Metric50
290
     0
100
AcDbDetailViewStyle
 70
     0
 71
     0
 90
        3
 71
     1
340
10
 40
5.0
340
0
 40
5.0
300

 40
0.0
280
     1
 71
     2
340
15
 90
       25
 71
     3
340
10
 40
5.0
 90
        0
 40
15.0
 90
        1
300
%<\AcVar ViewDetailId>% (%<\AcVar ViewScale \f "%sn">%)
 71
     4
340
15
 90
       25
340
15
 90
       25
280
     0
  0
LAYOUT
  5
84DE
102
{ACAD_XDICTIONARY
360
8665
102
}
102
{ACAD_REACTORS
330
84DC
102
}
330
84DC
100
AcDbPlotSettings
  1

  2
EPSON LP-9300
  4

  6

 40
0.0
 41
0.0
 42
0.0
 43
0.0
 44
0.0
 45
0.0
 46
0.0
 47
0.0
 48
0.0
 49
0.0
140
0.0
141
0.0
142
1.0
143
1.0
 70
  1712
 72
     0
 73
     0
 74
     0
  7

 75
     0
147
1.0
148
0.0
149
0.0
100
AcDbLayout
  1
Model
 70
     1
 71
     0
 10
0.0
 20
0.0
 11
12.0
 21
9.0
 12
0.0
 22
0.0
 32
0.0
 14
0.0
 24
0.0
 34
0.0
 15
0.0
 25
0.0
 35
0.0
146
0.0
 13
0.0
 23
0.0
 33
0.0
 16
1.0
 26
0.0
 36
0.0
 17
0.0
 27
1.0
 37
0.0
 76
     0
330
19
331
856A
  0
LAYOUT
  5
84DF
102
{ACAD_XDICTIONARY
360
8667
102
}
102
{ACAD_REACTORS
330
84DC
102
}
330
84DC
100
AcDbPlotSettings
  1

  2
EPSON LP-9300
  4

  6

 40
0.0
 41
0.0
 42
0.0
 43
0.0
 44
0.0
 45
0.0
 46
0.0
 47
0.0
 48
0.0
 49
0.0
140
0.0
141
0.0
142
1.0
143
1.0
 70
   688
 72
     0
 73
     0
 74
     5
  7

 75
    16
147
1.0
148
0.0
149
0.0
100
AcDbLayout
  1
ﾚｲｱｳﾄ1
 70
     1
 71
     1
 10
0.0
 20
0.0
 11
12.0
 21
9.0
 12
0.0
 22
0.0
 32
0.0
 14
1.000000000000000E+20
 24
1.000000000000000E+20
 34
1.000000000000000E+20
 15
-1.000000000000000E+20
 25
-1.000000000000000E+20
 35
-1.000000000000000E+20
146
0.0
 13
0.0
 23
0.0
 33
0.0
 16
1.0
 26
0.0
 36
0.0
 17
0.0
 27
1.0
 37
0.0
 76
     0
330
16
  0
MATERIAL
  5
8575
102
{ACAD_XDICTIONARY
360
8576
102
}
102
{ACAD_REACTORS
330
856C
102
}
330
856C
100
AcDbMaterial
  1
ByBlock
 72
     0
 43
0.0208333333333333
 43
0.0
 43
0.0
 43
0.0
 43
0.0
 43
0.0208333333333333
 43
0.0
 43
0.0
 43
0.0
 43
0.0
 43
1.0
 43
0.0
 43
0.0
 43
0.0
 43
0.0
 43
1.0
 77
     0
 47
0.0208333333333333
 47
0.0
 47
0.0
 47
0.0
 47
0.0
 47
0.0208333333333333
 47
0.0
 47
0.0
 47
0.0
 47
0.0
 47
1.0
 47
0.0
 47
0.0
 47
0.0
 47
0.0
 47
1.0
171
     0
 49
0.0208333333333333
 49
0.0
 49
0.0
 49
0.0
 49
0.0
 49
0.0208333333333333
 49
0.0
 49
0.0
 49
0.0
 49
0.0
 49
1.0
 49
0.0
 49
0.0
 49
0.0
 49
0.0
 49
1.0
175
     0
142
0.0208333333333333
142
0.0
142
0.0
142
0.0
142
0.0
142
0.0208333333333333
142
0.0
142
0.0
142
0.0
142
0.0
142
1.0
142
0.0
142
0.0
142
0.0
142
0.0
142
1.0
179
     0
144
0.0208333333333333
144
0.0
144
0.0
144
0.0
144
0.0
144
0.0208333333333333
144
0.0
144
0.0
144
0.0
144
0.0
144
1.0
144
0.0
144
0.0
144
0.0
144
0.0
144
1.0
147
0.0208333333333333
147
0.0
147
0.0
147
0.0
147
0.0
147
0.0208333333333333
147
0.0
147
0.0
147
0.0
147
0.0
147
1.0
147
0.0
147
0.0
147
0.0
147
0.0
147
1.0
  0
MATERIAL
  5
856D
102
{ACAD_XDICTIONARY
360
856E
102
}
102
{ACAD_REACTORS
330
856C
102
}
330
856C
100
AcDbMaterial
  1
ByLayer
 72
     0
 43
0.0208333333333333
 43
0.0
 43
0.0
 43
0.0
 43
0.0
 43
0.0208333333333333
 43
0.0
 43
0.0
 43
0.0
 43
0.0
 43
1.0
 43
0.0
 43
0.0
 43
0.0
 43
0.0
 43
1.0
 77
     0
 47
0.0208333333333333
 47
0.0
 47
0.0
 47
0.0
 47
0.0
 47
0.0208333333333333
 47
0.0
 47
0.0
 47
0.0
 47
0.0
 47
1.0
 47
0.0
 47
0.0
 47
0.0
 47
0.0
 47
1.0
171
     0
 49
0.0208333333333333
 49
0.0
 49
0.0
 49
0.0
 49
0.0
 49
0.0208333333333333
 49
0.0
 49
0.0
 49
0.0
 49
0.0
 49
1.0
 49
0.0
 49
0.0
 49
0.0
 49
0.0
 49
1.0
175
     0
142
0.0208333333333333
142
0.0
142
0.0
142
0.0
142
0.0
142
0.0208333333333333
142
0.0
142
0.0
142
0.0
142
0.0
142
1.0
142
0.0
142
0.0
142
0.0
142
0.0
142
1.0
179
     0
144
0.0208333333333333
144
0.0
144
0.0
144
0.0
144
0.0
144
0.0208333333333333
144
0.0
144
0.0
144
0.0
144
0.0
144
1.0
144
0.0
144
0.0
144
0.0
144
0.0
144
1.0
147
0.0208333333333333
147
0.0
147
0.0
147
0.0
147
0.0
147
0.0208333333333333
147
0.0
147
0.0
147
0.0
147
0.0
147
1.0
147
0.0
147
0.0
147
0.0
147
0.0
147
1.0
  0
MATERIAL
  5
857D
102
{ACAD_XDICTIONARY
360
857E
102
}
102
{ACAD_REACTORS
330
856C
102
}
330
856C
100
AcDbMaterial
  1
Global
 72
     0
 43
0.0208333333333333
 43
0.0
 43
0.0
 43
0.0
 43
0.0
 43
0.0208333333333333
 43
0.0
 43
0.0
 43
0.0
 43
0.0
 43
1.0
 43
0.0
 43
0.0
 43
0.0
 43
0.0
 43
1.0
 77
     0
 47
0.0208333333333333
 47
0.0
 47
0.0
 47
0.0
 47
0.0
 47
0.0208333333333333
 47
0.0
 47
0.0
 47
0.0
 47
0.0
 47
1.0
 47
0.0
 47
0.0
 47
0.0
 47
0.0
 47
1.0
171
     0
 49
0.0208333333333333
 49
0.0
 49
0.0
 49
0.0
 49
0.0
 49
0.0208333333333333
 49
0.0
 49
0.0
 49
0.0
 49
0.0
 49
1.0
 49
0.0
 49
0.0
 49
0.0
 49
0.0
 49
1.0
175
     0
142
0.0208333333333333
142
0.0
142
0.0
142
0.0
142
0.0
142
0.0208333333333333
142
0.0
142
0.0
142
0.0
142
0.0
142
1.0
142
0.0
142
0.0
142
0.0
142
0.0
142
1.0
179
     0
144
0.0208333333333333
144
0.0
144
0.0
144
0.0
144
0.0
144
0.0208333333333333
144
0.0
144
0.0
144
0.0
144
0.0
144
1.0
144
0.0
144
0.0
144
0.0
144
0.0
144
1.0
147
0.0208333333333333
147
0.0
147
0.0
147
0.0
147
0.0
147
0.0208333333333333
147
0.0
147
0.0
147
0.0
147
0.0
147
1.0
147
0.0
147
0.0
147
0.0
147
0.0
147
1.0
  0
MLEADERSTYLE
  5
85B4
102
{ACAD_XDICTIONARY
360
869E
102
}
102
{ACAD_REACTORS
330
85B3
102
}
330
85B3
100
AcDbMLeaderStyle
170
     2
171
     1
172
     0
 90
        2
 40
0.0
 41
0.0
173
     1
 91
-1056964608
340
13
 92
       -2
290
     1
 42
2.0
291
     1
 43
0.36
  3
Standard
 44
4.0
300

342
10
174
     1
178
     6
175
     1
176
     0
 93
-1056964608
 45
4.0
292
     0
297
     0
 46
4.0
 94
-1056964608
 47
1.0
 49
1.0
140
1.0
293
     1
141
0.0
294
     1
177
     0
142
1.0
295
     0
296
     0
143
0.125
1001
ACAD_MLEADERVER
1070
     2
  0
MLINESTYLE
  5
1C
102
{ACAD_REACTORS
330
E
102
}
330
E
100
AcDbMlineStyle
  2
STANDARD
 70
     0
  3

 62
     0
 51
90.0
 52
90.0
 71
     2
 49
0.5
 62
   256
  6
BYLAYER
 49
-0.5
 62
   256
  6
BYLAYER
  0
ACDBPLACEHOLDER
  5
84DB
102
{ACAD_REACTORS
330
84DA
102
}
330
84DA
  0
SCALE
  5
85A2
102
{ACAD_REACTORS
330
85A1
102
}
330
85A1
100
AcDbScale
 70
     0
300
1:1
140
1.0
141
1.0
290
     1
  0
SCALE
  5
85A3
102
{ACAD_REACTORS
330
85A1
102
}
330
85A1
100
AcDbScale
 70
     0
300
1:2
140
1.0
141
2.0
290
     0
  0
SCALE
  5
85A4
102
{ACAD_REACTORS
330
85A1
102
}
330
85A1
100
AcDbScale
 70
     0
300
1:4
140
1.0
141
4.0
290
     0
  0
SCALE
  5
85A5
102
{ACAD_REACTORS
330
85A1
102
}
330
85A1
100
AcDbScale
 70
     0
300
1:5
140
1.0
141
5.0
290
     0
  0
SCALE
  5
85A6
102
{ACAD_REACTORS
330
85A1
102
}
330
85A1
100
AcDbScale
 70
     0
300
1:8
140
1.0
141
8.0
290
     0
  0
SCALE
  5
85A7
102
{ACAD_REACTORS
330
85A1
102
}
330
85A1
100
AcDbScale
 70
     0
300
1:10
140
1.0
141
10.0
290
     0
  0
SCALE
  5
85A8
102
{ACAD_REACTORS
330
85A1
102
}
330
85A1
100
AcDbScale
 70
     0
300
1:16
140
1.0
141
16.0
290
     0
  0
SCALE
  5
85A9
102
{ACAD_REACTORS
330
85A1
102
}
330
85A1
100
AcDbScale
 70
     0
300
1:20
140
1.0
141
20.0
290
     0
  0
SCALE
  5
85AA
102
{ACAD_REACTORS
330
85A1
102
}
330
85A1
100
AcDbScale
 70
     0
300
1:30
140
1.0
141
30.0
290
     0
  0
SCALE
  5
85AB
102
{ACAD_REACTORS
330
85A1
102
}
330
85A1
100
AcDbScale
 70
     0
300
1:40
140
1.0
141
40.0
290
     0
  0
SCALE
  5
85AC
102
{ACAD_REACTORS
330
85A1
102
}
330
85A1
100
AcDbScale
 70
     0
300
1:50
140
1.0
141
50.0
290
     0
  0
SCALE
  5
85AD
102
{ACAD_REACTORS
330
85A1
102
}
330
85A1
100
AcDbScale
 70
     0
300
1:100
140
1.0
141
100.0
290
     0
  0
SCALE
  5
85AE
102
{ACAD_REACTORS
330
85A1
102
}
330
85A1
100
AcDbScale
 70
     0
300
2:1
140
2.0
141
1.0
290
     0
  0
SCALE
  5
85AF
102
{ACAD_REACTORS
330
85A1
102
}
330
85A1
100
AcDbScale
 70
     0
300
4:1
140
4.0
141
1.0
290
     0
  0
SCALE
  5
85B0
102
{ACAD_REACTORS
330
85A1
102
}
330
85A1
100
AcDbScale
 70
     0
300
8:1
140
8.0
141
1.0
290
     0
  0
SCALE
  5
85B1
102
{ACAD_REACTORS
330
85A1
102
}
330
85A1
100
AcDbScale
 70
     0
300
10:1
140
10.0
141
1.0
290
     0
  0
SCALE
  5
85B2
102
{ACAD_REACTORS
330
85A1
102
}
330
85A1
100
AcDbScale
 70
     0
300
100:1
140
100.0
141
1.0
290
     0
  0
ACDBSECTIONVIEWSTYLE
  5
85B6
102
{ACAD_XDICTIONARY
360
862F
102
}
102
{ACAD_REACTORS
330
85B5
102
}
330
85B5
100
AcDbModelDocViewStyle
 70
     0
  3
Metric50
290
     0
100
AcDbSectionViewStyle
 70
     0
 71
     0
 90
      102
 71
     1
340
10
 40
5.0
340
0
340
0
 40
5.0
300
I, O, Q, S, X, Z
 40
10.0
 90
        0
 40
2.5
 90
        0
 71
     2
340
15
 90
       25
340
15
 90
       50
 40
5.0
 40
2.5
 40
5.0
 71
     3
340
10
 40
5.0
 90
        0
 40
15.0
 90
        1
300
%<\AcVar ViewSectionStartId>%-%<\AcVar ViewSectionEndId>% (%<\AcVar ViewScale \f "%sn">%)
 71
     4
300
ANSI31
 40
1.0
 90
        0
290
     0
290
     0
 90
        6
 40
0.0
 40
1.570796326794896
 40
0.2617993877991494
 40
1.308996938995747
 40
-0.2617993877991494
 40
1.832595714594046
  0
TABLESTYLE
  5
85A0
102
{ACAD_XDICTIONARY
360
8659
102
}
102
{ACAD_REACTORS
330
859F
102
}
330
859F
100
AcDbTableStyle
  3
Standard
 70
     0
 71
     0
 40
1.5
 41
1.5
280
     0
281
     0
  7
STANDARD
140
4.5
170
     2
 62
     0
 63
     7
283
     0
274
    -2
284
     1
 64
     0
275
    -2
285
     1
 65
     0
276
    -2
286
     1
 66
     0
277
    -2
287
     1
 67
     0
278
    -2
288
     1
 68
     0
279
    -2
289
     1
 69
     0
  7
STANDARD
140
6.0
170
     5
 62
     0
 63
     7
283
     0
274
    -2
284
     1
 64
     0
275
    -2
285
     1
 65
     0
276
    -2
286
     1
 66
     0
277
    -2
287
     1
 67
     0
278
    -2
288
     1
 68
     0
279
    -2
289
     1
 69
     0
  7
STANDARD
140
4.5
170
     5
 62
     0
 63
     7
283
     0
274
    -2
284
     1
 64
     0
275
    -2
285
     1
 65
     0
276
    -2
286
     1
 66
     0
277
    -2
287
     1
 67
     0
278
    -2
288
     1
 68
     0
279
    -2
289
     1
 69
     0
  0
VISUALSTYLE
  5
858B
102
{ACAD_XDICTIONARY
360
8676
102
}
102
{ACAD_REACTORS
330
8585
102
}
330
8585
100
AcDbVisualStyle
  2
2dWireframe
 70
     4
 71
     0
 72
     2
 73
     0
 90
        0
 40
-0.6
 41
-30.0
 62
     5
 63
     7
 74
     1
 91
        4
 64
     7
 65
   257
 75
     1
175
     1
 42
1.0
 92
        0
 66
   257
 43
1.0
 76
     1
 77
     6
 78
     2
 67
     7
 79
     5
170
     0
171
     0
290
     0
174
     0
 93
        1
 44
0.0
173
     0
291
     0
 45
0.0
1001
ACAD
1000
AcDbSavedByObjectVersion
1070
     0
  0
VISUALSTYLE
  5
858A
102
{ACAD_XDICTIONARY
360
8674
102
}
102
{ACAD_REACTORS
330
8585
102
}
330
8585
100
AcDbVisualStyle
  2
Basic
 70
     7
 71
     1
 72
     0
 73
     1
 90
        0
 40
-0.6
 41
-30.0
 62
     5
 63
     7
 74
     0
 91
        4
 64
     7
 65
   257
 75
     1
175
     1
 42
1.0
 92
        8
 66
     7
 43
1.0
 76
     1
 77
     6
 78
     2
 67
     7
 79
     5
170
     0
171
     0
290
     0
174
     0
 93
        1
 44
0.0
173
     0
291
     1
 45
0.0
1001
ACAD
1000
AcDbSavedByObjectVersion
1070
     0
  0
VISUALSTYLE
  5
8591
102
{ACAD_XDICTIONARY
360
8682
102
}
102
{ACAD_REACTORS
330
8585
102
}
330
8585
100
AcDbVisualStyle
  2
Brighten
 70
    12
 71
     2
 72
     2
 73
     0
 90
        0
 40
-0.6
 41
-30.0
 62
     5
 63
     7
 74
     1
 91
        4
 64
     7
 65
   257
 75
     1
175
     1
 42
1.0
 92
        8
 66
     7
 43
1.0
 76
     1
 77
     6
 78
     2
 67
     7
 79
     5
170
     0
171
     0
290
     0
174
     0
 93
        1
 44
50.0
173
     0
291
     1
 45
0.0
1001
ACAD
1000
AcDbSavedByObjectVersion
1070
     0
  0
VISUALSTYLE
  5
8595
102
{ACAD_XDICTIONARY
360
868A
102
}
102
{ACAD_REACTORS
330
8585
102
}
330
8585
100
AcDbVisualStyle
  2
ColorChange
 70
    16
 71
     2
 72
     2
 73
     3
 90
        0
 40
-0.6
 41
-30.0
 62
     5
 63
     8
 74
     1
 91
        4
 64
     7
 65
   257
 75
     1
175
     1
 42
1.0
 92
        8
 66
     8
 43
1.0
 76
     1
 77
     6
 78
     2
 67
     7
 79
     5
170
     0
171
     0
290
     0
174
     0
 93
        1
 44
0.0
173
     0
291
     1
 45
0.0
1001
ACAD
1000
AcDbSavedByObjectVersion
1070
     0
  0
VISUALSTYLE
  5
858E
102
{ACAD_XDICTIONARY
360
867C
102
}
102
{ACAD_REACTORS
330
8585
102
}
330
8585
100
AcDbVisualStyle
  2
Conceptual
 70
     9
 71
     3
 72
     2
 73
     0
 90
        0
 40
-0.6
 41
-30.0
 62
     5
 63
     7
 74
     2
 91
        2
 64
     7
 65
   257
 75
     1
175
     1
 42
179.0
 92
        8
 66
     7
 43
1.0
 76
     1
 77
     6
 78
     2
 67
     7
 79
     3
170
     0
171
     0
290
     0
174
     0
 93
        1
 44
0.0
173
     0
291
     0
 45
0.0
1001
ACAD
1000
AcDbSavedByObjectVersion
1070
     0
  0
VISUALSTYLE
  5
8590
102
{ACAD_XDICTIONARY
360
8680
102
}
102
{ACAD_REACTORS
330
8585
102
}
330
8585
100
AcDbVisualStyle
  2
Dim
 70
    11
 71
     2
 72
     2
 73
     0
 90
        0
 40
-0.6
 41
-30.0
 62
     5
 63
     7
 74
     1
 91
        4
 64
     7
 65
   257
 75
     1
175
     1
 42
1.0
 92
        8
 66
     7
 43
1.0
 76
     1
 77
     6
 78
     2
 67
     7
 79
     5
170
     0
171
     0
290
     0
174
     0
 93
        1
 44
-50.0
173
     0
291
     1
 45
0.0
1001
ACAD
1000
AcDbSavedByObjectVersion
1070
     0
  0
VISUALSTYLE
  5
859D
102
{ACAD_XDICTIONARY
360
869A
102
}
102
{ACAD_REACTORS
330
8585
102
}
330
8585
100
AcDbVisualStyle
  2
EdgeColorOff
 70
    22
 71
     2
 72
     2
 73
     0
 90
        0
 40
-0.6
 41
-30.0
 62
     5
 63
     7
 74
     1
 91
        4
 64
     7
 65
   257
 75
     1
175
     1
 42
1.0
 92
        8
 66
     7
 43
1.0
 76
     1
 77
     6
 78
     2
 67
     7
 79
     5
170
     0
171
     0
290
     0
174
     0
 93
        1
 44
0.0
173
     0
291
     1
 45
0.0
1001
ACAD
1000
AcDbSavedByObjectVersion
1070
     0
  0
VISUALSTYLE
  5
8594
102
{ACAD_XDICTIONARY
360
8688
102
}
102
{ACAD_REACTORS
330
8585
102
}
330
8585
100
AcDbVisualStyle
  2
Facepattern
 70
    15
 71
     2
 72
     2
 73
     0
 90
        0
 40
-0.6
 41
-30.0
 62
     5
 63
     7
 74
     1
 91
        4
 64
     7
 65
   257
 75
     1
175
     1
 42
1.0
 92
        8
 66
     7
 43
1.0
 76
     1
 77
     6
 78
     2
 67
     7
 79
     5
170
     0
171
     0
290
     0
174
     0
 93
        1
 44
0.0
173
     0
291
     1
 45
0.0
1001
ACAD
1000
AcDbSavedByObjectVersion
1070
     0
  0
VISUALSTYLE
  5
8586
102
{ACAD_XDICTIONARY
360
866C
102
}
102
{ACAD_REACTORS
330
8585
102
}
330
8585
100
AcDbVisualStyle
  2
Flat
 70
     0
 71
     2
 72
     1
 73
     1
 90
        2
 40
-0.6
 41
30.0
 62
     5
 63
     7
 74
     0
 91
        0
 64
     7
 65
   257
 75
     1
175
     1
 42
1.0
 92
        8
 66
     7
 43
1.0
 76
     1
 77
     6
 78
     2
 67
     7
 79
     5
170
     0
171
     0
290
     0
174
     0
 93
       13
 44
0.0
173
     0
291
     1
 45
0.0
1001
ACAD
1000
AcDbSavedByObjectVersion
1070
     0
  0
VISUALSTYLE
  5
8587
102
{ACAD_XDICTIONARY
360
866E
102
}
102
{ACAD_REACTORS
330
8585
102
}
330
8585
100
AcDbVisualStyle
  2
FlatWithEdges
 70
     1
 71
     2
 72
     1
 73
     1
 90
        2
 40
-0.6
 41
30.0
 62
     5
 63
     7
 74
     1
 91
        0
 64
     7
 65
   257
 75
     1
175
     1
 42
1.0
 92
        0
 66
   257
 43
1.0
 76
     1
 77
     6
 78
     2
 67
     7
 79
     5
170
     0
171
     0
290
     0
174
     0
 93
       13
 44
0.0
173
     0
291
     1
 45
0.0
1001
ACAD
1000
AcDbSavedByObjectVersion
1070
     0
  0
VISUALSTYLE
  5
8588
102
{ACAD_XDICTIONARY
360
8670
102
}
102
{ACAD_REACTORS
330
8585
102
}
330
8585
100
AcDbVisualStyle
  2
Gouraud
 70
     2
 71
     2
 72
     2
 73
     1
 90
        2
 40
-0.6
 41
30.0
 62
     5
 63
     7
 74
     0
 91
        0
 64
     7
 65
   257
 75
     1
175
     1
 42
1.0
 92
        0
 66
     7
 43
1.0
 76
     1
 77
     6
 78
     2
 67
     7
 79
     5
170
     0
171
     0
290
     0
174
     0
 93
       13
 44
0.0
173
     0
291
     1
 45
0.0
1001
ACAD
1000
AcDbSavedByObjectVersion
1070
     0
  0
VISUALSTYLE
  5
8589
102
{ACAD_XDICTIONARY
360
8672
102
}
102
{ACAD_REACTORS
330
8585
102
}
330
8585
100
AcDbVisualStyle
  2
GouraudWithEdges
 70
     3
 71
     2
 72
     2
 73
     1
 90
        2
 40
-0.6
 41
30.0
 62
     5
 63
     7
 74
     1
 91
        0
 64
     7
 65
   257
 75
     1
175
     1
 42
1.0
 92
        0
 66
   257
 43
1.0
 76
     1
 77
     6
 78
     2
 67
     7
 79
     5
170
     0
171
     0
290
     0
174
     0
 93
       13
 44
0.0
173
     0
291
     1
 45
0.0
1001
ACAD
1000
AcDbSavedByObjectVersion
1070
     0
  0
VISUALSTYLE
  5
858D
102
{ACAD_XDICTIONARY
360
867A
102
}
102
{ACAD_REACTORS
330
8585
102
}
330
8585
100
AcDbVisualStyle
  2
Hidden
 70
     6
 71
     1
 72
     2
 73
     2
 90
        0
 40
-0.6
 41
-30.0
 62
     5
 63
     7
 74
     2
 91
        2
 64
     7
 65
   257
 75
     2
175
     1
 42
40.0
 92
        0
 66
   257
 43
1.0
 76
     1
 77
     6
 78
     2
 67
     7
 79
     3
170
     0
171
     0
290
     0
174
     0
 93
        1
 44
0.0
173
     0
291
     0
 45
0.0
1001
ACAD
1000
AcDbSavedByObjectVersion
1070
     0
  0
VISUALSTYLE
  5
859B
102
{ACAD_XDICTIONARY
360
8696
102
}
102
{ACAD_REACTORS
330
8585
102
}
330
8585
100
AcDbVisualStyle
  2
JitterOff
 70
    20
 71
     2
 72
     2
 73
     0
 90
        0
 40
-0.6
 41
-30.0
 62
     5
 63
     7
 74
     1
 91
        4
 64
     7
 65
   257
 75
     1
175
     1
 42
1.0
 92
       10
 66
     7
 43
1.0
 76
     1
 77
     6
 78
     2
 67
     7
 79
     5
170
     0
171
     0
290
     0
174
     0
 93
        1
 44
0.0
173
     0
291
     1
 45
0.0
1001
ACAD
1000
AcDbSavedByObjectVersion
1070
     0
  0
VISUALSTYLE
  5
8593
102
{ACAD_XDICTIONARY
360
8686
102
}
102
{ACAD_REACTORS
330
8585
102
}
330
8585
100
AcDbVisualStyle
  2
Linepattern
 70
    14
 71
     2
 72
     2
 73
     0
 90
        0
 40
-0.6
 41
-30.0
 62
     5
 63
     7
 74
     1
 91
        4
 64
     7
 65
   257
 75
     7
175
     7
 42
1.0
 92
        8
 66
     7
 43
1.0
 76
     1
 77
     6
 78
     2
 67
     7
 79
     5
170
     0
171
     0
290
     0
174
     0
 93
        1
 44
0.0
173
     0
291
     1
 45
0.0
1001
ACAD
1000
AcDbSavedByObjectVersion
1070
     0
  0
VISUALSTYLE
  5
859C
102
{ACAD_XDICTIONARY
360
8698
102
}
102
{ACAD_REACTORS
330
8585
102
}
330
8585
100
AcDbVisualStyle
  2
OverhangOff
 70
    21
 71
     2
 72
     2
 73
     0
 90
        0
 40
-0.6
 41
-30.0
 62
     5
 63
     7
 74
     1
 91
        4
 64
     7
 65
   257
 75
     1
175
     1
 42
1.0
 92
        9
 66
     7
 43
1.0
 76
     1
 77
     6
 78
     2
 67
     7
 79
     5
170
     0
171
     0
290
     0
174
     0
 93
        1
 44
0.0
173
     0
291
     1
 45
0.0
1001
ACAD
1000
AcDbSavedByObjectVersion
1070
     0
  0
VISUALSTYLE
  5
858F
102
{ACAD_XDICTIONARY
360
867E
102
}
102
{ACAD_REACTORS
330
8585
102
}
330
8585
100
AcDbVisualStyle
  2
Realistic
 70
     8
 71
     2
 72
     3
 73
     0
 90
        2
 40
-0.6
 41
30.0
 62
     5
 63
     7
 74
     0
 91
        0
 64
     7
 65
   257
 75
     1
175
     1
 42
1.0
 92
        8
 66
   257
 43
1.0
 76
     1
 77
     6
 78
     2
 67
     7
 79
     3
170
     0
171
     0
290
     0
174
     0
 93
       13
 44
0.0
173
     0
291
     0
 45
0.0
1001
ACAD
1000
AcDbSavedByObjectVersion
1070
     0
  0
VISUALSTYLE
  5
859A
102
{ACAD_XDICTIONARY
360
8694
102
}
102
{ACAD_REACTORS
330
8585
102
}
330
8585
100
AcDbVisualStyle
  2
Shaded
 70
    27
 71
     2
 72
     2
 73
     1
 90
        2
 40
-0.6
 41
30.0
 62
     5
 63
     7
 74
     0
 91
        4
 64
     7
 65
   257
 75
     1
175
     1
 42
1.0
 92
        8
 66
   257
 43
1.0
 76
     1
 77
     6
 78
     2
 67
     8
 79
     3
170
     0
171
     0
290
     0
174
     0
 93
        5
 44
0.0
173
     0
291
     0
 45
0.0
1001
ACAD
1000
AcDbSavedByObjectVersion
1070
     0
  0
VISUALSTYLE
  5
8599
102
{ACAD_XDICTIONARY
360
8692
102
}
102
{ACAD_REACTORS
330
8585
102
}
330
8585
100
AcDbVisualStyle
  2
Shaded with edges
 70
    26
 71
     2
 72
     2
 73
     1
 90
        2
 40
-0.6
 41
30.0
 62
     5
 63
     7
 74
     1
 91
       10
 64
     7
 65
   257
 75
     2
175
     1
 42
1.0
 92
        8
 66
   257
 43
1.0
 76
     1
 77
     6
 78
     2
 67
     7
 79
     3
170
     0
171
     0
290
     0
174
     0
 93
        5
 44
0.0
173
     0
291
     0
 45
0.0
1001
ACAD
1000
AcDbSavedByObjectVersion
1070
     0
  0
VISUALSTYLE
  5
8596
102
{ACAD_XDICTIONARY
360
868C
102
}
102
{ACAD_REACTORS
330
8585
102
}
330
8585
100
AcDbVisualStyle
  2
Shades of Gray
 70
    23
 71
     2
 72
     2
 73
     3
 90
        0
 40
-0.6
 41
-30.0
 62
     5
 63
     7
 74
     2
 91
        2
 64
     7
 65
     7
 75
     1
175
     1
 42
40.0
 92
        8
 66
     7
 43
1.0
 76
     1
 77
     6
 78
     2
 67
     7
 79
     3
170
     0
171
     0
290
     0
174
     0
 93
        1
 44
0.0
173
     0
291
     0
 45
0.0
1001
ACAD
1000
AcDbSavedByObjectVersion
1070
     0
  0
VISUALSTYLE
  5
8597
102
{ACAD_XDICTIONARY
360
868E
102
}
102
{ACAD_REACTORS
330
8585
102
}
330
8585
100
AcDbVisualStyle
  2
Sketchy
 70
    24
 71
     1
 72
     2
 73
     2
 90
        0
 40
-0.6
 41
-30.0
 62
     5
 63
     7
 74
     2
 91
        2
 64
     7
 65
     7
 75
     1
175
     1
 42
40.0
 92
       11
 66
     7
 43
1.0
 76
     1
 77
     6
 78
     2
 67
     7
 79
     6
170
     0
171
     0
290
     0
174
     0
 93
        1
 44
0.0
173
     0
291
     0
 45
0.0
1001
ACAD
1000
AcDbSavedByObjectVersion
1070
     0
  0
VISUALSTYLE
  5
8592
102
{ACAD_XDICTIONARY
360
8684
102
}
102
{ACAD_REACTORS
330
8585
102
}
330
8585
100
AcDbVisualStyle
  2
Thicken
 70
    13
 71
     2
 72
     2
 73
     0
 90
        0
 40
-0.6
 41
-30.0
 62
     5
 63
     7
 74
     1
 91
        4
 64
     7
 65
   257
 75
     1
175
     1
 42
1.0
 92
       12
 66
     7
 43
1.0
 76
     1
 77
     6
 78
     2
 67
     7
 79
     5
170
     0
171
     0
290
     0
174
     0
 93
        1
 44
0.0
173
     0
291
     1
 45
0.0
1001
ACAD
1000
AcDbSavedByObjectVersion
1070
     0
  0
VISUALSTYLE
  5
858C
102
{ACAD_XDICTIONARY
360
8678
102
}
102
{ACAD_REACTORS
330
8585
102
}
330
8585
100
AcDbVisualStyle
  2
Wireframe
 70
     5
 71
     0
 72
     2
 73
     0
 90
        0
 40
-0.6
 41
-30.0
 62
     5
 63
     7
 74
     1
 91
        4
 64
     7
 65
   257
 75
     1
175
     1
 42
1.0
 92
        0
 66
   257
 43
1.0
 76
     1
 77
     6
 78
     2
 67
     7
 79
     3
170
     0
171
     0
290
     0
174
     0
 93
        1
 44
0.0
173
     0
291
     0
 45
0.0
1001
ACAD
1000
AcDbSavedByObjectVersion
1070
     0
  0
VISUALSTYLE
  5
8598
102
{ACAD_XDICTIONARY
360
8690
102
}
102
{ACAD_REACTORS
330
8585
102
}
330
8585
100
AcDbVisualStyle
  2
X-Ray
 70
    25
 71
     2
 72
     2
 73
     1
 90
        1
 40
0.5
 41
-30.0
 62
     5
 63
     7
 74
     1
 91
        0
 64
     7
 65
   257
 75
     1
175
     1
 42
1.0
 92
        8
 66
     7
 43
1.0
 76
     1
 77
     6
 78
     2
 67
     7
 79
     3
170
     0
171
     0
290
     0
174
     0
 93
       13
 44
0.0
173
     0
291
     0
 45
0.0
1001
ACAD
1000
AcDbSavedByObjectVersion
1070
     0
  0
DICTIONARYVAR
  5
863A
102
{ACAD_REACTORS
330
8634
102
}
330
8634
100
DictionaryVariables
280
     0
  1
1:1
  0
DICTIONARYVAR
  5
8636
102
{ACAD_REACTORS
330
8634
102
}
330
8634
100
DictionaryVariables
280
     0
  1
STANDARD
  0
DICTIONARYVAR
  5
8635
102
{ACAD_REACTORS
330
8634
102
}
330
8634
100
DictionaryVariables
280
     0
  1
STANDARD
  0
DICTIONARYVAR
  5
8637
102
{ACAD_REACTORS
330
8634
102
}
330
8634
100
DictionaryVariables
280
     0
  1
Metric50
  0
DICTIONARYVAR
  5
8638
102
{ACAD_REACTORS
330
8634
102
}
330
8634
100
DictionaryVariables
280
     0
  1
Metric50
  0
DICTIONARYVAR
  5
8657
102
{ACAD_REACTORS
330
8634
102
}
330
8634
100
DictionaryVariables
280
     0
  1
1
  0
DICTIONARYVAR
  5
8656
102
{ACAD_REACTORS
330
8634
102
}
330
8634
100
DictionaryVariables
280
     0
  1
0
  0
DICTIONARYVAR
  5
863C
102
{ACAD_REACTORS
330
8634
102
}
330
8634
100
DictionaryVariables
280
     0
  1
1
  0
DICTIONARYVAR
  5
863D
102
{ACAD_REACTORS
330
8634
102
}
330
8634
100
DictionaryVariables
280
     0
  1
15
  0
DICTIONARYVAR
  5
863B
102
{ACAD_REACTORS
330
8634
102
}
330
8634
100
DictionaryVariables
280
     0
  1
0
  0
DICTIONARYVAR
  5
8639
102
{ACAD_REACTORS
330
8634
102
}
330
8634
100
DictionaryVariables
280
     0
  1
0
  0
DICTIONARYVAR
  5
8655
102
{ACAD_REACTORS
330
8634
102
}
330
8634
100
DictionaryVariables
280
     0
  1
127
  0
DICTIONARYVAR
  5
8658
102
{ACAD_REACTORS
330
8634
102
}
330
8634
100
DictionaryVariables
280
     0
  1
2
  0
DICTIONARY
  5
8664
102
{ACAD_REACTORS
330
8662
102
}
330
8662
100
AcDbDictionary
281
     1
  0
DICTIONARY
  5
8663
102
{ACAD_REACTORS
330
8662
102
}
330
8662
100
AcDbDictionary
281
     1
  3
140690076040144
350
865D
  3
140690076040160
350
865E
  3
140690076040176
350
865F
  3
140690076040192
350
8660
  3
140690076040208
350
8661
  0
DICTIONARY
  5
8631
330
85B8
100
AcDbDictionary
280
     1
281
     1
  3
ACAD_XREC_ROUNDTRIP
360
86A1
  0
DICTIONARY
  5
8665
330
84DE
100
AcDbDictionary
280
     1
281
     1
  3
ACAD_XREC_ROUNDTRIP
360
8666
  0
DICTIONARY
  5
8667
330
84DF
100
AcDbDictionary
280
     1
281
     1
  3
ACAD_XREC_ROUNDTRIP
360
8668
  0
DICTIONARY
  5
8576
330
8575
100
AcDbDictionary
280
     1
281
     1
  3
ACAD_XREC_ROUNDTRIP
360
866A
  3
BUMPTILE
360
8578
  3
DIFFUSETILE
360
8577
  3
OPACITYTILE
360
857B
  3
REFLECTIONTILE
360
857A
  3
REFRACTIONTILE
360
857C
  3
SPECULARTILE
360
8579
  0
DICTIONARY
  5
856E
330
856D
100
AcDbDictionary
280
     1
281
     1
  3
ACAD_XREC_ROUNDTRIP
360
8669
  3
BUMPTILE
360
8570
  3
DIFFUSETILE
360
856F
  3
OPACITYTILE
360
8573
  3
REFLECTIONTILE
360
8572
  3
REFRACTIONTILE
360
8574
  3
SPECULARTILE
360
8571
  0
DICTIONARY
  5
857E
330
857D
100
AcDbDictionary
280
     1
281
     1
  3
ACAD_XREC_ROUNDTRIP
360
866B
  3
BUMPTILE
360
8580
  3
DIFFUSETILE
360
857F
  3
OPACITYTILE
360
8583
  3
REFLECTIONTILE
360
8582
  3
REFRACTIONTILE
360
8584
  3
SPECULARTILE
360
8581
  0
DICTIONARY
  5
869E
330
85B4
100
AcDbDictionary
280
     1
281
     1
  3
ACAD_XREC_ROUNDTRIP
360
869F
  0
DICTIONARY
  5
862F
330
85B6
100
AcDbDictionary
280
     1
281
     1
  3
ACAD_XREC_ROUNDTRIP
360
86A0
  0
DICTIONARY
  5
8659
330
85A0
100
AcDbDictionary
280
     1
281
     1
  3
ACAD_ROUNDTRIP_2008_TABLESTYLE_CELLSTYLEMAP
360
865A
  3
ACAD_XREC_ROUNDTRIP
360
869C
  0
DICTIONARY
  5
8676
330
858B
100
AcDbDictionary
280
     1
281
     1
  3
ACAD_XREC_ROUNDTRIP
360
8677
  0
DICTIONARY
  5
8674
330
858A
100
AcDbDictionary
280
     1
281
     1
  3
ACAD_XREC_ROUNDTRIP
360
8675
  0
DICTIONARY
  5
8682
330
8591
100
AcDbDictionary
280
     1
281
     1
  3
ACAD_XREC_ROUNDTRIP
360
8683
  0
DICTIONARY
  5
868A
330
8595
100
AcDbDictionary
280
     1
281
     1
  3
ACAD_XREC_ROUNDTRIP
360
868B
  0
DICTIONARY
  5
867C
330
858E
100
AcDbDictionary
280
     1
281
     1
  3
ACAD_XREC_ROUNDTRIP
360
867D
  0
DICTIONARY
  5
8680
330
8590
100
AcDbDictionary
280
     1
281
     1
  3
ACAD_XREC_ROUNDTRIP
360
8681
  0
DICTIONARY
  5
869A
330
859D
100
AcDbDictionary
280
     1
281
     1
  3
ACAD_XREC_ROUNDTRIP
360
869B
  0
DICTIONARY
  5
8688
330
8594
100
AcDbDictionary
280
     1
281
     1
  3
ACAD_XREC_ROUNDTRIP
360
8689
  0
DICTIONARY
  5
866C
330
8586
100
AcDbDictionary
280
     1
281
     1
  3
ACAD_XREC_ROUNDTRIP
360
866D
  0
DICTIONARY
  5
866E
330
8587
100
AcDbDictionary
280
     1
281
     1
  3
ACAD_XREC_ROUNDTRIP
360
866F
  0
DICTIONARY
  5
8670
330
8588
100
AcDbDictionary
280
     1
281
     1
  3
ACAD_XREC_ROUNDTRIP
360
8671
  0
DICTIONARY
  5
8672
330
8589
100
AcDbDictionary
280
     1
281
     1
  3
ACAD_XREC_ROUNDTRIP
360
8673
  0
DICTIONARY
  5
867A
330
858D
100
AcDbDictionary
280
     1
281
     1
  3
ACAD_XREC_ROUNDTRIP
360
867B
  0
DICTIONARY
  5
8696
330
859B
100
AcDbDictionary
280
     1
281
     1
  3
ACAD_XREC_ROUNDTRIP
360
8697
  0
DICTIONARY
  5
8686
330
8593
100
AcDbDictionary
280
     1
281
     1
  3
ACAD_XREC_ROUNDTRIP
360
8687
  0
DICTIONARY
  5
8698
330
859C
100
AcDbDictionary
280
     1
281
     1
  3
ACAD_XREC_ROUNDTRIP
360
8699
  0
DICTIONARY
  5
867E
330
858F
100
AcDbDictionary
280
     1
281
     1
  3
ACAD_XREC_ROUNDTRIP
360
867F
  0
DICTIONARY
  5
8694
330
859A
100
AcDbDictionary
280
     1
281
     1
  3
ACAD_XREC_ROUNDTRIP
360
8695
  0
DICTIONARY
  5
8692
330
8599
100
AcDbDictionary
280
     1
281
     1
  3
ACAD_XREC_ROUNDTRIP
360
8693
  0
DICTIONARY
  5
868C
330
8596
100
AcDbDictionary
280
     1
281
     1
  3
ACAD_XREC_ROUNDTRIP
360
868D
  0
DICTIONARY
  5
868E
330
8597
100
AcDbDictionary
280
     1
281
     1
  3
ACAD_XREC_ROUNDTRIP
360
868F
  0
DICTIONARY
  5
8684
330
8592
100
AcDbDictionary
280
     1
281
     1
  3
ACAD_XREC_ROUNDTRIP
360
8685
  0
DICTIONARY
  5
8678
330
858C
100
AcDbDictionary
280
     1
281
     1
  3
ACAD_XREC_ROUNDTRIP
360
8679
  0
DICTIONARY
  5
8690
330
8598
100
AcDbDictionary
280
     1
281
     1
  3
ACAD_XREC_ROUNDTRIP
360
8691
  0
XRECORD
  5
865D
102
{ACAD_REACTORS
330
8663
102
}
330
8663
100
AcDbXrecord
280
     1
  1
AcDb_Thumbnail_Schema
102
{ATTRRECORD
341
865E
  2
AcDbDs::TreatedAsObjectData
280
     1
291
     1
102
ATTRRECORD}
102
{ATTRRECORD
341
865F
  2
AcDbDs::Legacy
280
     1
291
     1
102
ATTRRECORD}
  2
AcDbDs::ID
280
    10
 91
        8
102
{ATTRRECORD
341
8660
  2
AcDs:Indexable
280
     1
291
     1
102
ATTRRECORD}
102
{ATTRRECORD
341
8661
  2
AcDbDs::HandleAttribute
280
     7
282
     1
102
ATTRRECORD}
  2
Thumbnail_Data
280
    15
 91
        0
  0
XRECORD
  5
865E
102
{ACAD_REACTORS
330
8663
102
}
330
8663
100
AcDbXrecord
280
     1
  1
AcDbDs::TreatedAsObjectDataSchema
  2
AcDbDs::TreatedAsObjectData
280
     1
 91
        0
  0
XRECORD
  5
865F
102
{ACAD_REACTORS
330
8663
102
}
330
8663
100
AcDbXrecord
280
     1
  1
AcDbDs::LegacySchema
  2
AcDbDs::Legacy
280
     1
 91
        0
  0
XRECORD
  5
8660
102
{ACAD_REACTORS
330
8663
102
}
330
8663
100
AcDbXrecord
280
     1
  1
AcDbDs::IndexedPropertySchema
  2
AcDs:Indexable
280
     1
 91
        0
  0
XRECORD
  5
8661
102
{ACAD_REACTORS
330
8663
102
}
330
8663
100
AcDbXrecord
280
     1
  1
AcDbDs::HandleAttributeSchema
  2
AcDbDs::HandleAttribute
280
     7
 91
        1
284
     1
  0
XRECORD
  5
86A1
102
{ACAD_REACTORS
330
8631
102
}
330
8631
100
AcDbXrecord
280
     1
102
DISPLAYNAME
  1
Metric50
102
FLAGS
 90
        0
  0
XRECORD
  5
8666
102
{ACAD_REACTORS
330
8665
102
}
330
8665
100
AcDbXrecord
280
     1
102
SHADEPLOT
 70
     0
102
SHADEPLOTRESLEVEL
 70
     2
102
SHADEPLOTCUSTOMDPI
 70
   300
  0
XRECORD
  5
8668
102
{ACAD_REACTORS
330
8667
102
}
330
8667
100
AcDbXrecord
280
     1
102
SHADEPLOT
 70
     0
102
SHADEPLOTRESLEVEL
 70
     2
102
SHADEPLOTCUSTOMDPI
 70
   300
  0
XRECORD
  5
866A
102
{ACAD_REACTORS
330
8576
102
}
330
8576
100
AcDbXrecord
280
     1
102
MATERIAL
148
0.0
149
0.0
149
0.0
 93
        0
 94
      127
282
     0
 72
     0
 77
     0
171
     0
175
     0
179
     0
273
     0
  0
XRECORD
  5
8578
102
{ACAD_REACTORS
330
8576
102
}
330
8576
100
AcDbXrecord
280
     1
270
     1
271
     1
  0
XRECORD
  5
8577
102
{ACAD_REACTORS
330
8576
102
}
330
8576
100
AcDbXrecord
280
     1
270
     1
271
     1
  0
XRECORD
  5
857B
102
{ACAD_REACTORS
330
8576
102
}
330
8576
100
AcDbXrecord
280
     1
270
     1
271
     1
  0
XRECORD
  5
857A
102
{ACAD_REACTORS
330
8576
102
}
330
8576
100
AcDbXrecord
280
     1
270
     1
271
     1
  0
XRECORD
  5
857C
102
{ACAD_REACTORS
330
8576
102
}
330
8576
100
AcDbXrecord
280
     1
270
     1
271
     1
  0
XRECORD
  5
8579
102
{ACAD_REACTORS
330
8576
102
}
330
8576
100
AcDbXrecord
280
     1
270
     1
271
     1
  0
XRECORD
  5
8669
102
{ACAD_REACTORS
330
856E
102
}
330
856E
100
AcDbXrecord
280
     1
102
MATERIAL
148
0.0
149
0.0
149
0.0
 93
        0
 94
      127
282
     0
 72
     0
 77
     0
171
     0
175
     0
179
     0
273
     0
  0
XRECORD
  5
8570
102
{ACAD_REACTORS
330
856E
102
}
330
856E
100
AcDbXrecord
280
     1
270
     1
271
     1
  0
XRECORD
  5
856F
102
{ACAD_REACTORS
330
856E
102
}
330
856E
100
AcDbXrecord
280
     1
270
     1
271
     1
  0
XRECORD
  5
8573
102
{ACAD_REACTORS
330
856E
102
}
330
856E
100
AcDbXrecord
280
     1
270
     1
271
     1
  0
XRECORD
  5
8572
102
{ACAD_REACTORS
330
856E
102
}
330
856E
100
AcDbXrecord
280
     1
270
     1
271
     1
  0
XRECORD
  5
8574
102
{ACAD_REACTORS
330
856E
102
}
330
856E
100
AcDbXrecord
280
     1
270
     1
271
     1
  0
XRECORD
  5
8571
102
{ACAD_REACTORS
330
856E
102
}
330
856E
100
AcDbXrecord
280
     1
270
     1
271
     1
  0
XRECORD
  5
866B
102
{ACAD_REACTORS
330
857E
102
}
330
857E
100
AcDbXrecord
280
     1
102
MATERIAL
148
0.0
149
0.0
149
0.0
 93
        0
 94
      127
282
     0
 72
     0
 77
     0
171
     0
175
     0
179
     0
273
     0
  0
XRECORD
  5
8580
102
{ACAD_REACTORS
330
857E
102
}
330
857E
100
AcDbXrecord
280
     1
270
     1
271
     1
  0
XRECORD
  5
857F
102
{ACAD_REACTORS
330
857E
102
}
330
857E
100
AcDbXrecord
280
     1
270
     1
271
     1
  0
XRECORD
  5
8583
102
{ACAD_REACTORS
330
857E
102
}
330
857E
100
AcDbXrecord
280
     1
270
     1
271
     1
  0
XRECORD
  5
8582
102
{ACAD_REACTORS
330
857E
102
}
330
857E
100
AcDbXrecord
280
     1
270
     1
271
     1
  0
XRECORD
  5
8584
102
{ACAD_REACTORS
330
857E
102
}
330
857E
100
AcDbXrecord
280
     1
270
     1
271
     1
  0
XRECORD
  5
8581
102
{ACAD_REACTORS
330
857E
102
}
330
857E
100
AcDbXrecord
280
     1
270
     1
271
     1
  0
XRECORD
  5
869F
102
{ACAD_REACTORS
330
869E
102
}
330
869E
100
AcDbXrecord
280
     1
102
ACAD_ROUNDTRIP_2012_MLEADER_STYLE
298
     1
  0
XRECORD
  5
86A0
102
{ACAD_REACTORS
330
862F
102
}
330
862F
100
AcDbXrecord
280
     1
102
DISPLAYNAME
  1
Metric50
102
FLAGS
 90
        0
  0
CELLSTYLEMAP
  5
865A
102
{ACAD_REACTORS
330
8659
102
}
330
8659
100
AcDbCellStyleMap
 90
        3
300
CELLSTYLE
  1
TABLEFORMAT_BEGIN
 90
        5
170
     1
 91
        0
 92
    32768
 62
   257
 93
        1
300
CONTENTFORMAT
  1
CONTENTFORMAT_BEGIN
 90
        0
 91
        0
 92
      512
 93
        0
300

 40
0.0
140
1.0
 94
        5
 62
     0
340
10
144
6.0
309
CONTENTFORMAT_END
171
     1
301
MARGIN
  1
CELLMARGIN_BEGIN
 40
1.5
 40
1.5
 40
1.5
 40
1.5
 40
4.5
 40
4.5
309
CELLMARGIN_END
 94
        6
 95
        1
302
GRIDFORMAT
  1
GRIDFORMAT_BEGIN
 90
        0
 91
        1
 62
     0
 92
       -2
340
0
 93
        0
 40
1.125
309
GRIDFORMAT_END
 95
        2
302
GRIDFORMAT
  1
GRIDFORMAT_BEGIN
 90
        0
 91
        1
 62
     0
 92
       -2
340
0
 93
        0
 40
1.125
309
GRIDFORMAT_END
 95
        4
302
GRIDFORMAT
  1
GRIDFORMAT_BEGIN
 90
        0
 91
        1
 62
     0
 92
       -2
340
0
 93
        0
 40
1.125
309
GRIDFORMAT_END
 95
        8
302
GRIDFORMAT
  1
GRIDFORMAT_BEGIN
 90
        0
 91
        1
 62
     0
 92
       -2
340
0
 93
        0
 40
1.125
309
GRIDFORMAT_END
 95
       16
302
GRIDFORMAT
  1
GRIDFORMAT_BEGIN
 90
        0
 91
        1
 62
     0
 92
       -2
340
0
 93
        0
 40
1.125
309
GRIDFORMAT_END
 95
       32
302
GRIDFORMAT
  1
GRIDFORMAT_BEGIN
 90
        0
 91
        1
 62
     0
 92
       -2
340
0
 93
        0
 40
1.125
309
GRIDFORMAT_END
309
TABLEFORMAT_END
  1
CELLSTYLE_BEGIN
 90
        1
 91
        1
300
_TITLE
309
CELLSTYLE_END
300
CELLSTYLE
  1
TABLEFORMAT_BEGIN
 90
        5
170
     1
 91
        0
 92
        0
 62
   257
 93
        1
300
CONTENTFORMAT
  1
CONTENTFORMAT_BEGIN
 90
        0
 91
        0
 92
      512
 93
        0
300

 40
0.0
140
1.0
 94
        5
 62
     0
340
10
144
4.5
309
CONTENTFORMAT_END
171
     1
301
MARGIN
  1
CELLMARGIN_BEGIN
 40
1.5
 40
1.5
 40
1.5
 40
1.5
 40
4.5
 40
4.5
309
CELLMARGIN_END
 94
        6
 95
        1
302
GRIDFORMAT
  1
GRIDFORMAT_BEGIN
 90
        0
 91
        1
 62
     0
 92
       -2
340
0
 93
        0
 40
1.125
309
GRIDFORMAT_END
 95
        2
302
GRIDFORMAT
  1
GRIDFORMAT_BEGIN
 90
        0
 91
        1
 62
     0
 92
       -2
340
0
 93
        0
 40
1.125
309
GRIDFORMAT_END
 95
        4
302
GRIDFORMAT
  1
GRIDFORMAT_BEGIN
 90
        0
 91
        1
 62
     0
 92
       -2
340
0
 93
        0
 40
1.125
309
GRIDFORMAT_END
 95
        8
302
GRIDFORMAT
  1
GRIDFORMAT_BEGIN
 90
        0
 91
        1
 62
     0
 92
       -2
340
0
 93
        0
 40
1.125
309
GRIDFORMAT_END
 95
       16
302
GRIDFORMAT
  1
GRIDFORMAT_BEGIN
 90
        0
 91
        1
 62
     0
 92
       -2
340
0
 93
        0
 40
1.125
309
GRIDFORMAT_END
 95
       32
302
GRIDFORMAT
  1
GRIDFORMAT_BEGIN
 90
        0
 91
        1
 62
     0
 92
       -2
340
0
 93
        0
 40
1.125
309
GRIDFORMAT_END
309
TABLEFORMAT_END
  1
CELLSTYLE_BEGIN
 90
        2
 91
        1
300
_HEADER
309
CELLSTYLE_END
300
CELLSTYLE
  1
TABLEFORMAT_BEGIN
 90
        5
170
     1
 91
        0
 92
        0
 62
   257
 93
        1
300
CONTENTFORMAT
  1
CONTENTFORMAT_BEGIN
 90
        0
 91
        0
 92
      512
 93
        0
300

 40
0.0
140
1.0
 94
        2
 62
     0
340
10
144
4.5
309
CONTENTFORMAT_END
171
     1
301
MARGIN
  1
CELLMARGIN_BEGIN
 40
1.5
 40
1.5
 40
1.5
 40
1.5
 40
4.5
 40
4.5
309
CELLMARGIN_END
 94
        6
 95
        1
302
GRIDFORMAT
  1
GRIDFORMAT_BEGIN
 90
        0
 91
        1
 62
     0
 92
       -2
340
0
 93
        0
 40
1.125
309
GRIDFORMAT_END
 95
        2
302
GRIDFORMAT
  1
GRIDFORMAT_BEGIN
 90
        0
 91
        1
 62
     0
 92
       -2
340
0
 93
        0
 40
1.125
309
GRIDFORMAT_END
 95
        4
302
GRIDFORMAT
  1
GRIDFORMAT_BEGIN
 90
        0
 91
        1
 62
     0
 92
       -2
340
0
 93
        0
 40
1.125
309
GRIDFORMAT_END
 95
        8
302
GRIDFORMAT
  1
GRIDFORMAT_BEGIN
 90
        0
 91
        1
 62
     0
 92
       -2
340
0
 93
        0
 40
1.125
309
GRIDFORMAT_END
 95
       16
302
GRIDFORMAT
  1
GRIDFORMAT_BEGIN
 90
        0
 91
        1
 62
     0
 92
       -2
340
0
 93
        0
 40
1.125
309
GRIDFORMAT_END
 95
       32
302
GRIDFORMAT
  1
GRIDFORMAT_BEGIN
 90
        0
 91
        1
 62
     0
 92
       -2
340
0
 93
        0
 40
1.125
309
GRIDFORMAT_END
309
TABLEFORMAT_END
  1
CELLSTYLE_BEGIN
 90
        3
 91
        2
300
_DATA
309
CELLSTYLE_END
  0
XRECORD
  5
869C
102
{ACAD_REACTORS
330
8659
102
}
330
8659
100
AcDbXrecord
280
     1
102
ACAD_ROUNDTRIP_PRE2007_TABLESTYLE
 90
      512
 91
        0
  1

 92
      512
 93
        0
  2

 94
      512
 95
        0
  3

  0
XRECORD
  5
8677
102
{ACAD_REACTORS
330
8676
102
}
330
8676
100
AcDbXrecord
280
     1
102
RTVSPost2010Prop28
280
     1
102
RTVSPost2010PropOp28
 70
     1
102
RTVSPost2010Prop29
280
     1
102
RTVSPost2010PropOp29
 70
     1
102
RTVSPost2010Prop30
280
     0
102
RTVSPost2010PropOp30
 70
     1
102
RTVSPost2010Prop31
280
     0
102
RTVSPost2010PropOp31
 70
     1
102
RTVSPost2010Prop32
280
     0
102
RTVSPost2010PropOp32
 70
     1
102
RTVSPost2010Prop33
280
     0
102
RTVSPost2010PropOp33
 70
     1
102
RTVSPost2010Prop34
280
     0
102
RTVSPost2010PropOp34
 70
     1
102
RTVSPost2010Prop35
280
     0
102
RTVSPost2010PropOp35
 70
     1
102
RTVSPost2010Prop36
280
     0
102
RTVSPost2010PropOp36
 70
     1
102
RTVSPost2010Prop37
 90
       50
102
RTVSPost2010PropOp37
 70
     1
102
RTVSPost2010Prop38
140
0.0
102
RTVSPost2010PropOp38
 70
     1
102
RTVSPost2010Prop39
140
1.0
102
RTVSPost2010PropOp39
 70
     1
102
RTVSPost2010Prop40
 90
        0
102
RTVSPost2010PropOp40
 70
     1
102
RTVSPost2010Prop41ColorIndex
 90
       18
102
RTVSPost2010Prop41ColorRGB
 90
        0
102
RTVSPost2010PropOp41
 70
     1
102
RTVSPost2010Prop42
 90
       50
102
RTVSPost2010PropOp42
 70
     1
102
RTVSPost2010Prop43
 90
        3
102
RTVSPost2010PropOp43
 70
     1
102
RTVSPost2010Prop44ColorIndex
 90
        5
102
RTVSPost2010Prop44ColorRGB
 90
      255
102
RTVSPost2010PropOp44
 70
     1
102
RTVSPost2010Prop45
280
     0
102
RTVSPost2010PropOp45
 70
     1
102
RTVSPost2010Prop46
 90
       50
102
RTVSPost2010PropOp46
 70
     1
102
RTVSPost2010Prop47
 90
       50
102
RTVSPost2010PropOp47
 70
     1
102
RTVSPost2010Prop48
 90
       50
102
RTVSPost2010PropOp48
 70
     1
102
RTVSPost2010Prop49
280
     0
102
RTVSPost2010PropOp49
 70
     1
102
RTVSPost2010Prop50
 90
       50
102
RTVSPost2010PropOp50
 70
     1
102
RTVSPost2010Prop51ColorIndex
 90
      256
102
RTVSPost2010Prop51ColorRGB
 90
-16777216
102
RTVSPost2010PropOp51
 70
     0
102
RTVSPost2010Prop52
140
1.0
102
RTVSPost2010PropOp52
 70
     0
102
RTVSPost2010Prop53
 90
        2
102
RTVSPost2010PropOp53
 70
     1
102
RTVSPost2010Prop54
  1
strokes_ogs.tif
102
RTVSPost2010PropOp54
 70
     1
102
RTVSPost2010Prop55
280
     0
102
RTVSPost2010PropOp55
 70
     1
102
RTVSPost2010Prop56
140
1.0
102
RTVSPost2010PropOp56
 70
     1
102
RTVSPost2010Prop57
140
1.0
102
RTVSPost2010PropOp57
 70
     1
102
RTVSPropertyOp0
 70
     1
102
RTVSPropertyOp1
 70
     1
102
RTVSPropertyOp2
 70
     1
102
RTVSPropertyOp3
 70
     1
102
RTVSPropertyOp4
 70
     1
102
RTVSPropertyOp5
 70
     1
102
RTVSPropertyOp6
 70
     1
102
RTVSPropertyOp7
 70
     1
102
RTVSPropertyOp8
 70
     1
102
RTVSPropertyOp9
 70
     1
102
RTVSPropertyOp10
 70
     1
102
RTVSPropertyOp11
 70
     1
102
RTVSPropertyOp12
 70
     1
102
RTVSPropertyOp13
 70
     1
102
RTVSPropertyOp14
 70
     1
102
RTVSPropertyOp15
 70
     1
102
RTVSPropertyOp16
 70
     1
102
RTVSPropertyOp17
 70
     1
102
RTVSPropertyOp18
 70
     1
102
RTVSPropertyOp19
 70
     1
102
RTVSPropertyOp20
 70
     1
102
RTVSPropertyOp21
 70
     1
102
RTVSPropertyOp22
 70
     1
102
RTVSPropertyOp23
 70
     1
102
RTVSPropertyOp24
 70
     1
102
RTVSPropertyOp25
 70
     1
102
RTVSPropertyOp26
 70
     1
102
RTVSPropertyOp27
 70
     1
102
RTVSPropertyOp28
 70
     1
102
RTVSPropertyOp29
 70
     1
102
RTVSPropertyOp30
 70
     1
102
RTVSPropertyOp31
 70
     1
102
RTVSPropertyOp32
 70
     1
102
RTVSPropertyOp33
 70
     1
102
RTVSPropertyOp34
 70
     1
102
RTVSPropertyOp35
 70
     1
102
RTVSPropertyOp36
 70
     1
102
RTVSPropertyOp37
 70
     1
102
RTVSPropertyOp38
 70
     1
102
RTVSPropertyOp39
 70
     1
102
RTVSPropertyOp40
 70
     1
102
RTVSPropertyOp41
 70
     1
102
RTVSPropertyOp42
 70
     1
102
RTVSPropertyOp43
 70
     1
102
RTVSPropertyOp44
 70
     1
102
RTVSPropertyOp45
 70
     1
102
RTVSPropertyOp46
 70
     1
102
RTVSPropertyOp47
 70
     1
102
RTVSPropertyOp48
 70
     1
102
RTVSPropertyOp49
 70
     1
102
RTVSPropertyOp50
 70
     1
102
RTVSPropertyOp51
 70
     0
102
RTVSPropertyOp52
 70
     0
102
RTVSPropertyOp53
 70
     1
102
RTVSPropertyOp54
 70
     1
102
RTVSPropertyOp55
 70
     1
102
RTVSPropertyOp56
 70
     1
102
RTVSPropertyOp57
 70
     1
102
RTVSPropertyOp58
 70
     1
102
RTVSPropertyOp59
 70
     1
102
RTVSPropertyOp60
 70
     1
102
RTVSPropertyOp61
 70
     1
102
RTVSPropertyOp62
 70
     1
  0
XRECORD
  5
8675
102
{ACAD_REACTORS
330
8674
102
}
330
8674
100
AcDbXrecord
280
     1
102
RTVSPost2010Prop28
280
     0
102
RTVSPost2010PropOp28
 70
     1
102
RTVSPost2010Prop29
280
     1
102
RTVSPost2010PropOp29
 70
     1
102
RTVSPost2010Prop30
280
     1
102
RTVSPost2010PropOp30
 70
     1
102
RTVSPost2010Prop31
280
     0
102
RTVSPost2010PropOp31
 70
     1
102
RTVSPost2010Prop32
280
     0
102
RTVSPost2010PropOp32
 70
     1
102
RTVSPost2010Prop33
280
     0
102
RTVSPost2010PropOp33
 70
     1
102
RTVSPost2010Prop34
280
     0
102
RTVSPost2010PropOp34
 70
     1
102
RTVSPost2010Prop35
280
     0
102
RTVSPost2010PropOp35
 70
     1
102
RTVSPost2010Prop36
280
     0
102
RTVSPost2010PropOp36
 70
     1
102
RTVSPost2010Prop37
 90
       50
102
RTVSPost2010PropOp37
 70
     1
102
RTVSPost2010Prop38
140
0.0
102
RTVSPost2010PropOp38
 70
     1
102
RTVSPost2010Prop39
140
1.0
102
RTVSPost2010PropOp39
 70
     1
102
RTVSPost2010Prop40
 90
        0
102
RTVSPost2010PropOp40
 70
     1
102
RTVSPost2010Prop41ColorIndex
 90
       18
102
RTVSPost2010Prop41ColorRGB
 90
        0
102
RTVSPost2010PropOp41
 70
     1
102
RTVSPost2010Prop42
 90
       50
102
RTVSPost2010PropOp42
 70
     1
102
RTVSPost2010Prop43
 90
        3
102
RTVSPost2010PropOp43
 70
     1
102
RTVSPost2010Prop44ColorIndex
 90
        5
102
RTVSPost2010Prop44ColorRGB
 90
      255
102
RTVSPost2010PropOp44
 70
     1
102
RTVSPost2010Prop45
280
     0
102
RTVSPost2010PropOp45
 70
     1
102
RTVSPost2010Prop46
 90
       50
102
RTVSPost2010PropOp46
 70
     1
102
RTVSPost2010Prop47
 90
       50
102
RTVSPost2010PropOp47
 70
     1
102
RTVSPost2010Prop48
 90
       50
102
RTVSPost2010PropOp48
 70
     1
102
RTVSPost2010Prop49
280
     0
102
RTVSPost2010PropOp49
 70
     1
102
RTVSPost2010Prop50
 90
       50
102
RTVSPost2010PropOp50
 70
     1
102
RTVSPost2010Prop51ColorIndex
 90
      256
102
RTVSPost2010Prop51ColorRGB
 90
-16777216
102
RTVSPost2010PropOp51
 70
     0
102
RTVSPost2010Prop52
140
1.0
102
RTVSPost2010PropOp52
 70
     0
102
RTVSPost2010Prop53
 90
        2
102
RTVSPost2010PropOp53
 70
     1
102
RTVSPost2010Prop54
  1
strokes_ogs.tif
102
RTVSPost2010PropOp54
 70
     1
102
RTVSPost2010Prop55
280
     0
102
RTVSPost2010PropOp55
 70
     1
102
RTVSPost2010Prop56
140
1.0
102
RTVSPost2010PropOp56
 70
     1
102
RTVSPost2010Prop57
140
1.0
102
RTVSPost2010PropOp57
 70
     1
102
RTVSPropertyOp0
 70
     1
102
RTVSPropertyOp1
 70
     1
102
RTVSPropertyOp2
 70
     1
102
RTVSPropertyOp3
 70
     1
102
RTVSPropertyOp4
 70
     1
102
RTVSPropertyOp5
 70
     1
102
RTVSPropertyOp6
 70
     1
102
RTVSPropertyOp7
 70
     1
102
RTVSPropertyOp8
 70
     1
102
RTVSPropertyOp9
 70
     1
102
RTVSPropertyOp10
 70
     1
102
RTVSPropertyOp11
 70
     1
102
RTVSPropertyOp12
 70
     1
102
RTVSPropertyOp13
 70
     1
102
RTVSPropertyOp14
 70
     1
102
RTVSPropertyOp15
 70
     1
102
RTVSPropertyOp16
 70
     1
102
RTVSPropertyOp17
 70
     1
102
RTVSPropertyOp18
 70
     1
102
RTVSPropertyOp19
 70
     1
102
RTVSPropertyOp20
 70
     1
102
RTVSPropertyOp21
 70
     1
102
RTVSPropertyOp22
 70
     1
102
RTVSPropertyOp23
 70
     1
102
RTVSPropertyOp24
 70
     1
102
RTVSPropertyOp25
 70
     1
102
RTVSPropertyOp26
 70
     1
102
RTVSPropertyOp27
 70
     1
102
RTVSPropertyOp28
 70
     1
102
RTVSPropertyOp29
 70
     1
102
RTVSPropertyOp30
 70
     1
102
RTVSPropertyOp31
 70
     1
102
RTVSPropertyOp32
 70
     1
102
RTVSPropertyOp33
 70
     1
102
RTVSPropertyOp34
 70
     1
102
RTVSPropertyOp35
 70
     1
102
RTVSPropertyOp36
 70
     1
102
RTVSPropertyOp37
 70
     1
102
RTVSPropertyOp38
 70
     1
102
RTVSPropertyOp39
 70
     1
102
RTVSPropertyOp40
 70
     1
102
RTVSPropertyOp41
 70
     1
102
RTVSPropertyOp42
 70
     1
102
RTVSPropertyOp43
 70
     1
102
RTVSPropertyOp44
 70
     1
102
RTVSPropertyOp45
 70
     1
102
RTVSPropertyOp46
 70
     1
102
RTVSPropertyOp47
 70
     1
102
RTVSPropertyOp48
 70
     1
102
RTVSPropertyOp49
 70
     1
102
RTVSPropertyOp50
 70
     1
102
RTVSPropertyOp51
 70
     0
102
RTVSPropertyOp52
 70
     0
102
RTVSPropertyOp53
 70
     1
102
RTVSPropertyOp54
 70
     1
102
RTVSPropertyOp55
 70
     1
102
RTVSPropertyOp56
 70
     1
102
RTVSPropertyOp57
 70
     1
102
RTVSPropertyOp58
 70
     1
102
RTVSPropertyOp59
 70
     1
102
RTVSPropertyOp60
 70
     1
102
RTVSPropertyOp61
 70
     1
102
RTVSPropertyOp62
 70
     1
  0
XRECORD
  5
8683
102
{ACAD_REACTORS
330
8682
102
}
330
8682
100
AcDbXrecord
280
     1
102
RTVSPost2010Prop28
280
     0
102
RTVSPost2010PropOp28
 70
     1
102
RTVSPost2010Prop29
280
     1
102
RTVSPost2010PropOp29
 70
     1
102
RTVSPost2010Prop30
280
     1
102
RTVSPost2010PropOp30
 70
     1
102
RTVSPost2010Prop31
280
     0
102
RTVSPost2010PropOp31
 70
     1
102
RTVSPost2010Prop32
280
     0
102
RTVSPost2010PropOp32
 70
     1
102
RTVSPost2010Prop33
280
     0
102
RTVSPost2010PropOp33
 70
     1
102
RTVSPost2010Prop34
280
     0
102
RTVSPost2010PropOp34
 70
     1
102
RTVSPost2010Prop35
280
     0
102
RTVSPost2010PropOp35
 70
     1
102
RTVSPost2010Prop36
280
     0
102
RTVSPost2010PropOp36
 70
     1
102
RTVSPost2010Prop37
 90
       50
102
RTVSPost2010PropOp37
 70
     1
102
RTVSPost2010Prop38
140
0.0
102
RTVSPost2010PropOp38
 70
     1
102
RTVSPost2010Prop39
140
1.0
102
RTVSPost2010PropOp39
 70
     1
102
RTVSPost2010Prop40
 90
        0
102
RTVSPost2010PropOp40
 70
     1
102
RTVSPost2010Prop41ColorIndex
 90
       18
102
RTVSPost2010Prop41ColorRGB
 90
        0
102
RTVSPost2010PropOp41
 70
     1
102
RTVSPost2010Prop42
 90
       50
102
RTVSPost2010PropOp42
 70
     1
102
RTVSPost2010Prop43
 90
        3
102
RTVSPost2010PropOp43
 70
     1
102
RTVSPost2010Prop44ColorIndex
 90
        5
102
RTVSPost2010Prop44ColorRGB
 90
      255
102
RTVSPost2010PropOp44
 70
     1
102
RTVSPost2010Prop45
280
     0
102
RTVSPost2010PropOp45
 70
     1
102
RTVSPost2010Prop46
 90
       50
102
RTVSPost2010PropOp46
 70
     1
102
RTVSPost2010Prop47
 90
       50
102
RTVSPost2010PropOp47
 70
     1
102
RTVSPost2010Prop48
 90
       50
102
RTVSPost2010PropOp48
 70
     1
102
RTVSPost2010Prop49
280
     0
102
RTVSPost2010PropOp49
 70
     1
102
RTVSPost2010Prop50
 90
       50
102
RTVSPost2010PropOp50
 70
     1
102
RTVSPost2010Prop51ColorIndex
 90
      256
102
RTVSPost2010Prop51ColorRGB
 90
-16777216
102
RTVSPost2010PropOp51
 70
     0
102
RTVSPost2010Prop52
140
1.0
102
RTVSPost2010PropOp52
 70
     0
102
RTVSPost2010Prop53
 90
        2
102
RTVSPost2010PropOp53
 70
     1
102
RTVSPost2010Prop54
  1
strokes_ogs.tif
102
RTVSPost2010PropOp54
 70
     1
102
RTVSPost2010Prop55
280
     0
102
RTVSPost2010PropOp55
 70
     1
102
RTVSPost2010Prop56
140
1.0
102
RTVSPost2010PropOp56
 70
     1
102
RTVSPost2010Prop57
140
1.0
102
RTVSPost2010PropOp57
 70
     1
102
RTVSPropertyOp0
 70
     1
102
RTVSPropertyOp1
 70
     1
102
RTVSPropertyOp2
 70
     1
102
RTVSPropertyOp3
 70
     1
102
RTVSPropertyOp4
 70
     1
102
RTVSPropertyOp5
 70
     1
102
RTVSPropertyOp6
 70
     1
102
RTVSPropertyOp7
 70
     1
102
RTVSPropertyOp8
 70
     1
102
RTVSPropertyOp9
 70
     1
102
RTVSPropertyOp10
 70
     1
102
RTVSPropertyOp11
 70
     1
102
RTVSPropertyOp12
 70
     1
102
RTVSPropertyOp13
 70
     1
102
RTVSPropertyOp14
 70
     1
102
RTVSPropertyOp15
 70
     1
102
RTVSPropertyOp16
 70
     1
102
RTVSPropertyOp17
 70
     1
102
RTVSPropertyOp18
 70
     1
102
RTVSPropertyOp19
 70
     1
102
RTVSPropertyOp20
 70
     1
102
RTVSPropertyOp21
 70
     1
102
RTVSPropertyOp22
 70
     1
102
RTVSPropertyOp23
 70
     1
102
RTVSPropertyOp24
 70
     1
102
RTVSPropertyOp25
 70
     1
102
RTVSPropertyOp26
 70
     1
102
RTVSPropertyOp27
 70
     1
102
RTVSPropertyOp28
 70
     1
102
RTVSPropertyOp29
 70
     1
102
RTVSPropertyOp30
 70
     1
102
RTVSPropertyOp31
 70
     1
102
RTVSPropertyOp32
 70
     1
102
RTVSPropertyOp33
 70
     1
102
RTVSPropertyOp34
 70
     1
102
RTVSPropertyOp35
 70
     1
102
RTVSPropertyOp36
 70
     1
102
RTVSPropertyOp37
 70
     1
102
RTVSPropertyOp38
 70
     1
102
RTVSPropertyOp39
 70
     1
102
RTVSPropertyOp40
 70
     1
102
RTVSPropertyOp41
 70
     1
102
RTVSPropertyOp42
 70
     1
102
RTVSPropertyOp43
 70
     1
102
RTVSPropertyOp44
 70
     1
102
RTVSPropertyOp45
 70
     1
102
RTVSPropertyOp46
 70
     1
102
RTVSPropertyOp47
 70
     1
102
RTVSPropertyOp48
 70
     1
102
RTVSPropertyOp49
 70
     1
102
RTVSPropertyOp50
 70
     1
102
RTVSPropertyOp51
 70
     0
102
RTVSPropertyOp52
 70
     0
102
RTVSPropertyOp53
 70
     1
102
RTVSPropertyOp54
 70
     1
102
RTVSPropertyOp55
 70
     1
102
RTVSPropertyOp56
 70
     1
102
RTVSPropertyOp57
 70
     1
102
RTVSPropertyOp58
 70
     1
102
RTVSPropertyOp59
 70
     1
102
RTVSPropertyOp60
 70
     1
102
RTVSPropertyOp61
 70
     1
102
RTVSPropertyOp62
 70
     1
  0
XRECORD
  5
868B
102
{ACAD_REACTORS
330
868A
102
}
330
868A
100
AcDbXrecord
280
     1
102
RTVSPost2010Prop28
280
     0
102
RTVSPost2010PropOp28
 70
     1
102
RTVSPost2010Prop29
280
     1
102
RTVSPost2010PropOp29
 70
     1
102
RTVSPost2010Prop30
280
     1
102
RTVSPost2010PropOp30
 70
     1
102
RTVSPost2010Prop31
280
     0
102
RTVSPost2010PropOp31
 70
     1
102
RTVSPost2010Prop32
280
     0
102
RTVSPost2010PropOp32
 70
     1
102
RTVSPost2010Prop33
280
     0
102
RTVSPost2010PropOp33
 70
     1
102
RTVSPost2010Prop34
280
     0
102
RTVSPost2010PropOp34
 70
     1
102
RTVSPost2010Prop35
280
     0
102
RTVSPost2010PropOp35
 70
     1
102
RTVSPost2010Prop36
280
     0
102
RTVSPost2010PropOp36
 70
     1
102
RTVSPost2010Prop37
 90
       50
102
RTVSPost2010PropOp37
 70
     1
102
RTVSPost2010Prop38
140
0.0
102
RTVSPost2010PropOp38
 70
     1
102
RTVSPost2010Prop39
140
1.0
102
RTVSPost2010PropOp39
 70
     1
102
RTVSPost2010Prop40
 90
        0
102
RTVSPost2010PropOp40
 70
     1
102
RTVSPost2010Prop41ColorIndex
 90
       18
102
RTVSPost2010Prop41ColorRGB
 90
        0
102
RTVSPost2010PropOp41
 70
     1
102
RTVSPost2010Prop42
 90
       50
102
RTVSPost2010PropOp42
 70
     1
102
RTVSPost2010Prop43
 90
        3
102
RTVSPost2010PropOp43
 70
     1
102
RTVSPost2010Prop44ColorIndex
 90
        5
102
RTVSPost2010Prop44ColorRGB
 90
      255
102
RTVSPost2010PropOp44
 70
     1
102
RTVSPost2010Prop45
280
     0
102
RTVSPost2010PropOp45
 70
     1
102
RTVSPost2010Prop46
 90
       50
102
RTVSPost2010PropOp46
 70
     1
102
RTVSPost2010Prop47
 90
       50
102
RTVSPost2010PropOp47
 70
     1
102
RTVSPost2010Prop48
 90
       50
102
RTVSPost2010PropOp48
 70
     1
102
RTVSPost2010Prop49
280
     0
102
RTVSPost2010PropOp49
 70
     1
102
RTVSPost2010Prop50
 90
       50
102
RTVSPost2010PropOp50
 70
     1
102
RTVSPost2010Prop51ColorIndex
 90
      256
102
RTVSPost2010Prop51ColorRGB
 90
-16777216
102
RTVSPost2010PropOp51
 70
     0
102
RTVSPost2010Prop52
140
1.0
102
RTVSPost2010PropOp52
 70
     0
102
RTVSPost2010Prop53
 90
        2
102
RTVSPost2010PropOp53
 70
     1
102
RTVSPost2010Prop54
  1
strokes_ogs.tif
102
RTVSPost2010PropOp54
 70
     1
102
RTVSPost2010Prop55
280
     0
102
RTVSPost2010PropOp55
 70
     1
102
RTVSPost2010Prop56
140
1.0
102
RTVSPost2010PropOp56
 70
     1
102
RTVSPost2010Prop57
140
1.0
102
RTVSPost2010PropOp57
 70
     1
102
RTVSPropertyOp0
 70
     1
102
RTVSPropertyOp1
 70
     1
102
RTVSPropertyOp2
 70
     1
102
RTVSPropertyOp3
 70
     1
102
RTVSPropertyOp4
 70
     1
102
RTVSPropertyOp5
 70
     1
102
RTVSPropertyOp6
 70
     1
102
RTVSPropertyOp7
 70
     1
102
RTVSPropertyOp8
 70
     1
102
RTVSPropertyOp9
 70
     1
102
RTVSPropertyOp10
 70
     1
102
RTVSPropertyOp11
 70
     1
102
RTVSPropertyOp12
 70
     1
102
RTVSPropertyOp13
 70
     1
102
RTVSPropertyOp14
 70
     1
102
RTVSPropertyOp15
 70
     1
102
RTVSPropertyOp16
 70
     1
102
RTVSPropertyOp17
 70
     1
102
RTVSPropertyOp18
 70
     1
102
RTVSPropertyOp19
 70
     1
102
RTVSPropertyOp20
 70
     1
102
RTVSPropertyOp21
 70
     1
102
RTVSPropertyOp22
 70
     1
102
RTVSPropertyOp23
 70
     1
102
RTVSPropertyOp24
 70
     1
102
RTVSPropertyOp25
 70
     1
102
RTVSPropertyOp26
 70
     1
102
RTVSPropertyOp27
 70
     1
102
RTVSPropertyOp28
 70
     1
102
RTVSPropertyOp29
 70
     1
102
RTVSPropertyOp30
 70
     1
102
RTVSPropertyOp31
 70
     1
102
RTVSPropertyOp32
 70
     1
102
RTVSPropertyOp33
 70
     1
102
RTVSPropertyOp34
 70
     1
102
RTVSPropertyOp35
 70
     1
102
RTVSPropertyOp36
 70
     1
102
RTVSPropertyOp37
 70
     1
102
RTVSPropertyOp38
 70
     1
102
RTVSPropertyOp39
 70
     1
102
RTVSPropertyOp40
 70
     1
102
RTVSPropertyOp41
 70
     1
102
RTVSPropertyOp42
 70
     1
102
RTVSPropertyOp43
 70
     1
102
RTVSPropertyOp44
 70
     1
102
RTVSPropertyOp45
 70
     1
102
RTVSPropertyOp46
 70
     1
102
RTVSPropertyOp47
 70
     1
102
RTVSPropertyOp48
 70
     1
102
RTVSPropertyOp49
 70
     1
102
RTVSPropertyOp50
 70
     1
102
RTVSPropertyOp51
 70
     0
102
RTVSPropertyOp52
 70
     0
102
RTVSPropertyOp53
 70
     1
102
RTVSPropertyOp54
 70
     1
102
RTVSPropertyOp55
 70
     1
102
RTVSPropertyOp56
 70
     1
102
RTVSPropertyOp57
 70
     1
102
RTVSPropertyOp58
 70
     1
102
RTVSPropertyOp59
 70
     1
102
RTVSPropertyOp60
 70
     1
102
RTVSPropertyOp61
 70
     1
102
RTVSPropertyOp62
 70
     1
  0
XRECORD
  5
867D
102
{ACAD_REACTORS
330
867C
102
}
330
867C
100
AcDbXrecord
280
     1
102
RTVSPost2010Prop28
280
     0
102
RTVSPost2010PropOp28
 70
     1
102
RTVSPost2010Prop29
280
     1
102
RTVSPost2010PropOp29
 70
     1
102
RTVSPost2010Prop30
280
     1
102
RTVSPost2010PropOp30
 70
     1
102
RTVSPost2010Prop31
280
     0
102
RTVSPost2010PropOp31
 70
     1
102
RTVSPost2010Prop32
280
     0
102
RTVSPost2010PropOp32
 70
     1
102
RTVSPost2010Prop33
280
     0
102
RTVSPost2010PropOp33
 70
     1
102
RTVSPost2010Prop34
280
     0
102
RTVSPost2010PropOp34
 70
     1
102
RTVSPost2010Prop35
280
     0
102
RTVSPost2010PropOp35
 70
     1
102
RTVSPost2010Prop36
280
     0
102
RTVSPost2010PropOp36
 70
     1
102
RTVSPost2010Prop37
 90
       50
102
RTVSPost2010PropOp37
 70
     1
102
RTVSPost2010Prop38
140
0.0
102
RTVSPost2010PropOp38
 70
     1
102
RTVSPost2010Prop39
140
1.0
102
RTVSPost2010PropOp39
 70
     1
102
RTVSPost2010Prop40
 90
        0
102
RTVSPost2010PropOp40
 70
     1
102
RTVSPost2010Prop41ColorIndex
 90
       18
102
RTVSPost2010Prop41ColorRGB
 90
        0
102
RTVSPost2010PropOp41
 70
     1
102
RTVSPost2010Prop42
 90
       50
102
RTVSPost2010PropOp42
 70
     1
102
RTVSPost2010Prop43
 90
        3
102
RTVSPost2010PropOp43
 70
     1
102
RTVSPost2010Prop44ColorIndex
 90
        5
102
RTVSPost2010Prop44ColorRGB
 90
      255
102
RTVSPost2010PropOp44
 70
     1
102
RTVSPost2010Prop45
280
     0
102
RTVSPost2010PropOp45
 70
     1
102
RTVSPost2010Prop46
 90
       50
102
RTVSPost2010PropOp46
 70
     1
102
RTVSPost2010Prop47
 90
       50
102
RTVSPost2010PropOp47
 70
     1
102
RTVSPost2010Prop48
 90
       50
102
RTVSPost2010PropOp48
 70
     1
102
RTVSPost2010Prop49
280
     0
102
RTVSPost2010PropOp49
 70
     1
102
RTVSPost2010Prop50
 90
       50
102
RTVSPost2010PropOp50
 70
     1
102
RTVSPost2010Prop51ColorIndex
 90
      256
102
RTVSPost2010Prop51ColorRGB
 90
-16777216
102
RTVSPost2010PropOp51
 70
     0
102
RTVSPost2010Prop52
140
1.0
102
RTVSPost2010PropOp52
 70
     0
102
RTVSPost2010Prop53
 90
        2
102
RTVSPost2010PropOp53
 70
     1
102
RTVSPost2010Prop54
  1
strokes_ogs.tif
102
RTVSPost2010PropOp54
 70
     1
102
RTVSPost2010Prop55
280
     0
102
RTVSPost2010PropOp55
 70
     1
102
RTVSPost2010Prop56
140
1.0
102
RTVSPost2010PropOp56
 70
     1
102
RTVSPost2010Prop57
140
1.0
102
RTVSPost2010PropOp57
 70
     1
102
RTVSPropertyOp0
 70
     1
102
RTVSPropertyOp1
 70
     1
102
RTVSPropertyOp2
 70
     1
102
RTVSPropertyOp3
 70
     1
102
RTVSPropertyOp4
 70
     1
102
RTVSPropertyOp5
 70
     1
102
RTVSPropertyOp6
 70
     1
102
RTVSPropertyOp7
 70
     1
102
RTVSPropertyOp8
 70
     1
102
RTVSPropertyOp9
 70
     1
102
RTVSPropertyOp10
 70
     1
102
RTVSPropertyOp11
 70
     1
102
RTVSPropertyOp12
 70
     1
102
RTVSPropertyOp13
 70
     1
102
RTVSPropertyOp14
 70
     1
102
RTVSPropertyOp15
 70
     1
102
RTVSPropertyOp16
 70
     1
102
RTVSPropertyOp17
 70
     1
102
RTVSPropertyOp18
 70
     1
102
RTVSPropertyOp19
 70
     1
102
RTVSPropertyOp20
 70
     1
102
RTVSPropertyOp21
 70
     1
102
RTVSPropertyOp22
 70
     1
102
RTVSPropertyOp23
 70
     1
102
RTVSPropertyOp24
 70
     1
102
RTVSPropertyOp25
 70
     1
102
RTVSPropertyOp26
 70
     1
102
RTVSPropertyOp27
 70
     1
102
RTVSPropertyOp28
 70
     1
102
RTVSPropertyOp29
 70
     1
102
RTVSPropertyOp30
 70
     1
102
RTVSPropertyOp31
 70
     1
102
RTVSPropertyOp32
 70
     1
102
RTVSPropertyOp33
 70
     1
102
RTVSPropertyOp34
 70
     1
102
RTVSPropertyOp35
 70
     1
102
RTVSPropertyOp36
 70
     1
102
RTVSPropertyOp37
 70
     1
102
RTVSPropertyOp38
 70
     1
102
RTVSPropertyOp39
 70
     1
102
RTVSPropertyOp40
 70
     1
102
RTVSPropertyOp41
 70
     1
102
RTVSPropertyOp42
 70
     1
102
RTVSPropertyOp43
 70
     1
102
RTVSPropertyOp44
 70
     1
102
RTVSPropertyOp45
 70
     1
102
RTVSPropertyOp46
 70
     1
102
RTVSPropertyOp47
 70
     1
102
RTVSPropertyOp48
 70
     1
102
RTVSPropertyOp49
 70
     1
102
RTVSPropertyOp50
 70
     1
102
RTVSPropertyOp51
 70
     0
102
RTVSPropertyOp52
 70
     0
102
RTVSPropertyOp53
 70
     1
102
RTVSPropertyOp54
 70
     1
102
RTVSPropertyOp55
 70
     1
102
RTVSPropertyOp56
 70
     1
102
RTVSPropertyOp57
 70
     1
102
RTVSPropertyOp58
 70
     1
102
RTVSPropertyOp59
 70
     1
102
RTVSPropertyOp60
 70
     1
102
RTVSPropertyOp61
 70
     1
102
RTVSPropertyOp62
 70
     1
  0
XRECORD
  5
8681
102
{ACAD_REACTORS
330
8680
102
}
330
8680
100
AcDbXrecord
280
     1
102
RTVSPost2010Prop28
280
     0
102
RTVSPost2010PropOp28
 70
     1
102
RTVSPost2010Prop29
280
     1
102
RTVSPost2010PropOp29
 70
     1
102
RTVSPost2010Prop30
280
     1
102
RTVSPost2010PropOp30
 70
     1
102
RTVSPost2010Prop31
280
     0
102
RTVSPost2010PropOp31
 70
     1
102
RTVSPost2010Prop32
280
     0
102
RTVSPost2010PropOp32
 70
     1
102
RTVSPost2010Prop33
280
     0
102
RTVSPost2010PropOp33
 70
     1
102
RTVSPost2010Prop34
280
     0
102
RTVSPost2010PropOp34
 70
     1
102
RTVSPost2010Prop35
280
     0
102
RTVSPost2010PropOp35
 70
     1
102
RTVSPost2010Prop36
280
     0
102
RTVSPost2010PropOp36
 70
     1
102
RTVSPost2010Prop37
 90
       50
102
RTVSPost2010PropOp37
 70
     1
102
RTVSPost2010Prop38
140
0.0
102
RTVSPost2010PropOp38
 70
     1
102
RTVSPost2010Prop39
140
1.0
102
RTVSPost2010PropOp39
 70
     1
102
RTVSPost2010Prop40
 90
        0
102
RTVSPost2010PropOp40
 70
     1
102
RTVSPost2010Prop41ColorIndex
 90
       18
102
RTVSPost2010Prop41ColorRGB
 90
        0
102
RTVSPost2010PropOp41
 70
     1
102
RTVSPost2010Prop42
 90
       50
102
RTVSPost2010PropOp42
 70
     1
102
RTVSPost2010Prop43
 90
        3
102
RTVSPost2010PropOp43
 70
     1
102
RTVSPost2010Prop44ColorIndex
 90
        5
102
RTVSPost2010Prop44ColorRGB
 90
      255
102
RTVSPost2010PropOp44
 70
     1
102
RTVSPost2010Prop45
280
     0
102
RTVSPost2010PropOp45
 70
     1
102
RTVSPost2010Prop46
 90
       50
102
RTVSPost2010PropOp46
 70
     1
102
RTVSPost2010Prop47
 90
       50
102
RTVSPost2010PropOp47
 70
     1
102
RTVSPost2010Prop48
 90
       50
102
RTVSPost2010PropOp48
 70
     1
102
RTVSPost2010Prop49
280
     0
102
RTVSPost2010PropOp49
 70
     1
102
RTVSPost2010Prop50
 90
       50
102
RTVSPost2010PropOp50
 70
     1
102
RTVSPost2010Prop51ColorIndex
 90
      256
102
RTVSPost2010Prop51ColorRGB
 90
-16777216
102
RTVSPost2010PropOp51
 70
     0
102
RTVSPost2010Prop52
140
1.0
102
RTVSPost2010PropOp52
 70
     0
102
RTVSPost2010Prop53
 90
        2
102
RTVSPost2010PropOp53
 70
     1
102
RTVSPost2010Prop54
  1
strokes_ogs.tif
102
RTVSPost2010PropOp54
 70
     1
102
RTVSPost2010Prop55
280
     0
102
RTVSPost2010PropOp55
 70
     1
102
RTVSPost2010Prop56
140
1.0
102
RTVSPost2010PropOp56
 70
     1
102
RTVSPost2010Prop57
140
1.0
102
RTVSPost2010PropOp57
 70
     1
102
RTVSPropertyOp0
 70
     1
102
RTVSPropertyOp1
 70
     1
102
RTVSPropertyOp2
 70
     1
102
RTVSPropertyOp3
 70
     1
102
RTVSPropertyOp4
 70
     1
102
RTVSPropertyOp5
 70
     1
102
RTVSPropertyOp6
 70
     1
102
RTVSPropertyOp7
 70
     1
102
RTVSPropertyOp8
 70
     1
102
RTVSPropertyOp9
 70
     1
102
RTVSPropertyOp10
 70
     1
102
RTVSPropertyOp11
 70
     1
102
RTVSPropertyOp12
 70
     1
102
RTVSPropertyOp13
 70
     1
102
RTVSPropertyOp14
 70
     1
102
RTVSPropertyOp15
 70
     1
102
RTVSPropertyOp16
 70
     1
102
RTVSPropertyOp17
 70
     1
102
RTVSPropertyOp18
 70
     1
102
RTVSPropertyOp19
 70
     1
102
RTVSPropertyOp20
 70
     1
102
RTVSPropertyOp21
 70
     1
102
RTVSPropertyOp22
 70
     1
102
RTVSPropertyOp23
 70
     1
102
RTVSPropertyOp24
 70
     1
102
RTVSPropertyOp25
 70
     1
102
RTVSPropertyOp26
 70
     1
102
RTVSPropertyOp27
 70
     1
102
RTVSPropertyOp28
 70
     1
102
RTVSPropertyOp29
 70
     1
102
RTVSPropertyOp30
 70
     1
102
RTVSPropertyOp31
 70
     1
102
RTVSPropertyOp32
 70
     1
102
RTVSPropertyOp33
 70
     1
102
RTVSPropertyOp34
 70
     1
102
RTVSPropertyOp35
 70
     1
102
RTVSPropertyOp36
 70
     1
102
RTVSPropertyOp37
 70
     1
102
RTVSPropertyOp38
 70
     1
102
RTVSPropertyOp39
 70
     1
102
RTVSPropertyOp40
 70
     1
102
RTVSPropertyOp41
 70
     1
102
RTVSPropertyOp42
 70
     1
102
RTVSPropertyOp43
 70
     1
102
RTVSPropertyOp44
 70
     1
102
RTVSPropertyOp45
 70
     1
102
RTVSPropertyOp46
 70
     1
102
RTVSPropertyOp47
 70
     1
102
RTVSPropertyOp48
 70
     1
102
RTVSPropertyOp49
 70
     1
102
RTVSPropertyOp50
 70
     1
102
RTVSPropertyOp51
 70
     0
102
RTVSPropertyOp52
 70
     0
102
RTVSPropertyOp53
 70
     1
102
RTVSPropertyOp54
 70
     1
102
RTVSPropertyOp55
 70
     1
102
RTVSPropertyOp56
 70
     1
102
RTVSPropertyOp57
 70
     1
102
RTVSPropertyOp58
 70
     1
102
RTVSPropertyOp59
 70
     1
102
RTVSPropertyOp60
 70
     1
102
RTVSPropertyOp61
 70
     1
102
RTVSPropertyOp62
 70
     1
  0
XRECORD
  5
869B
102
{ACAD_REACTORS
330
869A
102
}
330
869A
100
AcDbXrecord
280
     1
102
RTVSPost2010Prop28
280
     0
102
RTVSPost2010PropOp28
 70
     0
102
RTVSPost2010Prop29
280
     1
102
RTVSPost2010PropOp29
 70
     0
102
RTVSPost2010Prop30
280
     1
102
RTVSPost2010PropOp30
 70
     0
102
RTVSPost2010Prop31
280
     0
102
RTVSPost2010PropOp31
 70
     0
102
RTVSPost2010Prop32
280
     0
102
RTVSPost2010PropOp32
 70
     0
102
RTVSPost2010Prop33
280
     0
102
RTVSPost2010PropOp33
 70
     0
102
RTVSPost2010Prop34
280
     0
102
RTVSPost2010PropOp34
 70
     0
102
RTVSPost2010Prop35
280
     0
102
RTVSPost2010PropOp35
 70
     0
102
RTVSPost2010Prop36
280
     0
102
RTVSPost2010PropOp36
 70
     0
102
RTVSPost2010Prop37
 90
       50
102
RTVSPost2010PropOp37
 70
     0
102
RTVSPost2010Prop38
140
0.0
102
RTVSPost2010PropOp38
 70
     0
102
RTVSPost2010Prop39
140
1.0
102
RTVSPost2010PropOp39
 70
     0
102
RTVSPost2010Prop40
 90
        0
102
RTVSPost2010PropOp40
 70
     0
102
RTVSPost2010Prop41ColorIndex
 90
       18
102
RTVSPost2010Prop41ColorRGB
 90
        0
102
RTVSPost2010PropOp41
 70
     0
102
RTVSPost2010Prop42
 90
       50
102
RTVSPost2010PropOp42
 70
     0
102
RTVSPost2010Prop43
 90
        3
102
RTVSPost2010PropOp43
 70
     0
102
RTVSPost2010Prop44ColorIndex
 90
        5
102
RTVSPost2010Prop44ColorRGB
 90
      255
102
RTVSPost2010PropOp44
 70
     0
102
RTVSPost2010Prop45
280
     0
102
RTVSPost2010PropOp45
 70
     0
102
RTVSPost2010Prop46
 90
       50
102
RTVSPost2010PropOp46
 70
     0
102
RTVSPost2010Prop47
 90
       50
102
RTVSPost2010PropOp47
 70
     0
102
RTVSPost2010Prop48
 90
       50
102
RTVSPost2010PropOp48
 70
     0
102
RTVSPost2010Prop49
280
     0
102
RTVSPost2010PropOp49
 70
     0
102
RTVSPost2010Prop50
 90
       50
102
RTVSPost2010PropOp50
 70
     0
102
RTVSPost2010Prop51ColorIndex
 90
      256
102
RTVSPost2010Prop51ColorRGB
 90
-16777216
102
RTVSPost2010PropOp51
 70
     0
102
RTVSPost2010Prop52
140
1.0
102
RTVSPost2010PropOp52
 70
     0
102
RTVSPost2010Prop53
 90
        2
102
RTVSPost2010PropOp53
 70
     0
102
RTVSPost2010Prop54
  1
strokes_ogs.tif
102
RTVSPost2010PropOp54
 70
     0
102
RTVSPost2010Prop55
280
     0
102
RTVSPost2010PropOp55
 70
     0
102
RTVSPost2010Prop56
140
1.0
102
RTVSPost2010PropOp56
 70
     0
102
RTVSPost2010Prop57
140
1.0
102
RTVSPost2010PropOp57
 70
     0
102
RTVSPropertyOp0
 70
     0
102
RTVSPropertyOp1
 70
     0
102
RTVSPropertyOp2
 70
     0
102
RTVSPropertyOp3
 70
     0
102
RTVSPropertyOp4
 70
     0
102
RTVSPropertyOp5
 70
     0
102
RTVSPropertyOp6
 70
     0
102
RTVSPropertyOp7
 70
     0
102
RTVSPropertyOp8
 70
     0
102
RTVSPropertyOp9
 70
     0
102
RTVSPropertyOp10
 70
     0
102
RTVSPropertyOp11
 70
     0
102
RTVSPropertyOp12
 70
     0
102
RTVSPropertyOp13
 70
     0
102
RTVSPropertyOp14
 70
     2
102
RTVSPropertyOp15
 70
     0
102
RTVSPropertyOp16
 70
     0
102
RTVSPropertyOp17
 70
     0
102
RTVSPropertyOp18
 70
     0
102
RTVSPropertyOp19
 70
     0
102
RTVSPropertyOp20
 70
     0
102
RTVSPropertyOp21
 70
     0
102
RTVSPropertyOp22
 70
     0
102
RTVSPropertyOp23
 70
     0
102
RTVSPropertyOp24
 70
     0
102
RTVSPropertyOp25
 70
     0
102
RTVSPropertyOp26
 70
     0
102
RTVSPropertyOp27
 70
     0
102
RTVSPropertyOp28
 70
     0
102
RTVSPropertyOp29
 70
     0
102
RTVSPropertyOp30
 70
     0
102
RTVSPropertyOp31
 70
     0
102
RTVSPropertyOp32
 70
     0
102
RTVSPropertyOp33
 70
     0
102
RTVSPropertyOp34
 70
     0
102
RTVSPropertyOp35
 70
     0
102
RTVSPropertyOp36
 70
     0
102
RTVSPropertyOp37
 70
     0
102
RTVSPropertyOp38
 70
     0
102
RTVSPropertyOp39
 70
     0
102
RTVSPropertyOp40
 70
     0
102
RTVSPropertyOp41
 70
     0
102
RTVSPropertyOp42
 70
     0
102
RTVSPropertyOp43
 70
     0
102
RTVSPropertyOp44
 70
     0
102
RTVSPropertyOp45
 70
     0
102
RTVSPropertyOp46
 70
     0
102
RTVSPropertyOp47
 70
     0
102
RTVSPropertyOp48
 70
     0
102
RTVSPropertyOp49
 70
     0
102
RTVSPropertyOp50
 70
     0
102
RTVSPropertyOp51
 70
     0
102
RTVSPropertyOp52
 70
     0
102
RTVSPropertyOp53
 70
     0
102
RTVSPropertyOp54
 70
     0
102
RTVSPropertyOp55
 70
     0
102
RTVSPropertyOp56
 70
     0
102
RTVSPropertyOp57
 70
     0
102
RTVSPropertyOp58
 70
     1
102
RTVSPropertyOp59
 70
     1
102
RTVSPropertyOp60
 70
     1
102
RTVSPropertyOp61
 70
     1
102
RTVSPropertyOp62
 70
     1
  0
XRECORD
  5
8689
102
{ACAD_REACTORS
330
8688
102
}
330
8688
100
AcDbXrecord
280
     1
102
RTVSPost2010Prop28
280
     0
102
RTVSPost2010PropOp28
 70
     1
102
RTVSPost2010Prop29
280
     1
102
RTVSPost2010PropOp29
 70
     1
102
RTVSPost2010Prop30
280
     1
102
RTVSPost2010PropOp30
 70
     1
102
RTVSPost2010Prop31
280
     0
102
RTVSPost2010PropOp31
 70
     1
102
RTVSPost2010Prop32
280
     0
102
RTVSPost2010PropOp32
 70
     1
102
RTVSPost2010Prop33
280
     0
102
RTVSPost2010PropOp33
 70
     1
102
RTVSPost2010Prop34
280
     0
102
RTVSPost2010PropOp34
 70
     1
102
RTVSPost2010Prop35
280
     0
102
RTVSPost2010PropOp35
 70
     1
102
RTVSPost2010Prop36
280
     0
102
RTVSPost2010PropOp36
 70
     1
102
RTVSPost2010Prop37
 90
       50
102
RTVSPost2010PropOp37
 70
     1
102
RTVSPost2010Prop38
140
0.0
102
RTVSPost2010PropOp38
 70
     1
102
RTVSPost2010Prop39
140
1.0
102
RTVSPost2010PropOp39
 70
     1
102
RTVSPost2010Prop40
 90
        0
102
RTVSPost2010PropOp40
 70
     1
102
RTVSPost2010Prop41ColorIndex
 90
       18
102
RTVSPost2010Prop41ColorRGB
 90
        0
102
RTVSPost2010PropOp41
 70
     1
102
RTVSPost2010Prop42
 90
       50
102
RTVSPost2010PropOp42
 70
     1
102
RTVSPost2010Prop43
 90
        3
102
RTVSPost2010PropOp43
 70
     1
102
RTVSPost2010Prop44ColorIndex
 90
        5
102
RTVSPost2010Prop44ColorRGB
 90
      255
102
RTVSPost2010PropOp44
 70
     1
102
RTVSPost2010Prop45
280
     0
102
RTVSPost2010PropOp45
 70
     1
102
RTVSPost2010Prop46
 90
       50
102
RTVSPost2010PropOp46
 70
     1
102
RTVSPost2010Prop47
 90
       50
102
RTVSPost2010PropOp47
 70
     1
102
RTVSPost2010Prop48
 90
       50
102
RTVSPost2010PropOp48
 70
     1
102
RTVSPost2010Prop49
280
     0
102
RTVSPost2010PropOp49
 70
     1
102
RTVSPost2010Prop50
 90
       50
102
RTVSPost2010PropOp50
 70
     1
102
RTVSPost2010Prop51ColorIndex
 90
      256
102
RTVSPost2010Prop51ColorRGB
 90
-16777216
102
RTVSPost2010PropOp51
 70
     0
102
RTVSPost2010Prop52
140
1.0
102
RTVSPost2010PropOp52
 70
     0
102
RTVSPost2010Prop53
 90
        2
102
RTVSPost2010PropOp53
 70
     1
102
RTVSPost2010Prop54
  1
strokes_ogs.tif
102
RTVSPost2010PropOp54
 70
     1
102
RTVSPost2010Prop55
280
     0
102
RTVSPost2010PropOp55
 70
     1
102
RTVSPost2010Prop56
140
1.0
102
RTVSPost2010PropOp56
 70
     1
102
RTVSPost2010Prop57
140
1.0
102
RTVSPost2010PropOp57
 70
     1
102
RTVSPropertyOp0
 70
     1
102
RTVSPropertyOp1
 70
     1
102
RTVSPropertyOp2
 70
     1
102
RTVSPropertyOp3
 70
     1
102
RTVSPropertyOp4
 70
     1
102
RTVSPropertyOp5
 70
     1
102
RTVSPropertyOp6
 70
     1
102
RTVSPropertyOp7
 70
     1
102
RTVSPropertyOp8
 70
     1
102
RTVSPropertyOp9
 70
     1
102
RTVSPropertyOp10
 70
     1
102
RTVSPropertyOp11
 70
     1
102
RTVSPropertyOp12
 70
     1
102
RTVSPropertyOp13
 70
     1
102
RTVSPropertyOp14
 70
     1
102
RTVSPropertyOp15
 70
     1
102
RTVSPropertyOp16
 70
     1
102
RTVSPropertyOp17
 70
     1
102
RTVSPropertyOp18
 70
     1
102
RTVSPropertyOp19
 70
     1
102
RTVSPropertyOp20
 70
     1
102
RTVSPropertyOp21
 70
     1
102
RTVSPropertyOp22
 70
     1
102
RTVSPropertyOp23
 70
     1
102
RTVSPropertyOp24
 70
     1
102
RTVSPropertyOp25
 70
     1
102
RTVSPropertyOp26
 70
     1
102
RTVSPropertyOp27
 70
     1
102
RTVSPropertyOp28
 70
     1
102
RTVSPropertyOp29
 70
     1
102
RTVSPropertyOp30
 70
     1
102
RTVSPropertyOp31
 70
     1
102
RTVSPropertyOp32
 70
     1
102
RTVSPropertyOp33
 70
     1
102
RTVSPropertyOp34
 70
     1
102
RTVSPropertyOp35
 70
     1
102
RTVSPropertyOp36
 70
     1
102
RTVSPropertyOp37
 70
     1
102
RTVSPropertyOp38
 70
     1
102
RTVSPropertyOp39
 70
     1
102
RTVSPropertyOp40
 70
     1
102
RTVSPropertyOp41
 70
     1
102
RTVSPropertyOp42
 70
     1
102
RTVSPropertyOp43
 70
     1
102
RTVSPropertyOp44
 70
     1
102
RTVSPropertyOp45
 70
     1
102
RTVSPropertyOp46
 70
     1
102
RTVSPropertyOp47
 70
     1
102
RTVSPropertyOp48
 70
     1
102
RTVSPropertyOp49
 70
     1
102
RTVSPropertyOp50
 70
     1
102
RTVSPropertyOp51
 70
     0
102
RTVSPropertyOp52
 70
     0
102
RTVSPropertyOp53
 70
     1
102
RTVSPropertyOp54
 70
     1
102
RTVSPropertyOp55
 70
     1
102
RTVSPropertyOp56
 70
     1
102
RTVSPropertyOp57
 70
     1
102
RTVSPropertyOp58
 70
     1
102
RTVSPropertyOp59
 70
     1
102
RTVSPropertyOp60
 70
     1
102
RTVSPropertyOp61
 70
     1
102
RTVSPropertyOp62
 70
     1
  0
XRECORD
  5
866D
102
{ACAD_REACTORS
330
866C
102
}
330
866C
100
AcDbXrecord
280
     1
102
RTVSPost2010Prop28
280
     0
102
RTVSPost2010PropOp28
 70
     1
102
RTVSPost2010Prop29
280
     1
102
RTVSPost2010PropOp29
 70
     1
102
RTVSPost2010Prop30
280
     1
102
RTVSPost2010PropOp30
 70
     1
102
RTVSPost2010Prop31
280
     0
102
RTVSPost2010PropOp31
 70
     1
102
RTVSPost2010Prop32
280
     0
102
RTVSPost2010PropOp32
 70
     1
102
RTVSPost2010Prop33
280
     0
102
RTVSPost2010PropOp33
 70
     1
102
RTVSPost2010Prop34
280
     0
102
RTVSPost2010PropOp34
 70
     1
102
RTVSPost2010Prop35
280
     0
102
RTVSPost2010PropOp35
 70
     1
102
RTVSPost2010Prop36
280
     0
102
RTVSPost2010PropOp36
 70
     1
102
RTVSPost2010Prop37
 90
       50
102
RTVSPost2010PropOp37
 70
     1
102
RTVSPost2010Prop38
140
0.0
102
RTVSPost2010PropOp38
 70
     1
102
RTVSPost2010Prop39
140
1.0
102
RTVSPost2010PropOp39
 70
     1
102
RTVSPost2010Prop40
 90
        0
102
RTVSPost2010PropOp40
 70
     1
102
RTVSPost2010Prop41ColorIndex
 90
       18
102
RTVSPost2010Prop41ColorRGB
 90
        0
102
RTVSPost2010PropOp41
 70
     1
102
RTVSPost2010Prop42
 90
       50
102
RTVSPost2010PropOp42
 70
     1
102
RTVSPost2010Prop43
 90
        3
102
RTVSPost2010PropOp43
 70
     1
102
RTVSPost2010Prop44ColorIndex
 90
        5
102
RTVSPost2010Prop44ColorRGB
 90
      255
102
RTVSPost2010PropOp44
 70
     1
102
RTVSPost2010Prop45
280
     0
102
RTVSPost2010PropOp45
 70
     1
102
RTVSPost2010Prop46
 90
       50
102
RTVSPost2010PropOp46
 70
     1
102
RTVSPost2010Prop47
 90
       50
102
RTVSPost2010PropOp47
 70
     1
102
RTVSPost2010Prop48
 90
       50
102
RTVSPost2010PropOp48
 70
     1
102
RTVSPost2010Prop49
280
     0
102
RTVSPost2010PropOp49
 70
     1
102
RTVSPost2010Prop50
 90
       50
102
RTVSPost2010PropOp50
 70
     1
102
RTVSPost2010Prop51ColorIndex
 90
      256
102
RTVSPost2010Prop51ColorRGB
 90
-16777216
102
RTVSPost2010PropOp51
 70
     0
102
RTVSPost2010Prop52
140
1.0
102
RTVSPost2010PropOp52
 70
     0
102
RTVSPost2010Prop53
 90
        2
102
RTVSPost2010PropOp53
 70
     1
102
RTVSPost2010Prop54
  1
strokes_ogs.tif
102
RTVSPost2010PropOp54
 70
     1
102
RTVSPost2010Prop55
280
     0
102
RTVSPost2010PropOp55
 70
     1
102
RTVSPost2010Prop56
140
1.0
102
RTVSPost2010PropOp56
 70
     1
102
RTVSPost2010Prop57
140
1.0
102
RTVSPost2010PropOp57
 70
     1
102
RTVSPropertyOp0
 70
     1
102
RTVSPropertyOp1
 70
     1
102
RTVSPropertyOp2
 70
     1
102
RTVSPropertyOp3
 70
     1
102
RTVSPropertyOp4
 70
     1
102
RTVSPropertyOp5
 70
     1
102
RTVSPropertyOp6
 70
     1
102
RTVSPropertyOp7
 70
     1
102
RTVSPropertyOp8
 70
     1
102
RTVSPropertyOp9
 70
     1
102
RTVSPropertyOp10
 70
     1
102
RTVSPropertyOp11
 70
     1
102
RTVSPropertyOp12
 70
     1
102
RTVSPropertyOp13
 70
     1
102
RTVSPropertyOp14
 70
     1
102
RTVSPropertyOp15
 70
     1
102
RTVSPropertyOp16
 70
     1
102
RTVSPropertyOp17
 70
     1
102
RTVSPropertyOp18
 70
     1
102
RTVSPropertyOp19
 70
     1
102
RTVSPropertyOp20
 70
     1
102
RTVSPropertyOp21
 70
     1
102
RTVSPropertyOp22
 70
     1
102
RTVSPropertyOp23
 70
     1
102
RTVSPropertyOp24
 70
     1
102
RTVSPropertyOp25
 70
     1
102
RTVSPropertyOp26
 70
     1
102
RTVSPropertyOp27
 70
     1
102
RTVSPropertyOp28
 70
     1
102
RTVSPropertyOp29
 70
     1
102
RTVSPropertyOp30
 70
     1
102
RTVSPropertyOp31
 70
     1
102
RTVSPropertyOp32
 70
     1
102
RTVSPropertyOp33
 70
     1
102
RTVSPropertyOp34
 70
     1
102
RTVSPropertyOp35
 70
     1
102
RTVSPropertyOp36
 70
     1
102
RTVSPropertyOp37
 70
     1
102
RTVSPropertyOp38
 70
     1
102
RTVSPropertyOp39
 70
     1
102
RTVSPropertyOp40
 70
     1
102
RTVSPropertyOp41
 70
     1
102
RTVSPropertyOp42
 70
     1
102
RTVSPropertyOp43
 70
     1
102
RTVSPropertyOp44
 70
     1
102
RTVSPropertyOp45
 70
     1
102
RTVSPropertyOp46
 70
     1
102
RTVSPropertyOp47
 70
     1
102
RTVSPropertyOp48
 70
     1
102
RTVSPropertyOp49
 70
     1
102
RTVSPropertyOp50
 70
     1
102
RTVSPropertyOp51
 70
     0
102
RTVSPropertyOp52
 70
     0
102
RTVSPropertyOp53
 70
     1
102
RTVSPropertyOp54
 70
     1
102
RTVSPropertyOp55
 70
     1
102
RTVSPropertyOp56
 70
     1
102
RTVSPropertyOp57
 70
     1
102
RTVSPropertyOp58
 70
     1
102
RTVSPropertyOp59
 70
     1
102
RTVSPropertyOp60
 70
     1
102
RTVSPropertyOp61
 70
     1
102
RTVSPropertyOp62
 70
     1
  0
XRECORD
  5
866F
102
{ACAD_REACTORS
330
866E
102
}
330
866E
100
AcDbXrecord
280
     1
102
RTVSPost2010Prop28
280
     0
102
RTVSPost2010PropOp28
 70
     1
102
RTVSPost2010Prop29
280
     1
102
RTVSPost2010PropOp29
 70
     1
102
RTVSPost2010Prop30
280
     1
102
RTVSPost2010PropOp30
 70
     1
102
RTVSPost2010Prop31
280
     0
102
RTVSPost2010PropOp31
 70
     1
102
RTVSPost2010Prop32
280
     0
102
RTVSPost2010PropOp32
 70
     1
102
RTVSPost2010Prop33
280
     0
102
RTVSPost2010PropOp33
 70
     1
102
RTVSPost2010Prop34
280
     0
102
RTVSPost2010PropOp34
 70
     1
102
RTVSPost2010Prop35
280
     0
102
RTVSPost2010PropOp35
 70
     1
102
RTVSPost2010Prop36
280
     0
102
RTVSPost2010PropOp36
 70
     1
102
RTVSPost2010Prop37
 90
       50
102
RTVSPost2010PropOp37
 70
     1
102
RTVSPost2010Prop38
140
0.0
102
RTVSPost2010PropOp38
 70
     1
102
RTVSPost2010Prop39
140
1.0
102
RTVSPost2010PropOp39
 70
     1
102
RTVSPost2010Prop40
 90
        0
102
RTVSPost2010PropOp40
 70
     1
102
RTVSPost2010Prop41ColorIndex
 90
       18
102
RTVSPost2010Prop41ColorRGB
 90
        0
102
RTVSPost2010PropOp41
 70
     1
102
RTVSPost2010Prop42
 90
       50
102
RTVSPost2010PropOp42
 70
     1
102
RTVSPost2010Prop43
 90
        3
102
RTVSPost2010PropOp43
 70
     1
102
RTVSPost2010Prop44ColorIndex
 90
        5
102
RTVSPost2010Prop44ColorRGB
 90
      255
102
RTVSPost2010PropOp44
 70
     1
102
RTVSPost2010Prop45
280
     0
102
RTVSPost2010PropOp45
 70
     1
102
RTVSPost2010Prop46
 90
       50
102
RTVSPost2010PropOp46
 70
     1
102
RTVSPost2010Prop47
 90
       50
102
RTVSPost2010PropOp47
 70
     1
102
RTVSPost2010Prop48
 90
       50
102
RTVSPost2010PropOp48
 70
     1
102
RTVSPost2010Prop49
280
     0
102
RTVSPost2010PropOp49
 70
     1
102
RTVSPost2010Prop50
 90
       50
102
RTVSPost2010PropOp50
 70
     1
102
RTVSPost2010Prop51ColorIndex
 90
      256
102
RTVSPost2010Prop51ColorRGB
 90
-16777216
102
RTVSPost2010PropOp51
 70
     0
102
RTVSPost2010Prop52
140
1.0
102
RTVSPost2010PropOp52
 70
     0
102
RTVSPost2010Prop53
 90
        2
102
RTVSPost2010PropOp53
 70
     1
102
RTVSPost2010Prop54
  1
strokes_ogs.tif
102
RTVSPost2010PropOp54
 70
     1
102
RTVSPost2010Prop55
280
     0
102
RTVSPost2010PropOp55
 70
     1
102
RTVSPost2010Prop56
140
1.0
102
RTVSPost2010PropOp56
 70
     1
102
RTVSPost2010Prop57
140
1.0
102
RTVSPost2010PropOp57
 70
     1
102
RTVSPropertyOp0
 70
     1
102
RTVSPropertyOp1
 70
     1
102
RTVSPropertyOp2
 70
     1
102
RTVSPropertyOp3
 70
     1
102
RTVSPropertyOp4
 70
     1
102
RTVSPropertyOp5
 70
     1
102
RTVSPropertyOp6
 70
     1
102
RTVSPropertyOp7
 70
     1
102
RTVSPropertyOp8
 70
     1
102
RTVSPropertyOp9
 70
     1
102
RTVSPropertyOp10
 70
     1
102
RTVSPropertyOp11
 70
     1
102
RTVSPropertyOp12
 70
     1
102
RTVSPropertyOp13
 70
     1
102
RTVSPropertyOp14
 70
     1
102
RTVSPropertyOp15
 70
     1
102
RTVSPropertyOp16
 70
     1
102
RTVSPropertyOp17
 70
     1
102
RTVSPropertyOp18
 70
     1
102
RTVSPropertyOp19
 70
     1
102
RTVSPropertyOp20
 70
     1
102
RTVSPropertyOp21
 70
     1
102
RTVSPropertyOp22
 70
     1
102
RTVSPropertyOp23
 70
     1
102
RTVSPropertyOp24
 70
     1
102
RTVSPropertyOp25
 70
     1
102
RTVSPropertyOp26
 70
     1
102
RTVSPropertyOp27
 70
     1
102
RTVSPropertyOp28
 70
     1
102
RTVSPropertyOp29
 70
     1
102
RTVSPropertyOp30
 70
     1
102
RTVSPropertyOp31
 70
     1
102
RTVSPropertyOp32
 70
     1
102
RTVSPropertyOp33
 70
     1
102
RTVSPropertyOp34
 70
     1
102
RTVSPropertyOp35
 70
     1
102
RTVSPropertyOp36
 70
     1
102
RTVSPropertyOp37
 70
     1
102
RTVSPropertyOp38
 70
     1
102
RTVSPropertyOp39
 70
     1
102
RTVSPropertyOp40
 70
     1
102
RTVSPropertyOp41
 70
     1
102
RTVSPropertyOp42
 70
     1
102
RTVSPropertyOp43
 70
     1
102
RTVSPropertyOp44
 70
     1
102
RTVSPropertyOp45
 70
     1
102
RTVSPropertyOp46
 70
     1
102
RTVSPropertyOp47
 70
     1
102
RTVSPropertyOp48
 70
     1
102
RTVSPropertyOp49
 70
     1
102
RTVSPropertyOp50
 70
     1
102
RTVSPropertyOp51
 70
     0
102
RTVSPropertyOp52
 70
     0
102
RTVSPropertyOp53
 70
     1
102
RTVSPropertyOp54
 70
     1
102
RTVSPropertyOp55
 70
     1
102
RTVSPropertyOp56
 70
     1
102
RTVSPropertyOp57
 70
     1
102
RTVSPropertyOp58
 70
     1
102
RTVSPropertyOp59
 70
     1
102
RTVSPropertyOp60
 70
     1
102
RTVSPropertyOp61
 70
     1
102
RTVSPropertyOp62
 70
     1
  0
XRECORD
  5
8671
102
{ACAD_REACTORS
330
8670
102
}
330
8670
100
AcDbXrecord
280
     1
102
RTVSPost2010Prop28
280
     0
102
RTVSPost2010PropOp28
 70
     1
102
RTVSPost2010Prop29
280
     1
102
RTVSPost2010PropOp29
 70
     1
102
RTVSPost2010Prop30
280
     1
102
RTVSPost2010PropOp30
 70
     1
102
RTVSPost2010Prop31
280
     0
102
RTVSPost2010PropOp31
 70
     1
102
RTVSPost2010Prop32
280
     0
102
RTVSPost2010PropOp32
 70
     1
102
RTVSPost2010Prop33
280
     0
102
RTVSPost2010PropOp33
 70
     1
102
RTVSPost2010Prop34
280
     0
102
RTVSPost2010PropOp34
 70
     1
102
RTVSPost2010Prop35
280
     0
102
RTVSPost2010PropOp35
 70
     1
102
RTVSPost2010Prop36
280
     0
102
RTVSPost2010PropOp36
 70
     1
102
RTVSPost2010Prop37
 90
       50
102
RTVSPost2010PropOp37
 70
     1
102
RTVSPost2010Prop38
140
0.0
102
RTVSPost2010PropOp38
 70
     1
102
RTVSPost2010Prop39
140
1.0
102
RTVSPost2010PropOp39
 70
     1
102
RTVSPost2010Prop40
 90
        0
102
RTVSPost2010PropOp40
 70
     1
102
RTVSPost2010Prop41ColorIndex
 90
       18
102
RTVSPost2010Prop41ColorRGB
 90
        0
102
RTVSPost2010PropOp41
 70
     1
102
RTVSPost2010Prop42
 90
       50
102
RTVSPost2010PropOp42
 70
     1
102
RTVSPost2010Prop43
 90
        3
102
RTVSPost2010PropOp43
 70
     1
102
RTVSPost2010Prop44ColorIndex
 90
        5
102
RTVSPost2010Prop44ColorRGB
 90
      255
102
RTVSPost2010PropOp44
 70
     1
102
RTVSPost2010Prop45
280
     0
102
RTVSPost2010PropOp45
 70
     1
102
RTVSPost2010Prop46
 90
       50
102
RTVSPost2010PropOp46
 70
     1
102
RTVSPost2010Prop47
 90
       50
102
RTVSPost2010PropOp47
 70
     1
102
RTVSPost2010Prop48
 90
       50
102
RTVSPost2010PropOp48
 70
     1
102
RTVSPost2010Prop49
280
     0
102
RTVSPost2010PropOp49
 70
     1
102
RTVSPost2010Prop50
 90
       50
102
RTVSPost2010PropOp50
 70
     1
102
RTVSPost2010Prop51ColorIndex
 90
      256
102
RTVSPost2010Prop51ColorRGB
 90
-16777216
102
RTVSPost2010PropOp51
 70
     0
102
RTVSPost2010Prop52
140
1.0
102
RTVSPost2010PropOp52
 70
     0
102
RTVSPost2010Prop53
 90
        2
102
RTVSPost2010PropOp53
 70
     1
102
RTVSPost2010Prop54
  1
strokes_ogs.tif
102
RTVSPost2010PropOp54
 70
     1
102
RTVSPost2010Prop55
280
     0
102
RTVSPost2010PropOp55
 70
     1
102
RTVSPost2010Prop56
140
1.0
102
RTVSPost2010PropOp56
 70
     1
102
RTVSPost2010Prop57
140
1.0
102
RTVSPost2010PropOp57
 70
     1
102
RTVSPropertyOp0
 70
     1
102
RTVSPropertyOp1
 70
     1
102
RTVSPropertyOp2
 70
     1
102
RTVSPropertyOp3
 70
     1
102
RTVSPropertyOp4
 70
     1
102
RTVSPropertyOp5
 70
     1
102
RTVSPropertyOp6
 70
     1
102
RTVSPropertyOp7
 70
     1
102
RTVSPropertyOp8
 70
     1
102
RTVSPropertyOp9
 70
     1
102
RTVSPropertyOp10
 70
     1
102
RTVSPropertyOp11
 70
     1
102
RTVSPropertyOp12
 70
     1
102
RTVSPropertyOp13
 70
     1
102
RTVSPropertyOp14
 70
     1
102
RTVSPropertyOp15
 70
     1
102
RTVSPropertyOp16
 70
     1
102
RTVSPropertyOp17
 70
     1
102
RTVSPropertyOp18
 70
     1
102
RTVSPropertyOp19
 70
     1
102
RTVSPropertyOp20
 70
     1
102
RTVSPropertyOp21
 70
     1
102
RTVSPropertyOp22
 70
     1
102
RTVSPropertyOp23
 70
     1
102
RTVSPropertyOp24
 70
     1
102
RTVSPropertyOp25
 70
     1
102
RTVSPropertyOp26
 70
     1
102
RTVSPropertyOp27
 70
     1
102
RTVSPropertyOp28
 70
     1
102
RTVSPropertyOp29
 70
     1
102
RTVSPropertyOp30
 70
     1
102
RTVSPropertyOp31
 70
     1
102
RTVSPropertyOp32
 70
     1
102
RTVSPropertyOp33
 70
     1
102
RTVSPropertyOp34
 70
     1
102
RTVSPropertyOp35
 70
     1
102
RTVSPropertyOp36
 70
     1
102
RTVSPropertyOp37
 70
     1
102
RTVSPropertyOp38
 70
     1
102
RTVSPropertyOp39
 70
     1
102
RTVSPropertyOp40
 70
     1
102
RTVSPropertyOp41
 70
     1
102
RTVSPropertyOp42
 70
     1
102
RTVSPropertyOp43
 70
     1
102
RTVSPropertyOp44
 70
     1
102
RTVSPropertyOp45
 70
     1
102
RTVSPropertyOp46
 70
     1
102
RTVSPropertyOp47
 70
     1
102
RTVSPropertyOp48
 70
     1
102
RTVSPropertyOp49
 70
     1
102
RTVSPropertyOp50
 70
     1
102
RTVSPropertyOp51
 70
     0
102
RTVSPropertyOp52
 70
     0
102
RTVSPropertyOp53
 70
     1
102
RTVSPropertyOp54
 70
     1
102
RTVSPropertyOp55
 70
     1
102
RTVSPropertyOp56
 70
     1
102
RTVSPropertyOp57
 70
     1
102
RTVSPropertyOp58
 70
     1
102
RTVSPropertyOp59
 70
     1
102
RTVSPropertyOp60
 70
     1
102
RTVSPropertyOp61
 70
     1
102
RTVSPropertyOp62
 70
     1
  0
XRECORD
  5
8673
102
{ACAD_REACTORS
330
8672
102
}
330
8672
100
AcDbXrecord
280
     1
102
RTVSPost2010Prop28
280
     0
102
RTVSPost2010PropOp28
 70
     1
102
RTVSPost2010Prop29
280
     1
102
RTVSPost2010PropOp29
 70
     1
102
RTVSPost2010Prop30
280
     1
102
RTVSPost2010PropOp30
 70
     1
102
RTVSPost2010Prop31
280
     0
102
RTVSPost2010PropOp31
 70
     1
102
RTVSPost2010Prop32
280
     0
102
RTVSPost2010PropOp32
 70
     1
102
RTVSPost2010Prop33
280
     0
102
RTVSPost2010PropOp33
 70
     1
102
RTVSPost2010Prop34
280
     0
102
RTVSPost2010PropOp34
 70
     1
102
RTVSPost2010Prop35
280
     0
102
RTVSPost2010PropOp35
 70
     1
102
RTVSPost2010Prop36
280
     0
102
RTVSPost2010PropOp36
 70
     1
102
RTVSPost2010Prop37
 90
       50
102
RTVSPost2010PropOp37
 70
     1
102
RTVSPost2010Prop38
140
0.0
102
RTVSPost2010PropOp38
 70
     1
102
RTVSPost2010Prop39
140
1.0
102
RTVSPost2010PropOp39
 70
     1
102
RTVSPost2010Prop40
 90
        0
102
RTVSPost2010PropOp40
 70
     1
102
RTVSPost2010Prop41ColorIndex
 90
       18
102
RTVSPost2010Prop41ColorRGB
 90
        0
102
RTVSPost2010PropOp41
 70
     1
102
RTVSPost2010Prop42
 90
       50
102
RTVSPost2010PropOp42
 70
     1
102
RTVSPost2010Prop43
 90
        3
102
RTVSPost2010PropOp43
 70
     1
102
RTVSPost2010Prop44ColorIndex
 90
        5
102
RTVSPost2010Prop44ColorRGB
 90
      255
102
RTVSPost2010PropOp44
 70
     1
102
RTVSPost2010Prop45
280
     0
102
RTVSPost2010PropOp45
 70
     1
102
RTVSPost2010Prop46
 90
       50
102
RTVSPost2010PropOp46
 70
     1
102
RTVSPost2010Prop47
 90
       50
102
RTVSPost2010PropOp47
 70
     1
102
RTVSPost2010Prop48
 90
       50
102
RTVSPost2010PropOp48
 70
     1
102
RTVSPost2010Prop49
280
     0
102
RTVSPost2010PropOp49
 70
     1
102
RTVSPost2010Prop50
 90
       50
102
RTVSPost2010PropOp50
 70
     1
102
RTVSPost2010Prop51ColorIndex
 90
      256
102
RTVSPost2010Prop51ColorRGB
 90
-16777216
102
RTVSPost2010PropOp51
 70
     0
102
RTVSPost2010Prop52
140
1.0
102
RTVSPost2010PropOp52
 70
     0
102
RTVSPost2010Prop53
 90
        2
102
RTVSPost2010PropOp53
 70
     1
102
RTVSPost2010Prop54
  1
strokes_ogs.tif
102
RTVSPost2010PropOp54
 70
     1
102
RTVSPost2010Prop55
280
     0
102
RTVSPost2010PropOp55
 70
     1
102
RTVSPost2010Prop56
140
1.0
102
RTVSPost2010PropOp56
 70
     1
102
RTVSPost2010Prop57
140
1.0
102
RTVSPost2010PropOp57
 70
     1
102
RTVSPropertyOp0
 70
     1
102
RTVSPropertyOp1
 70
     1
102
RTVSPropertyOp2
 70
     1
102
RTVSPropertyOp3
 70
     1
102
RTVSPropertyOp4
 70
     1
102
RTVSPropertyOp5
 70
     1
102
RTVSPropertyOp6
 70
     1
102
RTVSPropertyOp7
 70
     1
102
RTVSPropertyOp8
 70
     1
102
RTVSPropertyOp9
 70
     1
102
RTVSPropertyOp10
 70
     1
102
RTVSPropertyOp11
 70
     1
102
RTVSPropertyOp12
 70
     1
102
RTVSPropertyOp13
 70
     1
102
RTVSPropertyOp14
 70
     1
102
RTVSPropertyOp15
 70
     1
102
RTVSPropertyOp16
 70
     1
102
RTVSPropertyOp17
 70
     1
102
RTVSPropertyOp18
 70
     1
102
RTVSPropertyOp19
 70
     1
102
RTVSPropertyOp20
 70
     1
102
RTVSPropertyOp21
 70
     1
102
RTVSPropertyOp22
 70
     1
102
RTVSPropertyOp23
 70
     1
102
RTVSPropertyOp24
 70
     1
102
RTVSPropertyOp25
 70
     1
102
RTVSPropertyOp26
 70
     1
102
RTVSPropertyOp27
 70
     1
102
RTVSPropertyOp28
 70
     1
102
RTVSPropertyOp29
 70
     1
102
RTVSPropertyOp30
 70
     1
102
RTVSPropertyOp31
 70
     1
102
RTVSPropertyOp32
 70
     1
102
RTVSPropertyOp33
 70
     1
102
RTVSPropertyOp34
 70
     1
102
RTVSPropertyOp35
 70
     1
102
RTVSPropertyOp36
 70
     1
102
RTVSPropertyOp37
 70
     1
102
RTVSPropertyOp38
 70
     1
102
RTVSPropertyOp39
 70
     1
102
RTVSPropertyOp40
 70
     1
102
RTVSPropertyOp41
 70
     1
102
RTVSPropertyOp42
 70
     1
102
RTVSPropertyOp43
 70
     1
102
RTVSPropertyOp44
 70
     1
102
RTVSPropertyOp45
 70
     1
102
RTVSPropertyOp46
 70
     1
102
RTVSPropertyOp47
 70
     1
102
RTVSPropertyOp48
 70
     1
102
RTVSPropertyOp49
 70
     1
102
RTVSPropertyOp50
 70
     1
102
RTVSPropertyOp51
 70
     0
102
RTVSPropertyOp52
 70
     0
102
RTVSPropertyOp53
 70
     1
102
RTVSPropertyOp54
 70
     1
102
RTVSPropertyOp55
 70
     1
102
RTVSPropertyOp56
 70
     1
102
RTVSPropertyOp57
 70
     1
102
RTVSPropertyOp58
 70
     1
102
RTVSPropertyOp59
 70
     1
102
RTVSPropertyOp60
 70
     1
102
RTVSPropertyOp61
 70
     1
102
RTVSPropertyOp62
 70
     1
  0
XRECORD
  5
867B
102
{ACAD_REACTORS
330
867A
102
}
330
867A
100
AcDbXrecord
280
     1
102
RTVSPost2010Prop28
280
     0
102
RTVSPost2010PropOp28
 70
     1
102
RTVSPost2010Prop29
280
     1
102
RTVSPost2010PropOp29
 70
     1
102
RTVSPost2010Prop30
280
     1
102
RTVSPost2010PropOp30
 70
     1
102
RTVSPost2010Prop31
280
     0
102
RTVSPost2010PropOp31
 70
     1
102
RTVSPost2010Prop32
280
     0
102
RTVSPost2010PropOp32
 70
     1
102
RTVSPost2010Prop33
280
     0
102
RTVSPost2010PropOp33
 70
     1
102
RTVSPost2010Prop34
280
     0
102
RTVSPost2010PropOp34
 70
     1
102
RTVSPost2010Prop35
280
     0
102
RTVSPost2010PropOp35
 70
     1
102
RTVSPost2010Prop36
280
     0
102
RTVSPost2010PropOp36
 70
     1
102
RTVSPost2010Prop37
 90
       50
102
RTVSPost2010PropOp37
 70
     1
102
RTVSPost2010Prop38
140
0.0
102
RTVSPost2010PropOp38
 70
     1
102
RTVSPost2010Prop39
140
1.0
102
RTVSPost2010PropOp39
 70
     1
102
RTVSPost2010Prop40
 90
        0
102
RTVSPost2010PropOp40
 70
     1
102
RTVSPost2010Prop41ColorIndex
 90
       18
102
RTVSPost2010Prop41ColorRGB
 90
        0
102
RTVSPost2010PropOp41
 70
     1
102
RTVSPost2010Prop42
 90
       50
102
RTVSPost2010PropOp42
 70
     1
102
RTVSPost2010Prop43
 90
        3
102
RTVSPost2010PropOp43
 70
     1
102
RTVSPost2010Prop44ColorIndex
 90
        5
102
RTVSPost2010Prop44ColorRGB
 90
      255
102
RTVSPost2010PropOp44
 70
     1
102
RTVSPost2010Prop45
280
     0
102
RTVSPost2010PropOp45
 70
     1
102
RTVSPost2010Prop46
 90
       50
102
RTVSPost2010PropOp46
 70
     1
102
RTVSPost2010Prop47
 90
       50
102
RTVSPost2010PropOp47
 70
     1
102
RTVSPost2010Prop48
 90
       50
102
RTVSPost2010PropOp48
 70
     1
102
RTVSPost2010Prop49
280
     0
102
RTVSPost2010PropOp49
 70
     1
102
RTVSPost2010Prop50
 90
       50
102
RTVSPost2010PropOp50
 70
     1
102
RTVSPost2010Prop51ColorIndex
 90
      256
102
RTVSPost2010Prop51ColorRGB
 90
-16777216
102
RTVSPost2010PropOp51
 70
     0
102
RTVSPost2010Prop52
140
1.0
102
RTVSPost2010PropOp52
 70
     0
102
RTVSPost2010Prop53
 90
        2
102
RTVSPost2010PropOp53
 70
     1
102
RTVSPost2010Prop54
  1
strokes_ogs.tif
102
RTVSPost2010PropOp54
 70
     1
102
RTVSPost2010Prop55
280
     0
102
RTVSPost2010PropOp55
 70
     1
102
RTVSPost2010Prop56
140
1.0
102
RTVSPost2010PropOp56
 70
     1
102
RTVSPost2010Prop57
140
1.0
102
RTVSPost2010PropOp57
 70
     1
102
RTVSPropertyOp0
 70
     1
102
RTVSPropertyOp1
 70
     1
102
RTVSPropertyOp2
 70
     1
102
RTVSPropertyOp3
 70
     1
102
RTVSPropertyOp4
 70
     1
102
RTVSPropertyOp5
 70
     1
102
RTVSPropertyOp6
 70
     1
102
RTVSPropertyOp7
 70
     1
102
RTVSPropertyOp8
 70
     1
102
RTVSPropertyOp9
 70
     1
102
RTVSPropertyOp10
 70
     1
102
RTVSPropertyOp11
 70
     1
102
RTVSPropertyOp12
 70
     1
102
RTVSPropertyOp13
 70
     1
102
RTVSPropertyOp14
 70
     1
102
RTVSPropertyOp15
 70
     1
102
RTVSPropertyOp16
 70
     1
102
RTVSPropertyOp17
 70
     1
102
RTVSPropertyOp18
 70
     1
102
RTVSPropertyOp19
 70
     1
102
RTVSPropertyOp20
 70
     1
102
RTVSPropertyOp21
 70
     1
102
RTVSPropertyOp22
 70
     1
102
RTVSPropertyOp23
 70
     1
102
RTVSPropertyOp24
 70
     1
102
RTVSPropertyOp25
 70
     1
102
RTVSPropertyOp26
 70
     1
102
RTVSPropertyOp27
 70
     1
102
RTVSPropertyOp28
 70
     1
102
RTVSPropertyOp29
 70
     1
102
RTVSPropertyOp30
 70
     1
102
RTVSPropertyOp31
 70
     1
102
RTVSPropertyOp32
 70
     1
102
RTVSPropertyOp33
 70
     1
102
RTVSPropertyOp34
 70
     1
102
RTVSPropertyOp35
 70
     1
102
RTVSPropertyOp36
 70
     1
102
RTVSPropertyOp37
 70
     1
102
RTVSPropertyOp38
 70
     1
102
RTVSPropertyOp39
 70
     1
102
RTVSPropertyOp40
 70
     1
102
RTVSPropertyOp41
 70
     1
102
RTVSPropertyOp42
 70
     1
102
RTVSPropertyOp43
 70
     1
102
RTVSPropertyOp44
 70
     1
102
RTVSPropertyOp45
 70
     1
102
RTVSPropertyOp46
 70
     1
102
RTVSPropertyOp47
 70
     1
102
RTVSPropertyOp48
 70
     1
102
RTVSPropertyOp49
 70
     1
102
RTVSPropertyOp50
 70
     1
102
RTVSPropertyOp51
 70
     0
102
RTVSPropertyOp52
 70
     0
102
RTVSPropertyOp53
 70
     1
102
RTVSPropertyOp54
 70
     1
102
RTVSPropertyOp55
 70
     1
102
RTVSPropertyOp56
 70
     1
102
RTVSPropertyOp57
 70
     1
102
RTVSPropertyOp58
 70
     1
102
RTVSPropertyOp59
 70
     1
102
RTVSPropertyOp60
 70
     1
102
RTVSPropertyOp61
 70
     1
102
RTVSPropertyOp62
 70
     1
  0
XRECORD
  5
8697
102
{ACAD_REACTORS
330
8696
102
}
330
8696
100
AcDbXrecord
280
     1
102
RTVSPost2010Prop28
280
     0
102
RTVSPost2010PropOp28
 70
     0
102
RTVSPost2010Prop29
280
     1
102
RTVSPost2010PropOp29
 70
     0
102
RTVSPost2010Prop30
280
     1
102
RTVSPost2010PropOp30
 70
     0
102
RTVSPost2010Prop31
280
     0
102
RTVSPost2010PropOp31
 70
     0
102
RTVSPost2010Prop32
280
     0
102
RTVSPost2010PropOp32
 70
     0
102
RTVSPost2010Prop33
280
     0
102
RTVSPost2010PropOp33
 70
     0
102
RTVSPost2010Prop34
280
     0
102
RTVSPost2010PropOp34
 70
     0
102
RTVSPost2010Prop35
280
     0
102
RTVSPost2010PropOp35
 70
     0
102
RTVSPost2010Prop36
280
     0
102
RTVSPost2010PropOp36
 70
     0
102
RTVSPost2010Prop37
 90
       50
102
RTVSPost2010PropOp37
 70
     0
102
RTVSPost2010Prop38
140
0.0
102
RTVSPost2010PropOp38
 70
     0
102
RTVSPost2010Prop39
140
1.0
102
RTVSPost2010PropOp39
 70
     0
102
RTVSPost2010Prop40
 90
        0
102
RTVSPost2010PropOp40
 70
     0
102
RTVSPost2010Prop41ColorIndex
 90
       18
102
RTVSPost2010Prop41ColorRGB
 90
        0
102
RTVSPost2010PropOp41
 70
     0
102
RTVSPost2010Prop42
 90
       50
102
RTVSPost2010PropOp42
 70
     0
102
RTVSPost2010Prop43
 90
        3
102
RTVSPost2010PropOp43
 70
     0
102
RTVSPost2010Prop44ColorIndex
 90
        5
102
RTVSPost2010Prop44ColorRGB
 90
      255
102
RTVSPost2010PropOp44
 70
     0
102
RTVSPost2010Prop45
280
     0
102
RTVSPost2010PropOp45
 70
     0
102
RTVSPost2010Prop46
 90
       50
102
RTVSPost2010PropOp46
 70
     0
102
RTVSPost2010Prop47
 90
       50
102
RTVSPost2010PropOp47
 70
     0
102
RTVSPost2010Prop48
 90
       50
102
RTVSPost2010PropOp48
 70
     0
102
RTVSPost2010Prop49
280
     0
102
RTVSPost2010PropOp49
 70
     0
102
RTVSPost2010Prop50
 90
       50
102
RTVSPost2010PropOp50
 70
     0
102
RTVSPost2010Prop51ColorIndex
 90
      256
102
RTVSPost2010Prop51ColorRGB
 90
-16777216
102
RTVSPost2010PropOp51
 70
     0
102
RTVSPost2010Prop52
140
1.0
102
RTVSPost2010PropOp52
 70
     0
102
RTVSPost2010Prop53
 90
        2
102
RTVSPost2010PropOp53
 70
     0
102
RTVSPost2010Prop54
  1
strokes_ogs.tif
102
RTVSPost2010PropOp54
 70
     0
102
RTVSPost2010Prop55
280
     0
102
RTVSPost2010PropOp55
 70
     0
102
RTVSPost2010Prop56
140
1.0
102
RTVSPost2010PropOp56
 70
     0
102
RTVSPost2010Prop57
140
1.0
102
RTVSPost2010PropOp57
 70
     0
102
RTVSPropertyOp0
 70
     0
102
RTVSPropertyOp1
 70
     0
102
RTVSPropertyOp2
 70
     0
102
RTVSPropertyOp3
 70
     0
102
RTVSPropertyOp4
 70
     0
102
RTVSPropertyOp5
 70
     0
102
RTVSPropertyOp6
 70
     0
102
RTVSPropertyOp7
 70
     0
102
RTVSPropertyOp8
 70
     0
102
RTVSPropertyOp9
 70
     0
102
RTVSPropertyOp10
 70
     0
102
RTVSPropertyOp11
 70
     0
102
RTVSPropertyOp12
 70
     0
102
RTVSPropertyOp13
 70
     0
102
RTVSPropertyOp14
 70
     2
102
RTVSPropertyOp15
 70
     0
102
RTVSPropertyOp16
 70
     0
102
RTVSPropertyOp17
 70
     0
102
RTVSPropertyOp18
 70
     0
102
RTVSPropertyOp19
 70
     0
102
RTVSPropertyOp20
 70
     0
102
RTVSPropertyOp21
 70
     0
102
RTVSPropertyOp22
 70
     0
102
RTVSPropertyOp23
 70
     0
102
RTVSPropertyOp24
 70
     0
102
RTVSPropertyOp25
 70
     0
102
RTVSPropertyOp26
 70
     0
102
RTVSPropertyOp27
 70
     0
102
RTVSPropertyOp28
 70
     0
102
RTVSPropertyOp29
 70
     0
102
RTVSPropertyOp30
 70
     0
102
RTVSPropertyOp31
 70
     0
102
RTVSPropertyOp32
 70
     0
102
RTVSPropertyOp33
 70
     0
102
RTVSPropertyOp34
 70
     0
102
RTVSPropertyOp35
 70
     0
102
RTVSPropertyOp36
 70
     0
102
RTVSPropertyOp37
 70
     0
102
RTVSPropertyOp38
 70
     0
102
RTVSPropertyOp39
 70
     0
102
RTVSPropertyOp40
 70
     0
102
RTVSPropertyOp41
 70
     0
102
RTVSPropertyOp42
 70
     0
102
RTVSPropertyOp43
 70
     0
102
RTVSPropertyOp44
 70
     0
102
RTVSPropertyOp45
 70
     0
102
RTVSPropertyOp46
 70
     0
102
RTVSPropertyOp47
 70
     0
102
RTVSPropertyOp48
 70
     0
102
RTVSPropertyOp49
 70
     0
102
RTVSPropertyOp50
 70
     0
102
RTVSPropertyOp51
 70
     0
102
RTVSPropertyOp52
 70
     0
102
RTVSPropertyOp53
 70
     0
102
RTVSPropertyOp54
 70
     0
102
RTVSPropertyOp55
 70
     0
102
RTVSPropertyOp56
 70
     0
102
RTVSPropertyOp57
 70
     0
102
RTVSPropertyOp58
 70
     1
102
RTVSPropertyOp59
 70
     1
102
RTVSPropertyOp60
 70
     1
102
RTVSPropertyOp61
 70
     1
102
RTVSPropertyOp62
 70
     1
  0
XRECORD
  5
8687
102
{ACAD_REACTORS
330
8686
102
}
330
8686
100
AcDbXrecord
280
     1
102
RTVSPost2010Prop28
280
     0
102
RTVSPost2010PropOp28
 70
     1
102
RTVSPost2010Prop29
280
     1
102
RTVSPost2010PropOp29
 70
     1
102
RTVSPost2010Prop30
280
     1
102
RTVSPost2010PropOp30
 70
     1
102
RTVSPost2010Prop31
280
     0
102
RTVSPost2010PropOp31
 70
     1
102
RTVSPost2010Prop32
280
     0
102
RTVSPost2010PropOp32
 70
     1
102
RTVSPost2010Prop33
280
     0
102
RTVSPost2010PropOp33
 70
     1
102
RTVSPost2010Prop34
280
     0
102
RTVSPost2010PropOp34
 70
     1
102
RTVSPost2010Prop35
280
     0
102
RTVSPost2010PropOp35
 70
     1
102
RTVSPost2010Prop36
280
     0
102
RTVSPost2010PropOp36
 70
     1
102
RTVSPost2010Prop37
 90
       50
102
RTVSPost2010PropOp37
 70
     1
102
RTVSPost2010Prop38
140
0.0
102
RTVSPost2010PropOp38
 70
     1
102
RTVSPost2010Prop39
140
1.0
102
RTVSPost2010PropOp39
 70
     1
102
RTVSPost2010Prop40
 90
        0
102
RTVSPost2010PropOp40
 70
     1
102
RTVSPost2010Prop41ColorIndex
 90
       18
102
RTVSPost2010Prop41ColorRGB
 90
        0
102
RTVSPost2010PropOp41
 70
     1
102
RTVSPost2010Prop42
 90
       50
102
RTVSPost2010PropOp42
 70
     1
102
RTVSPost2010Prop43
 90
        3
102
RTVSPost2010PropOp43
 70
     1
102
RTVSPost2010Prop44ColorIndex
 90
        5
102
RTVSPost2010Prop44ColorRGB
 90
      255
102
RTVSPost2010PropOp44
 70
     1
102
RTVSPost2010Prop45
280
     0
102
RTVSPost2010PropOp45
 70
     1
102
RTVSPost2010Prop46
 90
       50
102
RTVSPost2010PropOp46
 70
     1
102
RTVSPost2010Prop47
 90
       50
102
RTVSPost2010PropOp47
 70
     1
102
RTVSPost2010Prop48
 90
       50
102
RTVSPost2010PropOp48
 70
     1
102
RTVSPost2010Prop49
280
     0
102
RTVSPost2010PropOp49
 70
     1
102
RTVSPost2010Prop50
 90
       50
102
RTVSPost2010PropOp50
 70
     1
102
RTVSPost2010Prop51ColorIndex
 90
      256
102
RTVSPost2010Prop51ColorRGB
 90
-16777216
102
RTVSPost2010PropOp51
 70
     0
102
RTVSPost2010Prop52
140
1.0
102
RTVSPost2010PropOp52
 70
     0
102
RTVSPost2010Prop53
 90
        2
102
RTVSPost2010PropOp53
 70
     1
102
RTVSPost2010Prop54
  1
strokes_ogs.tif
102
RTVSPost2010PropOp54
 70
     1
102
RTVSPost2010Prop55
280
     0
102
RTVSPost2010PropOp55
 70
     1
102
RTVSPost2010Prop56
140
1.0
102
RTVSPost2010PropOp56
 70
     1
102
RTVSPost2010Prop57
140
1.0
102
RTVSPost2010PropOp57
 70
     1
102
RTVSPropertyOp0
 70
     1
102
RTVSPropertyOp1
 70
     1
102
RTVSPropertyOp2
 70
     1
102
RTVSPropertyOp3
 70
     1
102
RTVSPropertyOp4
 70
     1
102
RTVSPropertyOp5
 70
     1
102
RTVSPropertyOp6
 70
     1
102
RTVSPropertyOp7
 70
     1
102
RTVSPropertyOp8
 70
     1
102
RTVSPropertyOp9
 70
     1
102
RTVSPropertyOp10
 70
     1
102
RTVSPropertyOp11
 70
     1
102
RTVSPropertyOp12
 70
     1
102
RTVSPropertyOp13
 70
     1
102
RTVSPropertyOp14
 70
     1
102
RTVSPropertyOp15
 70
     1
102
RTVSPropertyOp16
 70
     1
102
RTVSPropertyOp17
 70
     1
102
RTVSPropertyOp18
 70
     1
102
RTVSPropertyOp19
 70
     1
102
RTVSPropertyOp20
 70
     1
102
RTVSPropertyOp21
 70
     1
102
RTVSPropertyOp22
 70
     1
102
RTVSPropertyOp23
 70
     1
102
RTVSPropertyOp24
 70
     1
102
RTVSPropertyOp25
 70
     1
102
RTVSPropertyOp26
 70
     1
102
RTVSPropertyOp27
 70
     1
102
RTVSPropertyOp28
 70
     1
102
RTVSPropertyOp29
 70
     1
102
RTVSPropertyOp30
 70
     1
102
RTVSPropertyOp31
 70
     1
102
RTVSPropertyOp32
 70
     1
102
RTVSPropertyOp33
 70
     1
102
RTVSPropertyOp34
 70
     1
102
RTVSPropertyOp35
 70
     1
102
RTVSPropertyOp36
 70
     1
102
RTVSPropertyOp37
 70
     1
102
RTVSPropertyOp38
 70
     1
102
RTVSPropertyOp39
 70
     1
102
RTVSPropertyOp40
 70
     1
102
RTVSPropertyOp41
 70
     1
102
RTVSPropertyOp42
 70
     1
102
RTVSPropertyOp43
 70
     1
102
RTVSPropertyOp44
 70
     1
102
RTVSPropertyOp45
 70
     1
102
RTVSPropertyOp46
 70
     1
102
RTVSPropertyOp47
 70
     1
102
RTVSPropertyOp48
 70
     1
102
RTVSPropertyOp49
 70
     1
102
RTVSPropertyOp50
 70
     1
102
RTVSPropertyOp51
 70
     0
102
RTVSPropertyOp52
 70
     0
102
RTVSPropertyOp53
 70
     1
102
RTVSPropertyOp54
 70
     1
102
RTVSPropertyOp55
 70
     1
102
RTVSPropertyOp56
 70
     1
102
RTVSPropertyOp57
 70
     1
102
RTVSPropertyOp58
 70
     1
102
RTVSPropertyOp59
 70
     1
102
RTVSPropertyOp60
 70
     1
102
RTVSPropertyOp61
 70
     1
102
RTVSPropertyOp62
 70
     1
  0
XRECORD
  5
8699
102
{ACAD_REACTORS
330
8698
102
}
330
8698
100
AcDbXrecord
280
     1
102
RTVSPost2010Prop28
280
     0
102
RTVSPost2010PropOp28
 70
     0
102
RTVSPost2010Prop29
280
     1
102
RTVSPost2010PropOp29
 70
     0
102
RTVSPost2010Prop30
280
     1
102
RTVSPost2010PropOp30
 70
     0
102
RTVSPost2010Prop31
280
     0
102
RTVSPost2010PropOp31
 70
     0
102
RTVSPost2010Prop32
280
     0
102
RTVSPost2010PropOp32
 70
     0
102
RTVSPost2010Prop33
280
     0
102
RTVSPost2010PropOp33
 70
     0
102
RTVSPost2010Prop34
280
     0
102
RTVSPost2010PropOp34
 70
     0
102
RTVSPost2010Prop35
280
     0
102
RTVSPost2010PropOp35
 70
     0
102
RTVSPost2010Prop36
280
     0
102
RTVSPost2010PropOp36
 70
     0
102
RTVSPost2010Prop37
 90
       50
102
RTVSPost2010PropOp37
 70
     0
102
RTVSPost2010Prop38
140
0.0
102
RTVSPost2010PropOp38
 70
     0
102
RTVSPost2010Prop39
140
1.0
102
RTVSPost2010PropOp39
 70
     0
102
RTVSPost2010Prop40
 90
        0
102
RTVSPost2010PropOp40
 70
     0
102
RTVSPost2010Prop41ColorIndex
 90
       18
102
RTVSPost2010Prop41ColorRGB
 90
        0
102
RTVSPost2010PropOp41
 70
     0
102
RTVSPost2010Prop42
 90
       50
102
RTVSPost2010PropOp42
 70
     0
102
RTVSPost2010Prop43
 90
        3
102
RTVSPost2010PropOp43
 70
     0
102
RTVSPost2010Prop44ColorIndex
 90
        5
102
RTVSPost2010Prop44ColorRGB
 90
      255
102
RTVSPost2010PropOp44
 70
     0
102
RTVSPost2010Prop45
280
     0
102
RTVSPost2010PropOp45
 70
     0
102
RTVSPost2010Prop46
 90
       50
102
RTVSPost2010PropOp46
 70
     0
102
RTVSPost2010Prop47
 90
       50
102
RTVSPost2010PropOp47
 70
     0
102
RTVSPost2010Prop48
 90
       50
102
RTVSPost2010PropOp48
 70
     0
102
RTVSPost2010Prop49
280
     0
102
RTVSPost2010PropOp49
 70
     0
102
RTVSPost2010Prop50
 90
       50
102
RTVSPost2010PropOp50
 70
     0
102
RTVSPost2010Prop51ColorIndex
 90
      256
102
RTVSPost2010Prop51ColorRGB
 90
-16777216
102
RTVSPost2010PropOp51
 70
     0
102
RTVSPost2010Prop52
140
1.0
102
RTVSPost2010PropOp52
 70
     0
102
RTVSPost2010Prop53
 90
        2
102
RTVSPost2010PropOp53
 70
     0
102
RTVSPost2010Prop54
  1
strokes_ogs.tif
102
RTVSPost2010PropOp54
 70
     0
102
RTVSPost2010Prop55
280
     0
102
RTVSPost2010PropOp55
 70
     0
102
RTVSPost2010Prop56
140
1.0
102
RTVSPost2010PropOp56
 70
     0
102
RTVSPost2010Prop57
140
1.0
102
RTVSPost2010PropOp57
 70
     0
102
RTVSPropertyOp0
 70
     0
102
RTVSPropertyOp1
 70
     0
102
RTVSPropertyOp2
 70
     0
102
RTVSPropertyOp3
 70
     0
102
RTVSPropertyOp4
 70
     0
102
RTVSPropertyOp5
 70
     0
102
RTVSPropertyOp6
 70
     0
102
RTVSPropertyOp7
 70
     0
102
RTVSPropertyOp8
 70
     0
102
RTVSPropertyOp9
 70
     0
102
RTVSPropertyOp10
 70
     0
102
RTVSPropertyOp11
 70
     0
102
RTVSPropertyOp12
 70
     0
102
RTVSPropertyOp13
 70
     0
102
RTVSPropertyOp14
 70
     2
102
RTVSPropertyOp15
 70
     0
102
RTVSPropertyOp16
 70
     0
102
RTVSPropertyOp17
 70
     0
102
RTVSPropertyOp18
 70
     0
102
RTVSPropertyOp19
 70
     0
102
RTVSPropertyOp20
 70
     0
102
RTVSPropertyOp21
 70
     0
102
RTVSPropertyOp22
 70
     0
102
RTVSPropertyOp23
 70
     0
102
RTVSPropertyOp24
 70
     0
102
RTVSPropertyOp25
 70
     0
102
RTVSPropertyOp26
 70
     0
102
RTVSPropertyOp27
 70
     0
102
RTVSPropertyOp28
 70
     0
102
RTVSPropertyOp29
 70
     0
102
RTVSPropertyOp30
 70
     0
102
RTVSPropertyOp31
 70
     0
102
RTVSPropertyOp32
 70
     0
102
RTVSPropertyOp33
 70
     0
102
RTVSPropertyOp34
 70
     0
102
RTVSPropertyOp35
 70
     0
102
RTVSPropertyOp36
 70
     0
102
RTVSPropertyOp37
 70
     0
102
RTVSPropertyOp38
 70
     0
102
RTVSPropertyOp39
 70
     0
102
RTVSPropertyOp40
 70
     0
102
RTVSPropertyOp41
 70
     0
102
RTVSPropertyOp42
 70
     0
102
RTVSPropertyOp43
 70
     0
102
RTVSPropertyOp44
 70
     0
102
RTVSPropertyOp45
 70
     0
102
RTVSPropertyOp46
 70
     0
102
RTVSPropertyOp47
 70
     0
102
RTVSPropertyOp48
 70
     0
102
RTVSPropertyOp49
 70
     0
102
RTVSPropertyOp50
 70
     0
102
RTVSPropertyOp51
 70
     0
102
RTVSPropertyOp52
 70
     0
102
RTVSPropertyOp53
 70
     0
102
RTVSPropertyOp54
 70
     0
102
RTVSPropertyOp55
 70
     0
102
RTVSPropertyOp56
 70
     0
102
RTVSPropertyOp57
 70
     0
102
RTVSPropertyOp58
 70
     1
102
RTVSPropertyOp59
 70
     1
102
RTVSPropertyOp60
 70
     1
102
RTVSPropertyOp61
 70
     1
102
RTVSPropertyOp62
 70
     1
  0
XRECORD
  5
867F
102
{ACAD_REACTORS
330
867E
102
}
330
867E
100
AcDbXrecord
280
     1
102
RTVSPost2010Prop28
280
     0
102
RTVSPost2010PropOp28
 70
     1
102
RTVSPost2010Prop29
280
     1
102
RTVSPost2010PropOp29
 70
     1
102
RTVSPost2010Prop30
280
     1
102
RTVSPost2010PropOp30
 70
     1
102
RTVSPost2010Prop31
280
     0
102
RTVSPost2010PropOp31
 70
     1
102
RTVSPost2010Prop32
280
     0
102
RTVSPost2010PropOp32
 70
     1
102
RTVSPost2010Prop33
280
     0
102
RTVSPost2010PropOp33
 70
     1
102
RTVSPost2010Prop34
280
     0
102
RTVSPost2010PropOp34
 70
     1
102
RTVSPost2010Prop35
280
     0
102
RTVSPost2010PropOp35
 70
     1
102
RTVSPost2010Prop36
280
     0
102
RTVSPost2010PropOp36
 70
     1
102
RTVSPost2010Prop37
 90
       50
102
RTVSPost2010PropOp37
 70
     1
102
RTVSPost2010Prop38
140
0.0
102
RTVSPost2010PropOp38
 70
     1
102
RTVSPost2010Prop39
140
1.0
102
RTVSPost2010PropOp39
 70
     1
102
RTVSPost2010Prop40
 90
        0
102
RTVSPost2010PropOp40
 70
     1
102
RTVSPost2010Prop41ColorIndex
 90
       18
102
RTVSPost2010Prop41ColorRGB
 90
        0
102
RTVSPost2010PropOp41
 70
     1
102
RTVSPost2010Prop42
 90
       50
102
RTVSPost2010PropOp42
 70
     1
102
RTVSPost2010Prop43
 90
        3
102
RTVSPost2010PropOp43
 70
     1
102
RTVSPost2010Prop44ColorIndex
 90
        5
102
RTVSPost2010Prop44ColorRGB
 90
      255
102
RTVSPost2010PropOp44
 70
     1
102
RTVSPost2010Prop45
280
     0
102
RTVSPost2010PropOp45
 70
     1
102
RTVSPost2010Prop46
 90
       50
102
RTVSPost2010PropOp46
 70
     1
102
RTVSPost2010Prop47
 90
       50
102
RTVSPost2010PropOp47
 70
     1
102
RTVSPost2010Prop48
 90
       50
102
RTVSPost2010PropOp48
 70
     1
102
RTVSPost2010Prop49
280
     0
102
RTVSPost2010PropOp49
 70
     1
102
RTVSPost2010Prop50
 90
       50
102
RTVSPost2010PropOp50
 70
     1
102
RTVSPost2010Prop51ColorIndex
 90
      256
102
RTVSPost2010Prop51ColorRGB
 90
-16777216
102
RTVSPost2010PropOp51
 70
     0
102
RTVSPost2010Prop52
140
1.0
102
RTVSPost2010PropOp52
 70
     0
102
RTVSPost2010Prop53
 90
        2
102
RTVSPost2010PropOp53
 70
     1
102
RTVSPost2010Prop54
  1
strokes_ogs.tif
102
RTVSPost2010PropOp54
 70
     1
102
RTVSPost2010Prop55
280
     0
102
RTVSPost2010PropOp55
 70
     1
102
RTVSPost2010Prop56
140
1.0
102
RTVSPost2010PropOp56
 70
     1
102
RTVSPost2010Prop57
140
1.0
102
RTVSPost2010PropOp57
 70
     1
102
RTVSPropertyOp0
 70
     1
102
RTVSPropertyOp1
 70
     1
102
RTVSPropertyOp2
 70
     1
102
RTVSPropertyOp3
 70
     1
102
RTVSPropertyOp4
 70
     1
102
RTVSPropertyOp5
 70
     1
102
RTVSPropertyOp6
 70
     1
102
RTVSPropertyOp7
 70
     1
102
RTVSPropertyOp8
 70
     1
102
RTVSPropertyOp9
 70
     1
102
RTVSPropertyOp10
 70
     1
102
RTVSPropertyOp11
 70
     1
102
RTVSPropertyOp12
 70
     1
102
RTVSPropertyOp13
 70
     1
102
RTVSPropertyOp14
 70
     1
102
RTVSPropertyOp15
 70
     1
102
RTVSPropertyOp16
 70
     1
102
RTVSPropertyOp17
 70
     1
102
RTVSPropertyOp18
 70
     1
102
RTVSPropertyOp19
 70
     1
102
RTVSPropertyOp20
 70
     1
102
RTVSPropertyOp21
 70
     1
102
RTVSPropertyOp22
 70
     1
102
RTVSPropertyOp23
 70
     1
102
RTVSPropertyOp24
 70
     1
102
RTVSPropertyOp25
 70
     1
102
RTVSPropertyOp26
 70
     1
102
RTVSPropertyOp27
 70
     1
102
RTVSPropertyOp28
 70
     1
102
RTVSPropertyOp29
 70
     1
102
RTVSPropertyOp30
 70
     1
102
RTVSPropertyOp31
 70
     1
102
RTVSPropertyOp32
 70
     1
102
RTVSPropertyOp33
 70
     1
102
RTVSPropertyOp34
 70
     1
102
RTVSPropertyOp35
 70
     1
102
RTVSPropertyOp36
 70
     1
102
RTVSPropertyOp37
 70
     1
102
RTVSPropertyOp38
 70
     1
102
RTVSPropertyOp39
 70
     1
102
RTVSPropertyOp40
 70
     1
102
RTVSPropertyOp41
 70
     1
102
RTVSPropertyOp42
 70
     1
102
RTVSPropertyOp43
 70
     1
102
RTVSPropertyOp44
 70
     1
102
RTVSPropertyOp45
 70
     1
102
RTVSPropertyOp46
 70
     1
102
RTVSPropertyOp47
 70
     1
102
RTVSPropertyOp48
 70
     1
102
RTVSPropertyOp49
 70
     1
102
RTVSPropertyOp50
 70
     1
102
RTVSPropertyOp51
 70
     0
102
RTVSPropertyOp52
 70
     0
102
RTVSPropertyOp53
 70
     1
102
RTVSPropertyOp54
 70
     1
102
RTVSPropertyOp55
 70
     1
102
RTVSPropertyOp56
 70
     1
102
RTVSPropertyOp57
 70
     1
102
RTVSPropertyOp58
 70
     1
102
RTVSPropertyOp59
 70
     1
102
RTVSPropertyOp60
 70
     1
102
RTVSPropertyOp61
 70
     1
102
RTVSPropertyOp62
 70
     1
  0
XRECORD
  5
8695
102
{ACAD_REACTORS
330
8694
102
}
330
8694
100
AcDbXrecord
280
     1
102
RTVSPost2010Prop28
280
     0
102
RTVSPost2010PropOp28
 70
     1
102
RTVSPost2010Prop29
280
     1
102
RTVSPost2010PropOp29
 70
     1
102
RTVSPost2010Prop30
280
     1
102
RTVSPost2010PropOp30
 70
     1
102
RTVSPost2010Prop31
280
     0
102
RTVSPost2010PropOp31
 70
     1
102
RTVSPost2010Prop32
280
     0
102
RTVSPost2010PropOp32
 70
     1
102
RTVSPost2010Prop33
280
     0
102
RTVSPost2010PropOp33
 70
     1
102
RTVSPost2010Prop34
280
     0
102
RTVSPost2010PropOp34
 70
     1
102
RTVSPost2010Prop35
280
     0
102
RTVSPost2010PropOp35
 70
     1
102
RTVSPost2010Prop36
280
     0
102
RTVSPost2010PropOp36
 70
     1
102
RTVSPost2010Prop37
 90
       50
102
RTVSPost2010PropOp37
 70
     1
102
RTVSPost2010Prop38
140
0.0
102
RTVSPost2010PropOp38
 70
     1
102
RTVSPost2010Prop39
140
1.0
102
RTVSPost2010PropOp39
 70
     1
102
RTVSPost2010Prop40
 90
        0
102
RTVSPost2010PropOp40
 70
     1
102
RTVSPost2010Prop41ColorIndex
 90
       18
102
RTVSPost2010Prop41ColorRGB
 90
        0
102
RTVSPost2010PropOp41
 70
     1
102
RTVSPost2010Prop42
 90
       50
102
RTVSPost2010PropOp42
 70
     1
102
RTVSPost2010Prop43
 90
        3
102
RTVSPost2010PropOp43
 70
     1
102
RTVSPost2010Prop44ColorIndex
 90
        5
102
RTVSPost2010Prop44ColorRGB
 90
      255
102
RTVSPost2010PropOp44
 70
     1
102
RTVSPost2010Prop45
280
     0
102
RTVSPost2010PropOp45
 70
     1
102
RTVSPost2010Prop46
 90
       50
102
RTVSPost2010PropOp46
 70
     1
102
RTVSPost2010Prop47
 90
       50
102
RTVSPost2010PropOp47
 70
     1
102
RTVSPost2010Prop48
 90
       50
102
RTVSPost2010PropOp48
 70
     1
102
RTVSPost2010Prop49
280
     0
102
RTVSPost2010PropOp49
 70
     1
102
RTVSPost2010Prop50
 90
       50
102
RTVSPost2010PropOp50
 70
     1
102
RTVSPost2010Prop51ColorIndex
 90
      256
102
RTVSPost2010Prop51ColorRGB
 90
-16777216
102
RTVSPost2010PropOp51
 70
     0
102
RTVSPost2010Prop52
140
1.0
102
RTVSPost2010PropOp52
 70
     0
102
RTVSPost2010Prop53
 90
        2
102
RTVSPost2010PropOp53
 70
     1
102
RTVSPost2010Prop54
  1
strokes_ogs.tif
102
RTVSPost2010PropOp54
 70
     1
102
RTVSPost2010Prop55
280
     0
102
RTVSPost2010PropOp55
 70
     1
102
RTVSPost2010Prop56
140
1.0
102
RTVSPost2010PropOp56
 70
     1
102
RTVSPost2010Prop57
140
1.0
102
RTVSPost2010PropOp57
 70
     1
102
RTVSPropertyOp0
 70
     1
102
RTVSPropertyOp1
 70
     1
102
RTVSPropertyOp2
 70
     1
102
RTVSPropertyOp3
 70
     1
102
RTVSPropertyOp4
 70
     1
102
RTVSPropertyOp5
 70
     1
102
RTVSPropertyOp6
 70
     1
102
RTVSPropertyOp7
 70
     1
102
RTVSPropertyOp8
 70
     1
102
RTVSPropertyOp9
 70
     1
102
RTVSPropertyOp10
 70
     1
102
RTVSPropertyOp11
 70
     1
102
RTVSPropertyOp12
 70
     1
102
RTVSPropertyOp13
 70
     1
102
RTVSPropertyOp14
 70
     1
102
RTVSPropertyOp15
 70
     1
102
RTVSPropertyOp16
 70
     1
102
RTVSPropertyOp17
 70
     1
102
RTVSPropertyOp18
 70
     1
102
RTVSPropertyOp19
 70
     1
102
RTVSPropertyOp20
 70
     1
102
RTVSPropertyOp21
 70
     1
102
RTVSPropertyOp22
 70
     1
102
RTVSPropertyOp23
 70
     1
102
RTVSPropertyOp24
 70
     1
102
RTVSPropertyOp25
 70
     1
102
RTVSPropertyOp26
 70
     1
102
RTVSPropertyOp27
 70
     1
102
RTVSPropertyOp28
 70
     1
102
RTVSPropertyOp29
 70
     1
102
RTVSPropertyOp30
 70
     1
102
RTVSPropertyOp31
 70
     1
102
RTVSPropertyOp32
 70
     1
102
RTVSPropertyOp33
 70
     1
102
RTVSPropertyOp34
 70
     1
102
RTVSPropertyOp35
 70
     1
102
RTVSPropertyOp36
 70
     1
102
RTVSPropertyOp37
 70
     1
102
RTVSPropertyOp38
 70
     1
102
RTVSPropertyOp39
 70
     1
102
RTVSPropertyOp40
 70
     1
102
RTVSPropertyOp41
 70
     1
102
RTVSPropertyOp42
 70
     1
102
RTVSPropertyOp43
 70
     1
102
RTVSPropertyOp44
 70
     1
102
RTVSPropertyOp45
 70
     1
102
RTVSPropertyOp46
 70
     1
102
RTVSPropertyOp47
 70
     1
102
RTVSPropertyOp48
 70
     1
102
RTVSPropertyOp49
 70
     1
102
RTVSPropertyOp50
 70
     1
102
RTVSPropertyOp51
 70
     0
102
RTVSPropertyOp52
 70
     0
102
RTVSPropertyOp53
 70
     1
102
RTVSPropertyOp54
 70
     1
102
RTVSPropertyOp55
 70
     1
102
RTVSPropertyOp56
 70
     1
102
RTVSPropertyOp57
 70
     1
102
RTVSPropertyOp58
 70
     1
102
RTVSPropertyOp59
 70
     1
102
RTVSPropertyOp60
 70
     1
102
RTVSPropertyOp61
 70
     1
102
RTVSPropertyOp62
 70
     1
  0
XRECORD
  5
8693
102
{ACAD_REACTORS
330
8692
102
}
330
8692
100
AcDbXrecord
280
     1
102
RTVSPost2010Prop28
280
     0
102
RTVSPost2010PropOp28
 70
     1
102
RTVSPost2010Prop29
280
     1
102
RTVSPost2010PropOp29
 70
     1
102
RTVSPost2010Prop30
280
     1
102
RTVSPost2010PropOp30
 70
     1
102
RTVSPost2010Prop31
280
     0
102
RTVSPost2010PropOp31
 70
     1
102
RTVSPost2010Prop32
280
     0
102
RTVSPost2010PropOp32
 70
     1
102
RTVSPost2010Prop33
280
     0
102
RTVSPost2010PropOp33
 70
     1
102
RTVSPost2010Prop34
280
     0
102
RTVSPost2010PropOp34
 70
     1
102
RTVSPost2010Prop35
280
     0
102
RTVSPost2010PropOp35
 70
     1
102
RTVSPost2010Prop36
280
     0
102
RTVSPost2010PropOp36
 70
     1
102
RTVSPost2010Prop37
 90
       50
102
RTVSPost2010PropOp37
 70
     1
102
RTVSPost2010Prop38
140
0.0
102
RTVSPost2010PropOp38
 70
     1
102
RTVSPost2010Prop39
140
1.0
102
RTVSPost2010PropOp39
 70
     1
102
RTVSPost2010Prop40
 90
        0
102
RTVSPost2010PropOp40
 70
     1
102
RTVSPost2010Prop41ColorIndex
 90
       18
102
RTVSPost2010Prop41ColorRGB
 90
        0
102
RTVSPost2010PropOp41
 70
     1
102
RTVSPost2010Prop42
 90
       50
102
RTVSPost2010PropOp42
 70
     1
102
RTVSPost2010Prop43
 90
        3
102
RTVSPost2010PropOp43
 70
     1
102
RTVSPost2010Prop44ColorIndex
 90
        5
102
RTVSPost2010Prop44ColorRGB
 90
      255
102
RTVSPost2010PropOp44
 70
     1
102
RTVSPost2010Prop45
280
     0
102
RTVSPost2010PropOp45
 70
     1
102
RTVSPost2010Prop46
 90
       50
102
RTVSPost2010PropOp46
 70
     1
102
RTVSPost2010Prop47
 90
       50
102
RTVSPost2010PropOp47
 70
     1
102
RTVSPost2010Prop48
 90
       50
102
RTVSPost2010PropOp48
 70
     1
102
RTVSPost2010Prop49
280
     0
102
RTVSPost2010PropOp49
 70
     1
102
RTVSPost2010Prop50
 90
       50
102
RTVSPost2010PropOp50
 70
     1
102
RTVSPost2010Prop51ColorIndex
 90
      256
102
RTVSPost2010Prop51ColorRGB
 90
-16777216
102
RTVSPost2010PropOp51
 70
     0
102
RTVSPost2010Prop52
140
1.0
102
RTVSPost2010PropOp52
 70
     0
102
RTVSPost2010Prop53
 90
        2
102
RTVSPost2010PropOp53
 70
     1
102
RTVSPost2010Prop54
  1
strokes_ogs.tif
102
RTVSPost2010PropOp54
 70
     1
102
RTVSPost2010Prop55
280
     0
102
RTVSPost2010PropOp55
 70
     1
102
RTVSPost2010Prop56
140
1.0
102
RTVSPost2010PropOp56
 70
     1
102
RTVSPost2010Prop57
140
1.0
102
RTVSPost2010PropOp57
 70
     1
102
RTVSPropertyOp0
 70
     1
102
RTVSPropertyOp1
 70
     1
102
RTVSPropertyOp2
 70
     1
102
RTVSPropertyOp3
 70
     1
102
RTVSPropertyOp4
 70
     1
102
RTVSPropertyOp5
 70
     1
102
RTVSPropertyOp6
 70
     1
102
RTVSPropertyOp7
 70
     1
102
RTVSPropertyOp8
 70
     1
102
RTVSPropertyOp9
 70
     1
102
RTVSPropertyOp10
 70
     1
102
RTVSPropertyOp11
 70
     1
102
RTVSPropertyOp12
 70
     1
102
RTVSPropertyOp13
 70
     1
102
RTVSPropertyOp14
 70
     1
102
RTVSPropertyOp15
 70
     1
102
RTVSPropertyOp16
 70
     1
102
RTVSPropertyOp17
 70
     1
102
RTVSPropertyOp18
 70
     1
102
RTVSPropertyOp19
 70
     1
102
RTVSPropertyOp20
 70
     1
102
RTVSPropertyOp21
 70
     1
102
RTVSPropertyOp22
 70
     1
102
RTVSPropertyOp23
 70
     1
102
RTVSPropertyOp24
 70
     1
102
RTVSPropertyOp25
 70
     1
102
RTVSPropertyOp26
 70
     1
102
RTVSPropertyOp27
 70
     1
102
RTVSPropertyOp28
 70
     1
102
RTVSPropertyOp29
 70
     1
102
RTVSPropertyOp30
 70
     1
102
RTVSPropertyOp31
 70
     1
102
RTVSPropertyOp32
 70
     1
102
RTVSPropertyOp33
 70
     1
102
RTVSPropertyOp34
 70
     1
102
RTVSPropertyOp35
 70
     1
102
RTVSPropertyOp36
 70
     1
102
RTVSPropertyOp37
 70
     1
102
RTVSPropertyOp38
 70
     1
102
RTVSPropertyOp39
 70
     1
102
RTVSPropertyOp40
 70
     1
102
RTVSPropertyOp41
 70
     1
102
RTVSPropertyOp42
 70
     1
102
RTVSPropertyOp43
 70
     1
102
RTVSPropertyOp44
 70
     1
102
RTVSPropertyOp45
 70
     1
102
RTVSPropertyOp46
 70
     1
102
RTVSPropertyOp47
 70
     1
102
RTVSPropertyOp48
 70
     1
102
RTVSPropertyOp49
 70
     1
102
RTVSPropertyOp50
 70
     1
102
RTVSPropertyOp51
 70
     0
102
RTVSPropertyOp52
 70
     0
102
RTVSPropertyOp53
 70
     1
102
RTVSPropertyOp54
 70
     1
102
RTVSPropertyOp55
 70
     1
102
RTVSPropertyOp56
 70
     1
102
RTVSPropertyOp57
 70
     1
102
RTVSPropertyOp58
 70
     1
102
RTVSPropertyOp59
 70
     1
102
RTVSPropertyOp60
 70
     1
102
RTVSPropertyOp61
 70
     1
102
RTVSPropertyOp62
 70
     1
  0
XRECORD
  5
868D
102
{ACAD_REACTORS
330
868C
102
}
330
868C
100
AcDbXrecord
280
     1
102
RTVSPost2010Prop28
280
     0
102
RTVSPost2010PropOp28
 70
     1
102
RTVSPost2010Prop29
280
     1
102
RTVSPost2010PropOp29
 70
     1
102
RTVSPost2010Prop30
280
     1
102
RTVSPost2010PropOp30
 70
     1
102
RTVSPost2010Prop31
280
     0
102
RTVSPost2010PropOp31
 70
     1
102
RTVSPost2010Prop32
280
     0
102
RTVSPost2010PropOp32
 70
     1
102
RTVSPost2010Prop33
280
     0
102
RTVSPost2010PropOp33
 70
     1
102
RTVSPost2010Prop34
280
     0
102
RTVSPost2010PropOp34
 70
     1
102
RTVSPost2010Prop35
280
     0
102
RTVSPost2010PropOp35
 70
     1
102
RTVSPost2010Prop36
280
     0
102
RTVSPost2010PropOp36
 70
     1
102
RTVSPost2010Prop37
 90
       50
102
RTVSPost2010PropOp37
 70
     1
102
RTVSPost2010Prop38
140
0.0
102
RTVSPost2010PropOp38
 70
     1
102
RTVSPost2010Prop39
140
1.0
102
RTVSPost2010PropOp39
 70
     1
102
RTVSPost2010Prop40
 90
        0
102
RTVSPost2010PropOp40
 70
     1
102
RTVSPost2010Prop41ColorIndex
 90
       18
102
RTVSPost2010Prop41ColorRGB
 90
        0
102
RTVSPost2010PropOp41
 70
     1
102
RTVSPost2010Prop42
 90
       50
102
RTVSPost2010PropOp42
 70
     1
102
RTVSPost2010Prop43
 90
        3
102
RTVSPost2010PropOp43
 70
     1
102
RTVSPost2010Prop44ColorIndex
 90
        5
102
RTVSPost2010Prop44ColorRGB
 90
      255
102
RTVSPost2010PropOp44
 70
     1
102
RTVSPost2010Prop45
280
     0
102
RTVSPost2010PropOp45
 70
     1
102
RTVSPost2010Prop46
 90
       50
102
RTVSPost2010PropOp46
 70
     1
102
RTVSPost2010Prop47
 90
       50
102
RTVSPost2010PropOp47
 70
     1
102
RTVSPost2010Prop48
 90
       50
102
RTVSPost2010PropOp48
 70
     1
102
RTVSPost2010Prop49
280
     0
102
RTVSPost2010PropOp49
 70
     1
102
RTVSPost2010Prop50
 90
       50
102
RTVSPost2010PropOp50
 70
     1
102
RTVSPost2010Prop51ColorIndex
 90
      256
102
RTVSPost2010Prop51ColorRGB
 90
-16777216
102
RTVSPost2010PropOp51
 70
     0
102
RTVSPost2010Prop52
140
1.0
102
RTVSPost2010PropOp52
 70
     0
102
RTVSPost2010Prop53
 90
        2
102
RTVSPost2010PropOp53
 70
     1
102
RTVSPost2010Prop54
  1
strokes_ogs.tif
102
RTVSPost2010PropOp54
 70
     1
102
RTVSPost2010Prop55
280
     0
102
RTVSPost2010PropOp55
 70
     1
102
RTVSPost2010Prop56
140
1.0
102
RTVSPost2010PropOp56
 70
     1
102
RTVSPost2010Prop57
140
1.0
102
RTVSPost2010PropOp57
 70
     1
102
RTVSPropertyOp0
 70
     1
102
RTVSPropertyOp1
 70
     1
102
RTVSPropertyOp2
 70
     1
102
RTVSPropertyOp3
 70
     1
102
RTVSPropertyOp4
 70
     1
102
RTVSPropertyOp5
 70
     1
102
RTVSPropertyOp6
 70
     1
102
RTVSPropertyOp7
 70
     1
102
RTVSPropertyOp8
 70
     1
102
RTVSPropertyOp9
 70
     1
102
RTVSPropertyOp10
 70
     1
102
RTVSPropertyOp11
 70
     1
102
RTVSPropertyOp12
 70
     1
102
RTVSPropertyOp13
 70
     1
102
RTVSPropertyOp14
 70
     1
102
RTVSPropertyOp15
 70
     1
102
RTVSPropertyOp16
 70
     1
102
RTVSPropertyOp17
 70
     1
102
RTVSPropertyOp18
 70
     1
102
RTVSPropertyOp19
 70
     1
102
RTVSPropertyOp20
 70
     1
102
RTVSPropertyOp21
 70
     1
102
RTVSPropertyOp22
 70
     1
102
RTVSPropertyOp23
 70
     1
102
RTVSPropertyOp24
 70
     1
102
RTVSPropertyOp25
 70
     1
102
RTVSPropertyOp26
 70
     1
102
RTVSPropertyOp27
 70
     1
102
RTVSPropertyOp28
 70
     1
102
RTVSPropertyOp29
 70
     1
102
RTVSPropertyOp30
 70
     1
102
RTVSPropertyOp31
 70
     1
102
RTVSPropertyOp32
 70
     1
102
RTVSPropertyOp33
 70
     1
102
RTVSPropertyOp34
 70
     1
102
RTVSPropertyOp35
 70
     1
102
RTVSPropertyOp36
 70
     1
102
RTVSPropertyOp37
 70
     1
102
RTVSPropertyOp38
 70
     1
102
RTVSPropertyOp39
 70
     1
102
RTVSPropertyOp40
 70
     1
102
RTVSPropertyOp41
 70
     1
102
RTVSPropertyOp42
 70
     1
102
RTVSPropertyOp43
 70
     1
102
RTVSPropertyOp44
 70
     1
102
RTVSPropertyOp45
 70
     1
102
RTVSPropertyOp46
 70
     1
102
RTVSPropertyOp47
 70
     1
102
RTVSPropertyOp48
 70
     1
102
RTVSPropertyOp49
 70
     1
102
RTVSPropertyOp50
 70
     1
102
RTVSPropertyOp51
 70
     0
102
RTVSPropertyOp52
 70
     0
102
RTVSPropertyOp53
 70
     1
102
RTVSPropertyOp54
 70
     1
102
RTVSPropertyOp55
 70
     1
102
RTVSPropertyOp56
 70
     1
102
RTVSPropertyOp57
 70
     1
102
RTVSPropertyOp58
 70
     1
102
RTVSPropertyOp59
 70
     1
102
RTVSPropertyOp60
 70
     1
102
RTVSPropertyOp61
 70
     1
102
RTVSPropertyOp62
 70
     1
  0
XRECORD
  5
868F
102
{ACAD_REACTORS
330
868E
102
}
330
868E
100
AcDbXrecord
280
     1
102
RTVSPost2010Prop28
280
     0
102
RTVSPost2010PropOp28
 70
     1
102
RTVSPost2010Prop29
280
     1
102
RTVSPost2010PropOp29
 70
     1
102
RTVSPost2010Prop30
280
     1
102
RTVSPost2010PropOp30
 70
     1
102
RTVSPost2010Prop31
280
     0
102
RTVSPost2010PropOp31
 70
     1
102
RTVSPost2010Prop32
280
     0
102
RTVSPost2010PropOp32
 70
     1
102
RTVSPost2010Prop33
280
     0
102
RTVSPost2010PropOp33
 70
     1
102
RTVSPost2010Prop34
280
     0
102
RTVSPost2010PropOp34
 70
     1
102
RTVSPost2010Prop35
280
     0
102
RTVSPost2010PropOp35
 70
     1
102
RTVSPost2010Prop36
280
     0
102
RTVSPost2010PropOp36
 70
     1
102
RTVSPost2010Prop37
 90
       50
102
RTVSPost2010PropOp37
 70
     1
102
RTVSPost2010Prop38
140
0.0
102
RTVSPost2010PropOp38
 70
     1
102
RTVSPost2010Prop39
140
1.0
102
RTVSPost2010PropOp39
 70
     1
102
RTVSPost2010Prop40
 90
        0
102
RTVSPost2010PropOp40
 70
     1
102
RTVSPost2010Prop41ColorIndex
 90
       18
102
RTVSPost2010Prop41ColorRGB
 90
        0
102
RTVSPost2010PropOp41
 70
     1
102
RTVSPost2010Prop42
 90
       50
102
RTVSPost2010PropOp42
 70
     1
102
RTVSPost2010Prop43
 90
        3
102
RTVSPost2010PropOp43
 70
     1
102
RTVSPost2010Prop44ColorIndex
 90
        5
102
RTVSPost2010Prop44ColorRGB
 90
      255
102
RTVSPost2010PropOp44
 70
     1
102
RTVSPost2010Prop45
280
     0
102
RTVSPost2010PropOp45
 70
     1
102
RTVSPost2010Prop46
 90
       50
102
RTVSPost2010PropOp46
 70
     1
102
RTVSPost2010Prop47
 90
       50
102
RTVSPost2010PropOp47
 70
     1
102
RTVSPost2010Prop48
 90
       50
102
RTVSPost2010PropOp48
 70
     1
102
RTVSPost2010Prop49
280
     0
102
RTVSPost2010PropOp49
 70
     1
102
RTVSPost2010Prop50
 90
       50
102
RTVSPost2010PropOp50
 70
     1
102
RTVSPost2010Prop51ColorIndex
 90
      256
102
RTVSPost2010Prop51ColorRGB
 90
-16777216
102
RTVSPost2010PropOp51
 70
     0
102
RTVSPost2010Prop52
140
1.0
102
RTVSPost2010PropOp52
 70
     0
102
RTVSPost2010Prop53
 90
        2
102
RTVSPost2010PropOp53
 70
     1
102
RTVSPost2010Prop54
  1
strokes_ogs.tif
102
RTVSPost2010PropOp54
 70
     1
102
RTVSPost2010Prop55
280
     0
102
RTVSPost2010PropOp55
 70
     1
102
RTVSPost2010Prop56
140
1.0
102
RTVSPost2010PropOp56
 70
     1
102
RTVSPost2010Prop57
140
1.0
102
RTVSPost2010PropOp57
 70
     1
102
RTVSPropertyOp0
 70
     1
102
RTVSPropertyOp1
 70
     1
102
RTVSPropertyOp2
 70
     1
102
RTVSPropertyOp3
 70
     1
102
RTVSPropertyOp4
 70
     1
102
RTVSPropertyOp5
 70
     1
102
RTVSPropertyOp6
 70
     1
102
RTVSPropertyOp7
 70
     1
102
RTVSPropertyOp8
 70
     1
102
RTVSPropertyOp9
 70
     1
102
RTVSPropertyOp10
 70
     1
102
RTVSPropertyOp11
 70
     1
102
RTVSPropertyOp12
 70
     1
102
RTVSPropertyOp13
 70
     1
102
RTVSPropertyOp14
 70
     1
102
RTVSPropertyOp15
 70
     1
102
RTVSPropertyOp16
 70
     1
102
RTVSPropertyOp17
 70
     1
102
RTVSPropertyOp18
 70
     1
102
RTVSPropertyOp19
 70
     1
102
RTVSPropertyOp20
 70
     1
102
RTVSPropertyOp21
 70
     1
102
RTVSPropertyOp22
 70
     1
102
RTVSPropertyOp23
 70
     1
102
RTVSPropertyOp24
 70
     1
102
RTVSPropertyOp25
 70
     1
102
RTVSPropertyOp26
 70
     1
102
RTVSPropertyOp27
 70
     1
102
RTVSPropertyOp28
 70
     1
102
RTVSPropertyOp29
 70
     1
102
RTVSPropertyOp30
 70
     1
102
RTVSPropertyOp31
 70
     1
102
RTVSPropertyOp32
 70
     1
102
RTVSPropertyOp33
 70
     1
102
RTVSPropertyOp34
 70
     1
102
RTVSPropertyOp35
 70
     1
102
RTVSPropertyOp36
 70
     1
102
RTVSPropertyOp37
 70
     1
102
RTVSPropertyOp38
 70
     1
102
RTVSPropertyOp39
 70
     1
102
RTVSPropertyOp40
 70
     1
102
RTVSPropertyOp41
 70
     1
102
RTVSPropertyOp42
 70
     1
102
RTVSPropertyOp43
 70
     1
102
RTVSPropertyOp44
 70
     1
102
RTVSPropertyOp45
 70
     1
102
RTVSPropertyOp46
 70
     1
102
RTVSPropertyOp47
 70
     1
102
RTVSPropertyOp48
 70
     1
102
RTVSPropertyOp49
 70
     1
102
RTVSPropertyOp50
 70
     1
102
RTVSPropertyOp51
 70
     0
102
RTVSPropertyOp52
 70
     0
102
RTVSPropertyOp53
 70
     1
102
RTVSPropertyOp54
 70
     1
102
RTVSPropertyOp55
 70
     1
102
RTVSPropertyOp56
 70
     1
102
RTVSPropertyOp57
 70
     1
102
RTVSPropertyOp58
 70
     1
102
RTVSPropertyOp59
 70
     1
102
RTVSPropertyOp60
 70
     1
102
RTVSPropertyOp61
 70
     1
102
RTVSPropertyOp62
 70
     1
  0
XRECORD
  5
8685
102
{ACAD_REACTORS
330
8684
102
}
330
8684
100
AcDbXrecord
280
     1
102
RTVSPost2010Prop28
280
     0
102
RTVSPost2010PropOp28
 70
     1
102
RTVSPost2010Prop29
280
     1
102
RTVSPost2010PropOp29
 70
     1
102
RTVSPost2010Prop30
280
     1
102
RTVSPost2010PropOp30
 70
     1
102
RTVSPost2010Prop31
280
     0
102
RTVSPost2010PropOp31
 70
     1
102
RTVSPost2010Prop32
280
     0
102
RTVSPost2010PropOp32
 70
     1
102
RTVSPost2010Prop33
280
     0
102
RTVSPost2010PropOp33
 70
     1
102
RTVSPost2010Prop34
280
     0
102
RTVSPost2010PropOp34
 70
     1
102
RTVSPost2010Prop35
280
     0
102
RTVSPost2010PropOp35
 70
     1
102
RTVSPost2010Prop36
280
     0
102
RTVSPost2010PropOp36
 70
     1
102
RTVSPost2010Prop37
 90
       50
102
RTVSPost2010PropOp37
 70
     1
102
RTVSPost2010Prop38
140
0.0
102
RTVSPost2010PropOp38
 70
     1
102
RTVSPost2010Prop39
140
1.0
102
RTVSPost2010PropOp39
 70
     1
102
RTVSPost2010Prop40
 90
        0
102
RTVSPost2010PropOp40
 70
     1
102
RTVSPost2010Prop41ColorIndex
 90
       18
102
RTVSPost2010Prop41ColorRGB
 90
        0
102
RTVSPost2010PropOp41
 70
     1
102
RTVSPost2010Prop42
 90
       50
102
RTVSPost2010PropOp42
 70
     1
102
RTVSPost2010Prop43
 90
        3
102
RTVSPost2010PropOp43
 70
     1
102
RTVSPost2010Prop44ColorIndex
 90
        5
102
RTVSPost2010Prop44ColorRGB
 90
      255
102
RTVSPost2010PropOp44
 70
     1
102
RTVSPost2010Prop45
280
     0
102
RTVSPost2010PropOp45
 70
     1
102
RTVSPost2010Prop46
 90
       50
102
RTVSPost2010PropOp46
 70
     1
102
RTVSPost2010Prop47
 90
       50
102
RTVSPost2010PropOp47
 70
     1
102
RTVSPost2010Prop48
 90
       50
102
RTVSPost2010PropOp48
 70
     1
102
RTVSPost2010Prop49
280
     0
102
RTVSPost2010PropOp49
 70
     1
102
RTVSPost2010Prop50
 90
       50
102
RTVSPost2010PropOp50
 70
     1
102
RTVSPost2010Prop51ColorIndex
 90
      256
102
RTVSPost2010Prop51ColorRGB
 90
-16777216
102
RTVSPost2010PropOp51
 70
     0
102
RTVSPost2010Prop52
140
1.0
102
RTVSPost2010PropOp52
 70
     0
102
RTVSPost2010Prop53
 90
        2
102
RTVSPost2010PropOp53
 70
     1
102
RTVSPost2010Prop54
  1
strokes_ogs.tif
102
RTVSPost2010PropOp54
 70
     1
102
RTVSPost2010Prop55
280
     0
102
RTVSPost2010PropOp55
 70
     1
102
RTVSPost2010Prop56
140
1.0
102
RTVSPost2010PropOp56
 70
     1
102
RTVSPost2010Prop57
140
1.0
102
RTVSPost2010PropOp57
 70
     1
102
RTVSPropertyOp0
 70
     1
102
RTVSPropertyOp1
 70
     1
102
RTVSPropertyOp2
 70
     1
102
RTVSPropertyOp3
 70
     1
102
RTVSPropertyOp4
 70
     1
102
RTVSPropertyOp5
 70
     1
102
RTVSPropertyOp6
 70
     1
102
RTVSPropertyOp7
 70
     1
102
RTVSPropertyOp8
 70
     1
102
RTVSPropertyOp9
 70
     1
102
RTVSPropertyOp10
 70
     1
102
RTVSPropertyOp11
 70
     1
102
RTVSPropertyOp12
 70
     1
102
RTVSPropertyOp13
 70
     1
102
RTVSPropertyOp14
 70
     1
102
RTVSPropertyOp15
 70
     1
102
RTVSPropertyOp16
 70
     1
102
RTVSPropertyOp17
 70
     1
102
RTVSPropertyOp18
 70
     1
102
RTVSPropertyOp19
 70
     1
102
RTVSPropertyOp20
 70
     1
102
RTVSPropertyOp21
 70
     1
102
RTVSPropertyOp22
 70
     1
102
RTVSPropertyOp23
 70
     1
102
RTVSPropertyOp24
 70
     1
102
RTVSPropertyOp25
 70
     1
102
RTVSPropertyOp26
 70
     1
102
RTVSPropertyOp27
 70
     1
102
RTVSPropertyOp28
 70
     1
102
RTVSPropertyOp29
 70
     1
102
RTVSPropertyOp30
 70
     1
102
RTVSPropertyOp31
 70
     1
102
RTVSPropertyOp32
 70
     1
102
RTVSPropertyOp33
 70
     1
102
RTVSPropertyOp34
 70
     1
102
RTVSPropertyOp35
 70
     1
102
RTVSPropertyOp36
 70
     1
102
RTVSPropertyOp37
 70
     1
102
RTVSPropertyOp38
 70
     1
102
RTVSPropertyOp39
 70
     1
102
RTVSPropertyOp40
 70
     1
102
RTVSPropertyOp41
 70
     1
102
RTVSPropertyOp42
 70
     1
102
RTVSPropertyOp43
 70
     1
102
RTVSPropertyOp44
 70
     1
102
RTVSPropertyOp45
 70
     1
102
RTVSPropertyOp46
 70
     1
102
RTVSPropertyOp47
 70
     1
102
RTVSPropertyOp48
 70
     1
102
RTVSPropertyOp49
 70
     1
102
RTVSPropertyOp50
 70
     1
102
RTVSPropertyOp51
 70
     0
102
RTVSPropertyOp52
 70
     0
102
RTVSPropertyOp53
 70
     1
102
RTVSPropertyOp54
 70
     1
102
RTVSPropertyOp55
 70
     1
102
RTVSPropertyOp56
 70
     1
102
RTVSPropertyOp57
 70
     1
102
RTVSPropertyOp58
 70
     1
102
RTVSPropertyOp59
 70
     1
102
RTVSPropertyOp60
 70
     1
102
RTVSPropertyOp61
 70
     1
102
RTVSPropertyOp62
 70
     1
  0
XRECORD
  5
8679
102
{ACAD_REACTORS
330
8678
102
}
330
8678
100
AcDbXrecord
280
     1
102
RTVSPost2010Prop28
280
     0
102
RTVSPost2010PropOp28
 70
     1
102
RTVSPost2010Prop29
280
     1
102
RTVSPost2010PropOp29
 70
     1
102
RTVSPost2010Prop30
280
     1
102
RTVSPost2010PropOp30
 70
     1
102
RTVSPost2010Prop31
280
     0
102
RTVSPost2010PropOp31
 70
     1
102
RTVSPost2010Prop32
280
     0
102
RTVSPost2010PropOp32
 70
     1
102
RTVSPost2010Prop33
280
     0
102
RTVSPost2010PropOp33
 70
     1
102
RTVSPost2010Prop34
280
     0
102
RTVSPost2010PropOp34
 70
     1
102
RTVSPost2010Prop35
280
     0
102
RTVSPost2010PropOp35
 70
     1
102
RTVSPost2010Prop36
280
     0
102
RTVSPost2010PropOp36
 70
     1
102
RTVSPost2010Prop37
 90
       50
102
RTVSPost2010PropOp37
 70
     1
102
RTVSPost2010Prop38
140
0.0
102
RTVSPost2010PropOp38
 70
     1
102
RTVSPost2010Prop39
140
1.0
102
RTVSPost2010PropOp39
 70
     1
102
RTVSPost2010Prop40
 90
        0
102
RTVSPost2010PropOp40
 70
     1
102
RTVSPost2010Prop41ColorIndex
 90
       18
102
RTVSPost2010Prop41ColorRGB
 90
        0
102
RTVSPost2010PropOp41
 70
     1
102
RTVSPost2010Prop42
 90
       50
102
RTVSPost2010PropOp42
 70
     1
102
RTVSPost2010Prop43
 90
        3
102
RTVSPost2010PropOp43
 70
     1
102
RTVSPost2010Prop44ColorIndex
 90
        5
102
RTVSPost2010Prop44ColorRGB
 90
      255
102
RTVSPost2010PropOp44
 70
     1
102
RTVSPost2010Prop45
280
     0
102
RTVSPost2010PropOp45
 70
     1
102
RTVSPost2010Prop46
 90
       50
102
RTVSPost2010PropOp46
 70
     1
102
RTVSPost2010Prop47
 90
       50
102
RTVSPost2010PropOp47
 70
     1
102
RTVSPost2010Prop48
 90
       50
102
RTVSPost2010PropOp48
 70
     1
102
RTVSPost2010Prop49
280
     0
102
RTVSPost2010PropOp49
 70
     1
102
RTVSPost2010Prop50
 90
       50
102
RTVSPost2010PropOp50
 70
     1
102
RTVSPost2010Prop51ColorIndex
 90
      256
102
RTVSPost2010Prop51ColorRGB
 90
-16777216
102
RTVSPost2010PropOp51
 70
     0
102
RTVSPost2010Prop52
140
1.0
102
RTVSPost2010PropOp52
 70
     0
102
RTVSPost2010Prop53
 90
        2
102
RTVSPost2010PropOp53
 70
     1
102
RTVSPost2010Prop54
  1
strokes_ogs.tif
102
RTVSPost2010PropOp54
 70
     1
102
RTVSPost2010Prop55
280
     0
102
RTVSPost2010PropOp55
 70
     1
102
RTVSPost2010Prop56
140
1.0
102
RTVSPost2010PropOp56
 70
     1
102
RTVSPost2010Prop57
140
1.0
102
RTVSPost2010PropOp57
 70
     1
102
RTVSPropertyOp0
 70
     1
102
RTVSPropertyOp1
 70
     1
102
RTVSPropertyOp2
 70
     1
102
RTVSPropertyOp3
 70
     1
102
RTVSPropertyOp4
 70
     1
102
RTVSPropertyOp5
 70
     1
102
RTVSPropertyOp6
 70
     1
102
RTVSPropertyOp7
 70
     1
102
RTVSPropertyOp8
 70
     1
102
RTVSPropertyOp9
 70
     1
102
RTVSPropertyOp10
 70
     1
102
RTVSPropertyOp11
 70
     1
102
RTVSPropertyOp12
 70
     1
102
RTVSPropertyOp13
 70
     1
102
RTVSPropertyOp14
 70
     1
102
RTVSPropertyOp15
 70
     1
102
RTVSPropertyOp16
 70
     1
102
RTVSPropertyOp17
 70
     1
102
RTVSPropertyOp18
 70
     1
102
RTVSPropertyOp19
 70
     1
102
RTVSPropertyOp20
 70
     1
102
RTVSPropertyOp21
 70
     1
102
RTVSPropertyOp22
 70
     1
102
RTVSPropertyOp23
 70
     1
102
RTVSPropertyOp24
 70
     1
102
RTVSPropertyOp25
 70
     1
102
RTVSPropertyOp26
 70
     1
102
RTVSPropertyOp27
 70
     1
102
RTVSPropertyOp28
 70
     1
102
RTVSPropertyOp29
 70
     1
102
RTVSPropertyOp30
 70
     1
102
RTVSPropertyOp31
 70
     1
102
RTVSPropertyOp32
 70
     1
102
RTVSPropertyOp33
 70
     1
102
RTVSPropertyOp34
 70
     1
102
RTVSPropertyOp35
 70
     1
102
RTVSPropertyOp36
 70
     1
102
RTVSPropertyOp37
 70
     1
102
RTVSPropertyOp38
 70
     1
102
RTVSPropertyOp39
 70
     1
102
RTVSPropertyOp40
 70
     1
102
RTVSPropertyOp41
 70
     1
102
RTVSPropertyOp42
 70
     1
102
RTVSPropertyOp43
 70
     1
102
RTVSPropertyOp44
 70
     1
102
RTVSPropertyOp45
 70
     1
102
RTVSPropertyOp46
 70
     1
102
RTVSPropertyOp47
 70
     1
102
RTVSPropertyOp48
 70
     1
102
RTVSPropertyOp49
 70
     1
102
RTVSPropertyOp50
 70
     1
102
RTVSPropertyOp51
 70
     0
102
RTVSPropertyOp52
 70
     0
102
RTVSPropertyOp53
 70
     1
102
RTVSPropertyOp54
 70
     1
102
RTVSPropertyOp55
 70
     1
102
RTVSPropertyOp56
 70
     1
102
RTVSPropertyOp57
 70
     1
102
RTVSPropertyOp58
 70
     1
102
RTVSPropertyOp59
 70
     1
102
RTVSPropertyOp60
 70
     1
102
RTVSPropertyOp61
 70
     1
102
RTVSPropertyOp62
 70
     1
  0
XRECORD
  5
8691
102
{ACAD_REACTORS
330
8690
102
}
330
8690
100
AcDbXrecord
280
     1
102
RTVSPost2010Prop28
280
     0
102
RTVSPost2010PropOp28
 70
     1
102
RTVSPost2010Prop29
280
     1
102
RTVSPost2010PropOp29
 70
     1
102
RTVSPost2010Prop30
280
     1
102
RTVSPost2010PropOp30
 70
     1
102
RTVSPost2010Prop31
280
     0
102
RTVSPost2010PropOp31
 70
     1
102
RTVSPost2010Prop32
280
     0
102
RTVSPost2010PropOp32
 70
     1
102
RTVSPost2010Prop33
280
     0
102
RTVSPost2010PropOp33
 70
     1
102
RTVSPost2010Prop34
280
     0
102
RTVSPost2010PropOp34
 70
     1
102
RTVSPost2010Prop35
280
     0
102
RTVSPost2010PropOp35
 70
     1
102
RTVSPost2010Prop36
280
     0
102
RTVSPost2010PropOp36
 70
     1
102
RTVSPost2010Prop37
 90
       50
102
RTVSPost2010PropOp37
 70
     1
102
RTVSPost2010Prop38
140
0.0
102
RTVSPost2010PropOp38
 70
     1
102
RTVSPost2010Prop39
140
1.0
102
RTVSPost2010PropOp39
 70
     1
102
RTVSPost2010Prop40
 90
        0
102
RTVSPost2010PropOp40
 70
     1
102
RTVSPost2010Prop41ColorIndex
 90
       18
102
RTVSPost2010Prop41ColorRGB
 90
        0
102
RTVSPost2010PropOp41
 70
     1
102
RTVSPost2010Prop42
 90
       50
102
RTVSPost2010PropOp42
 70
     1
102
RTVSPost2010Prop43
 90
        3
102
RTVSPost2010PropOp43
 70
     1
102
RTVSPost2010Prop44ColorIndex
 90
        5
102
RTVSPost2010Prop44ColorRGB
 90
      255
102
RTVSPost2010PropOp44
 70
     1
102
RTVSPost2010Prop45
280
     0
102
RTVSPost2010PropOp45
 70
     1
102
RTVSPost2010Prop46
 90
       50
102
RTVSPost2010PropOp46
 70
     1
102
RTVSPost2010Prop47
 90
       50
102
RTVSPost2010PropOp47
 70
     1
102
RTVSPost2010Prop48
 90
       50
102
RTVSPost2010PropOp48
 70
     1
102
RTVSPost2010Prop49
280
     0
102
RTVSPost2010PropOp49
 70
     1
102
RTVSPost2010Prop50
 90
       50
102
RTVSPost2010PropOp50
 70
     1
102
RTVSPost2010Prop51ColorIndex
 90
      256
102
RTVSPost2010Prop51ColorRGB
 90
-16777216
102
RTVSPost2010PropOp51
 70
     0
102
RTVSPost2010Prop52
140
1.0
102
RTVSPost2010PropOp52
 70
     0
102
RTVSPost2010Prop53
 90
        2
102
RTVSPost2010PropOp53
 70
     1
102
RTVSPost2010Prop54
  1
strokes_ogs.tif
102
RTVSPost2010PropOp54
 70
     1
102
RTVSPost2010Prop55
280
     0
102
RTVSPost2010PropOp55
 70
     1
102
RTVSPost2010Prop56
140
1.0
102
RTVSPost2010PropOp56
 70
     1
102
RTVSPost2010Prop57
140
1.0
102
RTVSPost2010PropOp57
 70
     1
102
RTVSPropertyOp0
 70
     1
102
RTVSPropertyOp1
 70
     1
102
RTVSPropertyOp2
 70
     1
102
RTVSPropertyOp3
 70
     1
102
RTVSPropertyOp4
 70
     1
102
RTVSPropertyOp5
 70
     1
102
RTVSPropertyOp6
 70
     1
102
RTVSPropertyOp7
 70
     1
102
RTVSPropertyOp8
 70
     1
102
RTVSPropertyOp9
 70
     1
102
RTVSPropertyOp10
 70
     1
102
RTVSPropertyOp11
 70
     1
102
RTVSPropertyOp12
 70
     1
102
RTVSPropertyOp13
 70
     1
102
RTVSPropertyOp14
 70
     1
102
RTVSPropertyOp15
 70
     1
102
RTVSPropertyOp16
 70
     1
102
RTVSPropertyOp17
 70
     1
102
RTVSPropertyOp18
 70
     1
102
RTVSPropertyOp19
 70
     1
102
RTVSPropertyOp20
 70
     1
102
RTVSPropertyOp21
 70
     1
102
RTVSPropertyOp22
 70
     1
102
RTVSPropertyOp23
 70
     1
102
RTVSPropertyOp24
 70
     1
102
RTVSPropertyOp25
 70
     1
102
RTVSPropertyOp26
 70
     1
102
RTVSPropertyOp27
 70
     1
102
RTVSPropertyOp28
 70
     1
102
RTVSPropertyOp29
 70
     1
102
RTVSPropertyOp30
 70
     1
102
RTVSPropertyOp31
 70
     1
102
RTVSPropertyOp32
 70
     1
102
RTVSPropertyOp33
 70
     1
102
RTVSPropertyOp34
 70
     1
102
RTVSPropertyOp35
 70
     1
102
RTVSPropertyOp36
 70
     1
102
RTVSPropertyOp37
 70
     1
102
RTVSPropertyOp38
 70
     1
102
RTVSPropertyOp39
 70
     1
102
RTVSPropertyOp40
 70
     1
102
RTVSPropertyOp41
 70
     1
102
RTVSPropertyOp42
 70
     1
102
RTVSPropertyOp43
 70
     1
102
RTVSPropertyOp44
 70
     1
102
RTVSPropertyOp45
 70
     1
102
RTVSPropertyOp46
 70
     1
102
RTVSPropertyOp47
 70
     1
102
RTVSPropertyOp48
 70
     1
102
RTVSPropertyOp49
 70
     1
102
RTVSPropertyOp50
 70
     1
102
RTVSPropertyOp51
 70
     0
102
RTVSPropertyOp52
 70
     0
102
RTVSPropertyOp53
 70
     1
102
RTVSPropertyOp54
 70
     1
102
RTVSPropertyOp55
 70
     1
102
RTVSPropertyOp56
 70
     1
102
RTVSPropertyOp57
 70
     1
102
RTVSPropertyOp58
 70
     1
102
RTVSPropertyOp59
 70
     1
102
RTVSPropertyOp60
 70
     1
102
RTVSPropertyOp61
 70
     1
102
RTVSPropertyOp62
 70
     1
  0
ENDSEC
  0
EOF
