  0
SECTION
  2
HEADER
  9
$ACADVER
  1
AC1015
  9
$ACADMAINTVER
 70
    20
  9
$DWGCODEPAGE
  3
ANSI_932
  9
$INSBASE
 10
0.0
 20
0.0
 30
0.0
  9
$EXTMIN
 10
0.0
 20
0.0
 30
0.0
  9
$EXTMAX
 10
3150.0
 20
4425.0
 30
0.0
  9
$LIMMIN
 10
0.0
 20
0.0
  9
$LIMMAX
 10
297.0
 20
210.0
  9
$ORTHOMODE
 70
     1
  9
$REGENMODE
 70
     1
  9
$FILLMODE
 70
     0
  9
$QTEXTMODE
 70
     0
  9
$MIRRTEXT
 70
     1
  9
$LTSCALE
 40
100.0
  9
$ATTMODE
 70
     1
  9
$TEXTSIZE
 40
180.0
  9
$TRACEWID
 40
0.05
  9
$TEXTSTYLE
  7
STANDARD
  9
$CLAYER
  8
3
  9
$CELTYPE
  6
BYLAYER
  9
$CECOLOR
 62
   256
  9
$CELTSCALE
 40
1.0
  9
$DISPSILH
 70
     0
  9
$DIMSCALE
 40
15.0
  9
$DIMASZ
 40
2.0
  9
$DIMEXO
 40
0.5
  9
$DIMDLI
 40
10.0
  9
$DIMRND
 40
0.0
  9
$DIMDLE
 40
0.0
  9
$DIMEXE
 40
1.0
  9
$DIMTP
 40
1.0
  9
$DIMTM
 40
1.0
  9
$DIMTXT
 40
3.0
  9
$DIMCEN
 40
0.0
  9
$DIMTSZ
 40
0.0
  9
$DIMTOL
 70
     0
  9
$DIMLIM
 70
     0
  9
$DIMTIH
 70
     0
  9
$DIMTOH
 70
     0
  9
$DIMSE1
 70
     0
  9
$DIMSE2
 70
     0
  9
$DIMTAD
 70
     1
  9
$DIMZIN
 70
     8
  9
$DIMBLK
  1

  9
$DIMASO
 70
     1
  9
$DIMSHO
 70
     1
  9
$DIMPOST
  1

  9
$DIMAPOST
  1

  9
$DIMALT
 70
     0
  9
$DIMALTD
 70
     2
  9
$DIMALTF
 40
0.039
  9
$DIMLFAC
 40
1.0
  9
$DIMTOFL
 70
     1
  9
$DIMTVP
 40
0.0
  9
$DIMTIX
 70
     0
  9
$DIMSOXD
 70
     0
  9
$DIMSAH
 70
     1
  9
$DIMBLK1
  1
OPEN
  9
$DIMBLK2
  1
OPEN
  9
$DIMSTYLE
  2
IGA
  9
$DIMCLRD
 70
     0
  9
$DIMCLRE
 70
     0
  9
$DIMCLRT
 70
     0
  9
$DIMTFAC
 40
10.0
  9
$DIMGAP
 40
1.0
  9
$DIMJUST
 70
     0
  9
$DIMSD1
 70
     0
  9
$DIMSD2
 70
     0
  9
$DIMTOLJ
 70
     1
  9
$DIMTZIN
 70
     8
  9
$DIMALTZ
 70
     0
  9
$DIMALTTZ
 70
     0
  9
$DIMUPT
 70
     1
  9
$DIMDEC
 70
     0
  9
$DIMTDEC
 70
     0
  9
$DIMALTU
 70
     2
  9
$DIMALTTD
 70
     2
  9
$DIMTXSTY
  7
STANDARD
  9
$DIMAUNIT
 70
     0
  9
$DIMADEC
 70
     0
  9
$DIMALTRND
 40
0.0
  9
$DIMAZIN
 70
     0
  9
$DIMDSEP
 70
    46
  9
$DIMATFIT
 70
     3
  9
$DIMFRAC
 70
     0
  9
$DIMLDRBLK
  1
OPEN
  9
$DIMLUNIT
 70
     2
  9
$DIMLWD
 70
    -2
  9
$DIMLWE
 70
    -2
  9
$DIMTMOVE
 70
     0
  9
$LUNITS
 70
     2
  9
$LUPREC
 70
     3
  9
$SKETCHINC
 40
0.1
  9
$FILLETRAD
 40
50.0
  9
$AUNITS
 70
     0
  9
$AUPREC
 70
     0
  9
$MENU
  1
acad
  9
$ELEVATION
 40
0.0
  9
$PELEVATION
 40
0.0
  9
$THICKNESS
 40
0.0
  9
$LIMCHECK
 70
     0
  9
$CHAMFERA
 40
0.5
  9
$CHAMFERB
 40
0.5
  9
$CHAMFERC
 40
20.0
  9
$CHAMFERD
 40
0.0
  9
$SKPOLY
 70
     0
  9
$TDCREATE
 40
2451019.548540972
  9
$TDUCREATE
 40
2451019.173540972
  9
$TDUPDATE
 40
2459605.795656875
  9
$TDUUPDATE
 40
2459605.420656875
  9
$TDINDWG
 40
0.1266162269
  9
$TDUSRTIMER
 40
0.1266162269
  9
$USRTIMER
 70
     1
  9
$ANGBASE
 50
0.0
  9
$ANGDIR
 70
     0
  9
$PDMODE
 70
     0
  9
$PDSIZE
 40
0.0
  9
$PLINEWID
 40
0.0
  9
$SPLFRAME
 70
     0
  9
$SPLINETYPE
 70
     6
  9
$SPLINESEGS
 70
     8
  9
$HANDSEED
  5
A8FF
  9
$SURFTAB1
 70
     6
  9
$SURFTAB2
 70
     6
  9
$SURFTYPE
 70
     6
  9
$SURFU
 70
     6
  9
$SURFV
 70
     6
  9
$UCSBASE
  2

  9
$UCSNAME
  2

  9
$UCSORG
 10
0.0
 20
0.0
 30
0.0
  9
$UCSXDIR
 10
1.0
 20
0.0
 30
0.0
  9
$UCSYDIR
 10
0.0
 20
1.0
 30
0.0
  9
$UCSORTHOREF
  2

  9
$UCSORTHOVIEW
 70
     0
  9
$UCSORGTOP
 10
0.0
 20
0.0
 30
0.0
  9
$UCSORGBOTTOM
 10
0.0
 20
0.0
 30
0.0
  9
$UCSORGLEFT
 10
0.0
 20
0.0
 30
0.0
  9
$UCSORGRIGHT
 10
0.0
 20
0.0
 30
0.0
  9
$UCSORGFRONT
 10
0.0
 20
0.0
 30
0.0
  9
$UCSORGBACK
 10
0.0
 20
0.0
 30
0.0
  9
$PUCSBASE
  2

  9
$PUCSNAME
  2

  9
$PUCSORG
 10
0.0
 20
0.0
 30
0.0
  9
$PUCSXDIR
 10
1.0
 20
0.0
 30
0.0
  9
$PUCSYDIR
 10
0.0
 20
1.0
 30
0.0
  9
$PUCSORTHOREF
  2

  9
$PUCSORTHOVIEW
 70
     0
  9
$PUCSORGTOP
 10
0.0
 20
0.0
 30
0.0
  9
$PUCSORGBOTTOM
 10
0.0
 20
0.0
 30
0.0
  9
$PUCSORGLEFT
 10
0.0
 20
0.0
 30
0.0
  9
$PUCSORGRIGHT
 10
0.0
 20
0.0
 30
0.0
  9
$PUCSORGFRONT
 10
0.0
 20
0.0
 30
0.0
  9
$PUCSORGBACK
 10
0.0
 20
0.0
 30
0.0
  9
$USERI1
 70
     0
  9
$USERI2
 70
     0
  9
$USERI3
 70
     0
  9
$USERI4
 70
     0
  9
$USERI5
 70
     0
  9
$USERR1
 40
0.0
  9
$USERR2
 40
0.0
  9
$USERR3
 40
0.0
  9
$USERR4
 40
0.0
  9
$USERR5
 40
0.0
  9
$WORLDVIEW
 70
     1
  9
$SHADEDGE
 70
     3
  9
$SHADEDIF
 70
    70
  9
$TILEMODE
 70
     1
  9
$MAXACTVP
 70
    16
  9
$PINSBASE
 10
0.0
 20
0.0
 30
0.0
  9
$PLIMCHECK
 70
     0
  9
$PEXTMIN
 10
1.000000000000000E+20
 20
1.000000000000000E+20
 30
1.000000000000000E+20
  9
$PEXTMAX
 10
-1.000000000000000E+20
 20
-1.000000000000000E+20
 30
-1.000000000000000E+20
  9
$PLIMMIN
 10
0.0
 20
0.0
  9
$PLIMMAX
 10
12.0
 20
9.0
  9
$UNITMODE
 70
     0
  9
$VISRETAIN
 70
     0
  9
$PLINEGEN
 70
     0
  9
$PSLTSCALE
 70
     1
  9
$TREEDEPTH
 70
  3020
  9
$CMLSTYLE
  2
STANDARD
  9
$CMLJUST
 70
     0
  9
$CMLSCALE
 40
20.0
  9
$PROXYGRAPHICS
 70
     1
  9
$MEASUREMENT
 70
     1
  9
$CELWEIGHT
370
    -1
  9
$ENDCAPS
280
     0
  9
$JOINSTYLE
280
     0
  9
$LWDISPLAY
290
     0
  9
$INSUNITS
 70
     0
  9
$HYPERLINKBASE
  1

  9
$STYLESHEET
  1
monochrome.ctb
  9
$XEDIT
290
     1
  9
$CEPSNTYPE
380
     0
  9
$PSTYLEMODE
290
     1
  9
$FINGERPRINTGUID
  2
{8B157171-22BD-455B-A145-2C9299FDC02F}
  9
$VERSIONGUID
  2
{BBD1EB36-8116-46B3-8F32-31D5427F40BF}
  9
$EXTNAMES
290
     1
  9
$PSVPSCALE
 40
0.0
  9
$OLESTARTUP
290
     0
  0
ENDSEC
  0
SECTION
  2
CLASSES
  0
CLASS
  1
ACDBDICTIONARYWDFLT
  2
AcDbDictionaryWithDefault
  3
ObjectDBX Classes
 90
        0
280
     0
281
     0
  0
CLASS
  1
ACDBPLACEHOLDER
  2
AcDbPlaceHolder
  3
ObjectDBX Classes
 90
        0
280
     0
281
     0
  0
CLASS
  1
LAYOUT
  2
AcDbLayout
  3
ObjectDBX Classes
 90
        0
280
     0
281
     0
  0
CLASS
  1
MATERIAL
  2
AcDbMaterial
  3
ObjectDBX Classes
 90
     1153
280
     0
281
     0
  0
CLASS
  1
VISUALSTYLE
  2
AcDbVisualStyle
  3
ObjectDBX Classes
 90
     4095
280
     0
281
     0
  0
CLASS
  1
TABLESTYLE
  2
AcDbTableStyle
  3
ObjectDBX Classes
 90
     4095
280
     0
281
     0
  0
CLASS
  1
SCALE
  2
AcDbScale
  3
ObjectDBX Classes
 90
     1153
280
     0
281
     0
  0
CLASS
  1
MLEADERSTYLE
  2
AcDbMLeaderStyle
  3
ACDB_MLEADERSTYLE_CLASS
 90
     4095
280
     0
281
     0
  0
CLASS
  1
ACDBSECTIONVIEWSTYLE
  2
AcDbSectionViewStyle
  3
ObjectDBX Classes
 90
     1025
280
     0
281
     0
  0
CLASS
  1
ACDBDETAILVIEWSTYLE
  2
AcDbDetailViewStyle
  3
ObjectDBX Classes
 90
     1025
280
     0
281
     0
  0
CLASS
  1
DICTIONARYVAR
  2
AcDbDictionaryVar
  3
ObjectDBX Classes
 90
        0
280
     0
281
     0
  0
CLASS
  1
MULTILEADER
  2
AcDbMLeader
  3
ACDB_MLEADER_CLASS
 90
     1025
280
     0
281
     1
  0
CLASS
  1
SORTENTSTABLE
  2
AcDbSortentsTable
  3
ObjectDBX Classes
 90
        0
280
     0
281
     0
  0
CLASS
  1
CELLSTYLEMAP
  2
AcDbCellStyleMap
  3
ObjectDBX Classes
 90
     1152
280
     0
281
     0
  0
ENDSEC
  0
SECTION
  2
TABLES
  0
TABLE
  2
VPORT
  5
8
330
0
100
AcDbSymbolTable
 70
     1
  0
VPORT
  5
86F9
330
8
100
AcDbSymbolTableRecord
100
AcDbViewportTableRecord
  2
*Active
 70
     0
 10
0.0
 20
0.0
 11
1.0
 21
1.0
 12
2156.313440491433
 22
2212.500020606141
 13
0.0
 23
0.0
 14
10.0
 24
10.0
 15
10.0
 25
10.0
 16
0.0
 26
0.0
 36
1.0
 17
0.0
 27
0.0
 37
0.0
 40
4320.45184098961
 41
1.727564102564102
 42
50.0
 43
0.0
 44
0.0
 50
0.0
 51
0.0
 71
     0
 72
   100
 73
     1
 74
     0
 75
     0
 76
     0
 77
     0
 78
     0
281
     0
 65
     1
110
0.0
120
0.0
130
0.0
111
1.0
121
0.0
131
0.0
112
0.0
122
1.0
132
0.0
 79
     0
146
0.0
1001
ACAD_NAV_VCDISPLAY
1070
     3
  0
ENDTAB
  0
TABLE
  2
LTYPE
  5
5
330
0
100
AcDbSymbolTable
 70
     2
  0
LTYPE
  5
13
330
5
100
AcDbSymbolTableRecord
100
AcDbLinetypeTableRecord
  2
BYBLOCK
 70
     0
  3

 72
    65
 73
     0
 40
0.0
  0
LTYPE
  5
14
330
5
100
AcDbSymbolTableRecord
100
AcDbLinetypeTableRecord
  2
BYLAYER
 70
     0
  3

 72
    65
 73
     0
 40
0.0
  0
LTYPE
  5
15
330
5
100
AcDbSymbolTableRecord
100
AcDbLinetypeTableRecord
  2
CONTINUOUS
 70
     0
  3
Solid line
 72
    65
 73
     0
 40
0.0
  0
LTYPE
  5
1F
330
5
100
AcDbSymbolTableRecord
100
AcDbLinetypeTableRecord
  2
CENTER
 70
     0
  3
____ _ ____ _ ____ _ ____ _ ____ _ ____ _ ____ 
 72
    65
 73
     4
 40
2.0
 49
1.25
 74
     0
 49
-0.25
 74
     0
 49
0.25
 74
     0
 49
-0.25
 74
     0
  0
ENDTAB
  0
TABLE
  2
LAYER
  5
2
102
{ACAD_XDICTIONARY
360
885D
102
}
330
0
100
AcDbSymbolTable
 70
     6
  0
LAYER
  5
F
102
{ACAD_XDICTIONARY
360
874B
102
}
330
2
100
AcDbSymbolTableRecord
100
AcDbLayerTableRecord
  2
0
 70
     0
 62
     7
  6
CONTINUOUS
370
    -3
390
86EC
  0
LAYER
  5
31
102
{ACAD_XDICTIONARY
360
874D
102
}
330
2
100
AcDbSymbolTableRecord
100
AcDbLayerTableRecord
  2
3
 70
     0
 62
     2
  6
CONTINUOUS
370
    -3
390
86EC
  0
LAYER
  5
76D0
102
{ACAD_XDICTIONARY
360
874F
102
}
330
2
100
AcDbSymbolTableRecord
100
AcDbLayerTableRecord
  2
2
 70
     0
 62
     3
  6
CENTER
370
    -3
390
86EC
  0
LAYER
  5
76D1
102
{ACAD_XDICTIONARY
360
8751
102
}
330
2
100
AcDbSymbolTableRecord
100
AcDbLayerTableRecord
  2
1
 70
     0
 62
     4
  6
CONTINUOUS
370
    -3
390
86EC
  0
LAYER
  5
76D2
102
{ACAD_XDICTIONARY
360
8753
102
}
330
2
100
AcDbSymbolTableRecord
100
AcDbLayerTableRecord
  2
4
 70
     0
 62
     7
  6
CONTINUOUS
370
    -3
390
86EC
  0
LAYER
  5
7B38
330
2
100
AcDbSymbolTableRecord
100
AcDbLayerTableRecord
  2
DEFPOINTS
 70
     0
 62
     7
  6
CONTINUOUS
290
     0
370
    -3
390
86EC
  0
ENDTAB
  0
TABLE
  2
STYLE
  5
3
330
0
100
AcDbSymbolTable
 70
     1
  0
STYLE
  5
10
330
3
100
AcDbSymbolTableRecord
100
AcDbTextStyleTableRecord
  2
STANDARD
 70
     0
 40
0.0
 41
1.0
 50
0.0
 71
     0
 42
180.0
  3
simplex.shx
  4
extfont.shx
  0
ENDTAB
  0
TABLE
  2
VIEW
  5
6
330
0
100
AcDbSymbolTable
 70
     0
  0
ENDTAB
  0
TABLE
  2
UCS
  5
7
330
0
100
AcDbSymbolTable
 70
     0
  0
ENDTAB
  0
TABLE
  2
APPID
  5
9
330
0
100
AcDbSymbolTable
 70
     6
  0
APPID
  5
11
330
9
100
AcDbSymbolTableRecord
100
AcDbRegAppTableRecord
  2
ACAD
 70
     0
  0
APPID
  5
8755
330
9
100
AcDbSymbolTableRecord
100
AcDbRegAppTableRecord
  2
ACAD_NAV_VCDISPLAY
 70
     0
  0
APPID
  5
8A6F
330
9
100
AcDbSymbolTableRecord
100
AcDbRegAppTableRecord
  2
ACAD_EXEMPT_FROM_CAD_STANDARDS
 70
     0
  0
APPID
  5
8A7F
330
9
100
AcDbSymbolTableRecord
100
AcDbRegAppTableRecord
  2
ACAD_PSEXT
 70
     0
  0
APPID
  5
8AC3
330
9
100
AcDbSymbolTableRecord
100
AcDbRegAppTableRecord
  2
AcadAnnoMonitorAlertIconDisabled
 70
     0
  0
APPID
  5
A8F6
330
9
100
AcDbSymbolTableRecord
100
AcDbRegAppTableRecord
  2
ACAD_MLEADERVER
 70
     0
  0
ENDTAB
  0
TABLE
  2
DIMSTYLE
  5
A
330
0
100
AcDbSymbolTable
 70
     2
100
AcDbDimStyleTable
 71
     1
340
1D
  0
DIMSTYLE
105
1D
102
{ACAD_REACTORS
330
9438
330
9439
330
943D
330
943E
330
943F
330
9440
330
9445
330
9447
330
944B
330
944C
330
944D
330
944E
330
948D
330
948F
330
9490
330
9491
330
9492
330
9493
330
9496
330
9497
330
9498
330
94A9
330
94AD
102
}
330
A
100
AcDbSymbolTableRecord
100
AcDbDimStyleTableRecord
  2
IGA
 70
     0
 40
2.0
 41
2.0
 42
0.5
 43
10.0
 44
1.0
 47
1.0
 48
1.0
 73
     0
 74
     0
 77
     1
 78
     8
140
3.0
141
0.0
143
0.03937
146
10.0
147
1.0
173
     1
271
     1
272
     0
279
     2
284
     8
340
10
341
7A11
343
7A11
344
7A11
  0
DIMSTYLE
105
9B9D
330
A
100
AcDbSymbolTableRecord
100
AcDbDimStyleTableRecord
  2
Standard
 70
     0
 40
15.0
340
10
  0
ENDTAB
  0
TABLE
  2
BLOCK_RECORD
  5
1
330
0
100
AcDbSymbolTable
 70
    46
  0
BLOCK_RECORD
  5
19
102
{ACAD_XDICTIONARY
360
8997
102
}
330
1
100
AcDbSymbolTableRecord
100
AcDbBlockTableRecord
  2
*MODEL_SPACE
340
86EF
  0
BLOCK_RECORD
  5
16
330
1
100
AcDbSymbolTableRecord
100
AcDbBlockTableRecord
  2
*PAPER_SPACE
340
86F0
  0
BLOCK_RECORD
  5
7A11
330
1
100
AcDbSymbolTableRecord
100
AcDbBlockTableRecord
  2
_OPEN
340
0
102
{BLKREFS
331
A80C
331
A80D
331
A815
331
A816
331
A827
331
A828
331
A831
331
A832
331
A842
331
A843
331
A84E
331
A857
331
A858
331
A860
331
A871
331
A872
331
A87A
331
A87B
331
A667
331
A668
331
A670
331
A671
331
A694
331
A695
331
A69D
331
A69E
331
A6A6
331
A6A7
331
A6AF
331
A6B0
331
A6CD
331
A6CE
331
A6D5
331
A6D6
331
A6DE
331
A6DF
331
A758
331
A759
331
A7E8
331
A7E9
331
A7FA
331
A7FB
331
A803
331
A804
331
876E
331
876F
331
877A
331
877B
331
8786
331
8787
331
8792
331
8793
331
879E
331
879F
331
87AC
331
87AD
331
87BA
331
87BB
331
87C6
331
87C7
331
87D4
331
87D5
331
87E0
331
87E1
331
87EC
331
87ED
331
87FA
331
87FB
331
8806
331
8807
331
8812
331
8813
331
8820
331
8821
331
882E
331
882F
331
883C
331
883D
331
8848
331
8849
331
8856
331
8857
102
}
  0
BLOCK_RECORD
  5
83FD
330
1
100
AcDbSymbolTableRecord
100
AcDbBlockTableRecord
  2
_DOT
340
0
102
{BLKREFS
331
A84D
102
}
  0
BLOCK_RECORD
  5
8769
330
1
100
AcDbSymbolTableRecord
100
AcDbBlockTableRecord
  2
*D2
340
0
  0
BLOCK_RECORD
  5
8775
330
1
100
AcDbSymbolTableRecord
100
AcDbBlockTableRecord
  2
*D3
340
0
  0
BLOCK_RECORD
  5
8781
330
1
100
AcDbSymbolTableRecord
100
AcDbBlockTableRecord
  2
*D4
340
0
  0
BLOCK_RECORD
  5
878D
330
1
100
AcDbSymbolTableRecord
100
AcDbBlockTableRecord
  2
*D5
340
0
  0
BLOCK_RECORD
  5
8799
330
1
100
AcDbSymbolTableRecord
100
AcDbBlockTableRecord
  2
*D6
340
0
  0
BLOCK_RECORD
  5
87A5
330
1
100
AcDbSymbolTableRecord
100
AcDbBlockTableRecord
  2
*D7
340
0
  0
BLOCK_RECORD
  5
87B3
330
1
100
AcDbSymbolTableRecord
100
AcDbBlockTableRecord
  2
*D8
340
0
  0
BLOCK_RECORD
  5
87C1
330
1
100
AcDbSymbolTableRecord
100
AcDbBlockTableRecord
  2
*D9
340
0
  0
BLOCK_RECORD
  5
87CD
330
1
100
AcDbSymbolTableRecord
100
AcDbBlockTableRecord
  2
*D10
340
0
  0
BLOCK_RECORD
  5
87DB
330
1
100
AcDbSymbolTableRecord
100
AcDbBlockTableRecord
  2
*D11
340
0
  0
BLOCK_RECORD
  5
87E7
330
1
100
AcDbSymbolTableRecord
100
AcDbBlockTableRecord
  2
*D12
340
0
  0
BLOCK_RECORD
  5
87F3
330
1
100
AcDbSymbolTableRecord
100
AcDbBlockTableRecord
  2
*D13
340
0
  0
BLOCK_RECORD
  5
8801
330
1
100
AcDbSymbolTableRecord
100
AcDbBlockTableRecord
  2
*D14
340
0
  0
BLOCK_RECORD
  5
880D
330
1
100
AcDbSymbolTableRecord
100
AcDbBlockTableRecord
  2
*D15
340
0
  0
BLOCK_RECORD
  5
8819
330
1
100
AcDbSymbolTableRecord
100
AcDbBlockTableRecord
  2
*D16
340
0
  0
BLOCK_RECORD
  5
8827
330
1
100
AcDbSymbolTableRecord
100
AcDbBlockTableRecord
  2
*D17
340
0
  0
BLOCK_RECORD
  5
8835
330
1
100
AcDbSymbolTableRecord
100
AcDbBlockTableRecord
  2
*D18
340
0
  0
BLOCK_RECORD
  5
8843
330
1
100
AcDbSymbolTableRecord
100
AcDbBlockTableRecord
  2
*D19
340
0
  0
BLOCK_RECORD
  5
884F
330
1
100
AcDbSymbolTableRecord
100
AcDbBlockTableRecord
  2
*D20
340
0
  0
BLOCK_RECORD
  5
885F
330
1
100
AcDbSymbolTableRecord
100
AcDbBlockTableRecord
  2
A$C5F035C4D
340
0
  0
BLOCK_RECORD
  5
8B3E
330
1
100
AcDbSymbolTableRecord
100
AcDbBlockTableRecord
  2
_DotSmall
340
0
102
{BLKREFS
331
A861
102
}
  0
BLOCK_RECORD
  5
953B
330
1
100
AcDbSymbolTableRecord
100
AcDbBlockTableRecord
  2
*D23
340
0
  0
BLOCK_RECORD
  5
9547
330
1
100
AcDbSymbolTableRecord
100
AcDbBlockTableRecord
  2
*D24
340
0
  0
BLOCK_RECORD
  5
9553
330
1
100
AcDbSymbolTableRecord
100
AcDbBlockTableRecord
  2
*D25
340
0
  0
BLOCK_RECORD
  5
955F
330
1
100
AcDbSymbolTableRecord
100
AcDbBlockTableRecord
  2
*D26
340
0
  0
BLOCK_RECORD
  5
956B
330
1
100
AcDbSymbolTableRecord
100
AcDbBlockTableRecord
  2
*D27
340
0
  0
BLOCK_RECORD
  5
9577
330
1
100
AcDbSymbolTableRecord
100
AcDbBlockTableRecord
  2
*D28
340
0
  0
BLOCK_RECORD
  5
9583
330
1
100
AcDbSymbolTableRecord
100
AcDbBlockTableRecord
  2
*D29
340
0
  0
BLOCK_RECORD
  5
958F
330
1
100
AcDbSymbolTableRecord
100
AcDbBlockTableRecord
  2
*D30
340
0
  0
BLOCK_RECORD
  5
959B
330
1
100
AcDbSymbolTableRecord
100
AcDbBlockTableRecord
  2
*D31
340
0
  0
BLOCK_RECORD
  5
95A7
330
1
100
AcDbSymbolTableRecord
100
AcDbBlockTableRecord
  2
*D32
340
0
  0
BLOCK_RECORD
  5
95B3
330
1
100
AcDbSymbolTableRecord
100
AcDbBlockTableRecord
  2
*D33
340
0
  0
BLOCK_RECORD
  5
95BF
330
1
100
AcDbSymbolTableRecord
100
AcDbBlockTableRecord
  2
*D34
340
0
  0
BLOCK_RECORD
  5
95CD
330
1
100
AcDbSymbolTableRecord
100
AcDbBlockTableRecord
  2
*D35
340
0
  0
BLOCK_RECORD
  5
95D9
330
1
100
AcDbSymbolTableRecord
100
AcDbBlockTableRecord
  2
*D36
340
0
  0
BLOCK_RECORD
  5
95E5
330
1
100
AcDbSymbolTableRecord
100
AcDbBlockTableRecord
  2
*D37
340
0
  0
BLOCK_RECORD
  5
95F1
330
1
100
AcDbSymbolTableRecord
100
AcDbBlockTableRecord
  2
*D38
340
0
  0
BLOCK_RECORD
  5
95FD
330
1
100
AcDbSymbolTableRecord
100
AcDbBlockTableRecord
  2
*D39
340
0
  0
BLOCK_RECORD
  5
9609
330
1
100
AcDbSymbolTableRecord
100
AcDbBlockTableRecord
  2
*D40
340
0
  0
BLOCK_RECORD
  5
962D
330
1
100
AcDbSymbolTableRecord
100
AcDbBlockTableRecord
  2
*D41
340
0
  0
BLOCK_RECORD
  5
9639
330
1
100
AcDbSymbolTableRecord
100
AcDbBlockTableRecord
  2
*D42
340
0
  0
BLOCK_RECORD
  5
9645
330
1
100
AcDbSymbolTableRecord
100
AcDbBlockTableRecord
  2
*D43
340
0
  0
BLOCK_RECORD
  5
9687
330
1
100
AcDbSymbolTableRecord
100
AcDbBlockTableRecord
  2
*D44
340
0
  0
BLOCK_RECORD
  5
96B9
330
1
100
AcDbSymbolTableRecord
100
AcDbBlockTableRecord
  2
*D45
340
0
  0
ENDTAB
  0
ENDSEC
  0
SECTION
  2
BLOCKS
  0
BLOCK
  5
1A
330
19
100
AcDbEntity
  8
0
100
AcDbBlockBegin
  2
*MODEL_SPACE
 70
     0
 10
0.0
 20
0.0
 30
0.0
  3
*MODEL_SPACE
  1

  0
ENDBLK
  5
1B
330
19
100
AcDbEntity
  8
0
100
AcDbBlockEnd
  0
BLOCK
  5
17
330
16
100
AcDbEntity
 67
     1
  8
0
100
AcDbBlockBegin
  2
*PAPER_SPACE
 70
     0
 10
0.0
 20
0.0
 30
0.0
  3
*PAPER_SPACE
  1

  0
ENDBLK
  5
18
330
16
100
AcDbEntity
 67
     1
  8
0
100
AcDbBlockEnd
  0
BLOCK
  5
7A15
330
7A11
100
AcDbEntity
  8
0
100
AcDbBlockBegin
  2
_OPEN
 70
     0
 10
0.0
 20
0.0
 30
0.0
  3
_OPEN
  1

  0
LINE
  5
7A12
330
7A11
100
AcDbEntity
  8
0
  6
ByBlock
 62
     0
100
AcDbLine
 10
-1.0
 20
0.1666666666666666
 30
0.0
 11
0.0
 21
0.0
 31
0.0
  0
LINE
  5
7A13
330
7A11
100
AcDbEntity
  8
0
  6
ByBlock
 62
     0
100
AcDbLine
 10
0.0
 20
0.0
 30
0.0
 11
-1.0
 21
-0.1666666666666666
 31
0.0
  0
LINE
  5
7A14
330
7A11
100
AcDbEntity
  8
0
  6
ByBlock
 62
     0
100
AcDbLine
 10
0.0
 20
0.0
 30
0.0
 11
-1.0
 21
0.0
 31
0.0
  0
ENDBLK
  5
7A16
330
7A11
100
AcDbEntity
  8
0
100
AcDbBlockEnd
  0
BLOCK
  5
83FE
330
83FD
100
AcDbEntity
  8
0
100
AcDbBlockBegin
  2
_DOT
 70
     0
 10
0.0
 20
0.0
 30
0.0
  3
_DOT
  1

  0
LINE
  5
842A
330
83FD
100
AcDbEntity
  8
0
  6
ByBlock
 62
     0
100
AcDbLine
 10
0.0
 20
0.0
 30
0.0
 11
-1.0
 21
-0.0000000000000284
 31
0.0
  0
LWPOLYLINE
  5
842B
330
83FD
100
AcDbEntity
  8
0
  6
ByBlock
 62
     0
100
AcDbPolyline
 90
        2
 70
     1
 43
0.1666666666666666
 10
-0.0833333333333286
 20
-0.0000000000000284
 42
1.0
 10
0.0833333333333286
 20
-0.0000000000000284
 42
1.0
  0
ENDBLK
  5
8404
330
83FD
100
AcDbEntity
  8
0
100
AcDbBlockEnd
  0
BLOCK
  5
876A
330
8769
100
AcDbEntity
  8
0
100
AcDbBlockBegin
  2
*D2
 70
     1
 10
0.0
 20
0.0
 30
0.0
  3
*D2
  1

  0
LINE
  5
876B
330
8769
100
AcDbEntity
  8
3
 62
     0
370
    -2
100
AcDbLine
 10
1361.902951880732
 20
2456.088071393662
 30
0.0
 11
1361.902951880732
 21
2194.402468367165
 31
0.0
  0
LINE
  5
876C
330
8769
100
AcDbEntity
  8
3
 62
     0
370
    -2
100
AcDbLine
 10
561.9029518807321
 20
2475.088071393663
 30
0.0
 11
561.9029518807321
 21
2194.402468367165
 31
0.0
  0
LINE
  5
876D
330
8769
100
AcDbEntity
  8
3
 62
     0
370
    -2
100
AcDbLine
 10
1331.902951880732
 20
2209.402468367165
 30
0.0
 11
591.9029518807321
 21
2209.402468367165
 31
0.0
  0
INSERT
  5
876E
330
8769
100
AcDbEntity
  8
3
 62
     0
370
    -2
100
AcDbBlockReference
  2
_OPEN
 10
1361.902951880732
 20
2209.402468367165
 30
0.0
 41
30.0
 42
30.0
 43
30.0
  0
INSERT
  5
876F
330
8769
100
AcDbEntity
  8
3
 62
     0
370
    -2
100
AcDbBlockReference
  2
_OPEN
 10
561.9029518807321
 20
2209.402468367165
 30
0.0
 41
30.0
 42
30.0
 43
30.0
 50
180.0
  0
MTEXT
  5
8770
330
8769
100
AcDbEntity
  8
3
 62
     0
100
AcDbMText
 10
961.9029518807321
 20
2246.902468367165
 30
0.0
 40
45.0
 41
0.0
 71
     5
 72
     1
  1
\A1;800
 73
     1
 44
1.0
1001
ACAD
1000
MTEXTBEGIN
1070
    73
1070
     1
1070
    44
1040
1.0
1070
    74
1070
     0
1000
MTEXTEND
  0
POINT
  5
8771
330
8769
100
AcDbEntity
  8
DEFPOINTS
 62
     0
100
AcDbPoint
 10
1361.902951880732
 20
2463.588071393662
 30
0.0
  0
POINT
  5
8772
330
8769
100
AcDbEntity
  8
DEFPOINTS
 62
     0
100
AcDbPoint
 10
561.9029518807321
 20
2482.588071393663
 30
0.0
  0
POINT
  5
8773
330
8769
100
AcDbEntity
  8
DEFPOINTS
 62
     0
100
AcDbPoint
 10
561.9029518807321
 20
2209.402468367165
 30
0.0
  0
ENDBLK
  5
8774
330
8769
100
AcDbEntity
  8
0
100
AcDbBlockEnd
  0
BLOCK
  5
8776
330
8775
100
AcDbEntity
  8
0
100
AcDbBlockBegin
  2
*D3
 70
     1
 10
0.0
 20
0.0
 30
0.0
  3
*D3
  1

  0
LINE
  5
8777
330
8775
100
AcDbEntity
  8
3
 62
     0
370
    -2
100
AcDbLine
 10
1369.402951880732
 20
2463.588071393662
 30
0.0
 11
1739.348134099724
 21
2463.588071393662
 31
0.0
  0
LINE
  5
8778
330
8775
100
AcDbEntity
  8
3
 62
     0
370
    -2
100
AcDbLine
 10
1369.402951880733
 20
3243.588071393663
 30
0.0
 11
1739.348134099724
 21
3243.588071393663
 31
0.0
  0
LINE
  5
8779
330
8775
100
AcDbEntity
  8
3
 62
     0
370
    -2
100
AcDbLine
 10
1724.348134099724
 20
2493.588071393662
 30
0.0
 11
1724.348134099724
 21
3213.588071393663
 31
0.0
  0
INSERT
  5
877A
330
8775
100
AcDbEntity
  8
3
 62
     0
370
    -2
100
AcDbBlockReference
  2
_OPEN
 10
1724.348134099724
 20
2463.588071393662
 30
0.0
 41
30.0
 42
30.0
 43
30.0
 50
270.0
  0
INSERT
  5
877B
330
8775
100
AcDbEntity
  8
3
 62
     0
370
    -2
100
AcDbBlockReference
  2
_OPEN
 10
1724.348134099724
 20
3243.588071393663
 30
0.0
 41
30.0
 42
30.0
 43
30.0
 50
90.0
  0
MTEXT
  5
877C
330
8775
100
AcDbEntity
  8
3
 62
     0
100
AcDbMText
 10
1686.848134099724
 20
2853.588071393663
 30
0.0
 40
45.0
 41
0.0
 71
     5
 72
     1
  1
\A1;780
 11
0.0000000000000001
 21
1.0
 31
0.0
 73
     1
 44
1.0
1001
ACAD
1000
MTEXTBEGIN
1070
    73
1070
     1
1070
    44
1040
1.0
1070
    74
1070
     0
1000
MTEXTEND
  0
POINT
  5
877D
330
8775
100
AcDbEntity
  8
DEFPOINTS
 62
     0
100
AcDbPoint
 10
1361.902951880732
 20
2463.588071393662
 30
0.0
  0
POINT
  5
877E
330
8775
100
AcDbEntity
  8
DEFPOINTS
 62
     0
100
AcDbPoint
 10
1361.902951880733
 20
3243.588071393663
 30
0.0
  0
POINT
  5
877F
330
8775
100
AcDbEntity
  8
DEFPOINTS
 62
     0
100
AcDbPoint
 10
1724.348134099724
 20
3243.588071393663
 30
0.0
  0
ENDBLK
  5
8780
330
8775
100
AcDbEntity
  8
0
100
AcDbBlockEnd
  0
BLOCK
  5
8782
330
8781
100
AcDbEntity
  8
0
100
AcDbBlockBegin
  2
*D4
 70
     1
 10
0.0
 20
0.0
 30
0.0
  3
*D4
  1

  0
LINE
  5
8783
330
8781
100
AcDbEntity
  8
3
 62
     0
370
    -2
100
AcDbLine
 10
554.4029518807328
 20
2463.588071393662
 30
0.0
 11
248.0712777469852
 21
2463.588071393662
 31
0.0
  0
LINE
  5
8784
330
8781
100
AcDbEntity
  8
3
 62
     0
370
    -2
100
AcDbLine
 10
554.402951880731
 20
2843.588071393663
 30
0.0
 11
248.0712777469853
 21
2843.588071393663
 31
0.0
  0
LINE
  5
8785
330
8781
100
AcDbEntity
  8
3
 62
     0
370
    -2
100
AcDbLine
 10
263.0712777469852
 20
2493.588071393662
 30
0.0
 11
263.0712777469853
 21
2813.588071393663
 31
0.0
  0
INSERT
  5
8786
330
8781
100
AcDbEntity
  8
3
 62
     0
370
    -2
100
AcDbBlockReference
  2
_OPEN
 10
263.0712777469852
 20
2463.588071393662
 30
0.0
 41
30.0
 42
30.0
 43
30.0
 50
270.0
  0
INSERT
  5
8787
330
8781
100
AcDbEntity
  8
3
 62
     0
370
    -2
100
AcDbBlockReference
  2
_OPEN
 10
263.0712777469853
 20
2843.588071393663
 30
0.0
 41
30.0
 42
30.0
 43
30.0
 50
90.0
  0
MTEXT
  5
8788
330
8781
100
AcDbEntity
  8
3
 62
     0
100
AcDbMText
 10
225.5712777469848
 20
2653.588071393662
 30
0.0
 40
45.0
 41
0.0
 71
     5
 72
     1
  1
\A1;380
 11
0.0000000000000001
 21
1.0
 31
0.0
 73
     1
 44
1.0
1001
ACAD
1000
MTEXTBEGIN
1070
    73
1070
     1
1070
    44
1040
1.0
1070
    74
1070
     0
1000
MTEXTEND
  0
POINT
  5
8789
330
8781
100
AcDbEntity
  8
DEFPOINTS
 62
     0
100
AcDbPoint
 10
561.9029518807328
 20
2463.588071393662
 30
0.0
  0
POINT
  5
878A
330
8781
100
AcDbEntity
  8
DEFPOINTS
 62
     0
100
AcDbPoint
 10
561.902951880731
 20
2843.588071393663
 30
0.0
  0
POINT
  5
878B
330
8781
100
AcDbEntity
  8
DEFPOINTS
 62
     0
100
AcDbPoint
 10
263.0712777469853
 20
2843.588071393663
 30
0.0
  0
ENDBLK
  5
878C
330
8781
100
AcDbEntity
  8
0
100
AcDbBlockEnd
  0
BLOCK
  5
878E
330
878D
100
AcDbEntity
  8
0
100
AcDbBlockBegin
  2
*D5
 70
     1
 10
0.0
 20
0.0
 30
0.0
  3
*D5
  1

  0
LINE
  5
878F
330
878D
100
AcDbEntity
  8
3
 62
     0
370
    -2
100
AcDbLine
 10
1361.902951880733
 20
3251.088071393663
 30
0.0
 11
1361.902951880733
 21
3458.524805396722
 31
0.0
  0
LINE
  5
8790
330
878D
100
AcDbEntity
  8
3
 62
     0
370
    -2
100
AcDbLine
 10
1001.902951880733
 20
3251.088071393663
 30
0.0
 11
1001.902951880733
 21
3458.524805396722
 31
0.0
  0
LINE
  5
8791
330
878D
100
AcDbEntity
  8
3
 62
     0
370
    -2
100
AcDbLine
 10
1331.902951880733
 20
3443.524805396722
 30
0.0
 11
1031.902951880732
 21
3443.524805396722
 31
0.0
  0
INSERT
  5
8792
330
878D
100
AcDbEntity
  8
3
 62
     0
370
    -2
100
AcDbBlockReference
  2
_OPEN
 10
1361.902951880733
 20
3443.524805396722
 30
0.0
 41
30.0
 42
30.0
 43
30.0
  0
INSERT
  5
8793
330
878D
100
AcDbEntity
  8
3
 62
     0
370
    -2
100
AcDbBlockReference
  2
_OPEN
 10
1001.902951880733
 20
3443.524805396722
 30
0.0
 41
30.0
 42
30.0
 43
30.0
 50
180.0
  0
MTEXT
  5
8794
330
878D
100
AcDbEntity
  8
3
 62
     0
100
AcDbMText
 10
1181.902951880733
 20
3481.024805396721
 30
0.0
 40
45.0
 41
0.0
 71
     5
 72
     1
  1
\A1;360
 73
     1
 44
1.0
1001
ACAD
1000
MTEXTBEGIN
1070
    73
1070
     1
1070
    44
1040
1.0
1070
    74
1070
     0
1000
MTEXTEND
  0
POINT
  5
8795
330
878D
100
AcDbEntity
  8
DEFPOINTS
 62
     0
100
AcDbPoint
 10
1361.902951880733
 20
3243.588071393663
 30
0.0
  0
POINT
  5
8796
330
878D
100
AcDbEntity
  8
DEFPOINTS
 62
     0
100
AcDbPoint
 10
1001.902951880733
 20
3243.588071393663
 30
0.0
  0
POINT
  5
8797
330
878D
100
AcDbEntity
  8
DEFPOINTS
 62
     0
100
AcDbPoint
 10
1001.902951880733
 20
3443.524805396722
 30
0.0
  0
ENDBLK
  5
8798
330
878D
100
AcDbEntity
  8
0
100
AcDbBlockEnd
  0
BLOCK
  5
879A
330
8799
100
AcDbEntity
  8
0
100
AcDbBlockBegin
  2
*D6
 70
     1
 10
0.0
 20
0.0
 30
0.0
  3
*D6
  1

  0
LINE
  5
879B
330
8799
100
AcDbEntity
  8
3
 62
     0
370
    -2
100
AcDbLine
 10
1001.902951880733
 20
3251.088071393663
 30
0.0
 11
1001.902951880733
 21
3458.524805396722
 31
0.0
  0
LINE
  5
879C
330
8799
100
AcDbEntity
  8
3
 62
     0
370
    -2
100
AcDbLine
 10
561.902951880731
 20
2851.088071393663
 30
0.0
 11
561.902951880731
 21
3458.524805396722
 31
0.0
  0
LINE
  5
879D
330
8799
100
AcDbEntity
  8
3
 62
     0
370
    -2
100
AcDbLine
 10
971.9029518807328
 20
3443.524805396722
 30
0.0
 11
591.902951880731
 21
3443.524805396722
 31
0.0
  0
INSERT
  5
879E
330
8799
100
AcDbEntity
  8
3
 62
     0
370
    -2
100
AcDbBlockReference
  2
_OPEN
 10
1001.902951880733
 20
3443.524805396722
 30
0.0
 41
30.0
 42
30.0
 43
30.0
  0
INSERT
  5
879F
330
8799
100
AcDbEntity
  8
3
 62
     0
370
    -2
100
AcDbBlockReference
  2
_OPEN
 10
561.902951880731
 20
3443.524805396722
 30
0.0
 41
30.0
 42
30.0
 43
30.0
 50
180.0
  0
MTEXT
  5
87A0
330
8799
100
AcDbEntity
  8
3
 62
     0
100
AcDbMText
 10
781.902951880732
 20
3481.024805396721
 30
0.0
 40
45.0
 41
0.0
 71
     5
 72
     1
  1
\A1;440
 73
     1
 44
1.0
1001
ACAD
1000
MTEXTBEGIN
1070
    73
1070
     1
1070
    44
1040
1.0
1070
    74
1070
     0
1000
MTEXTEND
  0
POINT
  5
87A1
330
8799
100
AcDbEntity
  8
DEFPOINTS
 62
     0
100
AcDbPoint
 10
1001.902951880733
 20
3243.588071393663
 30
0.0
  0
POINT
  5
87A2
330
8799
100
AcDbEntity
  8
DEFPOINTS
 62
     0
100
AcDbPoint
 10
561.902951880731
 20
2843.588071393663
 30
0.0
  0
POINT
  5
87A3
330
8799
100
AcDbEntity
  8
DEFPOINTS
 62
     0
100
AcDbPoint
 10
561.902951880731
 20
3443.524805396722
 30
0.0
  0
ENDBLK
  5
87A4
330
8799
100
AcDbEntity
  8
0
100
AcDbBlockEnd
  0
BLOCK
  5
87A6
330
87A5
100
AcDbEntity
  8
0
100
AcDbBlockBegin
  2
*D7
 70
     1
 10
0.0
 20
0.0
 30
0.0
  3
*D7
  1

  0
LINE
  5
87A7
330
87A5
100
AcDbEntity
  8
3
 62
     0
370
    -2
100
AcDbLine
 10
561.902951880731
 20
2851.088071393663
 30
0.0
 11
561.902951880731
 21
3025.447254894428
 31
0.0
  0
LINE
  5
87A8
330
87A5
100
AcDbEntity
  8
3
 62
     0
370
    -2
100
AcDbLine
 10
631.902951880731
 20
2851.088071393663
 30
0.0
 11
631.902951880731
 21
3025.447254894428
 31
0.0
  0
LINE
  5
87A9
330
87A5
100
AcDbEntity
  8
3
 62
     0
370
    -2
100
AcDbLine
 10
661.902951880731
 20
3010.447254894428
 30
0.0
 11
691.902951880731
 21
3010.447254894428
 31
0.0
  0
LINE
  5
87AA
330
87A5
100
AcDbEntity
  8
3
 62
     0
370
    -2
100
AcDbLine
 10
531.902951880731
 20
3010.447254894428
 30
0.0
 11
396.7320072133032
 21
3010.447254894428
 31
0.0
  0
LINE
  5
87AB
330
87A5
100
AcDbEntity
  8
3
 62
     0
370
    -2
100
AcDbLine
 10
631.902951880731
 20
3010.447254894428
 30
0.0
 11
561.902951880731
 21
3010.447254894428
 31
0.0
  0
INSERT
  5
87AC
330
87A5
100
AcDbEntity
  8
3
 62
     0
370
    -2
100
AcDbBlockReference
  2
_OPEN
 10
631.902951880731
 20
3010.447254894428
 30
0.0
 41
30.0
 42
30.0
 43
30.0
 50
180.0
  0
INSERT
  5
87AD
330
87A5
100
AcDbEntity
  8
3
 62
     0
370
    -2
100
AcDbBlockReference
  2
_OPEN
 10
561.902951880731
 20
3010.447254894428
 30
0.0
 41
30.0
 42
30.0
 43
30.0
  0
MTEXT
  5
87AE
330
87A5
100
AcDbEntity
  8
3
 62
     0
100
AcDbMText
 10
448.1605786418746
 20
3047.947254894428
 30
0.0
 40
45.0
 41
0.0
 71
     5
 72
     1
  1
\A1;70
 73
     1
 44
1.0
1001
ACAD
1000
MTEXTBEGIN
1070
    73
1070
     1
1070
    44
1040
1.0
1070
    74
1070
     0
1000
MTEXTEND
  0
POINT
  5
87AF
330
87A5
100
AcDbEntity
  8
DEFPOINTS
 62
     0
100
AcDbPoint
 10
561.902951880731
 20
2843.588071393663
 30
0.0
  0
POINT
  5
87B0
330
87A5
100
AcDbEntity
  8
DEFPOINTS
 62
     0
100
AcDbPoint
 10
631.902951880731
 20
2843.588071393663
 30
0.0
  0
POINT
  5
87B1
330
87A5
100
AcDbEntity
  8
DEFPOINTS
 62
     0
100
AcDbPoint
 10
631.902951880731
 20
3010.447254894428
 30
0.0
  0
ENDBLK
  5
87B2
330
87A5
100
AcDbEntity
  8
0
100
AcDbBlockEnd
  0
BLOCK
  5
87B4
330
87B3
100
AcDbEntity
  8
0
100
AcDbBlockBegin
  2
*D8
 70
     1
 10
0.0
 20
0.0
 30
0.0
  3
*D8
  1

  0
LINE
  5
87B5
330
87B3
100
AcDbEntity
  8
3
 62
     0
370
    -2
100
AcDbLine
 10
1001.902951880733
 20
3251.088071393663
 30
0.0
 11
1001.902951880733
 21
3359.763001973043
 31
0.0
  0
LINE
  5
87B6
330
87B3
100
AcDbEntity
  8
3
 62
     0
370
    -2
100
AcDbLine
 10
1019.902951880733
 20
3198.46467238436
 30
0.0
 11
1019.902951880733
 21
3359.763001973043
 31
0.0
  0
LINE
  5
87B7
330
87B3
100
AcDbEntity
  8
3
 62
     0
370
    -2
100
AcDbLine
 10
1049.902951880733
 20
3344.763001973042
 30
0.0
 11
1079.902951880733
 21
3344.763001973042
 31
0.0
  0
LINE
  5
87B8
330
87B3
100
AcDbEntity
  8
3
 62
     0
370
    -2
100
AcDbLine
 10
971.9029518807328
 20
3344.763001973042
 30
0.0
 11
847.6172375950186
 21
3344.763001973042
 31
0.0
  0
LINE
  5
87B9
330
87B3
100
AcDbEntity
  8
3
 62
     0
370
    -2
100
AcDbLine
 10
1019.902951880733
 20
3344.763001973042
 30
0.0
 11
1001.902951880733
 21
3344.763001973042
 31
0.0
  0
INSERT
  5
87BA
330
87B3
100
AcDbEntity
  8
3
 62
     0
370
    -2
100
AcDbBlockReference
  2
_OPEN
 10
1019.902951880733
 20
3344.763001973042
 30
0.0
 41
30.0
 42
30.0
 43
30.0
 50
180.0
  0
INSERT
  5
87BB
330
87B3
100
AcDbEntity
  8
3
 62
     0
370
    -2
100
AcDbBlockReference
  2
_OPEN
 10
1001.902951880733
 20
3344.763001973042
 30
0.0
 41
30.0
 42
30.0
 43
30.0
  0
MTEXT
  5
87BC
330
87B3
100
AcDbEntity
  8
3
 62
     0
100
AcDbMText
 10
894.7600947378758
 20
3382.263001973043
 30
0.0
 40
45.0
 41
0.0
 71
     5
 72
     1
  1
\A1;18
 73
     1
 44
1.0
1001
ACAD
1000
MTEXTBEGIN
1070
    73
1070
     1
1070
    44
1040
1.0
1070
    74
1070
     0
1000
MTEXTEND
  0
POINT
  5
87BD
330
87B3
100
AcDbEntity
  8
DEFPOINTS
 62
     0
100
AcDbPoint
 10
1001.902951880733
 20
3243.588071393663
 30
0.0
  0
POINT
  5
87BE
330
87B3
100
AcDbEntity
  8
DEFPOINTS
 62
     0
100
AcDbPoint
 10
1019.902951880733
 20
3190.96467238436
 30
0.0
  0
POINT
  5
87BF
330
87B3
100
AcDbEntity
  8
DEFPOINTS
 62
     0
100
AcDbPoint
 10
1019.902951880733
 20
3344.763001973042
 30
0.0
  0
ENDBLK
  5
87C0
330
87B3
100
AcDbEntity
  8
0
100
AcDbBlockEnd
  0
BLOCK
  5
87C2
330
87C1
100
AcDbEntity
  8
0
100
AcDbBlockBegin
  2
*D9
 70
     1
 10
0.0
 20
0.0
 30
0.0
  3
*D9
  1

  0
LINE
  5
87C3
330
87C1
100
AcDbEntity
  8
3
 62
     0
370
    -2
100
AcDbLine
 10
1019.902951880733
 20
3198.46467238436
 30
0.0
 11
1019.902951880733
 21
3359.763001973043
 31
0.0
  0
LINE
  5
87C4
330
87C1
100
AcDbEntity
  8
3
 62
     0
370
    -2
100
AcDbLine
 10
1343.902951880733
 20
3198.46467238436
 30
0.0
 11
1343.902951880733
 21
3359.763001973043
 31
0.0
  0
LINE
  5
87C5
330
87C1
100
AcDbEntity
  8
3
 62
     0
370
    -2
100
AcDbLine
 10
1049.902951880733
 20
3344.763001973042
 30
0.0
 11
1313.902951880733
 21
3344.763001973042
 31
0.0
  0
INSERT
  5
87C6
330
87C1
100
AcDbEntity
  8
3
 62
     0
370
    -2
100
AcDbBlockReference
  2
_OPEN
 10
1019.902951880733
 20
3344.763001973042
 30
0.0
 41
30.0
 42
30.0
 43
30.0
 50
180.0
  0
INSERT
  5
87C7
330
87C1
100
AcDbEntity
  8
3
 62
     0
370
    -2
100
AcDbBlockReference
  2
_OPEN
 10
1343.902951880733
 20
3344.763001973042
 30
0.0
 41
30.0
 42
30.0
 43
30.0
  0
MTEXT
  5
87C8
330
87C1
100
AcDbEntity
  8
3
 62
     0
100
AcDbMText
 10
1181.902951880733
 20
3382.263001973043
 30
0.0
 40
45.0
 41
0.0
 71
     5
 72
     1
  1
\A1;324
 73
     1
 44
1.0
1001
ACAD
1000
MTEXTBEGIN
1070
    73
1070
     1
1070
    44
1040
1.0
1070
    74
1070
     0
1000
MTEXTEND
  0
POINT
  5
87C9
330
87C1
100
AcDbEntity
  8
DEFPOINTS
 62
     0
100
AcDbPoint
 10
1019.902951880733
 20
3190.96467238436
 30
0.0
  0
POINT
  5
87CA
330
87C1
100
AcDbEntity
  8
DEFPOINTS
 62
     0
100
AcDbPoint
 10
1343.902951880733
 20
3190.96467238436
 30
0.0
  0
POINT
  5
87CB
330
87C1
100
AcDbEntity
  8
DEFPOINTS
 62
     0
100
AcDbPoint
 10
1343.902951880733
 20
3344.763001973042
 30
0.0
  0
ENDBLK
  5
87CC
330
87C1
100
AcDbEntity
  8
0
100
AcDbBlockEnd
  0
BLOCK
  5
87CE
330
87CD
100
AcDbEntity
  8
0
100
AcDbBlockBegin
  2
*D10
 70
     1
 10
0.0
 20
0.0
 30
0.0
  3
*D10
  1

  0
LINE
  5
87CF
330
87CD
100
AcDbEntity
  8
3
 62
     0
370
    -2
100
AcDbLine
 10
1361.902951880733
 20
3251.088071393663
 30
0.0
 11
1361.902951880733
 21
3359.763001973043
 31
0.0
  0
LINE
  5
87D0
330
87CD
100
AcDbEntity
  8
3
 62
     0
370
    -2
100
AcDbLine
 10
1343.902951880733
 20
3198.46467238436
 30
0.0
 11
1343.902951880733
 21
3359.763001973043
 31
0.0
  0
LINE
  5
87D1
330
87CD
100
AcDbEntity
  8
3
 62
     0
370
    -2
100
AcDbLine
 10
1313.902951880733
 20
3344.763001973042
 30
0.0
 11
1283.902951880733
 21
3344.763001973042
 31
0.0
  0
LINE
  5
87D2
330
87CD
100
AcDbEntity
  8
3
 62
     0
370
    -2
100
AcDbLine
 10
1391.902951880733
 20
3344.763001973042
 30
0.0
 11
1516.188666166447
 21
3344.763001973042
 31
0.0
  0
LINE
  5
87D3
330
87CD
100
AcDbEntity
  8
3
 62
     0
370
    -2
100
AcDbLine
 10
1343.902951880733
 20
3344.763001973042
 30
0.0
 11
1361.902951880733
 21
3344.763001973042
 31
0.0
  0
INSERT
  5
87D4
330
87CD
100
AcDbEntity
  8
3
 62
     0
370
    -2
100
AcDbBlockReference
  2
_OPEN
 10
1343.902951880733
 20
3344.763001973042
 30
0.0
 41
30.0
 42
30.0
 43
30.0
  0
INSERT
  5
87D5
330
87CD
100
AcDbEntity
  8
3
 62
     0
370
    -2
100
AcDbBlockReference
  2
_OPEN
 10
1361.902951880733
 20
3344.763001973042
 30
0.0
 41
30.0
 42
30.0
 43
30.0
 50
180.0
  0
MTEXT
  5
87D6
330
87CD
100
AcDbEntity
  8
3
 62
     0
100
AcDbMText
 10
1469.04580902359
 20
3382.263001973043
 30
0.0
 40
45.0
 41
0.0
 71
     5
 72
     1
  1
\A1;18
 73
     1
 44
1.0
1001
ACAD
1000
MTEXTBEGIN
1070
    73
1070
     1
1070
    44
1040
1.0
1070
    74
1070
     0
1000
MTEXTEND
  0
POINT
  5
87D7
330
87CD
100
AcDbEntity
  8
DEFPOINTS
 62
     0
100
AcDbPoint
 10
1361.902951880733
 20
3243.588071393663
 30
0.0
  0
POINT
  5
87D8
330
87CD
100
AcDbEntity
  8
DEFPOINTS
 62
     0
100
AcDbPoint
 10
1343.902951880733
 20
3190.96467238436
 30
0.0
  0
POINT
  5
87D9
330
87CD
100
AcDbEntity
  8
DEFPOINTS
 62
     0
100
AcDbPoint
 10
1343.902951880733
 20
3344.763001973042
 30
0.0
  0
ENDBLK
  5
87DA
330
87CD
100
AcDbEntity
  8
0
100
AcDbBlockEnd
  0
BLOCK
  5
87DC
330
87DB
100
AcDbEntity
  8
0
100
AcDbBlockBegin
  2
*D11
 70
     1
 10
0.0
 20
0.0
 30
0.0
  3
*D11
  1

  0
LINE
  5
87DD
330
87DB
100
AcDbEntity
  8
3
 62
     0
370
    -2
100
AcDbLine
 10
1369.402951880732
 20
2463.588071393663
 30
0.0
 11
1633.001294706843
 21
2463.588071393663
 31
0.0
  0
LINE
  5
87DE
330
87DB
100
AcDbEntity
  8
3
 62
     0
370
    -2
100
AcDbLine
 10
1368.144190272336
 20
2853.96467238436
 30
0.0
 11
1633.001294706843
 21
2853.96467238436
 31
0.0
  0
LINE
  5
87DF
330
87DB
100
AcDbEntity
  8
3
 62
     0
370
    -2
100
AcDbLine
 10
1618.001294706842
 20
2493.588071393663
 30
0.0
 11
1618.001294706843
 21
2823.96467238436
 31
0.0
  0
INSERT
  5
87E0
330
87DB
100
AcDbEntity
  8
3
 62
     0
370
    -2
100
AcDbBlockReference
  2
_OPEN
 10
1618.001294706842
 20
2463.588071393663
 30
0.0
 41
30.0
 42
30.0
 43
30.0
 50
270.0
  0
INSERT
  5
87E1
330
87DB
100
AcDbEntity
  8
3
 62
     0
370
    -2
100
AcDbBlockReference
  2
_OPEN
 10
1618.001294706843
 20
2853.96467238436
 30
0.0
 41
30.0
 42
30.0
 43
30.0
 50
90.0
  0
MTEXT
  5
87E2
330
87DB
100
AcDbEntity
  8
3
 62
     0
100
AcDbMText
 10
1580.501294706843
 20
2658.776371889012
 30
0.0
 40
45.0
 41
0.0
 71
     5
 72
     1
  1
\A1;390
 11
0.0000000000000001
 21
1.0
 31
0.0
 73
     1
 44
1.0
1001
ACAD
1000
MTEXTBEGIN
1070
    73
1070
     1
1070
    44
1040
1.0
1070
    74
1070
     0
1000
MTEXTEND
  0
POINT
  5
87E3
330
87DB
100
AcDbEntity
  8
DEFPOINTS
 62
     0
100
AcDbPoint
 10
1361.902951880732
 20
2463.588071393663
 30
0.0
  0
POINT
  5
87E4
330
87DB
100
AcDbEntity
  8
DEFPOINTS
 62
     0
100
AcDbPoint
 10
1360.644190272336
 20
2853.96467238436
 30
0.0
  0
POINT
  5
87E5
330
87DB
100
AcDbEntity
  8
DEFPOINTS
 62
     0
100
AcDbPoint
 10
1618.001294706843
 20
2853.96467238436
 30
0.0
  0
ENDBLK
  5
87E6
330
87DB
100
AcDbEntity
  8
0
100
AcDbBlockEnd
  0
BLOCK
  5
87E8
330
87E7
100
AcDbEntity
  8
0
100
AcDbBlockBegin
  2
*D12
 70
     1
 10
0.0
 20
0.0
 30
0.0
  3
*D12
  1

  0
LINE
  5
87E9
330
87E7
100
AcDbEntity
  8
3
 62
     0
370
    -2
100
AcDbLine
 10
1368.144190272336
 20
2853.96467238436
 30
0.0
 11
1633.001294706843
 21
2853.96467238436
 31
0.0
  0
LINE
  5
87EA
330
87E7
100
AcDbEntity
  8
3
 62
     0
370
    -2
100
AcDbLine
 10
1368.144190272336
 20
3173.96467238436
 30
0.0
 11
1633.001294706843
 21
3173.96467238436
 31
0.0
  0
LINE
  5
87EB
330
87E7
100
AcDbEntity
  8
3
 62
     0
370
    -2
100
AcDbLine
 10
1618.001294706843
 20
2883.96467238436
 30
0.0
 11
1618.001294706843
 21
3143.96467238436
 31
0.0
  0
INSERT
  5
87EC
330
87E7
100
AcDbEntity
  8
3
 62
     0
370
    -2
100
AcDbBlockReference
  2
_OPEN
 10
1618.001294706843
 20
2853.96467238436
 30
0.0
 41
30.0
 42
30.0
 43
30.0
 50
270.0
  0
INSERT
  5
87ED
330
87E7
100
AcDbEntity
  8
3
 62
     0
370
    -2
100
AcDbBlockReference
  2
_OPEN
 10
1618.001294706843
 20
3173.96467238436
 30
0.0
 41
30.0
 42
30.0
 43
30.0
 50
90.0
  0
MTEXT
  5
87EE
330
87E7
100
AcDbEntity
  8
3
 62
     0
100
AcDbMText
 10
1580.501294706843
 20
3013.964672384361
 30
0.0
 40
45.0
 41
0.0
 71
     5
 72
     1
  1
\A1;320
 11
0.0000000000000001
 21
1.0
 31
0.0
 73
     1
 44
1.0
1001
ACAD
1000
MTEXTBEGIN
1070
    73
1070
     1
1070
    44
1040
1.0
1070
    74
1070
     0
1000
MTEXTEND
  0
POINT
  5
87EF
330
87E7
100
AcDbEntity
  8
DEFPOINTS
 62
     0
100
AcDbPoint
 10
1360.644190272336
 20
2853.96467238436
 30
0.0
  0
POINT
  5
87F0
330
87E7
100
AcDbEntity
  8
DEFPOINTS
 62
     0
100
AcDbPoint
 10
1360.644190272336
 20
3173.96467238436
 30
0.0
  0
POINT
  5
87F1
330
87E7
100
AcDbEntity
  8
DEFPOINTS
 62
     0
100
AcDbPoint
 10
1618.001294706843
 20
3173.96467238436
 30
0.0
  0
ENDBLK
  5
87F2
330
87E7
100
AcDbEntity
  8
0
100
AcDbBlockEnd
  0
BLOCK
  5
87F4
330
87F3
100
AcDbEntity
  8
0
100
AcDbBlockBegin
  2
*D13
 70
     1
 10
0.0
 20
0.0
 30
0.0
  3
*D13
  1

  0
LINE
  5
87F5
330
87F3
100
AcDbEntity
  8
3
 62
     0
370
    -2
100
AcDbLine
 10
561.9029518807321
 20
2475.088071393663
 30
0.0
 11
561.9029518807321
 21
2270.955760804493
 31
0.0
  0
LINE
  5
87F6
330
87F3
100
AcDbEntity
  8
3
 62
     0
370
    -2
100
AcDbLine
 10
631.902951880731
 20
2456.088071393662
 30
0.0
 11
631.902951880731
 21
2270.955760804493
 31
0.0
  0
LINE
  5
87F7
330
87F3
100
AcDbEntity
  8
3
 62
     0
370
    -2
100
AcDbLine
 10
661.902951880731
 20
2285.955760804492
 30
0.0
 11
691.902951880731
 21
2285.955760804492
 31
0.0
  0
LINE
  5
87F8
330
87F3
100
AcDbEntity
  8
3
 62
     0
370
    -2
100
AcDbLine
 10
531.9029518807321
 20
2285.955760804492
 30
0.0
 11
399.0458090235893
 21
2285.955760804492
 31
0.0
  0
LINE
  5
87F9
330
87F3
100
AcDbEntity
  8
3
 62
     0
370
    -2
100
AcDbLine
 10
631.902951880731
 20
2285.955760804492
 30
0.0
 11
561.9029518807321
 21
2285.955760804492
 31
0.0
  0
INSERT
  5
87FA
330
87F3
100
AcDbEntity
  8
3
 62
     0
370
    -2
100
AcDbBlockReference
  2
_OPEN
 10
631.902951880731
 20
2285.955760804492
 30
0.0
 41
30.0
 42
30.0
 43
30.0
 50
180.0
  0
INSERT
  5
87FB
330
87F3
100
AcDbEntity
  8
3
 62
     0
370
    -2
100
AcDbBlockReference
  2
_OPEN
 10
561.9029518807321
 20
2285.955760804492
 30
0.0
 41
30.0
 42
30.0
 43
30.0
  0
MTEXT
  5
87FC
330
87F3
100
AcDbEntity
  8
3
 62
     0
100
AcDbMText
 10
450.4743804521607
 20
2323.455760804492
 30
0.0
 40
45.0
 41
0.0
 71
     5
 72
     1
  1
\A1;70
 73
     1
 44
1.0
1001
ACAD
1000
MTEXTBEGIN
1070
    73
1070
     1
1070
    44
1040
1.0
1070
    74
1070
     0
1000
MTEXTEND
  0
POINT
  5
87FD
330
87F3
100
AcDbEntity
  8
DEFPOINTS
 62
     0
100
AcDbPoint
 10
561.9029518807321
 20
2482.588071393663
 30
0.0
  0
POINT
  5
87FE
330
87F3
100
AcDbEntity
  8
DEFPOINTS
 62
     0
100
AcDbPoint
 10
631.902951880731
 20
2463.588071393662
 30
0.0
  0
POINT
  5
87FF
330
87F3
100
AcDbEntity
  8
DEFPOINTS
 62
     0
100
AcDbPoint
 10
631.902951880731
 20
2285.955760804492
 30
0.0
  0
ENDBLK
  5
8800
330
87F3
100
AcDbEntity
  8
0
100
AcDbBlockEnd
  0
BLOCK
  5
8802
330
8801
100
AcDbEntity
  8
0
100
AcDbBlockBegin
  2
*D14
 70
     1
 10
0.0
 20
0.0
 30
0.0
  3
*D14
  1

  0
LINE
  5
8803
330
8801
100
AcDbEntity
  8
3
 62
     0
370
    -2
100
AcDbLine
 10
631.902951880731
 20
2456.088071393662
 30
0.0
 11
631.902951880731
 21
2270.955760804493
 31
0.0
  0
LINE
  5
8804
330
8801
100
AcDbEntity
  8
3
 62
     0
370
    -2
100
AcDbLine
 10
961.9029518807311
 20
2456.088071393662
 30
0.0
 11
961.9029518807311
 21
2270.955760804493
 31
0.0
  0
LINE
  5
8805
330
8801
100
AcDbEntity
  8
3
 62
     0
370
    -2
100
AcDbLine
 10
661.902951880731
 20
2285.955760804492
 30
0.0
 11
931.902951880731
 21
2285.955760804492
 31
0.0
  0
INSERT
  5
8806
330
8801
100
AcDbEntity
  8
3
 62
     0
370
    -2
100
AcDbBlockReference
  2
_OPEN
 10
631.902951880731
 20
2285.955760804492
 30
0.0
 41
30.0
 42
30.0
 43
30.0
 50
180.0
  0
INSERT
  5
8807
330
8801
100
AcDbEntity
  8
3
 62
     0
370
    -2
100
AcDbBlockReference
  2
_OPEN
 10
961.9029518807311
 20
2285.955760804492
 30
0.0
 41
30.0
 42
30.0
 43
30.0
  0
MTEXT
  5
8808
330
8801
100
AcDbEntity
  8
3
 62
     0
100
AcDbMText
 10
796.902951880731
 20
2323.455760804492
 30
0.0
 40
45.0
 41
0.0
 71
     5
 72
     1
  1
\A1;330
 73
     1
 44
1.0
1001
ACAD
1000
MTEXTBEGIN
1070
    73
1070
     1
1070
    44
1040
1.0
1070
    74
1070
     0
1000
MTEXTEND
  0
POINT
  5
8809
330
8801
100
AcDbEntity
  8
DEFPOINTS
 62
     0
100
AcDbPoint
 10
631.902951880731
 20
2463.588071393662
 30
0.0
  0
POINT
  5
880A
330
8801
100
AcDbEntity
  8
DEFPOINTS
 62
     0
100
AcDbPoint
 10
961.9029518807311
 20
2463.588071393662
 30
0.0
  0
POINT
  5
880B
330
8801
100
AcDbEntity
  8
DEFPOINTS
 62
     0
100
AcDbPoint
 10
961.9029518807311
 20
2285.955760804492
 30
0.0
  0
ENDBLK
  5
880C
330
8801
100
AcDbEntity
  8
0
100
AcDbBlockEnd
  0
BLOCK
  5
880E
330
880D
100
AcDbEntity
  8
0
100
AcDbBlockBegin
  2
*D15
 70
     1
 10
0.0
 20
0.0
 30
0.0
  3
*D15
  1

  0
LINE
  5
880F
330
880D
100
AcDbEntity
  8
3
 62
     0
370
    -2
100
AcDbLine
 10
961.9029518807311
 20
2456.088071393662
 30
0.0
 11
961.9029518807311
 21
2270.955760804493
 31
0.0
  0
LINE
  5
8810
330
880D
100
AcDbEntity
  8
3
 62
     0
370
    -2
100
AcDbLine
 10
1291.902951880733
 20
2456.088071393662
 30
0.0
 11
1291.902951880733
 21
2270.955760804493
 31
0.0
  0
LINE
  5
8811
330
880D
100
AcDbEntity
  8
3
 62
     0
370
    -2
100
AcDbLine
 10
991.902951880731
 20
2285.955760804492
 30
0.0
 11
1261.902951880733
 21
2285.955760804492
 31
0.0
  0
INSERT
  5
8812
330
880D
100
AcDbEntity
  8
3
 62
     0
370
    -2
100
AcDbBlockReference
  2
_OPEN
 10
961.9029518807311
 20
2285.955760804492
 30
0.0
 41
30.0
 42
30.0
 43
30.0
 50
180.0
  0
INSERT
  5
8813
330
880D
100
AcDbEntity
  8
3
 62
     0
370
    -2
100
AcDbBlockReference
  2
_OPEN
 10
1291.902951880733
 20
2285.955760804492
 30
0.0
 41
30.0
 42
30.0
 43
30.0
  0
MTEXT
  5
8814
330
880D
100
AcDbEntity
  8
3
 62
     0
100
AcDbMText
 10
1126.902951880732
 20
2323.455760804492
 30
0.0
 40
45.0
 41
0.0
 71
     5
 72
     1
  1
\A1;330
 73
     1
 44
1.0
1001
ACAD
1000
MTEXTBEGIN
1070
    73
1070
     1
1070
    44
1040
1.0
1070
    74
1070
     0
1000
MTEXTEND
  0
POINT
  5
8815
330
880D
100
AcDbEntity
  8
DEFPOINTS
 62
     0
100
AcDbPoint
 10
961.9029518807311
 20
2463.588071393662
 30
0.0
  0
POINT
  5
8816
330
880D
100
AcDbEntity
  8
DEFPOINTS
 62
     0
100
AcDbPoint
 10
1291.902951880733
 20
2463.588071393662
 30
0.0
  0
POINT
  5
8817
330
880D
100
AcDbEntity
  8
DEFPOINTS
 62
     0
100
AcDbPoint
 10
1291.902951880733
 20
2285.955760804492
 30
0.0
  0
ENDBLK
  5
8818
330
880D
100
AcDbEntity
  8
0
100
AcDbBlockEnd
  0
BLOCK
  5
881A
330
8819
100
AcDbEntity
  8
0
100
AcDbBlockBegin
  2
*D16
 70
     1
 10
0.0
 20
0.0
 30
0.0
  3
*D16
  1

  0
LINE
  5
881B
330
8819
100
AcDbEntity
  8
3
 62
     0
370
    -2
100
AcDbLine
 10
1361.902951880732
 20
2456.088071393663
 30
0.0
 11
1361.902951880732
 21
2270.955760804493
 31
0.0
  0
LINE
  5
881C
330
8819
100
AcDbEntity
  8
3
 62
     0
370
    -2
100
AcDbLine
 10
1291.902951880733
 20
2456.088071393662
 30
0.0
 11
1291.902951880733
 21
2270.955760804493
 31
0.0
  0
LINE
  5
881D
330
8819
100
AcDbEntity
  8
3
 62
     0
370
    -2
100
AcDbLine
 10
1261.902951880733
 20
2285.955760804492
 30
0.0
 11
1231.902951880733
 21
2285.955760804492
 31
0.0
  0
LINE
  5
881E
330
8819
100
AcDbEntity
  8
3
 62
     0
370
    -2
100
AcDbLine
 10
1391.902951880732
 20
2285.955760804492
 30
0.0
 11
1524.760094737875
 21
2285.955760804492
 31
0.0
  0
LINE
  5
881F
330
8819
100
AcDbEntity
  8
3
 62
     0
370
    -2
100
AcDbLine
 10
1291.902951880733
 20
2285.955760804492
 30
0.0
 11
1361.902951880732
 21
2285.955760804492
 31
0.0
  0
INSERT
  5
8820
330
8819
100
AcDbEntity
  8
3
 62
     0
370
    -2
100
AcDbBlockReference
  2
_OPEN
 10
1291.902951880733
 20
2285.955760804492
 30
0.0
 41
30.0
 42
30.0
 43
30.0
  0
INSERT
  5
8821
330
8819
100
AcDbEntity
  8
3
 62
     0
370
    -2
100
AcDbBlockReference
  2
_OPEN
 10
1361.902951880732
 20
2285.955760804492
 30
0.0
 41
30.0
 42
30.0
 43
30.0
 50
180.0
  0
MTEXT
  5
8822
330
8819
100
AcDbEntity
  8
3
 62
     0
100
AcDbMText
 10
1473.331523309303
 20
2323.455760804492
 30
0.0
 40
45.0
 41
0.0
 71
     5
 72
     1
  1
\A1;70
 73
     1
 44
1.0
1001
ACAD
1000
MTEXTBEGIN
1070
    73
1070
     1
1070
    44
1040
1.0
1070
    74
1070
     0
1000
MTEXTEND
  0
POINT
  5
8823
330
8819
100
AcDbEntity
  8
DEFPOINTS
 62
     0
100
AcDbPoint
 10
1361.902951880732
 20
2463.588071393663
 30
0.0
  0
POINT
  5
8824
330
8819
100
AcDbEntity
  8
DEFPOINTS
 62
     0
100
AcDbPoint
 10
1291.902951880733
 20
2463.588071393662
 30
0.0
  0
POINT
  5
8825
330
8819
100
AcDbEntity
  8
DEFPOINTS
 62
     0
100
AcDbPoint
 10
1291.902951880733
 20
2285.955760804492
 30
0.0
  0
ENDBLK
  5
8826
330
8819
100
AcDbEntity
  8
0
100
AcDbBlockEnd
  0
BLOCK
  5
8828
330
8827
100
AcDbEntity
  8
0
100
AcDbBlockBegin
  2
*D17
 70
     1
 10
0.0
 20
0.0
 30
0.0
  3
*D17
  1

  0
LINE
  5
8829
330
8827
100
AcDbEntity
  8
3
 62
     0
370
    -2
100
AcDbLine
 10
1368.144190272336
 20
3173.96467238436
 30
0.0
 11
1633.001294706843
 21
3173.96467238436
 31
0.0
  0
LINE
  5
882A
330
8827
100
AcDbEntity
  8
3
 62
     0
370
    -2
100
AcDbLine
 10
1369.402951880733
 20
3243.588071393663
 30
0.0
 11
1633.001294706843
 21
3243.588071393663
 31
0.0
  0
LINE
  5
882B
330
8827
100
AcDbEntity
  8
3
 62
     0
370
    -2
100
AcDbLine
 10
1618.001294706843
 20
3143.96467238436
 30
0.0
 11
1618.001294706843
 21
3113.96467238436
 31
0.0
  0
LINE
  5
882C
330
8827
100
AcDbEntity
  8
3
 62
     0
370
    -2
100
AcDbLine
 10
1618.001294706843
 20
3273.588071393663
 30
0.0
 11
1618.001294706843
 21
3406.445214250805
 31
0.0
  0
LINE
  5
882D
330
8827
100
AcDbEntity
  8
3
 62
     0
370
    -2
100
AcDbLine
 10
1618.001294706843
 20
3173.96467238436
 30
0.0
 11
1618.001294706843
 21
3243.588071393663
 31
0.0
  0
INSERT
  5
882E
330
8827
100
AcDbEntity
  8
3
 62
     0
370
    -2
100
AcDbBlockReference
  2
_OPEN
 10
1618.001294706843
 20
3173.96467238436
 30
0.0
 41
30.0
 42
30.0
 43
30.0
 50
90.0
  0
INSERT
  5
882F
330
8827
100
AcDbEntity
  8
3
 62
     0
370
    -2
100
AcDbBlockReference
  2
_OPEN
 10
1618.001294706843
 20
3243.588071393663
 30
0.0
 41
30.0
 42
30.0
 43
30.0
 50
270.0
  0
MTEXT
  5
8830
330
8827
100
AcDbEntity
  8
3
 62
     0
100
AcDbMText
 10
1580.501294706843
 20
3355.016642822235
 30
0.0
 40
45.0
 41
0.0
 71
     5
 72
     1
  1
\A1;70
 11
0.0000000000000001
 21
1.0
 31
0.0
 73
     1
 44
1.0
1001
ACAD
1000
MTEXTBEGIN
1070
    73
1070
     1
1070
    44
1040
1.0
1070
    74
1070
     0
1000
MTEXTEND
  0
POINT
  5
8831
330
8827
100
AcDbEntity
  8
DEFPOINTS
 62
     0
100
AcDbPoint
 10
1360.644190272336
 20
3173.96467238436
 30
0.0
  0
POINT
  5
8832
330
8827
100
AcDbEntity
  8
DEFPOINTS
 62
     0
100
AcDbPoint
 10
1361.902951880733
 20
3243.588071393663
 30
0.0
  0
POINT
  5
8833
330
8827
100
AcDbEntity
  8
DEFPOINTS
 62
     0
100
AcDbPoint
 10
1618.001294706843
 20
3243.588071393663
 30
0.0
  0
ENDBLK
  5
8834
330
8827
100
AcDbEntity
  8
0
100
AcDbBlockEnd
  0
BLOCK
  5
8836
330
8835
100
AcDbEntity
  8
0
100
AcDbBlockBegin
  2
*D18
 70
     1
 10
0.0
 20
0.0
 30
0.0
  3
*D18
  1

  0
LINE
  5
8837
330
8835
100
AcDbEntity
  8
3
 62
     0
370
    -2
100
AcDbLine
 10
554.4029518807328
 20
2843.588071393663
 30
0.0
 11
348.775445302701
 21
2843.588071393663
 31
0.0
  0
LINE
  5
8838
330
8835
100
AcDbEntity
  8
3
 62
     0
370
    -2
100
AcDbLine
 10
607.6617134891275
 20
2825.588071393663
 30
0.0
 11
348.775445302701
 21
2825.588071393663
 31
0.0
  0
LINE
  5
8839
330
8835
100
AcDbEntity
  8
3
 62
     0
370
    -2
100
AcDbLine
 10
363.775445302701
 20
2795.588071393663
 30
0.0
 11
363.775445302701
 21
2765.588071393663
 31
0.0
  0
LINE
  5
883A
330
8835
100
AcDbEntity
  8
3
 62
     0
370
    -2
100
AcDbLine
 10
363.775445302701
 20
2873.588071393663
 30
0.0
 11
363.775445302701
 21
2997.873785679377
 31
0.0
  0
LINE
  5
883B
330
8835
100
AcDbEntity
  8
3
 62
     0
370
    -2
100
AcDbLine
 10
363.775445302701
 20
2825.588071393663
 30
0.0
 11
363.775445302701
 21
2843.588071393663
 31
0.0
  0
INSERT
  5
883C
330
8835
100
AcDbEntity
  8
3
 62
     0
370
    -2
100
AcDbBlockReference
  2
_OPEN
 10
363.775445302701
 20
2825.588071393663
 30
0.0
 41
30.0
 42
30.0
 43
30.0
 50
90.0
  0
INSERT
  5
883D
330
8835
100
AcDbEntity
  8
3
 62
     0
370
    -2
100
AcDbBlockReference
  2
_OPEN
 10
363.775445302701
 20
2843.588071393663
 30
0.0
 41
30.0
 42
30.0
 43
30.0
 50
270.0
  0
MTEXT
  5
883E
330
8835
100
AcDbEntity
  8
3
 62
     0
100
AcDbMText
 10
326.2754453027005
 20
2950.73092853652
 30
0.0
 40
45.0
 41
0.0
 71
     5
 72
     1
  1
\A1;18
 11
0.0000000000000001
 21
1.0
 31
0.0
 73
     1
 44
1.0
1001
ACAD
1000
MTEXTBEGIN
1070
    73
1070
     1
1070
    44
1040
1.0
1070
    74
1070
     0
1000
MTEXTEND
  0
POINT
  5
883F
330
8835
100
AcDbEntity
  8
DEFPOINTS
 62
     0
100
AcDbPoint
 10
561.9029518807328
 20
2843.588071393663
 30
0.0
  0
POINT
  5
8840
330
8835
100
AcDbEntity
  8
DEFPOINTS
 62
     0
100
AcDbPoint
 10
615.1617134891275
 20
2825.588071393663
 30
0.0
  0
POINT
  5
8841
330
8835
100
AcDbEntity
  8
DEFPOINTS
 62
     0
100
AcDbPoint
 10
363.775445302701
 20
2825.588071393663
 30
0.0
  0
ENDBLK
  5
8842
330
8835
100
AcDbEntity
  8
0
100
AcDbBlockEnd
  0
BLOCK
  5
8844
330
8843
100
AcDbEntity
  8
0
100
AcDbBlockBegin
  2
*D19
 70
     1
 10
0.0
 20
0.0
 30
0.0
  3
*D19
  1

  0
LINE
  5
8845
330
8843
100
AcDbEntity
  8
3
 62
     0
370
    -2
100
AcDbLine
 10
607.6617134891275
 20
2825.588071393663
 30
0.0
 11
348.775445302701
 21
2825.588071393663
 31
0.0
  0
LINE
  5
8846
330
8843
100
AcDbEntity
  8
3
 62
     0
370
    -2
100
AcDbLine
 10
607.6617134891275
 20
2481.588071393662
 30
0.0
 11
348.7754453027009
 21
2481.588071393662
 31
0.0
  0
LINE
  5
8847
330
8843
100
AcDbEntity
  8
3
 62
     0
370
    -2
100
AcDbLine
 10
363.775445302701
 20
2795.588071393663
 30
0.0
 11
363.7754453027009
 21
2511.588071393662
 31
0.0
  0
INSERT
  5
8848
330
8843
100
AcDbEntity
  8
3
 62
     0
370
    -2
100
AcDbBlockReference
  2
_OPEN
 10
363.775445302701
 20
2825.588071393663
 30
0.0
 41
30.0
 42
30.0
 43
30.0
 50
90.0
  0
INSERT
  5
8849
330
8843
100
AcDbEntity
  8
3
 62
     0
370
    -2
100
AcDbBlockReference
  2
_OPEN
 10
363.7754453027009
 20
2481.588071393662
 30
0.0
 41
30.0
 42
30.0
 43
30.0
 50
270.0
  0
MTEXT
  5
884A
330
8843
100
AcDbEntity
  8
3
 62
     0
100
AcDbMText
 10
326.2754453027005
 20
2653.588071393662
 30
0.0
 40
45.0
 41
0.0
 71
     5
 72
     1
  1
\A1;344
 11
0.0000000000000001
 21
1.0
 31
0.0
 73
     1
 44
1.0
1001
ACAD
1000
MTEXTBEGIN
1070
    73
1070
     1
1070
    44
1040
1.0
1070
    74
1070
     0
1000
MTEXTEND
  0
POINT
  5
884B
330
8843
100
AcDbEntity
  8
DEFPOINTS
 62
     0
100
AcDbPoint
 10
615.1617134891275
 20
2825.588071393663
 30
0.0
  0
POINT
  5
884C
330
8843
100
AcDbEntity
  8
DEFPOINTS
 62
     0
100
AcDbPoint
 10
615.1617134891275
 20
2481.588071393662
 30
0.0
  0
POINT
  5
884D
330
8843
100
AcDbEntity
  8
DEFPOINTS
 62
     0
100
AcDbPoint
 10
363.7754453027009
 20
2481.588071393662
 30
0.0
  0
ENDBLK
  5
884E
330
8843
100
AcDbEntity
  8
0
100
AcDbBlockEnd
  0
BLOCK
  5
8850
330
884F
100
AcDbEntity
  8
0
100
AcDbBlockBegin
  2
*D20
 70
     1
 10
0.0
 20
0.0
 30
0.0
  3
*D20
  1

  0
LINE
  5
8851
330
884F
100
AcDbEntity
  8
3
 62
     0
370
    -2
100
AcDbLine
 10
554.4029518807328
 20
2463.588071393662
 30
0.0
 11
348.7754453027009
 21
2463.588071393662
 31
0.0
  0
LINE
  5
8852
330
884F
100
AcDbEntity
  8
3
 62
     0
370
    -2
100
AcDbLine
 10
607.6617134891275
 20
2481.588071393662
 30
0.0
 11
348.7754453027009
 21
2481.588071393662
 31
0.0
  0
LINE
  5
8853
330
884F
100
AcDbEntity
  8
3
 62
     0
370
    -2
100
AcDbLine
 10
363.7754453027009
 20
2511.588071393662
 30
0.0
 11
363.7754453027009
 21
2541.588071393662
 31
0.0
  0
LINE
  5
8854
330
884F
100
AcDbEntity
  8
3
 62
     0
370
    -2
100
AcDbLine
 10
363.7754453027009
 20
2433.588071393662
 30
0.0
 11
363.7754453027008
 21
2309.302357107947
 31
0.0
  0
LINE
  5
8855
330
884F
100
AcDbEntity
  8
3
 62
     0
370
    -2
100
AcDbLine
 10
363.7754453027009
 20
2481.588071393662
 30
0.0
 11
363.7754453027009
 21
2463.588071393662
 31
0.0
  0
INSERT
  5
8856
330
884F
100
AcDbEntity
  8
3
 62
     0
370
    -2
100
AcDbBlockReference
  2
_OPEN
 10
363.7754453027009
 20
2481.588071393662
 30
0.0
 41
30.0
 42
30.0
 43
30.0
 50
270.0
  0
INSERT
  5
8857
330
884F
100
AcDbEntity
  8
3
 62
     0
370
    -2
100
AcDbBlockReference
  2
_OPEN
 10
363.7754453027009
 20
2463.588071393662
 30
0.0
 41
30.0
 42
30.0
 43
30.0
 50
90.0
  0
MTEXT
  5
8858
330
884F
100
AcDbEntity
  8
3
 62
     0
100
AcDbMText
 10
326.2754453027005
 20
2356.445214250804
 30
0.0
 40
45.0
 41
0.0
 71
     5
 72
     1
  1
\A1;18
 11
0.0000000000000001
 21
1.0
 31
0.0
 73
     1
 44
1.0
1001
ACAD
1000
MTEXTBEGIN
1070
    73
1070
     1
1070
    44
1040
1.0
1070
    74
1070
     0
1000
MTEXTEND
  0
POINT
  5
8859
330
884F
100
AcDbEntity
  8
DEFPOINTS
 62
     0
100
AcDbPoint
 10
561.9029518807328
 20
2463.588071393662
 30
0.0
  0
POINT
  5
885A
330
884F
100
AcDbEntity
  8
DEFPOINTS
 62
     0
100
AcDbPoint
 10
615.1617134891275
 20
2481.588071393662
 30
0.0
  0
POINT
  5
885B
330
884F
100
AcDbEntity
  8
DEFPOINTS
 62
     0
100
AcDbPoint
 10
363.7754453027009
 20
2481.588071393662
 30
0.0
  0
ENDBLK
  5
885C
330
884F
100
AcDbEntity
  8
0
100
AcDbBlockEnd
  0
BLOCK
  5
8880
330
885F
100
AcDbEntity
  8
0
100
AcDbBlockBegin
  2
A$C5F035C4D
 70
     0
 10
0.0
 20
0.0
 30
0.0
  3
A$C5F035C4D
  1

  0
DIMENSION
  5
8860
330
885F
100
AcDbEntity
  8
3
100
AcDbDimension
  2
*D2
 10
-799.9999999999998
 20
-254.1856030264976
 30
0.0
 11
-399.9999999999999
 21
-216.6856030264976
 31
0.0
 12
-1361.902951880732
 22
-2463.588071393663
 32
0.0
 71
     5
 42
799.9999999999998
  3
IGA
100
AcDbAlignedDimension
 13
0.0
 23
-0.0000000000004547
 33
0.0
 14
-799.9999999999998
 24
19.0
 34
0.0
100
AcDbRotatedDimension
1001
ACAD
1000
DSTYLE
1002
{
1070
    40
1040
15.0
1070
   143
1040
0.039
1070
   172
1070
     1
1070
   271
1070
     0
1070
   279
1070
     0
1070
   288
1070
     1
1002
}
  0
DIMENSION
  5
8861
330
885F
100
AcDbEntity
  8
3
100
AcDbDimension
  2
*D3
 10
362.4451822189922
 20
780.0
 30
0.0
 11
324.9451822189917
 21
390.0000000000005
 31
0.0
 12
-1361.902951880732
 22
-2463.588071393663
 32
0.0
 71
     5
 42
780.0000000000005
  3
IGA
100
AcDbAlignedDimension
 13
0.0
 23
-0.0000000000004547
 33
0.0
 14
0.0000000000009095
 24
780.0
 34
0.0
 50
270.0
100
AcDbRotatedDimension
1001
ACAD
1000
DSTYLE
1002
{
1070
    40
1040
15.0
1070
   143
1040
0.039
1070
   172
1070
     1
1070
   271
1070
     0
1070
   279
1070
     0
1070
   288
1070
     1
1002
}
  0
DIMENSION
  5
8862
330
885F
100
AcDbEntity
  8
3
100
AcDbDimension
  2
*D4
 10
-1098.831674133746
 20
380.0
 30
0.0
 11
-1136.331674133747
 21
189.9999999999995
 31
0.0
 12
-1361.902951880732
 22
-2463.588071393663
 32
0.0
 71
     5
 42
380.0000000000005
  3
IGA
100
AcDbAlignedDimension
 13
-799.9999999999991
 23
-0.0000000000004547
 33
0.0
 14
-800.0000000000008
 24
380.0
 34
0.0
 50
270.0
100
AcDbRotatedDimension
1001
ACAD
1000
DSTYLE
1002
{
1070
    40
1040
15.0
1070
   143
1040
0.039
1070
   172
1070
     1
1070
   271
1070
     0
1070
   279
1070
     0
1070
   288
1070
     1
1002
}
  0
DIMENSION
  5
8863
330
885F
100
AcDbEntity
  8
3
100
AcDbDimension
  2
*D5
 10
-359.9999999999991
 20
979.936734003059
 30
0.0
 11
-179.9999999999991
 21
1017.436734003059
 31
0.0
 12
-1361.902951880732
 22
-2463.588071393663
 32
0.0
 71
     5
 42
360.0
  3
IGA
100
AcDbAlignedDimension
 13
0.0000000000009095
 23
780.0
 33
0.0
 14
-359.9999999999991
 24
780.0
 34
0.0
100
AcDbRotatedDimension
1001
ACAD
1000
DSTYLE
1002
{
1070
    40
1040
15.0
1070
   143
1040
0.039
1070
   172
1070
     1
1070
   271
1070
     0
1070
   279
1070
     0
1070
   288
1070
     1
1002
}
  0
DIMENSION
  5
8864
330
885F
100
AcDbEntity
  8
3
100
AcDbDimension
  2
*D6
 10
-800.0000000000008
 20
979.936734003059
 30
0.0
 11
-580.0
 21
1017.436734003059
 31
0.0
 12
-1361.902951880732
 22
-2463.588071393663
 32
0.0
 71
     5
 42
440.0000000000018
  3
IGA
100
AcDbAlignedDimension
 13
-359.9999999999991
 23
780.0
 33
0.0
 14
-800.0000000000008
 24
380.0
 34
0.0
100
AcDbRotatedDimension
1001
ACAD
1000
DSTYLE
1002
{
1070
    40
1040
15.0
1070
   143
1040
0.039
1070
   172
1070
     1
1070
   271
1070
     0
1070
   279
1070
     0
1070
   288
1070
     1
1002
}
  0
LINE
  5
8865
330
885F
100
AcDbEntity
  8
2
100
AcDbLine
 10
-730.0000000000009
 20
380.0
 30
0.0
 11
-730.0000000000009
 21
345.2467980186061
 31
0.0
  0
LINE
  5
8866
330
885F
100
AcDbEntity
  8
2
100
AcDbLine
 10
-746.7412383916044
 20
362.0
 30
0.0
 11
-713.4972759668117
 21
362.0
 31
0.0
  0
LINE
  5
8867
330
885F
100
AcDbEntity
  8
2
100
AcDbLine
 10
-341.9999999999991
 20
728.3766009906972
 30
0.0
 11
-341.9999999999991
 21
693.6233990093032
 31
0.0
  0
LINE
  5
8868
330
885F
100
AcDbEntity
  8
2
100
AcDbLine
 10
-358.7412383916026
 20
710.3766009906971
 30
0.0
 11
-325.4972759668099
 21
710.3766009906971
 31
0.0
  0
LINE
  5
8869
330
885F
100
AcDbEntity
  8
2
100
AcDbLine
 10
-17.99999999999909
 20
728.3766009906972
 30
0.0
 11
-17.99999999999909
 21
693.6233990093032
 31
0.0
  0
LINE
  5
886A
330
885F
100
AcDbEntity
  8
2
100
AcDbLine
 10
-1.258761608395616
 20
710.3766009906971
 30
0.0
 11
-34.50272403318832
 21
710.3766009906971
 31
0.0
  0
LINE
  5
886B
330
885F
100
AcDbEntity
  8
2
100
AcDbLine
 10
-730.0000000000009
 20
-0.0000000000009095
 30
0.0
 11
-730.0000000000009
 21
34.75320198139298
 31
0.0
  0
LINE
  5
886C
330
885F
100
AcDbEntity
  8
2
100
AcDbLine
 10
-746.7412383916044
 20
17.99999999999909
 30
0.0
 11
-713.4972759668117
 21
17.99999999999909
 31
0.0
  0
LINE
  5
886D
330
885F
100
AcDbEntity
  8
2
100
AcDbLine
 10
-400.0000000000008
 20
-0.0000000000009095
 30
0.0
 11
-400.0000000000008
 21
34.75320198139298
 31
0.0
  0
LINE
  5
886E
330
885F
100
AcDbEntity
  8
2
100
AcDbLine
 10
-416.7412383916043
 20
17.99999999999909
 30
0.0
 11
-383.4972759668117
 21
17.99999999999909
 31
0.0
  0
LINE
  5
886F
330
885F
100
AcDbEntity
  8
2
100
AcDbLine
 10
-69.99999999999886
 20
-0.0000000000009095
 30
0.0
 11
-69.99999999999886
 21
34.75320198139298
 31
0.0
  0
LINE
  5
8870
330
885F
100
AcDbEntity
  8
2
100
AcDbLine
 10
-53.25876160839539
 20
17.99999999999909
 30
0.0
 11
-86.50272403318808
 21
17.99999999999909
 31
0.0
  0
DIMENSION
  5
8871
330
885F
100
AcDbEntity
  8
3
100
AcDbDimension
  2
*D7
 10
-730.0000000000009
 20
546.859183500765
 30
0.0
 11
-913.7423732388574
 21
546.859183500765
 31
0.0
 12
-1361.902951880732
 22
-2463.588071393663
 32
0.0
 70
   128
 71
     5
 42
70.0
  3
IGA
100
AcDbAlignedDimension
 13
-800.0000000000008
 23
380.0
 33
0.0
 14
-730.0000000000009
 24
380.0
 34
0.0
100
AcDbRotatedDimension
1001
ACAD
1000
DSTYLE
1002
{
1070
    40
1040
15.0
1070
   143
1040
0.039
1070
   172
1070
     1
1070
   271
1070
     0
1070
   279
1070
     0
1070
   288
1070
     1
1002
}
  0
DIMENSION
  5
8872
330
885F
100
AcDbEntity
  8
3
100
AcDbDimension
  2
*D8
 10
-341.9999999999991
 20
881.1749305793796
 30
0.0
 11
-467.1428571428561
 21
881.1749305793796
 31
0.0
 12
-1361.902951880732
 22
-2463.588071393663
 32
0.0
 70
   128
 71
     5
 42
18.0
  3
IGA
100
AcDbAlignedDimension
 13
-359.9999999999991
 23
780.0
 33
0.0
 14
-341.9999999999991
 24
727.3766009906971
 34
0.0
100
AcDbRotatedDimension
1001
ACAD
1000
DSTYLE
1002
{
1070
    40
1040
15.0
1070
   143
1040
0.039
1070
   172
1070
     1
1070
   271
1070
     0
1070
   279
1070
     0
1070
   288
1070
     1
1002
}
  0
DIMENSION
  5
8873
330
885F
100
AcDbEntity
  8
3
100
AcDbDimension
  2
*D9
 10
-17.99999999999909
 20
881.1749305793796
 30
0.0
 11
-179.9999999999991
 21
918.6749305793796
 31
0.0
 12
-1361.902951880732
 22
-2463.588071393663
 32
0.0
 71
     5
 42
324.0
  3
IGA
100
AcDbAlignedDimension
 13
-341.9999999999991
 23
727.3766009906971
 33
0.0
 14
-17.99999999999909
 24
727.3766009906971
 34
0.0
100
AcDbRotatedDimension
1001
ACAD
1000
DSTYLE
1002
{
1070
    40
1040
15.0
1070
   143
1040
0.039
1070
   172
1070
     1
1070
   271
1070
     0
1070
   279
1070
     1
1070
   288
1070
     1
1002
}
  0
DIMENSION
  5
8874
330
885F
100
AcDbEntity
  8
3
100
AcDbDimension
  2
*D10
 10
-17.99999999999909
 20
881.1749305793796
 30
0.0
 11
107.142857142858
 21
881.1749305793796
 31
0.0
 12
-1361.902951880732
 22
-2463.588071393663
 32
0.0
 70
   128
 71
     5
 42
18.0
  3
IGA
100
AcDbAlignedDimension
 13
0.0000000000009095
 23
780.0
 33
0.0
 14
-17.99999999999909
 24
727.3766009906971
 34
0.0
 50
180.0
100
AcDbRotatedDimension
1001
ACAD
1000
DSTYLE
1002
{
1070
    40
1040
15.0
1070
   143
1040
0.039
1070
   172
1070
     1
1070
   271
1070
     0
1070
   279
1070
     0
1070
   288
1070
     1
1002
}
  0
DIMENSION
  5
8875
330
885F
100
AcDbEntity
  8
3
100
AcDbDimension
  2
*D11
 10
256.0983428261111
 20
390.3766009906972
 30
0.0
 11
218.5983428261106
 21
195.1883004953493
 31
0.0
 12
-1361.902951880732
 22
-2463.588071393663
 32
0.0
 71
     5
 42
390.3766009906972
  3
IGA
100
AcDbAlignedDimension
 13
0.0
 23
0.0
 33
0.0
 14
-1.258761608395616
 24
390.3766009906972
 34
0.0
 50
90.0
100
AcDbRotatedDimension
1001
ACAD
1000
DSTYLE
1002
{
1070
    40
1040
15.0
1070
   143
1040
0.039
1070
   172
1070
     1
1070
   271
1070
     0
1070
   279
1070
     1
1070
   288
1070
     1
1002
}
  0
DIMENSION
  5
8876
330
885F
100
AcDbEntity
  8
3
100
AcDbDimension
  2
*D12
 10
256.0983428261111
 20
710.3766009906971
 30
0.0
 11
218.5983428261106
 21
550.3766009906976
 31
0.0
 12
-1361.902951880732
 22
-2463.588071393663
 32
0.0
 71
     5
 42
320.0
  3
IGA
100
AcDbAlignedDimension
 13
-1.258761608395616
 23
390.3766009906972
 33
0.0
 14
-1.258761608395616
 24
710.3766009906971
 34
0.0
 50
90.0
100
AcDbRotatedDimension
1001
ACAD
1000
DSTYLE
1002
{
1070
    40
1040
15.0
1070
   143
1040
0.039
1070
   172
1070
     1
1070
   271
1070
     0
1070
   279
1070
     1
1070
   288
1070
     1
1002
}
  0
DIMENSION
  5
8877
330
885F
100
AcDbEntity
  8
3
100
AcDbDimension
  2
*D13
 10
-730.0000000000009
 20
-177.6323105891701
 30
0.0
 11
-911.4285714285712
 21
-177.6323105891701
 31
0.0
 12
-1361.902951880732
 22
-2463.588071393663
 32
0.0
 70
   128
 71
     5
 42
69.99999999999886
  3
IGA
100
AcDbAlignedDimension
 13
-799.9999999999998
 23
19.0
 33
0.0
 14
-730.0000000000009
 24
-0.0000000000009095
 34
0.0
100
AcDbRotatedDimension
1001
ACAD
1000
DSTYLE
1002
{
1070
    40
1040
15.0
1070
   143
1040
0.039
1070
   172
1070
     1
1070
   271
1070
     0
1070
   279
1070
     0
1070
   288
1070
     1
1002
}
  0
DIMENSION
  5
8878
330
885F
100
AcDbEntity
  8
3
100
AcDbDimension
  2
*D14
 10
-400.0000000000008
 20
-177.6323105891701
 30
0.0
 11
-565.0000000000009
 21
-140.1323105891701
 31
0.0
 12
-1361.902951880732
 22
-2463.588071393663
 32
0.0
 71
     5
 42
330.0
  3
IGA
100
AcDbAlignedDimension
 13
-730.0000000000009
 23
-0.0000000000009095
 33
0.0
 14
-400.0000000000008
 24
-0.0000000000009095
 34
0.0
100
AcDbRotatedDimension
1001
ACAD
1000
DSTYLE
1002
{
1070
    40
1040
15.0
1070
   143
1040
0.039
1070
   172
1070
     1
1070
   271
1070
     0
1070
   279
1070
     1
1070
   288
1070
     1
1002
}
  0
DIMENSION
  5
8879
330
885F
100
AcDbEntity
  8
3
100
AcDbDimension
  2
*D15
 10
-69.99999999999886
 20
-177.6323105891701
 30
0.0
 11
-235.0
 21
-140.1323105891701
 31
0.0
 12
-1361.902951880732
 22
-2463.588071393663
 32
0.0
 71
     5
 42
330.0000000000021
  3
IGA
100
AcDbAlignedDimension
 13
-400.0000000000008
 23
-0.0000000000009095
 33
0.0
 14
-69.99999999999886
 24
-0.0000000000009095
 34
0.0
100
AcDbRotatedDimension
1001
ACAD
1000
DSTYLE
1002
{
1070
    40
1040
15.0
1070
   143
1040
0.039
1070
   172
1070
     1
1070
   271
1070
     0
1070
   279
1070
     1
1070
   288
1070
     1
1002
}
  0
DIMENSION
  5
887A
330
885F
100
AcDbEntity
  8
3
100
AcDbDimension
  2
*D16
 10
-69.99999999999886
 20
-177.6323105891701
 30
0.0
 11
111.4285714285715
 21
-177.6323105891701
 31
0.0
 12
-1361.902951880732
 22
-2463.588071393663
 32
0.0
 70
   128
 71
     5
 42
69.99999999999886
  3
IGA
100
AcDbAlignedDimension
 13
0.0
 23
0.0
 33
0.0
 14
-69.99999999999886
 24
-0.0000000000009095
 34
0.0
 50
180.0
100
AcDbRotatedDimension
1001
ACAD
1000
DSTYLE
1002
{
1070
    40
1040
15.0
1070
   143
1040
0.039
1070
   172
1070
     1
1070
   271
1070
     0
1070
   279
1070
     0
1070
   288
1070
     1
1002
}
  0
DIMENSION
  5
887B
330
885F
100
AcDbEntity
  8
3
100
AcDbDimension
  2
*D17
 10
256.0983428261116
 20
780.0
 30
0.0
 11
256.0983428261111
 21
891.4285714285719
 31
0.0
 12
-1361.902951880732
 22
-2463.588071393663
 32
0.0
 70
   128
 71
     5
 42
69.62339900930283
  3
IGA
100
AcDbAlignedDimension
 13
-1.258761608395616
 23
710.3766009906971
 33
0.0
 14
0.0000000000009095
 24
780.0
 34
0.0
 50
90.0
100
AcDbRotatedDimension
1001
ACAD
1000
DSTYLE
1002
{
1070
    40
1040
15.0
1070
   143
1040
0.039
1070
   172
1070
     1
1070
   271
1070
     0
1070
   279
1070
     0
1070
   288
1070
     1
1002
}
  0
DIMENSION
  5
887C
330
885F
100
AcDbEntity
  8
3
100
AcDbDimension
  2
*D18
 10
-998.1275065780309
 20
362.0
 30
0.0
 11
-998.1275065780314
 21
487.1428571428573
 31
0.0
 12
-1361.902951880732
 22
-2463.588071393663
 32
0.0
 70
   128
 71
     5
 42
18.0
  3
IGA
100
AcDbAlignedDimension
 13
-799.9999999999991
 23
380.0
 33
0.0
 14
-746.7412383916044
 24
362.0
 34
0.0
 50
90.0
100
AcDbRotatedDimension
1001
ACAD
1000
DSTYLE
1002
{
1070
    40
1040
15.0
1070
   143
1040
0.039
1070
   172
1070
     1
1070
   271
1070
     0
1070
   279
1070
     0
1070
   288
1070
     1
1002
}
  0
DIMENSION
  5
887D
330
885F
100
AcDbEntity
  8
3
100
AcDbDimension
  2
*D19
 10
-998.1275065780309
 20
17.99999999999909
 30
0.0
 11
-1035.627506578031
 21
189.9999999999995
 31
0.0
 12
-1361.902951880732
 22
-2463.588071393663
 32
0.0
 71
     5
 42
344.0000000000009
  3
IGA
100
AcDbAlignedDimension
 13
-746.7412383916044
 23
362.0
 33
0.0
 14
-746.7412383916044
 24
17.99999999999909
 34
0.0
 50
90.0
100
AcDbRotatedDimension
1001
ACAD
1000
DSTYLE
1002
{
1070
    40
1040
15.0
1070
   143
1040
0.039
1070
   172
1070
     1
1070
   271
1070
     0
1070
   279
1070
     1
1070
   288
1070
     1
1002
}
  0
DIMENSION
  5
887E
330
885F
100
AcDbEntity
  8
3
100
AcDbDimension
  2
*D20
 10
-998.1275065780309
 20
17.99999999999909
 30
0.0
 11
-998.1275065780314
 21
-107.1428571428582
 31
0.0
 12
-1361.902951880732
 22
-2463.588071393663
 32
0.0
 70
   128
 71
     5
 42
18.0
  3
IGA
100
AcDbAlignedDimension
 13
-799.9999999999991
 23
-0.0000000000009095
 33
0.0
 14
-746.7412383916044
 24
17.99999999999909
 34
0.0
 50
270.0
100
AcDbRotatedDimension
1001
ACAD
1000
DSTYLE
1002
{
1070
    40
1040
15.0
1070
   143
1040
0.039
1070
   172
1070
     1
1070
   271
1070
     0
1070
   279
1070
     0
1070
   288
1070
     1
1002
}
  0
MULTILEADER
  5
887F
102
{ACAD_XDICTIONARY
360
A8FB
102
}
330
885F
100
AcDbEntity
  8
3
 92
     1268
310
F4040000250000000C00000016000000000000C00C00000033000000000000000C00000013000000993A0000AC0000000B000000D09F1F0E5D9D764020AEB11F1A9553C0000000000000000000000000000000000000000000000000000000000000F03F000000000000F03F0000000000000000000000000000000037817E
310
31328C8A0007000000010000000000000000804640000000000000F03F0000000000000000000000000000F03F000000000000000000000000000000000000000073696D706C65782E73687800657874666F6E742E73687800BC0000000B000000D09F1F0E5D9D764010D7D80F8D2A63C00000000000000000000000000000
310
00000000000000000000000000000000F03F000000000000F03F000000000000000000000000000000003735817E3430817E35288FE389BA8378815B83588BA4290017000000010000000000000000804640000000000000F03F0000000000000000000000000000F03F000000000000000000000000000000000000000073
310
696D706C65782E73687800657874666F6E742E736878000C00000033000000000000000C00000010000000010000000C00000016000000000000C00C00000012000000FF7F00000C0000001300000001000000880000001D0000006E4B4A2F2B263BC06813E9424E8729C0000000000000000030DF22175E7851C06813E942
310
4E8729406E4B4A2F2B263BC0000000000000000000FFFFFFFFFF3140000000000000000000000000000000000000000000003E400000000000000000000000000000000000000000000000000000000000000000000000000000F03F0C00000016000000020000C30C00000017000000FDFFFFFF5400000020000000020000
310
00000000000000F0BF555555555555C53F000000000000000000000000000000000000000000000000000000000000000000000000000000000000000000000000000000000000F03F0C00000016000000020000C30C00000017000000FDFFFFFF540000002000000002000000000000000000000000000000000000000000
310
000000000000000000000000F0BF555555555555C5BF000000000000000000000000000000000000000000000000000000000000F03F0C00000016000000020000C30C00000017000000FDFFFFFF540000002000000002000000000000000000000000000000000000000000000000000000000000000000F0BF0000000000
310
000000000000000000000000000000000000000000000000000000000000000000F03F080000001F0000000C00000016000000000000C00C00000012000000FF7F00000C00000033000000000000000C00000013000000891300003C0000000600000002000000AA98A096A65D45C032D52D7A63F114400000000000000000
310
6839B9A7F666744010D7D80F8D0A65C000000000000000000C00000013000000112700003C00000006000000020000006839B9A7F666744010D7D80F8D0A65C00000000000000000CE9F1F0E5DBD744010D7D80F8D0A65C000000000000000000C00000016000000000000C00C00000012000000FF7F00000C000000170000
310
00000000000C000000130000009A3A00003C0000000600000002000000CE9F1F0E5DBD744010D7D80F8D0A65C00000000000000000860CD1D57B74904010D7D80F8D0A65C000000000000000000C00000016000000000000C00C00000012000000FF7F00000C00000017000000FFFFFFFF0C0000003300000000000000
100
AcDbMLeader
300
CONTEXT_DATA{
 40
15.0
 10
331.8352185473749
 20
-168.329719470516
 30
0.0
 41
45.0
140
30.0
145
30.0
174
     5
175
     5
176
     0
177
     0
290
     1
304
7\U+00D712穴\P75\U+00D740\U+00D75(上下ベース共)
 11
0.0
 21
0.0
 31
1.0
340
10
 12
361.835218547375
 22
-33.32971947051601
 32
0.0
 13
1.0
 23
0.0
 33
0.0
 42
0.0
 43
0.0
 44
0.0
 45
1.0
170
     2
 90
-1073741824
171
     1
172
     5
 91
-1073741824
141
0.0
 92
        0
291
     0
292
     0
173
     0
293
     0
142
0.0
143
0.0
294
     0
295
     0
296
     0
110
-69.88074282079174
120
17.99999999999909
130
0.0
111
1.0
121
0.0
131
0.0
112
0.0
122
1.0
132
0.0
297
     0
302
LEADER{
290
     1
291
     1
 10
326.4352185473749
 20
-168.329719470516
 30
0.0
 11
1.0
 21
0.0
 31
0.0
 90
        0
 40
5.399999999999999
304
LEADER_LINE{
 10
-69.88074282079174
 20
17.99999999999909
 30
0.0
 91
        0
305
}
303
}
301
}
340
8743
 90
 50681600
170
     1
 91
-1056964608
341
13
171
    -2
290
     1
291
     1
 41
0.36
342
7A11
 42
2.0
172
     2
343
10
173
     5
 95
        5
174
     1
175
     0
 92
-1056964608
292
     0
 93
-1056964608
 10
1.0
 20
1.0
 30
1.0
 43
0.0
176
     0
293
     0
294
     0
178
     0
179
     1
 45
15.0
1001
ACAD_MLEADERVER
1070
     2
  0
ENDBLK
  5
8881
330
885F
100
AcDbEntity
  8
0
100
AcDbBlockEnd
  0
BLOCK
  5
8B40
330
8B3E
100
AcDbEntity
  8
0
100
AcDbBlockBegin
  2
_DotSmall
 70
     0
 10
0.0
 20
0.0
 30
0.0
  3
_DotSmall
  1

  0
LWPOLYLINE
  5
8B3F
330
8B3E
100
AcDbEntity
  8
0
  6
ByBlock
 62
     0
100
AcDbPolyline
 90
        2
 70
     1
 43
0.5
 10
-0.0625
 20
0.0
 42
1.0
 10
0.0625
 20
0.0
 42
1.0
  0
ENDBLK
  5
8B41
330
8B3E
100
AcDbEntity
  8
0
100
AcDbBlockEnd
  0
BLOCK
  5
953C
330
953B
100
AcDbEntity
  8
0
100
AcDbBlockBegin
  2
*D23
 70
     1
 10
0.0
 20
0.0
 30
0.0
  3
*D23
  1

  0
LINE
  5
A877
330
953B
100
AcDbEntity
  8
3
 62
     0
370
    -2
100
AcDbLine
 10
1945.529870910075
 20
1806.801128705883
 30
0.0
 11
1945.529870910075
 21
2116.300863134594
 31
0.0
  0
LINE
  5
A878
330
953B
100
AcDbEntity
  8
3
 62
     0
370
    -2
100
AcDbLine
 10
2653.529870910082
 20
2069.626816618645
 30
0.0
 11
2653.529870910082
 21
2116.300863134594
 31
0.0
  0
LINE
  5
A879
330
953B
100
AcDbEntity
  8
3
 62
     0
370
    -2
100
AcDbLine
 10
1975.529870910075
 20
2101.300863134594
 30
0.0
 11
2623.529870910083
 21
2101.300863134594
 31
0.0
  0
INSERT
  5
A87A
330
953B
100
AcDbEntity
  8
3
 62
     0
370
    -2
100
AcDbBlockReference
  2
_OPEN
 10
1945.529870910075
 20
2101.300863134594
 30
0.0
 41
30.0
 42
30.0
 43
30.0
 50
180.0
  0
INSERT
  5
A87B
330
953B
100
AcDbEntity
  8
3
 62
     0
370
    -2
100
AcDbBlockReference
  2
_OPEN
 10
2653.529870910082
 20
2101.300863134594
 30
0.0
 41
30.0
 42
30.0
 43
30.0
  0
MTEXT
  5
A87C
330
953B
100
AcDbEntity
  8
3
 62
     0
100
AcDbMText
 10
2299.529870910079
 20
2176.300863134594
 30
0.0
 40
45.0
 41
0.0
 71
     5
 72
     1
  1
\A1;MAX\P760
 73
     1
 44
1.0
1001
ACAD
1000
MTEXTBEGIN
1070
    73
1070
     1
1070
    44
1040
1.0
1070
    74
1070
     0
1000
MTEXTEND
  0
POINT
  5
A87D
330
953B
100
AcDbEntity
  8
DEFPOINTS
 62
     0
100
AcDbPoint
 10
1945.529870910075
 20
1799.301128705883
 30
0.0
  0
POINT
  5
A87E
330
953B
100
AcDbEntity
  8
DEFPOINTS
 62
     0
100
AcDbPoint
 10
2653.529870910082
 20
2062.126816618645
 30
0.0
  0
POINT
  5
A87F
330
953B
100
AcDbEntity
  8
DEFPOINTS
 62
     0
100
AcDbPoint
 10
2653.529870910082
 20
2101.300863134594
 30
0.0
  0
ENDBLK
  5
953D
330
953B
100
AcDbEntity
  8
0
100
AcDbBlockEnd
  0
BLOCK
  5
9548
330
9547
100
AcDbEntity
  8
0
100
AcDbBlockBegin
  2
*D24
 70
     1
 10
0.0
 20
0.0
 30
0.0
  3
*D24
  1

  0
LINE
  5
A824
330
9547
100
AcDbEntity
  8
3
 62
     0
370
    -2
100
AcDbLine
 10
2038.529870910083
 20
1081.801128705883
 30
0.0
 11
2038.529870910083
 21
960.2085681671139
 31
0.0
  0
LINE
  5
A825
330
9547
100
AcDbEntity
  8
3
 62
     0
370
    -2
100
AcDbLine
 10
2653.529870910082
 20
1046.67259509698
 30
0.0
 11
2653.529870910082
 21
960.2085681671139
 31
0.0
  0
LINE
  5
A826
330
9547
100
AcDbEntity
  8
3
 62
     0
370
    -2
100
AcDbLine
 10
2068.529870910083
 20
975.208568167114
 30
0.0
 11
2623.529870910083
 21
975.208568167114
 31
0.0
  0
INSERT
  5
A827
330
9547
100
AcDbEntity
  8
3
 62
     0
370
    -2
100
AcDbBlockReference
  2
_OPEN
 10
2038.529870910083
 20
975.208568167114
 30
0.0
 41
30.0
 42
30.0
 43
30.0
 50
180.0
  0
INSERT
  5
A828
330
9547
100
AcDbEntity
  8
3
 62
     0
370
    -2
100
AcDbBlockReference
  2
_OPEN
 10
2653.529870910082
 20
975.208568167114
 30
0.0
 41
30.0
 42
30.0
 43
30.0
  0
MTEXT
  5
A829
330
9547
100
AcDbEntity
  8
3
 62
     0
100
AcDbMText
 10
2346.029870910083
 20
1012.708568167114
 30
0.0
 40
45.0
 41
0.0
 71
     5
 72
     1
  1
\A1;615
 73
     1
 44
1.0
1001
ACAD
1000
MTEXTBEGIN
1070
    73
1070
     1
1070
    44
1040
1.0
1070
    74
1070
     0
1000
MTEXTEND
  0
POINT
  5
A82A
330
9547
100
AcDbEntity
  8
DEFPOINTS
 62
     0
100
AcDbPoint
 10
2038.529870910083
 20
1089.301128705883
 30
0.0
  0
POINT
  5
A82B
330
9547
100
AcDbEntity
  8
DEFPOINTS
 62
     0
100
AcDbPoint
 10
2653.529870910082
 20
1054.17259509698
 30
0.0
  0
POINT
  5
A82C
330
9547
100
AcDbEntity
  8
DEFPOINTS
 62
     0
100
AcDbPoint
 10
2653.529870910082
 20
975.208568167114
 30
0.0
  0
ENDBLK
  5
9549
330
9547
100
AcDbEntity
  8
0
100
AcDbBlockEnd
  0
BLOCK
  5
9554
330
9553
100
AcDbEntity
  8
0
100
AcDbBlockBegin
  2
*D25
 70
     1
 10
0.0
 20
0.0
 30
0.0
  3
*D25
  1

  0
LINE
  5
A664
330
9553
100
AcDbEntity
  8
3
 62
     0
370
    -2
100
AcDbLine
 10
672.220914352175
 20
1709.301128705883
 30
0.0
 11
425.1915412840161
 21
1709.301128705883
 31
0.0
  0
LINE
  5
A665
330
9553
100
AcDbEntity
  8
3
 62
     0
370
    -2
100
AcDbLine
 10
947.4459932873514
 20
1935.260032933713
 30
0.0
 11
425.1915412840162
 21
1935.260032933713
 31
0.0
  0
LINE
  5
A666
330
9553
100
AcDbEntity
  8
3
 62
     0
370
    -2
100
AcDbLine
 10
440.1915412840161
 20
1739.301128705883
 30
0.0
 11
440.1915412840161
 21
1905.260032933713
 31
0.0
  0
INSERT
  5
A667
330
9553
100
AcDbEntity
  8
3
 62
     0
370
    -2
100
AcDbBlockReference
  2
_OPEN
 10
440.1915412840161
 20
1709.301128705883
 30
0.0
 41
30.0
 42
30.0
 43
30.0
 50
270.0
  0
INSERT
  5
A668
330
9553
100
AcDbEntity
  8
3
 62
     0
370
    -2
100
AcDbBlockReference
  2
_OPEN
 10
440.1915412840162
 20
1935.260032933713
 30
0.0
 41
30.0
 42
30.0
 43
30.0
 50
90.0
  0
MTEXT
  5
A669
330
9553
100
AcDbEntity
  8
3
 62
     0
100
AcDbMText
 10
402.6915412840159
 20
1822.280580819798
 30
0.0
 40
45.0
 41
0.0
 71
     5
 72
     1
  1
\A1;226
 11
0.0000000000000001
 21
1.0
 31
0.0
 73
     1
 44
1.0
1001
ACAD
1000
MTEXTBEGIN
1070
    73
1070
     1
1070
    44
1040
1.0
1070
    74
1070
     0
1000
MTEXTEND
  0
POINT
  5
A66A
330
9553
100
AcDbEntity
  8
DEFPOINTS
 62
     0
100
AcDbPoint
 10
679.7209143521749
 20
1709.301128705883
 30
0.0
  0
POINT
  5
A66B
330
9553
100
AcDbEntity
  8
DEFPOINTS
 62
     0
100
AcDbPoint
 10
954.9459932873515
 20
1935.260032933713
 30
0.0
  0
POINT
  5
A66C
330
9553
100
AcDbEntity
  8
DEFPOINTS
 62
     0
100
AcDbPoint
 10
440.1915412840162
 20
1935.260032933713
 30
0.0
  0
ENDBLK
  5
9555
330
9553
100
AcDbEntity
  8
0
100
AcDbBlockEnd
  0
BLOCK
  5
9560
330
955F
100
AcDbEntity
  8
0
100
AcDbBlockBegin
  2
*D26
 70
     1
 10
0.0
 20
0.0
 30
0.0
  3
*D26
  1

  0
LINE
  5
A66D
330
955F
100
AcDbEntity
  8
3
 62
     0
370
    -2
100
AcDbLine
 10
691.1810407026596
 20
1719.189959030839
 30
0.0
 11
691.1810407026596
 21
2066.015303344235
 31
0.0
  0
LINE
  5
A66E
330
955F
100
AcDbEntity
  8
3
 62
     0
370
    -2
100
AcDbLine
 10
936.1810407026595
 20
1977.404409386754
 30
0.0
 11
936.1810407026595
 21
2066.015303344235
 31
0.0
  0
LINE
  5
A66F
330
955F
100
AcDbEntity
  8
3
 62
     0
370
    -2
100
AcDbLine
 10
721.1810407026596
 20
2051.015303344235
 30
0.0
 11
906.1810407026596
 21
2051.015303344235
 31
0.0
  0
INSERT
  5
A670
330
955F
100
AcDbEntity
  8
3
 62
     0
370
    -2
100
AcDbBlockReference
  2
_OPEN
 10
691.1810407026596
 20
2051.015303344235
 30
0.0
 41
30.0
 42
30.0
 43
30.0
 50
180.0
  0
INSERT
  5
A671
330
955F
100
AcDbEntity
  8
3
 62
     0
370
    -2
100
AcDbBlockReference
  2
_OPEN
 10
936.1810407026595
 20
2051.015303344235
 30
0.0
 41
30.0
 42
30.0
 43
30.0
  0
MTEXT
  5
A672
330
955F
100
AcDbEntity
  8
3
 62
     0
100
AcDbMText
 10
813.6810407026596
 20
2088.515303344235
 30
0.0
 40
45.0
 41
0.0
 71
     5
 72
     1
  1
\A1;245
 73
     1
 44
1.0
1001
ACAD
1000
MTEXTBEGIN
1070
    73
1070
     1
1070
    44
1040
1.0
1070
    74
1070
     0
1000
MTEXTEND
  0
POINT
  5
A673
330
955F
100
AcDbEntity
  8
DEFPOINTS
 62
     0
100
AcDbPoint
 10
691.1810407026596
 20
1711.689959030839
 30
0.0
  0
POINT
  5
A674
330
955F
100
AcDbEntity
  8
DEFPOINTS
 62
     0
100
AcDbPoint
 10
936.1810407026595
 20
1969.904409386754
 30
0.0
  0
POINT
  5
A675
330
955F
100
AcDbEntity
  8
DEFPOINTS
 62
     0
100
AcDbPoint
 10
936.1810407026595
 20
2051.015303344235
 30
0.0
  0
ENDBLK
  5
9561
330
955F
100
AcDbEntity
  8
0
100
AcDbBlockEnd
  0
BLOCK
  5
956C
330
956B
100
AcDbEntity
  8
0
100
AcDbBlockBegin
  2
*D27
 70
     1
 10
0.0
 20
0.0
 30
0.0
  3
*D27
  1

  0
LINE
  5
A82D
330
956B
100
AcDbEntity
  8
3
 62
     0
370
    -2
100
AcDbLine
 10
756.1810407026614
 20
1081.801128705883
 30
0.0
 11
756.1810407026614
 21
959.3594214511211
 31
0.0
  0
LINE
  5
A82E
330
956B
100
AcDbEntity
  8
3
 62
     0
370
    -2
100
AcDbLine
 10
936.1810407026595
 20
1049.318176209124
 30
0.0
 11
936.1810407026595
 21
959.3594214511211
 31
0.0
  0
LINE
  5
A82F
330
956B
100
AcDbEntity
  8
3
 62
     0
370
    -2
100
AcDbLine
 10
786.1810407026614
 20
974.359421451121
 30
0.0
 11
906.1810407026596
 21
974.359421451121
 31
0.0
  0
MTEXT
  5
A830
330
956B
100
AcDbEntity
  8
3
 62
     0
100
AcDbMText
 10
846.1810407026606
 20
1019.634784115916
 30
0.0
 40
45.0
 41
0.0
 71
     5
 72
     1
  1
\A1;180
 73
     1
 44
1.0
1001
ACAD
1000
MTEXTBEGIN
1070
    73
1070
     1
1070
    44
1040
1.0
1070
    74
1070
     0
1000
MTEXTEND
  0
INSERT
  5
A831
330
956B
100
AcDbEntity
  8
3
 62
     0
370
    -2
100
AcDbBlockReference
  2
_OPEN
 10
756.1810407026614
 20
974.359421451121
 30
0.0
 41
30.0
 42
30.0
 43
30.0
 50
180.0
  0
INSERT
  5
A832
330
956B
100
AcDbEntity
  8
3
 62
     0
370
    -2
100
AcDbBlockReference
  2
_OPEN
 10
936.1810407026595
 20
974.359421451121
 30
0.0
 41
30.0
 42
30.0
 43
30.0
  0
POINT
  5
A833
330
956B
100
AcDbEntity
  8
DEFPOINTS
 62
     0
100
AcDbPoint
 10
756.1810407026614
 20
1089.301128705883
 30
0.0
  0
POINT
  5
A834
330
956B
100
AcDbEntity
  8
DEFPOINTS
 62
     0
100
AcDbPoint
 10
936.1810407026595
 20
1056.818176209124
 30
0.0
  0
POINT
  5
A835
330
956B
100
AcDbEntity
  8
DEFPOINTS
 62
     0
100
AcDbPoint
 10
936.1810407026595
 20
974.359421451121
 30
0.0
  0
ENDBLK
  5
956D
330
956B
100
AcDbEntity
  8
0
100
AcDbBlockEnd
  0
BLOCK
  5
9578
330
9577
100
AcDbEntity
  8
0
100
AcDbBlockBegin
  2
*D28
 70
     1
 10
0.0
 20
0.0
 30
0.0
  3
*D28
  1

  0
LINE
  5
A86E
330
9577
100
AcDbEntity
  8
3
 62
     0
370
    -2
100
AcDbLine
 10
748.6810407026614
 20
1089.301128705883
 30
0.0
 11
271.8592018630468
 21
1089.301128705883
 31
0.0
  0
LINE
  5
A86F
330
9577
100
AcDbEntity
  8
3
 62
     0
370
    -2
100
AcDbLine
 10
947.4459932873514
 20
1935.260032933713
 30
0.0
 11
271.859201863047
 21
1935.260032933713
 31
0.0
  0
LINE
  5
A870
330
9577
100
AcDbEntity
  8
3
 62
     0
370
    -2
100
AcDbLine
 10
286.8592018630468
 20
1119.301128705883
 30
0.0
 11
286.859201863047
 21
1905.260032933713
 31
0.0
  0
INSERT
  5
A871
330
9577
100
AcDbEntity
  8
3
 62
     0
370
    -2
100
AcDbBlockReference
  2
_OPEN
 10
286.8592018630468
 20
1089.301128705883
 30
0.0
 41
30.0
 42
30.0
 43
30.0
 50
270.0
  0
INSERT
  5
A872
330
9577
100
AcDbEntity
  8
3
 62
     0
370
    -2
100
AcDbBlockReference
  2
_OPEN
 10
286.859201863047
 20
1935.260032933713
 30
0.0
 41
30.0
 42
30.0
 43
30.0
 50
90.0
  0
MTEXT
  5
A873
330
9577
100
AcDbEntity
  8
3
 62
     0
100
AcDbMText
 10
249.3592018630466
 20
1512.280580819798
 30
0.0
 40
45.0
 41
0.0
 71
     5
 72
     1
  1
\A1;846
 11
0.0000000000000001
 21
1.0
 31
0.0
 73
     1
 44
1.0
1001
ACAD
1000
MTEXTBEGIN
1070
    73
1070
     1
1070
    44
1040
1.0
1070
    74
1070
     0
1000
MTEXTEND
  0
POINT
  5
A874
330
9577
100
AcDbEntity
  8
DEFPOINTS
 62
     0
100
AcDbPoint
 10
756.1810407026614
 20
1089.301128705883
 30
0.0
  0
POINT
  5
A875
330
9577
100
AcDbEntity
  8
DEFPOINTS
 62
     0
100
AcDbPoint
 10
954.9459932873515
 20
1935.260032933713
 30
0.0
  0
POINT
  5
A876
330
9577
100
AcDbEntity
  8
DEFPOINTS
 62
     0
100
AcDbPoint
 10
286.859201863047
 20
1935.260032933713
 30
0.0
  0
ENDBLK
  5
9579
330
9577
100
AcDbEntity
  8
0
100
AcDbBlockEnd
  0
BLOCK
  5
9584
330
9583
100
AcDbEntity
  8
0
100
AcDbBlockBegin
  2
*D29
 70
     1
 10
0.0
 20
0.0
 30
0.0
  3
*D29
  1

  0
LINE
  5
A83F
330
9583
100
AcDbEntity
  8
3
 62
     0
370
    -2
100
AcDbLine
 10
936.1810407026595
 20
1049.318176209124
 30
0.0
 11
936.1810407026595
 21
959.3594214511211
 31
0.0
  0
LINE
  5
A840
330
9583
100
AcDbEntity
  8
3
 62
     0
370
    -2
100
AcDbLine
 10
1556.181040702661
 20
1081.801128705883
 30
0.0
 11
1556.181040702661
 21
959.3594214511211
 31
0.0
  0
LINE
  5
A841
330
9583
100
AcDbEntity
  8
3
 62
     0
370
    -2
100
AcDbLine
 10
966.1810407026596
 20
974.359421451121
 30
0.0
 11
1526.181040702661
 21
974.359421451121
 31
0.0
  0
INSERT
  5
A842
330
9583
100
AcDbEntity
  8
3
 62
     0
370
    -2
100
AcDbBlockReference
  2
_OPEN
 10
936.1810407026595
 20
974.359421451121
 30
0.0
 41
30.0
 42
30.0
 43
30.0
 50
180.0
  0
INSERT
  5
A843
330
9583
100
AcDbEntity
  8
3
 62
     0
370
    -2
100
AcDbBlockReference
  2
_OPEN
 10
1556.181040702661
 20
974.359421451121
 30
0.0
 41
30.0
 42
30.0
 43
30.0
  0
MTEXT
  5
A844
330
9583
100
AcDbEntity
  8
3
 62
     0
100
AcDbMText
 10
1246.181040702661
 20
1011.859421451121
 30
0.0
 40
45.0
 41
0.0
 71
     5
 72
     1
  1
\A1;620
 73
     1
 44
1.0
1001
ACAD
1000
MTEXTBEGIN
1070
    73
1070
     1
1070
    44
1040
1.0
1070
    74
1070
     0
1000
MTEXTEND
  0
POINT
  5
A845
330
9583
100
AcDbEntity
  8
DEFPOINTS
 62
     0
100
AcDbPoint
 10
936.1810407026595
 20
1056.818176209124
 30
0.0
  0
POINT
  5
A846
330
9583
100
AcDbEntity
  8
DEFPOINTS
 62
     0
100
AcDbPoint
 10
1556.181040702661
 20
1089.301128705883
 30
0.0
  0
POINT
  5
A847
330
9583
100
AcDbEntity
  8
DEFPOINTS
 62
     0
100
AcDbPoint
 10
1556.181040702661
 20
974.359421451121
 30
0.0
  0
ENDBLK
  5
9585
330
9583
100
AcDbEntity
  8
0
100
AcDbBlockEnd
  0
BLOCK
  5
9590
330
958F
100
AcDbEntity
  8
0
100
AcDbBlockBegin
  2
*D30
 70
     1
 10
0.0
 20
0.0
 30
0.0
  3
*D30
  1

  0
LINE
  5
A691
330
958F
100
AcDbEntity
  8
3
 62
     0
370
    -2
100
AcDbLine
 10
936.1810407026595
 20
1977.404409386754
 30
0.0
 11
936.1810407026595
 21
2066.015303344235
 31
0.0
  0
LINE
  5
A692
330
958F
100
AcDbEntity
  8
3
 62
     0
370
    -2
100
AcDbLine
 10
1209.745921583342
 20
1692.801128705883
 30
0.0
 11
1209.745921583342
 21
2066.015303344235
 31
0.0
  0
LINE
  5
A693
330
958F
100
AcDbEntity
  8
3
 62
     0
370
    -2
100
AcDbLine
 10
966.1810407026596
 20
2051.015303344235
 30
0.0
 11
1179.745921583342
 21
2051.015303344235
 31
0.0
  0
INSERT
  5
A694
330
958F
100
AcDbEntity
  8
3
 62
     0
370
    -2
100
AcDbBlockReference
  2
_OPEN
 10
936.1810407026595
 20
2051.015303344235
 30
0.0
 41
30.0
 42
30.0
 43
30.0
 50
180.0
  0
INSERT
  5
A695
330
958F
100
AcDbEntity
  8
3
 62
     0
370
    -2
100
AcDbBlockReference
  2
_OPEN
 10
1209.745921583342
 20
2051.015303344235
 30
0.0
 41
30.0
 42
30.0
 43
30.0
  0
MTEXT
  5
A696
330
958F
100
AcDbEntity
  8
3
 62
     0
100
AcDbMText
 10
1072.963481143001
 20
2088.515303344235
 30
0.0
 40
45.0
 41
0.0
 71
     5
 72
     1
  1
\A1;274
 73
     1
 44
1.0
1001
ACAD
1000
MTEXTBEGIN
1070
    73
1070
     1
1070
    44
1040
1.0
1070
    74
1070
     0
1000
MTEXTEND
  0
POINT
  5
A697
330
958F
100
AcDbEntity
  8
DEFPOINTS
 62
     0
100
AcDbPoint
 10
936.1810407026595
 20
1969.904409386754
 30
0.0
  0
POINT
  5
A698
330
958F
100
AcDbEntity
  8
DEFPOINTS
 62
     0
100
AcDbPoint
 10
1209.745921583342
 20
1685.301128705883
 30
0.0
  0
POINT
  5
A699
330
958F
100
AcDbEntity
  8
DEFPOINTS
 62
     0
100
AcDbPoint
 10
1209.745921583342
 20
2051.015303344235
 30
0.0
  0
ENDBLK
  5
9591
330
958F
100
AcDbEntity
  8
0
100
AcDbBlockEnd
  0
BLOCK
  5
959C
330
959B
100
AcDbEntity
  8
0
100
AcDbBlockBegin
  2
*D31
 70
     1
 10
0.0
 20
0.0
 30
0.0
  3
*D31
  1

  0
LINE
  5
A69A
330
959B
100
AcDbEntity
  8
3
 62
     0
370
    -2
100
AcDbLine
 10
683.6810407026596
 20
1358.301128705883
 30
0.0
 11
591.340828860287
 21
1358.301128705883
 31
0.0
  0
LINE
  5
A69B
330
959B
100
AcDbEntity
  8
3
 62
     0
370
    -2
100
AcDbLine
 10
683.6810407026596
 20
1683.301128705883
 30
0.0
 11
591.340828860287
 21
1683.301128705883
 31
0.0
  0
LINE
  5
A69C
330
959B
100
AcDbEntity
  8
3
 62
     0
370
    -2
100
AcDbLine
 10
606.340828860287
 20
1388.301128705883
 30
0.0
 11
606.340828860287
 21
1653.301128705883
 31
0.0
  0
INSERT
  5
A69D
330
959B
100
AcDbEntity
  8
3
 62
     0
370
    -2
100
AcDbBlockReference
  2
_OPEN
 10
606.340828860287
 20
1358.301128705883
 30
0.0
 41
30.0
 42
30.0
 43
30.0
 50
270.0
  0
INSERT
  5
A69E
330
959B
100
AcDbEntity
  8
3
 62
     0
370
    -2
100
AcDbBlockReference
  2
_OPEN
 10
606.340828860287
 20
1683.301128705883
 30
0.0
 41
30.0
 42
30.0
 43
30.0
 50
90.0
  0
MTEXT
  5
A69F
330
959B
100
AcDbEntity
  8
3
 62
     0
100
AcDbMText
 10
568.8408288602868
 20
1520.801128705883
 30
0.0
 40
45.0
 41
0.0
 71
     5
 72
     1
  1
\A1;325
 11
0.0000000000000001
 21
1.0
 31
0.0
 73
     1
 44
1.0
1001
ACAD
1000
MTEXTBEGIN
1070
    73
1070
     1
1070
    44
1040
1.0
1070
    74
1070
     0
1000
MTEXTEND
  0
POINT
  5
A6A0
330
959B
100
AcDbEntity
  8
DEFPOINTS
 62
     0
100
AcDbPoint
 10
691.1810407026596
 20
1358.301128705883
 30
0.0
  0
POINT
  5
A6A1
330
959B
100
AcDbEntity
  8
DEFPOINTS
 62
     0
100
AcDbPoint
 10
691.1810407026596
 20
1683.301128705883
 30
0.0
  0
POINT
  5
A6A2
330
959B
100
AcDbEntity
  8
DEFPOINTS
 62
     0
100
AcDbPoint
 10
606.340828860287
 20
1683.301128705883
 30
0.0
  0
ENDBLK
  5
959D
330
959B
100
AcDbEntity
  8
0
100
AcDbBlockEnd
  0
BLOCK
  5
95A8
330
95A7
100
AcDbEntity
  8
0
100
AcDbBlockBegin
  2
*D32
 70
     1
 10
0.0
 20
0.0
 30
0.0
  3
*D32
  1

  0
LINE
  5
A6A3
330
95A7
100
AcDbEntity
  8
3
 62
     0
370
    -2
100
AcDbLine
 10
683.6810407026596
 20
1358.301128705883
 30
0.0
 11
515.6723430478259
 21
1358.301128705883
 31
0.0
  0
LINE
  5
A6A4
330
95A7
100
AcDbEntity
  8
3
 62
     0
370
    -2
100
AcDbLine
 10
672.220914352175
 20
1709.301128705883
 30
0.0
 11
515.6723430478259
 21
1709.301128705883
 31
0.0
  0
LINE
  5
A6A5
330
95A7
100
AcDbEntity
  8
3
 62
     0
370
    -2
100
AcDbLine
 10
530.672343047826
 20
1388.301128705883
 30
0.0
 11
530.672343047826
 21
1679.301128705883
 31
0.0
  0
INSERT
  5
A6A6
330
95A7
100
AcDbEntity
  8
3
 62
     0
370
    -2
100
AcDbBlockReference
  2
_OPEN
 10
530.672343047826
 20
1358.301128705883
 30
0.0
 41
30.0
 42
30.0
 43
30.0
 50
270.0
  0
INSERT
  5
A6A7
330
95A7
100
AcDbEntity
  8
3
 62
     0
370
    -2
100
AcDbBlockReference
  2
_OPEN
 10
530.672343047826
 20
1709.301128705883
 30
0.0
 41
30.0
 42
30.0
 43
30.0
 50
90.0
  0
MTEXT
  5
A6A8
330
95A7
100
AcDbEntity
  8
3
 62
     0
100
AcDbMText
 10
493.1723430478257
 20
1533.801128705883
 30
0.0
 40
45.0
 41
0.0
 71
     5
 72
     1
  1
\A1;351
 11
0.0000000000000001
 21
1.0
 31
0.0
 73
     1
 44
1.0
1001
ACAD
1000
MTEXTBEGIN
1070
    73
1070
     1
1070
    44
1040
1.0
1070
    74
1070
     0
1000
MTEXTEND
  0
POINT
  5
A6A9
330
95A7
100
AcDbEntity
  8
DEFPOINTS
 62
     0
100
AcDbPoint
 10
691.1810407026596
 20
1358.301128705883
 30
0.0
  0
POINT
  5
A6AA
330
95A7
100
AcDbEntity
  8
DEFPOINTS
 62
     0
100
AcDbPoint
 10
679.7209143521749
 20
1709.301128705883
 30
0.0
  0
POINT
  5
A6AB
330
95A7
100
AcDbEntity
  8
DEFPOINTS
 62
     0
100
AcDbPoint
 10
530.672343047826
 20
1709.301128705883
 30
0.0
  0
ENDBLK
  5
95A9
330
95A7
100
AcDbEntity
  8
0
100
AcDbBlockEnd
  0
BLOCK
  5
95B4
330
95B3
100
AcDbEntity
  8
0
100
AcDbBlockBegin
  2
*D33
 70
     1
 10
0.0
 20
0.0
 30
0.0
  3
*D33
  1

  0
LINE
  5
A6AC
330
95B3
100
AcDbEntity
  8
3
 62
     0
370
    -2
100
AcDbLine
 10
672.220914352175
 20
1709.301128705883
 30
0.0
 11
425.1915412840163
 21
1709.301128705883
 31
0.0
  0
LINE
  5
A6AD
330
95B3
100
AcDbEntity
  8
3
 62
     0
370
    -2
100
AcDbLine
 10
748.6810407026596
 20
1259.301128705883
 30
0.0
 11
425.1915412840162
 21
1259.301128705883
 31
0.0
  0
LINE
  5
A6AE
330
95B3
100
AcDbEntity
  8
3
 62
     0
370
    -2
100
AcDbLine
 10
440.1915412840163
 20
1679.301128705883
 30
0.0
 11
440.1915412840162
 21
1289.301128705883
 31
0.0
  0
INSERT
  5
A6AF
330
95B3
100
AcDbEntity
  8
3
 62
     0
370
    -2
100
AcDbBlockReference
  2
_OPEN
 10
440.1915412840163
 20
1709.301128705883
 30
0.0
 41
30.0
 42
30.0
 43
30.0
 50
90.0
  0
INSERT
  5
A6B0
330
95B3
100
AcDbEntity
  8
3
 62
     0
370
    -2
100
AcDbBlockReference
  2
_OPEN
 10
440.1915412840162
 20
1259.301128705883
 30
0.0
 41
30.0
 42
30.0
 43
30.0
 50
270.0
  0
MTEXT
  5
A6B1
330
95B3
100
AcDbEntity
  8
3
 62
     0
100
AcDbMText
 10
402.691541284016
 20
1484.301128705883
 30
0.0
 40
45.0
 41
0.0
 71
     5
 72
     1
  1
\A1;450
 11
0.0000000000000001
 21
1.0
 31
0.0
 73
     1
 44
1.0
1001
ACAD
1000
MTEXTBEGIN
1070
    73
1070
     1
1070
    44
1040
1.0
1070
    74
1070
     0
1000
MTEXTEND
  0
POINT
  5
A6B2
330
95B3
100
AcDbEntity
  8
DEFPOINTS
 62
     0
100
AcDbPoint
 10
679.7209143521749
 20
1709.301128705883
 30
0.0
  0
POINT
  5
A6B3
330
95B3
100
AcDbEntity
  8
DEFPOINTS
 62
     0
100
AcDbPoint
 10
756.1810407026596
 20
1259.301128705883
 30
0.0
  0
POINT
  5
A6B4
330
95B3
100
AcDbEntity
  8
DEFPOINTS
 62
     0
100
AcDbPoint
 10
440.1915412840162
 20
1259.301128705883
 30
0.0
  0
ENDBLK
  5
95B5
330
95B3
100
AcDbEntity
  8
0
100
AcDbBlockEnd
  0
BLOCK
  5
95C0
330
95BF
100
AcDbEntity
  8
0
100
AcDbBlockBegin
  2
*D34
 70
     1
 10
0.0
 20
0.0
 30
0.0
  3
*D34
  1

  0
LINE
  5
A848
330
95BF
100
AcDbEntity
  8
3
 62
     0
370
    -2
100
AcDbLine
 10
748.6810407026614
 20
1164.301128705883
 30
0.0
 11
425.1915412840163
 21
1164.301128705883
 31
0.0
  0
LINE
  5
A849
330
95BF
100
AcDbEntity
  8
3
 62
     0
370
    -2
100
AcDbLine
 10
748.6810407026614
 20
1089.301128705883
 30
0.0
 11
425.1915412840162
 21
1089.301128705883
 31
0.0
  0
LINE
  5
A84A
330
95BF
100
AcDbEntity
  8
3
 62
     0
370
    -2
100
AcDbLine
 10
440.1915412840162
 20
1194.301128705883
 30
0.0
 11
440.1915412840162
 21
1224.301128705883
 31
0.0
  0
LINE
  5
A84B
330
95BF
100
AcDbEntity
  8
3
 62
     0
370
    -2
100
AcDbLine
 10
440.1915412840162
 20
1059.301128705883
 30
0.0
 11
440.1915412840162
 21
926.4439858487403
 31
0.0
  0
LINE
  5
A84C
330
95BF
100
AcDbEntity
  8
3
 62
     0
370
    -2
100
AcDbLine
 10
440.1915412840162
 20
1164.301128705883
 30
0.0
 11
440.1915412840162
 21
1089.301128705883
 31
0.0
  0
INSERT
  5
A84D
330
95BF
100
AcDbEntity
  8
3
 62
     0
370
    -2
100
AcDbBlockReference
  2
_DOT
 10
440.1915412840162
 20
1164.301128705883
 30
0.0
 41
30.0
 42
30.0
 43
30.0
 50
270.0
  0
INSERT
  5
A84E
330
95BF
100
AcDbEntity
  8
3
 62
     0
370
    -2
100
AcDbBlockReference
  2
_OPEN
 10
440.1915412840162
 20
1089.301128705883
 30
0.0
 41
30.0
 42
30.0
 43
30.0
 50
90.0
  0
MTEXT
  5
A84F
330
95BF
100
AcDbEntity
  8
3
 62
     0
100
AcDbMText
 10
402.691541284016
 20
977.8725572773117
 30
0.0
 40
45.0
 41
0.0
 71
     5
 72
     1
  1
\A1;75
 11
0.0000000000000001
 21
1.0
 31
0.0
 73
     1
 44
1.0
1001
ACAD
1000
MTEXTBEGIN
1070
    73
1070
     1
1070
    44
1040
1.0
1070
    74
1070
     0
1000
MTEXTEND
  0
POINT
  5
A850
330
95BF
100
AcDbEntity
  8
DEFPOINTS
 62
     0
100
AcDbPoint
 10
756.1810407026614
 20
1164.301128705883
 30
0.0
  0
POINT
  5
A851
330
95BF
100
AcDbEntity
  8
DEFPOINTS
 62
     0
100
AcDbPoint
 10
756.1810407026614
 20
1089.301128705883
 30
0.0
  0
POINT
  5
A852
330
95BF
100
AcDbEntity
  8
DEFPOINTS
 62
     0
100
AcDbPoint
 10
440.1915412840162
 20
1089.301128705883
 30
0.0
  0
ENDBLK
  5
95C1
330
95BF
100
AcDbEntity
  8
0
100
AcDbBlockEnd
  0
BLOCK
  5
95CE
330
95CD
100
AcDbEntity
  8
0
100
AcDbBlockBegin
  2
*D35
 70
     1
 10
0.0
 20
0.0
 30
0.0
  3
*D35
  1

  0
LINE
  5
A853
330
95CD
100
AcDbEntity
  8
3
 62
     0
370
    -2
100
AcDbLine
 10
2653.529870910082
 20
1046.67259509698
 30
0.0
 11
2653.529870910082
 21
960.2085681671139
 31
0.0
  0
LINE
  5
A854
330
95CD
100
AcDbEntity
  8
3
 62
     0
370
    -2
100
AcDbLine
 10
2818.529870910081
 20
1081.801128705883
 30
0.0
 11
2818.529870910081
 21
960.2085681671139
 31
0.0
  0
LINE
  5
A855
330
95CD
100
AcDbEntity
  8
3
 62
     0
370
    -2
100
AcDbLine
 10
2683.529870910083
 20
975.208568167114
 30
0.0
 11
2788.529870910081
 21
975.208568167114
 31
0.0
  0
MTEXT
  5
A856
330
95CD
100
AcDbEntity
  8
3
 62
     0
100
AcDbMText
 10
2736.029870910082
 20
1015.623766667171
 30
0.0
 40
45.0
 41
0.0
 71
     5
 72
     1
  1
\A1;165
 73
     1
 44
1.0
1001
ACAD
1000
MTEXTBEGIN
1070
    73
1070
     1
1070
    44
1040
1.0
1070
    74
1070
     0
1000
MTEXTEND
  0
INSERT
  5
A857
330
95CD
100
AcDbEntity
  8
3
 62
     0
370
    -2
100
AcDbBlockReference
  2
_OPEN
 10
2653.529870910082
 20
975.208568167114
 30
0.0
 41
30.0
 42
30.0
 43
30.0
 50
180.0
  0
INSERT
  5
A858
330
95CD
100
AcDbEntity
  8
3
 62
     0
370
    -2
100
AcDbBlockReference
  2
_OPEN
 10
2818.529870910081
 20
975.208568167114
 30
0.0
 41
30.0
 42
30.0
 43
30.0
  0
POINT
  5
A859
330
95CD
100
AcDbEntity
  8
DEFPOINTS
 62
     0
100
AcDbPoint
 10
2653.529870910082
 20
1054.17259509698
 30
0.0
  0
POINT
  5
A85A
330
95CD
100
AcDbEntity
  8
DEFPOINTS
 62
     0
100
AcDbPoint
 10
2818.529870910081
 20
1089.301128705884
 30
0.0
  0
POINT
  5
A85B
330
95CD
100
AcDbEntity
  8
DEFPOINTS
 62
     0
100
AcDbPoint
 10
2818.529870910081
 20
975.208568167114
 30
0.0
  0
ENDBLK
  5
95CF
330
95CD
100
AcDbEntity
  8
0
100
AcDbBlockEnd
  0
BLOCK
  5
95DA
330
95D9
100
AcDbEntity
  8
0
100
AcDbBlockBegin
  2
*D36
 70
     1
 10
0.0
 20
0.0
 30
0.0
  3
*D36
  1

  0
LINE
  5
A6C9
330
95D9
100
AcDbEntity
  8
3
 62
     0
370
    -2
100
AcDbLine
 10
2653.529870910082
 20
2069.626816618645
 30
0.0
 11
2653.529870910082
 21
2116.300863134594
 31
0.0
  0
LINE
  5
A6CA
330
95D9
100
AcDbEntity
  8
3
 62
     0
370
    -2
100
AcDbLine
 10
2774.529870910083
 20
1900.30115547011
 30
0.0
 11
2774.529870910083
 21
2116.300863134594
 31
0.0
  0
LINE
  5
A6CB
330
95D9
100
AcDbEntity
  8
3
 62
     0
370
    -2
100
AcDbLine
 10
2683.529870910083
 20
2101.300863134594
 30
0.0
 11
2744.529870910083
 21
2101.300863134594
 31
0.0
  0
MTEXT
  5
A6CC
330
95D9
100
AcDbEntity
  8
3
 62
     0
100
AcDbMText
 10
2714.029870910083
 20
2145.734442194063
 30
0.0
 40
45.0
 41
0.0
 71
     5
 72
     1
  1
\A1;121
 73
     1
 44
1.0
1001
ACAD
1000
MTEXTBEGIN
1070
    73
1070
     1
1070
    44
1040
1.0
1070
    74
1070
     0
1000
MTEXTEND
  0
INSERT
  5
A6CD
330
95D9
100
AcDbEntity
  8
3
 62
     0
370
    -2
100
AcDbBlockReference
  2
_OPEN
 10
2653.529870910082
 20
2101.300863134594
 30
0.0
 41
30.0
 42
30.0
 43
30.0
 50
180.0
  0
INSERT
  5
A6CE
330
95D9
100
AcDbEntity
  8
3
 62
     0
370
    -2
100
AcDbBlockReference
  2
_OPEN
 10
2774.529870910083
 20
2101.300863134594
 30
0.0
 41
30.0
 42
30.0
 43
30.0
  0
POINT
  5
A6CF
330
95D9
100
AcDbEntity
  8
DEFPOINTS
 62
     0
100
AcDbPoint
 10
2653.529870910082
 20
2062.126816618645
 30
0.0
  0
POINT
  5
A6D0
330
95D9
100
AcDbEntity
  8
DEFPOINTS
 62
     0
100
AcDbPoint
 10
2774.529870910083
 20
1892.80115547011
 30
0.0
  0
POINT
  5
A6D1
330
95D9
100
AcDbEntity
  8
DEFPOINTS
 62
     0
100
AcDbPoint
 10
2774.529870910083
 20
2101.300863134594
 30
0.0
  0
ENDBLK
  5
95DB
330
95D9
100
AcDbEntity
  8
0
100
AcDbBlockEnd
  0
BLOCK
  5
95E6
330
95E5
100
AcDbEntity
  8
0
100
AcDbBlockBegin
  2
*D37
 70
     1
 10
0.0
 20
0.0
 30
0.0
  3
*D37
  1

  0
LINE
  5
A6D2
330
95E5
100
AcDbEntity
  8
3
 62
     0
370
    -2
100
AcDbLine
 10
2535.529870910083
 20
1938.817131679185
 30
0.0
 11
2535.529870910083
 21
2012.77639244935
 31
0.0
  0
LINE
  5
A6D3
330
95E5
100
AcDbEntity
  8
3
 62
     0
370
    -2
100
AcDbLine
 10
2771.529870910083
 20
1939.585171230068
 30
0.0
 11
2771.529870910083
 21
2012.77639244935
 31
0.0
  0
LINE
  5
A6D4
330
95E5
100
AcDbEntity
  8
3
 62
     0
370
    -2
100
AcDbLine
 10
2565.529870910083
 20
1997.77639244935
 30
0.0
 11
2741.529870910083
 21
1997.77639244935
 31
0.0
  0
INSERT
  5
A6D5
330
95E5
100
AcDbEntity
  8
3
 62
     0
370
    -2
100
AcDbBlockReference
  2
_OPEN
 10
2535.529870910083
 20
1997.77639244935
 30
0.0
 41
30.0
 42
30.0
 43
30.0
 50
180.0
  0
INSERT
  5
A6D6
330
95E5
100
AcDbEntity
  8
3
 62
     0
370
    -2
100
AcDbBlockReference
  2
_OPEN
 10
2771.529870910083
 20
1997.77639244935
 30
0.0
 41
30.0
 42
30.0
 43
30.0
  0
MTEXT
  5
A6D7
330
95E5
100
AcDbEntity
  8
3
 62
     0
100
AcDbMText
 10
2653.529870910082
 20
2035.27639244935
 30
0.0
 40
45.0
 41
0.0
 71
     5
 72
     1
  1
\A1;236
 73
     1
 44
1.0
1001
ACAD
1000
MTEXTBEGIN
1070
    73
1070
     1
1070
    44
1040
1.0
1070
    74
1070
     0
1000
MTEXTEND
  0
POINT
  5
A6D8
330
95E5
100
AcDbEntity
  8
DEFPOINTS
 62
     0
100
AcDbPoint
 10
2535.529870910083
 20
1931.317131679185
 30
0.0
  0
POINT
  5
A6D9
330
95E5
100
AcDbEntity
  8
DEFPOINTS
 62
     0
100
AcDbPoint
 10
2771.529870910083
 20
1932.085171230068
 30
0.0
  0
POINT
  5
A6DA
330
95E5
100
AcDbEntity
  8
DEFPOINTS
 62
     0
100
AcDbPoint
 10
2771.529870910083
 20
1997.77639244935
 30
0.0
  0
ENDBLK
  5
95E7
330
95E5
100
AcDbEntity
  8
0
100
AcDbBlockEnd
  0
BLOCK
  5
95F2
330
95F1
100
AcDbEntity
  8
0
100
AcDbBlockBegin
  2
*D38
 70
     1
 10
0.0
 20
0.0
 30
0.0
  3
*D38
  1

  0
LINE
  5
A6DB
330
95F1
100
AcDbEntity
  8
3
 62
     0
370
    -2
100
AcDbLine
 10
2807.029870910083
 20
1866.801128705883
 30
0.0
 11
2941.709842452569
 21
1866.801128705883
 31
0.0
  0
LINE
  5
A6DC
330
95F1
100
AcDbEntity
  8
3
 62
     0
370
    -2
100
AcDbLine
 10
2807.029870910083
 20
1551.801128705883
 30
0.0
 11
2941.709842452569
 21
1551.801128705883
 31
0.0
  0
LINE
  5
A6DD
330
95F1
100
AcDbEntity
  8
3
 62
     0
370
    -2
100
AcDbLine
 10
2926.70984245257
 20
1836.801128705883
 30
0.0
 11
2926.70984245257
 21
1581.801128705883
 31
0.0
  0
INSERT
  5
A6DE
330
95F1
100
AcDbEntity
  8
3
 62
     0
370
    -2
100
AcDbBlockReference
  2
_OPEN
 10
2926.70984245257
 20
1866.801128705883
 30
0.0
 41
30.0
 42
30.0
 43
30.0
 50
90.0
  0
INSERT
  5
A6DF
330
95F1
100
AcDbEntity
  8
3
 62
     0
370
    -2
100
AcDbBlockReference
  2
_OPEN
 10
2926.70984245257
 20
1551.801128705883
 30
0.0
 41
30.0
 42
30.0
 43
30.0
 50
270.0
  0
MTEXT
  5
A6E0
330
95F1
100
AcDbEntity
  8
3
 62
     0
100
AcDbMText
 10
2889.209842452569
 20
1709.301128705883
 30
0.0
 40
45.0
 41
0.0
 71
     5
 72
     1
  1
\A1;\U+03C6315
 11
0.0000000000000001
 21
1.0
 31
0.0
 73
     1
 44
1.0
1001
ACAD
1000
MTEXTBEGIN
1070
    73
1070
     1
1070
    44
1040
1.0
1070
    74
1070
     0
1000
MTEXTEND
  0
POINT
  5
A6E1
330
95F1
100
AcDbEntity
  8
DEFPOINTS
 62
     0
100
AcDbPoint
 10
2799.529870910083
 20
1866.801128705883
 30
0.0
  0
POINT
  5
A6E2
330
95F1
100
AcDbEntity
  8
DEFPOINTS
 62
     0
100
AcDbPoint
 10
2799.529870910083
 20
1551.801128705883
 30
0.0
  0
POINT
  5
A6E3
330
95F1
100
AcDbEntity
  8
DEFPOINTS
 62
     0
100
AcDbPoint
 10
2926.70984245257
 20
1551.801128705883
 30
0.0
  0
ENDBLK
  5
95F3
330
95F1
100
AcDbEntity
  8
0
100
AcDbBlockEnd
  0
BLOCK
  5
95FE
330
95FD
100
AcDbEntity
  8
0
100
AcDbBlockBegin
  2
*D39
 70
     1
 10
0.0
 20
0.0
 30
0.0
  3
*D39
  1

  0
LINE
  5
A755
330
95FD
100
AcDbEntity
  8
3
 62
     0
370
    -2
100
AcDbLine
 10
691.1810407026596
 20
1719.189959030839
 30
0.0
 11
691.1810407026596
 21
2166.208687956956
 31
0.0
  0
LINE
  5
A756
330
95FD
100
AcDbEntity
  8
3
 62
     0
370
    -2
100
AcDbLine
 10
1556.181040702659
 20
1341.801128705883
 30
0.0
 11
1556.181040702659
 21
2166.208687956956
 31
0.0
  0
LINE
  5
A757
330
95FD
100
AcDbEntity
  8
3
 62
     0
370
    -2
100
AcDbLine
 10
721.1810407026596
 20
2151.208687956956
 30
0.0
 11
1526.181040702659
 21
2151.208687956956
 31
0.0
  0
INSERT
  5
A758
330
95FD
100
AcDbEntity
  8
3
 62
     0
370
    -2
100
AcDbBlockReference
  2
_OPEN
 10
691.1810407026596
 20
2151.208687956956
 30
0.0
 41
30.0
 42
30.0
 43
30.0
 50
180.0
  0
INSERT
  5
A759
330
95FD
100
AcDbEntity
  8
3
 62
     0
370
    -2
100
AcDbBlockReference
  2
_OPEN
 10
1556.181040702659
 20
2151.208687956956
 30
0.0
 41
30.0
 42
30.0
 43
30.0
  0
MTEXT
  5
A75A
330
95FD
100
AcDbEntity
  8
3
 62
     0
100
AcDbMText
 10
1088.171018595863
 20
2188.708687956956
 30
0.0
 40
45.0
 41
0.0
 71
     5
 72
     1
  1
\A1;865
 73
     1
 44
1.0
1001
ACAD
1000
MTEXTBEGIN
1070
    73
1070
     1
1070
    44
1040
1.0
1070
    74
1070
     0
1000
MTEXTEND
  0
POINT
  5
A75B
330
95FD
100
AcDbEntity
  8
DEFPOINTS
 62
     0
100
AcDbPoint
 10
691.1810407026596
 20
1711.689959030839
 30
0.0
  0
POINT
  5
A75C
330
95FD
100
AcDbEntity
  8
DEFPOINTS
 62
     0
100
AcDbPoint
 10
1556.181040702659
 20
1334.301128705883
 30
0.0
  0
POINT
  5
A75D
330
95FD
100
AcDbEntity
  8
DEFPOINTS
 62
     0
100
AcDbPoint
 10
1556.181040702659
 20
2151.208687956956
 30
0.0
  0
ENDBLK
  5
95FF
330
95FD
100
AcDbEntity
  8
0
100
AcDbBlockEnd
  0
BLOCK
  5
960A
330
9609
100
AcDbEntity
  8
0
100
AcDbBlockBegin
  2
*D40
 70
     1
 10
0.0
 20
0.0
 30
0.0
  3
*D40
  1

  0
LINE
  5
A85C
330
9609
100
AcDbEntity
  8
3
 62
     0
370
    -2
100
AcDbLine
 10
748.6810407026596
 20
1259.301128705883
 30
0.0
 11
425.1915412840162
 21
1259.301128705883
 31
0.0
  0
LINE
  5
A85D
330
9609
100
AcDbEntity
  8
3
 62
     0
370
    -2
100
AcDbLine
 10
748.6810407026614
 20
1164.301128705883
 30
0.0
 11
425.1915412840162
 21
1164.301128705883
 31
0.0
  0
LINE
  5
A85E
330
9609
100
AcDbEntity
  8
3
 62
     0
370
    -2
100
AcDbLine
 10
440.1915412840162
 20
1229.301128705883
 30
0.0
 11
440.1915412840162
 21
1164.301128705883
 31
0.0
  0
MTEXT
  5
A85F
330
9609
100
AcDbEntity
  8
3
 62
     0
100
AcDbMText
 10
378.304678431904
 20
1223.407003752503
 30
0.0
 40
45.0
 41
0.0
 71
     5
 72
     1
  1
\A1;(95)
 11
0.0000000000000001
 21
1.0
 31
0.0
 73
     1
 44
1.0
1001
ACAD
1000
MTEXTBEGIN
1070
    73
1070
     1
1070
    44
1040
1.0
1070
    74
1070
     0
1000
MTEXTEND
  0
INSERT
  5
A860
330
9609
100
AcDbEntity
  8
3
 62
     0
370
    -2
100
AcDbBlockReference
  2
_OPEN
 10
440.1915412840162
 20
1259.301128705883
 30
0.0
 41
30.0
 42
30.0
 43
30.0
 50
90.0
  0
INSERT
  5
A861
330
9609
100
AcDbEntity
  8
3
 62
     0
370
    -2
100
AcDbBlockReference
  2
_DotSmall
 10
440.1915412840162
 20
1164.301128705883
 30
0.0
 41
30.0
 42
30.0
 43
30.0
 50
270.0
  0
POINT
  5
A862
330
9609
100
AcDbEntity
  8
DEFPOINTS
 62
     0
100
AcDbPoint
 10
756.1810407026596
 20
1259.301128705883
 30
0.0
  0
POINT
  5
A863
330
9609
100
AcDbEntity
  8
DEFPOINTS
 62
     0
100
AcDbPoint
 10
756.1810407026614
 20
1164.301128705883
 30
0.0
  0
POINT
  5
A864
330
9609
100
AcDbEntity
  8
DEFPOINTS
 62
     0
100
AcDbPoint
 10
440.1915412840162
 20
1164.301128705883
 30
0.0
  0
ENDBLK
  5
960B
330
9609
100
AcDbEntity
  8
0
100
AcDbBlockEnd
  0
BLOCK
  5
962E
330
962D
100
AcDbEntity
  8
0
100
AcDbBlockBegin
  2
*D41
 70
     1
 10
0.0
 20
0.0
 30
0.0
  3
*D41
  1

  0
LINE
  5
A800
330
962D
100
AcDbEntity
  8
3
 62
     0
370
    -2
100
AcDbLine
 10
1563.681040702659
 20
2480.231624695724
 30
0.0
 11
1754.075968025151
 21
2480.231624695724
 31
0.0
  0
LINE
  5
A801
330
962D
100
AcDbEntity
  8
3
 62
     0
370
    -2
100
AcDbLine
 10
1563.681040702661
 20
2860.231624695726
 30
0.0
 11
1754.075968025151
 21
2860.231624695726
 31
0.0
  0
LINE
  5
A802
330
962D
100
AcDbEntity
  8
3
 62
     0
370
    -2
100
AcDbLine
 10
1739.07596802515
 20
2510.231624695725
 30
0.0
 11
1739.075968025151
 21
2830.231624695726
 31
0.0
  0
INSERT
  5
A803
330
962D
100
AcDbEntity
  8
3
 62
     0
370
    -2
100
AcDbBlockReference
  2
_OPEN
 10
1739.07596802515
 20
2480.231624695724
 30
0.0
 41
30.0
 42
30.0
 43
30.0
 50
270.0
  0
INSERT
  5
A804
330
962D
100
AcDbEntity
  8
3
 62
     0
370
    -2
100
AcDbBlockReference
  2
_OPEN
 10
1739.075968025151
 20
2860.231624695726
 30
0.0
 41
30.0
 42
30.0
 43
30.0
 50
90.0
  0
MTEXT
  5
A805
330
962D
100
AcDbEntity
  8
3
 62
     0
100
AcDbMText
 10
1701.57596802515
 20
2670.231624695726
 30
0.0
 40
45.0
 41
0.0
 71
     5
 72
     1
  1
\A1;380
 11
0.0000000000000001
 21
1.0
 31
0.0
 73
     1
 44
1.0
1001
ACAD
1000
MTEXTBEGIN
1070
    73
1070
     1
1070
    44
1040
1.0
1070
    74
1070
     0
1000
MTEXTEND
  0
POINT
  5
A806
330
962D
100
AcDbEntity
  8
DEFPOINTS
 62
     0
100
AcDbPoint
 10
1556.181040702659
 20
2480.231624695724
 30
0.0
  0
POINT
  5
A807
330
962D
100
AcDbEntity
  8
DEFPOINTS
 62
     0
100
AcDbPoint
 10
1556.181040702661
 20
2860.231624695726
 30
0.0
  0
POINT
  5
A808
330
962D
100
AcDbEntity
  8
DEFPOINTS
 62
     0
100
AcDbPoint
 10
1739.075968025151
 20
2860.231624695726
 30
0.0
  0
ENDBLK
  5
962F
330
962D
100
AcDbEntity
  8
0
100
AcDbBlockEnd
  0
BLOCK
  5
963A
330
9639
100
AcDbEntity
  8
0
100
AcDbBlockBegin
  2
*D42
 70
     1
 10
0.0
 20
0.0
 30
0.0
  3
*D42
  1

  0
LINE
  5
A809
330
9639
100
AcDbEntity
  8
3
 62
     0
370
    -2
100
AcDbLine
 10
756.1810407026596
 20
3267.731624695726
 30
0.0
 11
756.1810407026596
 21
3386.449991697255
 31
0.0
  0
LINE
  5
A80A
330
9639
100
AcDbEntity
  8
3
 62
     0
370
    -2
100
AcDbLine
 10
1116.181040702659
 20
3267.731624695726
 30
0.0
 11
1116.181040702659
 21
3386.449991697255
 31
0.0
  0
LINE
  5
A80B
330
9639
100
AcDbEntity
  8
3
 62
     0
370
    -2
100
AcDbLine
 10
786.1810407026596
 20
3371.449991697254
 30
0.0
 11
1086.181040702659
 21
3371.449991697254
 31
0.0
  0
INSERT
  5
A80C
330
9639
100
AcDbEntity
  8
3
 62
     0
370
    -2
100
AcDbBlockReference
  2
_OPEN
 10
756.1810407026596
 20
3371.449991697254
 30
0.0
 41
30.0
 42
30.0
 43
30.0
 50
180.0
  0
INSERT
  5
A80D
330
9639
100
AcDbEntity
  8
3
 62
     0
370
    -2
100
AcDbBlockReference
  2
_OPEN
 10
1116.181040702659
 20
3371.449991697254
 30
0.0
 41
30.0
 42
30.0
 43
30.0
  0
MTEXT
  5
A80E
330
9639
100
AcDbEntity
  8
3
 62
     0
100
AcDbMText
 10
936.1810407026595
 20
3408.949991697254
 30
0.0
 40
45.0
 41
0.0
 71
     5
 72
     1
  1
\A1;360
 73
     1
 44
1.0
1001
ACAD
1000
MTEXTBEGIN
1070
    73
1070
     1
1070
    44
1040
1.0
1070
    74
1070
     0
1000
MTEXTEND
  0
POINT
  5
A80F
330
9639
100
AcDbEntity
  8
DEFPOINTS
 62
     0
100
AcDbPoint
 10
756.1810407026596
 20
3260.231624695725
 30
0.0
  0
POINT
  5
A810
330
9639
100
AcDbEntity
  8
DEFPOINTS
 62
     0
100
AcDbPoint
 10
1116.181040702659
 20
3260.231624695725
 30
0.0
  0
POINT
  5
A811
330
9639
100
AcDbEntity
  8
DEFPOINTS
 62
     0
100
AcDbPoint
 10
1116.181040702659
 20
3371.449991697254
 30
0.0
  0
ENDBLK
  5
963B
330
9639
100
AcDbEntity
  8
0
100
AcDbBlockEnd
  0
BLOCK
  5
9646
330
9645
100
AcDbEntity
  8
0
100
AcDbBlockBegin
  2
*D43
 70
     1
 10
0.0
 20
0.0
 30
0.0
  3
*D43
  1

  0
LINE
  5
A812
330
9645
100
AcDbEntity
  8
3
 62
     0
370
    -2
100
AcDbLine
 10
1116.181040702659
 20
3267.731624695726
 30
0.0
 11
1116.181040702659
 21
3386.449991697255
 31
0.0
  0
LINE
  5
A813
330
9645
100
AcDbEntity
  8
3
 62
     0
370
    -2
100
AcDbLine
 10
1556.181040702661
 20
2867.731624695725
 30
0.0
 11
1556.181040702661
 21
3386.449991697255
 31
0.0
  0
LINE
  5
A814
330
9645
100
AcDbEntity
  8
3
 62
     0
370
    -2
100
AcDbLine
 10
1146.18104070266
 20
3371.449991697254
 30
0.0
 11
1526.181040702661
 21
3371.449991697254
 31
0.0
  0
INSERT
  5
A815
330
9645
100
AcDbEntity
  8
3
 62
     0
370
    -2
100
AcDbBlockReference
  2
_OPEN
 10
1116.181040702659
 20
3371.449991697254
 30
0.0
 41
30.0
 42
30.0
 43
30.0
 50
180.0
  0
INSERT
  5
A816
330
9645
100
AcDbEntity
  8
3
 62
     0
370
    -2
100
AcDbBlockReference
  2
_OPEN
 10
1556.181040702661
 20
3371.449991697254
 30
0.0
 41
30.0
 42
30.0
 43
30.0
  0
MTEXT
  5
A817
330
9645
100
AcDbEntity
  8
3
 62
     0
100
AcDbMText
 10
1336.18104070266
 20
3408.949991697254
 30
0.0
 40
45.0
 41
0.0
 71
     5
 72
     1
  1
\A1;440
 73
     1
 44
1.0
1001
ACAD
1000
MTEXTBEGIN
1070
    73
1070
     1
1070
    44
1040
1.0
1070
    74
1070
     0
1000
MTEXTEND
  0
POINT
  5
A818
330
9645
100
AcDbEntity
  8
DEFPOINTS
 62
     0
100
AcDbPoint
 10
1116.181040702659
 20
3260.231624695725
 30
0.0
  0
POINT
  5
A819
330
9645
100
AcDbEntity
  8
DEFPOINTS
 62
     0
100
AcDbPoint
 10
1556.181040702661
 20
2860.231624695726
 30
0.0
  0
POINT
  5
A81A
330
9645
100
AcDbEntity
  8
DEFPOINTS
 62
     0
100
AcDbPoint
 10
1556.181040702661
 20
3371.449991697254
 30
0.0
  0
ENDBLK
  5
9647
330
9645
100
AcDbEntity
  8
0
100
AcDbBlockEnd
  0
BLOCK
  5
9688
330
9687
100
AcDbEntity
  8
0
100
AcDbBlockBegin
  2
*D44
 70
     1
 10
0.0
 20
0.0
 30
0.0
  3
*D44
  1

  0
LINE
  5
A7E5
330
9687
100
AcDbEntity
  8
3
 62
     0
370
    -2
100
AcDbLine
 10
748.6810407026596
 20
2480.231624695726
 30
0.0
 11
485.0826978765489
 21
2480.231624695726
 31
0.0
  0
LINE
  5
A7E6
330
9687
100
AcDbEntity
  8
3
 62
     0
370
    -2
100
AcDbLine
 10
749.9398023110561
 20
3260.231624695725
 30
0.0
 11
485.0826978765491
 21
3260.231624695725
 31
0.0
  0
LINE
  5
A7E7
330
9687
100
AcDbEntity
  8
3
 62
     0
370
    -2
100
AcDbLine
 10
500.0826978765489
 20
2510.231624695725
 30
0.0
 11
500.082697876549
 21
3230.231624695726
 31
0.0
  0
INSERT
  5
A7E8
330
9687
100
AcDbEntity
  8
3
 62
     0
370
    -2
100
AcDbBlockReference
  2
_OPEN
 10
500.0826978765489
 20
2480.231624695726
 30
0.0
 41
30.0
 42
30.0
 43
30.0
 50
270.0
  0
INSERT
  5
A7E9
330
9687
100
AcDbEntity
  8
3
 62
     0
370
    -2
100
AcDbBlockReference
  2
_OPEN
 10
500.082697876549
 20
3260.231624695725
 30
0.0
 41
30.0
 42
30.0
 43
30.0
 50
90.0
  0
MTEXT
  5
A7EA
330
9687
100
AcDbEntity
  8
3
 62
     0
100
AcDbMText
 10
462.5826978765485
 20
2870.231624695725
 30
0.0
 40
45.0
 41
0.0
 71
     5
 72
     1
  1
\A1;780
 11
0.0000000000000001
 21
1.0
 31
0.0
 73
     1
 44
1.0
1001
ACAD
1000
MTEXTBEGIN
1070
    73
1070
     1
1070
    44
1040
1.0
1070
    74
1070
     0
1000
MTEXTEND
  0
POINT
  5
A7EB
330
9687
100
AcDbEntity
  8
DEFPOINTS
 62
     0
100
AcDbPoint
 10
756.1810407026596
 20
2480.231624695726
 30
0.0
  0
POINT
  5
A7EC
330
9687
100
AcDbEntity
  8
DEFPOINTS
 62
     0
100
AcDbPoint
 10
757.4398023110561
 20
3260.231624695725
 30
0.0
  0
POINT
  5
A7ED
330
9687
100
AcDbEntity
  8
DEFPOINTS
 62
     0
100
AcDbPoint
 10
500.082697876549
 20
3260.231624695725
 30
0.0
  0
ENDBLK
  5
9689
330
9687
100
AcDbEntity
  8
0
100
AcDbBlockEnd
  0
BLOCK
  5
96BA
330
96B9
100
AcDbEntity
  8
0
100
AcDbBlockBegin
  2
*D45
 70
     1
 10
0.0
 20
0.0
 30
0.0
  3
*D45
  1

  0
LINE
  5
A7F7
330
96B9
100
AcDbEntity
  8
3
 62
     0
370
    -2
100
AcDbLine
 10
1556.181040702661
 20
2491.731624695725
 30
0.0
 11
1556.181040702661
 21
2287.599314106555
 31
0.0
  0
LINE
  5
A7F8
330
96B9
100
AcDbEntity
  8
3
 62
     0
370
    -2
100
AcDbLine
 10
756.1810407026614
 20
2472.731624695726
 30
0.0
 11
756.1810407026614
 21
2287.599314106555
 31
0.0
  0
LINE
  5
A7F9
330
96B9
100
AcDbEntity
  8
3
 62
     0
370
    -2
100
AcDbLine
 10
1526.181040702661
 20
2302.599314106555
 30
0.0
 11
786.1810407026614
 21
2302.599314106555
 31
0.0
  0
INSERT
  5
A7FA
330
96B9
100
AcDbEntity
  8
3
 62
     0
370
    -2
100
AcDbBlockReference
  2
_OPEN
 10
1556.181040702661
 20
2302.599314106555
 30
0.0
 41
30.0
 42
30.0
 43
30.0
  0
INSERT
  5
A7FB
330
96B9
100
AcDbEntity
  8
3
 62
     0
370
    -2
100
AcDbBlockReference
  2
_OPEN
 10
756.1810407026614
 20
2302.599314106555
 30
0.0
 41
30.0
 42
30.0
 43
30.0
 50
180.0
  0
MTEXT
  5
A7FC
330
96B9
100
AcDbEntity
  8
3
 62
     0
100
AcDbMText
 10
1156.181040702661
 20
2340.099314106555
 30
0.0
 40
45.0
 41
0.0
 71
     5
 72
     1
  1
\A1;800
 73
     1
 44
1.0
1001
ACAD
1000
MTEXTBEGIN
1070
    73
1070
     1
1070
    44
1040
1.0
1070
    74
1070
     0
1000
MTEXTEND
  0
POINT
  5
A7FD
330
96B9
100
AcDbEntity
  8
DEFPOINTS
 62
     0
100
AcDbPoint
 10
1556.181040702661
 20
2499.231624695725
 30
0.0
  0
POINT
  5
A7FE
330
96B9
100
AcDbEntity
  8
DEFPOINTS
 62
     0
100
AcDbPoint
 10
756.1810407026614
 20
2480.231624695726
 30
0.0
  0
POINT
  5
A7FF
330
96B9
100
AcDbEntity
  8
DEFPOINTS
 62
     0
100
AcDbPoint
 10
756.1810407026614
 20
2302.599314106555
 30
0.0
  0
ENDBLK
  5
96BB
330
96B9
100
AcDbEntity
  8
0
100
AcDbBlockEnd
  0
ENDSEC
  0
SECTION
  2
ENTITIES
  0
LINE
  5
80BA
330
19
100
AcDbEntity
  8
4
100
AcDbLine
 10
2775.0
 20
750.0
 30
0.0
 11
2775.0
 21
450.0
 31
0.0
  0
LINE
  5
80BB
330
19
100
AcDbEntity
  8
4
100
AcDbLine
 10
1725.0
 20
750.0
 30
0.0
 11
1725.0
 21
450.0
 31
0.0
  0
LINE
  5
80BC
330
19
100
AcDbEntity
  8
4
100
AcDbLine
 10
975.0
 20
750.0
 30
0.0
 11
975.0
 21
450.0
 31
0.0
  0
LINE
  5
80BF
330
19
100
AcDbEntity
  8
4
100
AcDbLine
 10
975.0
 20
450.0
 30
0.0
 11
2775.0
 21
450.0
 31
0.0
  0
LINE
  5
80C0
330
19
100
AcDbEntity
  8
4
100
AcDbLine
 10
975.0
 20
600.0
 30
0.0
 11
2775.0
 21
600.0
 31
0.0
  0
TEXT
  5
80C1
330
19
100
AcDbEntity
  8
4
100
AcDbText
 10
1032.753121270352
 20
647.3145387999193
 30
0.0
 40
75.0
  1
機器名称
100
AcDbText
  0
TEXT
  5
80C2
330
19
100
AcDbEntity
  8
4
100
AcDbText
 10
1029.387159037196
 20
482.4677350980164
 30
0.0
 40
75.0
  1
機器型番
100
AcDbText
  0
TEXT
  5
80C3
330
19
100
AcDbEntity
  8
4
100
AcDbText
 10
1725.701922226007
 20
634.0913930483091
 30
0.0
 40
67.5
  1
ミツヤ多翼送風機
100
AcDbText
  0
TEXT
  5
80C4
330
19
100
AcDbEntity
  8
4
100
AcDbText
 10
1779.981743378221
 20
475.739376419915
 30
0.0
 40
75.0
  1
MF#2-1
100
AcDbText
  0
TEXT
  5
80C6
330
19
100
AcDbEntity
  8
4
100
AcDbText
 10
1170.658110497603
 20
3575.143261998774
 30
0.0
 40
80.99999999999999
  1
床置防振ベット
100
AcDbText
  0
TEXT
  5
80C7
330
19
100
AcDbEntity
  8
4
100
AcDbText
 10
474.2513899941696
 20
3800.821464298947
 30
0.0
 40
108.0
  1
遠心式片吸込片持多翼ファン
100
AcDbText
  0
LINE
  5
80C8
330
19
100
AcDbEntity
  8
4
100
AcDbLine
 10
375.0
 20
3704.113131397207
 30
0.0
 11
2775.0
 21
3704.113131397207
 31
0.0
  0
LINE
  5
80C9
330
19
100
AcDbEntity
  8
4
100
AcDbLine
 10
375.0
 20
4004.113131397207
 30
0.0
 11
2775.0
 21
4004.113131397207
 31
0.0
  0
LINE
  5
80CA
330
19
100
AcDbEntity
  8
4
100
AcDbLine
 10
975.0
 20
750.0
 30
0.0
 11
2775.0
 21
750.0
 31
0.0
  0
LINE
  5
80CB
330
19
100
AcDbEntity
  8
4
100
AcDbLine
 10
375.0
 20
4004.113131397207
 30
0.0
 11
375.0
 21
3704.113131397207
 31
0.0
  0
TEXT
  5
80CC
330
19
100
AcDbEntity
  8
4
100
AcDbText
 10
516.8698621335497
 20
3573.479216319515
 30
0.0
 40
80.99999999999999
  1
右回転左横向
100
AcDbText
  0
TEXT
  5
80CD
330
19
100
AcDbEntity
  8
4
100
AcDbText
 10
2203.454338873935
 20
4059.091622242963
 30
0.0
 40
84.00000000000002
  1
No.
100
AcDbText
  0
TEXT
  5
80CE
330
19
100
AcDbEntity
  8
4
100
AcDbText
 10
1966.94409390002
 20
3575.143261998774
 30
0.0
 40
80.99999999999999
  1
縮尺：1/15
100
AcDbText
  0
LINE
  5
80CF
330
19
100
AcDbEntity
  8
4
100
AcDbLine
 10
2775.0
 20
4004.113131397207
 30
0.0
 11
2775.0
 21
3704.113131397207
 31
0.0
  0
LINE
  5
80D0
330
19
100
AcDbEntity
  8
4
100
AcDbLine
 10
3150.0
 20
4425.0
 30
0.0
 11
3150.0
 21
4425.0
 31
0.0
  0
LINE
  5
80D1
330
19
100
AcDbEntity
  8
4
100
AcDbLine
 10
2160.926133539797
 20
4021.895374688102
 30
0.0
 11
2160.926133539797
 21
4179.978392324628
 31
0.0
  0
LINE
  5
80D2
330
19
100
AcDbEntity
  8
4
100
AcDbLine
 10
2160.926133539797
 20
4179.978392324628
 30
0.0
 11
2775.0
 21
4179.978392324628
 31
0.0
  0
LINE
  5
80D3
330
19
100
AcDbEntity
  8
4
100
AcDbLine
 10
2775.0
 20
4179.978392324628
 30
0.0
 11
2775.0
 21
4021.895374688102
 31
0.0
  0
LINE
  5
80D4
330
19
100
AcDbEntity
  8
4
100
AcDbLine
 10
2775.0
 20
4021.895374688102
 30
0.0
 11
2160.926133539797
 21
4021.895374688102
 31
0.0
  0
LINE
  5
80D5
330
19
100
AcDbEntity
  8
4
100
AcDbLine
 10
0.0
 20
0.0
 30
0.0
 11
0.0
 21
4425.0
 31
0.0
  0
LINE
  5
80D6
330
19
100
AcDbEntity
  8
4
100
AcDbLine
 10
0.0
 20
4425.0
 30
0.0
 11
3150.0
 21
4425.0
 31
0.0
  0
LINE
  5
80D7
330
19
100
AcDbEntity
  8
4
100
AcDbLine
 10
3150.0
 20
4425.0
 30
0.0
 11
3150.0
 21
0.0
 31
0.0
  0
LINE
  5
80D8
330
19
100
AcDbEntity
  8
4
100
AcDbLine
 10
3150.0
 20
0.0
 30
0.0
 11
0.0
 21
0.0
 31
0.0
  0
DIMENSION
  5
9438
330
19
100
AcDbEntity
  8
3
100
AcDbDimension
  2
*D23
 10
2653.529870910082
 20
2101.300863134594
 30
0.0
 11
2299.529870910079
 21
2176.300863134594
 31
0.0
 70
    32
  1
MAX\P760
 71
     5
 42
708.0000000000072
  3
IGA
100
AcDbAlignedDimension
 13
1945.529870910075
 23
1799.301128705883
 33
0.0
 14
2653.529870910082
 24
2062.126816618645
 34
0.0
100
AcDbRotatedDimension
1001
ACAD
1000
DSTYLE
1002
{
1070
    40
1040
15.0
1070
   143
1040
0.039
1070
   172
1070
     1
1070
   271
1070
     0
1070
   279
1070
     0
1070
   288
1070
     1
1002
}
  0
DIMENSION
  5
9439
330
19
100
AcDbEntity
  8
3
100
AcDbDimension
  2
*D24
 10
2653.529870910082
 20
975.208568167114
 30
0.0
 11
2346.029870910083
 21
1012.708568167114
 31
0.0
 70
    32
 71
     5
 42
615.0
  3
IGA
100
AcDbAlignedDimension
 13
2038.529870910083
 23
1089.301128705883
 33
0.0
 14
2653.529870910082
 24
1054.17259509698
 34
0.0
100
AcDbRotatedDimension
1001
ACAD
1000
DSTYLE
1002
{
1070
    40
1040
15.0
1070
   143
1040
0.039
1070
   172
1070
     1
1070
   271
1070
     0
1070
   279
1070
     0
1070
   288
1070
     1
1002
}
  0
LINE
  5
943A
330
19
100
AcDbEntity
  8
1
100
AcDbLine
 10
2818.529870910081
 20
1089.301128705884
 30
0.0
 11
2038.529870910083
 21
1089.301128705883
 31
0.0
  0
LINE
  5
943B
330
19
100
AcDbEntity
  8
1
100
AcDbLine
 10
2818.529870910081
 20
1164.301128705883
 30
0.0
 11
2038.529870910083
 21
1164.301128705883
 31
0.0
  0
LINE
  5
943C
330
19
100
AcDbEntity
  8
1
100
AcDbLine
 10
2818.529870910081
 20
1259.301128705884
 30
0.0
 11
2038.529870910083
 21
1259.301128705883
 31
0.0
  0
DIMENSION
  5
943D
330
19
100
AcDbEntity
  8
3
100
AcDbDimension
  2
*D25
 10
440.1915412840162
 20
1935.260032933713
 30
0.0
 11
402.6915412840159
 21
1822.280580819798
 31
0.0
 70
    32
 71
     5
 42
225.9589042278299
  3
IGA
100
AcDbAlignedDimension
 13
679.7209143521749
 23
1709.301128705883
 33
0.0
 14
954.9459932873515
 24
1935.260032933713
 34
0.0
 50
270.0
100
AcDbRotatedDimension
1001
ACAD
1000
DSTYLE
1002
{
1070
    40
1040
15.0
1070
   143
1040
0.039
1070
   172
1070
     1
1070
   271
1070
     0
1070
   279
1070
     0
1070
   288
1070
     1
1002
}
  0
DIMENSION
  5
943E
330
19
100
AcDbEntity
  8
3
100
AcDbDimension
  2
*D26
 10
936.1810407026595
 20
2051.015303344235
 30
0.0
 11
813.6810407026596
 21
2088.515303344235
 31
0.0
 70
    32
 71
     5
 42
245.0
  3
IGA
100
AcDbAlignedDimension
 13
691.1810407026596
 23
1711.689959030839
 33
0.0
 14
936.1810407026595
 24
1969.904409386754
 34
0.0
 50
180.0
100
AcDbRotatedDimension
1001
ACAD
1000
DSTYLE
1002
{
1070
    40
1040
15.0
1070
   143
1040
0.039
1070
   172
1070
     1
1070
   271
1070
     0
1070
   279
1070
     0
1070
   288
1070
     1
1002
}
  0
DIMENSION
  5
943F
330
19
100
AcDbEntity
  8
3
100
AcDbDimension
  2
*D27
 10
936.1810407026595
 20
974.359421451121
 30
0.0
 11
846.1810407026606
 21
1019.634784115916
 31
0.0
 70
   160
 71
     5
 42
179.9999999999982
  3
IGA
100
AcDbAlignedDimension
 13
756.1810407026614
 23
1089.301128705883
 33
0.0
 14
936.1810407026595
 24
1056.818176209124
 34
0.0
 50
180.0
100
AcDbRotatedDimension
1001
ACAD
1000
DSTYLE
1002
{
1070
   288
1070
     1
1070
   172
1070
     1
1070
    40
1040
15.0
1070
   271
1070
     0
1070
   143
1040
0.039
1002
}
  0
DIMENSION
  5
9440
330
19
100
AcDbEntity
  8
3
100
AcDbDimension
  2
*D28
 10
286.859201863047
 20
1935.260032933713
 30
0.0
 11
249.3592018630466
 21
1512.280580819798
 31
0.0
 70
    32
  1
846
 71
     5
 42
845.9589042278301
  3
IGA
100
AcDbAlignedDimension
 13
756.1810407026614
 23
1089.301128705883
 33
0.0
 14
954.9459932873515
 24
1935.260032933713
 34
0.0
 50
270.0
100
AcDbRotatedDimension
1001
ACAD
1000
DSTYLE
1002
{
1070
    40
1040
15.0
1070
   143
1040
0.039
1070
   172
1070
     1
1070
   271
1070
     0
1070
   279
1070
     0
1070
   288
1070
     1
1002
}
  0
LINE
  5
9441
330
19
100
AcDbEntity
  8
1
100
AcDbLine
 10
1556.181040702661
 20
1089.301128705883
 30
0.0
 11
756.1810407026596
 21
1089.301128705883
 31
0.0
  0
LINE
  5
9442
330
19
100
AcDbEntity
  8
1
100
AcDbLine
 10
1556.181040702661
 20
1164.301128705883
 30
0.0
 11
756.1810407026596
 21
1164.301128705883
 31
0.0
  0
LINE
  5
9443
330
19
100
AcDbEntity
  8
1
100
AcDbLine
 10
1556.181040702661
 20
1259.301128705883
 30
0.0
 11
756.1810407026596
 21
1259.301128705883
 31
0.0
  0
LINE
  5
9444
330
19
100
AcDbEntity
  8
2
100
AcDbLine
 10
936.1810407026595
 20
1803.440443898359
 30
0.0
 11
936.1810407026595
 21
1056.818176209124
 31
0.0
  0
DIMENSION
  5
9445
330
19
100
AcDbEntity
  8
3
100
AcDbDimension
  2
*D29
 10
1556.181040702661
 20
974.359421451121
 30
0.0
 11
1246.181040702661
 21
1011.859421451121
 31
0.0
 70
    32
 71
     5
 42
620.0000000000017
  3
IGA
100
AcDbAlignedDimension
 13
936.1810407026595
 23
1056.818176209124
 33
0.0
 14
1556.181040702661
 24
1089.301128705883
 34
0.0
 50
180.0
100
AcDbRotatedDimension
1001
ACAD
1000
DSTYLE
1002
{
1070
    40
1040
15.0
1070
   143
1040
0.039
1070
   172
1070
     1
1070
   271
1070
     0
1070
   279
1070
     0
1070
   288
1070
     1
1002
}
  0
LINE
  5
9446
330
19
100
AcDbEntity
  8
1
100
AcDbLine
 10
1556.181040702661
 20
1164.301128705883
 30
0.0
 11
1556.181040702661
 21
1089.301128705883
 31
0.0
  0
DIMENSION
  5
9447
330
19
100
AcDbEntity
  8
3
100
AcDbDimension
  2
*D30
 10
1209.745921583342
 20
2051.015303344235
 30
0.0
 11
1072.963481143001
 21
2088.515303344235
 31
0.0
 70
    32
 71
     5
 42
273.5648808806827
  3
IGA
100
AcDbAlignedDimension
 13
936.1810407026595
 23
1969.904409386754
 33
0.0
 14
1209.745921583342
 24
1685.301128705883
 34
0.0
 50
180.0
100
AcDbRotatedDimension
1001
ACAD
1000
DSTYLE
1002
{
1070
    40
1040
15.0
1070
   143
1040
0.039
1070
   172
1070
     1
1070
   271
1070
     0
1070
   279
1070
     0
1070
   288
1070
     1
1002
}
  0
LINE
  5
9448
330
19
100
AcDbEntity
  8
1
100
AcDbLine
 10
691.1810407026596
 20
1683.301128705883
 30
0.0
 11
691.1810407026596
 21
1358.301128705883
 31
0.0
  0
LINE
  5
9449
330
19
100
AcDbEntity
  8
1
100
AcDbLine
 10
716.1810407026596
 20
1358.301128705883
 30
0.0
 11
716.1810407026596
 21
1683.301128705883
 31
0.0
  0
LINE
  5
944A
330
19
100
AcDbEntity
  8
1
100
AcDbLine
 10
694.1810407026596
 20
1683.301128705883
 30
0.0
 11
694.1810407026596
 21
1358.301128705883
 31
0.0
  0
DIMENSION
  5
944B
330
19
100
AcDbEntity
  8
3
100
AcDbDimension
  2
*D31
 10
606.340828860287
 20
1683.301128705883
 30
0.0
 11
606.3408288602868
 21
1520.801128705883
 31
0.0
 70
   160
 71
     5
 42
325.0
  3
IGA
100
AcDbAlignedDimension
 13
691.1810407026596
 23
1358.301128705883
 33
0.0
 14
691.1810407026596
 24
1683.301128705883
 34
0.0
 50
270.0
100
AcDbRotatedDimension
1001
ACAD
1000
DSTYLE
1002
{
1070
    40
1040
15.0
1070
   143
1040
0.039
1070
   172
1070
     1
1070
   271
1070
     0
1070
   279
1070
     0
1070
   288
1070
     1
1002
}
  0
DIMENSION
  5
944C
330
19
100
AcDbEntity
  8
3
100
AcDbDimension
  2
*D32
 10
530.672343047826
 20
1709.301128705883
 30
0.0
 11
493.1723430478257
 21
1533.801128705883
 31
0.0
 70
    32
 71
     5
 42
351.0
  3
IGA
100
AcDbAlignedDimension
 13
691.1810407026596
 23
1358.301128705883
 33
0.0
 14
679.7209143521749
 24
1709.301128705883
 34
0.0
 50
270.0
100
AcDbRotatedDimension
1001
ACAD
1000
DSTYLE
1002
{
1070
    40
1040
15.0
1070
   143
1040
0.039
1070
   172
1070
     1
1070
   271
1070
     0
1070
   279
1070
     0
1070
   288
1070
     1
1002
}
  0
DIMENSION
  5
944D
330
19
100
AcDbEntity
  8
3
100
AcDbDimension
  2
*D33
 10
440.1915412840162
 20
1259.301128705883
 30
0.0
 11
402.691541284016
 21
1484.301128705883
 31
0.0
 70
    32
 71
     5
 42
450.0000000000002
  3
IGA
100
AcDbAlignedDimension
 13
679.7209143521749
 23
1709.301128705883
 33
0.0
 14
756.1810407026596
 24
1259.301128705883
 34
0.0
 50
270.0
100
AcDbRotatedDimension
1001
ACAD
1000
DSTYLE
1002
{
1070
    40
1040
15.0
1070
   143
1040
0.039
1070
   172
1070
     1
1070
   271
1070
     0
1070
   279
1070
     0
1070
   288
1070
     1
1002
}
  0
DIMENSION
  5
944E
330
19
100
AcDbEntity
  8
3
100
AcDbDimension
  2
*D34
 10
440.1915412840162
 20
1089.301128705883
 30
0.0
 11
402.691541284016
 21
977.8725572773117
 31
0.0
 70
    32
 71
     5
 42
75.0
  3
IGA
100
AcDbAlignedDimension
 13
756.1810407026614
 23
1164.301128705883
 33
0.0
 14
756.1810407026614
 24
1089.301128705883
 34
0.0
 50
270.0
100
AcDbRotatedDimension
1001
ACAD
1000
DSTYLE
1002
{
1070
    40
1040
15.0
1070
   143
1040
0.039
1070
   172
1070
     1
1070
   271
1070
     0
1070
   279
1070
     0
1070
   288
1070
     1
1070
   343
1005
83FD
1002
}
  0
LINE
  5
944F
330
19
100
AcDbEntity
  8
1
100
AcDbLine
 10
756.1810407026614
 20
1164.301128705883
 30
0.0
 11
756.1810407026614
 21
1089.301128705883
 31
0.0
  0
LINE
  5
9450
330
19
100
AcDbEntity
  8
1
100
AcDbLine
 10
716.1810407026578
 20
1361.871482054397
 30
0.0
 11
716.1810407026578
 21
1362.871482054397
 31
0.0
  0
LINE
  5
9451
330
19
100
AcDbEntity
  8
1
100
AcDbLine
 10
716.1810407026596
 20
1357.301128705883
 30
0.0
 11
716.1810407026596
 21
1358.301128705883
 31
0.0
  0
LINE
  5
9452
330
19
100
AcDbEntity
  8
1
100
AcDbLine
 10
698.1810407026596
 20
1355.301128705883
 30
0.0
 11
714.1810407026596
 21
1355.301128705883
 31
0.0
  0
LINE
  5
9453
330
19
100
AcDbEntity
  8
1
100
AcDbLine
 10
691.1810407026596
 20
1358.301128705883
 30
0.0
 11
691.1810407026596
 21
1333.301128705883
 31
0.0
  0
LINE
  5
9454
330
19
100
AcDbEntity
  8
1
100
AcDbLine
 10
694.1810407026596
 20
1335.301128705883
 30
0.0
 11
694.1810407026596
 21
1351.301128705883
 31
0.0
  0
ARC
  5
9455
330
19
100
AcDbEntity
  8
1
100
AcDbCircle
 10
698.1810407026596
 20
1351.301128705883
 30
0.0
 40
4.0
100
AcDbArc
 50
90.0
 51
180.0
  0
LINE
  5
9456
330
19
100
AcDbEntity
  8
1
100
AcDbLine
 10
691.1810407026596
 20
1358.301128705883
 30
0.0
 11
698.8113523769579
 21
1358.301128705883
 31
0.0
  0
LINE
  5
9457
330
19
100
AcDbEntity
  8
1
100
AcDbLine
 10
691.1810407026596
 20
1333.301128705883
 30
0.0
 11
692.1810407026596
 21
1333.301128705883
 31
0.0
  0
ARC
  5
9458
330
19
100
AcDbEntity
  8
1
100
AcDbCircle
 10
692.1810407026596
 20
1335.301128705883
 30
0.0
 40
2.0
100
AcDbArc
 50
270.0
 51
0.0
  0
LINE
  5
9459
330
19
100
AcDbEntity
  8
1
100
AcDbLine
 10
716.1810407026596
 20
1358.301128705883
 30
0.0
 11
691.1810407026596
 21
1358.301128705883
 31
0.0
  0
ARC
  5
945A
330
19
100
AcDbEntity
  8
1
100
AcDbCircle
 10
714.1810407026596
 20
1357.301128705883
 30
0.0
 40
2.0
100
AcDbArc
 50
270.0
 51
0.0
  0
LINE
  5
945B
330
19
100
AcDbEntity
  8
1
100
AcDbLine
 10
2038.529870910083
 20
1164.301128705883
 30
0.0
 11
2038.529870910083
 21
1089.301128705883
 31
0.0
  0
LINE
  5
945C
330
19
100
AcDbEntity
  8
1
100
AcDbLine
 10
691.1810407026596
 20
1683.301128705883
 30
0.0
 11
691.1810407026596
 21
1708.301128705883
 31
0.0
  0
ARC
  5
945D
330
19
100
AcDbEntity
  8
1
100
AcDbCircle
 10
698.1810407026596
 20
1690.301128705883
 30
0.0
 40
4.0
100
AcDbArc
 50
180.0
 51
270.0
  0
LINE
  5
945E
330
19
100
AcDbEntity
  8
1
100
AcDbLine
 10
716.1810407026596
 20
1684.301128705883
 30
0.0
 11
716.1810407026596
 21
1683.301128705883
 31
0.0
  0
LINE
  5
945F
330
19
100
AcDbEntity
  8
1
100
AcDbLine
 10
698.1810407026596
 20
1686.301128705883
 30
0.0
 11
714.1810407026596
 21
1686.301128705883
 31
0.0
  0
ARC
  5
9460
330
19
100
AcDbEntity
  8
1
100
AcDbCircle
 10
714.1810407026596
 20
1684.301128705883
 30
0.0
 40
2.0
100
AcDbArc
 50
0.0
 51
90.0
  0
LINE
  5
9461
330
19
100
AcDbEntity
  8
1
100
AcDbLine
 10
694.1810407026596
 20
1706.301128705883
 30
0.0
 11
694.1810407026596
 21
1690.301128705883
 31
0.0
  0
ARC
  5
9462
330
19
100
AcDbEntity
  8
1
100
AcDbCircle
 10
692.1810407026596
 20
1706.301128705883
 30
0.0
 40
2.0
100
AcDbArc
 50
0.0
 51
90.0
  0
LINE
  5
9463
330
19
100
AcDbEntity
  8
1
100
AcDbLine
 10
691.1810407026596
 20
1708.301128705883
 30
0.0
 11
692.1810407026596
 21
1708.301128705883
 31
0.0
  0
LINE
  5
9464
330
19
100
AcDbEntity
  8
1
100
AcDbLine
 10
836.1810407026595
 20
2407.231624695726
 30
0.0
 11
1566.181040702661
 21
2407.231624695726
 31
0.0
  0
LINE
  5
9465
330
19
100
AcDbEntity
  8
1
100
AcDbLine
 10
836.1810407026595
 20
2499.231624695725
 30
0.0
 11
1566.181040702661
 21
2499.231624695725
 31
0.0
  0
LINE
  5
9466
330
19
100
AcDbEntity
  8
2
100
AcDbLine
 10
1233.647421369343
 20
3095.231624695725
 30
0.0
 11
686.5819206764435
 21
3095.231624695725
 31
0.0
  0
LINE
  5
9467
330
19
100
AcDbEntity
  8
1
100
AcDbLine
 10
1076.181040702659
 20
3215.231624695725
 30
0.0
 11
796.1810407026596
 21
3215.231624695725
 31
0.0
  0
LINE
  5
9468
330
19
100
AcDbEntity
  8
1
100
AcDbLine
 10
1210.18104070266
 20
3213.231624695725
 30
0.0
 11
695.1810407026614
 21
3213.231624695725
 31
0.0
  0
LINE
  5
9469
330
19
100
AcDbEntity
  8
1
100
AcDbLine
 10
1210.18104070266
 20
2977.231624695725
 30
0.0
 11
695.1810407026614
 21
2977.231624695726
 31
0.0
  0
LINE
  5
946A
330
19
100
AcDbEntity
  8
1
100
AcDbLine
 10
1076.181040702658
 20
3255.231624695726
 30
0.0
 11
796.1810407026596
 21
3255.231624695726
 31
0.0
  0
LINE
  5
946B
330
19
100
AcDbEntity
  8
1
100
AcDbLine
 10
1116.181040702659
 20
2520.231624695725
 30
0.0
 11
1116.181040702659
 21
2977.231624695726
 31
0.0
  0
LINE
  5
946C
330
19
100
AcDbEntity
  8
2
100
AcDbLine
 10
936.1810407026606
 20
3247.413004704397
 30
0.0
 11
936.1810407026595
 21
2398.065321419819
 31
0.0
  0
LINE
  5
946D
330
19
100
AcDbEntity
  8
1
100
AcDbLine
 10
1086.18104070266
 20
2520.231624695725
 30
0.0
 11
1315.181040702661
 21
2520.231624695725
 31
0.0
  0
LINE
  5
946E
330
19
100
AcDbEntity
  8
1
100
AcDbLine
 10
1116.181040702659
 20
2860.231624695726
 30
0.0
 11
1556.181040702659
 21
2860.231624695726
 31
0.0
  0
LINE
  5
946F
330
19
100
AcDbEntity
  8
1
100
AcDbLine
 10
1116.181040702659
 20
2820.231624695725
 30
0.0
 11
1556.181040702659
 21
2820.231624695725
 31
0.0
  0
LINE
  5
9470
330
19
100
AcDbEntity
  8
2
100
AcDbLine
 10
1416.181040702661
 20
2768.168624695726
 30
0.0
 11
1416.181040702661
 21
2432.197024695727
 31
0.0
  0
LINE
  5
9471
330
19
100
AcDbEntity
  8
1
100
AcDbLine
 10
1556.181040702661
 20
2499.231624695725
 30
0.0
 11
1556.181040702661
 21
2520.231624695725
 31
0.0
  0
LINE
  5
9472
330
19
100
AcDbEntity
  8
1
100
AcDbLine
 10
1566.181040702661
 20
2407.231624695726
 30
0.0
 11
1566.181040702661
 21
2499.231624695725
 31
0.0
  0
LINE
  5
9473
330
19
100
AcDbEntity
  8
1
100
AcDbLine
 10
1517.181040702661
 20
2520.231624695725
 30
0.0
 11
1556.181040702659
 21
2520.231624695725
 31
0.0
  0
LINE
  5
9474
330
19
100
AcDbEntity
  8
1
100
AcDbLine
 10
1404.181040702661
 20
2437.231624695726
 30
0.0
 11
1428.181040702661
 21
2437.231624695726
 31
0.0
  0
LINE
  5
9475
330
19
100
AcDbEntity
  8
1
100
AcDbLine
 10
1556.181040702661
 20
2820.231624695725
 30
0.0
 11
1556.181040702661
 21
2860.231624695726
 31
0.0
  0
POINT
  5
9476
330
19
100
AcDbEntity
  8
1
100
AcDbPoint
 10
1556.181040702661
 20
2860.231624695726
 30
0.0
 50
180.0
  0
LINE
  5
9477
330
19
100
AcDbEntity
  8
1
100
AcDbLine
 10
918.6810407026596
 20
2977.231624695726
 30
0.0
 11
918.6810407026596
 21
2507.231624695725
 31
0.0
  0
LINE
  5
9478
330
19
100
AcDbEntity
  8
1
100
AcDbLine
 10
953.6810407026596
 20
2977.231624695726
 30
0.0
 11
953.6810407026605
 21
2507.231624695725
 31
0.0
  0
LINE
  5
9479
330
19
100
AcDbEntity
  8
1
100
AcDbLine
 10
1210.18104070266
 20
2977.231624695725
 30
0.0
 11
1210.18104070266
 21
3213.231624695725
 31
0.0
  0
LINE
  5
947A
330
19
100
AcDbEntity
  8
1
100
AcDbLine
 10
1116.181040702659
 20
3260.231624695725
 30
0.0
 11
1076.181040702658
 21
3260.231624695725
 31
0.0
  0
LINE
  5
947B
330
19
100
AcDbEntity
  8
1
100
AcDbLine
 10
1116.181040702659
 20
3213.231624695726
 30
0.0
 11
1116.181040702659
 21
3260.231624695725
 31
0.0
  0
POINT
  5
947C
330
19
100
AcDbEntity
  8
1
100
AcDbPoint
 10
1116.181040702659
 20
3260.231624695725
 30
0.0
 50
180.0
  0
LINE
  5
947D
330
19
100
AcDbEntity
  8
1
100
AcDbLine
 10
1076.181040702659
 20
3213.231624695726
 30
0.0
 11
1076.181040702658
 21
3260.231624695725
 31
0.0
  0
LINE
  5
947E
330
19
100
AcDbEntity
  8
1
100
AcDbLine
 10
756.1810407026614
 20
2977.231624695726
 30
0.0
 11
756.1810407026614
 21
2480.231624695726
 31
0.0
  0
LINE
  5
947F
330
19
100
AcDbEntity
  8
1
100
AcDbLine
 10
756.1810407026596
 20
2480.231624695726
 30
0.0
 11
836.1810407026595
 21
2480.231624695726
 31
0.0
  0
LINE
  5
9480
330
19
100
AcDbEntity
  8
1
100
AcDbLine
 10
836.1810407026595
 20
2407.231624695726
 30
0.0
 11
836.1810407026595
 21
2499.231624695725
 31
0.0
  0
POINT
  5
9481
330
19
100
AcDbEntity
  8
1
100
AcDbPoint
 10
756.1810407026614
 20
2480.231624695726
 30
0.0
 50
180.0
  0
LINE
  5
9482
330
19
100
AcDbEntity
  8
1
100
AcDbLine
 10
756.1810407026614
 20
2520.231624695725
 30
0.0
 11
786.1810407026605
 21
2520.231624695725
 31
0.0
  0
LINE
  5
9483
330
19
100
AcDbEntity
  8
1
100
AcDbLine
 10
695.1810407026614
 20
2950.231624695725
 30
0.0
 11
695.1810407026614
 21
3240.231624695726
 31
0.0
  0
LINE
  5
9484
330
19
100
AcDbEntity
  8
1
100
AcDbLine
 10
692.1810407026614
 20
2950.231624695725
 30
0.0
 11
692.1810407026614
 21
3240.231624695726
 31
0.0
  0
LINE
  5
9485
330
19
100
AcDbEntity
  8
1
100
AcDbLine
 10
695.1810407026614
 20
2950.231624695725
 30
0.0
 11
692.1810407026614
 21
2950.231624695725
 31
0.0
  0
LINE
  5
9486
330
19
100
AcDbEntity
  8
1
100
AcDbLine
 10
796.1810407026596
 20
3260.231624695725
 30
0.0
 11
756.1810407026596
 21
3260.231624695725
 31
0.0
  0
LINE
  5
9487
330
19
100
AcDbEntity
  8
1
100
AcDbLine
 10
796.1810407026596
 20
3260.231624695725
 30
0.0
 11
796.1810407026596
 21
3213.231624695726
 31
0.0
  0
LINE
  5
9488
330
19
100
AcDbEntity
  8
1
100
AcDbLine
 10
756.1810407026596
 20
3260.231624695725
 30
0.0
 11
756.1810407026596
 21
3213.231624695726
 31
0.0
  0
POINT
  5
9489
330
19
100
AcDbEntity
  8
1
100
AcDbPoint
 10
756.1810407026596
 20
3260.231624695725
 30
0.0
 50
180.0
  0
POINT
  5
948A
330
19
100
AcDbEntity
  8
1
100
AcDbPoint
 10
756.1810407026596
 20
3260.231624695725
 30
0.0
 50
180.0
  0
LINE
  5
948B
330
19
100
AcDbEntity
  8
1
100
AcDbLine
 10
695.1810407026614
 20
3240.231624695726
 30
0.0
 11
692.1810407026614
 21
3240.231624695726
 31
0.0
  0
LINE
  5
948C
330
19
100
AcDbEntity
  8
2
100
AcDbLine
 10
2653.529870910082
 20
2001.043979183507
 30
0.0
 11
2653.529870910082
 21
1054.17259509698
 31
0.0
  0
DIMENSION
  5
948D
330
19
100
AcDbEntity
  8
3
100
AcDbDimension
  2
*D35
 10
2818.529870910081
 20
975.208568167114
 30
0.0
 11
2736.029870910082
 21
1015.623766667171
 31
0.0
 70
   160
 71
     5
 42
164.9999999999982
  3
IGA
100
AcDbAlignedDimension
 13
2653.529870910082
 23
1054.17259509698
 33
0.0
 14
2818.529870910081
 24
1089.301128705884
 34
0.0
100
AcDbRotatedDimension
1001
ACAD
1000
DSTYLE
1002
{
1070
   288
1070
     1
1070
   172
1070
     1
1070
    40
1040
15.0
1070
   271
1070
     0
1070
   143
1040
0.039
1002
}
  0
LINE
  5
948E
330
19
100
AcDbEntity
  8
1
100
AcDbLine
 10
2818.529870910081
 20
1164.301128705883
 30
0.0
 11
2818.529870910081
 21
1089.301128705883
 31
0.0
  0
DIMENSION
  5
948F
330
19
100
AcDbEntity
  8
3
100
AcDbDimension
  2
*D36
 10
2774.529870910083
 20
2101.300863134594
 30
0.0
 11
2714.029870910083
 21
2145.734442194063
 31
0.0
 70
   160
 71
     5
 42
121.0
  3
IGA
100
AcDbAlignedDimension
 13
2653.529870910082
 23
2062.126816618645
 33
0.0
 14
2774.529870910083
 24
1892.80115547011
 34
0.0
100
AcDbRotatedDimension
1001
ACAD
1000
DSTYLE
1002
{
1070
   288
1070
     1
1070
   172
1070
     1
1070
    40
1040
15.0
1070
   271
1070
     0
1070
   143
1040
0.039
1002
}
  0
DIMENSION
  5
9490
330
19
100
AcDbEntity
  8
3
100
AcDbDimension
  2
*D37
 10
2771.529870910083
 20
1997.77639244935
 30
0.0
 11
2653.529870910082
 21
2035.27639244935
 31
0.0
 70
    32
 71
     5
 42
236.0
  3
IGA
100
AcDbAlignedDimension
 13
2535.529870910083
 23
1931.317131679185
 33
0.0
 14
2771.529870910083
 24
1932.085171230068
 34
0.0
100
AcDbRotatedDimension
1001
ACAD
1000
DSTYLE
1002
{
1070
    40
1040
15.0
1070
   143
1040
0.039
1070
   172
1070
     1
1070
   271
1070
     0
1070
   279
1070
     0
1070
   288
1070
     1
1002
}
  0
DIMENSION
  5
9491
330
19
100
AcDbEntity
  8
3
100
AcDbDimension
  2
*D38
 10
2926.70984245257
 20
1551.801128705883
 30
0.0
 11
2889.209842452569
 21
1709.301128705883
 31
0.0
 70
    32
 71
     5
 42
315.0
  3
IGA
100
AcDbAlignedDimension
 13
2799.529870910083
 23
1866.801128705883
 33
0.0
 14
2799.529870910083
 24
1551.801128705883
 34
0.0
 50
90.0
100
AcDbRotatedDimension
1001
ACAD
1000
DSTYLE
1002
{
1070
     3
1000
\U+03C6<>
1070
    40
1040
15.0
1070
   143
1040
0.039
1070
   172
1070
     1
1070
   271
1070
     0
1070
   279
1070
     0
1070
   288
1070
     1
1002
}
  0
DIMENSION
  5
9492
330
19
100
AcDbEntity
  8
3
100
AcDbDimension
  2
*D39
 10
1556.181040702659
 20
2151.208687956956
 30
0.0
 11
1088.171018595863
 21
2151.208687956956
 31
0.0
 70
   160
 71
     5
 42
865.0
  3
IGA
100
AcDbAlignedDimension
 13
691.1810407026596
 23
1711.689959030839
 33
0.0
 14
1556.181040702659
 24
1334.301128705883
 34
0.0
 50
180.0
100
AcDbRotatedDimension
1001
ACAD
1000
DSTYLE
1002
{
1070
    40
1040
15.0
1070
   143
1040
0.039
1070
   172
1070
     1
1070
   271
1070
     0
1070
   279
1070
     0
1070
   288
1070
     1
1002
}
  0
DIMENSION
  5
9493
330
19
100
AcDbEntity
  8
3
100
AcDbDimension
  2
*D40
 10
440.1915412840162
 20
1164.301128705883
 30
0.0
 11
378.304678431904
 21
1223.407003752503
 31
0.0
 70
   160
  1
(<>)
 71
     5
 42
95.0
  3
IGA
100
AcDbAlignedDimension
 13
756.1810407026596
 23
1259.301128705883
 33
0.0
 14
756.1810407026614
 24
1164.301128705883
 34
0.0
 50
90.0
100
AcDbRotatedDimension
1001
ACAD
1000
DSTYLE
1002
{
1070
    40
1040
15.0
1070
   143
1040
0.039
1070
   172
1070
     1
1070
   271
1070
     0
1070
   288
1070
     1
1070
   344
1005
8B3E
1002
}
  0
DIMENSION
  5
9496
330
19
100
AcDbEntity
  8
3
100
AcDbDimension
  2
*D41
 10
1739.075968025151
 20
2860.231624695726
 30
0.0
 11
1739.07596802515
 21
2670.231624695726
 31
0.0
 70
   160
 71
     5
 42
380.0000000000009
  3
IGA
100
AcDbAlignedDimension
 13
1556.181040702659
 23
2480.231624695724
 33
0.0
 14
1556.181040702661
 24
2860.231624695726
 34
0.0
 50
270.0
100
AcDbRotatedDimension
1001
ACAD
1000
DSTYLE
1002
{
1070
    40
1040
15.0
1070
   143
1040
0.039
1070
   172
1070
     1
1070
   271
1070
     0
1070
   279
1070
     0
1070
   288
1070
     1
1002
}
  0
DIMENSION
  5
9497
330
19
100
AcDbEntity
  8
3
100
AcDbDimension
  2
*D42
 10
1116.181040702659
 20
3371.449991697254
 30
0.0
 11
936.1810407026595
 21
3408.949991697254
 31
0.0
 70
    32
 71
     5
 42
360.0
  3
IGA
100
AcDbAlignedDimension
 13
756.1810407026596
 23
3260.231624695725
 33
0.0
 14
1116.181040702659
 24
3260.231624695725
 34
0.0
 50
180.0
100
AcDbRotatedDimension
1001
ACAD
1000
DSTYLE
1002
{
1070
    40
1040
15.0
1070
   143
1040
0.039
1070
   172
1070
     1
1070
   271
1070
     0
1070
   279
1070
     0
1070
   288
1070
     1
1002
}
  0
DIMENSION
  5
9498
330
19
100
AcDbEntity
  8
3
100
AcDbDimension
  2
*D43
 10
1556.181040702661
 20
3371.449991697254
 30
0.0
 11
1336.18104070266
 21
3408.949991697254
 31
0.0
 70
    32
 71
     5
 42
440.0000000000018
  3
IGA
100
AcDbAlignedDimension
 13
1116.181040702659
 23
3260.231624695725
 33
0.0
 14
1556.181040702661
 24
2860.231624695726
 34
0.0
 50
180.0
100
AcDbRotatedDimension
1001
ACAD
1000
DSTYLE
1002
{
1070
    40
1040
15.0
1070
   143
1040
0.039
1070
   172
1070
     1
1070
   271
1070
     0
1070
   279
1070
     0
1070
   288
1070
     1
1002
}
  0
DIMENSION
  5
94A9
330
19
100
AcDbEntity
  8
3
100
AcDbDimension
  2
*D44
 10
500.082697876549
 20
3260.231624695725
 30
0.0
 11
462.5826978765485
 21
2870.231624695725
 31
0.0
 70
    32
 71
     5
 42
780.0
  3
IGA
100
AcDbAlignedDimension
 13
756.1810407026596
 23
2480.231624695726
 33
0.0
 14
757.4398023110561
 24
3260.231624695725
 34
0.0
 50
90.0
100
AcDbRotatedDimension
1001
ACAD
1000
DSTYLE
1002
{
1070
    40
1040
15.0
1070
   143
1040
0.039
1070
   172
1070
     1
1070
   271
1070
     0
1070
   279
1070
     1
1070
   288
1070
     1
1002
}
  0
DIMENSION
  5
94AD
330
19
100
AcDbEntity
  8
3
100
AcDbDimension
  2
*D45
 10
756.1810407026614
 20
2302.599314106555
 30
0.0
 11
1156.181040702661
 21
2340.099314106555
 31
0.0
 70
    32
 71
     5
 42
800.0
  3
IGA
100
AcDbAlignedDimension
 13
1556.181040702661
 23
2499.231624695725
 33
0.0
 14
756.1810407026614
 24
2480.231624695726
 34
0.0
 50
180.0
100
AcDbRotatedDimension
1001
ACAD
1000
DSTYLE
1002
{
1070
    40
1040
15.0
1070
   143
1040
0.039
1070
   172
1070
     1
1070
   271
1070
     0
1070
   279
1070
     1
1070
   288
1070
     1
1002
}
  0
ARC
  5
94B6
330
19
100
AcDbEntity
  8
1
100
AcDbCircle
 10
1416.181040702661
 20
1474.301128705881
 30
0.0
 40
101.0
100
AcDbArc
 50
293.7728168000096
 51
246.2271831999903
  0
CIRCLE
  5
94B7
330
19
100
AcDbEntity
  8
1
100
AcDbCircle
 10
1416.181040702661
 20
1474.301128705881
 30
0.0
 40
90.0
  0
LINE
  5
94B8
330
19
100
AcDbEntity
  8
2
100
AcDbLine
 10
1416.181040702661
 20
1303.62698842872
 30
0.0
 11
1416.181040702661
 21
1643.792653197789
 31
0.0
  0
LINE
  5
94BA
330
19
100
AcDbEntity
  8
1
100
AcDbLine
 10
786.1810407026577
 20
1655.701128705883
 30
0.0
 11
786.1810407026614
 21
1334.301128705883
 31
0.0
  0
LINE
  5
94BB
330
19
100
AcDbEntity
  8
1
100
AcDbLine
 10
1086.181040702661
 20
1655.701128705883
 30
0.0
 11
1086.181040702661
 21
1334.301128705883
 31
0.0
  0
ARC
  5
94BC
330
19
100
AcDbEntity
  8
1
100
AcDbCircle
 10
960.1810407026578
 20
1685.301128705881
 30
0.0
 40
250.0
100
AcDbArc
 50
0.0
 51
95.5088786712818
  0
ARC
  5
94BE
330
19
100
AcDbEntity
  8
1
100
AcDbCircle
 10
912.1810407026577
 20
1685.301128705881
 30
0.0
 40
298.0
100
AcDbArc
 50
277.649478338515
 51
0.0
  0
LINE
  5
94BF
330
19
100
AcDbEntity
  8
1
100
AcDbLine
 10
1556.181040702661
 20
1334.301128705883
 30
0.0
 11
756.1810407026614
 21
1334.301128705883
 31
0.0
  0
LINE
  5
94C0
330
19
100
AcDbEntity
  8
1
100
AcDbLine
 10
1456.895267946865
 20
1381.870875542175
 30
0.0
 11
1375.466813458462
 21
1381.870875542175
 31
0.0
  0
LWPOLYLINE
  5
94C1
330
19
100
AcDbEntity
  8
1
100
AcDbPolyline
 90
        4
 70
     1
 43
0.0
 10
1551.181040702661
 20
1334.301128705883
 10
1281.181040702661
 20
1334.301128705883
 10
1291.181040702661
 20
1374.301128705883
 10
1541.181040702661
 20
1374.301128705883
  0
LINE
  5
94C2
330
19
100
AcDbEntity
  8
2
100
AcDbLine
 10
1581.455295748897
 20
1474.301128705881
 30
0.0
 11
1287.881040702662
 21
1474.301128705881
 31
0.0
  0
LINE
  5
94C3
330
19
100
AcDbEntity
  8
1
100
AcDbLine
 10
1556.181040702661
 20
1334.301128705883
 30
0.0
 11
1556.181040702661
 21
1259.301128705883
 31
0.0
  0
LINE
  5
94C4
330
19
100
AcDbEntity
  8
1
100
AcDbLine
 10
1516.181040702661
 20
1386.301128705883
 30
0.0
 11
1496.71554920451
 21
1413.348746140752
 31
0.0
  0
LINE
  5
94C5
330
19
100
AcDbEntity
  8
1
100
AcDbLine
 10
1516.181040702661
 20
1374.301128705883
 30
0.0
 11
1516.181040702661
 21
1386.301128705883
 31
0.0
  0
LINE
  5
94C6
330
19
100
AcDbEntity
  8
1
100
AcDbLine
 10
1516.181040702661
 20
1374.301128705883
 30
0.0
 11
1476.181040702661
 21
1374.301128705883
 31
0.0
  0
LINE
  5
94C7
330
19
100
AcDbEntity
  8
1
100
AcDbLine
 10
1316.181040702661
 20
1386.301128705883
 30
0.0
 11
1335.646532200816
 21
1413.348746140752
 31
0.0
  0
LINE
  5
94C8
330
19
100
AcDbEntity
  8
1
100
AcDbLine
 10
1316.181040702661
 20
1374.301128705883
 30
0.0
 11
1316.181040702661
 21
1386.301128705883
 31
0.0
  0
LINE
  5
94C9
330
19
100
AcDbEntity
  8
1
100
AcDbLine
 10
1316.181040702661
 20
1374.301128705883
 30
0.0
 11
1356.181040702661
 21
1374.301128705883
 31
0.0
  0
LINE
  5
94CA
330
19
100
AcDbEntity
  8
1
100
AcDbLine
 10
1328.181040702661
 20
1374.301128705883
 30
0.0
 11
1356.181040702661
 21
1374.301128705883
 31
0.0
  0
LINE
  5
94CB
330
19
100
AcDbEntity
  8
1
100
AcDbLine
 10
756.1810407026614
 20
1334.301128705883
 30
0.0
 11
756.1810407026614
 21
1259.301128705883
 31
0.0
  0
POINT
  5
94CC
330
19
100
AcDbEntity
  8
1
100
AcDbPoint
 10
756.1810407026614
 20
1259.301128705883
 30
0.0
 50
180.0
  0
POINT
  5
94CD
330
19
100
AcDbEntity
  8
1
100
AcDbPoint
 10
756.1810407026614
 20
1259.301128705883
 30
0.0
 50
180.0
  0
ARC
  5
94CE
330
19
100
AcDbEntity
  8
1
100
AcDbCircle
 10
917.6810407026577
 20
1727.801128705881
 30
0.0
 40
170.5
100
AcDbArc
 50
180.0
 51
195.1292328169069
  0
CIRCLE
  5
94CF
330
19
100
AcDbEntity
  8
1
100
AcDbCircle
 10
936.1810407026615
 20
1709.301128705883
 30
0.0
 40
51.0
  0
LINE
  5
94D0
330
19
100
AcDbEntity
  8
1
100
AcDbLine
 10
786.1810407026614
 20
1655.701128705883
 30
0.0
 11
1086.181040702661
 21
1655.701128705883
 31
0.0
  0
LINE
  5
94D1
330
19
100
AcDbEntity
  8
2
100
AcDbLine
 10
1291.375943841293
 20
1709.301128705883
 30
0.0
 11
682.0919454672376
 21
1709.301128705883
 31
0.0
  0
LINE
  5
94D3
330
19
100
AcDbEntity
  8
1
100
AcDbLine
 10
716.1810407026614
 20
1358.301128705883
 30
0.0
 11
951.8485105262634
 21
1389.953042817736
 31
0.0
  0
LINE
  5
94D4
330
19
100
AcDbEntity
  8
1
100
AcDbLine
 10
691.1810407026614
 20
1683.301128705883
 30
0.0
 11
753.0906400105132
 21
1683.301128705887
 31
0.0
  0
ARC
  5
94D5
330
19
100
AcDbEntity
  8
1
100
AcDbCircle
 10
954.6810407026578
 20
1727.801128705881
 30
0.0
 40
207.5
100
AcDbArc
 50
95.11509029948888
 51
180.0
  0
LINE
  5
94D6
330
19
100
AcDbEntity
  8
1
100
AcDbLine
 10
955.2040731481366
 20
1756.62051412643
 30
0.0
 11
1449.751097959383
 21
1557.805926506849
 31
0.0
  0
LINE
  5
94D7
330
19
100
AcDbEntity
  8
1
100
AcDbLine
 10
910.4728791543356
 20
1665.254671075267
 30
0.0
 11
1370.813696793853
 21
1396.57208582833
 31
0.0
  0
LINE
  5
94D8
330
19
100
AcDbEntity
  8
1
100
AcDbLine
 10
2818.529870910075
 20
1334.301128705883
 30
0.0
 11
2078.529870910083
 21
1334.301128705883
 31
0.0
  0
LINE
  5
94D9
330
19
100
AcDbEntity
  8
1
100
AcDbLine
 10
2508.529870910076
 20
1691.801128705883
 30
0.0
 11
2065.529870910075
 21
1691.801128705883
 31
0.0
  0
LINE
  5
94DA
330
19
100
AcDbEntity
  8
2
100
AcDbLine
 10
2813.320159309246
 20
1709.301128705883
 30
0.0
 11
1930.289072521496
 21
1709.301128705883
 31
0.0
  0
LINE
  5
94DB
330
19
100
AcDbEntity
  8
1
100
AcDbLine
 10
2535.529870910075
 20
1726.801128705883
 30
0.0
 11
2065.529870910075
 21
1726.801128705883
 31
0.0
  0
LINE
  5
94DC
330
19
100
AcDbEntity
  8
1
100
AcDbLine
 10
2535.529870910084
 20
1655.701128705883
 30
0.0
 11
2076.329870910075
 21
1655.70112870588
 31
0.0
  0
LINE
  5
94DD
330
19
100
AcDbEntity
  8
1
100
AcDbLine
 10
2076.329870910075
 20
1655.701128705882
 30
0.0
 11
2076.329870910075
 21
1513.340589421358
 31
0.0
  0
LINE
  5
94DE
330
19
100
AcDbEntity
  8
1
100
AcDbLine
 10
2035.529870910075
 20
1760.301128705882
 30
0.0
 11
2035.529870910075
 21
1384.301128705883
 31
0.0
  0
LINE
  5
94DF
330
19
100
AcDbEntity
  8
1
100
AcDbLine
 10
1985.529870910075
 20
1760.301128705883
 30
0.0
 11
1985.529870910075
 21
1384.301128705883
 31
0.0
  0
LINE
  5
94E0
330
19
100
AcDbEntity
  8
1
100
AcDbLine
 10
1945.529870910075
 20
1799.301128705883
 30
0.0
 11
1945.529870910075
 21
1334.301128705883
 31
0.0
  0
LINE
  5
94E1
330
19
100
AcDbEntity
  8
1
100
AcDbLine
 10
2038.529870910083
 20
1259.301128705883
 30
0.0
 11
2038.529870910083
 21
1334.301128705883
 31
0.0
  0
LINE
  5
94E2
330
19
100
AcDbEntity
  8
1
100
AcDbLine
 10
1945.529870910075
 20
1334.301128705883
 30
0.0
 11
2067.529870910076
 21
1334.301128705883
 31
0.0
  0
LINE
  5
94E3
330
19
100
AcDbEntity
  8
1
100
AcDbLine
 10
2067.529870910076
 20
1382.536689716573
 30
0.0
 11
2067.529870910076
 21
1334.301128705883
 31
0.0
  0
LINE
  5
94E4
330
19
100
AcDbEntity
  8
1
100
AcDbLine
 10
2038.529870910083
 20
1334.301128705883
 30
0.0
 11
2078.529870910083
 21
1334.301128705883
 31
0.0
  0
LINE
  5
94E5
330
19
100
AcDbEntity
  8
1
100
AcDbLine
 10
1985.529870910075
 20
1384.301128705883
 30
0.0
 11
2035.529870910075
 21
1384.301128705883
 31
0.0
  0
LINE
  5
94E6
330
19
100
AcDbEntity
  8
1
100
AcDbLine
 10
1945.529870910075
 20
1799.301128705883
 30
0.0
 11
2067.529870910076
 21
1799.301128705883
 31
0.0
  0
LINE
  5
94E7
330
19
100
AcDbEntity
  8
1
100
AcDbLine
 10
1985.529870910075
 20
1563.590262331134
 30
0.0
 11
2035.529870910075
 21
1563.590262331134
 31
0.0
  0
LINE
  5
94E8
330
19
100
AcDbEntity
  8
1
100
AcDbLine
 10
2065.529870910075
 20
1726.801128705883
 30
0.0
 11
2065.529870910075
 21
1691.801128705883
 31
0.0
  0
LINE
  5
94E9
330
19
100
AcDbEntity
  8
1
100
AcDbLine
 10
2065.529870910075
 20
1725.301128705883
 30
0.0
 11
2035.529870910075
 21
1725.301128705883
 31
0.0
  0
LINE
  5
94EA
330
19
100
AcDbEntity
  8
1
100
AcDbLine
 10
2065.529870910075
 20
1693.301128705883
 30
0.0
 11
2035.529870910075
 21
1693.301128705883
 31
0.0
  0
LINE
  5
94EB
330
19
100
AcDbEntity
  8
1
100
AcDbLine
 10
1985.529870910075
 20
1760.301128705882
 30
0.0
 11
2035.529870910075
 21
1760.301128705882
 31
0.0
  0
LINE
  5
94EC
330
19
100
AcDbEntity
  8
1
100
AcDbLine
 10
2067.529870910076
 20
1799.301128705883
 30
0.0
 11
2067.529870910076
 21
1754.467622325864
 31
0.0
  0
LINE
  5
94ED
330
19
100
AcDbEntity
  8
1
100
AcDbLine
 10
2774.529870910075
 20
1891.801128705883
 30
0.0
 11
2774.529870910075
 21
1526.801128705883
 31
0.0
  0
LINE
  5
94EE
330
19
100
AcDbEntity
  8
1
100
AcDbLine
 10
2777.529870910075
 20
1866.801128705883
 30
0.0
 11
2777.529870910075
 21
1544.801128705883
 31
0.0
  0
LINE
  5
94EF
330
19
100
AcDbEntity
  8
1
100
AcDbLine
 10
2799.529870910075
 20
1550.801128705883
 30
0.0
 11
2799.529870910075
 21
1866.801128705883
 31
0.0
  0
LINE
  5
94F0
330
19
100
AcDbEntity
  8
1
100
AcDbLine
 10
2771.529870910076
 20
1526.801128705883
 30
0.0
 11
2771.529870910076
 21
1685.801128705887
 31
0.0
  0
LINE
  5
94F1
330
19
100
AcDbEntity
  8
1
100
AcDbLine
 10
2535.529870910075
 20
1935.301128705881
 30
0.0
 11
2535.529870910075
 21
1710.801128705886
 31
0.0
  0
LINE
  5
94F2
330
19
100
AcDbEntity
  8
1
100
AcDbLine
 10
2818.529870910075
 20
1334.301128705883
 30
0.0
 11
2818.529870910075
 21
1259.301128705883
 31
0.0
  0
LINE
  5
94F3
330
19
100
AcDbEntity
  8
1
100
AcDbLine
 10
2774.529870910075
 20
1526.801128705883
 30
0.0
 11
2771.529870910076
 21
1526.801128705883
 31
0.0
  0
LINE
  5
94F4
330
19
100
AcDbEntity
  8
1
100
AcDbLine
 10
2799.529870910075
 20
1551.801128705883
 30
0.0
 11
2799.529870910075
 21
1550.801128705883
 31
0.0
  0
ARC
  5
94F5
330
19
100
AcDbEntity
  8
1
100
AcDbCircle
 10
2797.529870910075
 20
1550.801128705883
 30
0.0
 40
2.0
100
AcDbArc
 50
270.0
 51
0.0
  0
LINE
  5
94F6
330
19
100
AcDbEntity
  8
1
100
AcDbLine
 10
2777.529870910075
 20
1544.801128705883
 30
0.0
 11
2777.529870910075
 21
1528.801128705883
 31
0.0
  0
LINE
  5
94F7
330
19
100
AcDbEntity
  8
1
100
AcDbLine
 10
2775.529870910075
 20
1526.801128705883
 30
0.0
 11
2774.529870910075
 21
1526.801128705883
 31
0.0
  0
ARC
  5
94F8
330
19
100
AcDbEntity
  8
1
100
AcDbCircle
 10
2775.529870910075
 20
1528.801128705883
 30
0.0
 40
2.0
100
AcDbArc
 50
270.0
 51
0.0
  0
ARC
  5
94F9
330
19
100
AcDbEntity
  8
1
100
AcDbCircle
 10
2781.529870910083
 20
1544.801128705883
 30
0.0
 40
4.0
100
AcDbArc
 50
90.0
 51
180.0
  0
LINE
  5
94FA
330
19
100
AcDbEntity
  8
1
100
AcDbLine
 10
2774.529870910075
 20
1551.801128705883
 30
0.0
 11
2799.529870910075
 21
1551.801128705883
 31
0.0
  0
LINE
  5
94FB
330
19
100
AcDbEntity
  8
1
100
AcDbLine
 10
2797.529870910075
 20
1548.801128705883
 30
0.0
 11
2781.529870910083
 21
1548.801128705883
 31
0.0
  0
LINE
  5
94FC
330
19
100
AcDbEntity
  8
1
100
AcDbLine
 10
2799.529870910075
 20
1866.801128705883
 30
0.0
 11
2799.529870910075
 21
1867.801128705883
 31
0.0
  0
ARC
  5
94FD
330
19
100
AcDbEntity
  8
1
100
AcDbCircle
 10
2797.529870910075
 20
1867.801128705883
 30
0.0
 40
2.0
100
AcDbArc
 50
0.0
 51
90.0
  0
LINE
  5
94FE
330
19
100
AcDbEntity
  8
1
100
AcDbLine
 10
2777.529870910075
 20
1873.801128705883
 30
0.0
 11
2777.529870910075
 21
1889.801128705883
 31
0.0
  0
LINE
  5
94FF
330
19
100
AcDbEntity
  8
1
100
AcDbLine
 10
2775.529870910075
 20
1891.801128705883
 30
0.0
 11
2774.529870910075
 21
1891.801128705883
 31
0.0
  0
ARC
  5
9500
330
19
100
AcDbEntity
  8
1
100
AcDbCircle
 10
2775.529870910075
 20
1889.801128705883
 30
0.0
 40
2.0
100
AcDbArc
 50
0.0
 51
90.0
  0
ARC
  5
9501
330
19
100
AcDbEntity
  8
1
100
AcDbCircle
 10
2781.529870910083
 20
1873.801128705883
 30
0.0
 40
4.0
100
AcDbArc
 50
180.0
 51
270.0
  0
LINE
  5
9502
330
19
100
AcDbEntity
  8
1
100
AcDbLine
 10
2774.529870910075
 20
1866.801128705883
 30
0.0
 11
2799.529870910075
 21
1866.801128705883
 31
0.0
  0
LINE
  5
9503
330
19
100
AcDbEntity
  8
1
100
AcDbLine
 10
2797.529870910075
 20
1869.801128705883
 30
0.0
 11
2781.529870910083
 21
1869.801128705883
 31
0.0
  0
LINE
  5
9504
330
19
100
AcDbEntity
  8
1
100
AcDbLine
 10
2774.529870910075
 20
1891.801128705883
 30
0.0
 11
2771.529870910076
 21
1891.801128705883
 31
0.0
  0
LINE
  5
9505
330
19
100
AcDbEntity
  8
1
100
AcDbLine
 10
2535.529870910075
 20
1935.301128705881
 30
0.0
 11
2771.529870910076
 21
1935.301128705881
 31
0.0
  0
LINE
  5
9506
330
19
100
AcDbEntity
  8
1
100
AcDbLine
 10
1985.529870910075
 20
1658.301128705883
 30
0.0
 11
2035.529870910075
 21
1658.301128705883
 31
0.0
  0
LINE
  5
9508
330
19
100
AcDbEntity
  8
1
100
AcDbLine
 10
2508.529870910076
 20
1710.801128705886
 30
0.0
 11
2535.529870910084
 21
1710.801128705887
 31
0.0
  0
LINE
  5
950D
330
19
100
AcDbEntity
  8
1
100
AcDbLine
 10
2508.529870910076
 20
1710.801128705886
 30
0.0
 11
2508.529870910076
 21
1655.701128705883
 31
0.0
  0
LINE
  5
9510
330
19
100
AcDbEntity
  8
1
100
AcDbLine
 10
2771.529870910076
 20
1710.801128705886
 30
0.0
 11
2771.529870910076
 21
1935.301128705881
 31
0.0
  0
LINE
  5
9511
330
19
100
AcDbEntity
  8
1
100
AcDbLine
 10
2798.529870910082
 20
1334.301128705883
 30
0.0
 11
2798.529870910082
 21
1549.069077898318
 31
0.0
  0
LINE
  5
9512
330
19
100
AcDbEntity
  8
1
100
AcDbLine
 10
2075.529870910083
 20
1459.70112870588
 30
0.0
 11
2070.529870910083
 21
1459.70112870588
 31
0.0
  0
LINE
  5
9513
330
19
100
AcDbEntity
  8
1
100
AcDbLine
 10
2075.529870910083
 20
1488.901028705878
 30
0.0
 11
2070.529870910083
 21
1488.901028705878
 31
0.0
  0
LINE
  5
9514
330
19
100
AcDbEntity
  8
1
100
AcDbLine
 10
2070.529870910083
 20
1459.70112870588
 30
0.0
 11
2070.529870910083
 21
1488.901028705878
 31
0.0
  0
LINE
  5
9516
330
19
100
AcDbEntity
  8
1
100
AcDbLine
 10
2075.529870910083
 20
1511.30112870588
 30
0.0
 11
2075.529870910083
 21
1437.301128705881
 31
0.0
  0
LINE
  5
9518
330
19
100
AcDbEntity
  8
1
100
AcDbLine
 10
2070.529870910083
 20
1460.301128705881
 30
0.0
 11
2035.529870910075
 21
1460.301128705881
 31
0.0
  0
LINE
  5
9519
330
19
100
AcDbEntity
  8
1
100
AcDbLine
 10
2070.529870910083
 20
1488.301128705881
 30
0.0
 11
2035.529870910075
 21
1488.301128705881
 31
0.0
  0
LINE
  5
951A
330
19
100
AcDbEntity
  8
2
100
AcDbLine
 10
1930.503842208804
 20
1474.301128705881
 30
0.0
 11
2165.521574820439
 21
1474.301128705881
 31
0.0
  0
LINE
  5
951B
330
19
100
AcDbEntity
  8
1
100
AcDbLine
 10
2076.329870910075
 20
1435.261567990423
 30
0.0
 11
2076.329870910075
 21
1334.301128705883
 31
0.0
  0
LINE
  5
951C
330
19
100
AcDbEntity
  8
1
100
AcDbLine
 10
1086.18104070266
 20
2518.031624695725
 30
0.0
 11
1086.18104070266
 21
2977.231624695726
 31
0.0
  0
LINE
  5
951D
330
19
100
AcDbEntity
  8
1
100
AcDbLine
 10
786.1810407026605
 20
2518.031624695725
 30
0.0
 11
786.1810407026605
 21
2977.231624695726
 31
0.0
  0
LINE
  5
951E
330
19
100
AcDbEntity
  8
1
100
AcDbLine
 10
786.1810407026605
 20
2518.031624695725
 30
0.0
 11
918.6810407026605
 21
2518.031624695725
 31
0.0
  0
LINE
  5
951F
330
19
100
AcDbEntity
  8
1
100
AcDbLine
 10
953.6810407026605
 20
2518.031624695725
 30
0.0
 11
1086.18104070266
 21
2518.031624695725
 31
0.0
  0
LINE
  5
9520
330
19
100
AcDbEntity
  8
1
100
AcDbLine
 10
952.1810407026604
 20
2507.231624695725
 30
0.0
 11
953.6810407026605
 21
2507.231624695725
 31
0.0
  0
LINE
  5
9521
330
19
100
AcDbEntity
  8
1
100
AcDbLine
 10
952.1810407026604
 20
2507.231624695725
 30
0.0
 11
952.1810407026604
 21
2477.231624695725
 31
0.0
  0
LINE
  5
9522
330
19
100
AcDbEntity
  8
1
100
AcDbLine
 10
918.6810407026605
 20
2507.231624695725
 30
0.0
 11
920.1810407026606
 21
2507.231624695725
 31
0.0
  0
LINE
  5
9523
330
19
100
AcDbEntity
  8
1
100
AcDbLine
 10
920.1810407026606
 20
2507.231624695725
 30
0.0
 11
920.1810407026606
 21
2477.231624695725
 31
0.0
  0
LINE
  5
9524
330
19
100
AcDbEntity
  8
1
100
AcDbLine
 10
885.1810407026604
 20
2427.231624695725
 30
0.0
 11
885.1810407026604
 21
2477.231624695725
 31
0.0
  0
LINE
  5
9525
330
19
100
AcDbEntity
  8
1
100
AcDbLine
 10
987.1810407026606
 20
2477.231624695725
 30
0.0
 11
987.1810407026606
 21
2427.231624695727
 31
0.0
  0
LINE
  5
9526
330
19
100
AcDbEntity
  8
1
100
AcDbLine
 10
885.1810407026604
 20
2477.231624695725
 30
0.0
 11
987.1810407026606
 21
2477.231624695727
 31
0.0
  0
LINE
  5
9527
330
19
100
AcDbEntity
  8
1
100
AcDbLine
 10
885.1810407026604
 20
2427.231624695725
 30
0.0
 11
987.1810407026606
 21
2427.231624695727
 31
0.0
  0
LINE
  5
9528
330
19
100
AcDbEntity
  8
2
100
AcDbLine
 10
1416.498548064955
 20
2370.6704362333
 30
0.0
 11
1416.498548064955
 21
2858.022629476947
 31
0.0
  0
LINE
  5
9529
330
19
100
AcDbEntity
  8
1
100
AcDbLine
 10
1326.498548064944
 20
2427.231624695727
 30
0.0
 11
1506.498548064955
 21
2427.231624695727
 31
0.0
  0
LINE
  5
952A
330
19
100
AcDbEntity
  8
1
100
AcDbLine
 10
1326.498548064944
 20
2477.231624695725
 30
0.0
 11
1506.498548064955
 21
2477.231624695725
 31
0.0
  0
LINE
  5
952B
330
19
100
AcDbEntity
  8
1
100
AcDbLine
 10
1315.698548064945
 20
2523.231624695727
 30
0.0
 11
1516.498548064955
 21
2523.231624695725
 31
0.0
  0
ARC
  5
952C
330
19
100
AcDbEntity
  8
1
100
AcDbCircle
 10
1379.498448064954
 20
2520.231624695727
 30
0.0
 40
2.999899999999998
100
AcDbArc
 50
179.9987999999833
 51
270.0011999999124
  0
LINE
  5
952D
330
19
100
AcDbEntity
  8
1
100
AcDbLine
 10
1453.498548064955
 20
2517.231624695727
 30
0.0
 11
1379.498548064944
 21
2517.231624695727
 31
0.0
  0
ARC
  5
952E
330
19
100
AcDbEntity
  8
1
100
AcDbCircle
 10
1453.498548064955
 20
2520.231624695727
 30
0.0
 40
2.999899999999998
100
AcDbArc
 50
269.9988000000876
 51
0.0012000000166386
  0
LINE
  5
952F
330
19
100
AcDbEntity
  8
1
100
AcDbLine
 10
1456.498548064955
 20
2523.231624695727
 30
0.0
 11
1456.498548064955
 21
2520.231624695727
 31
0.0
  0
LINE
  5
9530
330
19
100
AcDbEntity
  8
1
100
AcDbLine
 10
1401.898548064945
 20
2512.231624695727
 30
0.0
 11
1431.098448064945
 21
2512.231624695727
 31
0.0
  0
LINE
  5
9531
330
19
100
AcDbEntity
  8
1
100
AcDbLine
 10
1431.098448064945
 20
2517.231624695727
 30
0.0
 11
1431.098448064945
 21
2512.231624695727
 31
0.0
  0
LINE
  5
9532
330
19
100
AcDbEntity
  8
1
100
AcDbLine
 10
1430.498548064955
 20
2512.231624695727
 30
0.0
 11
1430.498548064955
 21
2477.231624695727
 31
0.0
  0
LINE
  5
9533
330
19
100
AcDbEntity
  8
1
100
AcDbLine
 10
1401.898548064945
 20
2517.231624695727
 30
0.0
 11
1401.898548064945
 21
2512.231624695727
 31
0.0
  0
LINE
  5
9534
330
19
100
AcDbEntity
  8
1
100
AcDbLine
 10
1402.498548064944
 20
2512.231624695727
 30
0.0
 11
1402.498548064944
 21
2477.231624695727
 31
0.0
  0
LINE
  5
9535
330
19
100
AcDbEntity
  8
1
100
AcDbLine
 10
1376.498548064955
 20
2523.231624695727
 30
0.0
 11
1376.498548064955
 21
2520.231624695727
 31
0.0
  0
LINE
  5
9536
330
19
100
AcDbEntity
  8
1
100
AcDbLine
 10
1506.498548064955
 20
2427.231624695727
 30
0.0
 11
1506.498548064955
 21
2477.231624695725
 31
0.0
  0
LINE
  5
9537
330
19
100
AcDbEntity
  8
1
100
AcDbLine
 10
1326.498548064944
 20
2427.231624695727
 30
0.0
 11
1326.498548064944
 21
2477.231624695725
 31
0.0
  0
LINE
  5
9538
330
19
100
AcDbEntity
  8
1
100
AcDbLine
 10
1516.498548064955
 20
2818.231624695727
 30
0.0
 11
1315.698548064945
 21
2818.231624695727
 31
0.0
  0
LINE
  5
9539
330
19
100
AcDbEntity
  8
1
100
AcDbLine
 10
1516.498548064955
 20
2818.231624695727
 30
0.0
 11
1516.498548064955
 21
2523.231624695725
 31
0.0
  0
LINE
  5
953A
330
19
100
AcDbEntity
  8
1
100
AcDbLine
 10
1315.698548064945
 20
2818.231624695727
 30
0.0
 11
1315.698548064945
 21
2523.231624695727
 31
0.0
  0
LINE
  5
9A99
330
19
100
AcDbEntity
  8
1
100
AcDbLine
 10
2376.529870910097
 20
1574.301128705879
 30
0.0
 11
2376.529870910097
 21
1334.301128705885
 31
0.0
  0
LINE
  5
9A9A
330
19
100
AcDbEntity
  8
1
100
AcDbLine
 10
2376.529870910097
 20
1373.501128705882
 30
0.0
 11
2081.529870910097
 21
1373.501128705882
 31
0.0
  0
LINE
  5
9A9B
330
19
100
AcDbEntity
  8
1
100
AcDbLine
 10
2376.529870910097
 20
1574.301128705879
 30
0.0
 11
2081.529870910083
 21
1574.301128705879
 31
0.0
  0
ARC
  5
9A9E
330
19
100
AcDbEntity
  8
1
100
AcDbCircle
 10
2078.529870910097
 20
1437.301028705882
 30
0.0
 40
2.999899999999998
100
AcDbArc
 50
179.9988000000876
 51
270.0011999999124
  0
LINE
  5
9AA0
330
19
100
AcDbEntity
  8
1
100
AcDbLine
 10
2081.529870910097
 20
1434.301128705884
 30
0.0
 11
2078.529870910097
 21
1434.301128705884
 31
0.0
  0
ARC
  5
9AA1
330
19
100
AcDbEntity
  8
1
100
AcDbCircle
 10
2078.529870910097
 20
1511.301128705884
 30
0.0
 40
2.999899999999998
100
AcDbArc
 50
89.99879999987914
 51
180.0011999999124
  0
LINE
  5
9AA2
330
19
100
AcDbEntity
  8
1
100
AcDbLine
 10
2081.529870910097
 20
1514.301128705884
 30
0.0
 11
2078.529870910097
 21
1514.301128705884
 31
0.0
  0
LINE
  5
9AA6
330
19
100
AcDbEntity
  8
1
100
AcDbLine
 10
2081.529870910097
 20
1334.301128705885
 30
0.0
 11
2081.529870910083
 21
1574.301128705879
 31
0.0
  0
LINE
  5
9AA9
330
19
100
AcDbEntity
  8
1
100
AcDbLine
 10
2535.529870910084
 20
1714.731054803007
 30
0.0
 11
2535.529870910084
 21
1359.731054803008
 31
0.0
  0
LINE
  5
9AAA
330
19
100
AcDbEntity
  8
1
100
AcDbLine
 10
2771.529870910084
 20
1714.731054803007
 30
0.0
 11
2771.529870910083
 21
1359.731054803008
 31
0.0
  0
LINE
  5
9AAB
330
19
100
AcDbEntity
  8
1
100
AcDbLine
 10
2535.529870910084
 20
1359.731054803007
 30
0.0
 11
2771.529870910084
 21
1359.731054803007
 31
0.0
  0
LINE
  5
A898
330
19
100
AcDbEntity
  8
1
100
AcDbLine
 10
885.3866976663407
 20
1623.162085783939
 30
0.0
 11
1339.98952614818
 21
1355.092564322967
 31
0.0
  0
LINE
  5
A899
330
19
100
AcDbEntity
  8
1
100
AcDbLine
 10
969.8950528075704
 20
1803.446576751926
 30
0.0
 11
1466.752058860025
 21
1625.519300774947
 31
0.0
  0
ARC
  5
A89A
330
19
100
AcDbEntity
  8
1
100
AcDbCircle
 10
936.1810407026615
 20
1709.301128705883
 30
0.0
 40
100.0
100
AcDbArc
 50
70.29726973820179
 51
239.4730604895069
  0
ARC
  5
A89B
330
19
100
AcDbEntity
  8
1
100
AcDbCircle
 10
1416.181040702662
 20
1484.301128705884
 30
0.0
 40
150.0
100
AcDbArc
 50
239.4730604895069
 51
70.29726973820179
  0
ENDSEC
  0
SECTION
  2
OBJECTS
  0
DICTIONARY
  5
C
330
0
100
AcDbDictionary
281
     1
  3
ACAD_CIP_PREVIOUS_PRODUCT_INFO
350
874A
  3
ACAD_COLOR
350
872D
  3
ACAD_DETAILVIEWSTYLE
350
8746
  3
ACAD_GROUP
350
D
  3
ACAD_LAYOUT
350
86ED
  3
ACAD_MATERIAL
350
86FB
  3
ACAD_MLEADERSTYLE
350
8742
  3
ACAD_MLINESTYLE
350
E
  3
ACAD_PLOTSETTINGS
350
86EE
  3
ACAD_PLOTSTYLENAME
350
86EB
  3
ACAD_SCALELIST
350
8730
  3
ACAD_SECTIONVIEWSTYLE
350
8744
  3
ACAD_TABLESTYLE
350
872E
  3
ACAD_VISUALSTYLE
350
8714
  3
ACDB_RECOMPOSE_DATA
350
A8B4
  3
AcDbVariableDictionary
350
875B
  3
AcDsDecomposeData
350
A8BB
  3
DWGPROPS
350
A8B5
  0
DICTIONARY
  5
885D
330
2
100
AcDbDictionary
280
     1
281
     1
  3
ACAD_LAYERSTATES
360
885E
  0
DICTIONARY
  5
874B
330
F
100
AcDbDictionary
280
     1
281
     1
  3
ADSK_XREC_LAYER_RECONCILED
360
874C
  0
DICTIONARY
  5
874D
330
31
100
AcDbDictionary
280
     1
281
     1
  3
ADSK_XREC_LAYER_RECONCILED
360
874E
  0
DICTIONARY
  5
874F
330
76D0
100
AcDbDictionary
280
     1
281
     1
  3
ADSK_XREC_LAYER_RECONCILED
360
8750
  0
DICTIONARY
  5
8751
330
76D1
100
AcDbDictionary
280
     1
281
     1
  3
ADSK_XREC_LAYER_RECONCILED
360
8752
  0
DICTIONARY
  5
8753
330
76D2
100
AcDbDictionary
280
     1
281
     1
  3
ADSK_XREC_LAYER_RECONCILED
360
8754
  0
DICTIONARY
  5
8997
330
19
100
AcDbDictionary
280
     1
281
     1
  3
ACAD_SORTENTS
360
8998
  0
DICTIONARY
  5
A8FB
330
887F
100
AcDbDictionary
280
     1
281
     1
  3
ACAD_XREC_ROUNDTRIP
360
A8FC
  0
XRECORD
  5
874A
102
{ACAD_REACTORS
330
C
102
}
330
C
100
AcDbXrecord
280
     1
300
ACDLT
300
2015
300
INVLTS_F_S
  0
DICTIONARY
  5
872D
102
{ACAD_REACTORS
330
C
102
}
330
C
100
AcDbDictionary
281
     1
  0
DICTIONARY
  5
8746
102
{ACAD_REACTORS
330
C
102
}
330
C
100
AcDbDictionary
281
     1
  3
Imperial24
350
A88F
  3
Metric50
350
8747
  0
DICTIONARY
  5
D
102
{ACAD_REACTORS
330
C
102
}
330
C
100
AcDbDictionary
281
     1
  0
DICTIONARY
  5
86ED
102
{ACAD_REACTORS
330
C
102
}
330
C
100
AcDbDictionary
281
     1
  3
Model
350
86EF
  3
ﾚｲｱｳﾄ1
350
86F0
  0
DICTIONARY
  5
86FB
102
{ACAD_REACTORS
330
C
102
}
330
C
100
AcDbDictionary
281
     1
  3
ByBlock
350
8704
  3
ByLayer
350
86FC
  3
Global
350
870C
  0
DICTIONARY
  5
8742
102
{ACAD_REACTORS
330
C
102
}
330
C
100
AcDbDictionary
281
     1
  3
Standard
350
8743
  0
DICTIONARY
  5
E
102
{ACAD_REACTORS
330
C
102
}
330
C
100
AcDbDictionary
281
     1
  3
STANDARD
350
1C
  0
DICTIONARY
  5
86EE
102
{ACAD_REACTORS
330
C
102
}
330
C
100
AcDbDictionary
281
     1
  0
ACDBDICTIONARYWDFLT
  5
86EB
102
{ACAD_REACTORS
330
C
102
}
330
C
100
AcDbDictionary
281
     1
  3
Normal
350
86EC
100
AcDbDictionaryWithDefault
340
86EC
  0
DICTIONARY
  5
8730
102
{ACAD_REACTORS
330
C
102
}
330
C
100
AcDbDictionary
281
     1
  3
A0
350
8731
  3
A1
350
8732
  3
A2
350
8733
  3
A3
350
8734
  3
A4
350
8735
  3
A5
350
8736
  3
A6
350
8737
  3
A7
350
8738
  3
A8
350
8739
  3
A9
350
873A
  3
B0
350
873B
  3
B1
350
873C
  3
B2
350
873D
  3
B3
350
873E
  3
B4
350
873F
  3
B5
350
8740
  3
B6
350
8741
  0
DICTIONARY
  5
8744
102
{ACAD_REACTORS
330
C
102
}
330
C
100
AcDbDictionary
281
     1
  3
Imperial24
350
A88E
  3
Metric50
350
8745
  0
DICTIONARY
  5
872E
102
{ACAD_REACTORS
330
C
102
}
330
C
100
AcDbDictionary
281
     1
  3
Standard
350
872F
  0
DICTIONARY
  5
8714
102
{ACAD_REACTORS
330
C
102
}
330
C
100
AcDbDictionary
281
     1
  3
2dWireframe
350
871A
  3
Basic
350
8719
  3
Brighten
350
8720
  3
ColorChange
350
8724
  3
Conceptual
350
871D
  3
Dim
350
871F
  3
EdgeColorOff
350
872C
  3
Facepattern
350
8723
  3
Flat
350
8715
  3
FlatWithEdges
350
8716
  3
Gouraud
350
8717
  3
GouraudWithEdges
350
8718
  3
Hidden
350
871C
  3
JitterOff
350
872A
  3
Linepattern
350
8722
  3
OverhangOff
350
872B
  3
Realistic
350
871E
  3
Shaded
350
8729
  3
Shaded with edges
350
8728
  3
Shades of Gray
350
8725
  3
Sketchy
350
8726
  3
Thicken
350
8721
  3
Wireframe
350
871B
  3
X-Ray
350
8727
  0
XRECORD
  5
A8B4
102
{ACAD_REACTORS
330
C
102
}
330
C
100
AcDbXrecord
280
     1
 90
        1
330
872F
  0
DICTIONARY
  5
875B
102
{ACAD_REACTORS
330
C
102
}
330
C
100
AcDbDictionary
281
     1
  3
CANNOSCALE
350
8761
  3
CMLEADERSTYLE
350
875D
  3
CTABLESTYLE
350
875C
  3
CVIEWDETAILSTYLE
350
875E
  3
CVIEWSECTIONSTYLE
350
875F
  3
DIMASSOC
350
A8B0
  3
INDEXCTL
350
A8AF
  3
LAYEREVAL
350
8763
  3
LAYERNOTIFY
350
8764
  3
LIGHTINGUNITS
350
8762
  3
MSLTSCALE
350
8760
  3
SORTENTS
350
A8AE
  3
XCLIPFRAME
350
A8B1
  0
DICTIONARY
  5
A8BB
102
{ACAD_REACTORS
330
C
102
}
330
C
100
AcDbDictionary
281
     1
  3
AcDsRecords
350
A8BD
  3
AcDsSchemas
350
A8BC
1001
ACAD
1070
     2
  0
XRECORD
  5
A8B5
102
{ACAD_REACTORS
330
C
102
}
330
C
100
AcDbXrecord
280
     1
  1
DWGPROPS COOKIE
  2

  3

  4

  6

  7

  8
miho.otawara
  9

300
=
301
=
302
=
303
=
304
=
305
=
306
=
307
=
308
=
309
=
 40
0.1266153703703704
 41
2451019.548540972
 42
2459605.795656875
  1

 90
        0
  0
DICTIONARY
  5
885E
102
{ACAD_REACTORS
330
885D
102
}
330
885D
100
AcDbDictionary
281
     1
  0
XRECORD
  5
874C
102
{ACAD_REACTORS
330
874B
102
}
330
874B
100
AcDbXrecord
280
     1
290
     1
  0
XRECORD
  5
874E
102
{ACAD_REACTORS
330
874D
102
}
330
874D
100
AcDbXrecord
280
     1
290
     1
  0
XRECORD
  5
8750
102
{ACAD_REACTORS
330
874F
102
}
330
874F
100
AcDbXrecord
280
     1
290
     1
  0
XRECORD
  5
8752
102
{ACAD_REACTORS
330
8751
102
}
330
8751
100
AcDbXrecord
280
     1
290
     1
  0
XRECORD
  5
8754
102
{ACAD_REACTORS
330
8753
102
}
330
8753
100
AcDbXrecord
280
     1
290
     1
  0
SORTENTSTABLE
  5
8998
102
{ACAD_REACTORS
330
8997
102
}
330
8997
100
AcDbSortentsTable
330
19
331
80D8
  5
83A5
331
80C7
  5
80C8
331
80C9
  5
80CA
331
80BA
  5
80BB
331
80CB
  5
80CC
331
80CD
  5
80CE
331
80BC
  5
80BF
331
80CF
  5
80D0
331
80C0
  5
80C1
331
80D1
  5
80D2
331
80C2
  5
80C3
331
80D3
  5
80D4
331
80C4
  5
80C6
331
80D5
  5
80D6
331
80C6
  5
80C7
331
80D7
  5
80D8
331
80C8
  5
80C9
331
80CA
  5
80CB
331
80CC
  5
80CD
331
80BB
  5
80BC
331
80CE
  5
80CF
331
80D0
  5
80D1
331
80BF
  5
80C0
331
80C1
  5
80C2
331
80D2
  5
80D3
331
80D4
  5
80D5
331
80C3
  5
80C4
331
80D6
  5
80D7
  0
XRECORD
  5
A8FC
102
{ACAD_REACTORS
330
A8FB
102
}
330
A8FB
100
AcDbXrecord
280
     1
102
ACAD_ROUNDTRIP_2012_MLEADER
295
     1
  0
ACDBDETAILVIEWSTYLE
  5
A88F
102
{ACAD_XDICTIONARY
360
A8A7
102
}
102
{ACAD_REACTORS
330
8746
102
}
330
8746
100
AcDbModelDocViewStyle
 70
     0
  3
Imperial24
290
     0
100
AcDbDetailViewStyle
 70
     0
 71
     0
 90
        3
 71
     1
340
10
 40
0.24
340
0
 40
0.24
300

 40
0.36
280
     3
 71
     2
340
15
 90
       25
 71
     3
340
10
 40
0.24
 90
        1
 40
0.75
 90
        1
300
%<\AcVar ViewType \f "%tc1">% %<\AcVar ViewDetailId>%\PSCALE %<\AcVar ViewScale \f "%sn">%
 71
     4
340
15
 90
       25
340
15
 90
       25
280
     0
  0
ACDBDETAILVIEWSTYLE
  5
8747
102
{ACAD_XDICTIONARY
360
8758
102
}
102
{ACAD_REACTORS
330
8746
102
}
330
8746
100
AcDbModelDocViewStyle
 70
     0
  3
Metric50
290
     0
100
AcDbDetailViewStyle
 70
     0
 71
     0
 90
        3
 71
     1
340
10
 40
5.0
340
0
 40
5.0
300

 40
0.0
280
     1
 71
     2
340
15
 90
       25
 71
     3
340
10
 40
5.0
 90
        0
 40
15.0
 90
        1
300
%<\AcVar ViewDetailId>% (%<\AcVar ViewScale \f "%sn">%)
 71
     4
340
15
 90
       25
340
15
 90
       25
280
     0
  0
LAYOUT
  5
86EF
102
{ACAD_XDICTIONARY
360
A8BE
102
}
102
{ACAD_REACTORS
330
86ED
102
}
330
86ED
100
AcDbPlotSettings
  1

  2
RICOH MP 7503 JPN RPCS
  4
A4
  6

 40
5.873749732971191
 41
5.873748779296875
 42
5.873733520507812
 43
5.873748779296875
 44
209.9733276367187
 45
296.9259948730469
 46
-5.899895582363058
 47
-4.928757263368424
 48
0.0
 49
0.0
140
0.0
141
0.0
142
1.0
143
15.0
 70
 11940
 72
     1
 73
     0
 74
     1
  7
monochrome.ctb
 75
     0
147
0.0264374506397495
148
0.1922519409645247
149
0.2700682027843868
100
AcDbLayout
  1
Model
 70
     1
 71
     0
 10
0.0
 20
0.0
 11
12.0
 21
9.0
 12
0.0
 22
0.0
 32
0.0
 14
0.0
 24
0.0
 34
0.0
 15
0.0
 25
0.0
 35
0.0
146
0.0
 13
0.0
 23
0.0
 33
0.0
 16
1.0
 26
0.0
 36
0.0
 17
0.0
 27
1.0
 37
0.0
 76
     0
330
19
331
86F9
1001
ACAD_PSEXT
1000
RICOH MP 7503 JPN RPCS
1000
RICOH MP 7503 JPN RPCS
1000
IP_192.168.7.16
1000
RPCS Driver (For Windows)
1070
     0
  0
LAYOUT
  5
86F0
102
{ACAD_XDICTIONARY
360
A8C0
102
}
102
{ACAD_REACTORS
330
86ED
102
}
330
86ED
100
AcDbPlotSettings
  1

  2
EPSON LP-9300
  4

  6

 40
0.0
 41
0.0
 42
0.0
 43
0.0
 44
0.0
 45
0.0
 46
0.0
 47
0.0
 48
0.0
 49
0.0
140
0.0
141
0.0
142
1.0
143
1.0
 70
   688
 72
     0
 73
     0
 74
     5
  7
monochrome.ctb
 75
    16
147
1.0
148
0.0
149
0.0
100
AcDbLayout
  1
ﾚｲｱｳﾄ1
 70
     1
 71
     1
 10
0.0
 20
0.0
 11
12.0
 21
9.0
 12
0.0
 22
0.0
 32
0.0
 14
1.000000000000000E+20
 24
1.000000000000000E+20
 34
1.000000000000000E+20
 15
-1.000000000000000E+20
 25
-1.000000000000000E+20
 35
-1.000000000000000E+20
146
0.0
 13
0.0
 23
0.0
 33
0.0
 16
1.0
 26
0.0
 36
0.0
 17
0.0
 27
1.0
 37
0.0
 76
     0
330
16
  0
MATERIAL
  5
8704
102
{ACAD_XDICTIONARY
360
8705
102
}
102
{ACAD_REACTORS
330
86FB
102
}
330
86FB
100
AcDbMaterial
  1
ByBlock
 72
     0
 43
0.0208333333333333
 43
0.0
 43
0.0
 43
0.0
 43
0.0
 43
0.0208333333333333
 43
0.0
 43
0.0
 43
0.0
 43
0.0
 43
1.0
 43
0.0
 43
0.0
 43
0.0
 43
0.0
 43
1.0
 77
     0
 47
0.0208333333333333
 47
0.0
 47
0.0
 47
0.0
 47
0.0
 47
0.0208333333333333
 47
0.0
 47
0.0
 47
0.0
 47
0.0
 47
1.0
 47
0.0
 47
0.0
 47
0.0
 47
0.0
 47
1.0
171
     0
 49
0.0208333333333333
 49
0.0
 49
0.0
 49
0.0
 49
0.0
 49
0.0208333333333333
 49
0.0
 49
0.0
 49
0.0
 49
0.0
 49
1.0
 49
0.0
 49
0.0
 49
0.0
 49
0.0
 49
1.0
175
     0
142
0.0208333333333333
142
0.0
142
0.0
142
0.0
142
0.0
142
0.0208333333333333
142
0.0
142
0.0
142
0.0
142
0.0
142
1.0
142
0.0
142
0.0
142
0.0
142
0.0
142
1.0
179
     0
144
0.0208333333333333
144
0.0
144
0.0
144
0.0
144
0.0
144
0.0208333333333333
144
0.0
144
0.0
144
0.0
144
0.0
144
1.0
144
0.0
144
0.0
144
0.0
144
0.0
144
1.0
147
0.0208333333333333
147
0.0
147
0.0
147
0.0
147
0.0
147
0.0208333333333333
147
0.0
147
0.0
147
0.0
147
0.0
147
1.0
147
0.0
147
0.0
147
0.0
147
0.0
147
1.0
  0
MATERIAL
  5
86FC
102
{ACAD_XDICTIONARY
360
86FD
102
}
102
{ACAD_REACTORS
330
86FB
102
}
330
86FB
100
AcDbMaterial
  1
ByLayer
 72
     0
 43
0.0208333333333333
 43
0.0
 43
0.0
 43
0.0
 43
0.0
 43
0.0208333333333333
 43
0.0
 43
0.0
 43
0.0
 43
0.0
 43
1.0
 43
0.0
 43
0.0
 43
0.0
 43
0.0
 43
1.0
 77
     0
 47
0.0208333333333333
 47
0.0
 47
0.0
 47
0.0
 47
0.0
 47
0.0208333333333333
 47
0.0
 47
0.0
 47
0.0
 47
0.0
 47
1.0
 47
0.0
 47
0.0
 47
0.0
 47
0.0
 47
1.0
171
     0
 49
0.0208333333333333
 49
0.0
 49
0.0
 49
0.0
 49
0.0
 49
0.0208333333333333
 49
0.0
 49
0.0
 49
0.0
 49
0.0
 49
1.0
 49
0.0
 49
0.0
 49
0.0
 49
0.0
 49
1.0
175
     0
142
0.0208333333333333
142
0.0
142
0.0
142
0.0
142
0.0
142
0.0208333333333333
142
0.0
142
0.0
142
0.0
142
0.0
142
1.0
142
0.0
142
0.0
142
0.0
142
0.0
142
1.0
179
     0
144
0.0208333333333333
144
0.0
144
0.0
144
0.0
144
0.0
144
0.0208333333333333
144
0.0
144
0.0
144
0.0
144
0.0
144
1.0
144
0.0
144
0.0
144
0.0
144
0.0
144
1.0
147
0.0208333333333333
147
0.0
147
0.0
147
0.0
147
0.0
147
0.0208333333333333
147
0.0
147
0.0
147
0.0
147
0.0
147
1.0
147
0.0
147
0.0
147
0.0
147
0.0
147
1.0
  0
MATERIAL
  5
870C
102
{ACAD_XDICTIONARY
360
870D
102
}
102
{ACAD_REACTORS
330
86FB
102
}
330
86FB
100
AcDbMaterial
  1
Global
 72
     0
 43
0.0208333333333333
 43
0.0
 43
0.0
 43
0.0
 43
0.0
 43
0.0208333333333333
 43
0.0
 43
0.0
 43
0.0
 43
0.0
 43
1.0
 43
0.0
 43
0.0
 43
0.0
 43
0.0
 43
1.0
 77
     0
 47
0.0208333333333333
 47
0.0
 47
0.0
 47
0.0
 47
0.0
 47
0.0208333333333333
 47
0.0
 47
0.0
 47
0.0
 47
0.0
 47
1.0
 47
0.0
 47
0.0
 47
0.0
 47
0.0
 47
1.0
171
     0
 49
0.0208333333333333
 49
0.0
 49
0.0
 49
0.0
 49
0.0
 49
0.0208333333333333
 49
0.0
 49
0.0
 49
0.0
 49
0.0
 49
1.0
 49
0.0
 49
0.0
 49
0.0
 49
0.0
 49
1.0
175
     0
142
0.0208333333333333
142
0.0
142
0.0
142
0.0
142
0.0
142
0.0208333333333333
142
0.0
142
0.0
142
0.0
142
0.0
142
1.0
142
0.0
142
0.0
142
0.0
142
0.0
142
1.0
179
     0
144
0.0208333333333333
144
0.0
144
0.0
144
0.0
144
0.0
144
0.0208333333333333
144
0.0
144
0.0
144
0.0
144
0.0
144
1.0
144
0.0
144
0.0
144
0.0
144
0.0
144
1.0
147
0.0208333333333333
147
0.0
147
0.0
147
0.0
147
0.0
147
0.0208333333333333
147
0.0
147
0.0
147
0.0
147
0.0
147
1.0
147
0.0
147
0.0
147
0.0
147
0.0
147
1.0
  0
MLEADERSTYLE
  5
8743
102
{ACAD_XDICTIONARY
360
A8F7
102
}
102
{ACAD_REACTORS
330
8742
330
887F
102
}
330
8742
100
AcDbMLeaderStyle
170
     2
171
     1
172
     0
 90
        2
 40
0.0
 41
0.0
173
     1
 91
-1056964608
340
13
 92
       -2
290
     1
 42
2.0
291
     1
 43
0.36
  3
Standard
 44
4.0
300

342
10
174
     1
178
     6
175
     1
176
     0
 93
-1056964608
 45
4.0
292
     0
297
     0
 46
4.0
 94
-1056964608
 47
1.0
 49
1.0
140
1.0
293
     1
141
0.0
294
     1
177
     0
142
1.0
295
     0
296
     0
143
0.125
1001
ACAD_MLEADERVER
1070
     2
  0
MLINESTYLE
  5
1C
102
{ACAD_REACTORS
330
E
102
}
330
E
100
AcDbMlineStyle
  2
STANDARD
 70
     0
  3

 62
     0
 51
90.0
 52
90.0
 71
     2
 49
0.5
 62
   256
  6
BYLAYER
 49
-0.5
 62
   256
  6
BYLAYER
  0
ACDBPLACEHOLDER
  5
86EC
102
{ACAD_REACTORS
330
86EB
102
}
330
86EB
  0
SCALE
  5
8731
102
{ACAD_REACTORS
330
8730
102
}
330
8730
100
AcDbScale
 70
     0
300
1:1
140
1.0
141
1.0
290
     1
  0
SCALE
  5
8732
102
{ACAD_REACTORS
330
8730
102
}
330
8730
100
AcDbScale
 70
     0
300
1:2
140
1.0
141
2.0
290
     0
  0
SCALE
  5
8733
102
{ACAD_REACTORS
330
8730
102
}
330
8730
100
AcDbScale
 70
     0
300
1:4
140
1.0
141
4.0
290
     0
  0
SCALE
  5
8734
102
{ACAD_REACTORS
330
8730
102
}
330
8730
100
AcDbScale
 70
     0
300
1:5
140
1.0
141
5.0
290
     0
  0
SCALE
  5
8735
102
{ACAD_REACTORS
330
8730
102
}
330
8730
100
AcDbScale
 70
     0
300
1:8
140
1.0
141
8.0
290
     0
  0
SCALE
  5
8736
102
{ACAD_REACTORS
330
8730
102
}
330
8730
100
AcDbScale
 70
     0
300
1:10
140
1.0
141
10.0
290
     0
  0
SCALE
  5
8737
102
{ACAD_REACTORS
330
8730
102
}
330
8730
100
AcDbScale
 70
     0
300
1:16
140
1.0
141
16.0
290
     0
  0
SCALE
  5
8738
102
{ACAD_REACTORS
330
8730
102
}
330
8730
100
AcDbScale
 70
     0
300
1:20
140
1.0
141
20.0
290
     0
  0
SCALE
  5
8739
102
{ACAD_REACTORS
330
8730
102
}
330
8730
100
AcDbScale
 70
     0
300
1:30
140
1.0
141
30.0
290
     0
  0
SCALE
  5
873A
102
{ACAD_REACTORS
330
8730
102
}
330
8730
100
AcDbScale
 70
     0
300
1:40
140
1.0
141
40.0
290
     0
  0
SCALE
  5
873B
102
{ACAD_REACTORS
330
8730
102
}
330
8730
100
AcDbScale
 70
     0
300
1:50
140
1.0
141
50.0
290
     0
  0
SCALE
  5
873C
102
{ACAD_REACTORS
330
8730
102
}
330
8730
100
AcDbScale
 70
     0
300
1:100
140
1.0
141
100.0
290
     0
  0
SCALE
  5
873D
102
{ACAD_REACTORS
330
8730
102
}
330
8730
100
AcDbScale
 70
     0
300
2:1
140
2.0
141
1.0
290
     0
  0
SCALE
  5
873E
102
{ACAD_REACTORS
330
8730
102
}
330
8730
100
AcDbScale
 70
     0
300
4:1
140
4.0
141
1.0
290
     0
  0
SCALE
  5
873F
102
{ACAD_REACTORS
330
8730
102
}
330
8730
100
AcDbScale
 70
     0
300
8:1
140
8.0
141
1.0
290
     0
  0
SCALE
  5
8740
102
{ACAD_REACTORS
330
8730
102
}
330
8730
100
AcDbScale
 70
     0
300
10:1
140
10.0
141
1.0
290
     0
  0
SCALE
  5
8741
102
{ACAD_REACTORS
330
8730
102
}
330
8730
100
AcDbScale
 70
     0
300
100:1
140
100.0
141
1.0
290
     0
  0
ACDBSECTIONVIEWSTYLE
  5
A88E
102
{ACAD_XDICTIONARY
360
A8A5
102
}
102
{ACAD_REACTORS
330
8744
102
}
330
8744
100
AcDbModelDocViewStyle
 70
     0
  3
Imperial24
290
     0
100
AcDbSectionViewStyle
 70
     0
 71
     0
 90
       78
 71
     1
340
10
 40
0.24
340
0
340
0
 40
0.24
300
I, O, Q, S, X, Z
 40
0.48
 90
        3
 40
0.18
 90
        1
 71
     2
340
15
 90
       25
340
15
 90
       50
 40
0.24
 40
0.0
 40
0.24
 71
     3
340
10
 40
0.24
 90
        1
 40
0.75
 90
        1
300
%<\AcVar ViewType \f "%tc1">% %<\AcVar ViewSectionStartId>%-%<\AcVar ViewSectionEndId>%\PSCALE %<\AcVar ViewScale \f "%sn">%
 71
     4
300
ANSI31
 40
1.0
 90
        0
290
     0
290
     0
 90
        6
 40
0.0
 40
1.570796326794896
 40
0.2617993877991494
 40
1.308996938995747
 40
-0.2617993877991494
 40
1.832595714594046
  0
ACDBSECTIONVIEWSTYLE
  5
8745
102
{ACAD_XDICTIONARY
360
8756
102
}
102
{ACAD_REACTORS
330
8744
102
}
330
8744
100
AcDbModelDocViewStyle
 70
     0
  3
Metric50
290
     0
100
AcDbSectionViewStyle
 70
     0
 71
     0
 90
      102
 71
     1
340
10
 40
5.0
340
0
340
0
 40
5.0
300
I, O, Q, S, X, Z
 40
10.0
 90
        0
 40
2.5
 90
        0
 71
     2
340
15
 90
       25
340
15
 90
       50
 40
5.0
 40
2.5
 40
5.0
 71
     3
340
10
 40
5.0
 90
        0
 40
15.0
 90
        1
300
%<\AcVar ViewSectionStartId>%-%<\AcVar ViewSectionEndId>% (%<\AcVar ViewScale \f "%sn">%)
 71
     4
300
ANSI31
 40
1.0
 90
        0
290
     0
290
     0
 90
        6
 40
0.0
 40
1.570796326794896
 40
0.2617993877991494
 40
1.308996938995747
 40
-0.2617993877991494
 40
1.832595714594046
  0
TABLESTYLE
  5
872F
102
{ACAD_XDICTIONARY
360
A8B2
102
}
102
{ACAD_REACTORS
330
872E
102
}
330
872E
100
AcDbTableStyle
  3
Standard
 70
     0
 71
     0
 40
1.5
 41
1.5
280
     0
281
     0
  7
STANDARD
140
4.5
170
     2
 62
     0
 63
     7
283
     0
274
    -2
284
     1
 64
     0
275
    -2
285
     1
 65
     0
276
    -2
286
     1
 66
     0
277
    -2
287
     1
 67
     0
278
    -2
288
     1
 68
     0
279
    -2
289
     1
 69
     0
  7
STANDARD
140
6.0
170
     5
 62
     0
 63
     7
283
     0
274
    -2
284
     1
 64
     0
275
    -2
285
     1
 65
     0
276
    -2
286
     1
 66
     0
277
    -2
287
     1
 67
     0
278
    -2
288
     1
 68
     0
279
    -2
289
     1
 69
     0
  7
STANDARD
140
4.5
170
     5
 62
     0
 63
     7
283
     0
274
    -2
284
     1
 64
     0
275
    -2
285
     1
 65
     0
276
    -2
286
     1
 66
     0
277
    -2
287
     1
 67
     0
278
    -2
288
     1
 68
     0
279
    -2
289
     1
 69
     0
  0
VISUALSTYLE
  5
871A
102
{ACAD_XDICTIONARY
360
A8CF
102
}
102
{ACAD_REACTORS
330
8714
102
}
330
8714
100
AcDbVisualStyle
  2
2dWireframe
 70
     4
 71
     0
 72
     2
 73
     0
 90
        0
 40
-0.6
 41
-30.0
 62
     5
 63
     7
 74
     1
 91
        4
 64
     7
 65
   257
 75
     1
175
     1
 42
1.0
 92
        0
 66
   257
 43
1.0
 76
     1
 77
     6
 78
     2
 67
     7
 79
     5
170
     0
171
     0
290
     0
174
     0
 93
        1
 44
0.0
173
     0
291
     0
 45
0.0
1001
ACAD
1000
AcDbSavedByObjectVersion
1070
     0
  0
VISUALSTYLE
  5
8719
102
{ACAD_XDICTIONARY
360
A8CD
102
}
102
{ACAD_REACTORS
330
8714
102
}
330
8714
100
AcDbVisualStyle
  2
Basic
 70
     7
 71
     1
 72
     0
 73
     1
 90
        0
 40
-0.6
 41
-30.0
 62
     5
 63
     7
 74
     0
 91
        4
 64
     7
 65
   257
 75
     1
175
     1
 42
1.0
 92
        8
 66
     7
 43
1.0
 76
     1
 77
     6
 78
     2
 67
     7
 79
     5
170
     0
171
     0
290
     0
174
     0
 93
        1
 44
0.0
173
     0
291
     1
 45
0.0
1001
ACAD
1000
AcDbSavedByObjectVersion
1070
     0
  0
VISUALSTYLE
  5
8720
102
{ACAD_XDICTIONARY
360
A8DB
102
}
102
{ACAD_REACTORS
330
8714
102
}
330
8714
100
AcDbVisualStyle
  2
Brighten
 70
    12
 71
     2
 72
     2
 73
     0
 90
        0
 40
-0.6
 41
-30.0
 62
     5
 63
     7
 74
     1
 91
        4
 64
     7
 65
   257
 75
     1
175
     1
 42
1.0
 92
        8
 66
     7
 43
1.0
 76
     1
 77
     6
 78
     2
 67
     7
 79
     5
170
     0
171
     0
290
     0
174
     0
 93
        1
 44
50.0
173
     0
291
     1
 45
0.0
1001
ACAD
1000
AcDbSavedByObjectVersion
1070
     0
  0
VISUALSTYLE
  5
8724
102
{ACAD_XDICTIONARY
360
A8E3
102
}
102
{ACAD_REACTORS
330
8714
102
}
330
8714
100
AcDbVisualStyle
  2
ColorChange
 70
    16
 71
     2
 72
     2
 73
     3
 90
        0
 40
-0.6
 41
-30.0
 62
     5
 63
     8
 74
     1
 91
        4
 64
     7
 65
   257
 75
     1
175
     1
 42
1.0
 92
        8
 66
     8
 43
1.0
 76
     1
 77
     6
 78
     2
 67
     7
 79
     5
170
     0
171
     0
290
     0
174
     0
 93
        1
 44
0.0
173
     0
291
     1
 45
0.0
1001
ACAD
1000
AcDbSavedByObjectVersion
1070
     0
  0
VISUALSTYLE
  5
871D
102
{ACAD_XDICTIONARY
360
A8D5
102
}
102
{ACAD_REACTORS
330
8714
102
}
330
8714
100
AcDbVisualStyle
  2
Conceptual
 70
     9
 71
     3
 72
     2
 73
     0
 90
        0
 40
-0.6
 41
-30.0
 62
     5
 63
     7
 74
     2
 91
        2
 64
     7
 65
   257
 75
     1
175
     1
 42
179.0
 92
        8
 66
     7
 43
1.0
 76
     1
 77
     6
 78
     2
 67
     7
 79
     3
170
     0
171
     0
290
     0
174
     0
 93
        1
 44
0.0
173
     0
291
     0
 45
0.0
1001
ACAD
1000
AcDbSavedByObjectVersion
1070
     0
  0
VISUALSTYLE
  5
871F
102
{ACAD_XDICTIONARY
360
A8D9
102
}
102
{ACAD_REACTORS
330
8714
102
}
330
8714
100
AcDbVisualStyle
  2
Dim
 70
    11
 71
     2
 72
     2
 73
     0
 90
        0
 40
-0.6
 41
-30.0
 62
     5
 63
     7
 74
     1
 91
        4
 64
     7
 65
   257
 75
     1
175
     1
 42
1.0
 92
        8
 66
     7
 43
1.0
 76
     1
 77
     6
 78
     2
 67
     7
 79
     5
170
     0
171
     0
290
     0
174
     0
 93
        1
 44
-50.0
173
     0
291
     1
 45
0.0
1001
ACAD
1000
AcDbSavedByObjectVersion
1070
     0
  0
VISUALSTYLE
  5
872C
102
{ACAD_XDICTIONARY
360
A8F3
102
}
102
{ACAD_REACTORS
330
8714
102
}
330
8714
100
AcDbVisualStyle
  2
EdgeColorOff
 70
    22
 71
     2
 72
     2
 73
     0
 90
        0
 40
-0.6
 41
-30.0
 62
     5
 63
     7
 74
     1
 91
        4
 64
     7
 65
   257
 75
     1
175
     1
 42
1.0
 92
        8
 66
     7
 43
1.0
 76
     1
 77
     6
 78
     2
 67
     7
 79
     5
170
     0
171
     0
290
     0
174
     0
 93
        1
 44
0.0
173
     0
291
     1
 45
0.0
1001
ACAD
1000
AcDbSavedByObjectVersion
1070
     0
  0
VISUALSTYLE
  5
8723
102
{ACAD_XDICTIONARY
360
A8E1
102
}
102
{ACAD_REACTORS
330
8714
102
}
330
8714
100
AcDbVisualStyle
  2
Facepattern
 70
    15
 71
     2
 72
     2
 73
     0
 90
        0
 40
-0.6
 41
-30.0
 62
     5
 63
     7
 74
     1
 91
        4
 64
     7
 65
   257
 75
     1
175
     1
 42
1.0
 92
        8
 66
     7
 43
1.0
 76
     1
 77
     6
 78
     2
 67
     7
 79
     5
170
     0
171
     0
290
     0
174
     0
 93
        1
 44
0.0
173
     0
291
     1
 45
0.0
1001
ACAD
1000
AcDbSavedByObjectVersion
1070
     0
  0
VISUALSTYLE
  5
8715
102
{ACAD_XDICTIONARY
360
A8C5
102
}
102
{ACAD_REACTORS
330
8714
102
}
330
8714
100
AcDbVisualStyle
  2
Flat
 70
     0
 71
     2
 72
     1
 73
     1
 90
        2
 40
-0.6
 41
30.0
 62
     5
 63
     7
 74
     0
 91
        0
 64
     7
 65
   257
 75
     1
175
     1
 42
1.0
 92
        8
 66
     7
 43
1.0
 76
     1
 77
     6
 78
     2
 67
     7
 79
     5
170
     0
171
     0
290
     0
174
     0
 93
       13
 44
0.0
173
     0
291
     1
 45
0.0
1001
ACAD
1000
AcDbSavedByObjectVersion
1070
     0
  0
VISUALSTYLE
  5
8716
102
{ACAD_XDICTIONARY
360
A8C7
102
}
102
{ACAD_REACTORS
330
8714
102
}
330
8714
100
AcDbVisualStyle
  2
FlatWithEdges
 70
     1
 71
     2
 72
     1
 73
     1
 90
        2
 40
-0.6
 41
30.0
 62
     5
 63
     7
 74
     1
 91
        0
 64
     7
 65
   257
 75
     1
175
     1
 42
1.0
 92
        0
 66
   257
 43
1.0
 76
     1
 77
     6
 78
     2
 67
     7
 79
     5
170
     0
171
     0
290
     0
174
     0
 93
       13
 44
0.0
173
     0
291
     1
 45
0.0
1001
ACAD
1000
AcDbSavedByObjectVersion
1070
     0
  0
VISUALSTYLE
  5
8717
102
{ACAD_XDICTIONARY
360
A8C9
102
}
102
{ACAD_REACTORS
330
8714
102
}
330
8714
100
AcDbVisualStyle
  2
Gouraud
 70
     2
 71
     2
 72
     2
 73
     1
 90
        2
 40
-0.6
 41
30.0
 62
     5
 63
     7
 74
     0
 91
        0
 64
     7
 65
   257
 75
     1
175
     1
 42
1.0
 92
        0
 66
     7
 43
1.0
 76
     1
 77
     6
 78
     2
 67
     7
 79
     5
170
     0
171
     0
290
     0
174
     0
 93
       13
 44
0.0
173
     0
291
     1
 45
0.0
1001
ACAD
1000
AcDbSavedByObjectVersion
1070
     0
  0
VISUALSTYLE
  5
8718
102
{ACAD_XDICTIONARY
360
A8CB
102
}
102
{ACAD_REACTORS
330
8714
102
}
330
8714
100
AcDbVisualStyle
  2
GouraudWithEdges
 70
     3
 71
     2
 72
     2
 73
     1
 90
        2
 40
-0.6
 41
30.0
 62
     5
 63
     7
 74
     1
 91
        0
 64
     7
 65
   257
 75
     1
175
     1
 42
1.0
 92
        0
 66
   257
 43
1.0
 76
     1
 77
     6
 78
     2
 67
     7
 79
     5
170
     0
171
     0
290
     0
174
     0
 93
       13
 44
0.0
173
     0
291
     1
 45
0.0
1001
ACAD
1000
AcDbSavedByObjectVersion
1070
     0
  0
VISUALSTYLE
  5
871C
102
{ACAD_XDICTIONARY
360
A8D3
102
}
102
{ACAD_REACTORS
330
8714
102
}
330
8714
100
AcDbVisualStyle
  2
Hidden
 70
     6
 71
     1
 72
     2
 73
     2
 90
        0
 40
-0.6
 41
-30.0
 62
     5
 63
     7
 74
     2
 91
        2
 64
     7
 65
   257
 75
     2
175
     1
 42
40.0
 92
        0
 66
   257
 43
1.0
 76
     1
 77
     6
 78
     2
 67
     7
 79
     3
170
     0
171
     0
290
     0
174
     0
 93
        1
 44
0.0
173
     0
291
     0
 45
0.0
1001
ACAD
1000
AcDbSavedByObjectVersion
1070
     0
  0
VISUALSTYLE
  5
872A
102
{ACAD_XDICTIONARY
360
A8EF
102
}
102
{ACAD_REACTORS
330
8714
102
}
330
8714
100
AcDbVisualStyle
  2
JitterOff
 70
    20
 71
     2
 72
     2
 73
     0
 90
        0
 40
-0.6
 41
-30.0
 62
     5
 63
     7
 74
     1
 91
        4
 64
     7
 65
   257
 75
     1
175
     1
 42
1.0
 92
       10
 66
     7
 43
1.0
 76
     1
 77
     6
 78
     2
 67
     7
 79
     5
170
     0
171
     0
290
     0
174
     0
 93
        1
 44
0.0
173
     0
291
     1
 45
0.0
1001
ACAD
1000
AcDbSavedByObjectVersion
1070
     0
  0
VISUALSTYLE
  5
8722
102
{ACAD_XDICTIONARY
360
A8DF
102
}
102
{ACAD_REACTORS
330
8714
102
}
330
8714
100
AcDbVisualStyle
  2
Linepattern
 70
    14
 71
     2
 72
     2
 73
     0
 90
        0
 40
-0.6
 41
-30.0
 62
     5
 63
     7
 74
     1
 91
        4
 64
     7
 65
   257
 75
     7
175
     7
 42
1.0
 92
        8
 66
     7
 43
1.0
 76
     1
 77
     6
 78
     2
 67
     7
 79
     5
170
     0
171
     0
290
     0
174
     0
 93
        1
 44
0.0
173
     0
291
     1
 45
0.0
1001
ACAD
1000
AcDbSavedByObjectVersion
1070
     0
  0
VISUALSTYLE
  5
872B
102
{ACAD_XDICTIONARY
360
A8F1
102
}
102
{ACAD_REACTORS
330
8714
102
}
330
8714
100
AcDbVisualStyle
  2
OverhangOff
 70
    21
 71
     2
 72
     2
 73
     0
 90
        0
 40
-0.6
 41
-30.0
 62
     5
 63
     7
 74
     1
 91
        4
 64
     7
 65
   257
 75
     1
175
     1
 42
1.0
 92
        9
 66
     7
 43
1.0
 76
     1
 77
     6
 78
     2
 67
     7
 79
     5
170
     0
171
     0
290
     0
174
     0
 93
        1
 44
0.0
173
     0
291
     1
 45
0.0
1001
ACAD
1000
AcDbSavedByObjectVersion
1070
     0
  0
VISUALSTYLE
  5
871E
102
{ACAD_XDICTIONARY
360
A8D7
102
}
102
{ACAD_REACTORS
330
8714
102
}
330
8714
100
AcDbVisualStyle
  2
Realistic
 70
     8
 71
     2
 72
     3
 73
     0
 90
        2
 40
-0.6
 41
30.0
 62
     5
 63
     7
 74
     0
 91
        0
 64
     7
 65
   257
 75
     1
175
     1
 42
1.0
 92
        8
 66
   257
 43
1.0
 76
     1
 77
     6
 78
     2
 67
     7
 79
     3
170
     0
171
     0
290
     0
174
     0
 93
       13
 44
0.0
173
     0
291
     0
 45
0.0
1001
ACAD
1000
AcDbSavedByObjectVersion
1070
     0
  0
VISUALSTYLE
  5
8729
102
{ACAD_XDICTIONARY
360
A8ED
102
}
102
{ACAD_REACTORS
330
8714
102
}
330
8714
100
AcDbVisualStyle
  2
Shaded
 70
    27
 71
     2
 72
     2
 73
     1
 90
        2
 40
-0.6
 41
30.0
 62
     5
 63
     7
 74
     0
 91
        4
 64
     7
 65
   257
 75
     1
175
     1
 42
1.0
 92
        8
 66
   257
 43
1.0
 76
     1
 77
     6
 78
     2
 67
     8
 79
     3
170
     0
171
     0
290
     0
174
     0
 93
        5
 44
0.0
173
     0
291
     0
 45
0.0
1001
ACAD
1000
AcDbSavedByObjectVersion
1070
     0
  0
VISUALSTYLE
  5
8728
102
{ACAD_XDICTIONARY
360
A8EB
102
}
102
{ACAD_REACTORS
330
8714
102
}
330
8714
100
AcDbVisualStyle
  2
Shaded with edges
 70
    26
 71
     2
 72
     2
 73
     1
 90
        2
 40
-0.6
 41
30.0
 62
     5
 63
     7
 74
     1
 91
       10
 64
     7
 65
   257
 75
     2
175
     1
 42
1.0
 92
        8
 66
   257
 43
1.0
 76
     1
 77
     6
 78
     2
 67
     7
 79
     3
170
     0
171
     0
290
     0
174
     0
 93
        5
 44
0.0
173
     0
291
     0
 45
0.0
1001
ACAD
1000
AcDbSavedByObjectVersion
1070
     0
  0
VISUALSTYLE
  5
8725
102
{ACAD_XDICTIONARY
360
A8E5
102
}
102
{ACAD_REACTORS
330
8714
102
}
330
8714
100
AcDbVisualStyle
  2
Shades of Gray
 70
    23
 71
     2
 72
     2
 73
     3
 90
        0
 40
-0.6
 41
-30.0
 62
     5
 63
     7
 74
     2
 91
        2
 64
     7
 65
     7
 75
     1
175
     1
 42
40.0
 92
        8
 66
     7
 43
1.0
 76
     1
 77
     6
 78
     2
 67
     7
 79
     3
170
     0
171
     0
290
     0
174
     0
 93
        1
 44
0.0
173
     0
291
     0
 45
0.0
1001
ACAD
1000
AcDbSavedByObjectVersion
1070
     0
  0
VISUALSTYLE
  5
8726
102
{ACAD_XDICTIONARY
360
A8E7
102
}
102
{ACAD_REACTORS
330
8714
102
}
330
8714
100
AcDbVisualStyle
  2
Sketchy
 70
    24
 71
     1
 72
     2
 73
     2
 90
        0
 40
-0.6
 41
-30.0
 62
     5
 63
     7
 74
     2
 91
        2
 64
     7
 65
     7
 75
     1
175
     1
 42
40.0
 92
       11
 66
     7
 43
1.0
 76
     1
 77
     6
 78
     2
 67
     7
 79
     6
170
     0
171
     0
290
     0
174
     0
 93
        1
 44
0.0
173
     0
291
     0
 45
0.0
1001
ACAD
1000
AcDbSavedByObjectVersion
1070
     0
  0
VISUALSTYLE
  5
8721
102
{ACAD_XDICTIONARY
360
A8DD
102
}
102
{ACAD_REACTORS
330
8714
102
}
330
8714
100
AcDbVisualStyle
  2
Thicken
 70
    13
 71
     2
 72
     2
 73
     0
 90
        0
 40
-0.6
 41
-30.0
 62
     5
 63
     7
 74
     1
 91
        4
 64
     7
 65
   257
 75
     1
175
     1
 42
1.0
 92
       12
 66
     7
 43
1.0
 76
     1
 77
     6
 78
     2
 67
     7
 79
     5
170
     0
171
     0
290
     0
174
     0
 93
        1
 44
0.0
173
     0
291
     1
 45
0.0
1001
ACAD
1000
AcDbSavedByObjectVersion
1070
     0
  0
VISUALSTYLE
  5
871B
102
{ACAD_XDICTIONARY
360
A8D1
102
}
102
{ACAD_REACTORS
330
8714
102
}
330
8714
100
AcDbVisualStyle
  2
Wireframe
 70
     5
 71
     0
 72
     2
 73
     0
 90
        0
 40
-0.6
 41
-30.0
 62
     5
 63
     7
 74
     1
 91
        4
 64
     7
 65
   257
 75
     1
175
     1
 42
1.0
 92
        0
 66
   257
 43
1.0
 76
     1
 77
     6
 78
     2
 67
     7
 79
     3
170
     0
171
     0
290
     0
174
     0
 93
        1
 44
0.0
173
     0
291
     0
 45
0.0
1001
ACAD
1000
AcDbSavedByObjectVersion
1070
     0
  0
VISUALSTYLE
  5
8727
102
{ACAD_XDICTIONARY
360
A8E9
102
}
102
{ACAD_REACTORS
330
8714
102
}
330
8714
100
AcDbVisualStyle
  2
X-Ray
 70
    25
 71
     2
 72
     2
 73
     1
 90
        1
 40
0.5
 41
-30.0
 62
     5
 63
     7
 74
     1
 91
        0
 64
     7
 65
   257
 75
     1
175
     1
 42
1.0
 92
        8
 66
     7
 43
1.0
 76
     1
 77
     6
 78
     2
 67
     7
 79
     3
170
     0
171
     0
290
     0
174
     0
 93
       13
 44
0.0
173
     0
291
     0
 45
0.0
1001
ACAD
1000
AcDbSavedByObjectVersion
1070
     0
  0
DICTIONARYVAR
  5
8761
102
{ACAD_REACTORS
330
875B
102
}
330
875B
100
DictionaryVariables
280
     0
  1
1:1
  0
DICTIONARYVAR
  5
875D
102
{ACAD_REACTORS
330
875B
102
}
330
875B
100
DictionaryVariables
280
     0
  1
STANDARD
  0
DICTIONARYVAR
  5
875C
102
{ACAD_REACTORS
330
875B
102
}
330
875B
100
DictionaryVariables
280
     0
  1
STANDARD
  0
DICTIONARYVAR
  5
875E
102
{ACAD_REACTORS
330
875B
102
}
330
875B
100
DictionaryVariables
280
     0
  1
Metric50
  0
DICTIONARYVAR
  5
875F
102
{ACAD_REACTORS
330
875B
102
}
330
875B
100
DictionaryVariables
280
     0
  1
Metric50
  0
DICTIONARYVAR
  5
A8B0
102
{ACAD_REACTORS
330
875B
102
}
330
875B
100
DictionaryVariables
280
     0
  1
1
  0
DICTIONARYVAR
  5
A8AF
102
{ACAD_REACTORS
330
875B
102
}
330
875B
100
DictionaryVariables
280
     0
  1
0
  0
DICTIONARYVAR
  5
8763
102
{ACAD_REACTORS
330
875B
102
}
330
875B
100
DictionaryVariables
280
     0
  1
1
  0
DICTIONARYVAR
  5
8764
102
{ACAD_REACTORS
330
875B
102
}
330
875B
100
DictionaryVariables
280
     0
  1
15
  0
DICTIONARYVAR
  5
8762
102
{ACAD_REACTORS
330
875B
102
}
330
875B
100
DictionaryVariables
280
     0
  1
0
  0
DICTIONARYVAR
  5
8760
102
{ACAD_REACTORS
330
875B
102
}
330
875B
100
DictionaryVariables
280
     0
  1
0
  0
DICTIONARYVAR
  5
A8AE
102
{ACAD_REACTORS
330
875B
102
}
330
875B
100
DictionaryVariables
280
     0
  1
127
  0
DICTIONARYVAR
  5
A8B1
102
{ACAD_REACTORS
330
875B
102
}
330
875B
100
DictionaryVariables
280
     0
  1
2
  0
DICTIONARY
  5
A8BD
102
{ACAD_REACTORS
330
A8BB
102
}
330
A8BB
100
AcDbDictionary
281
     1
  0
DICTIONARY
  5
A8BC
102
{ACAD_REACTORS
330
A8BB
102
}
330
A8BB
100
AcDbDictionary
281
     1
  3
140686696413792
350
A8B6
  3
140686696413808
350
A8B7
  3
140686696413824
350
A8B8
  3
140686696413840
350
A8B9
  3
140686696413856
350
A8BA
  0
DICTIONARY
  5
A8A7
330
A88F
100
AcDbDictionary
280
     1
281
     1
  3
ACAD_XREC_ROUNDTRIP
360
A8FE
  0
DICTIONARY
  5
8758
330
8747
100
AcDbDictionary
280
     1
281
     1
  3
ACAD_XREC_ROUNDTRIP
360
A8FA
  0
DICTIONARY
  5
A8BE
330
86EF
100
AcDbDictionary
280
     1
281
     1
  3
ACAD_XREC_ROUNDTRIP
360
A8BF
  0
DICTIONARY
  5
A8C0
330
86F0
100
AcDbDictionary
280
     1
281
     1
  3
ACAD_XREC_ROUNDTRIP
360
A8C1
  0
DICTIONARY
  5
8705
330
8704
100
AcDbDictionary
280
     1
281
     1
  3
ACAD_XREC_ROUNDTRIP
360
A8C3
  3
BUMPTILE
360
8707
  3
DIFFUSETILE
360
8706
  3
OPACITYTILE
360
870A
  3
REFLECTIONTILE
360
8709
  3
REFRACTIONTILE
360
870B
  3
SPECULARTILE
360
8708
  0
DICTIONARY
  5
86FD
330
86FC
100
AcDbDictionary
280
     1
281
     1
  3
ACAD_XREC_ROUNDTRIP
360
A8C2
  3
BUMPTILE
360
86FF
  3
DIFFUSETILE
360
86FE
  3
OPACITYTILE
360
8702
  3
REFLECTIONTILE
360
8701
  3
REFRACTIONTILE
360
8703
  3
SPECULARTILE
360
8700
  0
DICTIONARY
  5
870D
330
870C
100
AcDbDictionary
280
     1
281
     1
  3
ACAD_XREC_ROUNDTRIP
360
A8C4
  3
BUMPTILE
360
870F
  3
DIFFUSETILE
360
870E
  3
FBXASSET
360
8A89
  3
OPACITYTILE
360
8712
  3
REFLECTIONTILE
360
8711
  3
REFRACTIONTILE
360
8713
  3
SPECULARTILE
360
8710
  0
DICTIONARY
  5
A8F7
330
8743
100
AcDbDictionary
280
     1
281
     1
  3
ACAD_XREC_ROUNDTRIP
360
A8F8
  0
DICTIONARY
  5
A8A5
330
A88E
100
AcDbDictionary
280
     1
281
     1
  3
ACAD_XREC_ROUNDTRIP
360
A8FD
  0
DICTIONARY
  5
8756
330
8745
100
AcDbDictionary
280
     1
281
     1
  3
ACAD_XREC_ROUNDTRIP
360
A8F9
  0
DICTIONARY
  5
A8B2
330
872F
100
AcDbDictionary
280
     1
281
     1
  3
ACAD_ROUNDTRIP_2008_TABLESTYLE_CELLSTYLEMAP
360
A8B3
  3
ACAD_XREC_ROUNDTRIP
360
A8F5
  0
DICTIONARY
  5
A8CF
330
871A
100
AcDbDictionary
280
     1
281
     1
  3
ACAD_XREC_ROUNDTRIP
360
A8D0
  0
DICTIONARY
  5
A8CD
330
8719
100
AcDbDictionary
280
     1
281
     1
  3
ACAD_XREC_ROUNDTRIP
360
A8CE
  0
DICTIONARY
  5
A8DB
330
8720
100
AcDbDictionary
280
     1
281
     1
  3
ACAD_XREC_ROUNDTRIP
360
A8DC
  0
DICTIONARY
  5
A8E3
330
8724
100
AcDbDictionary
280
     1
281
     1
  3
ACAD_XREC_ROUNDTRIP
360
A8E4
  0
DICTIONARY
  5
A8D5
330
871D
100
AcDbDictionary
280
     1
281
     1
  3
ACAD_XREC_ROUNDTRIP
360
A8D6
  0
DICTIONARY
  5
A8D9
330
871F
100
AcDbDictionary
280
     1
281
     1
  3
ACAD_XREC_ROUNDTRIP
360
A8DA
  0
DICTIONARY
  5
A8F3
330
872C
100
AcDbDictionary
280
     1
281
     1
  3
ACAD_XREC_ROUNDTRIP
360
A8F4
  0
DICTIONARY
  5
A8E1
330
8723
100
AcDbDictionary
280
     1
281
     1
  3
ACAD_XREC_ROUNDTRIP
360
A8E2
  0
DICTIONARY
  5
A8C5
330
8715
100
AcDbDictionary
280
     1
281
     1
  3
ACAD_XREC_ROUNDTRIP
360
A8C6
  0
DICTIONARY
  5
A8C7
330
8716
100
AcDbDictionary
280
     1
281
     1
  3
ACAD_XREC_ROUNDTRIP
360
A8C8
  0
DICTIONARY
  5
A8C9
330
8717
100
AcDbDictionary
280
     1
281
     1
  3
ACAD_XREC_ROUNDTRIP
360
A8CA
  0
DICTIONARY
  5
A8CB
330
8718
100
AcDbDictionary
280
     1
281
     1
  3
ACAD_XREC_ROUNDTRIP
360
A8CC
  0
DICTIONARY
  5
A8D3
330
871C
100
AcDbDictionary
280
     1
281
     1
  3
ACAD_XREC_ROUNDTRIP
360
A8D4
  0
DICTIONARY
  5
A8EF
330
872A
100
AcDbDictionary
280
     1
281
     1
  3
ACAD_XREC_ROUNDTRIP
360
A8F0
  0
DICTIONARY
  5
A8DF
330
8722
100
AcDbDictionary
280
     1
281
     1
  3
ACAD_XREC_ROUNDTRIP
360
A8E0
  0
DICTIONARY
  5
A8F1
330
872B
100
AcDbDictionary
280
     1
281
     1
  3
ACAD_XREC_ROUNDTRIP
360
A8F2
  0
DICTIONARY
  5
A8D7
330
871E
100
AcDbDictionary
280
     1
281
     1
  3
ACAD_XREC_ROUNDTRIP
360
A8D8
  0
DICTIONARY
  5
A8ED
330
8729
100
AcDbDictionary
280
     1
281
     1
  3
ACAD_XREC_ROUNDTRIP
360
A8EE
  0
DICTIONARY
  5
A8EB
330
8728
100
AcDbDictionary
280
     1
281
     1
  3
ACAD_XREC_ROUNDTRIP
360
A8EC
  0
DICTIONARY
  5
A8E5
330
8725
100
AcDbDictionary
280
     1
281
     1
  3
ACAD_XREC_ROUNDTRIP
360
A8E6
  0
DICTIONARY
  5
A8E7
330
8726
100
AcDbDictionary
280
     1
281
     1
  3
ACAD_XREC_ROUNDTRIP
360
A8E8
  0
DICTIONARY
  5
A8DD
330
8721
100
AcDbDictionary
280
     1
281
     1
  3
ACAD_XREC_ROUNDTRIP
360
A8DE
  0
DICTIONARY
  5
A8D1
330
871B
100
AcDbDictionary
280
     1
281
     1
  3
ACAD_XREC_ROUNDTRIP
360
A8D2
  0
DICTIONARY
  5
A8E9
330
8727
100
AcDbDictionary
280
     1
281
     1
  3
ACAD_XREC_ROUNDTRIP
360
A8EA
  0
XRECORD
  5
A8B6
102
{ACAD_REACTORS
330
A8BC
102
}
330
A8BC
100
AcDbXrecord
280
     1
  1
AcDb_Thumbnail_Schema
102
{ATTRRECORD
341
A8B7
  2
AcDbDs::TreatedAsObjectData
280
     1
291
     1
102
ATTRRECORD}
102
{ATTRRECORD
341
A8B8
  2
AcDbDs::Legacy
280
     1
291
     1
102
ATTRRECORD}
  2
AcDbDs::ID
280
    10
 91
        8
102
{ATTRRECORD
341
A8B9
  2
AcDs:Indexable
280
     1
291
     1
102
ATTRRECORD}
102
{ATTRRECORD
341
A8BA
  2
AcDbDs::HandleAttribute
280
     7
282
     1
102
ATTRRECORD}
  2
Thumbnail_Data
280
    15
 91
        0
  0
XRECORD
  5
A8B7
102
{ACAD_REACTORS
330
A8BC
102
}
330
A8BC
100
AcDbXrecord
280
     1
  1
AcDbDs::TreatedAsObjectDataSchema
  2
AcDbDs::TreatedAsObjectData
280
     1
 91
        0
  0
XRECORD
  5
A8B8
102
{ACAD_REACTORS
330
A8BC
102
}
330
A8BC
100
AcDbXrecord
280
     1
  1
AcDbDs::LegacySchema
  2
AcDbDs::Legacy
280
     1
 91
        0
  0
XRECORD
  5
A8B9
102
{ACAD_REACTORS
330
A8BC
102
}
330
A8BC
100
AcDbXrecord
280
     1
  1
AcDbDs::IndexedPropertySchema
  2
AcDs:Indexable
280
     1
 91
        0
  0
XRECORD
  5
A8BA
102
{ACAD_REACTORS
330
A8BC
102
}
330
A8BC
100
AcDbXrecord
280
     1
  1
AcDbDs::HandleAttributeSchema
  2
AcDbDs::HandleAttribute
280
     7
 91
        1
284
     1
  0
XRECORD
  5
A8FE
102
{ACAD_REACTORS
330
A8A7
102
}
330
A8A7
100
AcDbXrecord
280
     1
102
DISPLAYNAME
  1
Imperial24
102
FLAGS
 90
        0
  0
XRECORD
  5
A8FA
102
{ACAD_REACTORS
330
8758
102
}
330
8758
100
AcDbXrecord
280
     1
102
DISPLAYNAME
  1
Metric50
102
FLAGS
 90
        0
  0
XRECORD
  5
A8BF
102
{ACAD_REACTORS
330
A8BE
102
}
330
A8BE
100
AcDbXrecord
280
     1
102
SHADEPLOT
 70
     0
102
SHADEPLOTRESLEVEL
 70
     2
102
SHADEPLOTCUSTOMDPI
 70
   300
  0
XRECORD
  5
A8C1
102
{ACAD_REACTORS
330
A8C0
102
}
330
A8C0
100
AcDbXrecord
280
     1
102
SHADEPLOT
 70
     0
102
SHADEPLOTRESLEVEL
 70
     2
102
SHADEPLOTCUSTOMDPI
 70
   300
  0
XRECORD
  5
A8C3
102
{ACAD_REACTORS
330
8705
102
}
330
8705
100
AcDbXrecord
280
     1
102
MATERIAL
148
0.0
149
0.0
149
0.0
 93
        0
 94
      127
282
     0
 72
     0
 77
     0
171
     0
175
     0
179
     0
273
     0
  0
XRECORD
  5
8707
102
{ACAD_REACTORS
330
8705
102
}
330
8705
100
AcDbXrecord
280
     1
270
     1
271
     1
  0
XRECORD
  5
8706
102
{ACAD_REACTORS
330
8705
102
}
330
8705
100
AcDbXrecord
280
     1
270
     1
271
     1
  0
XRECORD
  5
870A
102
{ACAD_REACTORS
330
8705
102
}
330
8705
100
AcDbXrecord
280
     1
270
     1
271
     1
  0
XRECORD
  5
8709
102
{ACAD_REACTORS
330
8705
102
}
330
8705
100
AcDbXrecord
280
     1
270
     1
271
     1
  0
XRECORD
  5
870B
102
{ACAD_REACTORS
330
8705
102
}
330
8705
100
AcDbXrecord
280
     1
270
     1
271
     1
  0
XRECORD
  5
8708
102
{ACAD_REACTORS
330
8705
102
}
330
8705
100
AcDbXrecord
280
     1
270
     1
271
     1
  0
XRECORD
  5
A8C2
102
{ACAD_REACTORS
330
86FD
102
}
330
86FD
100
AcDbXrecord
280
     1
102
MATERIAL
148
0.0
149
0.0
149
0.0
 93
        0
 94
      127
282
     0
 72
     0
 77
     0
171
     0
175
     0
179
     0
273
     0
  0
XRECORD
  5
86FF
102
{ACAD_REACTORS
330
86FD
102
}
330
86FD
100
AcDbXrecord
280
     1
270
     1
271
     1
  0
XRECORD
  5
86FE
102
{ACAD_REACTORS
330
86FD
102
}
330
86FD
100
AcDbXrecord
280
     1
270
     1
271
     1
  0
XRECORD
  5
8702
102
{ACAD_REACTORS
330
86FD
102
}
330
86FD
100
AcDbXrecord
280
     1
270
     1
271
     1
  0
XRECORD
  5
8701
102
{ACAD_REACTORS
330
86FD
102
}
330
86FD
100
AcDbXrecord
280
     1
270
     1
271
     1
  0
XRECORD
  5
8703
102
{ACAD_REACTORS
330
86FD
102
}
330
86FD
100
AcDbXrecord
280
     1
270
     1
271
     1
  0
XRECORD
  5
8700
102
{ACAD_REACTORS
330
86FD
102
}
330
86FD
100
AcDbXrecord
280
     1
270
     1
271
     1
  0
XRECORD
  5
A8C4
102
{ACAD_REACTORS
330
870D
102
}
330
870D
100
AcDbXrecord
280
     1
102
MATERIAL
148
0.0
149
0.0
149
0.0
 93
        0
 94
      127
282
     0
 72
     0
 77
     0
171
     0
175
     0
179
     0
273
     0
  0
XRECORD
  5
870F
102
{ACAD_REACTORS
330
870D
102
}
330
870D
100
AcDbXrecord
280
     1
270
     1
271
     1
  0
XRECORD
  5
870E
102
{ACAD_REACTORS
330
870D
102
}
330
870D
100
AcDbXrecord
280
     1
270
     1
271
     1
  0
XRECORD
  5
8A89
102
{ACAD_REACTORS
330
870D
102
}
330
870D
100
AcDbXrecord
280
     1
 70
     1
 90
1959938040
 71
     1
  1
0AA5D7DE-C091-405F-AA02-7AF4C6DEFD9E
311
504B0304140006080800C259F84A028B7827DB000000200100004F00000032463639314237362D464236372D344334442D414337322D4436354442443331354237312F4173736574446174612F446566696E6974696F6E4974657261746F7250726F706572746965732E62696E454E3D4FC33010350C200606FE41D5DDD84E
311
93268DDAA2520C132C30B15457F71A22394E653B122323FF1ACEA2A827BD7BF7F9EEBE19633F47A3909D11BEC85F133FA143DF9A57F3811DB08B54B1FD16ECE5A9774E614A1F700F838D69EBB90D06AD0587FD106E4EA3A30E22C981BD4D4B5784FF42480ACDDFB174FF85905E4A0CBB437D0721605C88FDF65368793F594D
311
D58CEB522B9E1755C12B3599F275A9B3F5A39EE94AAE84C7D00FDE601099909BA3F2E6E01A5C8C8D47FA63375E6652955C963CCBDF94AA555ECBE27D2E62DBE1721EA26F5D3372D0FD02504B0304140006080800C259F84A35E3486308010000300200004500000032463639314237362D464236372D344334442D41433732
311
2D4436354442443331354237312F4173736574446174612F496E7374616E636550726F706572746965732E62696EEB606060F80F0540260323103700495E20ED9E9A975A94991C9C9C919A9BA802143070743475317771D57536B034D435313075D375743430D235777433713673717573B174654768046931363471713532
311
B5D435353131D635313332D475727372D13534373670367376B67474B5042A03DBCBA019D37FE8ABC6157B20CD04146B0062181F4C03F940F0C11EA29A8141C08141002C0426541C106CAC2CA046088033B02A030AC2157C6006F21A8018AAF50194E6010A610250382264E08660284CD9E98021862280A91564B406929A0F
311
F62C401E28B6F88038B83CB1243943D7A928312F2535052403033A40862310DF63EB6658C2BE01268C4283CC860920AB57E1108509C36900504B0304140006080800C259F84A28BB58AF800100009E0500003D00000032463639314237362D464236372D344334442D414337322D4436354442443331354237312F53636865
311
6D61732F436F6D6D6F6E536368656D612E786D6CBD544D4FC23018BEFB2B96DE15493C78601010A34B880709DEDFB52FD0D8B54BD70DF6EFED3AC0B12E6442E2716BFB3CEFF3D18E26FB440405EA8C2B1992E1C323095052C5B8DC842437EBFB673219DF8DA659866649B798C078B48AE6410122242F2A4994AC7F93815DF8
311
5C049C8564CA0A901499DD886B2EB9B1E02448F358701A9235880C49A0119892A20C89D1B9FD768815CAD268CB5E0355B40B1E47F3E37A2020464BED06AA57CE8FCC20C3C3446D46761A2632A8C1283D07031EFF2AE7CCB1BFEEE916E406DFAC8E36FFD99A9D60A6944090EEDC3B670C7DC13DE86B6B2C5C240D6E503BB85A
311
CD579D513F1B9F9A69DC9CC22AFA80C426D40AF0B21EA168559156B6276F0F726A6BFF04DCD513A87A62CAD41FB24FCB2858B3952E3D852084DA25B9303C15687973CC8E8AAE11DF2836C38C6A9E765E8C1BA1BFB1DC29CDFE518C8B5A7655A4ED7E77291ABEB80DBD82EC866ADE1B8D05AF9E35CF09D7A061F38A986D9EC4
311
12B8F0F65E5D81534D9B231D1E5A8FE577A241F3A5FD01504B0304140006080800C259F84A2CCEBD668A040000E01200003E00000032463639314237362D464236372D344334442D414337322D4436354442443331354237312F536368656D61732F47656E65726963536368656D612E786D6CD5586D6FDB380CFE7EBF42F0
311
F7A649B70E1B90744856B4970F450FCD7A5F05459613EDE4174872DADCAF3F522F8ED3B88D2F1D06AC4050DBA2493EE4438AF2F8EB73AEC8466823CB62928C06C384888297A92C5693A4B6D9D9E7E4EBD51FE3A931C22EF85AE4EC6AFC38BF261BA626C9AD288496DC3F4FCEAFC63366845F7A10452AF41DB320C0D44EC26E
311
AB20918735565582695670811A6A49643A49A6E9069FA4604A64B29016DC4B48552F95E4932463CA888468C1D2B250DB4962750DF7CE273069CE8363F1FF4EDB00E0A21999574AE4A2B00C353B93F3BD4777B8A61ED8F604ABFEDD79CE56A2B7BDFBDBC50996E0ADDE16FED26223C5D30956C29BDF4A55EA686E5E58B112DA
311
45CE67F76F4FA27EFA3FB672FD7372FC388FAECDCA5209E693CAD167BADCD272F943701B3812F8A3D852008B1D2E32DB927B2F833C6EA95879925356D254582695095A3CE982924720BE5774A3CB9CDCDB350427D2DF20DA1B5532EBE2D5D6288D75D4F7E4FD9890A0EF8E3D93EBB8F8BA4758158EF6FB90A6F9520281C93D
311
E7AAC6D24607DA296BB96018123F821A7D6A5C5884050C475DA4865442732C8B95684A50165CBB3A32F25F783A4A480ED59AD7F924B968AEA50131F46303223E6A397B0E52976030DC1DCA81D7E7C1EDEEA42C19FF27635C505E2BD5198A599020DF50A2330FCB3AAF28CB0124108429553EF1B228802E2265D8F7CC240104
311
2B155BCC7070F1E5C55F13B4A9577362CCCE46C32174E010C3C378C44841A4BDA00FE3A12006CE11EE6AEC59894D3526DDE1CD59D503ECC324017F8061B7F162162FA62EDD81AE3308617770796DCBDAD2B2625C5AE8A63DE20B2C8AA5E95E76E5730823955956E33E705425A2187C185D36489A1B44D3DCEC2172F6BA2105
311
C3546287A7194B2331768EBBE64F6E70A9930ABE0ADEA89E9E2C38523B810287AD67A54A039C1606EAFE68F8304610BB9093DBDDABC0B2AE4E290DCDA15376D7E39F72B556F0B32EAB5D3D498B4C41ABADEC3A1434C422D87E8025A84BDCB2B1417ED750FAE4DA8976863974C577C7F902D3F156AD354DEA3540DE6BEAE2BE
311
A52F7A2EB4CA43802ECE5BF2CE2EDC9347179FFB023CE412E60BE16DA0BE29B374988A553F561DC04615DD35F7D2C8979F60E5955CE93DF29DED8AFA1EE6642D53418086C03C47C377910F75F7E8F5EF665F70B60FFB22AEDF897D119E8423C773E819A3C1E55E550599EE6EDCA34D0C86FD72057DF2CD46F16A470682471C
311
164E4346D5306BF12D7D12D82CFF673D41636C347443FEB51B50D72EA171A8E4A58623A4A16E0FA2B8B10A0D23268D87C33896EE8FB73305A74BF224EDBADFA0BD674AB354D63DB7BD5D83426761C077DE767728235446A552754EB93B755891C3C4CC6CADE37CF0E912A7BB38DBA010F9DE1282EDF470CA69A9CDA482E334
311
C4A6EA4107987980B17E72F31730EBF88BBD39E7C629F56797A3C0009C2C5AE7951D9A05A02773440F02EEB4DE396A3B6A570C72CCFBCD823B0B8ED3F1D5CEDDFED772FA70236C83FB7D86C385D570B87107535572A60A96035F8F7C6A7192F13007246BBE0521855E6AC46F3E27689CEE7D186A6FD679D98CDCAD13333E04
311
EBE7ED6F55FF01504B0304140006080800C259F84A6180134D5F0100006B0300004500000032463639314237362D464236372D344334442D414337322D4436354442443331354237312F536368656D61732F52656E6465724D6174657269616C536368656D612E786D6CA5934D6FC2300C86EFFB1551EEE343DBA41D1A1030
311
09551ADAD40EAE28A4A68D9426284961FCFBE5A340113B2071746D3F765EBF4DC6BFB5407BD0862B49F0B037C0082453059725C18DDD3EBFE3F1E829991803366715D474942CD30FB4A782E00C64017A412D684E454CE3FE28995203B162A6EA5AC94B66997D225E109CD63B0135484BAD1B3C07E9080CA35DB3119C11BCA5
311
C200461A68A1A438126C75E3E230D40FF81FB3F03C91D1E3A3A0AF79FE28E25BC39EC3E17E4C2A2D94A0833A51AF55BCCA7D88572FCBAC529C4140B020FC3AAFA886621DCED7EAD7664CC86024E806DC297DA1BB393E4156543457A4537DB8817349A70F8ACBF09B3EEE2CB2F33E91B65D60786E4E3B39B77E3FEEEF565042
311
4525DA657FB8B46BE6BF064646F0A0F7327C0BC1BC1B4CBBC1C419FA3CCB23500007872A2580CAAE5461865565294E4EDB4617B62FF579DF9A5B2F54E834076A597573A020912FED777F9B3F504B0304140006080800C259F84AFDDEB2C451000000570000004700000032463639314237362D464236372D344334442D4143
311
37322D4436354442443331354237312F4173736574446174612F41737365745461626C654F66436F6E74656E74732E62696E536160603070743475317771D57536B034D435313075D375743430D235777433713673717573B1741502AACB4D2C492DCA4CCC492C28484D2C4ACC4B4E050A82012F90744FCD03CA26072767A4
311
E6260200504B0304140006080800C259F84AF865834058000000680000004500000032463639314237362D464236372D344334442D414337322D4436354442443331354237312F4173736574446174612F53747265616D56657273696F6E5461626C652E696E66558CBD0A80300C06F73E4B117FB66E451741D041DC5BF984
311
80A492E4FDD18EAEC7DD4555D89EF28DF51A0B1BD8340C4DE7DD848B988C0ACF0649566493F2408C508DDEBB99D5129FF8F1AF8CF5B9503E20FAE5A16B5AF702504B0304140006080800C259F84A79BED7C8350100009A0400003600000032463639314237362D464236372D344334442D414337322D443635444244333135
311
4237312F4173736574446174612F636E782E786D6CCD94314FC3301085FF4AE43D76521515558E2B044B2790A818D8AECEA5B5EAD8917D41F0EFB1D30CA022A60E5DCFEFCECF9FFC4E6E3E7B5B7C6088C6BB86D5BC62053AED5BE30E0D1BA92BEF59B15132784F3F64AC70D063C372992979087E1CE6528B1D8C3657AD71A7
311
B9F81023D20EF6169FBB47EF081D4556680B31362CEA23F6C06124DF623CF1160878CD03463F068D6912991EE7493A2010B64C2DAA7A5556AB72B1DCD5F5BA5EAEABBB7729B252C9BDF776D69B7459F043A1CFB7325549918F951C839935F92D4CFDE591EF8D932229958C141293B983BE86D401C3608D064AE884D7845426
311
11422FC559ACA4C80C7E9178C2CE38935BB6C918900F2FC91E0632787344FEF37A7D325B17099CC6DBE571E9F0FA145EA71FF4760EE494985BCBC9A5436E5C77859488698DA4D0E4ADA2BE01504B0304140006080800C259F84AC9EE5992080100004F0300003400000032463639314237362D464236372D344334442D4143
311
37322D4436354442443331354237312F536368656D61732F636E782E786D6CCD933F4F432114C5BF0A612F3C9A9A9A864707072717757243B86D4979DC17FE18FDF6C293A14DDC74E806875FC839878BDC7F4E9E7C404C0EC348051B288160D0BA701C69C987D53D257B252362BEC028097A829136992A798C58E62E5938E8
311
E29BEA5D3877F101A709C38B39C1A429315EA734D2B46C992E192DA433B33A6B26588484251AA837643741BFC144D0192C55EB416C57C376B5DEBC0AB1139BDD70F7267923957C47F49D772143C49918AC8B50ED0C92B763254B749D6919A8BAF4C66A1B925742C99463EDA093F96BAEA49E67EF8CCEB52ABE803F8C92BC45
311
BD0AFC0801A233B799F8CADCBF457E8660213ED5578A4EFBDB4CFE9BC7BF15C097D9AF23D0BE82FA06504B0304140006080800C259F84A410A3D5871000000A40000002C00000032463639314237362D464236372D344334442D414337322D4436354442443331354237312F636E782E786D6C55CC4D0E82301086E1AB34B3
311
1774E7A22D31F1069E60020334B633A63FC6E34B0909B07DDE2F9FEE7EC1AB2FC5E4840DDC9A2B28E25E06C7938192C7CB1D54677514C9871928C640062A83D55394F2D968A0118BAFEA1DBF377CA444F98919176EAB9FEAAB9F2960DA5BBB1E2ED3FA6FFF504B0304140006080800C259F84AD94D484E7E000000A3000000
311
07000000636E782E786D6C4D8CD10E822018465F85FDF75898426D801399EFE1121D0BA191B41E3F685E74F56D67DF39BCFB6C0EBD4D7CD9E00590EA0CC8F87B98AD5F05A47DC157409DE43184FDEF06C84F9B11503048BEC6909E079ACD322557A8B3FE71C07AA437A218C5A3A20C3743A3713FB01A6BDA6AA52FA4558C64
311
E354943CBF5EDE92975F504B0304140006080800C259F84A16E99B5DA600000035010000130000005B436F6E74656E745F54797065735D2E786D6C9590410E82301045AFD2740F4517C6180A0BF5065E60AC53688469D30E066F6F91AD9AB89CF9FFFD3F99BA9DC7413C3026E749CB4D59498164FCCD51A7E5C4B6D84BD136
311
F5E5193089ECA5A465CF1C0E4A25D3E308A9F401292BD6C711388FB15301CC1D3A54DBAADA29E38991B8E0254336F5092D4C038BF39CD76B6FC6A538AEBEA54A4B08617006389FA516557DE4AE8E7E70DE30729138228C5F021CD93F02D4FB0DCD0B504B0304140006080800C259F84A3DEE336E64000000790000001B0000
311
006175746F6465736B2D64657369676E2D7061636B6167652E786D6C35CBC10E83200C00D05F21DCA56CA76D41FC96062B120735B69A7DBE268BB7777961F8D5AF396893C2ADB70FE7ADA196782C2DF776D7A97B5933C430F15651E5469C55D70F80A4992A3ADC954792C525AE70A1E4D6AD9816CC044FEFDF01FE3FDE9078
311
02504B0304140006080800C259F84A3ADA5C6DF8000000960100003700000032463639314237362D464236372D344334442D414337322D4436354442443331354237312F4173736574446174612F636F72652E786D6C8550CB6EC32010FC156BEFD8063F1361A23AC91FF4D41BC2C44189C1E251F5F30BB12BB5A79E76353B
311
33BB3BF4F4B53CB34F699D327A009C9790492DCCA4F43C40F037D4437662D41AE37FD120D37C91032418189DAD09EB0E09A3BDD409D566923BC89D931E32F18CCD004EDCE5C2731E7C64B847BE72F1E0B3CC71BEF1180D414DBB544DD14DDD94B4C0C6C3A12DAB7385BAA621A81EF105F52DA9507326DDF5DA8DEDD837B448
311
6246BD5A7EB60B2BB997133052E20E951D22F53BC6475C1FCBE6831689C9A8F336FEBC2F4DDF017B4B575FB8E7B4D8A67F5CC33AFDEF1A94F615D95D37850386E391AF01A3454A29965784B1A644D937504B0304140006080800C259F84A9CE85C99F7000000940100003500000032463639314237362D464236372D344334
311
442D414337322D4436354442443331354237312F536368656D61732F636F72652E786D6C8550CB6E833010FC15B4770336CF44C69148F305EDA937CB38D44AB0911F553FBF3650A93DF5B4ABD999D9DDA197AFE5997D4AEB94D103E0BC844C6A6126A5E70182BFA31EB20BA3D618FF8B0699E68B1C20C1C0E86C4D580F4818
311
EDA54EA836933C40EE9CF49089676C0670E2432E3CE7C147867BE42B170F3ECB1CE73B8FD110D47448D514DDD45D490B6C3C9DDAB2BA56A86B1A82EA11BFA0BE25156AAEA4BBDDBAB11DFB861649CCA857CBCF766125F77202464ADCA1B243A47EC3F88CEB73D9BCD322311975DEC69F8FA5E93B60AFDB9D8E16FBEC8F6758
311
A7FF3D83D2BE2287E7AE70C0703C711B305AA48C62D9028C35E5C9BE01504B0304140006080800C259F84AA10120D203010000D70100002D00000032463639314237362D464236372D344334442D414337322D4436354442443331354237312F636F72652E786D6C9551CB6EC32010FC15C41DC738B669234C54C7CA17F4D4
311
1B351B0725068B47D5CF2FC4AED4DEDAD3A261667767961F3FE73BFA00E7B5351DA645891198D12A6DA60EC770214F181D0577D6861F348C8C9CA1C319C6824FCEC66583466B02988C1AAB6003A5F710301AEFE9D1613F5E6196858C2131FCAD58E478931314B4587982073D7F4B47073280C2A22A2923252355FD4AE981D6
311
87B279E3BBCC143C6A13F6D5360CE67750C82E2159C2A2E1BBF537B1A2561B47ABB4A3BE6870A9F1B97DA63D6BC9B96F19A94FF5405E4EAC2243DB0CFDB0A74DCF686A92C482FBE052325B939CC15FE5ABF097B3B8A87F3A5B151E8BBCCFC3B2E0BB1C732A8F1BA49A4F22BE00504B0304140006080800C259F84A87EDAD86
311
07010000B201000008000000636F72652E786D6C8D50CB6EC32010FC15B4776CE36712612239CD1FF4D41B35C445B1C13210B57F5F88A9D4DE7A5A3433BB330C3D7F2E337AC8CD2AA37B20590148EAD108A5A71EBCBBE103A033A39B31EE970C90E68BEC21C2C0E8B419BF266834DA491D516D844C20B7563A40E31C1E3DD8
311
F1432E3CE3DE0585BD672B1FEF7C9219C9761DA34E2D3FABE326B993025859900E171D2EEB57424EA43E15CD1BCDA39251EF9548564A047775537203361C8F6D515D2ADC354D89EB81BCE0435B56B8B994DDF5DA0DED7068681E9719B56E0B7F4E47424E872C7F445F9AEF14A3EFC6CC4910420964F4FC05ACA07924FE84F6
311
ABF84768A55D55A683FB86054642A027118C6383613CEB0D33B6CDBE01504B01021400140006080800C259F84A028B7827DB000000200100004F000000000000000000000000000000000032463639314237362D464236372D344334442D414337322D4436354442443331354237312F4173736574446174612F446566696E
311
6974696F6E4974657261746F7250726F706572746965732E62696E504B01021400140006080800C259F84A35E34863080100003002000045000000000000000000000000004801000032463639314237362D464236372D344334442D414337322D4436354442443331354237312F4173736574446174612F496E7374616E63
311
6550726F706572746965732E62696E504B01021400140006080800C259F84A28BB58AF800100009E0500003D00000000000000000000000000B302000032463639314237362D464236372D344334442D414337322D4436354442443331354237312F536368656D61732F436F6D6D6F6E536368656D612E786D6C504B010214
311
00140006080800C259F84A2CCEBD668A040000E01200003E000000000000000000000000008E04000032463639314237362D464236372D344334442D414337322D4436354442443331354237312F536368656D61732F47656E65726963536368656D612E786D6C504B01021400140006080800C259F84A6180134D5F010000
311
6B03000045000000000000000000000000007409000032463639314237362D464236372D344334442D414337322D4436354442443331354237312F536368656D61732F52656E6465724D6174657269616C536368656D612E786D6C504B01021400140006080800C259F84AFDDEB2C451000000570000004700000000000000
311
000000000000360B000032463639314237362D464236372D344334442D414337322D4436354442443331354237312F4173736574446174612F41737365745461626C654F66436F6E74656E74732E62696E504B01021400140006080800C259F84AF865834058000000680000004500000000000000000000000000EC0B0000
311
32463639314237362D464236372D344334442D414337322D4436354442443331354237312F4173736574446174612F53747265616D56657273696F6E5461626C652E696E66504B01021400140006080800C259F84A79BED7C8350100009A0400003600000000000000000000000000A70C000032463639314237362D464236
311
372D344334442D414337322D4436354442443331354237312F4173736574446174612F636E782E786D6C504B01021400140006080800C259F84AC9EE5992080100004F0300003400000000000000000000000000300E000032463639314237362D464236372D344334442D414337322D4436354442443331354237312F5363
311
68656D61732F636E782E786D6C504B01021400140006080800C259F84A410A3D5871000000A40000002C000000000000000000000000008A0F000032463639314237362D464236372D344334442D414337322D4436354442443331354237312F636E782E786D6C504B01021400140006080800C259F84AD94D484E7E000000
311
A3000000070000000000000000000000000045100000636E782E786D6C504B01021400140006080800C259F84A16E99B5DA6000000350100001300000000000000000000000000E81000005B436F6E74656E745F54797065735D2E786D6C504B01021400140006080800C259F84A3DEE336E64000000790000001B00000000
311
000000000000000000BF1100006175746F6465736B2D64657369676E2D7061636B6167652E786D6C504B01021400140006080800C259F84A3ADA5C6DF80000009601000037000000000000000000000000005C12000032463639314237362D464236372D344334442D414337322D4436354442443331354237312F41737365
311
74446174612F636F72652E786D6C504B01021400140006080800C259F84A9CE85C99F7000000940100003500000000000000000000000000A913000032463639314237362D464236372D344334442D414337322D4436354442443331354237312F536368656D61732F636F72652E786D6C504B01021400140006080800C259
311
F84AA10120D203010000D70100002D00000000000000000000000000F314000032463639314237362D464236372D344334442D414337322D4436354442443331354237312F636F72652E786D6C504B01021400140006080800C259F84A87EDAD8607010000B2010000080000000000000000000000000041160000636F7265
311
2E786D6C504B050600000000110011005A0600006E1700000000
310
504B0304140006080800C259F84A000000000000000000000000370000006662782F41373436334439442D344436462D343132422D423736392D4545314443363844333945362F617474726962757465732E62696E504B0304140006080800C259F84A000000000000000000000000350000006662782F4137343633443944
310
2D344436462D343132422D423736392D4545314443363844333945362F76657274696365732E62696E504B0304140006080800C259F84AF270F1330600000004000000360000006662782F41373436334439442D344436462D343132422D423736392D4545314443363844333945362F747269616E676C65732E62696E6366
310
60600000504B0304140006080800C259F84A51464CB48900000043010000360000006662782F41373436334439442D344436462D343132422D423736392D4545314443363844333945362F6469726563746F72792E786D6C9D8F310EC2300C45AF127987122606C71DD918B841D4B851A43646695A717C52A85029031293A5
310
A76FBF6FACEF7DA7264E43906840EF0FA03836E242F406C6DCEE4EA06AC22492573150D1F66C60C640E8938CB705396EEDD86DE9B5042FE27813D640EA63BB001C722AF6E55CB61E4863F58284D5D3F53DD715CE1C3985E63FD7F1B7EBDD617E9F1E504B0304140006080800C259F84A914D97D8330700001A1C0000340000
310
006662782F41373436334439442D344436462D343132422D423736392D4545314443363844333945362F6F626A656374732E786D6CDD59596FDB3810FE2B84F65997AFC485E3C2F111188BB4458D2EF64DA065DAE1863A404939F6D7EF90226551916DA50750AC03C432450D67BEB947938F2F11434F846734896F2CDFF12C
310
44E230D9D1F8706315F9DEBEB6D0C7299AF024C96BFB2C14E388DC5862D99A4E0E3C2952B5B4237B5CB0E6EAEAF66F94852426160A19CEB21B2B0B1F48841D5CE4C98E648FCE0EE7D839EC5F1CDF29379A640F1CA70F8DA352CC499C03ABB01E0315C5816FFE0491DCE9C4151B8C6DFD6EDB7A67B6B9527093511A67398EC3
310
375C358EEB9DE0AA715CDF1F2C96BDE1D81E0E067D7B30EAF9F6EDEA7661FB577D6F3E9ACFC7B3E5D842D3C9364958A58094C43BD0E2AB35F527AEB85389AF5068E33B4CE298840ACDB60D3BA2E8529235313180F5A568358594B2D616FA1D853FB1AD1328064B06DA5A38FD5DB7DE64FB0F809075B1529E1161E559CE41D7
310
0AFBD21FBC895BAE1A7AA1198A704E38C50C31BAE5988382606BA920838CF016410A09CCA41635BD3AAF60D8977DA98DCB7DC198F05F6B2A3D2D007F24792639A3FF127EE4BE7E1AF004D21634CEAF95B0F96B0A24C613572E96F7FA3D75B30412ED193E80B580986253BFD7C06B2E62C17A614DFF5C6D5F36223EB41F9EF2
310
24253C1796279D59F99DD660CDB4C0F83A8052E26AEAEE88CA5780FE13205FF18226A0394E5F062F032D3BC771B64F7804DA411EB23DF8E72171F9E66AE2560F4F113262E5294CC16D7F12A68618C6D93548A7932730FA84F795709B1033B0E97B1A0B3F0743412C812588F7FBED8B355D43308545780A33901EFE26AEB844
310
F055D28178D3D0505BF8EDA028ED304D3F3BEAEA0E6C86D3B0529521E3297C873F05DFD962F3E7A6E07B1C927BE5D80BB2A731CD2199B63364806EB8FCB7F527E991772CD962767CDAD814C2318744C48D16B56C945A90D40B7022D270A919B9724FC1DB19C331498A4CADB7C5A93061090FB6AF41E9C2AD67FDA56DA03C4C
310
19406B2C83E41E729A0A4CACA9D25615089D9AA06061982B0B3C945A0DB6459406384A8A5884DAB7A6D8E403E28CB044A02AA969C3D65EABC9EEE87E5F6410BC5A49CE0D20953F6BC2A5850F208EB5F1CBC99E6348A2491C50C8C1E02CAD27180754E09DE739236C1F50C68A28D85306792488707A827E4709EA99EB91BC3E
310
277CD74AD0B42CED93DA8604E00A580D92CE5665CC573AE5E4898A3253E6339D0D8C1DAA0EB5A68313E942648A1640B5314A33F766B3E1E26AB1B4E7DED8B707DE7065CF665ECFBE9AAD06F3D162B95A8C974D3E75B4AAE73B50A528730CFFCB1F8A681B63CAE086101BEFD20F1F65F6BC712134BA4BEFB63F1BF9637B79B5
310
84B387D743FBDAEF8FECF9D5B2375F2DC7CB6B6FE6729225050F49E6F65C2FD02699C687535C69EEDEC650286B2E273BADAFA630FFE318DACC0986127FD7205AC5AE9682B06B10158F3643280E1F458A0A42A8FA5ADDA711449B7CB4C5B977C665CFE97BF2E3FBE39E37EE5D8F4795B19F0DD4F29C1F8E736D1284D0771679
310
90A438A4797B426DE0D2314EBF2BB7387D7F88009DEA7F75C8F93CA30E0968840F24D863D125B404C64B12B4E6B0034BB28CC624935DDE9BEAAF41D373A09832736E8B11D22C88488EBFC7FE64DBD0B06988CD2C807E341713818B554165D0AA0339455174BF90B8A5FCAF4186A394959DEE250CFC9E8640F7386D16279816
310
473C81BD05380FBC1D91838B4BD42BF6757DD0AAB526F5F177933F018FAE6B7E213CFA88EEA59333F4C7E2730D416534F4FB575A1197B0D247E5A28F6305749EE16BF04CE8E1A153A1D94D27B592AD2CAA7312411B8BF38277F2D7D1D07B73908A0B0D87A89DF4CEE250F66FBA8303F4640377AABCAD1D0375288D61CED549
310
903752B49AB0D4859CE989D1D53BFCFAACB2EB547F385EFEF28AB9EE7C911CFE5CC601AAE53200ABE863D4D4AD55B7510F65CF380F21906EE4B77D0B1EB123BB636366906B2BD1757D7AA97A5E8B801AC1C4168B387B2F2ED8570CAA86EE3973EFCAA2CD2DD7D722B139309C3EF261306DD2FA7CB769508195CE4F7F111891
310
E70605B53A17DDF01952DFD6C79EBF414149F46D7DE6F1DFA2A3D00AAC8DD1601A9C258CC2509EECD0812490BD61ECD0A1DBE011C9645606E355414ABF11E8F0F4533953CDF196E9A7C3070C8369A67AB12284A12864CC1B4BADA33F600C2A26917238E53C421BA66298850A4E6F2CB0D89C42B7E56C619C258787927A635C
310
098E8DE383C8F7E553D5EFE363021D884A47B9AA3D5D70519219CE04856D2ADF1340D557DE984EBE5F74CD0EC2395C6E8BBC12E6B870944681A05F0894C2C1D4EF51C1FB0205C579B97C47EE3120E934993F6B0725553BC7FC20C7EB35BC678B2FAE988CAF3FA3941507A1CE73DDAF41C9165D372BCA29D4040C4389996251
310
43CE3FB85F7802AF9822B4A26004EE3C89A224563F66EA1515DA3CC00BA79DAB877DD0C07BFED095FDBF1AE8075B9C1107EFB2475800A5722AA6A225B886EAAB385A53BDD685D0023C66EC5F2F90AA8A6AB3917AC015C0C8693E0217126F7184C3D437D4468FE005C095BC79BCD00B1397C3F87BFA1F504B03041400060808
310
00C259F84ABCC7A8D13E01000046050000300000006662782F41373436334439442D344436462D343132422D423736392D4545314443363844333945362F636E782E786D6CCD94CF4A033110C65F25E4BE7F522A95924DC1834FE041BC65B3D335369B2CC944ECDB9BD4B42A52F150A8B730F906BEDFCCC7F0CDDB64C82BF8
310
A09DED28AB5B4AC02A37683B7634E2B6BAA56423B8770EBFC828B172828EE632157CF42ECEA534C0564693AB46DB5D294A44AFFB881028514686D0D1A09E6192B58CE80608BB7A90286B567B082E7A05A91FF504A55F79900803158B96ADAA76552D960F8CADD972DDDE3CF1262B05EF9D3345AF2D827733512E3D6C32D3F2
310
267F0B1EBD2E9A4C40C5A7B3BAD79637E95FF090DCDAB1E8703F67DD3C1BAD24A631354E216095442027DE7C88056F32EF37EAFBBBC7A30332680F0A9DDF5F6900ECDC004EC6EA9484BFF11F84BF63BBFE25E15E6BDB67618BAD8BA11ED31A525C7FEE3FA548DAD1FCBFD09F8C5D3EF3E994A056FF0FF9E8EB42C4CDE1E4A5
310
A5E70B28DE01504B0304140006080800C259F84ACDA1F93E7E000000A30000000B0000006662782F636E782E786D6C4D8CD10AC22018465F45FE7B2B9BB809EA6869EF319A1B92D3B0193D7E1ABBE8EA83C3778EE83FAB476F9B5E2E0609E4700264C33D4E2E2C12F236E30E50AF448A71FBBB010AE36A25540C4A2C29E6E7
310
8E263B8FD957EA5D78ECF0D252D668AE31D5EC8629390F786819C7C6107D659D6EB861C53856A5CCAF57B6E6D517504B0304140006080800C259F84AA6D797065F0000008200000007000000636E782E786D6C4DCB3B0E80201045D1AD90E9FD7516806B51190811670C8A61F982B1B0BAC9C97B72CA7B1037C6D3332918DA
310
1E04D2CAC69353902EDB8C20262D23F3F59B81A079470595414B17391D1F19B4730A5583A7ED43BBE4025D9592775E5ADFFA01504B0304140006080800C259F84A4FEB6A7CA0000000F4000000130000005B436F6E74656E745F54797065735D2E786D6C7D8F4B0EC2300C44AF1279DFA6B0400835ED02B8011730C16D239A
310
8F121795DB93D02D6269CFBC19BBED573B8B17C564BC53B0AB1B10E4B47F18372A5878A88E20FAAEBDBD032591BD2E299898C349CAA427B2986A1FC86565F0D122E7318E32A07EE24872DF3407A9BD63725C71C980AEBDD080CBCCE2BAE6F5D69B7110E7CD57AA146008B3D1C8F92C5954F993BB1BF787F39A89ABC491D096
310
00F9FDA2FB00504B0304140006080800C259F84A3DEE336E64000000790000001B0000006175746F6465736B2D64657369676E2D7061636B6167652E786D6C35CBC10E83200C00D05F21DCA56CA76D41FC96062B120735B69A7DBE268BB7777961F8D5AF396893C2ADB70FE7ADA196782C2DF776D7A97B5933C430F15651E5
310
469C55D70F80A4992A3ADC954792C525AE70A1E4D6AD9816CC044FEFDF01FE3FDE907802504B0304140006080800C259F84A058A4CDEFA000000960100003B0000006662782F41373436334439442D344436462D343132422D423736392D4545314443363844333945362F7265736F75726365732F636F72652E786D6C8550
310
496EC3300CFC8AC1BB6CCB4BB3405610BBCD0B7AEA4D901947482C195A8A3EBF52EC02EDA92712C3992139ECF4353FB24FB44E19DD01CD4BC8504B332A3D7510FC95EC213B71668DF1BF6890693163070906CE266BC2B241D2688F3AA1DA8CB881C239F490C9476C3A70F286B3C845F091E1EEF922E45D4C98D37CE5711682
310
1A37A91AA39BBA2AB4C02FF5BE3F946D4DDACB6B499AB7434FCEFD4B4B9A96F6C3B91AEAA1DEB1228939F36AFED92E2D0A8F23F0AAA43B52EE48D5BC537AA4CDB16C3F5891989C396FE3CFDBD2F41D708BCE042BD1B1629DFE710DCBF8BF6B50DAD7D5E6BA2A1C701A8F7C0E382B524AB13C238C3525CABF01504B03041400
310
06080800C259F84AD2C8FC97F3000000B1010000310000006662782F41373436334439442D344436462D343132422D423736392D4545314443363844333945362F636F72652E786D6C8D50CB6E833010FC15B47703060A21328E9A42BFA0A7DE2CDB2156828DFCA8FAF9B50395DA5B4E6BCDCE7866879CBE977BF625AD5346
310
0F80F31232A9B9114ACF03047F4107C84E945863FC1F1A649A2D7280040325B33561DD216EB4973AA1DA08B983CC39E921E3F7F818C0F1AB5C58CE828F0C77CB57C66F6C9639CE371E255E2DBF526E25F35200AD4ADCA1B24355F381F11137C7F2E59314894949084AEC564A44777551D2027DED9AB61EFB113563FB8E1A5C
310
9DD1B96B7B344D787C6B0F63DD4F2D29929812E76DBC79FF245DF7AC7C13FECB1C56F14466A57D5DED869BC201C531CF634149910A8CE3D16E9CA96CFA03504B0304140006080800C259F84A7392139655010000DD0200000C0000006662782F636F72652E786D6C8D525D6F832014FD2B867754FC58BB06696AB7FE823DED
310
8D2275A40A06C1F4E70FFC88F361DD6282E4DC7BCFB9E7047C7CB44D3070DD0B250B80C218045C3255095917C09A1BDC83E048B056CAFC680381A42D2F808701C1B556B69B21A6A4E1D2A352557C0669DF730302D6B84B017AF6C55B1A526B5C477F0F3BCAEEB4E6210AA73E82AD15D53C2A2AC7266E826B402EE9BE7C8DF3
310
14E697B71866EFAF253C952F39CC72549E4FC9393DA73B1CF961828D681775A63935BC022489D10EC63B98641F081D507688F34F1CF94E827BA39DE759D4BB03E4767DE068C2377CB6ABFEE6B3429A3499F9A6891E10E4D61B0B04473E1FF71BC3DB66E8845D7E865E9BC5C2DD41036746E9CC552A65D7D2401BCB1D751C8C
310
1F8EA6AA631E097EE3499EF03CE770415159BBD5A871D7AB355E7DBB53C7351CCC23904AB7B459979B565CCF556863691967AA51FA3FD38BD525CCC83F4CF20D504B0304140006080800C259F84A2FD2447C08010000B201000008000000636F72652E786D6C8D50CB6EC32010FC15B4776CF0A34E224C14BBCD17F4D41B35
310
C445B1C1021CB57F5F485CA9BDF5B4686676671876FC9C277453CE6B6B5AA01901A4CC60A536630B6BB8E01DA02367CEDAF04B06C88859B59060E06C74765D3668B02628935063A5DA40E1BD0A8086293E5AF0C3879A4526D61015FE9A2D62B88A5165347BE8380B7AFE591D9C124149E005A10D260D2EAA574A0FB43A90FA
310
8DE549C9D9BA6AB9596919DDF5452B07FC5CEEBA3DA94B5C9F9F09AE5EF61D3E754F35AE6ADAF5A7A22FFBB261795AE6CC0717FFBC1D893903F2E2967C59FEA0387BB776DA04319444D64C5FC009CB13F127F4BAC87F84D62694C576F0B1E181D318E84E44E3D4601CF77AE34C6DF36F504B01021400140006080800C259F8
310
4A0000000000000000000000003700000000000000000000000000000000006662782F41373436334439442D344436462D343132422D423736392D4545314443363844333945362F617474726962757465732E62696E504B01021400140006080800C259F84A00000000000000000000000035000000000000000000000000
310
00550000006662782F41373436334439442D344436462D343132422D423736392D4545314443363844333945362F76657274696365732E62696E504B01021400140006080800C259F84AF270F13306000000040000003600000000000000000000000000A80000006662782F41373436334439442D344436462D343132422D
310
423736392D4545314443363844333945362F747269616E676C65732E62696E504B01021400140006080800C259F84A51464CB489000000430100003600000000000000000000000000020100006662782F41373436334439442D344436462D343132422D423736392D4545314443363844333945362F6469726563746F7279
310
2E786D6C504B01021400140006080800C259F84A914D97D8330700001A1C00003400000000000000000000000000DF0100006662782F41373436334439442D344436462D343132422D423736392D4545314443363844333945362F6F626A656374732E786D6C504B01021400140006080800C259F84ABCC7A8D13E01000046
310
0500003000000000000000000000000000640900006662782F41373436334439442D344436462D343132422D423736392D4545314443363844333945362F636E782E786D6C504B01021400140006080800C259F84ACDA1F93E7E000000A30000000B00000000000000000000000000F00A00006662782F636E782E786D6C50
310
4B01021400140006080800C259F84AA6D797065F000000820000000700000000000000000000000000970B0000636E782E786D6C504B01021400140006080800C259F84A4FEB6A7CA0000000F400000013000000000000000000000000001B0C00005B436F6E74656E745F54797065735D2E786D6C504B0102140014000608
310
0800C259F84A3DEE336E64000000790000001B00000000000000000000000000EC0C00006175746F6465736B2D64657369676E2D7061636B6167652E786D6C504B01021400140006080800C259F84A058A4CDEFA000000960100003B00000000000000000000000000890D00006662782F41373436334439442D344436462D
310
343132422D423736392D4545314443363844333945362F7265736F75726365732F636F72652E786D6C504B01021400140006080800C259F84AD2C8FC97F3000000B10100003100000000000000000000000000DC0E00006662782F41373436334439442D344436462D343132422D423736392D454531444336384433394536
310
2F636F72652E786D6C504B01021400140006080800C259F84A7392139655010000DD0200000C000000000000000000000000001E1000006662782F636F72652E786D6C504B01021400140006080800C259F84A2FD2447C08010000B201000008000000000000000000000000009D110000636F72652E786D6C504B05060000
310
00000E000E0080040000CB1200000000
  0
XRECORD
  5
8712
102
{ACAD_REACTORS
330
870D
102
}
330
870D
100
AcDbXrecord
280
     1
270
     1
271
     1
  0
XRECORD
  5
8711
102
{ACAD_REACTORS
330
870D
102
}
330
870D
100
AcDbXrecord
280
     1
270
     1
271
     1
  0
XRECORD
  5
8713
102
{ACAD_REACTORS
330
870D
102
}
330
870D
100
AcDbXrecord
280
     1
270
     1
271
     1
  0
XRECORD
  5
8710
102
{ACAD_REACTORS
330
870D
102
}
330
870D
100
AcDbXrecord
280
     1
270
     1
271
     1
  0
XRECORD
  5
A8F8
102
{ACAD_REACTORS
330
A8F7
102
}
330
A8F7
100
AcDbXrecord
280
     1
102
ACAD_ROUNDTRIP_2012_MLEADER_STYLE
298
     1
  0
XRECORD
  5
A8FD
102
{ACAD_REACTORS
330
A8A5
102
}
330
A8A5
100
AcDbXrecord
280
     1
102
DISPLAYNAME
  1
Imperial24
102
FLAGS
 90
        0
  0
XRECORD
  5
A8F9
102
{ACAD_REACTORS
330
8756
102
}
330
8756
100
AcDbXrecord
280
     1
102
DISPLAYNAME
  1
Metric50
102
FLAGS
 90
        0
  0
CELLSTYLEMAP
  5
A8B3
102
{ACAD_REACTORS
330
A8B2
102
}
330
A8B2
100
AcDbCellStyleMap
 90
        3
300
CELLSTYLE
  1
TABLEFORMAT_BEGIN
 90
        5
170
     1
 91
        0
 92
    32768
 62
   257
 93
        1
300
CONTENTFORMAT
  1
CONTENTFORMAT_BEGIN
 90
        0
 91
        0
 92
      512
 93
        0
300

 40
0.0
140
1.0
 94
        5
 62
     0
340
10
144
6.0
309
CONTENTFORMAT_END
171
     1
301
MARGIN
  1
CELLMARGIN_BEGIN
 40
1.5
 40
1.5
 40
1.5
 40
1.5
 40
4.5
 40
4.5
309
CELLMARGIN_END
 94
        6
 95
        1
302
GRIDFORMAT
  1
GRIDFORMAT_BEGIN
 90
        0
 91
        1
 62
     0
 92
       -2
340
0
 93
        0
 40
1.125
309
GRIDFORMAT_END
 95
        2
302
GRIDFORMAT
  1
GRIDFORMAT_BEGIN
 90
        0
 91
        1
 62
     0
 92
       -2
340
0
 93
        0
 40
1.125
309
GRIDFORMAT_END
 95
        4
302
GRIDFORMAT
  1
GRIDFORMAT_BEGIN
 90
        0
 91
        1
 62
     0
 92
       -2
340
0
 93
        0
 40
1.125
309
GRIDFORMAT_END
 95
        8
302
GRIDFORMAT
  1
GRIDFORMAT_BEGIN
 90
        0
 91
        1
 62
     0
 92
       -2
340
0
 93
        0
 40
1.125
309
GRIDFORMAT_END
 95
       16
302
GRIDFORMAT
  1
GRIDFORMAT_BEGIN
 90
        0
 91
        1
 62
     0
 92
       -2
340
0
 93
        0
 40
1.125
309
GRIDFORMAT_END
 95
       32
302
GRIDFORMAT
  1
GRIDFORMAT_BEGIN
 90
        0
 91
        1
 62
     0
 92
       -2
340
0
 93
        0
 40
1.125
309
GRIDFORMAT_END
309
TABLEFORMAT_END
  1
CELLSTYLE_BEGIN
 90
        1
 91
        1
300
_TITLE
309
CELLSTYLE_END
300
CELLSTYLE
  1
TABLEFORMAT_BEGIN
 90
        5
170
     1
 91
        0
 92
        0
 62
   257
 93
        1
300
CONTENTFORMAT
  1
CONTENTFORMAT_BEGIN
 90
        0
 91
        0
 92
      512
 93
        0
300

 40
0.0
140
1.0
 94
        5
 62
     0
340
10
144
4.5
309
CONTENTFORMAT_END
171
     1
301
MARGIN
  1
CELLMARGIN_BEGIN
 40
1.5
 40
1.5
 40
1.5
 40
1.5
 40
4.5
 40
4.5
309
CELLMARGIN_END
 94
        6
 95
        1
302
GRIDFORMAT
  1
GRIDFORMAT_BEGIN
 90
        0
 91
        1
 62
     0
 92
       -2
340
0
 93
        0
 40
1.125
309
GRIDFORMAT_END
 95
        2
302
GRIDFORMAT
  1
GRIDFORMAT_BEGIN
 90
        0
 91
        1
 62
     0
 92
       -2
340
0
 93
        0
 40
1.125
309
GRIDFORMAT_END
 95
        4
302
GRIDFORMAT
  1
GRIDFORMAT_BEGIN
 90
        0
 91
        1
 62
     0
 92
       -2
340
0
 93
        0
 40
1.125
309
GRIDFORMAT_END
 95
        8
302
GRIDFORMAT
  1
GRIDFORMAT_BEGIN
 90
        0
 91
        1
 62
     0
 92
       -2
340
0
 93
        0
 40
1.125
309
GRIDFORMAT_END
 95
       16
302
GRIDFORMAT
  1
GRIDFORMAT_BEGIN
 90
        0
 91
        1
 62
     0
 92
       -2
340
0
 93
        0
 40
1.125
309
GRIDFORMAT_END
 95
       32
302
GRIDFORMAT
  1
GRIDFORMAT_BEGIN
 90
        0
 91
        1
 62
     0
 92
       -2
340
0
 93
        0
 40
1.125
309
GRIDFORMAT_END
309
TABLEFORMAT_END
  1
CELLSTYLE_BEGIN
 90
        2
 91
        1
300
_HEADER
309
CELLSTYLE_END
300
CELLSTYLE
  1
TABLEFORMAT_BEGIN
 90
        5
170
     1
 91
        0
 92
        0
 62
   257
 93
        1
300
CONTENTFORMAT
  1
CONTENTFORMAT_BEGIN
 90
        0
 91
        0
 92
      512
 93
        0
300

 40
0.0
140
1.0
 94
        2
 62
     0
340
10
144
4.5
309
CONTENTFORMAT_END
171
     1
301
MARGIN
  1
CELLMARGIN_BEGIN
 40
1.5
 40
1.5
 40
1.5
 40
1.5
 40
4.5
 40
4.5
309
CELLMARGIN_END
 94
        6
 95
        1
302
GRIDFORMAT
  1
GRIDFORMAT_BEGIN
 90
        0
 91
        1
 62
     0
 92
       -2
340
0
 93
        0
 40
1.125
309
GRIDFORMAT_END
 95
        2
302
GRIDFORMAT
  1
GRIDFORMAT_BEGIN
 90
        0
 91
        1
 62
     0
 92
       -2
340
0
 93
        0
 40
1.125
309
GRIDFORMAT_END
 95
        4
302
GRIDFORMAT
  1
GRIDFORMAT_BEGIN
 90
        0
 91
        1
 62
     0
 92
       -2
340
0
 93
        0
 40
1.125
309
GRIDFORMAT_END
 95
        8
302
GRIDFORMAT
  1
GRIDFORMAT_BEGIN
 90
        0
 91
        1
 62
     0
 92
       -2
340
0
 93
        0
 40
1.125
309
GRIDFORMAT_END
 95
       16
302
GRIDFORMAT
  1
GRIDFORMAT_BEGIN
 90
        0
 91
        1
 62
     0
 92
       -2
340
0
 93
        0
 40
1.125
309
GRIDFORMAT_END
 95
       32
302
GRIDFORMAT
  1
GRIDFORMAT_BEGIN
 90
        0
 91
        1
 62
     0
 92
       -2
340
0
 93
        0
 40
1.125
309
GRIDFORMAT_END
309
TABLEFORMAT_END
  1
CELLSTYLE_BEGIN
 90
        3
 91
        2
300
_DATA
309
CELLSTYLE_END
  0
XRECORD
  5
A8F5
102
{ACAD_REACTORS
330
A8B2
102
}
330
A8B2
100
AcDbXrecord
280
     1
102
ACAD_ROUNDTRIP_PRE2007_TABLESTYLE
 90
      512
 91
        0
  1

 92
      512
 93
        0
  2

 94
      512
 95
        0
  3

  0
XRECORD
  5
A8D0
102
{ACAD_REACTORS
330
A8CF
102
}
330
A8CF
100
AcDbXrecord
280
     1
102
RTVSPost2010Prop28
280
     1
102
RTVSPost2010PropOp28
 70
     1
102
RTVSPost2010Prop29
280
     1
102
RTVSPost2010PropOp29
 70
     1
102
RTVSPost2010Prop30
280
     0
102
RTVSPost2010PropOp30
 70
     1
102
RTVSPost2010Prop31
280
     0
102
RTVSPost2010PropOp31
 70
     1
102
RTVSPost2010Prop32
280
     0
102
RTVSPost2010PropOp32
 70
     1
102
RTVSPost2010Prop33
280
     0
102
RTVSPost2010PropOp33
 70
     1
102
RTVSPost2010Prop34
280
     0
102
RTVSPost2010PropOp34
 70
     1
102
RTVSPost2010Prop35
280
     0
102
RTVSPost2010PropOp35
 70
     1
102
RTVSPost2010Prop36
280
     0
102
RTVSPost2010PropOp36
 70
     1
102
RTVSPost2010Prop37
 90
       50
102
RTVSPost2010PropOp37
 70
     1
102
RTVSPost2010Prop38
140
0.0
102
RTVSPost2010PropOp38
 70
     1
102
RTVSPost2010Prop39
140
1.0
102
RTVSPost2010PropOp39
 70
     1
102
RTVSPost2010Prop40
 90
        0
102
RTVSPost2010PropOp40
 70
     1
102
RTVSPost2010Prop41ColorIndex
 90
       18
102
RTVSPost2010Prop41ColorRGB
 90
        0
102
RTVSPost2010PropOp41
 70
     1
102
RTVSPost2010Prop42
 90
       50
102
RTVSPost2010PropOp42
 70
     1
102
RTVSPost2010Prop43
 90
        3
102
RTVSPost2010PropOp43
 70
     1
102
RTVSPost2010Prop44ColorIndex
 90
        5
102
RTVSPost2010Prop44ColorRGB
 90
      255
102
RTVSPost2010PropOp44
 70
     1
102
RTVSPost2010Prop45
280
     0
102
RTVSPost2010PropOp45
 70
     1
102
RTVSPost2010Prop46
 90
       50
102
RTVSPost2010PropOp46
 70
     1
102
RTVSPost2010Prop47
 90
       50
102
RTVSPost2010PropOp47
 70
     1
102
RTVSPost2010Prop48
 90
       50
102
RTVSPost2010PropOp48
 70
     1
102
RTVSPost2010Prop49
280
     0
102
RTVSPost2010PropOp49
 70
     1
102
RTVSPost2010Prop50
 90
       50
102
RTVSPost2010PropOp50
 70
     1
102
RTVSPost2010Prop51ColorIndex
 90
      256
102
RTVSPost2010Prop51ColorRGB
 90
-16777216
102
RTVSPost2010PropOp51
 70
     0
102
RTVSPost2010Prop52
140
1.0
102
RTVSPost2010PropOp52
 70
     0
102
RTVSPost2010Prop53
 90
        2
102
RTVSPost2010PropOp53
 70
     1
102
RTVSPost2010Prop54
  1
strokes_ogs.tif
102
RTVSPost2010PropOp54
 70
     1
102
RTVSPost2010Prop55
280
     0
102
RTVSPost2010PropOp55
 70
     1
102
RTVSPost2010Prop56
140
1.0
102
RTVSPost2010PropOp56
 70
     1
102
RTVSPost2010Prop57
140
1.0
102
RTVSPost2010PropOp57
 70
     1
102
RTVSPropertyOp0
 70
     1
102
RTVSPropertyOp1
 70
     1
102
RTVSPropertyOp2
 70
     1
102
RTVSPropertyOp3
 70
     1
102
RTVSPropertyOp4
 70
     1
102
RTVSPropertyOp5
 70
     1
102
RTVSPropertyOp6
 70
     1
102
RTVSPropertyOp7
 70
     1
102
RTVSPropertyOp8
 70
     1
102
RTVSPropertyOp9
 70
     1
102
RTVSPropertyOp10
 70
     1
102
RTVSPropertyOp11
 70
     1
102
RTVSPropertyOp12
 70
     1
102
RTVSPropertyOp13
 70
     1
102
RTVSPropertyOp14
 70
     1
102
RTVSPropertyOp15
 70
     1
102
RTVSPropertyOp16
 70
     1
102
RTVSPropertyOp17
 70
     1
102
RTVSPropertyOp18
 70
     1
102
RTVSPropertyOp19
 70
     1
102
RTVSPropertyOp20
 70
     1
102
RTVSPropertyOp21
 70
     1
102
RTVSPropertyOp22
 70
     1
102
RTVSPropertyOp23
 70
     1
102
RTVSPropertyOp24
 70
     1
102
RTVSPropertyOp25
 70
     1
102
RTVSPropertyOp26
 70
     1
102
RTVSPropertyOp27
 70
     1
102
RTVSPropertyOp28
 70
     1
102
RTVSPropertyOp29
 70
     1
102
RTVSPropertyOp30
 70
     1
102
RTVSPropertyOp31
 70
     1
102
RTVSPropertyOp32
 70
     1
102
RTVSPropertyOp33
 70
     1
102
RTVSPropertyOp34
 70
     1
102
RTVSPropertyOp35
 70
     1
102
RTVSPropertyOp36
 70
     1
102
RTVSPropertyOp37
 70
     1
102
RTVSPropertyOp38
 70
     1
102
RTVSPropertyOp39
 70
     1
102
RTVSPropertyOp40
 70
     1
102
RTVSPropertyOp41
 70
     1
102
RTVSPropertyOp42
 70
     1
102
RTVSPropertyOp43
 70
     1
102
RTVSPropertyOp44
 70
     1
102
RTVSPropertyOp45
 70
     1
102
RTVSPropertyOp46
 70
     1
102
RTVSPropertyOp47
 70
     1
102
RTVSPropertyOp48
 70
     1
102
RTVSPropertyOp49
 70
     1
102
RTVSPropertyOp50
 70
     1
102
RTVSPropertyOp51
 70
     0
102
RTVSPropertyOp52
 70
     0
102
RTVSPropertyOp53
 70
     1
102
RTVSPropertyOp54
 70
     1
102
RTVSPropertyOp55
 70
     1
102
RTVSPropertyOp56
 70
     1
102
RTVSPropertyOp57
 70
     1
102
RTVSPropertyOp58
 70
     1
102
RTVSPropertyOp59
 70
     1
102
RTVSPropertyOp60
 70
     1
102
RTVSPropertyOp61
 70
     1
102
RTVSPropertyOp62
 70
     1
  0
XRECORD
  5
A8CE
102
{ACAD_REACTORS
330
A8CD
102
}
330
A8CD
100
AcDbXrecord
280
     1
102
RTVSPost2010Prop28
280
     0
102
RTVSPost2010PropOp28
 70
     1
102
RTVSPost2010Prop29
280
     1
102
RTVSPost2010PropOp29
 70
     1
102
RTVSPost2010Prop30
280
     1
102
RTVSPost2010PropOp30
 70
     1
102
RTVSPost2010Prop31
280
     0
102
RTVSPost2010PropOp31
 70
     1
102
RTVSPost2010Prop32
280
     0
102
RTVSPost2010PropOp32
 70
     1
102
RTVSPost2010Prop33
280
     0
102
RTVSPost2010PropOp33
 70
     1
102
RTVSPost2010Prop34
280
     0
102
RTVSPost2010PropOp34
 70
     1
102
RTVSPost2010Prop35
280
     0
102
RTVSPost2010PropOp35
 70
     1
102
RTVSPost2010Prop36
280
     0
102
RTVSPost2010PropOp36
 70
     1
102
RTVSPost2010Prop37
 90
       50
102
RTVSPost2010PropOp37
 70
     1
102
RTVSPost2010Prop38
140
0.0
102
RTVSPost2010PropOp38
 70
     1
102
RTVSPost2010Prop39
140
1.0
102
RTVSPost2010PropOp39
 70
     1
102
RTVSPost2010Prop40
 90
        0
102
RTVSPost2010PropOp40
 70
     1
102
RTVSPost2010Prop41ColorIndex
 90
       18
102
RTVSPost2010Prop41ColorRGB
 90
        0
102
RTVSPost2010PropOp41
 70
     1
102
RTVSPost2010Prop42
 90
       50
102
RTVSPost2010PropOp42
 70
     1
102
RTVSPost2010Prop43
 90
        3
102
RTVSPost2010PropOp43
 70
     1
102
RTVSPost2010Prop44ColorIndex
 90
        5
102
RTVSPost2010Prop44ColorRGB
 90
      255
102
RTVSPost2010PropOp44
 70
     1
102
RTVSPost2010Prop45
280
     0
102
RTVSPost2010PropOp45
 70
     1
102
RTVSPost2010Prop46
 90
       50
102
RTVSPost2010PropOp46
 70
     1
102
RTVSPost2010Prop47
 90
       50
102
RTVSPost2010PropOp47
 70
     1
102
RTVSPost2010Prop48
 90
       50
102
RTVSPost2010PropOp48
 70
     1
102
RTVSPost2010Prop49
280
     0
102
RTVSPost2010PropOp49
 70
     1
102
RTVSPost2010Prop50
 90
       50
102
RTVSPost2010PropOp50
 70
     1
102
RTVSPost2010Prop51ColorIndex
 90
      256
102
RTVSPost2010Prop51ColorRGB
 90
-16777216
102
RTVSPost2010PropOp51
 70
     0
102
RTVSPost2010Prop52
140
1.0
102
RTVSPost2010PropOp52
 70
     0
102
RTVSPost2010Prop53
 90
        2
102
RTVSPost2010PropOp53
 70
     1
102
RTVSPost2010Prop54
  1
strokes_ogs.tif
102
RTVSPost2010PropOp54
 70
     1
102
RTVSPost2010Prop55
280
     0
102
RTVSPost2010PropOp55
 70
     1
102
RTVSPost2010Prop56
140
1.0
102
RTVSPost2010PropOp56
 70
     1
102
RTVSPost2010Prop57
140
1.0
102
RTVSPost2010PropOp57
 70
     1
102
RTVSPropertyOp0
 70
     1
102
RTVSPropertyOp1
 70
     1
102
RTVSPropertyOp2
 70
     1
102
RTVSPropertyOp3
 70
     1
102
RTVSPropertyOp4
 70
     1
102
RTVSPropertyOp5
 70
     1
102
RTVSPropertyOp6
 70
     1
102
RTVSPropertyOp7
 70
     1
102
RTVSPropertyOp8
 70
     1
102
RTVSPropertyOp9
 70
     1
102
RTVSPropertyOp10
 70
     1
102
RTVSPropertyOp11
 70
     1
102
RTVSPropertyOp12
 70
     1
102
RTVSPropertyOp13
 70
     1
102
RTVSPropertyOp14
 70
     1
102
RTVSPropertyOp15
 70
     1
102
RTVSPropertyOp16
 70
     1
102
RTVSPropertyOp17
 70
     1
102
RTVSPropertyOp18
 70
     1
102
RTVSPropertyOp19
 70
     1
102
RTVSPropertyOp20
 70
     1
102
RTVSPropertyOp21
 70
     1
102
RTVSPropertyOp22
 70
     1
102
RTVSPropertyOp23
 70
     1
102
RTVSPropertyOp24
 70
     1
102
RTVSPropertyOp25
 70
     1
102
RTVSPropertyOp26
 70
     1
102
RTVSPropertyOp27
 70
     1
102
RTVSPropertyOp28
 70
     1
102
RTVSPropertyOp29
 70
     1
102
RTVSPropertyOp30
 70
     1
102
RTVSPropertyOp31
 70
     1
102
RTVSPropertyOp32
 70
     1
102
RTVSPropertyOp33
 70
     1
102
RTVSPropertyOp34
 70
     1
102
RTVSPropertyOp35
 70
     1
102
RTVSPropertyOp36
 70
     1
102
RTVSPropertyOp37
 70
     1
102
RTVSPropertyOp38
 70
     1
102
RTVSPropertyOp39
 70
     1
102
RTVSPropertyOp40
 70
     1
102
RTVSPropertyOp41
 70
     1
102
RTVSPropertyOp42
 70
     1
102
RTVSPropertyOp43
 70
     1
102
RTVSPropertyOp44
 70
     1
102
RTVSPropertyOp45
 70
     1
102
RTVSPropertyOp46
 70
     1
102
RTVSPropertyOp47
 70
     1
102
RTVSPropertyOp48
 70
     1
102
RTVSPropertyOp49
 70
     1
102
RTVSPropertyOp50
 70
     1
102
RTVSPropertyOp51
 70
     0
102
RTVSPropertyOp52
 70
     0
102
RTVSPropertyOp53
 70
     1
102
RTVSPropertyOp54
 70
     1
102
RTVSPropertyOp55
 70
     1
102
RTVSPropertyOp56
 70
     1
102
RTVSPropertyOp57
 70
     1
102
RTVSPropertyOp58
 70
     1
102
RTVSPropertyOp59
 70
     1
102
RTVSPropertyOp60
 70
     1
102
RTVSPropertyOp61
 70
     1
102
RTVSPropertyOp62
 70
     1
  0
XRECORD
  5
A8DC
102
{ACAD_REACTORS
330
A8DB
102
}
330
A8DB
100
AcDbXrecord
280
     1
102
RTVSPost2010Prop28
280
     0
102
RTVSPost2010PropOp28
 70
     1
102
RTVSPost2010Prop29
280
     1
102
RTVSPost2010PropOp29
 70
     1
102
RTVSPost2010Prop30
280
     1
102
RTVSPost2010PropOp30
 70
     1
102
RTVSPost2010Prop31
280
     0
102
RTVSPost2010PropOp31
 70
     1
102
RTVSPost2010Prop32
280
     0
102
RTVSPost2010PropOp32
 70
     1
102
RTVSPost2010Prop33
280
     0
102
RTVSPost2010PropOp33
 70
     1
102
RTVSPost2010Prop34
280
     0
102
RTVSPost2010PropOp34
 70
     1
102
RTVSPost2010Prop35
280
     0
102
RTVSPost2010PropOp35
 70
     1
102
RTVSPost2010Prop36
280
     0
102
RTVSPost2010PropOp36
 70
     1
102
RTVSPost2010Prop37
 90
       50
102
RTVSPost2010PropOp37
 70
     1
102
RTVSPost2010Prop38
140
0.0
102
RTVSPost2010PropOp38
 70
     1
102
RTVSPost2010Prop39
140
1.0
102
RTVSPost2010PropOp39
 70
     1
102
RTVSPost2010Prop40
 90
        0
102
RTVSPost2010PropOp40
 70
     1
102
RTVSPost2010Prop41ColorIndex
 90
       18
102
RTVSPost2010Prop41ColorRGB
 90
        0
102
RTVSPost2010PropOp41
 70
     1
102
RTVSPost2010Prop42
 90
       50
102
RTVSPost2010PropOp42
 70
     1
102
RTVSPost2010Prop43
 90
        3
102
RTVSPost2010PropOp43
 70
     1
102
RTVSPost2010Prop44ColorIndex
 90
        5
102
RTVSPost2010Prop44ColorRGB
 90
      255
102
RTVSPost2010PropOp44
 70
     1
102
RTVSPost2010Prop45
280
     0
102
RTVSPost2010PropOp45
 70
     1
102
RTVSPost2010Prop46
 90
       50
102
RTVSPost2010PropOp46
 70
     1
102
RTVSPost2010Prop47
 90
       50
102
RTVSPost2010PropOp47
 70
     1
102
RTVSPost2010Prop48
 90
       50
102
RTVSPost2010PropOp48
 70
     1
102
RTVSPost2010Prop49
280
     0
102
RTVSPost2010PropOp49
 70
     1
102
RTVSPost2010Prop50
 90
       50
102
RTVSPost2010PropOp50
 70
     1
102
RTVSPost2010Prop51ColorIndex
 90
      256
102
RTVSPost2010Prop51ColorRGB
 90
-16777216
102
RTVSPost2010PropOp51
 70
     0
102
RTVSPost2010Prop52
140
1.0
102
RTVSPost2010PropOp52
 70
     0
102
RTVSPost2010Prop53
 90
        2
102
RTVSPost2010PropOp53
 70
     1
102
RTVSPost2010Prop54
  1
strokes_ogs.tif
102
RTVSPost2010PropOp54
 70
     1
102
RTVSPost2010Prop55
280
     0
102
RTVSPost2010PropOp55
 70
     1
102
RTVSPost2010Prop56
140
1.0
102
RTVSPost2010PropOp56
 70
     1
102
RTVSPost2010Prop57
140
1.0
102
RTVSPost2010PropOp57
 70
     1
102
RTVSPropertyOp0
 70
     1
102
RTVSPropertyOp1
 70
     1
102
RTVSPropertyOp2
 70
     1
102
RTVSPropertyOp3
 70
     1
102
RTVSPropertyOp4
 70
     1
102
RTVSPropertyOp5
 70
     1
102
RTVSPropertyOp6
 70
     1
102
RTVSPropertyOp7
 70
     1
102
RTVSPropertyOp8
 70
     1
102
RTVSPropertyOp9
 70
     1
102
RTVSPropertyOp10
 70
     1
102
RTVSPropertyOp11
 70
     1
102
RTVSPropertyOp12
 70
     1
102
RTVSPropertyOp13
 70
     1
102
RTVSPropertyOp14
 70
     1
102
RTVSPropertyOp15
 70
     1
102
RTVSPropertyOp16
 70
     1
102
RTVSPropertyOp17
 70
     1
102
RTVSPropertyOp18
 70
     1
102
RTVSPropertyOp19
 70
     1
102
RTVSPropertyOp20
 70
     1
102
RTVSPropertyOp21
 70
     1
102
RTVSPropertyOp22
 70
     1
102
RTVSPropertyOp23
 70
     1
102
RTVSPropertyOp24
 70
     1
102
RTVSPropertyOp25
 70
     1
102
RTVSPropertyOp26
 70
     1
102
RTVSPropertyOp27
 70
     1
102
RTVSPropertyOp28
 70
     1
102
RTVSPropertyOp29
 70
     1
102
RTVSPropertyOp30
 70
     1
102
RTVSPropertyOp31
 70
     1
102
RTVSPropertyOp32
 70
     1
102
RTVSPropertyOp33
 70
     1
102
RTVSPropertyOp34
 70
     1
102
RTVSPropertyOp35
 70
     1
102
RTVSPropertyOp36
 70
     1
102
RTVSPropertyOp37
 70
     1
102
RTVSPropertyOp38
 70
     1
102
RTVSPropertyOp39
 70
     1
102
RTVSPropertyOp40
 70
     1
102
RTVSPropertyOp41
 70
     1
102
RTVSPropertyOp42
 70
     1
102
RTVSPropertyOp43
 70
     1
102
RTVSPropertyOp44
 70
     1
102
RTVSPropertyOp45
 70
     1
102
RTVSPropertyOp46
 70
     1
102
RTVSPropertyOp47
 70
     1
102
RTVSPropertyOp48
 70
     1
102
RTVSPropertyOp49
 70
     1
102
RTVSPropertyOp50
 70
     1
102
RTVSPropertyOp51
 70
     0
102
RTVSPropertyOp52
 70
     0
102
RTVSPropertyOp53
 70
     1
102
RTVSPropertyOp54
 70
     1
102
RTVSPropertyOp55
 70
     1
102
RTVSPropertyOp56
 70
     1
102
RTVSPropertyOp57
 70
     1
102
RTVSPropertyOp58
 70
     1
102
RTVSPropertyOp59
 70
     1
102
RTVSPropertyOp60
 70
     1
102
RTVSPropertyOp61
 70
     1
102
RTVSPropertyOp62
 70
     1
  0
XRECORD
  5
A8E4
102
{ACAD_REACTORS
330
A8E3
102
}
330
A8E3
100
AcDbXrecord
280
     1
102
RTVSPost2010Prop28
280
     0
102
RTVSPost2010PropOp28
 70
     1
102
RTVSPost2010Prop29
280
     1
102
RTVSPost2010PropOp29
 70
     1
102
RTVSPost2010Prop30
280
     1
102
RTVSPost2010PropOp30
 70
     1
102
RTVSPost2010Prop31
280
     0
102
RTVSPost2010PropOp31
 70
     1
102
RTVSPost2010Prop32
280
     0
102
RTVSPost2010PropOp32
 70
     1
102
RTVSPost2010Prop33
280
     0
102
RTVSPost2010PropOp33
 70
     1
102
RTVSPost2010Prop34
280
     0
102
RTVSPost2010PropOp34
 70
     1
102
RTVSPost2010Prop35
280
     0
102
RTVSPost2010PropOp35
 70
     1
102
RTVSPost2010Prop36
280
     0
102
RTVSPost2010PropOp36
 70
     1
102
RTVSPost2010Prop37
 90
       50
102
RTVSPost2010PropOp37
 70
     1
102
RTVSPost2010Prop38
140
0.0
102
RTVSPost2010PropOp38
 70
     1
102
RTVSPost2010Prop39
140
1.0
102
RTVSPost2010PropOp39
 70
     1
102
RTVSPost2010Prop40
 90
        0
102
RTVSPost2010PropOp40
 70
     1
102
RTVSPost2010Prop41ColorIndex
 90
       18
102
RTVSPost2010Prop41ColorRGB
 90
        0
102
RTVSPost2010PropOp41
 70
     1
102
RTVSPost2010Prop42
 90
       50
102
RTVSPost2010PropOp42
 70
     1
102
RTVSPost2010Prop43
 90
        3
102
RTVSPost2010PropOp43
 70
     1
102
RTVSPost2010Prop44ColorIndex
 90
        5
102
RTVSPost2010Prop44ColorRGB
 90
      255
102
RTVSPost2010PropOp44
 70
     1
102
RTVSPost2010Prop45
280
     0
102
RTVSPost2010PropOp45
 70
     1
102
RTVSPost2010Prop46
 90
       50
102
RTVSPost2010PropOp46
 70
     1
102
RTVSPost2010Prop47
 90
       50
102
RTVSPost2010PropOp47
 70
     1
102
RTVSPost2010Prop48
 90
       50
102
RTVSPost2010PropOp48
 70
     1
102
RTVSPost2010Prop49
280
     0
102
RTVSPost2010PropOp49
 70
     1
102
RTVSPost2010Prop50
 90
       50
102
RTVSPost2010PropOp50
 70
     1
102
RTVSPost2010Prop51ColorIndex
 90
      256
102
RTVSPost2010Prop51ColorRGB
 90
-16777216
102
RTVSPost2010PropOp51
 70
     0
102
RTVSPost2010Prop52
140
1.0
102
RTVSPost2010PropOp52
 70
     0
102
RTVSPost2010Prop53
 90
        2
102
RTVSPost2010PropOp53
 70
     1
102
RTVSPost2010Prop54
  1
strokes_ogs.tif
102
RTVSPost2010PropOp54
 70
     1
102
RTVSPost2010Prop55
280
     0
102
RTVSPost2010PropOp55
 70
     1
102
RTVSPost2010Prop56
140
1.0
102
RTVSPost2010PropOp56
 70
     1
102
RTVSPost2010Prop57
140
1.0
102
RTVSPost2010PropOp57
 70
     1
102
RTVSPropertyOp0
 70
     1
102
RTVSPropertyOp1
 70
     1
102
RTVSPropertyOp2
 70
     1
102
RTVSPropertyOp3
 70
     1
102
RTVSPropertyOp4
 70
     1
102
RTVSPropertyOp5
 70
     1
102
RTVSPropertyOp6
 70
     1
102
RTVSPropertyOp7
 70
     1
102
RTVSPropertyOp8
 70
     1
102
RTVSPropertyOp9
 70
     1
102
RTVSPropertyOp10
 70
     1
102
RTVSPropertyOp11
 70
     1
102
RTVSPropertyOp12
 70
     1
102
RTVSPropertyOp13
 70
     1
102
RTVSPropertyOp14
 70
     1
102
RTVSPropertyOp15
 70
     1
102
RTVSPropertyOp16
 70
     1
102
RTVSPropertyOp17
 70
     1
102
RTVSPropertyOp18
 70
     1
102
RTVSPropertyOp19
 70
     1
102
RTVSPropertyOp20
 70
     1
102
RTVSPropertyOp21
 70
     1
102
RTVSPropertyOp22
 70
     1
102
RTVSPropertyOp23
 70
     1
102
RTVSPropertyOp24
 70
     1
102
RTVSPropertyOp25
 70
     1
102
RTVSPropertyOp26
 70
     1
102
RTVSPropertyOp27
 70
     1
102
RTVSPropertyOp28
 70
     1
102
RTVSPropertyOp29
 70
     1
102
RTVSPropertyOp30
 70
     1
102
RTVSPropertyOp31
 70
     1
102
RTVSPropertyOp32
 70
     1
102
RTVSPropertyOp33
 70
     1
102
RTVSPropertyOp34
 70
     1
102
RTVSPropertyOp35
 70
     1
102
RTVSPropertyOp36
 70
     1
102
RTVSPropertyOp37
 70
     1
102
RTVSPropertyOp38
 70
     1
102
RTVSPropertyOp39
 70
     1
102
RTVSPropertyOp40
 70
     1
102
RTVSPropertyOp41
 70
     1
102
RTVSPropertyOp42
 70
     1
102
RTVSPropertyOp43
 70
     1
102
RTVSPropertyOp44
 70
     1
102
RTVSPropertyOp45
 70
     1
102
RTVSPropertyOp46
 70
     1
102
RTVSPropertyOp47
 70
     1
102
RTVSPropertyOp48
 70
     1
102
RTVSPropertyOp49
 70
     1
102
RTVSPropertyOp50
 70
     1
102
RTVSPropertyOp51
 70
     0
102
RTVSPropertyOp52
 70
     0
102
RTVSPropertyOp53
 70
     1
102
RTVSPropertyOp54
 70
     1
102
RTVSPropertyOp55
 70
     1
102
RTVSPropertyOp56
 70
     1
102
RTVSPropertyOp57
 70
     1
102
RTVSPropertyOp58
 70
     1
102
RTVSPropertyOp59
 70
     1
102
RTVSPropertyOp60
 70
     1
102
RTVSPropertyOp61
 70
     1
102
RTVSPropertyOp62
 70
     1
  0
XRECORD
  5
A8D6
102
{ACAD_REACTORS
330
A8D5
102
}
330
A8D5
100
AcDbXrecord
280
     1
102
RTVSPost2010Prop28
280
     0
102
RTVSPost2010PropOp28
 70
     1
102
RTVSPost2010Prop29
280
     1
102
RTVSPost2010PropOp29
 70
     1
102
RTVSPost2010Prop30
280
     1
102
RTVSPost2010PropOp30
 70
     1
102
RTVSPost2010Prop31
280
     0
102
RTVSPost2010PropOp31
 70
     1
102
RTVSPost2010Prop32
280
     0
102
RTVSPost2010PropOp32
 70
     1
102
RTVSPost2010Prop33
280
     0
102
RTVSPost2010PropOp33
 70
     1
102
RTVSPost2010Prop34
280
     0
102
RTVSPost2010PropOp34
 70
     1
102
RTVSPost2010Prop35
280
     0
102
RTVSPost2010PropOp35
 70
     1
102
RTVSPost2010Prop36
280
     0
102
RTVSPost2010PropOp36
 70
     1
102
RTVSPost2010Prop37
 90
       50
102
RTVSPost2010PropOp37
 70
     1
102
RTVSPost2010Prop38
140
0.0
102
RTVSPost2010PropOp38
 70
     1
102
RTVSPost2010Prop39
140
1.0
102
RTVSPost2010PropOp39
 70
     1
102
RTVSPost2010Prop40
 90
        0
102
RTVSPost2010PropOp40
 70
     1
102
RTVSPost2010Prop41ColorIndex
 90
       18
102
RTVSPost2010Prop41ColorRGB
 90
        0
102
RTVSPost2010PropOp41
 70
     1
102
RTVSPost2010Prop42
 90
       50
102
RTVSPost2010PropOp42
 70
     1
102
RTVSPost2010Prop43
 90
        3
102
RTVSPost2010PropOp43
 70
     1
102
RTVSPost2010Prop44ColorIndex
 90
        5
102
RTVSPost2010Prop44ColorRGB
 90
      255
102
RTVSPost2010PropOp44
 70
     1
102
RTVSPost2010Prop45
280
     0
102
RTVSPost2010PropOp45
 70
     1
102
RTVSPost2010Prop46
 90
       50
102
RTVSPost2010PropOp46
 70
     1
102
RTVSPost2010Prop47
 90
       50
102
RTVSPost2010PropOp47
 70
     1
102
RTVSPost2010Prop48
 90
       50
102
RTVSPost2010PropOp48
 70
     1
102
RTVSPost2010Prop49
280
     0
102
RTVSPost2010PropOp49
 70
     1
102
RTVSPost2010Prop50
 90
       50
102
RTVSPost2010PropOp50
 70
     1
102
RTVSPost2010Prop51ColorIndex
 90
      256
102
RTVSPost2010Prop51ColorRGB
 90
-16777216
102
RTVSPost2010PropOp51
 70
     0
102
RTVSPost2010Prop52
140
1.0
102
RTVSPost2010PropOp52
 70
     0
102
RTVSPost2010Prop53
 90
        2
102
RTVSPost2010PropOp53
 70
     1
102
RTVSPost2010Prop54
  1
strokes_ogs.tif
102
RTVSPost2010PropOp54
 70
     1
102
RTVSPost2010Prop55
280
     0
102
RTVSPost2010PropOp55
 70
     1
102
RTVSPost2010Prop56
140
1.0
102
RTVSPost2010PropOp56
 70
     1
102
RTVSPost2010Prop57
140
1.0
102
RTVSPost2010PropOp57
 70
     1
102
RTVSPropertyOp0
 70
     1
102
RTVSPropertyOp1
 70
     1
102
RTVSPropertyOp2
 70
     1
102
RTVSPropertyOp3
 70
     1
102
RTVSPropertyOp4
 70
     1
102
RTVSPropertyOp5
 70
     1
102
RTVSPropertyOp6
 70
     1
102
RTVSPropertyOp7
 70
     1
102
RTVSPropertyOp8
 70
     1
102
RTVSPropertyOp9
 70
     1
102
RTVSPropertyOp10
 70
     1
102
RTVSPropertyOp11
 70
     1
102
RTVSPropertyOp12
 70
     1
102
RTVSPropertyOp13
 70
     1
102
RTVSPropertyOp14
 70
     1
102
RTVSPropertyOp15
 70
     1
102
RTVSPropertyOp16
 70
     1
102
RTVSPropertyOp17
 70
     1
102
RTVSPropertyOp18
 70
     1
102
RTVSPropertyOp19
 70
     1
102
RTVSPropertyOp20
 70
     1
102
RTVSPropertyOp21
 70
     1
102
RTVSPropertyOp22
 70
     1
102
RTVSPropertyOp23
 70
     1
102
RTVSPropertyOp24
 70
     1
102
RTVSPropertyOp25
 70
     1
102
RTVSPropertyOp26
 70
     1
102
RTVSPropertyOp27
 70
     1
102
RTVSPropertyOp28
 70
     1
102
RTVSPropertyOp29
 70
     1
102
RTVSPropertyOp30
 70
     1
102
RTVSPropertyOp31
 70
     1
102
RTVSPropertyOp32
 70
     1
102
RTVSPropertyOp33
 70
     1
102
RTVSPropertyOp34
 70
     1
102
RTVSPropertyOp35
 70
     1
102
RTVSPropertyOp36
 70
     1
102
RTVSPropertyOp37
 70
     1
102
RTVSPropertyOp38
 70
     1
102
RTVSPropertyOp39
 70
     1
102
RTVSPropertyOp40
 70
     1
102
RTVSPropertyOp41
 70
     1
102
RTVSPropertyOp42
 70
     1
102
RTVSPropertyOp43
 70
     1
102
RTVSPropertyOp44
 70
     1
102
RTVSPropertyOp45
 70
     1
102
RTVSPropertyOp46
 70
     1
102
RTVSPropertyOp47
 70
     1
102
RTVSPropertyOp48
 70
     1
102
RTVSPropertyOp49
 70
     1
102
RTVSPropertyOp50
 70
     1
102
RTVSPropertyOp51
 70
     0
102
RTVSPropertyOp52
 70
     0
102
RTVSPropertyOp53
 70
     1
102
RTVSPropertyOp54
 70
     1
102
RTVSPropertyOp55
 70
     1
102
RTVSPropertyOp56
 70
     1
102
RTVSPropertyOp57
 70
     1
102
RTVSPropertyOp58
 70
     1
102
RTVSPropertyOp59
 70
     1
102
RTVSPropertyOp60
 70
     1
102
RTVSPropertyOp61
 70
     1
102
RTVSPropertyOp62
 70
     1
  0
XRECORD
  5
A8DA
102
{ACAD_REACTORS
330
A8D9
102
}
330
A8D9
100
AcDbXrecord
280
     1
102
RTVSPost2010Prop28
280
     0
102
RTVSPost2010PropOp28
 70
     1
102
RTVSPost2010Prop29
280
     1
102
RTVSPost2010PropOp29
 70
     1
102
RTVSPost2010Prop30
280
     1
102
RTVSPost2010PropOp30
 70
     1
102
RTVSPost2010Prop31
280
     0
102
RTVSPost2010PropOp31
 70
     1
102
RTVSPost2010Prop32
280
     0
102
RTVSPost2010PropOp32
 70
     1
102
RTVSPost2010Prop33
280
     0
102
RTVSPost2010PropOp33
 70
     1
102
RTVSPost2010Prop34
280
     0
102
RTVSPost2010PropOp34
 70
     1
102
RTVSPost2010Prop35
280
     0
102
RTVSPost2010PropOp35
 70
     1
102
RTVSPost2010Prop36
280
     0
102
RTVSPost2010PropOp36
 70
     1
102
RTVSPost2010Prop37
 90
       50
102
RTVSPost2010PropOp37
 70
     1
102
RTVSPost2010Prop38
140
0.0
102
RTVSPost2010PropOp38
 70
     1
102
RTVSPost2010Prop39
140
1.0
102
RTVSPost2010PropOp39
 70
     1
102
RTVSPost2010Prop40
 90
        0
102
RTVSPost2010PropOp40
 70
     1
102
RTVSPost2010Prop41ColorIndex
 90
       18
102
RTVSPost2010Prop41ColorRGB
 90
        0
102
RTVSPost2010PropOp41
 70
     1
102
RTVSPost2010Prop42
 90
       50
102
RTVSPost2010PropOp42
 70
     1
102
RTVSPost2010Prop43
 90
        3
102
RTVSPost2010PropOp43
 70
     1
102
RTVSPost2010Prop44ColorIndex
 90
        5
102
RTVSPost2010Prop44ColorRGB
 90
      255
102
RTVSPost2010PropOp44
 70
     1
102
RTVSPost2010Prop45
280
     0
102
RTVSPost2010PropOp45
 70
     1
102
RTVSPost2010Prop46
 90
       50
102
RTVSPost2010PropOp46
 70
     1
102
RTVSPost2010Prop47
 90
       50
102
RTVSPost2010PropOp47
 70
     1
102
RTVSPost2010Prop48
 90
       50
102
RTVSPost2010PropOp48
 70
     1
102
RTVSPost2010Prop49
280
     0
102
RTVSPost2010PropOp49
 70
     1
102
RTVSPost2010Prop50
 90
       50
102
RTVSPost2010PropOp50
 70
     1
102
RTVSPost2010Prop51ColorIndex
 90
      256
102
RTVSPost2010Prop51ColorRGB
 90
-16777216
102
RTVSPost2010PropOp51
 70
     0
102
RTVSPost2010Prop52
140
1.0
102
RTVSPost2010PropOp52
 70
     0
102
RTVSPost2010Prop53
 90
        2
102
RTVSPost2010PropOp53
 70
     1
102
RTVSPost2010Prop54
  1
strokes_ogs.tif
102
RTVSPost2010PropOp54
 70
     1
102
RTVSPost2010Prop55
280
     0
102
RTVSPost2010PropOp55
 70
     1
102
RTVSPost2010Prop56
140
1.0
102
RTVSPost2010PropOp56
 70
     1
102
RTVSPost2010Prop57
140
1.0
102
RTVSPost2010PropOp57
 70
     1
102
RTVSPropertyOp0
 70
     1
102
RTVSPropertyOp1
 70
     1
102
RTVSPropertyOp2
 70
     1
102
RTVSPropertyOp3
 70
     1
102
RTVSPropertyOp4
 70
     1
102
RTVSPropertyOp5
 70
     1
102
RTVSPropertyOp6
 70
     1
102
RTVSPropertyOp7
 70
     1
102
RTVSPropertyOp8
 70
     1
102
RTVSPropertyOp9
 70
     1
102
RTVSPropertyOp10
 70
     1
102
RTVSPropertyOp11
 70
     1
102
RTVSPropertyOp12
 70
     1
102
RTVSPropertyOp13
 70
     1
102
RTVSPropertyOp14
 70
     1
102
RTVSPropertyOp15
 70
     1
102
RTVSPropertyOp16
 70
     1
102
RTVSPropertyOp17
 70
     1
102
RTVSPropertyOp18
 70
     1
102
RTVSPropertyOp19
 70
     1
102
RTVSPropertyOp20
 70
     1
102
RTVSPropertyOp21
 70
     1
102
RTVSPropertyOp22
 70
     1
102
RTVSPropertyOp23
 70
     1
102
RTVSPropertyOp24
 70
     1
102
RTVSPropertyOp25
 70
     1
102
RTVSPropertyOp26
 70
     1
102
RTVSPropertyOp27
 70
     1
102
RTVSPropertyOp28
 70
     1
102
RTVSPropertyOp29
 70
     1
102
RTVSPropertyOp30
 70
     1
102
RTVSPropertyOp31
 70
     1
102
RTVSPropertyOp32
 70
     1
102
RTVSPropertyOp33
 70
     1
102
RTVSPropertyOp34
 70
     1
102
RTVSPropertyOp35
 70
     1
102
RTVSPropertyOp36
 70
     1
102
RTVSPropertyOp37
 70
     1
102
RTVSPropertyOp38
 70
     1
102
RTVSPropertyOp39
 70
     1
102
RTVSPropertyOp40
 70
     1
102
RTVSPropertyOp41
 70
     1
102
RTVSPropertyOp42
 70
     1
102
RTVSPropertyOp43
 70
     1
102
RTVSPropertyOp44
 70
     1
102
RTVSPropertyOp45
 70
     1
102
RTVSPropertyOp46
 70
     1
102
RTVSPropertyOp47
 70
     1
102
RTVSPropertyOp48
 70
     1
102
RTVSPropertyOp49
 70
     1
102
RTVSPropertyOp50
 70
     1
102
RTVSPropertyOp51
 70
     0
102
RTVSPropertyOp52
 70
     0
102
RTVSPropertyOp53
 70
     1
102
RTVSPropertyOp54
 70
     1
102
RTVSPropertyOp55
 70
     1
102
RTVSPropertyOp56
 70
     1
102
RTVSPropertyOp57
 70
     1
102
RTVSPropertyOp58
 70
     1
102
RTVSPropertyOp59
 70
     1
102
RTVSPropertyOp60
 70
     1
102
RTVSPropertyOp61
 70
     1
102
RTVSPropertyOp62
 70
     1
  0
XRECORD
  5
A8F4
102
{ACAD_REACTORS
330
A8F3
102
}
330
A8F3
100
AcDbXrecord
280
     1
102
RTVSPost2010Prop28
280
     0
102
RTVSPost2010PropOp28
 70
     0
102
RTVSPost2010Prop29
280
     1
102
RTVSPost2010PropOp29
 70
     0
102
RTVSPost2010Prop30
280
     1
102
RTVSPost2010PropOp30
 70
     0
102
RTVSPost2010Prop31
280
     0
102
RTVSPost2010PropOp31
 70
     0
102
RTVSPost2010Prop32
280
     0
102
RTVSPost2010PropOp32
 70
     0
102
RTVSPost2010Prop33
280
     0
102
RTVSPost2010PropOp33
 70
     0
102
RTVSPost2010Prop34
280
     0
102
RTVSPost2010PropOp34
 70
     0
102
RTVSPost2010Prop35
280
     0
102
RTVSPost2010PropOp35
 70
     0
102
RTVSPost2010Prop36
280
     0
102
RTVSPost2010PropOp36
 70
     0
102
RTVSPost2010Prop37
 90
       50
102
RTVSPost2010PropOp37
 70
     0
102
RTVSPost2010Prop38
140
0.0
102
RTVSPost2010PropOp38
 70
     0
102
RTVSPost2010Prop39
140
1.0
102
RTVSPost2010PropOp39
 70
     0
102
RTVSPost2010Prop40
 90
        0
102
RTVSPost2010PropOp40
 70
     0
102
RTVSPost2010Prop41ColorIndex
 90
       18
102
RTVSPost2010Prop41ColorRGB
 90
        0
102
RTVSPost2010PropOp41
 70
     0
102
RTVSPost2010Prop42
 90
       50
102
RTVSPost2010PropOp42
 70
     0
102
RTVSPost2010Prop43
 90
        3
102
RTVSPost2010PropOp43
 70
     0
102
RTVSPost2010Prop44ColorIndex
 90
        5
102
RTVSPost2010Prop44ColorRGB
 90
      255
102
RTVSPost2010PropOp44
 70
     0
102
RTVSPost2010Prop45
280
     0
102
RTVSPost2010PropOp45
 70
     0
102
RTVSPost2010Prop46
 90
       50
102
RTVSPost2010PropOp46
 70
     0
102
RTVSPost2010Prop47
 90
       50
102
RTVSPost2010PropOp47
 70
     0
102
RTVSPost2010Prop48
 90
       50
102
RTVSPost2010PropOp48
 70
     0
102
RTVSPost2010Prop49
280
     0
102
RTVSPost2010PropOp49
 70
     0
102
RTVSPost2010Prop50
 90
       50
102
RTVSPost2010PropOp50
 70
     0
102
RTVSPost2010Prop51ColorIndex
 90
      256
102
RTVSPost2010Prop51ColorRGB
 90
-16777216
102
RTVSPost2010PropOp51
 70
     0
102
RTVSPost2010Prop52
140
1.0
102
RTVSPost2010PropOp52
 70
     0
102
RTVSPost2010Prop53
 90
        2
102
RTVSPost2010PropOp53
 70
     0
102
RTVSPost2010Prop54
  1
strokes_ogs.tif
102
RTVSPost2010PropOp54
 70
     0
102
RTVSPost2010Prop55
280
     0
102
RTVSPost2010PropOp55
 70
     0
102
RTVSPost2010Prop56
140
1.0
102
RTVSPost2010PropOp56
 70
     0
102
RTVSPost2010Prop57
140
1.0
102
RTVSPost2010PropOp57
 70
     0
102
RTVSPropertyOp0
 70
     0
102
RTVSPropertyOp1
 70
     0
102
RTVSPropertyOp2
 70
     0
102
RTVSPropertyOp3
 70
     0
102
RTVSPropertyOp4
 70
     0
102
RTVSPropertyOp5
 70
     0
102
RTVSPropertyOp6
 70
     0
102
RTVSPropertyOp7
 70
     0
102
RTVSPropertyOp8
 70
     0
102
RTVSPropertyOp9
 70
     0
102
RTVSPropertyOp10
 70
     0
102
RTVSPropertyOp11
 70
     0
102
RTVSPropertyOp12
 70
     0
102
RTVSPropertyOp13
 70
     0
102
RTVSPropertyOp14
 70
     2
102
RTVSPropertyOp15
 70
     0
102
RTVSPropertyOp16
 70
     0
102
RTVSPropertyOp17
 70
     0
102
RTVSPropertyOp18
 70
     0
102
RTVSPropertyOp19
 70
     0
102
RTVSPropertyOp20
 70
     0
102
RTVSPropertyOp21
 70
     0
102
RTVSPropertyOp22
 70
     0
102
RTVSPropertyOp23
 70
     0
102
RTVSPropertyOp24
 70
     0
102
RTVSPropertyOp25
 70
     0
102
RTVSPropertyOp26
 70
     0
102
RTVSPropertyOp27
 70
     0
102
RTVSPropertyOp28
 70
     0
102
RTVSPropertyOp29
 70
     0
102
RTVSPropertyOp30
 70
     0
102
RTVSPropertyOp31
 70
     0
102
RTVSPropertyOp32
 70
     0
102
RTVSPropertyOp33
 70
     0
102
RTVSPropertyOp34
 70
     0
102
RTVSPropertyOp35
 70
     0
102
RTVSPropertyOp36
 70
     0
102
RTVSPropertyOp37
 70
     0
102
RTVSPropertyOp38
 70
     0
102
RTVSPropertyOp39
 70
     0
102
RTVSPropertyOp40
 70
     0
102
RTVSPropertyOp41
 70
     0
102
RTVSPropertyOp42
 70
     0
102
RTVSPropertyOp43
 70
     0
102
RTVSPropertyOp44
 70
     0
102
RTVSPropertyOp45
 70
     0
102
RTVSPropertyOp46
 70
     0
102
RTVSPropertyOp47
 70
     0
102
RTVSPropertyOp48
 70
     0
102
RTVSPropertyOp49
 70
     0
102
RTVSPropertyOp50
 70
     0
102
RTVSPropertyOp51
 70
     0
102
RTVSPropertyOp52
 70
     0
102
RTVSPropertyOp53
 70
     0
102
RTVSPropertyOp54
 70
     0
102
RTVSPropertyOp55
 70
     0
102
RTVSPropertyOp56
 70
     0
102
RTVSPropertyOp57
 70
     0
102
RTVSPropertyOp58
 70
     1
102
RTVSPropertyOp59
 70
     1
102
RTVSPropertyOp60
 70
     1
102
RTVSPropertyOp61
 70
     1
102
RTVSPropertyOp62
 70
     1
  0
XRECORD
  5
A8E2
102
{ACAD_REACTORS
330
A8E1
102
}
330
A8E1
100
AcDbXrecord
280
     1
102
RTVSPost2010Prop28
280
     0
102
RTVSPost2010PropOp28
 70
     1
102
RTVSPost2010Prop29
280
     1
102
RTVSPost2010PropOp29
 70
     1
102
RTVSPost2010Prop30
280
     1
102
RTVSPost2010PropOp30
 70
     1
102
RTVSPost2010Prop31
280
     0
102
RTVSPost2010PropOp31
 70
     1
102
RTVSPost2010Prop32
280
     0
102
RTVSPost2010PropOp32
 70
     1
102
RTVSPost2010Prop33
280
     0
102
RTVSPost2010PropOp33
 70
     1
102
RTVSPost2010Prop34
280
     0
102
RTVSPost2010PropOp34
 70
     1
102
RTVSPost2010Prop35
280
     0
102
RTVSPost2010PropOp35
 70
     1
102
RTVSPost2010Prop36
280
     0
102
RTVSPost2010PropOp36
 70
     1
102
RTVSPost2010Prop37
 90
       50
102
RTVSPost2010PropOp37
 70
     1
102
RTVSPost2010Prop38
140
0.0
102
RTVSPost2010PropOp38
 70
     1
102
RTVSPost2010Prop39
140
1.0
102
RTVSPost2010PropOp39
 70
     1
102
RTVSPost2010Prop40
 90
        0
102
RTVSPost2010PropOp40
 70
     1
102
RTVSPost2010Prop41ColorIndex
 90
       18
102
RTVSPost2010Prop41ColorRGB
 90
        0
102
RTVSPost2010PropOp41
 70
     1
102
RTVSPost2010Prop42
 90
       50
102
RTVSPost2010PropOp42
 70
     1
102
RTVSPost2010Prop43
 90
        3
102
RTVSPost2010PropOp43
 70
     1
102
RTVSPost2010Prop44ColorIndex
 90
        5
102
RTVSPost2010Prop44ColorRGB
 90
      255
102
RTVSPost2010PropOp44
 70
     1
102
RTVSPost2010Prop45
280
     0
102
RTVSPost2010PropOp45
 70
     1
102
RTVSPost2010Prop46
 90
       50
102
RTVSPost2010PropOp46
 70
     1
102
RTVSPost2010Prop47
 90
       50
102
RTVSPost2010PropOp47
 70
     1
102
RTVSPost2010Prop48
 90
       50
102
RTVSPost2010PropOp48
 70
     1
102
RTVSPost2010Prop49
280
     0
102
RTVSPost2010PropOp49
 70
     1
102
RTVSPost2010Prop50
 90
       50
102
RTVSPost2010PropOp50
 70
     1
102
RTVSPost2010Prop51ColorIndex
 90
      256
102
RTVSPost2010Prop51ColorRGB
 90
-16777216
102
RTVSPost2010PropOp51
 70
     0
102
RTVSPost2010Prop52
140
1.0
102
RTVSPost2010PropOp52
 70
     0
102
RTVSPost2010Prop53
 90
        2
102
RTVSPost2010PropOp53
 70
     1
102
RTVSPost2010Prop54
  1
strokes_ogs.tif
102
RTVSPost2010PropOp54
 70
     1
102
RTVSPost2010Prop55
280
     0
102
RTVSPost2010PropOp55
 70
     1
102
RTVSPost2010Prop56
140
1.0
102
RTVSPost2010PropOp56
 70
     1
102
RTVSPost2010Prop57
140
1.0
102
RTVSPost2010PropOp57
 70
     1
102
RTVSPropertyOp0
 70
     1
102
RTVSPropertyOp1
 70
     1
102
RTVSPropertyOp2
 70
     1
102
RTVSPropertyOp3
 70
     1
102
RTVSPropertyOp4
 70
     1
102
RTVSPropertyOp5
 70
     1
102
RTVSPropertyOp6
 70
     1
102
RTVSPropertyOp7
 70
     1
102
RTVSPropertyOp8
 70
     1
102
RTVSPropertyOp9
 70
     1
102
RTVSPropertyOp10
 70
     1
102
RTVSPropertyOp11
 70
     1
102
RTVSPropertyOp12
 70
     1
102
RTVSPropertyOp13
 70
     1
102
RTVSPropertyOp14
 70
     1
102
RTVSPropertyOp15
 70
     1
102
RTVSPropertyOp16
 70
     1
102
RTVSPropertyOp17
 70
     1
102
RTVSPropertyOp18
 70
     1
102
RTVSPropertyOp19
 70
     1
102
RTVSPropertyOp20
 70
     1
102
RTVSPropertyOp21
 70
     1
102
RTVSPropertyOp22
 70
     1
102
RTVSPropertyOp23
 70
     1
102
RTVSPropertyOp24
 70
     1
102
RTVSPropertyOp25
 70
     1
102
RTVSPropertyOp26
 70
     1
102
RTVSPropertyOp27
 70
     1
102
RTVSPropertyOp28
 70
     1
102
RTVSPropertyOp29
 70
     1
102
RTVSPropertyOp30
 70
     1
102
RTVSPropertyOp31
 70
     1
102
RTVSPropertyOp32
 70
     1
102
RTVSPropertyOp33
 70
     1
102
RTVSPropertyOp34
 70
     1
102
RTVSPropertyOp35
 70
     1
102
RTVSPropertyOp36
 70
     1
102
RTVSPropertyOp37
 70
     1
102
RTVSPropertyOp38
 70
     1
102
RTVSPropertyOp39
 70
     1
102
RTVSPropertyOp40
 70
     1
102
RTVSPropertyOp41
 70
     1
102
RTVSPropertyOp42
 70
     1
102
RTVSPropertyOp43
 70
     1
102
RTVSPropertyOp44
 70
     1
102
RTVSPropertyOp45
 70
     1
102
RTVSPropertyOp46
 70
     1
102
RTVSPropertyOp47
 70
     1
102
RTVSPropertyOp48
 70
     1
102
RTVSPropertyOp49
 70
     1
102
RTVSPropertyOp50
 70
     1
102
RTVSPropertyOp51
 70
     0
102
RTVSPropertyOp52
 70
     0
102
RTVSPropertyOp53
 70
     1
102
RTVSPropertyOp54
 70
     1
102
RTVSPropertyOp55
 70
     1
102
RTVSPropertyOp56
 70
     1
102
RTVSPropertyOp57
 70
     1
102
RTVSPropertyOp58
 70
     1
102
RTVSPropertyOp59
 70
     1
102
RTVSPropertyOp60
 70
     1
102
RTVSPropertyOp61
 70
     1
102
RTVSPropertyOp62
 70
     1
  0
XRECORD
  5
A8C6
102
{ACAD_REACTORS
330
A8C5
102
}
330
A8C5
100
AcDbXrecord
280
     1
102
RTVSPost2010Prop28
280
     0
102
RTVSPost2010PropOp28
 70
     1
102
RTVSPost2010Prop29
280
     1
102
RTVSPost2010PropOp29
 70
     1
102
RTVSPost2010Prop30
280
     1
102
RTVSPost2010PropOp30
 70
     1
102
RTVSPost2010Prop31
280
     0
102
RTVSPost2010PropOp31
 70
     1
102
RTVSPost2010Prop32
280
     0
102
RTVSPost2010PropOp32
 70
     1
102
RTVSPost2010Prop33
280
     0
102
RTVSPost2010PropOp33
 70
     1
102
RTVSPost2010Prop34
280
     0
102
RTVSPost2010PropOp34
 70
     1
102
RTVSPost2010Prop35
280
     0
102
RTVSPost2010PropOp35
 70
     1
102
RTVSPost2010Prop36
280
     0
102
RTVSPost2010PropOp36
 70
     1
102
RTVSPost2010Prop37
 90
       50
102
RTVSPost2010PropOp37
 70
     1
102
RTVSPost2010Prop38
140
0.0
102
RTVSPost2010PropOp38
 70
     1
102
RTVSPost2010Prop39
140
1.0
102
RTVSPost2010PropOp39
 70
     1
102
RTVSPost2010Prop40
 90
        0
102
RTVSPost2010PropOp40
 70
     1
102
RTVSPost2010Prop41ColorIndex
 90
       18
102
RTVSPost2010Prop41ColorRGB
 90
        0
102
RTVSPost2010PropOp41
 70
     1
102
RTVSPost2010Prop42
 90
       50
102
RTVSPost2010PropOp42
 70
     1
102
RTVSPost2010Prop43
 90
        3
102
RTVSPost2010PropOp43
 70
     1
102
RTVSPost2010Prop44ColorIndex
 90
        5
102
RTVSPost2010Prop44ColorRGB
 90
      255
102
RTVSPost2010PropOp44
 70
     1
102
RTVSPost2010Prop45
280
     0
102
RTVSPost2010PropOp45
 70
     1
102
RTVSPost2010Prop46
 90
       50
102
RTVSPost2010PropOp46
 70
     1
102
RTVSPost2010Prop47
 90
       50
102
RTVSPost2010PropOp47
 70
     1
102
RTVSPost2010Prop48
 90
       50
102
RTVSPost2010PropOp48
 70
     1
102
RTVSPost2010Prop49
280
     0
102
RTVSPost2010PropOp49
 70
     1
102
RTVSPost2010Prop50
 90
       50
102
RTVSPost2010PropOp50
 70
     1
102
RTVSPost2010Prop51ColorIndex
 90
      256
102
RTVSPost2010Prop51ColorRGB
 90
-16777216
102
RTVSPost2010PropOp51
 70
     0
102
RTVSPost2010Prop52
140
1.0
102
RTVSPost2010PropOp52
 70
     0
102
RTVSPost2010Prop53
 90
        2
102
RTVSPost2010PropOp53
 70
     1
102
RTVSPost2010Prop54
  1
strokes_ogs.tif
102
RTVSPost2010PropOp54
 70
     1
102
RTVSPost2010Prop55
280
     0
102
RTVSPost2010PropOp55
 70
     1
102
RTVSPost2010Prop56
140
1.0
102
RTVSPost2010PropOp56
 70
     1
102
RTVSPost2010Prop57
140
1.0
102
RTVSPost2010PropOp57
 70
     1
102
RTVSPropertyOp0
 70
     1
102
RTVSPropertyOp1
 70
     1
102
RTVSPropertyOp2
 70
     1
102
RTVSPropertyOp3
 70
     1
102
RTVSPropertyOp4
 70
     1
102
RTVSPropertyOp5
 70
     1
102
RTVSPropertyOp6
 70
     1
102
RTVSPropertyOp7
 70
     1
102
RTVSPropertyOp8
 70
     1
102
RTVSPropertyOp9
 70
     1
102
RTVSPropertyOp10
 70
     1
102
RTVSPropertyOp11
 70
     1
102
RTVSPropertyOp12
 70
     1
102
RTVSPropertyOp13
 70
     1
102
RTVSPropertyOp14
 70
     1
102
RTVSPropertyOp15
 70
     1
102
RTVSPropertyOp16
 70
     1
102
RTVSPropertyOp17
 70
     1
102
RTVSPropertyOp18
 70
     1
102
RTVSPropertyOp19
 70
     1
102
RTVSPropertyOp20
 70
     1
102
RTVSPropertyOp21
 70
     1
102
RTVSPropertyOp22
 70
     1
102
RTVSPropertyOp23
 70
     1
102
RTVSPropertyOp24
 70
     1
102
RTVSPropertyOp25
 70
     1
102
RTVSPropertyOp26
 70
     1
102
RTVSPropertyOp27
 70
     1
102
RTVSPropertyOp28
 70
     1
102
RTVSPropertyOp29
 70
     1
102
RTVSPropertyOp30
 70
     1
102
RTVSPropertyOp31
 70
     1
102
RTVSPropertyOp32
 70
     1
102
RTVSPropertyOp33
 70
     1
102
RTVSPropertyOp34
 70
     1
102
RTVSPropertyOp35
 70
     1
102
RTVSPropertyOp36
 70
     1
102
RTVSPropertyOp37
 70
     1
102
RTVSPropertyOp38
 70
     1
102
RTVSPropertyOp39
 70
     1
102
RTVSPropertyOp40
 70
     1
102
RTVSPropertyOp41
 70
     1
102
RTVSPropertyOp42
 70
     1
102
RTVSPropertyOp43
 70
     1
102
RTVSPropertyOp44
 70
     1
102
RTVSPropertyOp45
 70
     1
102
RTVSPropertyOp46
 70
     1
102
RTVSPropertyOp47
 70
     1
102
RTVSPropertyOp48
 70
     1
102
RTVSPropertyOp49
 70
     1
102
RTVSPropertyOp50
 70
     1
102
RTVSPropertyOp51
 70
     0
102
RTVSPropertyOp52
 70
     0
102
RTVSPropertyOp53
 70
     1
102
RTVSPropertyOp54
 70
     1
102
RTVSPropertyOp55
 70
     1
102
RTVSPropertyOp56
 70
     1
102
RTVSPropertyOp57
 70
     1
102
RTVSPropertyOp58
 70
     1
102
RTVSPropertyOp59
 70
     1
102
RTVSPropertyOp60
 70
     1
102
RTVSPropertyOp61
 70
     1
102
RTVSPropertyOp62
 70
     1
  0
XRECORD
  5
A8C8
102
{ACAD_REACTORS
330
A8C7
102
}
330
A8C7
100
AcDbXrecord
280
     1
102
RTVSPost2010Prop28
280
     0
102
RTVSPost2010PropOp28
 70
     1
102
RTVSPost2010Prop29
280
     1
102
RTVSPost2010PropOp29
 70
     1
102
RTVSPost2010Prop30
280
     1
102
RTVSPost2010PropOp30
 70
     1
102
RTVSPost2010Prop31
280
     0
102
RTVSPost2010PropOp31
 70
     1
102
RTVSPost2010Prop32
280
     0
102
RTVSPost2010PropOp32
 70
     1
102
RTVSPost2010Prop33
280
     0
102
RTVSPost2010PropOp33
 70
     1
102
RTVSPost2010Prop34
280
     0
102
RTVSPost2010PropOp34
 70
     1
102
RTVSPost2010Prop35
280
     0
102
RTVSPost2010PropOp35
 70
     1
102
RTVSPost2010Prop36
280
     0
102
RTVSPost2010PropOp36
 70
     1
102
RTVSPost2010Prop37
 90
       50
102
RTVSPost2010PropOp37
 70
     1
102
RTVSPost2010Prop38
140
0.0
102
RTVSPost2010PropOp38
 70
     1
102
RTVSPost2010Prop39
140
1.0
102
RTVSPost2010PropOp39
 70
     1
102
RTVSPost2010Prop40
 90
        0
102
RTVSPost2010PropOp40
 70
     1
102
RTVSPost2010Prop41ColorIndex
 90
       18
102
RTVSPost2010Prop41ColorRGB
 90
        0
102
RTVSPost2010PropOp41
 70
     1
102
RTVSPost2010Prop42
 90
       50
102
RTVSPost2010PropOp42
 70
     1
102
RTVSPost2010Prop43
 90
        3
102
RTVSPost2010PropOp43
 70
     1
102
RTVSPost2010Prop44ColorIndex
 90
        5
102
RTVSPost2010Prop44ColorRGB
 90
      255
102
RTVSPost2010PropOp44
 70
     1
102
RTVSPost2010Prop45
280
     0
102
RTVSPost2010PropOp45
 70
     1
102
RTVSPost2010Prop46
 90
       50
102
RTVSPost2010PropOp46
 70
     1
102
RTVSPost2010Prop47
 90
       50
102
RTVSPost2010PropOp47
 70
     1
102
RTVSPost2010Prop48
 90
       50
102
RTVSPost2010PropOp48
 70
     1
102
RTVSPost2010Prop49
280
     0
102
RTVSPost2010PropOp49
 70
     1
102
RTVSPost2010Prop50
 90
       50
102
RTVSPost2010PropOp50
 70
     1
102
RTVSPost2010Prop51ColorIndex
 90
      256
102
RTVSPost2010Prop51ColorRGB
 90
-16777216
102
RTVSPost2010PropOp51
 70
     0
102
RTVSPost2010Prop52
140
1.0
102
RTVSPost2010PropOp52
 70
     0
102
RTVSPost2010Prop53
 90
        2
102
RTVSPost2010PropOp53
 70
     1
102
RTVSPost2010Prop54
  1
strokes_ogs.tif
102
RTVSPost2010PropOp54
 70
     1
102
RTVSPost2010Prop55
280
     0
102
RTVSPost2010PropOp55
 70
     1
102
RTVSPost2010Prop56
140
1.0
102
RTVSPost2010PropOp56
 70
     1
102
RTVSPost2010Prop57
140
1.0
102
RTVSPost2010PropOp57
 70
     1
102
RTVSPropertyOp0
 70
     1
102
RTVSPropertyOp1
 70
     1
102
RTVSPropertyOp2
 70
     1
102
RTVSPropertyOp3
 70
     1
102
RTVSPropertyOp4
 70
     1
102
RTVSPropertyOp5
 70
     1
102
RTVSPropertyOp6
 70
     1
102
RTVSPropertyOp7
 70
     1
102
RTVSPropertyOp8
 70
     1
102
RTVSPropertyOp9
 70
     1
102
RTVSPropertyOp10
 70
     1
102
RTVSPropertyOp11
 70
     1
102
RTVSPropertyOp12
 70
     1
102
RTVSPropertyOp13
 70
     1
102
RTVSPropertyOp14
 70
     1
102
RTVSPropertyOp15
 70
     1
102
RTVSPropertyOp16
 70
     1
102
RTVSPropertyOp17
 70
     1
102
RTVSPropertyOp18
 70
     1
102
RTVSPropertyOp19
 70
     1
102
RTVSPropertyOp20
 70
     1
102
RTVSPropertyOp21
 70
     1
102
RTVSPropertyOp22
 70
     1
102
RTVSPropertyOp23
 70
     1
102
RTVSPropertyOp24
 70
     1
102
RTVSPropertyOp25
 70
     1
102
RTVSPropertyOp26
 70
     1
102
RTVSPropertyOp27
 70
     1
102
RTVSPropertyOp28
 70
     1
102
RTVSPropertyOp29
 70
     1
102
RTVSPropertyOp30
 70
     1
102
RTVSPropertyOp31
 70
     1
102
RTVSPropertyOp32
 70
     1
102
RTVSPropertyOp33
 70
     1
102
RTVSPropertyOp34
 70
     1
102
RTVSPropertyOp35
 70
     1
102
RTVSPropertyOp36
 70
     1
102
RTVSPropertyOp37
 70
     1
102
RTVSPropertyOp38
 70
     1
102
RTVSPropertyOp39
 70
     1
102
RTVSPropertyOp40
 70
     1
102
RTVSPropertyOp41
 70
     1
102
RTVSPropertyOp42
 70
     1
102
RTVSPropertyOp43
 70
     1
102
RTVSPropertyOp44
 70
     1
102
RTVSPropertyOp45
 70
     1
102
RTVSPropertyOp46
 70
     1
102
RTVSPropertyOp47
 70
     1
102
RTVSPropertyOp48
 70
     1
102
RTVSPropertyOp49
 70
     1
102
RTVSPropertyOp50
 70
     1
102
RTVSPropertyOp51
 70
     0
102
RTVSPropertyOp52
 70
     0
102
RTVSPropertyOp53
 70
     1
102
RTVSPropertyOp54
 70
     1
102
RTVSPropertyOp55
 70
     1
102
RTVSPropertyOp56
 70
     1
102
RTVSPropertyOp57
 70
     1
102
RTVSPropertyOp58
 70
     1
102
RTVSPropertyOp59
 70
     1
102
RTVSPropertyOp60
 70
     1
102
RTVSPropertyOp61
 70
     1
102
RTVSPropertyOp62
 70
     1
  0
XRECORD
  5
A8CA
102
{ACAD_REACTORS
330
A8C9
102
}
330
A8C9
100
AcDbXrecord
280
     1
102
RTVSPost2010Prop28
280
     0
102
RTVSPost2010PropOp28
 70
     1
102
RTVSPost2010Prop29
280
     1
102
RTVSPost2010PropOp29
 70
     1
102
RTVSPost2010Prop30
280
     1
102
RTVSPost2010PropOp30
 70
     1
102
RTVSPost2010Prop31
280
     0
102
RTVSPost2010PropOp31
 70
     1
102
RTVSPost2010Prop32
280
     0
102
RTVSPost2010PropOp32
 70
     1
102
RTVSPost2010Prop33
280
     0
102
RTVSPost2010PropOp33
 70
     1
102
RTVSPost2010Prop34
280
     0
102
RTVSPost2010PropOp34
 70
     1
102
RTVSPost2010Prop35
280
     0
102
RTVSPost2010PropOp35
 70
     1
102
RTVSPost2010Prop36
280
     0
102
RTVSPost2010PropOp36
 70
     1
102
RTVSPost2010Prop37
 90
       50
102
RTVSPost2010PropOp37
 70
     1
102
RTVSPost2010Prop38
140
0.0
102
RTVSPost2010PropOp38
 70
     1
102
RTVSPost2010Prop39
140
1.0
102
RTVSPost2010PropOp39
 70
     1
102
RTVSPost2010Prop40
 90
        0
102
RTVSPost2010PropOp40
 70
     1
102
RTVSPost2010Prop41ColorIndex
 90
       18
102
RTVSPost2010Prop41ColorRGB
 90
        0
102
RTVSPost2010PropOp41
 70
     1
102
RTVSPost2010Prop42
 90
       50
102
RTVSPost2010PropOp42
 70
     1
102
RTVSPost2010Prop43
 90
        3
102
RTVSPost2010PropOp43
 70
     1
102
RTVSPost2010Prop44ColorIndex
 90
        5
102
RTVSPost2010Prop44ColorRGB
 90
      255
102
RTVSPost2010PropOp44
 70
     1
102
RTVSPost2010Prop45
280
     0
102
RTVSPost2010PropOp45
 70
     1
102
RTVSPost2010Prop46
 90
       50
102
RTVSPost2010PropOp46
 70
     1
102
RTVSPost2010Prop47
 90
       50
102
RTVSPost2010PropOp47
 70
     1
102
RTVSPost2010Prop48
 90
       50
102
RTVSPost2010PropOp48
 70
     1
102
RTVSPost2010Prop49
280
     0
102
RTVSPost2010PropOp49
 70
     1
102
RTVSPost2010Prop50
 90
       50
102
RTVSPost2010PropOp50
 70
     1
102
RTVSPost2010Prop51ColorIndex
 90
      256
102
RTVSPost2010Prop51ColorRGB
 90
-16777216
102
RTVSPost2010PropOp51
 70
     0
102
RTVSPost2010Prop52
140
1.0
102
RTVSPost2010PropOp52
 70
     0
102
RTVSPost2010Prop53
 90
        2
102
RTVSPost2010PropOp53
 70
     1
102
RTVSPost2010Prop54
  1
strokes_ogs.tif
102
RTVSPost2010PropOp54
 70
     1
102
RTVSPost2010Prop55
280
     0
102
RTVSPost2010PropOp55
 70
     1
102
RTVSPost2010Prop56
140
1.0
102
RTVSPost2010PropOp56
 70
     1
102
RTVSPost2010Prop57
140
1.0
102
RTVSPost2010PropOp57
 70
     1
102
RTVSPropertyOp0
 70
     1
102
RTVSPropertyOp1
 70
     1
102
RTVSPropertyOp2
 70
     1
102
RTVSPropertyOp3
 70
     1
102
RTVSPropertyOp4
 70
     1
102
RTVSPropertyOp5
 70
     1
102
RTVSPropertyOp6
 70
     1
102
RTVSPropertyOp7
 70
     1
102
RTVSPropertyOp8
 70
     1
102
RTVSPropertyOp9
 70
     1
102
RTVSPropertyOp10
 70
     1
102
RTVSPropertyOp11
 70
     1
102
RTVSPropertyOp12
 70
     1
102
RTVSPropertyOp13
 70
     1
102
RTVSPropertyOp14
 70
     1
102
RTVSPropertyOp15
 70
     1
102
RTVSPropertyOp16
 70
     1
102
RTVSPropertyOp17
 70
     1
102
RTVSPropertyOp18
 70
     1
102
RTVSPropertyOp19
 70
     1
102
RTVSPropertyOp20
 70
     1
102
RTVSPropertyOp21
 70
     1
102
RTVSPropertyOp22
 70
     1
102
RTVSPropertyOp23
 70
     1
102
RTVSPropertyOp24
 70
     1
102
RTVSPropertyOp25
 70
     1
102
RTVSPropertyOp26
 70
     1
102
RTVSPropertyOp27
 70
     1
102
RTVSPropertyOp28
 70
     1
102
RTVSPropertyOp29
 70
     1
102
RTVSPropertyOp30
 70
     1
102
RTVSPropertyOp31
 70
     1
102
RTVSPropertyOp32
 70
     1
102
RTVSPropertyOp33
 70
     1
102
RTVSPropertyOp34
 70
     1
102
RTVSPropertyOp35
 70
     1
102
RTVSPropertyOp36
 70
     1
102
RTVSPropertyOp37
 70
     1
102
RTVSPropertyOp38
 70
     1
102
RTVSPropertyOp39
 70
     1
102
RTVSPropertyOp40
 70
     1
102
RTVSPropertyOp41
 70
     1
102
RTVSPropertyOp42
 70
     1
102
RTVSPropertyOp43
 70
     1
102
RTVSPropertyOp44
 70
     1
102
RTVSPropertyOp45
 70
     1
102
RTVSPropertyOp46
 70
     1
102
RTVSPropertyOp47
 70
     1
102
RTVSPropertyOp48
 70
     1
102
RTVSPropertyOp49
 70
     1
102
RTVSPropertyOp50
 70
     1
102
RTVSPropertyOp51
 70
     0
102
RTVSPropertyOp52
 70
     0
102
RTVSPropertyOp53
 70
     1
102
RTVSPropertyOp54
 70
     1
102
RTVSPropertyOp55
 70
     1
102
RTVSPropertyOp56
 70
     1
102
RTVSPropertyOp57
 70
     1
102
RTVSPropertyOp58
 70
     1
102
RTVSPropertyOp59
 70
     1
102
RTVSPropertyOp60
 70
     1
102
RTVSPropertyOp61
 70
     1
102
RTVSPropertyOp62
 70
     1
  0
XRECORD
  5
A8CC
102
{ACAD_REACTORS
330
A8CB
102
}
330
A8CB
100
AcDbXrecord
280
     1
102
RTVSPost2010Prop28
280
     0
102
RTVSPost2010PropOp28
 70
     1
102
RTVSPost2010Prop29
280
     1
102
RTVSPost2010PropOp29
 70
     1
102
RTVSPost2010Prop30
280
     1
102
RTVSPost2010PropOp30
 70
     1
102
RTVSPost2010Prop31
280
     0
102
RTVSPost2010PropOp31
 70
     1
102
RTVSPost2010Prop32
280
     0
102
RTVSPost2010PropOp32
 70
     1
102
RTVSPost2010Prop33
280
     0
102
RTVSPost2010PropOp33
 70
     1
102
RTVSPost2010Prop34
280
     0
102
RTVSPost2010PropOp34
 70
     1
102
RTVSPost2010Prop35
280
     0
102
RTVSPost2010PropOp35
 70
     1
102
RTVSPost2010Prop36
280
     0
102
RTVSPost2010PropOp36
 70
     1
102
RTVSPost2010Prop37
 90
       50
102
RTVSPost2010PropOp37
 70
     1
102
RTVSPost2010Prop38
140
0.0
102
RTVSPost2010PropOp38
 70
     1
102
RTVSPost2010Prop39
140
1.0
102
RTVSPost2010PropOp39
 70
     1
102
RTVSPost2010Prop40
 90
        0
102
RTVSPost2010PropOp40
 70
     1
102
RTVSPost2010Prop41ColorIndex
 90
       18
102
RTVSPost2010Prop41ColorRGB
 90
        0
102
RTVSPost2010PropOp41
 70
     1
102
RTVSPost2010Prop42
 90
       50
102
RTVSPost2010PropOp42
 70
     1
102
RTVSPost2010Prop43
 90
        3
102
RTVSPost2010PropOp43
 70
     1
102
RTVSPost2010Prop44ColorIndex
 90
        5
102
RTVSPost2010Prop44ColorRGB
 90
      255
102
RTVSPost2010PropOp44
 70
     1
102
RTVSPost2010Prop45
280
     0
102
RTVSPost2010PropOp45
 70
     1
102
RTVSPost2010Prop46
 90
       50
102
RTVSPost2010PropOp46
 70
     1
102
RTVSPost2010Prop47
 90
       50
102
RTVSPost2010PropOp47
 70
     1
102
RTVSPost2010Prop48
 90
       50
102
RTVSPost2010PropOp48
 70
     1
102
RTVSPost2010Prop49
280
     0
102
RTVSPost2010PropOp49
 70
     1
102
RTVSPost2010Prop50
 90
       50
102
RTVSPost2010PropOp50
 70
     1
102
RTVSPost2010Prop51ColorIndex
 90
      256
102
RTVSPost2010Prop51ColorRGB
 90
-16777216
102
RTVSPost2010PropOp51
 70
     0
102
RTVSPost2010Prop52
140
1.0
102
RTVSPost2010PropOp52
 70
     0
102
RTVSPost2010Prop53
 90
        2
102
RTVSPost2010PropOp53
 70
     1
102
RTVSPost2010Prop54
  1
strokes_ogs.tif
102
RTVSPost2010PropOp54
 70
     1
102
RTVSPost2010Prop55
280
     0
102
RTVSPost2010PropOp55
 70
     1
102
RTVSPost2010Prop56
140
1.0
102
RTVSPost2010PropOp56
 70
     1
102
RTVSPost2010Prop57
140
1.0
102
RTVSPost2010PropOp57
 70
     1
102
RTVSPropertyOp0
 70
     1
102
RTVSPropertyOp1
 70
     1
102
RTVSPropertyOp2
 70
     1
102
RTVSPropertyOp3
 70
     1
102
RTVSPropertyOp4
 70
     1
102
RTVSPropertyOp5
 70
     1
102
RTVSPropertyOp6
 70
     1
102
RTVSPropertyOp7
 70
     1
102
RTVSPropertyOp8
 70
     1
102
RTVSPropertyOp9
 70
     1
102
RTVSPropertyOp10
 70
     1
102
RTVSPropertyOp11
 70
     1
102
RTVSPropertyOp12
 70
     1
102
RTVSPropertyOp13
 70
     1
102
RTVSPropertyOp14
 70
     1
102
RTVSPropertyOp15
 70
     1
102
RTVSPropertyOp16
 70
     1
102
RTVSPropertyOp17
 70
     1
102
RTVSPropertyOp18
 70
     1
102
RTVSPropertyOp19
 70
     1
102
RTVSPropertyOp20
 70
     1
102
RTVSPropertyOp21
 70
     1
102
RTVSPropertyOp22
 70
     1
102
RTVSPropertyOp23
 70
     1
102
RTVSPropertyOp24
 70
     1
102
RTVSPropertyOp25
 70
     1
102
RTVSPropertyOp26
 70
     1
102
RTVSPropertyOp27
 70
     1
102
RTVSPropertyOp28
 70
     1
102
RTVSPropertyOp29
 70
     1
102
RTVSPropertyOp30
 70
     1
102
RTVSPropertyOp31
 70
     1
102
RTVSPropertyOp32
 70
     1
102
RTVSPropertyOp33
 70
     1
102
RTVSPropertyOp34
 70
     1
102
RTVSPropertyOp35
 70
     1
102
RTVSPropertyOp36
 70
     1
102
RTVSPropertyOp37
 70
     1
102
RTVSPropertyOp38
 70
     1
102
RTVSPropertyOp39
 70
     1
102
RTVSPropertyOp40
 70
     1
102
RTVSPropertyOp41
 70
     1
102
RTVSPropertyOp42
 70
     1
102
RTVSPropertyOp43
 70
     1
102
RTVSPropertyOp44
 70
     1
102
RTVSPropertyOp45
 70
     1
102
RTVSPropertyOp46
 70
     1
102
RTVSPropertyOp47
 70
     1
102
RTVSPropertyOp48
 70
     1
102
RTVSPropertyOp49
 70
     1
102
RTVSPropertyOp50
 70
     1
102
RTVSPropertyOp51
 70
     0
102
RTVSPropertyOp52
 70
     0
102
RTVSPropertyOp53
 70
     1
102
RTVSPropertyOp54
 70
     1
102
RTVSPropertyOp55
 70
     1
102
RTVSPropertyOp56
 70
     1
102
RTVSPropertyOp57
 70
     1
102
RTVSPropertyOp58
 70
     1
102
RTVSPropertyOp59
 70
     1
102
RTVSPropertyOp60
 70
     1
102
RTVSPropertyOp61
 70
     1
102
RTVSPropertyOp62
 70
     1
  0
XRECORD
  5
A8D4
102
{ACAD_REACTORS
330
A8D3
102
}
330
A8D3
100
AcDbXrecord
280
     1
102
RTVSPost2010Prop28
280
     0
102
RTVSPost2010PropOp28
 70
     1
102
RTVSPost2010Prop29
280
     1
102
RTVSPost2010PropOp29
 70
     1
102
RTVSPost2010Prop30
280
     1
102
RTVSPost2010PropOp30
 70
     1
102
RTVSPost2010Prop31
280
     0
102
RTVSPost2010PropOp31
 70
     1
102
RTVSPost2010Prop32
280
     0
102
RTVSPost2010PropOp32
 70
     1
102
RTVSPost2010Prop33
280
     0
102
RTVSPost2010PropOp33
 70
     1
102
RTVSPost2010Prop34
280
     0
102
RTVSPost2010PropOp34
 70
     1
102
RTVSPost2010Prop35
280
     0
102
RTVSPost2010PropOp35
 70
     1
102
RTVSPost2010Prop36
280
     0
102
RTVSPost2010PropOp36
 70
     1
102
RTVSPost2010Prop37
 90
       50
102
RTVSPost2010PropOp37
 70
     1
102
RTVSPost2010Prop38
140
0.0
102
RTVSPost2010PropOp38
 70
     1
102
RTVSPost2010Prop39
140
1.0
102
RTVSPost2010PropOp39
 70
     1
102
RTVSPost2010Prop40
 90
        0
102
RTVSPost2010PropOp40
 70
     1
102
RTVSPost2010Prop41ColorIndex
 90
       18
102
RTVSPost2010Prop41ColorRGB
 90
        0
102
RTVSPost2010PropOp41
 70
     1
102
RTVSPost2010Prop42
 90
       50
102
RTVSPost2010PropOp42
 70
     1
102
RTVSPost2010Prop43
 90
        3
102
RTVSPost2010PropOp43
 70
     1
102
RTVSPost2010Prop44ColorIndex
 90
        5
102
RTVSPost2010Prop44ColorRGB
 90
      255
102
RTVSPost2010PropOp44
 70
     1
102
RTVSPost2010Prop45
280
     0
102
RTVSPost2010PropOp45
 70
     1
102
RTVSPost2010Prop46
 90
       50
102
RTVSPost2010PropOp46
 70
     1
102
RTVSPost2010Prop47
 90
       50
102
RTVSPost2010PropOp47
 70
     1
102
RTVSPost2010Prop48
 90
       50
102
RTVSPost2010PropOp48
 70
     1
102
RTVSPost2010Prop49
280
     0
102
RTVSPost2010PropOp49
 70
     1
102
RTVSPost2010Prop50
 90
       50
102
RTVSPost2010PropOp50
 70
     1
102
RTVSPost2010Prop51ColorIndex
 90
      256
102
RTVSPost2010Prop51ColorRGB
 90
-16777216
102
RTVSPost2010PropOp51
 70
     0
102
RTVSPost2010Prop52
140
1.0
102
RTVSPost2010PropOp52
 70
     0
102
RTVSPost2010Prop53
 90
        2
102
RTVSPost2010PropOp53
 70
     1
102
RTVSPost2010Prop54
  1
strokes_ogs.tif
102
RTVSPost2010PropOp54
 70
     1
102
RTVSPost2010Prop55
280
     0
102
RTVSPost2010PropOp55
 70
     1
102
RTVSPost2010Prop56
140
1.0
102
RTVSPost2010PropOp56
 70
     1
102
RTVSPost2010Prop57
140
1.0
102
RTVSPost2010PropOp57
 70
     1
102
RTVSPropertyOp0
 70
     1
102
RTVSPropertyOp1
 70
     1
102
RTVSPropertyOp2
 70
     1
102
RTVSPropertyOp3
 70
     1
102
RTVSPropertyOp4
 70
     1
102
RTVSPropertyOp5
 70
     1
102
RTVSPropertyOp6
 70
     1
102
RTVSPropertyOp7
 70
     1
102
RTVSPropertyOp8
 70
     1
102
RTVSPropertyOp9
 70
     1
102
RTVSPropertyOp10
 70
     1
102
RTVSPropertyOp11
 70
     1
102
RTVSPropertyOp12
 70
     1
102
RTVSPropertyOp13
 70
     1
102
RTVSPropertyOp14
 70
     1
102
RTVSPropertyOp15
 70
     1
102
RTVSPropertyOp16
 70
     1
102
RTVSPropertyOp17
 70
     1
102
RTVSPropertyOp18
 70
     1
102
RTVSPropertyOp19
 70
     1
102
RTVSPropertyOp20
 70
     1
102
RTVSPropertyOp21
 70
     1
102
RTVSPropertyOp22
 70
     1
102
RTVSPropertyOp23
 70
     1
102
RTVSPropertyOp24
 70
     1
102
RTVSPropertyOp25
 70
     1
102
RTVSPropertyOp26
 70
     1
102
RTVSPropertyOp27
 70
     1
102
RTVSPropertyOp28
 70
     1
102
RTVSPropertyOp29
 70
     1
102
RTVSPropertyOp30
 70
     1
102
RTVSPropertyOp31
 70
     1
102
RTVSPropertyOp32
 70
     1
102
RTVSPropertyOp33
 70
     1
102
RTVSPropertyOp34
 70
     1
102
RTVSPropertyOp35
 70
     1
102
RTVSPropertyOp36
 70
     1
102
RTVSPropertyOp37
 70
     1
102
RTVSPropertyOp38
 70
     1
102
RTVSPropertyOp39
 70
     1
102
RTVSPropertyOp40
 70
     1
102
RTVSPropertyOp41
 70
     1
102
RTVSPropertyOp42
 70
     1
102
RTVSPropertyOp43
 70
     1
102
RTVSPropertyOp44
 70
     1
102
RTVSPropertyOp45
 70
     1
102
RTVSPropertyOp46
 70
     1
102
RTVSPropertyOp47
 70
     1
102
RTVSPropertyOp48
 70
     1
102
RTVSPropertyOp49
 70
     1
102
RTVSPropertyOp50
 70
     1
102
RTVSPropertyOp51
 70
     0
102
RTVSPropertyOp52
 70
     0
102
RTVSPropertyOp53
 70
     1
102
RTVSPropertyOp54
 70
     1
102
RTVSPropertyOp55
 70
     1
102
RTVSPropertyOp56
 70
     1
102
RTVSPropertyOp57
 70
     1
102
RTVSPropertyOp58
 70
     1
102
RTVSPropertyOp59
 70
     1
102
RTVSPropertyOp60
 70
     1
102
RTVSPropertyOp61
 70
     1
102
RTVSPropertyOp62
 70
     1
  0
XRECORD
  5
A8F0
102
{ACAD_REACTORS
330
A8EF
102
}
330
A8EF
100
AcDbXrecord
280
     1
102
RTVSPost2010Prop28
280
     0
102
RTVSPost2010PropOp28
 70
     0
102
RTVSPost2010Prop29
280
     1
102
RTVSPost2010PropOp29
 70
     0
102
RTVSPost2010Prop30
280
     1
102
RTVSPost2010PropOp30
 70
     0
102
RTVSPost2010Prop31
280
     0
102
RTVSPost2010PropOp31
 70
     0
102
RTVSPost2010Prop32
280
     0
102
RTVSPost2010PropOp32
 70
     0
102
RTVSPost2010Prop33
280
     0
102
RTVSPost2010PropOp33
 70
     0
102
RTVSPost2010Prop34
280
     0
102
RTVSPost2010PropOp34
 70
     0
102
RTVSPost2010Prop35
280
     0
102
RTVSPost2010PropOp35
 70
     0
102
RTVSPost2010Prop36
280
     0
102
RTVSPost2010PropOp36
 70
     0
102
RTVSPost2010Prop37
 90
       50
102
RTVSPost2010PropOp37
 70
     0
102
RTVSPost2010Prop38
140
0.0
102
RTVSPost2010PropOp38
 70
     0
102
RTVSPost2010Prop39
140
1.0
102
RTVSPost2010PropOp39
 70
     0
102
RTVSPost2010Prop40
 90
        0
102
RTVSPost2010PropOp40
 70
     0
102
RTVSPost2010Prop41ColorIndex
 90
       18
102
RTVSPost2010Prop41ColorRGB
 90
        0
102
RTVSPost2010PropOp41
 70
     0
102
RTVSPost2010Prop42
 90
       50
102
RTVSPost2010PropOp42
 70
     0
102
RTVSPost2010Prop43
 90
        3
102
RTVSPost2010PropOp43
 70
     0
102
RTVSPost2010Prop44ColorIndex
 90
        5
102
RTVSPost2010Prop44ColorRGB
 90
      255
102
RTVSPost2010PropOp44
 70
     0
102
RTVSPost2010Prop45
280
     0
102
RTVSPost2010PropOp45
 70
     0
102
RTVSPost2010Prop46
 90
       50
102
RTVSPost2010PropOp46
 70
     0
102
RTVSPost2010Prop47
 90
       50
102
RTVSPost2010PropOp47
 70
     0
102
RTVSPost2010Prop48
 90
       50
102
RTVSPost2010PropOp48
 70
     0
102
RTVSPost2010Prop49
280
     0
102
RTVSPost2010PropOp49
 70
     0
102
RTVSPost2010Prop50
 90
       50
102
RTVSPost2010PropOp50
 70
     0
102
RTVSPost2010Prop51ColorIndex
 90
      256
102
RTVSPost2010Prop51ColorRGB
 90
-16777216
102
RTVSPost2010PropOp51
 70
     0
102
RTVSPost2010Prop52
140
1.0
102
RTVSPost2010PropOp52
 70
     0
102
RTVSPost2010Prop53
 90
        2
102
RTVSPost2010PropOp53
 70
     0
102
RTVSPost2010Prop54
  1
strokes_ogs.tif
102
RTVSPost2010PropOp54
 70
     0
102
RTVSPost2010Prop55
280
     0
102
RTVSPost2010PropOp55
 70
     0
102
RTVSPost2010Prop56
140
1.0
102
RTVSPost2010PropOp56
 70
     0
102
RTVSPost2010Prop57
140
1.0
102
RTVSPost2010PropOp57
 70
     0
102
RTVSPropertyOp0
 70
     0
102
RTVSPropertyOp1
 70
     0
102
RTVSPropertyOp2
 70
     0
102
RTVSPropertyOp3
 70
     0
102
RTVSPropertyOp4
 70
     0
102
RTVSPropertyOp5
 70
     0
102
RTVSPropertyOp6
 70
     0
102
RTVSPropertyOp7
 70
     0
102
RTVSPropertyOp8
 70
     0
102
RTVSPropertyOp9
 70
     0
102
RTVSPropertyOp10
 70
     0
102
RTVSPropertyOp11
 70
     0
102
RTVSPropertyOp12
 70
     0
102
RTVSPropertyOp13
 70
     0
102
RTVSPropertyOp14
 70
     2
102
RTVSPropertyOp15
 70
     0
102
RTVSPropertyOp16
 70
     0
102
RTVSPropertyOp17
 70
     0
102
RTVSPropertyOp18
 70
     0
102
RTVSPropertyOp19
 70
     0
102
RTVSPropertyOp20
 70
     0
102
RTVSPropertyOp21
 70
     0
102
RTVSPropertyOp22
 70
     0
102
RTVSPropertyOp23
 70
     0
102
RTVSPropertyOp24
 70
     0
102
RTVSPropertyOp25
 70
     0
102
RTVSPropertyOp26
 70
     0
102
RTVSPropertyOp27
 70
     0
102
RTVSPropertyOp28
 70
     0
102
RTVSPropertyOp29
 70
     0
102
RTVSPropertyOp30
 70
     0
102
RTVSPropertyOp31
 70
     0
102
RTVSPropertyOp32
 70
     0
102
RTVSPropertyOp33
 70
     0
102
RTVSPropertyOp34
 70
     0
102
RTVSPropertyOp35
 70
     0
102
RTVSPropertyOp36
 70
     0
102
RTVSPropertyOp37
 70
     0
102
RTVSPropertyOp38
 70
     0
102
RTVSPropertyOp39
 70
     0
102
RTVSPropertyOp40
 70
     0
102
RTVSPropertyOp41
 70
     0
102
RTVSPropertyOp42
 70
     0
102
RTVSPropertyOp43
 70
     0
102
RTVSPropertyOp44
 70
     0
102
RTVSPropertyOp45
 70
     0
102
RTVSPropertyOp46
 70
     0
102
RTVSPropertyOp47
 70
     0
102
RTVSPropertyOp48
 70
     0
102
RTVSPropertyOp49
 70
     0
102
RTVSPropertyOp50
 70
     0
102
RTVSPropertyOp51
 70
     0
102
RTVSPropertyOp52
 70
     0
102
RTVSPropertyOp53
 70
     0
102
RTVSPropertyOp54
 70
     0
102
RTVSPropertyOp55
 70
     0
102
RTVSPropertyOp56
 70
     0
102
RTVSPropertyOp57
 70
     0
102
RTVSPropertyOp58
 70
     1
102
RTVSPropertyOp59
 70
     1
102
RTVSPropertyOp60
 70
     1
102
RTVSPropertyOp61
 70
     1
102
RTVSPropertyOp62
 70
     1
  0
XRECORD
  5
A8E0
102
{ACAD_REACTORS
330
A8DF
102
}
330
A8DF
100
AcDbXrecord
280
     1
102
RTVSPost2010Prop28
280
     0
102
RTVSPost2010PropOp28
 70
     1
102
RTVSPost2010Prop29
280
     1
102
RTVSPost2010PropOp29
 70
     1
102
RTVSPost2010Prop30
280
     1
102
RTVSPost2010PropOp30
 70
     1
102
RTVSPost2010Prop31
280
     0
102
RTVSPost2010PropOp31
 70
     1
102
RTVSPost2010Prop32
280
     0
102
RTVSPost2010PropOp32
 70
     1
102
RTVSPost2010Prop33
280
     0
102
RTVSPost2010PropOp33
 70
     1
102
RTVSPost2010Prop34
280
     0
102
RTVSPost2010PropOp34
 70
     1
102
RTVSPost2010Prop35
280
     0
102
RTVSPost2010PropOp35
 70
     1
102
RTVSPost2010Prop36
280
     0
102
RTVSPost2010PropOp36
 70
     1
102
RTVSPost2010Prop37
 90
       50
102
RTVSPost2010PropOp37
 70
     1
102
RTVSPost2010Prop38
140
0.0
102
RTVSPost2010PropOp38
 70
     1
102
RTVSPost2010Prop39
140
1.0
102
RTVSPost2010PropOp39
 70
     1
102
RTVSPost2010Prop40
 90
        0
102
RTVSPost2010PropOp40
 70
     1
102
RTVSPost2010Prop41ColorIndex
 90
       18
102
RTVSPost2010Prop41ColorRGB
 90
        0
102
RTVSPost2010PropOp41
 70
     1
102
RTVSPost2010Prop42
 90
       50
102
RTVSPost2010PropOp42
 70
     1
102
RTVSPost2010Prop43
 90
        3
102
RTVSPost2010PropOp43
 70
     1
102
RTVSPost2010Prop44ColorIndex
 90
        5
102
RTVSPost2010Prop44ColorRGB
 90
      255
102
RTVSPost2010PropOp44
 70
     1
102
RTVSPost2010Prop45
280
     0
102
RTVSPost2010PropOp45
 70
     1
102
RTVSPost2010Prop46
 90
       50
102
RTVSPost2010PropOp46
 70
     1
102
RTVSPost2010Prop47
 90
       50
102
RTVSPost2010PropOp47
 70
     1
102
RTVSPost2010Prop48
 90
       50
102
RTVSPost2010PropOp48
 70
     1
102
RTVSPost2010Prop49
280
     0
102
RTVSPost2010PropOp49
 70
     1
102
RTVSPost2010Prop50
 90
       50
102
RTVSPost2010PropOp50
 70
     1
102
RTVSPost2010Prop51ColorIndex
 90
      256
102
RTVSPost2010Prop51ColorRGB
 90
-16777216
102
RTVSPost2010PropOp51
 70
     0
102
RTVSPost2010Prop52
140
1.0
102
RTVSPost2010PropOp52
 70
     0
102
RTVSPost2010Prop53
 90
        2
102
RTVSPost2010PropOp53
 70
     1
102
RTVSPost2010Prop54
  1
strokes_ogs.tif
102
RTVSPost2010PropOp54
 70
     1
102
RTVSPost2010Prop55
280
     0
102
RTVSPost2010PropOp55
 70
     1
102
RTVSPost2010Prop56
140
1.0
102
RTVSPost2010PropOp56
 70
     1
102
RTVSPost2010Prop57
140
1.0
102
RTVSPost2010PropOp57
 70
     1
102
RTVSPropertyOp0
 70
     1
102
RTVSPropertyOp1
 70
     1
102
RTVSPropertyOp2
 70
     1
102
RTVSPropertyOp3
 70
     1
102
RTVSPropertyOp4
 70
     1
102
RTVSPropertyOp5
 70
     1
102
RTVSPropertyOp6
 70
     1
102
RTVSPropertyOp7
 70
     1
102
RTVSPropertyOp8
 70
     1
102
RTVSPropertyOp9
 70
     1
102
RTVSPropertyOp10
 70
     1
102
RTVSPropertyOp11
 70
     1
102
RTVSPropertyOp12
 70
     1
102
RTVSPropertyOp13
 70
     1
102
RTVSPropertyOp14
 70
     1
102
RTVSPropertyOp15
 70
     1
102
RTVSPropertyOp16
 70
     1
102
RTVSPropertyOp17
 70
     1
102
RTVSPropertyOp18
 70
     1
102
RTVSPropertyOp19
 70
     1
102
RTVSPropertyOp20
 70
     1
102
RTVSPropertyOp21
 70
     1
102
RTVSPropertyOp22
 70
     1
102
RTVSPropertyOp23
 70
     1
102
RTVSPropertyOp24
 70
     1
102
RTVSPropertyOp25
 70
     1
102
RTVSPropertyOp26
 70
     1
102
RTVSPropertyOp27
 70
     1
102
RTVSPropertyOp28
 70
     1
102
RTVSPropertyOp29
 70
     1
102
RTVSPropertyOp30
 70
     1
102
RTVSPropertyOp31
 70
     1
102
RTVSPropertyOp32
 70
     1
102
RTVSPropertyOp33
 70
     1
102
RTVSPropertyOp34
 70
     1
102
RTVSPropertyOp35
 70
     1
102
RTVSPropertyOp36
 70
     1
102
RTVSPropertyOp37
 70
     1
102
RTVSPropertyOp38
 70
     1
102
RTVSPropertyOp39
 70
     1
102
RTVSPropertyOp40
 70
     1
102
RTVSPropertyOp41
 70
     1
102
RTVSPropertyOp42
 70
     1
102
RTVSPropertyOp43
 70
     1
102
RTVSPropertyOp44
 70
     1
102
RTVSPropertyOp45
 70
     1
102
RTVSPropertyOp46
 70
     1
102
RTVSPropertyOp47
 70
     1
102
RTVSPropertyOp48
 70
     1
102
RTVSPropertyOp49
 70
     1
102
RTVSPropertyOp50
 70
     1
102
RTVSPropertyOp51
 70
     0
102
RTVSPropertyOp52
 70
     0
102
RTVSPropertyOp53
 70
     1
102
RTVSPropertyOp54
 70
     1
102
RTVSPropertyOp55
 70
     1
102
RTVSPropertyOp56
 70
     1
102
RTVSPropertyOp57
 70
     1
102
RTVSPropertyOp58
 70
     1
102
RTVSPropertyOp59
 70
     1
102
RTVSPropertyOp60
 70
     1
102
RTVSPropertyOp61
 70
     1
102
RTVSPropertyOp62
 70
     1
  0
XRECORD
  5
A8F2
102
{ACAD_REACTORS
330
A8F1
102
}
330
A8F1
100
AcDbXrecord
280
     1
102
RTVSPost2010Prop28
280
     0
102
RTVSPost2010PropOp28
 70
     0
102
RTVSPost2010Prop29
280
     1
102
RTVSPost2010PropOp29
 70
     0
102
RTVSPost2010Prop30
280
     1
102
RTVSPost2010PropOp30
 70
     0
102
RTVSPost2010Prop31
280
     0
102
RTVSPost2010PropOp31
 70
     0
102
RTVSPost2010Prop32
280
     0
102
RTVSPost2010PropOp32
 70
     0
102
RTVSPost2010Prop33
280
     0
102
RTVSPost2010PropOp33
 70
     0
102
RTVSPost2010Prop34
280
     0
102
RTVSPost2010PropOp34
 70
     0
102
RTVSPost2010Prop35
280
     0
102
RTVSPost2010PropOp35
 70
     0
102
RTVSPost2010Prop36
280
     0
102
RTVSPost2010PropOp36
 70
     0
102
RTVSPost2010Prop37
 90
       50
102
RTVSPost2010PropOp37
 70
     0
102
RTVSPost2010Prop38
140
0.0
102
RTVSPost2010PropOp38
 70
     0
102
RTVSPost2010Prop39
140
1.0
102
RTVSPost2010PropOp39
 70
     0
102
RTVSPost2010Prop40
 90
        0
102
RTVSPost2010PropOp40
 70
     0
102
RTVSPost2010Prop41ColorIndex
 90
       18
102
RTVSPost2010Prop41ColorRGB
 90
        0
102
RTVSPost2010PropOp41
 70
     0
102
RTVSPost2010Prop42
 90
       50
102
RTVSPost2010PropOp42
 70
     0
102
RTVSPost2010Prop43
 90
        3
102
RTVSPost2010PropOp43
 70
     0
102
RTVSPost2010Prop44ColorIndex
 90
        5
102
RTVSPost2010Prop44ColorRGB
 90
      255
102
RTVSPost2010PropOp44
 70
     0
102
RTVSPost2010Prop45
280
     0
102
RTVSPost2010PropOp45
 70
     0
102
RTVSPost2010Prop46
 90
       50
102
RTVSPost2010PropOp46
 70
     0
102
RTVSPost2010Prop47
 90
       50
102
RTVSPost2010PropOp47
 70
     0
102
RTVSPost2010Prop48
 90
       50
102
RTVSPost2010PropOp48
 70
     0
102
RTVSPost2010Prop49
280
     0
102
RTVSPost2010PropOp49
 70
     0
102
RTVSPost2010Prop50
 90
       50
102
RTVSPost2010PropOp50
 70
     0
102
RTVSPost2010Prop51ColorIndex
 90
      256
102
RTVSPost2010Prop51ColorRGB
 90
-16777216
102
RTVSPost2010PropOp51
 70
     0
102
RTVSPost2010Prop52
140
1.0
102
RTVSPost2010PropOp52
 70
     0
102
RTVSPost2010Prop53
 90
        2
102
RTVSPost2010PropOp53
 70
     0
102
RTVSPost2010Prop54
  1
strokes_ogs.tif
102
RTVSPost2010PropOp54
 70
     0
102
RTVSPost2010Prop55
280
     0
102
RTVSPost2010PropOp55
 70
     0
102
RTVSPost2010Prop56
140
1.0
102
RTVSPost2010PropOp56
 70
     0
102
RTVSPost2010Prop57
140
1.0
102
RTVSPost2010PropOp57
 70
     0
102
RTVSPropertyOp0
 70
     0
102
RTVSPropertyOp1
 70
     0
102
RTVSPropertyOp2
 70
     0
102
RTVSPropertyOp3
 70
     0
102
RTVSPropertyOp4
 70
     0
102
RTVSPropertyOp5
 70
     0
102
RTVSPropertyOp6
 70
     0
102
RTVSPropertyOp7
 70
     0
102
RTVSPropertyOp8
 70
     0
102
RTVSPropertyOp9
 70
     0
102
RTVSPropertyOp10
 70
     0
102
RTVSPropertyOp11
 70
     0
102
RTVSPropertyOp12
 70
     0
102
RTVSPropertyOp13
 70
     0
102
RTVSPropertyOp14
 70
     2
102
RTVSPropertyOp15
 70
     0
102
RTVSPropertyOp16
 70
     0
102
RTVSPropertyOp17
 70
     0
102
RTVSPropertyOp18
 70
     0
102
RTVSPropertyOp19
 70
     0
102
RTVSPropertyOp20
 70
     0
102
RTVSPropertyOp21
 70
     0
102
RTVSPropertyOp22
 70
     0
102
RTVSPropertyOp23
 70
     0
102
RTVSPropertyOp24
 70
     0
102
RTVSPropertyOp25
 70
     0
102
RTVSPropertyOp26
 70
     0
102
RTVSPropertyOp27
 70
     0
102
RTVSPropertyOp28
 70
     0
102
RTVSPropertyOp29
 70
     0
102
RTVSPropertyOp30
 70
     0
102
RTVSPropertyOp31
 70
     0
102
RTVSPropertyOp32
 70
     0
102
RTVSPropertyOp33
 70
     0
102
RTVSPropertyOp34
 70
     0
102
RTVSPropertyOp35
 70
     0
102
RTVSPropertyOp36
 70
     0
102
RTVSPropertyOp37
 70
     0
102
RTVSPropertyOp38
 70
     0
102
RTVSPropertyOp39
 70
     0
102
RTVSPropertyOp40
 70
     0
102
RTVSPropertyOp41
 70
     0
102
RTVSPropertyOp42
 70
     0
102
RTVSPropertyOp43
 70
     0
102
RTVSPropertyOp44
 70
     0
102
RTVSPropertyOp45
 70
     0
102
RTVSPropertyOp46
 70
     0
102
RTVSPropertyOp47
 70
     0
102
RTVSPropertyOp48
 70
     0
102
RTVSPropertyOp49
 70
     0
102
RTVSPropertyOp50
 70
     0
102
RTVSPropertyOp51
 70
     0
102
RTVSPropertyOp52
 70
     0
102
RTVSPropertyOp53
 70
     0
102
RTVSPropertyOp54
 70
     0
102
RTVSPropertyOp55
 70
     0
102
RTVSPropertyOp56
 70
     0
102
RTVSPropertyOp57
 70
     0
102
RTVSPropertyOp58
 70
     1
102
RTVSPropertyOp59
 70
     1
102
RTVSPropertyOp60
 70
     1
102
RTVSPropertyOp61
 70
     1
102
RTVSPropertyOp62
 70
     1
  0
XRECORD
  5
A8D8
102
{ACAD_REACTORS
330
A8D7
102
}
330
A8D7
100
AcDbXrecord
280
     1
102
RTVSPost2010Prop28
280
     0
102
RTVSPost2010PropOp28
 70
     1
102
RTVSPost2010Prop29
280
     1
102
RTVSPost2010PropOp29
 70
     1
102
RTVSPost2010Prop30
280
     1
102
RTVSPost2010PropOp30
 70
     1
102
RTVSPost2010Prop31
280
     0
102
RTVSPost2010PropOp31
 70
     1
102
RTVSPost2010Prop32
280
     0
102
RTVSPost2010PropOp32
 70
     1
102
RTVSPost2010Prop33
280
     0
102
RTVSPost2010PropOp33
 70
     1
102
RTVSPost2010Prop34
280
     0
102
RTVSPost2010PropOp34
 70
     1
102
RTVSPost2010Prop35
280
     0
102
RTVSPost2010PropOp35
 70
     1
102
RTVSPost2010Prop36
280
     0
102
RTVSPost2010PropOp36
 70
     1
102
RTVSPost2010Prop37
 90
       50
102
RTVSPost2010PropOp37
 70
     1
102
RTVSPost2010Prop38
140
0.0
102
RTVSPost2010PropOp38
 70
     1
102
RTVSPost2010Prop39
140
1.0
102
RTVSPost2010PropOp39
 70
     1
102
RTVSPost2010Prop40
 90
        0
102
RTVSPost2010PropOp40
 70
     1
102
RTVSPost2010Prop41ColorIndex
 90
       18
102
RTVSPost2010Prop41ColorRGB
 90
        0
102
RTVSPost2010PropOp41
 70
     1
102
RTVSPost2010Prop42
 90
       50
102
RTVSPost2010PropOp42
 70
     1
102
RTVSPost2010Prop43
 90
        3
102
RTVSPost2010PropOp43
 70
     1
102
RTVSPost2010Prop44ColorIndex
 90
        5
102
RTVSPost2010Prop44ColorRGB
 90
      255
102
RTVSPost2010PropOp44
 70
     1
102
RTVSPost2010Prop45
280
     0
102
RTVSPost2010PropOp45
 70
     1
102
RTVSPost2010Prop46
 90
       50
102
RTVSPost2010PropOp46
 70
     1
102
RTVSPost2010Prop47
 90
       50
102
RTVSPost2010PropOp47
 70
     1
102
RTVSPost2010Prop48
 90
       50
102
RTVSPost2010PropOp48
 70
     1
102
RTVSPost2010Prop49
280
     0
102
RTVSPost2010PropOp49
 70
     1
102
RTVSPost2010Prop50
 90
       50
102
RTVSPost2010PropOp50
 70
     1
102
RTVSPost2010Prop51ColorIndex
 90
      256
102
RTVSPost2010Prop51ColorRGB
 90
-16777216
102
RTVSPost2010PropOp51
 70
     0
102
RTVSPost2010Prop52
140
1.0
102
RTVSPost2010PropOp52
 70
     0
102
RTVSPost2010Prop53
 90
        2
102
RTVSPost2010PropOp53
 70
     1
102
RTVSPost2010Prop54
  1
strokes_ogs.tif
102
RTVSPost2010PropOp54
 70
     1
102
RTVSPost2010Prop55
280
     0
102
RTVSPost2010PropOp55
 70
     1
102
RTVSPost2010Prop56
140
1.0
102
RTVSPost2010PropOp56
 70
     1
102
RTVSPost2010Prop57
140
1.0
102
RTVSPost2010PropOp57
 70
     1
102
RTVSPropertyOp0
 70
     1
102
RTVSPropertyOp1
 70
     1
102
RTVSPropertyOp2
 70
     1
102
RTVSPropertyOp3
 70
     1
102
RTVSPropertyOp4
 70
     1
102
RTVSPropertyOp5
 70
     1
102
RTVSPropertyOp6
 70
     1
102
RTVSPropertyOp7
 70
     1
102
RTVSPropertyOp8
 70
     1
102
RTVSPropertyOp9
 70
     1
102
RTVSPropertyOp10
 70
     1
102
RTVSPropertyOp11
 70
     1
102
RTVSPropertyOp12
 70
     1
102
RTVSPropertyOp13
 70
     1
102
RTVSPropertyOp14
 70
     1
102
RTVSPropertyOp15
 70
     1
102
RTVSPropertyOp16
 70
     1
102
RTVSPropertyOp17
 70
     1
102
RTVSPropertyOp18
 70
     1
102
RTVSPropertyOp19
 70
     1
102
RTVSPropertyOp20
 70
     1
102
RTVSPropertyOp21
 70
     1
102
RTVSPropertyOp22
 70
     1
102
RTVSPropertyOp23
 70
     1
102
RTVSPropertyOp24
 70
     1
102
RTVSPropertyOp25
 70
     1
102
RTVSPropertyOp26
 70
     1
102
RTVSPropertyOp27
 70
     1
102
RTVSPropertyOp28
 70
     1
102
RTVSPropertyOp29
 70
     1
102
RTVSPropertyOp30
 70
     1
102
RTVSPropertyOp31
 70
     1
102
RTVSPropertyOp32
 70
     1
102
RTVSPropertyOp33
 70
     1
102
RTVSPropertyOp34
 70
     1
102
RTVSPropertyOp35
 70
     1
102
RTVSPropertyOp36
 70
     1
102
RTVSPropertyOp37
 70
     1
102
RTVSPropertyOp38
 70
     1
102
RTVSPropertyOp39
 70
     1
102
RTVSPropertyOp40
 70
     1
102
RTVSPropertyOp41
 70
     1
102
RTVSPropertyOp42
 70
     1
102
RTVSPropertyOp43
 70
     1
102
RTVSPropertyOp44
 70
     1
102
RTVSPropertyOp45
 70
     1
102
RTVSPropertyOp46
 70
     1
102
RTVSPropertyOp47
 70
     1
102
RTVSPropertyOp48
 70
     1
102
RTVSPropertyOp49
 70
     1
102
RTVSPropertyOp50
 70
     1
102
RTVSPropertyOp51
 70
     0
102
RTVSPropertyOp52
 70
     0
102
RTVSPropertyOp53
 70
     1
102
RTVSPropertyOp54
 70
     1
102
RTVSPropertyOp55
 70
     1
102
RTVSPropertyOp56
 70
     1
102
RTVSPropertyOp57
 70
     1
102
RTVSPropertyOp58
 70
     1
102
RTVSPropertyOp59
 70
     1
102
RTVSPropertyOp60
 70
     1
102
RTVSPropertyOp61
 70
     1
102
RTVSPropertyOp62
 70
     1
  0
XRECORD
  5
A8EE
102
{ACAD_REACTORS
330
A8ED
102
}
330
A8ED
100
AcDbXrecord
280
     1
102
RTVSPost2010Prop28
280
     0
102
RTVSPost2010PropOp28
 70
     1
102
RTVSPost2010Prop29
280
     1
102
RTVSPost2010PropOp29
 70
     1
102
RTVSPost2010Prop30
280
     1
102
RTVSPost2010PropOp30
 70
     1
102
RTVSPost2010Prop31
280
     0
102
RTVSPost2010PropOp31
 70
     1
102
RTVSPost2010Prop32
280
     0
102
RTVSPost2010PropOp32
 70
     1
102
RTVSPost2010Prop33
280
     0
102
RTVSPost2010PropOp33
 70
     1
102
RTVSPost2010Prop34
280
     0
102
RTVSPost2010PropOp34
 70
     1
102
RTVSPost2010Prop35
280
     0
102
RTVSPost2010PropOp35
 70
     1
102
RTVSPost2010Prop36
280
     0
102
RTVSPost2010PropOp36
 70
     1
102
RTVSPost2010Prop37
 90
       50
102
RTVSPost2010PropOp37
 70
     1
102
RTVSPost2010Prop38
140
0.0
102
RTVSPost2010PropOp38
 70
     1
102
RTVSPost2010Prop39
140
1.0
102
RTVSPost2010PropOp39
 70
     1
102
RTVSPost2010Prop40
 90
        0
102
RTVSPost2010PropOp40
 70
     1
102
RTVSPost2010Prop41ColorIndex
 90
       18
102
RTVSPost2010Prop41ColorRGB
 90
        0
102
RTVSPost2010PropOp41
 70
     1
102
RTVSPost2010Prop42
 90
       50
102
RTVSPost2010PropOp42
 70
     1
102
RTVSPost2010Prop43
 90
        3
102
RTVSPost2010PropOp43
 70
     1
102
RTVSPost2010Prop44ColorIndex
 90
        5
102
RTVSPost2010Prop44ColorRGB
 90
      255
102
RTVSPost2010PropOp44
 70
     1
102
RTVSPost2010Prop45
280
     0
102
RTVSPost2010PropOp45
 70
     1
102
RTVSPost2010Prop46
 90
       50
102
RTVSPost2010PropOp46
 70
     1
102
RTVSPost2010Prop47
 90
       50
102
RTVSPost2010PropOp47
 70
     1
102
RTVSPost2010Prop48
 90
       50
102
RTVSPost2010PropOp48
 70
     1
102
RTVSPost2010Prop49
280
     0
102
RTVSPost2010PropOp49
 70
     1
102
RTVSPost2010Prop50
 90
       50
102
RTVSPost2010PropOp50
 70
     1
102
RTVSPost2010Prop51ColorIndex
 90
      256
102
RTVSPost2010Prop51ColorRGB
 90
-16777216
102
RTVSPost2010PropOp51
 70
     0
102
RTVSPost2010Prop52
140
1.0
102
RTVSPost2010PropOp52
 70
     0
102
RTVSPost2010Prop53
 90
        2
102
RTVSPost2010PropOp53
 70
     1
102
RTVSPost2010Prop54
  1
strokes_ogs.tif
102
RTVSPost2010PropOp54
 70
     1
102
RTVSPost2010Prop55
280
     0
102
RTVSPost2010PropOp55
 70
     1
102
RTVSPost2010Prop56
140
1.0
102
RTVSPost2010PropOp56
 70
     1
102
RTVSPost2010Prop57
140
1.0
102
RTVSPost2010PropOp57
 70
     1
102
RTVSPropertyOp0
 70
     1
102
RTVSPropertyOp1
 70
     1
102
RTVSPropertyOp2
 70
     1
102
RTVSPropertyOp3
 70
     1
102
RTVSPropertyOp4
 70
     1
102
RTVSPropertyOp5
 70
     1
102
RTVSPropertyOp6
 70
     1
102
RTVSPropertyOp7
 70
     1
102
RTVSPropertyOp8
 70
     1
102
RTVSPropertyOp9
 70
     1
102
RTVSPropertyOp10
 70
     1
102
RTVSPropertyOp11
 70
     1
102
RTVSPropertyOp12
 70
     1
102
RTVSPropertyOp13
 70
     1
102
RTVSPropertyOp14
 70
     1
102
RTVSPropertyOp15
 70
     1
102
RTVSPropertyOp16
 70
     1
102
RTVSPropertyOp17
 70
     1
102
RTVSPropertyOp18
 70
     1
102
RTVSPropertyOp19
 70
     1
102
RTVSPropertyOp20
 70
     1
102
RTVSPropertyOp21
 70
     1
102
RTVSPropertyOp22
 70
     1
102
RTVSPropertyOp23
 70
     1
102
RTVSPropertyOp24
 70
     1
102
RTVSPropertyOp25
 70
     1
102
RTVSPropertyOp26
 70
     1
102
RTVSPropertyOp27
 70
     1
102
RTVSPropertyOp28
 70
     1
102
RTVSPropertyOp29
 70
     1
102
RTVSPropertyOp30
 70
     1
102
RTVSPropertyOp31
 70
     1
102
RTVSPropertyOp32
 70
     1
102
RTVSPropertyOp33
 70
     1
102
RTVSPropertyOp34
 70
     1
102
RTVSPropertyOp35
 70
     1
102
RTVSPropertyOp36
 70
     1
102
RTVSPropertyOp37
 70
     1
102
RTVSPropertyOp38
 70
     1
102
RTVSPropertyOp39
 70
     1
102
RTVSPropertyOp40
 70
     1
102
RTVSPropertyOp41
 70
     1
102
RTVSPropertyOp42
 70
     1
102
RTVSPropertyOp43
 70
     1
102
RTVSPropertyOp44
 70
     1
102
RTVSPropertyOp45
 70
     1
102
RTVSPropertyOp46
 70
     1
102
RTVSPropertyOp47
 70
     1
102
RTVSPropertyOp48
 70
     1
102
RTVSPropertyOp49
 70
     1
102
RTVSPropertyOp50
 70
     1
102
RTVSPropertyOp51
 70
     0
102
RTVSPropertyOp52
 70
     0
102
RTVSPropertyOp53
 70
     1
102
RTVSPropertyOp54
 70
     1
102
RTVSPropertyOp55
 70
     1
102
RTVSPropertyOp56
 70
     1
102
RTVSPropertyOp57
 70
     1
102
RTVSPropertyOp58
 70
     1
102
RTVSPropertyOp59
 70
     1
102
RTVSPropertyOp60
 70
     1
102
RTVSPropertyOp61
 70
     1
102
RTVSPropertyOp62
 70
     1
  0
XRECORD
  5
A8EC
102
{ACAD_REACTORS
330
A8EB
102
}
330
A8EB
100
AcDbXrecord
280
     1
102
RTVSPost2010Prop28
280
     0
102
RTVSPost2010PropOp28
 70
     1
102
RTVSPost2010Prop29
280
     1
102
RTVSPost2010PropOp29
 70
     1
102
RTVSPost2010Prop30
280
     1
102
RTVSPost2010PropOp30
 70
     1
102
RTVSPost2010Prop31
280
     0
102
RTVSPost2010PropOp31
 70
     1
102
RTVSPost2010Prop32
280
     0
102
RTVSPost2010PropOp32
 70
     1
102
RTVSPost2010Prop33
280
     0
102
RTVSPost2010PropOp33
 70
     1
102
RTVSPost2010Prop34
280
     0
102
RTVSPost2010PropOp34
 70
     1
102
RTVSPost2010Prop35
280
     0
102
RTVSPost2010PropOp35
 70
     1
102
RTVSPost2010Prop36
280
     0
102
RTVSPost2010PropOp36
 70
     1
102
RTVSPost2010Prop37
 90
       50
102
RTVSPost2010PropOp37
 70
     1
102
RTVSPost2010Prop38
140
0.0
102
RTVSPost2010PropOp38
 70
     1
102
RTVSPost2010Prop39
140
1.0
102
RTVSPost2010PropOp39
 70
     1
102
RTVSPost2010Prop40
 90
        0
102
RTVSPost2010PropOp40
 70
     1
102
RTVSPost2010Prop41ColorIndex
 90
       18
102
RTVSPost2010Prop41ColorRGB
 90
        0
102
RTVSPost2010PropOp41
 70
     1
102
RTVSPost2010Prop42
 90
       50
102
RTVSPost2010PropOp42
 70
     1
102
RTVSPost2010Prop43
 90
        3
102
RTVSPost2010PropOp43
 70
     1
102
RTVSPost2010Prop44ColorIndex
 90
        5
102
RTVSPost2010Prop44ColorRGB
 90
      255
102
RTVSPost2010PropOp44
 70
     1
102
RTVSPost2010Prop45
280
     0
102
RTVSPost2010PropOp45
 70
     1
102
RTVSPost2010Prop46
 90
       50
102
RTVSPost2010PropOp46
 70
     1
102
RTVSPost2010Prop47
 90
       50
102
RTVSPost2010PropOp47
 70
     1
102
RTVSPost2010Prop48
 90
       50
102
RTVSPost2010PropOp48
 70
     1
102
RTVSPost2010Prop49
280
     0
102
RTVSPost2010PropOp49
 70
     1
102
RTVSPost2010Prop50
 90
       50
102
RTVSPost2010PropOp50
 70
     1
102
RTVSPost2010Prop51ColorIndex
 90
      256
102
RTVSPost2010Prop51ColorRGB
 90
-16777216
102
RTVSPost2010PropOp51
 70
     0
102
RTVSPost2010Prop52
140
1.0
102
RTVSPost2010PropOp52
 70
     0
102
RTVSPost2010Prop53
 90
        2
102
RTVSPost2010PropOp53
 70
     1
102
RTVSPost2010Prop54
  1
strokes_ogs.tif
102
RTVSPost2010PropOp54
 70
     1
102
RTVSPost2010Prop55
280
     0
102
RTVSPost2010PropOp55
 70
     1
102
RTVSPost2010Prop56
140
1.0
102
RTVSPost2010PropOp56
 70
     1
102
RTVSPost2010Prop57
140
1.0
102
RTVSPost2010PropOp57
 70
     1
102
RTVSPropertyOp0
 70
     1
102
RTVSPropertyOp1
 70
     1
102
RTVSPropertyOp2
 70
     1
102
RTVSPropertyOp3
 70
     1
102
RTVSPropertyOp4
 70
     1
102
RTVSPropertyOp5
 70
     1
102
RTVSPropertyOp6
 70
     1
102
RTVSPropertyOp7
 70
     1
102
RTVSPropertyOp8
 70
     1
102
RTVSPropertyOp9
 70
     1
102
RTVSPropertyOp10
 70
     1
102
RTVSPropertyOp11
 70
     1
102
RTVSPropertyOp12
 70
     1
102
RTVSPropertyOp13
 70
     1
102
RTVSPropertyOp14
 70
     1
102
RTVSPropertyOp15
 70
     1
102
RTVSPropertyOp16
 70
     1
102
RTVSPropertyOp17
 70
     1
102
RTVSPropertyOp18
 70
     1
102
RTVSPropertyOp19
 70
     1
102
RTVSPropertyOp20
 70
     1
102
RTVSPropertyOp21
 70
     1
102
RTVSPropertyOp22
 70
     1
102
RTVSPropertyOp23
 70
     1
102
RTVSPropertyOp24
 70
     1
102
RTVSPropertyOp25
 70
     1
102
RTVSPropertyOp26
 70
     1
102
RTVSPropertyOp27
 70
     1
102
RTVSPropertyOp28
 70
     1
102
RTVSPropertyOp29
 70
     1
102
RTVSPropertyOp30
 70
     1
102
RTVSPropertyOp31
 70
     1
102
RTVSPropertyOp32
 70
     1
102
RTVSPropertyOp33
 70
     1
102
RTVSPropertyOp34
 70
     1
102
RTVSPropertyOp35
 70
     1
102
RTVSPropertyOp36
 70
     1
102
RTVSPropertyOp37
 70
     1
102
RTVSPropertyOp38
 70
     1
102
RTVSPropertyOp39
 70
     1
102
RTVSPropertyOp40
 70
     1
102
RTVSPropertyOp41
 70
     1
102
RTVSPropertyOp42
 70
     1
102
RTVSPropertyOp43
 70
     1
102
RTVSPropertyOp44
 70
     1
102
RTVSPropertyOp45
 70
     1
102
RTVSPropertyOp46
 70
     1
102
RTVSPropertyOp47
 70
     1
102
RTVSPropertyOp48
 70
     1
102
RTVSPropertyOp49
 70
     1
102
RTVSPropertyOp50
 70
     1
102
RTVSPropertyOp51
 70
     0
102
RTVSPropertyOp52
 70
     0
102
RTVSPropertyOp53
 70
     1
102
RTVSPropertyOp54
 70
     1
102
RTVSPropertyOp55
 70
     1
102
RTVSPropertyOp56
 70
     1
102
RTVSPropertyOp57
 70
     1
102
RTVSPropertyOp58
 70
     1
102
RTVSPropertyOp59
 70
     1
102
RTVSPropertyOp60
 70
     1
102
RTVSPropertyOp61
 70
     1
102
RTVSPropertyOp62
 70
     1
  0
XRECORD
  5
A8E6
102
{ACAD_REACTORS
330
A8E5
102
}
330
A8E5
100
AcDbXrecord
280
     1
102
RTVSPost2010Prop28
280
     0
102
RTVSPost2010PropOp28
 70
     1
102
RTVSPost2010Prop29
280
     1
102
RTVSPost2010PropOp29
 70
     1
102
RTVSPost2010Prop30
280
     1
102
RTVSPost2010PropOp30
 70
     1
102
RTVSPost2010Prop31
280
     0
102
RTVSPost2010PropOp31
 70
     1
102
RTVSPost2010Prop32
280
     0
102
RTVSPost2010PropOp32
 70
     1
102
RTVSPost2010Prop33
280
     0
102
RTVSPost2010PropOp33
 70
     1
102
RTVSPost2010Prop34
280
     0
102
RTVSPost2010PropOp34
 70
     1
102
RTVSPost2010Prop35
280
     0
102
RTVSPost2010PropOp35
 70
     1
102
RTVSPost2010Prop36
280
     0
102
RTVSPost2010PropOp36
 70
     1
102
RTVSPost2010Prop37
 90
       50
102
RTVSPost2010PropOp37
 70
     1
102
RTVSPost2010Prop38
140
0.0
102
RTVSPost2010PropOp38
 70
     1
102
RTVSPost2010Prop39
140
1.0
102
RTVSPost2010PropOp39
 70
     1
102
RTVSPost2010Prop40
 90
        0
102
RTVSPost2010PropOp40
 70
     1
102
RTVSPost2010Prop41ColorIndex
 90
       18
102
RTVSPost2010Prop41ColorRGB
 90
        0
102
RTVSPost2010PropOp41
 70
     1
102
RTVSPost2010Prop42
 90
       50
102
RTVSPost2010PropOp42
 70
     1
102
RTVSPost2010Prop43
 90
        3
102
RTVSPost2010PropOp43
 70
     1
102
RTVSPost2010Prop44ColorIndex
 90
        5
102
RTVSPost2010Prop44ColorRGB
 90
      255
102
RTVSPost2010PropOp44
 70
     1
102
RTVSPost2010Prop45
280
     0
102
RTVSPost2010PropOp45
 70
     1
102
RTVSPost2010Prop46
 90
       50
102
RTVSPost2010PropOp46
 70
     1
102
RTVSPost2010Prop47
 90
       50
102
RTVSPost2010PropOp47
 70
     1
102
RTVSPost2010Prop48
 90
       50
102
RTVSPost2010PropOp48
 70
     1
102
RTVSPost2010Prop49
280
     0
102
RTVSPost2010PropOp49
 70
     1
102
RTVSPost2010Prop50
 90
       50
102
RTVSPost2010PropOp50
 70
     1
102
RTVSPost2010Prop51ColorIndex
 90
      256
102
RTVSPost2010Prop51ColorRGB
 90
-16777216
102
RTVSPost2010PropOp51
 70
     0
102
RTVSPost2010Prop52
140
1.0
102
RTVSPost2010PropOp52
 70
     0
102
RTVSPost2010Prop53
 90
        2
102
RTVSPost2010PropOp53
 70
     1
102
RTVSPost2010Prop54
  1
strokes_ogs.tif
102
RTVSPost2010PropOp54
 70
     1
102
RTVSPost2010Prop55
280
     0
102
RTVSPost2010PropOp55
 70
     1
102
RTVSPost2010Prop56
140
1.0
102
RTVSPost2010PropOp56
 70
     1
102
RTVSPost2010Prop57
140
1.0
102
RTVSPost2010PropOp57
 70
     1
102
RTVSPropertyOp0
 70
     1
102
RTVSPropertyOp1
 70
     1
102
RTVSPropertyOp2
 70
     1
102
RTVSPropertyOp3
 70
     1
102
RTVSPropertyOp4
 70
     1
102
RTVSPropertyOp5
 70
     1
102
RTVSPropertyOp6
 70
     1
102
RTVSPropertyOp7
 70
     1
102
RTVSPropertyOp8
 70
     1
102
RTVSPropertyOp9
 70
     1
102
RTVSPropertyOp10
 70
     1
102
RTVSPropertyOp11
 70
     1
102
RTVSPropertyOp12
 70
     1
102
RTVSPropertyOp13
 70
     1
102
RTVSPropertyOp14
 70
     1
102
RTVSPropertyOp15
 70
     1
102
RTVSPropertyOp16
 70
     1
102
RTVSPropertyOp17
 70
     1
102
RTVSPropertyOp18
 70
     1
102
RTVSPropertyOp19
 70
     1
102
RTVSPropertyOp20
 70
     1
102
RTVSPropertyOp21
 70
     1
102
RTVSPropertyOp22
 70
     1
102
RTVSPropertyOp23
 70
     1
102
RTVSPropertyOp24
 70
     1
102
RTVSPropertyOp25
 70
     1
102
RTVSPropertyOp26
 70
     1
102
RTVSPropertyOp27
 70
     1
102
RTVSPropertyOp28
 70
     1
102
RTVSPropertyOp29
 70
     1
102
RTVSPropertyOp30
 70
     1
102
RTVSPropertyOp31
 70
     1
102
RTVSPropertyOp32
 70
     1
102
RTVSPropertyOp33
 70
     1
102
RTVSPropertyOp34
 70
     1
102
RTVSPropertyOp35
 70
     1
102
RTVSPropertyOp36
 70
     1
102
RTVSPropertyOp37
 70
     1
102
RTVSPropertyOp38
 70
     1
102
RTVSPropertyOp39
 70
     1
102
RTVSPropertyOp40
 70
     1
102
RTVSPropertyOp41
 70
     1
102
RTVSPropertyOp42
 70
     1
102
RTVSPropertyOp43
 70
     1
102
RTVSPropertyOp44
 70
     1
102
RTVSPropertyOp45
 70
     1
102
RTVSPropertyOp46
 70
     1
102
RTVSPropertyOp47
 70
     1
102
RTVSPropertyOp48
 70
     1
102
RTVSPropertyOp49
 70
     1
102
RTVSPropertyOp50
 70
     1
102
RTVSPropertyOp51
 70
     0
102
RTVSPropertyOp52
 70
     0
102
RTVSPropertyOp53
 70
     1
102
RTVSPropertyOp54
 70
     1
102
RTVSPropertyOp55
 70
     1
102
RTVSPropertyOp56
 70
     1
102
RTVSPropertyOp57
 70
     1
102
RTVSPropertyOp58
 70
     1
102
RTVSPropertyOp59
 70
     1
102
RTVSPropertyOp60
 70
     1
102
RTVSPropertyOp61
 70
     1
102
RTVSPropertyOp62
 70
     1
  0
XRECORD
  5
A8E8
102
{ACAD_REACTORS
330
A8E7
102
}
330
A8E7
100
AcDbXrecord
280
     1
102
RTVSPost2010Prop28
280
     0
102
RTVSPost2010PropOp28
 70
     1
102
RTVSPost2010Prop29
280
     1
102
RTVSPost2010PropOp29
 70
     1
102
RTVSPost2010Prop30
280
     1
102
RTVSPost2010PropOp30
 70
     1
102
RTVSPost2010Prop31
280
     0
102
RTVSPost2010PropOp31
 70
     1
102
RTVSPost2010Prop32
280
     0
102
RTVSPost2010PropOp32
 70
     1
102
RTVSPost2010Prop33
280
     0
102
RTVSPost2010PropOp33
 70
     1
102
RTVSPost2010Prop34
280
     0
102
RTVSPost2010PropOp34
 70
     1
102
RTVSPost2010Prop35
280
     0
102
RTVSPost2010PropOp35
 70
     1
102
RTVSPost2010Prop36
280
     0
102
RTVSPost2010PropOp36
 70
     1
102
RTVSPost2010Prop37
 90
       50
102
RTVSPost2010PropOp37
 70
     1
102
RTVSPost2010Prop38
140
0.0
102
RTVSPost2010PropOp38
 70
     1
102
RTVSPost2010Prop39
140
1.0
102
RTVSPost2010PropOp39
 70
     1
102
RTVSPost2010Prop40
 90
        0
102
RTVSPost2010PropOp40
 70
     1
102
RTVSPost2010Prop41ColorIndex
 90
       18
102
RTVSPost2010Prop41ColorRGB
 90
        0
102
RTVSPost2010PropOp41
 70
     1
102
RTVSPost2010Prop42
 90
       50
102
RTVSPost2010PropOp42
 70
     1
102
RTVSPost2010Prop43
 90
        3
102
RTVSPost2010PropOp43
 70
     1
102
RTVSPost2010Prop44ColorIndex
 90
        5
102
RTVSPost2010Prop44ColorRGB
 90
      255
102
RTVSPost2010PropOp44
 70
     1
102
RTVSPost2010Prop45
280
     0
102
RTVSPost2010PropOp45
 70
     1
102
RTVSPost2010Prop46
 90
       50
102
RTVSPost2010PropOp46
 70
     1
102
RTVSPost2010Prop47
 90
       50
102
RTVSPost2010PropOp47
 70
     1
102
RTVSPost2010Prop48
 90
       50
102
RTVSPost2010PropOp48
 70
     1
102
RTVSPost2010Prop49
280
     0
102
RTVSPost2010PropOp49
 70
     1
102
RTVSPost2010Prop50
 90
       50
102
RTVSPost2010PropOp50
 70
     1
102
RTVSPost2010Prop51ColorIndex
 90
      256
102
RTVSPost2010Prop51ColorRGB
 90
-16777216
102
RTVSPost2010PropOp51
 70
     0
102
RTVSPost2010Prop52
140
1.0
102
RTVSPost2010PropOp52
 70
     0
102
RTVSPost2010Prop53
 90
        2
102
RTVSPost2010PropOp53
 70
     1
102
RTVSPost2010Prop54
  1
strokes_ogs.tif
102
RTVSPost2010PropOp54
 70
     1
102
RTVSPost2010Prop55
280
     0
102
RTVSPost2010PropOp55
 70
     1
102
RTVSPost2010Prop56
140
1.0
102
RTVSPost2010PropOp56
 70
     1
102
RTVSPost2010Prop57
140
1.0
102
RTVSPost2010PropOp57
 70
     1
102
RTVSPropertyOp0
 70
     1
102
RTVSPropertyOp1
 70
     1
102
RTVSPropertyOp2
 70
     1
102
RTVSPropertyOp3
 70
     1
102
RTVSPropertyOp4
 70
     1
102
RTVSPropertyOp5
 70
     1
102
RTVSPropertyOp6
 70
     1
102
RTVSPropertyOp7
 70
     1
102
RTVSPropertyOp8
 70
     1
102
RTVSPropertyOp9
 70
     1
102
RTVSPropertyOp10
 70
     1
102
RTVSPropertyOp11
 70
     1
102
RTVSPropertyOp12
 70
     1
102
RTVSPropertyOp13
 70
     1
102
RTVSPropertyOp14
 70
     1
102
RTVSPropertyOp15
 70
     1
102
RTVSPropertyOp16
 70
     1
102
RTVSPropertyOp17
 70
     1
102
RTVSPropertyOp18
 70
     1
102
RTVSPropertyOp19
 70
     1
102
RTVSPropertyOp20
 70
     1
102
RTVSPropertyOp21
 70
     1
102
RTVSPropertyOp22
 70
     1
102
RTVSPropertyOp23
 70
     1
102
RTVSPropertyOp24
 70
     1
102
RTVSPropertyOp25
 70
     1
102
RTVSPropertyOp26
 70
     1
102
RTVSPropertyOp27
 70
     1
102
RTVSPropertyOp28
 70
     1
102
RTVSPropertyOp29
 70
     1
102
RTVSPropertyOp30
 70
     1
102
RTVSPropertyOp31
 70
     1
102
RTVSPropertyOp32
 70
     1
102
RTVSPropertyOp33
 70
     1
102
RTVSPropertyOp34
 70
     1
102
RTVSPropertyOp35
 70
     1
102
RTVSPropertyOp36
 70
     1
102
RTVSPropertyOp37
 70
     1
102
RTVSPropertyOp38
 70
     1
102
RTVSPropertyOp39
 70
     1
102
RTVSPropertyOp40
 70
     1
102
RTVSPropertyOp41
 70
     1
102
RTVSPropertyOp42
 70
     1
102
RTVSPropertyOp43
 70
     1
102
RTVSPropertyOp44
 70
     1
102
RTVSPropertyOp45
 70
     1
102
RTVSPropertyOp46
 70
     1
102
RTVSPropertyOp47
 70
     1
102
RTVSPropertyOp48
 70
     1
102
RTVSPropertyOp49
 70
     1
102
RTVSPropertyOp50
 70
     1
102
RTVSPropertyOp51
 70
     0
102
RTVSPropertyOp52
 70
     0
102
RTVSPropertyOp53
 70
     1
102
RTVSPropertyOp54
 70
     1
102
RTVSPropertyOp55
 70
     1
102
RTVSPropertyOp56
 70
     1
102
RTVSPropertyOp57
 70
     1
102
RTVSPropertyOp58
 70
     1
102
RTVSPropertyOp59
 70
     1
102
RTVSPropertyOp60
 70
     1
102
RTVSPropertyOp61
 70
     1
102
RTVSPropertyOp62
 70
     1
  0
XRECORD
  5
A8DE
102
{ACAD_REACTORS
330
A8DD
102
}
330
A8DD
100
AcDbXrecord
280
     1
102
RTVSPost2010Prop28
280
     0
102
RTVSPost2010PropOp28
 70
     1
102
RTVSPost2010Prop29
280
     1
102
RTVSPost2010PropOp29
 70
     1
102
RTVSPost2010Prop30
280
     1
102
RTVSPost2010PropOp30
 70
     1
102
RTVSPost2010Prop31
280
     0
102
RTVSPost2010PropOp31
 70
     1
102
RTVSPost2010Prop32
280
     0
102
RTVSPost2010PropOp32
 70
     1
102
RTVSPost2010Prop33
280
     0
102
RTVSPost2010PropOp33
 70
     1
102
RTVSPost2010Prop34
280
     0
102
RTVSPost2010PropOp34
 70
     1
102
RTVSPost2010Prop35
280
     0
102
RTVSPost2010PropOp35
 70
     1
102
RTVSPost2010Prop36
280
     0
102
RTVSPost2010PropOp36
 70
     1
102
RTVSPost2010Prop37
 90
       50
102
RTVSPost2010PropOp37
 70
     1
102
RTVSPost2010Prop38
140
0.0
102
RTVSPost2010PropOp38
 70
     1
102
RTVSPost2010Prop39
140
1.0
102
RTVSPost2010PropOp39
 70
     1
102
RTVSPost2010Prop40
 90
        0
102
RTVSPost2010PropOp40
 70
     1
102
RTVSPost2010Prop41ColorIndex
 90
       18
102
RTVSPost2010Prop41ColorRGB
 90
        0
102
RTVSPost2010PropOp41
 70
     1
102
RTVSPost2010Prop42
 90
       50
102
RTVSPost2010PropOp42
 70
     1
102
RTVSPost2010Prop43
 90
        3
102
RTVSPost2010PropOp43
 70
     1
102
RTVSPost2010Prop44ColorIndex
 90
        5
102
RTVSPost2010Prop44ColorRGB
 90
      255
102
RTVSPost2010PropOp44
 70
     1
102
RTVSPost2010Prop45
280
     0
102
RTVSPost2010PropOp45
 70
     1
102
RTVSPost2010Prop46
 90
       50
102
RTVSPost2010PropOp46
 70
     1
102
RTVSPost2010Prop47
 90
       50
102
RTVSPost2010PropOp47
 70
     1
102
RTVSPost2010Prop48
 90
       50
102
RTVSPost2010PropOp48
 70
     1
102
RTVSPost2010Prop49
280
     0
102
RTVSPost2010PropOp49
 70
     1
102
RTVSPost2010Prop50
 90
       50
102
RTVSPost2010PropOp50
 70
     1
102
RTVSPost2010Prop51ColorIndex
 90
      256
102
RTVSPost2010Prop51ColorRGB
 90
-16777216
102
RTVSPost2010PropOp51
 70
     0
102
RTVSPost2010Prop52
140
1.0
102
RTVSPost2010PropOp52
 70
     0
102
RTVSPost2010Prop53
 90
        2
102
RTVSPost2010PropOp53
 70
     1
102
RTVSPost2010Prop54
  1
strokes_ogs.tif
102
RTVSPost2010PropOp54
 70
     1
102
RTVSPost2010Prop55
280
     0
102
RTVSPost2010PropOp55
 70
     1
102
RTVSPost2010Prop56
140
1.0
102
RTVSPost2010PropOp56
 70
     1
102
RTVSPost2010Prop57
140
1.0
102
RTVSPost2010PropOp57
 70
     1
102
RTVSPropertyOp0
 70
     1
102
RTVSPropertyOp1
 70
     1
102
RTVSPropertyOp2
 70
     1
102
RTVSPropertyOp3
 70
     1
102
RTVSPropertyOp4
 70
     1
102
RTVSPropertyOp5
 70
     1
102
RTVSPropertyOp6
 70
     1
102
RTVSPropertyOp7
 70
     1
102
RTVSPropertyOp8
 70
     1
102
RTVSPropertyOp9
 70
     1
102
RTVSPropertyOp10
 70
     1
102
RTVSPropertyOp11
 70
     1
102
RTVSPropertyOp12
 70
     1
102
RTVSPropertyOp13
 70
     1
102
RTVSPropertyOp14
 70
     1
102
RTVSPropertyOp15
 70
     1
102
RTVSPropertyOp16
 70
     1
102
RTVSPropertyOp17
 70
     1
102
RTVSPropertyOp18
 70
     1
102
RTVSPropertyOp19
 70
     1
102
RTVSPropertyOp20
 70
     1
102
RTVSPropertyOp21
 70
     1
102
RTVSPropertyOp22
 70
     1
102
RTVSPropertyOp23
 70
     1
102
RTVSPropertyOp24
 70
     1
102
RTVSPropertyOp25
 70
     1
102
RTVSPropertyOp26
 70
     1
102
RTVSPropertyOp27
 70
     1
102
RTVSPropertyOp28
 70
     1
102
RTVSPropertyOp29
 70
     1
102
RTVSPropertyOp30
 70
     1
102
RTVSPropertyOp31
 70
     1
102
RTVSPropertyOp32
 70
     1
102
RTVSPropertyOp33
 70
     1
102
RTVSPropertyOp34
 70
     1
102
RTVSPropertyOp35
 70
     1
102
RTVSPropertyOp36
 70
     1
102
RTVSPropertyOp37
 70
     1
102
RTVSPropertyOp38
 70
     1
102
RTVSPropertyOp39
 70
     1
102
RTVSPropertyOp40
 70
     1
102
RTVSPropertyOp41
 70
     1
102
RTVSPropertyOp42
 70
     1
102
RTVSPropertyOp43
 70
     1
102
RTVSPropertyOp44
 70
     1
102
RTVSPropertyOp45
 70
     1
102
RTVSPropertyOp46
 70
     1
102
RTVSPropertyOp47
 70
     1
102
RTVSPropertyOp48
 70
     1
102
RTVSPropertyOp49
 70
     1
102
RTVSPropertyOp50
 70
     1
102
RTVSPropertyOp51
 70
     0
102
RTVSPropertyOp52
 70
     0
102
RTVSPropertyOp53
 70
     1
102
RTVSPropertyOp54
 70
     1
102
RTVSPropertyOp55
 70
     1
102
RTVSPropertyOp56
 70
     1
102
RTVSPropertyOp57
 70
     1
102
RTVSPropertyOp58
 70
     1
102
RTVSPropertyOp59
 70
     1
102
RTVSPropertyOp60
 70
     1
102
RTVSPropertyOp61
 70
     1
102
RTVSPropertyOp62
 70
     1
  0
XRECORD
  5
A8D2
102
{ACAD_REACTORS
330
A8D1
102
}
330
A8D1
100
AcDbXrecord
280
     1
102
RTVSPost2010Prop28
280
     0
102
RTVSPost2010PropOp28
 70
     1
102
RTVSPost2010Prop29
280
     1
102
RTVSPost2010PropOp29
 70
     1
102
RTVSPost2010Prop30
280
     1
102
RTVSPost2010PropOp30
 70
     1
102
RTVSPost2010Prop31
280
     0
102
RTVSPost2010PropOp31
 70
     1
102
RTVSPost2010Prop32
280
     0
102
RTVSPost2010PropOp32
 70
     1
102
RTVSPost2010Prop33
280
     0
102
RTVSPost2010PropOp33
 70
     1
102
RTVSPost2010Prop34
280
     0
102
RTVSPost2010PropOp34
 70
     1
102
RTVSPost2010Prop35
280
     0
102
RTVSPost2010PropOp35
 70
     1
102
RTVSPost2010Prop36
280
     0
102
RTVSPost2010PropOp36
 70
     1
102
RTVSPost2010Prop37
 90
       50
102
RTVSPost2010PropOp37
 70
     1
102
RTVSPost2010Prop38
140
0.0
102
RTVSPost2010PropOp38
 70
     1
102
RTVSPost2010Prop39
140
1.0
102
RTVSPost2010PropOp39
 70
     1
102
RTVSPost2010Prop40
 90
        0
102
RTVSPost2010PropOp40
 70
     1
102
RTVSPost2010Prop41ColorIndex
 90
       18
102
RTVSPost2010Prop41ColorRGB
 90
        0
102
RTVSPost2010PropOp41
 70
     1
102
RTVSPost2010Prop42
 90
       50
102
RTVSPost2010PropOp42
 70
     1
102
RTVSPost2010Prop43
 90
        3
102
RTVSPost2010PropOp43
 70
     1
102
RTVSPost2010Prop44ColorIndex
 90
        5
102
RTVSPost2010Prop44ColorRGB
 90
      255
102
RTVSPost2010PropOp44
 70
     1
102
RTVSPost2010Prop45
280
     0
102
RTVSPost2010PropOp45
 70
     1
102
RTVSPost2010Prop46
 90
       50
102
RTVSPost2010PropOp46
 70
     1
102
RTVSPost2010Prop47
 90
       50
102
RTVSPost2010PropOp47
 70
     1
102
RTVSPost2010Prop48
 90
       50
102
RTVSPost2010PropOp48
 70
     1
102
RTVSPost2010Prop49
280
     0
102
RTVSPost2010PropOp49
 70
     1
102
RTVSPost2010Prop50
 90
       50
102
RTVSPost2010PropOp50
 70
     1
102
RTVSPost2010Prop51ColorIndex
 90
      256
102
RTVSPost2010Prop51ColorRGB
 90
-16777216
102
RTVSPost2010PropOp51
 70
     0
102
RTVSPost2010Prop52
140
1.0
102
RTVSPost2010PropOp52
 70
     0
102
RTVSPost2010Prop53
 90
        2
102
RTVSPost2010PropOp53
 70
     1
102
RTVSPost2010Prop54
  1
strokes_ogs.tif
102
RTVSPost2010PropOp54
 70
     1
102
RTVSPost2010Prop55
280
     0
102
RTVSPost2010PropOp55
 70
     1
102
RTVSPost2010Prop56
140
1.0
102
RTVSPost2010PropOp56
 70
     1
102
RTVSPost2010Prop57
140
1.0
102
RTVSPost2010PropOp57
 70
     1
102
RTVSPropertyOp0
 70
     1
102
RTVSPropertyOp1
 70
     1
102
RTVSPropertyOp2
 70
     1
102
RTVSPropertyOp3
 70
     1
102
RTVSPropertyOp4
 70
     1
102
RTVSPropertyOp5
 70
     1
102
RTVSPropertyOp6
 70
     1
102
RTVSPropertyOp7
 70
     1
102
RTVSPropertyOp8
 70
     1
102
RTVSPropertyOp9
 70
     1
102
RTVSPropertyOp10
 70
     1
102
RTVSPropertyOp11
 70
     1
102
RTVSPropertyOp12
 70
     1
102
RTVSPropertyOp13
 70
     1
102
RTVSPropertyOp14
 70
     1
102
RTVSPropertyOp15
 70
     1
102
RTVSPropertyOp16
 70
     1
102
RTVSPropertyOp17
 70
     1
102
RTVSPropertyOp18
 70
     1
102
RTVSPropertyOp19
 70
     1
102
RTVSPropertyOp20
 70
     1
102
RTVSPropertyOp21
 70
     1
102
RTVSPropertyOp22
 70
     1
102
RTVSPropertyOp23
 70
     1
102
RTVSPropertyOp24
 70
     1
102
RTVSPropertyOp25
 70
     1
102
RTVSPropertyOp26
 70
     1
102
RTVSPropertyOp27
 70
     1
102
RTVSPropertyOp28
 70
     1
102
RTVSPropertyOp29
 70
     1
102
RTVSPropertyOp30
 70
     1
102
RTVSPropertyOp31
 70
     1
102
RTVSPropertyOp32
 70
     1
102
RTVSPropertyOp33
 70
     1
102
RTVSPropertyOp34
 70
     1
102
RTVSPropertyOp35
 70
     1
102
RTVSPropertyOp36
 70
     1
102
RTVSPropertyOp37
 70
     1
102
RTVSPropertyOp38
 70
     1
102
RTVSPropertyOp39
 70
     1
102
RTVSPropertyOp40
 70
     1
102
RTVSPropertyOp41
 70
     1
102
RTVSPropertyOp42
 70
     1
102
RTVSPropertyOp43
 70
     1
102
RTVSPropertyOp44
 70
     1
102
RTVSPropertyOp45
 70
     1
102
RTVSPropertyOp46
 70
     1
102
RTVSPropertyOp47
 70
     1
102
RTVSPropertyOp48
 70
     1
102
RTVSPropertyOp49
 70
     1
102
RTVSPropertyOp50
 70
     1
102
RTVSPropertyOp51
 70
     0
102
RTVSPropertyOp52
 70
     0
102
RTVSPropertyOp53
 70
     1
102
RTVSPropertyOp54
 70
     1
102
RTVSPropertyOp55
 70
     1
102
RTVSPropertyOp56
 70
     1
102
RTVSPropertyOp57
 70
     1
102
RTVSPropertyOp58
 70
     1
102
RTVSPropertyOp59
 70
     1
102
RTVSPropertyOp60
 70
     1
102
RTVSPropertyOp61
 70
     1
102
RTVSPropertyOp62
 70
     1
  0
XRECORD
  5
A8EA
102
{ACAD_REACTORS
330
A8E9
102
}
330
A8E9
100
AcDbXrecord
280
     1
102
RTVSPost2010Prop28
280
     0
102
RTVSPost2010PropOp28
 70
     1
102
RTVSPost2010Prop29
280
     1
102
RTVSPost2010PropOp29
 70
     1
102
RTVSPost2010Prop30
280
     1
102
RTVSPost2010PropOp30
 70
     1
102
RTVSPost2010Prop31
280
     0
102
RTVSPost2010PropOp31
 70
     1
102
RTVSPost2010Prop32
280
     0
102
RTVSPost2010PropOp32
 70
     1
102
RTVSPost2010Prop33
280
     0
102
RTVSPost2010PropOp33
 70
     1
102
RTVSPost2010Prop34
280
     0
102
RTVSPost2010PropOp34
 70
     1
102
RTVSPost2010Prop35
280
     0
102
RTVSPost2010PropOp35
 70
     1
102
RTVSPost2010Prop36
280
     0
102
RTVSPost2010PropOp36
 70
     1
102
RTVSPost2010Prop37
 90
       50
102
RTVSPost2010PropOp37
 70
     1
102
RTVSPost2010Prop38
140
0.0
102
RTVSPost2010PropOp38
 70
     1
102
RTVSPost2010Prop39
140
1.0
102
RTVSPost2010PropOp39
 70
     1
102
RTVSPost2010Prop40
 90
        0
102
RTVSPost2010PropOp40
 70
     1
102
RTVSPost2010Prop41ColorIndex
 90
       18
102
RTVSPost2010Prop41ColorRGB
 90
        0
102
RTVSPost2010PropOp41
 70
     1
102
RTVSPost2010Prop42
 90
       50
102
RTVSPost2010PropOp42
 70
     1
102
RTVSPost2010Prop43
 90
        3
102
RTVSPost2010PropOp43
 70
     1
102
RTVSPost2010Prop44ColorIndex
 90
        5
102
RTVSPost2010Prop44ColorRGB
 90
      255
102
RTVSPost2010PropOp44
 70
     1
102
RTVSPost2010Prop45
280
     0
102
RTVSPost2010PropOp45
 70
     1
102
RTVSPost2010Prop46
 90
       50
102
RTVSPost2010PropOp46
 70
     1
102
RTVSPost2010Prop47
 90
       50
102
RTVSPost2010PropOp47
 70
     1
102
RTVSPost2010Prop48
 90
       50
102
RTVSPost2010PropOp48
 70
     1
102
RTVSPost2010Prop49
280
     0
102
RTVSPost2010PropOp49
 70
     1
102
RTVSPost2010Prop50
 90
       50
102
RTVSPost2010PropOp50
 70
     1
102
RTVSPost2010Prop51ColorIndex
 90
      256
102
RTVSPost2010Prop51ColorRGB
 90
-16777216
102
RTVSPost2010PropOp51
 70
     0
102
RTVSPost2010Prop52
140
1.0
102
RTVSPost2010PropOp52
 70
     0
102
RTVSPost2010Prop53
 90
        2
102
RTVSPost2010PropOp53
 70
     1
102
RTVSPost2010Prop54
  1
strokes_ogs.tif
102
RTVSPost2010PropOp54
 70
     1
102
RTVSPost2010Prop55
280
     0
102
RTVSPost2010PropOp55
 70
     1
102
RTVSPost2010Prop56
140
1.0
102
RTVSPost2010PropOp56
 70
     1
102
RTVSPost2010Prop57
140
1.0
102
RTVSPost2010PropOp57
 70
     1
102
RTVSPropertyOp0
 70
     1
102
RTVSPropertyOp1
 70
     1
102
RTVSPropertyOp2
 70
     1
102
RTVSPropertyOp3
 70
     1
102
RTVSPropertyOp4
 70
     1
102
RTVSPropertyOp5
 70
     1
102
RTVSPropertyOp6
 70
     1
102
RTVSPropertyOp7
 70
     1
102
RTVSPropertyOp8
 70
     1
102
RTVSPropertyOp9
 70
     1
102
RTVSPropertyOp10
 70
     1
102
RTVSPropertyOp11
 70
     1
102
RTVSPropertyOp12
 70
     1
102
RTVSPropertyOp13
 70
     1
102
RTVSPropertyOp14
 70
     1
102
RTVSPropertyOp15
 70
     1
102
RTVSPropertyOp16
 70
     1
102
RTVSPropertyOp17
 70
     1
102
RTVSPropertyOp18
 70
     1
102
RTVSPropertyOp19
 70
     1
102
RTVSPropertyOp20
 70
     1
102
RTVSPropertyOp21
 70
     1
102
RTVSPropertyOp22
 70
     1
102
RTVSPropertyOp23
 70
     1
102
RTVSPropertyOp24
 70
     1
102
RTVSPropertyOp25
 70
     1
102
RTVSPropertyOp26
 70
     1
102
RTVSPropertyOp27
 70
     1
102
RTVSPropertyOp28
 70
     1
102
RTVSPropertyOp29
 70
     1
102
RTVSPropertyOp30
 70
     1
102
RTVSPropertyOp31
 70
     1
102
RTVSPropertyOp32
 70
     1
102
RTVSPropertyOp33
 70
     1
102
RTVSPropertyOp34
 70
     1
102
RTVSPropertyOp35
 70
     1
102
RTVSPropertyOp36
 70
     1
102
RTVSPropertyOp37
 70
     1
102
RTVSPropertyOp38
 70
     1
102
RTVSPropertyOp39
 70
     1
102
RTVSPropertyOp40
 70
     1
102
RTVSPropertyOp41
 70
     1
102
RTVSPropertyOp42
 70
     1
102
RTVSPropertyOp43
 70
     1
102
RTVSPropertyOp44
 70
     1
102
RTVSPropertyOp45
 70
     1
102
RTVSPropertyOp46
 70
     1
102
RTVSPropertyOp47
 70
     1
102
RTVSPropertyOp48
 70
     1
102
RTVSPropertyOp49
 70
     1
102
RTVSPropertyOp50
 70
     1
102
RTVSPropertyOp51
 70
     0
102
RTVSPropertyOp52
 70
     0
102
RTVSPropertyOp53
 70
     1
102
RTVSPropertyOp54
 70
     1
102
RTVSPropertyOp55
 70
     1
102
RTVSPropertyOp56
 70
     1
102
RTVSPropertyOp57
 70
     1
102
RTVSPropertyOp58
 70
     1
102
RTVSPropertyOp59
 70
     1
102
RTVSPropertyOp60
 70
     1
102
RTVSPropertyOp61
 70
     1
102
RTVSPropertyOp62
 70
     1
  0
ENDSEC
  0
EOF
