  0
SECTION
  2
HEADER
  9
$ACADVER
  1
AC1015
  9
$ACADMAINTVER
 70
    20
  9
$DWGCODEPAGE
  3
ANSI_932
  9
$INSBASE
 10
0.0
 20
0.0
 30
0.0
  9
$EXTMIN
 10
0.0
 20
0.0
 30
0.0
  9
$EXTMAX
 10
3150.0
 20
4425.0
 30
0.0
  9
$LIMMIN
 10
0.0
 20
0.0
  9
$LIMMAX
 10
297.0
 20
210.0
  9
$ORTHOMODE
 70
     1
  9
$REGENMODE
 70
     1
  9
$FILLMODE
 70
     0
  9
$QTEXTMODE
 70
     0
  9
$MIRRTEXT
 70
     1
  9
$LTSCALE
 40
100.0
  9
$ATTMODE
 70
     1
  9
$TEXTSIZE
 40
180.0
  9
$TRACEWID
 40
0.05
  9
$TEXTSTYLE
  7
STANDARD
  9
$CLAYER
  8
3
  9
$CELTYPE
  6
BYLAYER
  9
$CECOLOR
 62
   256
  9
$CELTSCALE
 40
1.0
  9
$DISPSILH
 70
     0
  9
$DIMSCALE
 40
15.0
  9
$DIMASZ
 40
2.0
  9
$DIMEXO
 40
0.5
  9
$DIMDLI
 40
10.0
  9
$DIMRND
 40
0.0
  9
$DIMDLE
 40
0.0
  9
$DIMEXE
 40
1.0
  9
$DIMTP
 40
1.0
  9
$DIMTM
 40
1.0
  9
$DIMTXT
 40
3.0
  9
$DIMCEN
 40
0.0
  9
$DIMTSZ
 40
0.0
  9
$DIMTOL
 70
     0
  9
$DIMLIM
 70
     0
  9
$DIMTIH
 70
     0
  9
$DIMTOH
 70
     0
  9
$DIMSE1
 70
     0
  9
$DIMSE2
 70
     0
  9
$DIMTAD
 70
     1
  9
$DIMZIN
 70
     8
  9
$DIMBLK
  1

  9
$DIMASO
 70
     1
  9
$DIMSHO
 70
     1
  9
$DIMPOST
  1

  9
$DIMAPOST
  1

  9
$DIMALT
 70
     0
  9
$DIMALTD
 70
     2
  9
$DIMALTF
 40
0.039
  9
$DIMLFAC
 40
1.0
  9
$DIMTOFL
 70
     1
  9
$DIMTVP
 40
0.0
  9
$DIMTIX
 70
     0
  9
$DIMSOXD
 70
     0
  9
$DIMSAH
 70
     1
  9
$DIMBLK1
  1
OPEN
  9
$DIMBLK2
  1
OPEN
  9
$DIMSTYLE
  2
IGA
  9
$DIMCLRD
 70
     0
  9
$DIMCLRE
 70
     0
  9
$DIMCLRT
 70
     0
  9
$DIMTFAC
 40
10.0
  9
$DIMGAP
 40
1.0
  9
$DIMJUST
 70
     0
  9
$DIMSD1
 70
     0
  9
$DIMSD2
 70
     0
  9
$DIMTOLJ
 70
     1
  9
$DIMTZIN
 70
     8
  9
$DIMALTZ
 70
     0
  9
$DIMALTTZ
 70
     0
  9
$DIMUPT
 70
     1
  9
$DIMDEC
 70
     0
  9
$DIMTDEC
 70
     0
  9
$DIMALTU
 70
     2
  9
$DIMALTTD
 70
     2
  9
$DIMTXSTY
  7
STANDARD
  9
$DIMAUNIT
 70
     0
  9
$DIMADEC
 70
     0
  9
$DIMALTRND
 40
0.0
  9
$DIMAZIN
 70
     0
  9
$DIMDSEP
 70
    46
  9
$DIMATFIT
 70
     3
  9
$DIMFRAC
 70
     0
  9
$DIMLDRBLK
  1
OPEN
  9
$DIMLUNIT
 70
     2
  9
$DIMLWD
 70
    -2
  9
$DIMLWE
 70
    -2
  9
$DIMTMOVE
 70
     0
  9
$LUNITS
 70
     2
  9
$LUPREC
 70
     3
  9
$SKETCHINC
 40
0.1
  9
$FILLETRAD
 40
50.0
  9
$AUNITS
 70
     0
  9
$AUPREC
 70
     0
  9
$MENU
  1
acad
  9
$ELEVATION
 40
0.0
  9
$PELEVATION
 40
0.0
  9
$THICKNESS
 40
0.0
  9
$LIMCHECK
 70
     0
  9
$CHAMFERA
 40
0.5
  9
$CHAMFERB
 40
0.5
  9
$CHAMFERC
 40
20.0
  9
$CHAMFERD
 40
0.0
  9
$SKPOLY
 70
     0
  9
$TDCREATE
 40
2451019.499692246
  9
$TDUCREATE
 40
2451019.124692245
  9
$TDUPDATE
 40
2459605.795429178
  9
$TDUUPDATE
 40
2459605.420429178
  9
$TDINDWG
 40
0.1657690856
  9
$TDUSRTIMER
 40
0.1657690856
  9
$USRTIMER
 70
     1
  9
$ANGBASE
 50
0.0
  9
$ANGDIR
 70
     0
  9
$PDMODE
 70
     0
  9
$PDSIZE
 40
0.0
  9
$PLINEWID
 40
0.0
  9
$SPLFRAME
 70
     0
  9
$SPLINETYPE
 70
     6
  9
$SPLINESEGS
 70
     8
  9
$HANDSEED
  5
9F4C
  9
$SURFTAB1
 70
     6
  9
$SURFTAB2
 70
     6
  9
$SURFTYPE
 70
     6
  9
$SURFU
 70
     6
  9
$SURFV
 70
     6
  9
$UCSBASE
  2

  9
$UCSNAME
  2

  9
$UCSORG
 10
0.0
 20
0.0
 30
0.0
  9
$UCSXDIR
 10
1.0
 20
0.0
 30
0.0
  9
$UCSYDIR
 10
0.0
 20
1.0
 30
0.0
  9
$UCSORTHOREF
  2

  9
$UCSORTHOVIEW
 70
     0
  9
$UCSORGTOP
 10
0.0
 20
0.0
 30
0.0
  9
$UCSORGBOTTOM
 10
0.0
 20
0.0
 30
0.0
  9
$UCSORGLEFT
 10
0.0
 20
0.0
 30
0.0
  9
$UCSORGRIGHT
 10
0.0
 20
0.0
 30
0.0
  9
$UCSORGFRONT
 10
0.0
 20
0.0
 30
0.0
  9
$UCSORGBACK
 10
0.0
 20
0.0
 30
0.0
  9
$PUCSBASE
  2

  9
$PUCSNAME
  2

  9
$PUCSORG
 10
0.0
 20
0.0
 30
0.0
  9
$PUCSXDIR
 10
1.0
 20
0.0
 30
0.0
  9
$PUCSYDIR
 10
0.0
 20
1.0
 30
0.0
  9
$PUCSORTHOREF
  2

  9
$PUCSORTHOVIEW
 70
     0
  9
$PUCSORGTOP
 10
0.0
 20
0.0
 30
0.0
  9
$PUCSORGBOTTOM
 10
0.0
 20
0.0
 30
0.0
  9
$PUCSORGLEFT
 10
0.0
 20
0.0
 30
0.0
  9
$PUCSORGRIGHT
 10
0.0
 20
0.0
 30
0.0
  9
$PUCSORGFRONT
 10
0.0
 20
0.0
 30
0.0
  9
$PUCSORGBACK
 10
0.0
 20
0.0
 30
0.0
  9
$USERI1
 70
     0
  9
$USERI2
 70
     0
  9
$USERI3
 70
     0
  9
$USERI4
 70
     0
  9
$USERI5
 70
     0
  9
$USERR1
 40
0.0
  9
$USERR2
 40
0.0
  9
$USERR3
 40
0.0
  9
$USERR4
 40
0.0
  9
$USERR5
 40
0.0
  9
$WORLDVIEW
 70
     1
  9
$SHADEDGE
 70
     3
  9
$SHADEDIF
 70
    70
  9
$TILEMODE
 70
     1
  9
$MAXACTVP
 70
    16
  9
$PINSBASE
 10
0.0
 20
0.0
 30
0.0
  9
$PLIMCHECK
 70
     0
  9
$PEXTMIN
 10
1.000000000000000E+20
 20
1.000000000000000E+20
 30
1.000000000000000E+20
  9
$PEXTMAX
 10
-1.000000000000000E+20
 20
-1.000000000000000E+20
 30
-1.000000000000000E+20
  9
$PLIMMIN
 10
0.0
 20
0.0
  9
$PLIMMAX
 10
12.0
 20
9.0
  9
$UNITMODE
 70
     0
  9
$VISRETAIN
 70
     0
  9
$PLINEGEN
 70
     0
  9
$PSLTSCALE
 70
     1
  9
$TREEDEPTH
 70
  3020
  9
$CMLSTYLE
  2
STANDARD
  9
$CMLJUST
 70
     0
  9
$CMLSCALE
 40
20.0
  9
$PROXYGRAPHICS
 70
     1
  9
$MEASUREMENT
 70
     1
  9
$CELWEIGHT
370
    -1
  9
$ENDCAPS
280
     0
  9
$JOINSTYLE
280
     0
  9
$LWDISPLAY
290
     0
  9
$INSUNITS
 70
     0
  9
$HYPERLINKBASE
  1

  9
$STYLESHEET
  1
monochrome.ctb
  9
$XEDIT
290
     1
  9
$CEPSNTYPE
380
     0
  9
$PSTYLEMODE
290
     1
  9
$FINGERPRINTGUID
  2
{BBC069D9-D2F1-48BF-8443-D706AF31F9D0}
  9
$VERSIONGUID
  2
{CBD0BE28-0457-415D-88CB-CB1A54B0D7CE}
  9
$EXTNAMES
290
     1
  9
$PSVPSCALE
 40
0.0
  9
$OLESTARTUP
290
     0
  0
ENDSEC
  0
SECTION
  2
CLASSES
  0
CLASS
  1
ACDBDICTIONARYWDFLT
  2
AcDbDictionaryWithDefault
  3
ObjectDBX Classes
 90
        0
280
     0
281
     0
  0
CLASS
  1
ACDBPLACEHOLDER
  2
AcDbPlaceHolder
  3
ObjectDBX Classes
 90
        0
280
     0
281
     0
  0
CLASS
  1
LAYOUT
  2
AcDbLayout
  3
ObjectDBX Classes
 90
        0
280
     0
281
     0
  0
CLASS
  1
MATERIAL
  2
AcDbMaterial
  3
ObjectDBX Classes
 90
     1153
280
     0
281
     0
  0
CLASS
  1
VISUALSTYLE
  2
AcDbVisualStyle
  3
ObjectDBX Classes
 90
     4095
280
     0
281
     0
  0
CLASS
  1
TABLESTYLE
  2
AcDbTableStyle
  3
ObjectDBX Classes
 90
     4095
280
     0
281
     0
  0
CLASS
  1
SCALE
  2
AcDbScale
  3
ObjectDBX Classes
 90
     1153
280
     0
281
     0
  0
CLASS
  1
MLEADERSTYLE
  2
AcDbMLeaderStyle
  3
ACDB_MLEADERSTYLE_CLASS
 90
     4095
280
     0
281
     0
  0
CLASS
  1
ACDBSECTIONVIEWSTYLE
  2
AcDbSectionViewStyle
  3
ObjectDBX Classes
 90
     1025
280
     0
281
     0
  0
CLASS
  1
ACDBDETAILVIEWSTYLE
  2
AcDbDetailViewStyle
  3
ObjectDBX Classes
 90
     1025
280
     0
281
     0
  0
CLASS
  1
DICTIONARYVAR
  2
AcDbDictionaryVar
  3
ObjectDBX Classes
 90
        0
280
     0
281
     0
  0
CLASS
  1
MULTILEADER
  2
AcDbMLeader
  3
ACDB_MLEADER_CLASS
 90
     1025
280
     0
281
     1
  0
CLASS
  1
SORTENTSTABLE
  2
AcDbSortentsTable
  3
ObjectDBX Classes
 90
        0
280
     0
281
     0
  0
CLASS
  1
CELLSTYLEMAP
  2
AcDbCellStyleMap
  3
ObjectDBX Classes
 90
     1152
280
     0
281
     0
  0
ENDSEC
  0
SECTION
  2
TABLES
  0
TABLE
  2
VPORT
  5
8
330
0
100
AcDbSymbolTable
 70
     1
  0
VPORT
  5
84BB
330
8
100
AcDbSymbolTableRecord
100
AcDbViewportTableRecord
  2
*Active
 70
     0
 10
0.0
 20
0.0
 11
1.0
 21
1.0
 12
2156.260226992769
 22
2212.500030910153
 13
0.0
 23
0.0
 14
10.0
 24
10.0
 15
10.0
 25
10.0
 16
0.0
 26
0.0
 36
1.0
 17
0.0
 27
0.0
 37
0.0
 40
4320.056291809371
 41
1.727564102564102
 42
50.0
 43
0.0
 44
0.0
 50
0.0
 51
0.0
 71
     0
 72
   100
 73
     1
 74
     0
 75
     0
 76
     0
 77
     0
 78
     0
281
     0
 65
     1
110
0.0
120
0.0
130
0.0
111
1.0
121
0.0
131
0.0
112
0.0
122
1.0
132
0.0
 79
     0
146
0.0
1001
ACAD_NAV_VCDISPLAY
1070
     3
  0
ENDTAB
  0
TABLE
  2
LTYPE
  5
5
330
0
100
AcDbSymbolTable
 70
     2
  0
LTYPE
  5
13
330
5
100
AcDbSymbolTableRecord
100
AcDbLinetypeTableRecord
  2
BYBLOCK
 70
     0
  3

 72
    65
 73
     0
 40
0.0
  0
LTYPE
  5
14
330
5
100
AcDbSymbolTableRecord
100
AcDbLinetypeTableRecord
  2
BYLAYER
 70
     0
  3

 72
    65
 73
     0
 40
0.0
  0
LTYPE
  5
15
330
5
100
AcDbSymbolTableRecord
100
AcDbLinetypeTableRecord
  2
CONTINUOUS
 70
     0
  3
Solid line
 72
    65
 73
     0
 40
0.0
  0
LTYPE
  5
1F
330
5
100
AcDbSymbolTableRecord
100
AcDbLinetypeTableRecord
  2
CENTER
 70
     0
  3
____ _ ____ _ ____ _ ____ _ ____ _ ____ _ ____ 
 72
    65
 73
     4
 40
2.0
 49
1.25
 74
     0
 49
-0.25
 74
     0
 49
0.25
 74
     0
 49
-0.25
 74
     0
  0
ENDTAB
  0
TABLE
  2
LAYER
  5
2
102
{ACAD_XDICTIONARY
360
861F
102
}
330
0
100
AcDbSymbolTable
 70
     6
  0
LAYER
  5
F
102
{ACAD_XDICTIONARY
360
850D
102
}
330
2
100
AcDbSymbolTableRecord
100
AcDbLayerTableRecord
  2
0
 70
     0
 62
     7
  6
CONTINUOUS
370
    -3
390
84AE
  0
LAYER
  5
31
102
{ACAD_XDICTIONARY
360
850F
102
}
330
2
100
AcDbSymbolTableRecord
100
AcDbLayerTableRecord
  2
3
 70
     0
 62
     2
  6
CONTINUOUS
370
    -3
390
84AE
  0
LAYER
  5
76D0
102
{ACAD_XDICTIONARY
360
8511
102
}
330
2
100
AcDbSymbolTableRecord
100
AcDbLayerTableRecord
  2
2
 70
     0
 62
     3
  6
CENTER
370
    -3
390
84AE
  0
LAYER
  5
76D1
102
{ACAD_XDICTIONARY
360
8513
102
}
330
2
100
AcDbSymbolTableRecord
100
AcDbLayerTableRecord
  2
1
 70
     0
 62
     4
  6
CONTINUOUS
370
    -3
390
84AE
  0
LAYER
  5
76D2
102
{ACAD_XDICTIONARY
360
8515
102
}
330
2
100
AcDbSymbolTableRecord
100
AcDbLayerTableRecord
  2
4
 70
     0
 62
     7
  6
CONTINUOUS
370
    -3
390
84AE
  0
LAYER
  5
7B1F
330
2
100
AcDbSymbolTableRecord
100
AcDbLayerTableRecord
  2
DEFPOINTS
 70
     0
 62
     7
  6
CONTINUOUS
290
     0
370
    -3
390
84AE
  0
ENDTAB
  0
TABLE
  2
STYLE
  5
3
330
0
100
AcDbSymbolTable
 70
     1
  0
STYLE
  5
10
330
3
100
AcDbSymbolTableRecord
100
AcDbTextStyleTableRecord
  2
STANDARD
 70
     0
 40
0.0
 41
1.0
 50
0.0
 71
     0
 42
180.0
  3
simplex.shx
  4
extfont.shx
  0
ENDTAB
  0
TABLE
  2
VIEW
  5
6
330
0
100
AcDbSymbolTable
 70
     0
  0
ENDTAB
  0
TABLE
  2
UCS
  5
7
330
0
100
AcDbSymbolTable
 70
     0
  0
ENDTAB
  0
TABLE
  2
APPID
  5
9
330
0
100
AcDbSymbolTable
 70
     6
  0
APPID
  5
11
330
9
100
AcDbSymbolTableRecord
100
AcDbRegAppTableRecord
  2
ACAD
 70
     0
  0
APPID
  5
8517
330
9
100
AcDbSymbolTableRecord
100
AcDbRegAppTableRecord
  2
ACAD_NAV_VCDISPLAY
 70
     0
  0
APPID
  5
86F2
330
9
100
AcDbSymbolTableRecord
100
AcDbRegAppTableRecord
  2
ACAD_EXEMPT_FROM_CAD_STANDARDS
 70
     0
  0
APPID
  5
8702
330
9
100
AcDbSymbolTableRecord
100
AcDbRegAppTableRecord
  2
ACAD_PSEXT
 70
     0
  0
APPID
  5
891F
330
9
100
AcDbSymbolTableRecord
100
AcDbRegAppTableRecord
  2
AcadAnnoMonitorAlertIconDisabled
 70
     0
  0
APPID
  5
9F43
330
9
100
AcDbSymbolTableRecord
100
AcDbRegAppTableRecord
  2
ACAD_MLEADERVER
 70
     0
  0
ENDTAB
  0
TABLE
  2
DIMSTYLE
  5
A
330
0
100
AcDbSymbolTable
 70
     1
100
AcDbDimStyleTable
 71
     1
340
1D
  0
DIMSTYLE
105
1D
102
{ACAD_REACTORS
330
92BD
330
92BE
330
92BF
330
92C6
330
92C7
330
92C9
330
92CA
330
92CC
330
92CD
330
9316
330
9317
330
931A
330
931B
330
931C
330
932F
330
9828
330
9829
330
982F
330
9831
330
9833
330
983A
330
9EB7
102
}
330
A
100
AcDbSymbolTableRecord
100
AcDbDimStyleTableRecord
  2
IGA
 70
     0
 40
2.0
 41
2.0
 42
0.5
 43
10.0
 44
1.0
 47
1.0
 48
1.0
 73
     0
 74
     0
 77
     1
 78
     8
140
3.0
141
0.0
143
0.03937
146
10.0
147
1.0
173
     1
271
     1
272
     0
279
     2
284
     8
340
10
341
7A36
343
7A36
344
7A36
  0
ENDTAB
  0
TABLE
  2
BLOCK_RECORD
  5
1
330
0
100
AcDbSymbolTable
 70
    46
  0
BLOCK_RECORD
  5
19
102
{ACAD_XDICTIONARY
360
8858
102
}
330
1
100
AcDbSymbolTableRecord
100
AcDbBlockTableRecord
  2
*MODEL_SPACE
340
84B1
  0
BLOCK_RECORD
  5
16
330
1
100
AcDbSymbolTableRecord
100
AcDbBlockTableRecord
  2
*PAPER_SPACE
340
84B2
  0
BLOCK_RECORD
  5
7A36
330
1
100
AcDbSymbolTableRecord
100
AcDbBlockTableRecord
  2
_OPEN
340
0
102
{BLKREFS
331
8530
331
8531
331
853C
331
853D
331
8548
331
8549
331
8554
331
8555
331
8560
331
8561
331
856E
331
856F
331
857C
331
857D
331
9E38
331
9E39
331
9E40
331
9E41
331
9E49
331
9E4A
331
9E52
331
9E53
331
9E5B
331
9E5C
331
9E64
331
9E65
331
9E6D
331
9E6E
331
9E80
331
9E81
331
9E8B
331
9E9A
331
9E9B
331
9EA3
331
9EA4
331
9EC7
331
9EC8
331
9BF9
331
9BFA
331
9C02
331
9C03
331
9C14
331
9C15
331
9C31
331
9C32
331
9C3A
331
9C3B
331
9C43
331
9C44
331
8588
331
8589
331
8596
331
8597
331
85A2
331
85A3
331
85AE
331
85AF
331
85BC
331
85BD
331
85C8
331
85C9
331
85D4
331
85D5
331
85E2
331
85E3
331
85F0
331
85F1
331
85FE
331
85FF
331
860A
331
860B
331
8618
331
8619
331
9D20
331
9D21
331
9D2A
331
9D2B
331
9D32
331
9D33
102
}
  0
BLOCK_RECORD
  5
817A
330
1
100
AcDbSymbolTableRecord
100
AcDbBlockTableRecord
  2
_DOT
340
0
102
{BLKREFS
331
9E8A
102
}
  0
BLOCK_RECORD
  5
852B
330
1
100
AcDbSymbolTableRecord
100
AcDbBlockTableRecord
  2
*D2
340
0
  0
BLOCK_RECORD
  5
8537
330
1
100
AcDbSymbolTableRecord
100
AcDbBlockTableRecord
  2
*D3
340
0
  0
BLOCK_RECORD
  5
8543
330
1
100
AcDbSymbolTableRecord
100
AcDbBlockTableRecord
  2
*D4
340
0
  0
BLOCK_RECORD
  5
854F
330
1
100
AcDbSymbolTableRecord
100
AcDbBlockTableRecord
  2
*D5
340
0
  0
BLOCK_RECORD
  5
855B
330
1
100
AcDbSymbolTableRecord
100
AcDbBlockTableRecord
  2
*D6
340
0
  0
BLOCK_RECORD
  5
8567
330
1
100
AcDbSymbolTableRecord
100
AcDbBlockTableRecord
  2
*D7
340
0
  0
BLOCK_RECORD
  5
8575
330
1
100
AcDbSymbolTableRecord
100
AcDbBlockTableRecord
  2
*D8
340
0
  0
BLOCK_RECORD
  5
8583
330
1
100
AcDbSymbolTableRecord
100
AcDbBlockTableRecord
  2
*D9
340
0
  0
BLOCK_RECORD
  5
858F
330
1
100
AcDbSymbolTableRecord
100
AcDbBlockTableRecord
  2
*D10
340
0
  0
BLOCK_RECORD
  5
859D
330
1
100
AcDbSymbolTableRecord
100
AcDbBlockTableRecord
  2
*D11
340
0
  0
BLOCK_RECORD
  5
85A9
330
1
100
AcDbSymbolTableRecord
100
AcDbBlockTableRecord
  2
*D12
340
0
  0
BLOCK_RECORD
  5
85B5
330
1
100
AcDbSymbolTableRecord
100
AcDbBlockTableRecord
  2
*D13
340
0
  0
BLOCK_RECORD
  5
85C3
330
1
100
AcDbSymbolTableRecord
100
AcDbBlockTableRecord
  2
*D14
340
0
  0
BLOCK_RECORD
  5
85CF
330
1
100
AcDbSymbolTableRecord
100
AcDbBlockTableRecord
  2
*D15
340
0
  0
BLOCK_RECORD
  5
85DB
330
1
100
AcDbSymbolTableRecord
100
AcDbBlockTableRecord
  2
*D16
340
0
  0
BLOCK_RECORD
  5
85E9
330
1
100
AcDbSymbolTableRecord
100
AcDbBlockTableRecord
  2
*D17
340
0
  0
BLOCK_RECORD
  5
85F7
330
1
100
AcDbSymbolTableRecord
100
AcDbBlockTableRecord
  2
*D18
340
0
  0
BLOCK_RECORD
  5
8605
330
1
100
AcDbSymbolTableRecord
100
AcDbBlockTableRecord
  2
*D19
340
0
  0
BLOCK_RECORD
  5
8611
330
1
100
AcDbSymbolTableRecord
100
AcDbBlockTableRecord
  2
*D20
340
0
  0
BLOCK_RECORD
  5
8621
330
1
100
AcDbSymbolTableRecord
100
AcDbBlockTableRecord
  2
A$C5F035C4D
340
0
  0
BLOCK_RECORD
  5
89FB
330
1
100
AcDbSymbolTableRecord
100
AcDbBlockTableRecord
  2
_DotSmall
340
0
  0
BLOCK_RECORD
  5
8AE2
330
1
100
AcDbSymbolTableRecord
100
AcDbBlockTableRecord
  2
_NONE
340
0
  0
BLOCK_RECORD
  5
93E4
330
1
100
AcDbSymbolTableRecord
100
AcDbBlockTableRecord
  2
*D24
340
0
  0
BLOCK_RECORD
  5
93F0
330
1
100
AcDbSymbolTableRecord
100
AcDbBlockTableRecord
  2
*D25
340
0
  0
BLOCK_RECORD
  5
93FC
330
1
100
AcDbSymbolTableRecord
100
AcDbBlockTableRecord
  2
*D26
340
0
  0
BLOCK_RECORD
  5
9408
330
1
100
AcDbSymbolTableRecord
100
AcDbBlockTableRecord
  2
*D27
340
0
  0
BLOCK_RECORD
  5
9414
330
1
100
AcDbSymbolTableRecord
100
AcDbBlockTableRecord
  2
*D28
340
0
  0
BLOCK_RECORD
  5
9420
330
1
100
AcDbSymbolTableRecord
100
AcDbBlockTableRecord
  2
*D29
340
0
  0
BLOCK_RECORD
  5
942C
330
1
100
AcDbSymbolTableRecord
100
AcDbBlockTableRecord
  2
*D30
340
0
  0
BLOCK_RECORD
  5
943A
330
1
100
AcDbSymbolTableRecord
100
AcDbBlockTableRecord
  2
*D31
340
0
  0
BLOCK_RECORD
  5
9446
330
1
100
AcDbSymbolTableRecord
100
AcDbBlockTableRecord
  2
*D32
340
0
  0
BLOCK_RECORD
  5
9476
330
1
100
AcDbSymbolTableRecord
100
AcDbBlockTableRecord
  2
*D33
340
0
  0
BLOCK_RECORD
  5
9482
330
1
100
AcDbSymbolTableRecord
100
AcDbBlockTableRecord
  2
*D34
340
0
  0
BLOCK_RECORD
  5
94A4
330
1
100
AcDbSymbolTableRecord
100
AcDbBlockTableRecord
  2
*D35
340
0
  0
BLOCK_RECORD
  5
94B0
330
1
100
AcDbSymbolTableRecord
100
AcDbBlockTableRecord
  2
*D36
340
0
  0
BLOCK_RECORD
  5
94BC
330
1
100
AcDbSymbolTableRecord
100
AcDbBlockTableRecord
  2
*D37
340
0
  0
BLOCK_RECORD
  5
9516
330
1
100
AcDbSymbolTableRecord
100
AcDbBlockTableRecord
  2
*D38
340
0
  0
BLOCK_RECORD
  5
987A
330
1
100
AcDbSymbolTableRecord
100
AcDbBlockTableRecord
  2
*D39
340
0
  0
BLOCK_RECORD
  5
9886
330
1
100
AcDbSymbolTableRecord
100
AcDbBlockTableRecord
  2
*D40
340
0
  0
BLOCK_RECORD
  5
9892
330
1
100
AcDbSymbolTableRecord
100
AcDbBlockTableRecord
  2
*D41
340
0
  0
BLOCK_RECORD
  5
989E
330
1
100
AcDbSymbolTableRecord
100
AcDbBlockTableRecord
  2
*D42
340
0
  0
BLOCK_RECORD
  5
98AA
330
1
100
AcDbSymbolTableRecord
100
AcDbBlockTableRecord
  2
*D43
340
0
  0
BLOCK_RECORD
  5
98B6
330
1
100
AcDbSymbolTableRecord
100
AcDbBlockTableRecord
  2
*D44
340
0
  0
BLOCK_RECORD
  5
9EB8
330
1
100
AcDbSymbolTableRecord
100
AcDbBlockTableRecord
  2
*D45
340
0
  0
ENDTAB
  0
ENDSEC
  0
SECTION
  2
BLOCKS
  0
BLOCK
  5
1A
330
19
100
AcDbEntity
  8
0
100
AcDbBlockBegin
  2
*MODEL_SPACE
 70
     0
 10
0.0
 20
0.0
 30
0.0
  3
*MODEL_SPACE
  1

  0
ENDBLK
  5
1B
330
19
100
AcDbEntity
  8
0
100
AcDbBlockEnd
  0
BLOCK
  5
17
330
16
100
AcDbEntity
 67
     1
  8
0
100
AcDbBlockBegin
  2
*PAPER_SPACE
 70
     0
 10
0.0
 20
0.0
 30
0.0
  3
*PAPER_SPACE
  1

  0
ENDBLK
  5
18
330
16
100
AcDbEntity
 67
     1
  8
0
100
AcDbBlockEnd
  0
BLOCK
  5
7A3A
330
7A36
100
AcDbEntity
  8
0
100
AcDbBlockBegin
  2
_OPEN
 70
     0
 10
0.0
 20
0.0
 30
0.0
  3
_OPEN
  1

  0
LINE
  5
7A37
330
7A36
100
AcDbEntity
  8
0
  6
ByBlock
 62
     0
100
AcDbLine
 10
-1.0
 20
0.1666666666666666
 30
0.0
 11
0.0
 21
0.0
 31
0.0
  0
LINE
  5
7A38
330
7A36
100
AcDbEntity
  8
0
  6
ByBlock
 62
     0
100
AcDbLine
 10
0.0
 20
0.0
 30
0.0
 11
-1.0
 21
-0.1666666666666666
 31
0.0
  0
LINE
  5
7A39
330
7A36
100
AcDbEntity
  8
0
  6
ByBlock
 62
     0
100
AcDbLine
 10
0.0
 20
0.0
 30
0.0
 11
-1.0
 21
0.0
 31
0.0
  0
ENDBLK
  5
7A3B
330
7A36
100
AcDbEntity
  8
0
100
AcDbBlockEnd
  0
BLOCK
  5
817B
330
817A
100
AcDbEntity
  8
0
100
AcDbBlockBegin
  2
_DOT
 70
     0
 10
0.0
 20
0.0
 30
0.0
  3
_DOT
  1

  0
LINE
  5
818F
330
817A
100
AcDbEntity
  8
0
  6
ByBlock
 62
     0
100
AcDbLine
 10
0.0
 20
0.0
 30
0.0
 11
-1.0
 21
-0.0000000000000284
 31
0.0
  0
LWPOLYLINE
  5
8190
330
817A
100
AcDbEntity
  8
0
  6
ByBlock
 62
     0
100
AcDbPolyline
 90
        2
 70
     1
 43
0.1666666666666666
 10
-0.0833333333333286
 20
-0.0000000000000284
 42
1.0
 10
0.0833333333333286
 20
-0.0000000000000284
 42
1.0
  0
ENDBLK
  5
8181
330
817A
100
AcDbEntity
  8
0
100
AcDbBlockEnd
  0
BLOCK
  5
852C
330
852B
100
AcDbEntity
  8
0
100
AcDbBlockBegin
  2
*D2
 70
     1
 10
0.0
 20
0.0
 30
0.0
  3
*D2
  1

  0
LINE
  5
852D
330
852B
100
AcDbEntity
  8
3
 62
     0
370
    -2
100
AcDbLine
 10
1361.902951880732
 20
2456.088071393662
 30
0.0
 11
1361.902951880732
 21
2194.402468367165
 31
0.0
  0
LINE
  5
852E
330
852B
100
AcDbEntity
  8
3
 62
     0
370
    -2
100
AcDbLine
 10
561.9029518807321
 20
2475.088071393663
 30
0.0
 11
561.9029518807321
 21
2194.402468367165
 31
0.0
  0
LINE
  5
852F
330
852B
100
AcDbEntity
  8
3
 62
     0
370
    -2
100
AcDbLine
 10
1331.902951880732
 20
2209.402468367165
 30
0.0
 11
591.9029518807321
 21
2209.402468367165
 31
0.0
  0
INSERT
  5
8530
330
852B
100
AcDbEntity
  8
3
 62
     0
370
    -2
100
AcDbBlockReference
  2
_OPEN
 10
1361.902951880732
 20
2209.402468367165
 30
0.0
 41
30.0
 42
30.0
 43
30.0
  0
INSERT
  5
8531
330
852B
100
AcDbEntity
  8
3
 62
     0
370
    -2
100
AcDbBlockReference
  2
_OPEN
 10
561.9029518807321
 20
2209.402468367165
 30
0.0
 41
30.0
 42
30.0
 43
30.0
 50
180.0
  0
MTEXT
  5
8532
330
852B
100
AcDbEntity
  8
3
 62
     0
100
AcDbMText
 10
961.9029518807321
 20
2246.902468367165
 30
0.0
 40
45.0
 41
0.0
 71
     5
 72
     1
  1
\A1;800
 73
     1
 44
1.0
1001
ACAD
1000
MTEXTBEGIN
1070
    73
1070
     1
1070
    44
1040
1.0
1070
    74
1070
     0
1000
MTEXTEND
  0
POINT
  5
8533
330
852B
100
AcDbEntity
  8
DEFPOINTS
 62
     0
100
AcDbPoint
 10
1361.902951880732
 20
2463.588071393662
 30
0.0
  0
POINT
  5
8534
330
852B
100
AcDbEntity
  8
DEFPOINTS
 62
     0
100
AcDbPoint
 10
561.9029518807321
 20
2482.588071393663
 30
0.0
  0
POINT
  5
8535
330
852B
100
AcDbEntity
  8
DEFPOINTS
 62
     0
100
AcDbPoint
 10
561.9029518807321
 20
2209.402468367165
 30
0.0
  0
ENDBLK
  5
8536
330
852B
100
AcDbEntity
  8
0
100
AcDbBlockEnd
  0
BLOCK
  5
8538
330
8537
100
AcDbEntity
  8
0
100
AcDbBlockBegin
  2
*D3
 70
     1
 10
0.0
 20
0.0
 30
0.0
  3
*D3
  1

  0
LINE
  5
8539
330
8537
100
AcDbEntity
  8
3
 62
     0
370
    -2
100
AcDbLine
 10
1369.402951880732
 20
2463.588071393662
 30
0.0
 11
1739.348134099724
 21
2463.588071393662
 31
0.0
  0
LINE
  5
853A
330
8537
100
AcDbEntity
  8
3
 62
     0
370
    -2
100
AcDbLine
 10
1369.402951880733
 20
3243.588071393663
 30
0.0
 11
1739.348134099724
 21
3243.588071393663
 31
0.0
  0
LINE
  5
853B
330
8537
100
AcDbEntity
  8
3
 62
     0
370
    -2
100
AcDbLine
 10
1724.348134099724
 20
2493.588071393662
 30
0.0
 11
1724.348134099724
 21
3213.588071393663
 31
0.0
  0
INSERT
  5
853C
330
8537
100
AcDbEntity
  8
3
 62
     0
370
    -2
100
AcDbBlockReference
  2
_OPEN
 10
1724.348134099724
 20
2463.588071393662
 30
0.0
 41
30.0
 42
30.0
 43
30.0
 50
270.0
  0
INSERT
  5
853D
330
8537
100
AcDbEntity
  8
3
 62
     0
370
    -2
100
AcDbBlockReference
  2
_OPEN
 10
1724.348134099724
 20
3243.588071393663
 30
0.0
 41
30.0
 42
30.0
 43
30.0
 50
90.0
  0
MTEXT
  5
853E
330
8537
100
AcDbEntity
  8
3
 62
     0
100
AcDbMText
 10
1686.848134099724
 20
2853.588071393663
 30
0.0
 40
45.0
 41
0.0
 71
     5
 72
     1
  1
\A1;780
 11
0.0000000000000001
 21
1.0
 31
0.0
 73
     1
 44
1.0
1001
ACAD
1000
MTEXTBEGIN
1070
    73
1070
     1
1070
    44
1040
1.0
1070
    74
1070
     0
1000
MTEXTEND
  0
POINT
  5
853F
330
8537
100
AcDbEntity
  8
DEFPOINTS
 62
     0
100
AcDbPoint
 10
1361.902951880732
 20
2463.588071393662
 30
0.0
  0
POINT
  5
8540
330
8537
100
AcDbEntity
  8
DEFPOINTS
 62
     0
100
AcDbPoint
 10
1361.902951880733
 20
3243.588071393663
 30
0.0
  0
POINT
  5
8541
330
8537
100
AcDbEntity
  8
DEFPOINTS
 62
     0
100
AcDbPoint
 10
1724.348134099724
 20
3243.588071393663
 30
0.0
  0
ENDBLK
  5
8542
330
8537
100
AcDbEntity
  8
0
100
AcDbBlockEnd
  0
BLOCK
  5
8544
330
8543
100
AcDbEntity
  8
0
100
AcDbBlockBegin
  2
*D4
 70
     1
 10
0.0
 20
0.0
 30
0.0
  3
*D4
  1

  0
LINE
  5
8545
330
8543
100
AcDbEntity
  8
3
 62
     0
370
    -2
100
AcDbLine
 10
554.4029518807328
 20
2463.588071393662
 30
0.0
 11
248.0712777469852
 21
2463.588071393662
 31
0.0
  0
LINE
  5
8546
330
8543
100
AcDbEntity
  8
3
 62
     0
370
    -2
100
AcDbLine
 10
554.402951880731
 20
2843.588071393663
 30
0.0
 11
248.0712777469853
 21
2843.588071393663
 31
0.0
  0
LINE
  5
8547
330
8543
100
AcDbEntity
  8
3
 62
     0
370
    -2
100
AcDbLine
 10
263.0712777469852
 20
2493.588071393662
 30
0.0
 11
263.0712777469853
 21
2813.588071393663
 31
0.0
  0
INSERT
  5
8548
330
8543
100
AcDbEntity
  8
3
 62
     0
370
    -2
100
AcDbBlockReference
  2
_OPEN
 10
263.0712777469852
 20
2463.588071393662
 30
0.0
 41
30.0
 42
30.0
 43
30.0
 50
270.0
  0
INSERT
  5
8549
330
8543
100
AcDbEntity
  8
3
 62
     0
370
    -2
100
AcDbBlockReference
  2
_OPEN
 10
263.0712777469853
 20
2843.588071393663
 30
0.0
 41
30.0
 42
30.0
 43
30.0
 50
90.0
  0
MTEXT
  5
854A
330
8543
100
AcDbEntity
  8
3
 62
     0
100
AcDbMText
 10
225.5712777469848
 20
2653.588071393662
 30
0.0
 40
45.0
 41
0.0
 71
     5
 72
     1
  1
\A1;380
 11
0.0000000000000001
 21
1.0
 31
0.0
 73
     1
 44
1.0
1001
ACAD
1000
MTEXTBEGIN
1070
    73
1070
     1
1070
    44
1040
1.0
1070
    74
1070
     0
1000
MTEXTEND
  0
POINT
  5
854B
330
8543
100
AcDbEntity
  8
DEFPOINTS
 62
     0
100
AcDbPoint
 10
561.9029518807328
 20
2463.588071393662
 30
0.0
  0
POINT
  5
854C
330
8543
100
AcDbEntity
  8
DEFPOINTS
 62
     0
100
AcDbPoint
 10
561.902951880731
 20
2843.588071393663
 30
0.0
  0
POINT
  5
854D
330
8543
100
AcDbEntity
  8
DEFPOINTS
 62
     0
100
AcDbPoint
 10
263.0712777469853
 20
2843.588071393663
 30
0.0
  0
ENDBLK
  5
854E
330
8543
100
AcDbEntity
  8
0
100
AcDbBlockEnd
  0
BLOCK
  5
8550
330
854F
100
AcDbEntity
  8
0
100
AcDbBlockBegin
  2
*D5
 70
     1
 10
0.0
 20
0.0
 30
0.0
  3
*D5
  1

  0
LINE
  5
8551
330
854F
100
AcDbEntity
  8
3
 62
     0
370
    -2
100
AcDbLine
 10
1361.902951880733
 20
3251.088071393663
 30
0.0
 11
1361.902951880733
 21
3458.524805396722
 31
0.0
  0
LINE
  5
8552
330
854F
100
AcDbEntity
  8
3
 62
     0
370
    -2
100
AcDbLine
 10
1001.902951880733
 20
3251.088071393663
 30
0.0
 11
1001.902951880733
 21
3458.524805396722
 31
0.0
  0
LINE
  5
8553
330
854F
100
AcDbEntity
  8
3
 62
     0
370
    -2
100
AcDbLine
 10
1331.902951880733
 20
3443.524805396722
 30
0.0
 11
1031.902951880732
 21
3443.524805396722
 31
0.0
  0
INSERT
  5
8554
330
854F
100
AcDbEntity
  8
3
 62
     0
370
    -2
100
AcDbBlockReference
  2
_OPEN
 10
1361.902951880733
 20
3443.524805396722
 30
0.0
 41
30.0
 42
30.0
 43
30.0
  0
INSERT
  5
8555
330
854F
100
AcDbEntity
  8
3
 62
     0
370
    -2
100
AcDbBlockReference
  2
_OPEN
 10
1001.902951880733
 20
3443.524805396722
 30
0.0
 41
30.0
 42
30.0
 43
30.0
 50
180.0
  0
MTEXT
  5
8556
330
854F
100
AcDbEntity
  8
3
 62
     0
100
AcDbMText
 10
1181.902951880733
 20
3481.024805396721
 30
0.0
 40
45.0
 41
0.0
 71
     5
 72
     1
  1
\A1;360
 73
     1
 44
1.0
1001
ACAD
1000
MTEXTBEGIN
1070
    73
1070
     1
1070
    44
1040
1.0
1070
    74
1070
     0
1000
MTEXTEND
  0
POINT
  5
8557
330
854F
100
AcDbEntity
  8
DEFPOINTS
 62
     0
100
AcDbPoint
 10
1361.902951880733
 20
3243.588071393663
 30
0.0
  0
POINT
  5
8558
330
854F
100
AcDbEntity
  8
DEFPOINTS
 62
     0
100
AcDbPoint
 10
1001.902951880733
 20
3243.588071393663
 30
0.0
  0
POINT
  5
8559
330
854F
100
AcDbEntity
  8
DEFPOINTS
 62
     0
100
AcDbPoint
 10
1001.902951880733
 20
3443.524805396722
 30
0.0
  0
ENDBLK
  5
855A
330
854F
100
AcDbEntity
  8
0
100
AcDbBlockEnd
  0
BLOCK
  5
855C
330
855B
100
AcDbEntity
  8
0
100
AcDbBlockBegin
  2
*D6
 70
     1
 10
0.0
 20
0.0
 30
0.0
  3
*D6
  1

  0
LINE
  5
855D
330
855B
100
AcDbEntity
  8
3
 62
     0
370
    -2
100
AcDbLine
 10
1001.902951880733
 20
3251.088071393663
 30
0.0
 11
1001.902951880733
 21
3458.524805396722
 31
0.0
  0
LINE
  5
855E
330
855B
100
AcDbEntity
  8
3
 62
     0
370
    -2
100
AcDbLine
 10
561.902951880731
 20
2851.088071393663
 30
0.0
 11
561.902951880731
 21
3458.524805396722
 31
0.0
  0
LINE
  5
855F
330
855B
100
AcDbEntity
  8
3
 62
     0
370
    -2
100
AcDbLine
 10
971.9029518807328
 20
3443.524805396722
 30
0.0
 11
591.902951880731
 21
3443.524805396722
 31
0.0
  0
INSERT
  5
8560
330
855B
100
AcDbEntity
  8
3
 62
     0
370
    -2
100
AcDbBlockReference
  2
_OPEN
 10
1001.902951880733
 20
3443.524805396722
 30
0.0
 41
30.0
 42
30.0
 43
30.0
  0
INSERT
  5
8561
330
855B
100
AcDbEntity
  8
3
 62
     0
370
    -2
100
AcDbBlockReference
  2
_OPEN
 10
561.902951880731
 20
3443.524805396722
 30
0.0
 41
30.0
 42
30.0
 43
30.0
 50
180.0
  0
MTEXT
  5
8562
330
855B
100
AcDbEntity
  8
3
 62
     0
100
AcDbMText
 10
781.902951880732
 20
3481.024805396721
 30
0.0
 40
45.0
 41
0.0
 71
     5
 72
     1
  1
\A1;440
 73
     1
 44
1.0
1001
ACAD
1000
MTEXTBEGIN
1070
    73
1070
     1
1070
    44
1040
1.0
1070
    74
1070
     0
1000
MTEXTEND
  0
POINT
  5
8563
330
855B
100
AcDbEntity
  8
DEFPOINTS
 62
     0
100
AcDbPoint
 10
1001.902951880733
 20
3243.588071393663
 30
0.0
  0
POINT
  5
8564
330
855B
100
AcDbEntity
  8
DEFPOINTS
 62
     0
100
AcDbPoint
 10
561.902951880731
 20
2843.588071393663
 30
0.0
  0
POINT
  5
8565
330
855B
100
AcDbEntity
  8
DEFPOINTS
 62
     0
100
AcDbPoint
 10
561.902951880731
 20
3443.524805396722
 30
0.0
  0
ENDBLK
  5
8566
330
855B
100
AcDbEntity
  8
0
100
AcDbBlockEnd
  0
BLOCK
  5
8568
330
8567
100
AcDbEntity
  8
0
100
AcDbBlockBegin
  2
*D7
 70
     1
 10
0.0
 20
0.0
 30
0.0
  3
*D7
  1

  0
LINE
  5
8569
330
8567
100
AcDbEntity
  8
3
 62
     0
370
    -2
100
AcDbLine
 10
561.902951880731
 20
2851.088071393663
 30
0.0
 11
561.902951880731
 21
3025.447254894428
 31
0.0
  0
LINE
  5
856A
330
8567
100
AcDbEntity
  8
3
 62
     0
370
    -2
100
AcDbLine
 10
631.902951880731
 20
2851.088071393663
 30
0.0
 11
631.902951880731
 21
3025.447254894428
 31
0.0
  0
LINE
  5
856B
330
8567
100
AcDbEntity
  8
3
 62
     0
370
    -2
100
AcDbLine
 10
661.902951880731
 20
3010.447254894428
 30
0.0
 11
691.902951880731
 21
3010.447254894428
 31
0.0
  0
LINE
  5
856C
330
8567
100
AcDbEntity
  8
3
 62
     0
370
    -2
100
AcDbLine
 10
531.902951880731
 20
3010.447254894428
 30
0.0
 11
396.7320072133032
 21
3010.447254894428
 31
0.0
  0
LINE
  5
856D
330
8567
100
AcDbEntity
  8
3
 62
     0
370
    -2
100
AcDbLine
 10
631.902951880731
 20
3010.447254894428
 30
0.0
 11
561.902951880731
 21
3010.447254894428
 31
0.0
  0
INSERT
  5
856E
330
8567
100
AcDbEntity
  8
3
 62
     0
370
    -2
100
AcDbBlockReference
  2
_OPEN
 10
631.902951880731
 20
3010.447254894428
 30
0.0
 41
30.0
 42
30.0
 43
30.0
 50
180.0
  0
INSERT
  5
856F
330
8567
100
AcDbEntity
  8
3
 62
     0
370
    -2
100
AcDbBlockReference
  2
_OPEN
 10
561.902951880731
 20
3010.447254894428
 30
0.0
 41
30.0
 42
30.0
 43
30.0
  0
MTEXT
  5
8570
330
8567
100
AcDbEntity
  8
3
 62
     0
100
AcDbMText
 10
448.1605786418746
 20
3047.947254894428
 30
0.0
 40
45.0
 41
0.0
 71
     5
 72
     1
  1
\A1;70
 73
     1
 44
1.0
1001
ACAD
1000
MTEXTBEGIN
1070
    73
1070
     1
1070
    44
1040
1.0
1070
    74
1070
     0
1000
MTEXTEND
  0
POINT
  5
8571
330
8567
100
AcDbEntity
  8
DEFPOINTS
 62
     0
100
AcDbPoint
 10
561.902951880731
 20
2843.588071393663
 30
0.0
  0
POINT
  5
8572
330
8567
100
AcDbEntity
  8
DEFPOINTS
 62
     0
100
AcDbPoint
 10
631.902951880731
 20
2843.588071393663
 30
0.0
  0
POINT
  5
8573
330
8567
100
AcDbEntity
  8
DEFPOINTS
 62
     0
100
AcDbPoint
 10
631.902951880731
 20
3010.447254894428
 30
0.0
  0
ENDBLK
  5
8574
330
8567
100
AcDbEntity
  8
0
100
AcDbBlockEnd
  0
BLOCK
  5
8576
330
8575
100
AcDbEntity
  8
0
100
AcDbBlockBegin
  2
*D8
 70
     1
 10
0.0
 20
0.0
 30
0.0
  3
*D8
  1

  0
LINE
  5
8577
330
8575
100
AcDbEntity
  8
3
 62
     0
370
    -2
100
AcDbLine
 10
1001.902951880733
 20
3251.088071393663
 30
0.0
 11
1001.902951880733
 21
3359.763001973043
 31
0.0
  0
LINE
  5
8578
330
8575
100
AcDbEntity
  8
3
 62
     0
370
    -2
100
AcDbLine
 10
1019.902951880733
 20
3198.46467238436
 30
0.0
 11
1019.902951880733
 21
3359.763001973043
 31
0.0
  0
LINE
  5
8579
330
8575
100
AcDbEntity
  8
3
 62
     0
370
    -2
100
AcDbLine
 10
1049.902951880733
 20
3344.763001973042
 30
0.0
 11
1079.902951880733
 21
3344.763001973042
 31
0.0
  0
LINE
  5
857A
330
8575
100
AcDbEntity
  8
3
 62
     0
370
    -2
100
AcDbLine
 10
971.9029518807328
 20
3344.763001973042
 30
0.0
 11
847.6172375950186
 21
3344.763001973042
 31
0.0
  0
LINE
  5
857B
330
8575
100
AcDbEntity
  8
3
 62
     0
370
    -2
100
AcDbLine
 10
1019.902951880733
 20
3344.763001973042
 30
0.0
 11
1001.902951880733
 21
3344.763001973042
 31
0.0
  0
INSERT
  5
857C
330
8575
100
AcDbEntity
  8
3
 62
     0
370
    -2
100
AcDbBlockReference
  2
_OPEN
 10
1019.902951880733
 20
3344.763001973042
 30
0.0
 41
30.0
 42
30.0
 43
30.0
 50
180.0
  0
INSERT
  5
857D
330
8575
100
AcDbEntity
  8
3
 62
     0
370
    -2
100
AcDbBlockReference
  2
_OPEN
 10
1001.902951880733
 20
3344.763001973042
 30
0.0
 41
30.0
 42
30.0
 43
30.0
  0
MTEXT
  5
857E
330
8575
100
AcDbEntity
  8
3
 62
     0
100
AcDbMText
 10
894.7600947378758
 20
3382.263001973043
 30
0.0
 40
45.0
 41
0.0
 71
     5
 72
     1
  1
\A1;18
 73
     1
 44
1.0
1001
ACAD
1000
MTEXTBEGIN
1070
    73
1070
     1
1070
    44
1040
1.0
1070
    74
1070
     0
1000
MTEXTEND
  0
POINT
  5
857F
330
8575
100
AcDbEntity
  8
DEFPOINTS
 62
     0
100
AcDbPoint
 10
1001.902951880733
 20
3243.588071393663
 30
0.0
  0
POINT
  5
8580
330
8575
100
AcDbEntity
  8
DEFPOINTS
 62
     0
100
AcDbPoint
 10
1019.902951880733
 20
3190.96467238436
 30
0.0
  0
POINT
  5
8581
330
8575
100
AcDbEntity
  8
DEFPOINTS
 62
     0
100
AcDbPoint
 10
1019.902951880733
 20
3344.763001973042
 30
0.0
  0
ENDBLK
  5
8582
330
8575
100
AcDbEntity
  8
0
100
AcDbBlockEnd
  0
BLOCK
  5
8584
330
8583
100
AcDbEntity
  8
0
100
AcDbBlockBegin
  2
*D9
 70
     1
 10
0.0
 20
0.0
 30
0.0
  3
*D9
  1

  0
LINE
  5
8585
330
8583
100
AcDbEntity
  8
3
 62
     0
370
    -2
100
AcDbLine
 10
1019.902951880733
 20
3198.46467238436
 30
0.0
 11
1019.902951880733
 21
3359.763001973043
 31
0.0
  0
LINE
  5
8586
330
8583
100
AcDbEntity
  8
3
 62
     0
370
    -2
100
AcDbLine
 10
1343.902951880733
 20
3198.46467238436
 30
0.0
 11
1343.902951880733
 21
3359.763001973043
 31
0.0
  0
LINE
  5
8587
330
8583
100
AcDbEntity
  8
3
 62
     0
370
    -2
100
AcDbLine
 10
1049.902951880733
 20
3344.763001973042
 30
0.0
 11
1313.902951880733
 21
3344.763001973042
 31
0.0
  0
INSERT
  5
8588
330
8583
100
AcDbEntity
  8
3
 62
     0
370
    -2
100
AcDbBlockReference
  2
_OPEN
 10
1019.902951880733
 20
3344.763001973042
 30
0.0
 41
30.0
 42
30.0
 43
30.0
 50
180.0
  0
INSERT
  5
8589
330
8583
100
AcDbEntity
  8
3
 62
     0
370
    -2
100
AcDbBlockReference
  2
_OPEN
 10
1343.902951880733
 20
3344.763001973042
 30
0.0
 41
30.0
 42
30.0
 43
30.0
  0
MTEXT
  5
858A
330
8583
100
AcDbEntity
  8
3
 62
     0
100
AcDbMText
 10
1181.902951880733
 20
3382.263001973043
 30
0.0
 40
45.0
 41
0.0
 71
     5
 72
     1
  1
\A1;324
 73
     1
 44
1.0
1001
ACAD
1000
MTEXTBEGIN
1070
    73
1070
     1
1070
    44
1040
1.0
1070
    74
1070
     0
1000
MTEXTEND
  0
POINT
  5
858B
330
8583
100
AcDbEntity
  8
DEFPOINTS
 62
     0
100
AcDbPoint
 10
1019.902951880733
 20
3190.96467238436
 30
0.0
  0
POINT
  5
858C
330
8583
100
AcDbEntity
  8
DEFPOINTS
 62
     0
100
AcDbPoint
 10
1343.902951880733
 20
3190.96467238436
 30
0.0
  0
POINT
  5
858D
330
8583
100
AcDbEntity
  8
DEFPOINTS
 62
     0
100
AcDbPoint
 10
1343.902951880733
 20
3344.763001973042
 30
0.0
  0
ENDBLK
  5
858E
330
8583
100
AcDbEntity
  8
0
100
AcDbBlockEnd
  0
BLOCK
  5
8590
330
858F
100
AcDbEntity
  8
0
100
AcDbBlockBegin
  2
*D10
 70
     1
 10
0.0
 20
0.0
 30
0.0
  3
*D10
  1

  0
LINE
  5
8591
330
858F
100
AcDbEntity
  8
3
 62
     0
370
    -2
100
AcDbLine
 10
1361.902951880733
 20
3251.088071393663
 30
0.0
 11
1361.902951880733
 21
3359.763001973043
 31
0.0
  0
LINE
  5
8592
330
858F
100
AcDbEntity
  8
3
 62
     0
370
    -2
100
AcDbLine
 10
1343.902951880733
 20
3198.46467238436
 30
0.0
 11
1343.902951880733
 21
3359.763001973043
 31
0.0
  0
LINE
  5
8593
330
858F
100
AcDbEntity
  8
3
 62
     0
370
    -2
100
AcDbLine
 10
1313.902951880733
 20
3344.763001973042
 30
0.0
 11
1283.902951880733
 21
3344.763001973042
 31
0.0
  0
LINE
  5
8594
330
858F
100
AcDbEntity
  8
3
 62
     0
370
    -2
100
AcDbLine
 10
1391.902951880733
 20
3344.763001973042
 30
0.0
 11
1516.188666166447
 21
3344.763001973042
 31
0.0
  0
LINE
  5
8595
330
858F
100
AcDbEntity
  8
3
 62
     0
370
    -2
100
AcDbLine
 10
1343.902951880733
 20
3344.763001973042
 30
0.0
 11
1361.902951880733
 21
3344.763001973042
 31
0.0
  0
INSERT
  5
8596
330
858F
100
AcDbEntity
  8
3
 62
     0
370
    -2
100
AcDbBlockReference
  2
_OPEN
 10
1343.902951880733
 20
3344.763001973042
 30
0.0
 41
30.0
 42
30.0
 43
30.0
  0
INSERT
  5
8597
330
858F
100
AcDbEntity
  8
3
 62
     0
370
    -2
100
AcDbBlockReference
  2
_OPEN
 10
1361.902951880733
 20
3344.763001973042
 30
0.0
 41
30.0
 42
30.0
 43
30.0
 50
180.0
  0
MTEXT
  5
8598
330
858F
100
AcDbEntity
  8
3
 62
     0
100
AcDbMText
 10
1469.04580902359
 20
3382.263001973043
 30
0.0
 40
45.0
 41
0.0
 71
     5
 72
     1
  1
\A1;18
 73
     1
 44
1.0
1001
ACAD
1000
MTEXTBEGIN
1070
    73
1070
     1
1070
    44
1040
1.0
1070
    74
1070
     0
1000
MTEXTEND
  0
POINT
  5
8599
330
858F
100
AcDbEntity
  8
DEFPOINTS
 62
     0
100
AcDbPoint
 10
1361.902951880733
 20
3243.588071393663
 30
0.0
  0
POINT
  5
859A
330
858F
100
AcDbEntity
  8
DEFPOINTS
 62
     0
100
AcDbPoint
 10
1343.902951880733
 20
3190.96467238436
 30
0.0
  0
POINT
  5
859B
330
858F
100
AcDbEntity
  8
DEFPOINTS
 62
     0
100
AcDbPoint
 10
1343.902951880733
 20
3344.763001973042
 30
0.0
  0
ENDBLK
  5
859C
330
858F
100
AcDbEntity
  8
0
100
AcDbBlockEnd
  0
BLOCK
  5
859E
330
859D
100
AcDbEntity
  8
0
100
AcDbBlockBegin
  2
*D11
 70
     1
 10
0.0
 20
0.0
 30
0.0
  3
*D11
  1

  0
LINE
  5
859F
330
859D
100
AcDbEntity
  8
3
 62
     0
370
    -2
100
AcDbLine
 10
1369.402951880732
 20
2463.588071393663
 30
0.0
 11
1633.001294706843
 21
2463.588071393663
 31
0.0
  0
LINE
  5
85A0
330
859D
100
AcDbEntity
  8
3
 62
     0
370
    -2
100
AcDbLine
 10
1368.144190272336
 20
2853.96467238436
 30
0.0
 11
1633.001294706843
 21
2853.96467238436
 31
0.0
  0
LINE
  5
85A1
330
859D
100
AcDbEntity
  8
3
 62
     0
370
    -2
100
AcDbLine
 10
1618.001294706842
 20
2493.588071393663
 30
0.0
 11
1618.001294706843
 21
2823.96467238436
 31
0.0
  0
INSERT
  5
85A2
330
859D
100
AcDbEntity
  8
3
 62
     0
370
    -2
100
AcDbBlockReference
  2
_OPEN
 10
1618.001294706842
 20
2463.588071393663
 30
0.0
 41
30.0
 42
30.0
 43
30.0
 50
270.0
  0
INSERT
  5
85A3
330
859D
100
AcDbEntity
  8
3
 62
     0
370
    -2
100
AcDbBlockReference
  2
_OPEN
 10
1618.001294706843
 20
2853.96467238436
 30
0.0
 41
30.0
 42
30.0
 43
30.0
 50
90.0
  0
MTEXT
  5
85A4
330
859D
100
AcDbEntity
  8
3
 62
     0
100
AcDbMText
 10
1580.501294706843
 20
2658.776371889012
 30
0.0
 40
45.0
 41
0.0
 71
     5
 72
     1
  1
\A1;390
 11
0.0000000000000001
 21
1.0
 31
0.0
 73
     1
 44
1.0
1001
ACAD
1000
MTEXTBEGIN
1070
    73
1070
     1
1070
    44
1040
1.0
1070
    74
1070
     0
1000
MTEXTEND
  0
POINT
  5
85A5
330
859D
100
AcDbEntity
  8
DEFPOINTS
 62
     0
100
AcDbPoint
 10
1361.902951880732
 20
2463.588071393663
 30
0.0
  0
POINT
  5
85A6
330
859D
100
AcDbEntity
  8
DEFPOINTS
 62
     0
100
AcDbPoint
 10
1360.644190272336
 20
2853.96467238436
 30
0.0
  0
POINT
  5
85A7
330
859D
100
AcDbEntity
  8
DEFPOINTS
 62
     0
100
AcDbPoint
 10
1618.001294706843
 20
2853.96467238436
 30
0.0
  0
ENDBLK
  5
85A8
330
859D
100
AcDbEntity
  8
0
100
AcDbBlockEnd
  0
BLOCK
  5
85AA
330
85A9
100
AcDbEntity
  8
0
100
AcDbBlockBegin
  2
*D12
 70
     1
 10
0.0
 20
0.0
 30
0.0
  3
*D12
  1

  0
LINE
  5
85AB
330
85A9
100
AcDbEntity
  8
3
 62
     0
370
    -2
100
AcDbLine
 10
1368.144190272336
 20
2853.96467238436
 30
0.0
 11
1633.001294706843
 21
2853.96467238436
 31
0.0
  0
LINE
  5
85AC
330
85A9
100
AcDbEntity
  8
3
 62
     0
370
    -2
100
AcDbLine
 10
1368.144190272336
 20
3173.96467238436
 30
0.0
 11
1633.001294706843
 21
3173.96467238436
 31
0.0
  0
LINE
  5
85AD
330
85A9
100
AcDbEntity
  8
3
 62
     0
370
    -2
100
AcDbLine
 10
1618.001294706843
 20
2883.96467238436
 30
0.0
 11
1618.001294706843
 21
3143.96467238436
 31
0.0
  0
INSERT
  5
85AE
330
85A9
100
AcDbEntity
  8
3
 62
     0
370
    -2
100
AcDbBlockReference
  2
_OPEN
 10
1618.001294706843
 20
2853.96467238436
 30
0.0
 41
30.0
 42
30.0
 43
30.0
 50
270.0
  0
INSERT
  5
85AF
330
85A9
100
AcDbEntity
  8
3
 62
     0
370
    -2
100
AcDbBlockReference
  2
_OPEN
 10
1618.001294706843
 20
3173.96467238436
 30
0.0
 41
30.0
 42
30.0
 43
30.0
 50
90.0
  0
MTEXT
  5
85B0
330
85A9
100
AcDbEntity
  8
3
 62
     0
100
AcDbMText
 10
1580.501294706843
 20
3013.964672384361
 30
0.0
 40
45.0
 41
0.0
 71
     5
 72
     1
  1
\A1;320
 11
0.0000000000000001
 21
1.0
 31
0.0
 73
     1
 44
1.0
1001
ACAD
1000
MTEXTBEGIN
1070
    73
1070
     1
1070
    44
1040
1.0
1070
    74
1070
     0
1000
MTEXTEND
  0
POINT
  5
85B1
330
85A9
100
AcDbEntity
  8
DEFPOINTS
 62
     0
100
AcDbPoint
 10
1360.644190272336
 20
2853.96467238436
 30
0.0
  0
POINT
  5
85B2
330
85A9
100
AcDbEntity
  8
DEFPOINTS
 62
     0
100
AcDbPoint
 10
1360.644190272336
 20
3173.96467238436
 30
0.0
  0
POINT
  5
85B3
330
85A9
100
AcDbEntity
  8
DEFPOINTS
 62
     0
100
AcDbPoint
 10
1618.001294706843
 20
3173.96467238436
 30
0.0
  0
ENDBLK
  5
85B4
330
85A9
100
AcDbEntity
  8
0
100
AcDbBlockEnd
  0
BLOCK
  5
85B6
330
85B5
100
AcDbEntity
  8
0
100
AcDbBlockBegin
  2
*D13
 70
     1
 10
0.0
 20
0.0
 30
0.0
  3
*D13
  1

  0
LINE
  5
85B7
330
85B5
100
AcDbEntity
  8
3
 62
     0
370
    -2
100
AcDbLine
 10
561.9029518807321
 20
2475.088071393663
 30
0.0
 11
561.9029518807321
 21
2270.955760804493
 31
0.0
  0
LINE
  5
85B8
330
85B5
100
AcDbEntity
  8
3
 62
     0
370
    -2
100
AcDbLine
 10
631.902951880731
 20
2456.088071393662
 30
0.0
 11
631.902951880731
 21
2270.955760804493
 31
0.0
  0
LINE
  5
85B9
330
85B5
100
AcDbEntity
  8
3
 62
     0
370
    -2
100
AcDbLine
 10
661.902951880731
 20
2285.955760804492
 30
0.0
 11
691.902951880731
 21
2285.955760804492
 31
0.0
  0
LINE
  5
85BA
330
85B5
100
AcDbEntity
  8
3
 62
     0
370
    -2
100
AcDbLine
 10
531.9029518807321
 20
2285.955760804492
 30
0.0
 11
399.0458090235893
 21
2285.955760804492
 31
0.0
  0
LINE
  5
85BB
330
85B5
100
AcDbEntity
  8
3
 62
     0
370
    -2
100
AcDbLine
 10
631.902951880731
 20
2285.955760804492
 30
0.0
 11
561.9029518807321
 21
2285.955760804492
 31
0.0
  0
INSERT
  5
85BC
330
85B5
100
AcDbEntity
  8
3
 62
     0
370
    -2
100
AcDbBlockReference
  2
_OPEN
 10
631.902951880731
 20
2285.955760804492
 30
0.0
 41
30.0
 42
30.0
 43
30.0
 50
180.0
  0
INSERT
  5
85BD
330
85B5
100
AcDbEntity
  8
3
 62
     0
370
    -2
100
AcDbBlockReference
  2
_OPEN
 10
561.9029518807321
 20
2285.955760804492
 30
0.0
 41
30.0
 42
30.0
 43
30.0
  0
MTEXT
  5
85BE
330
85B5
100
AcDbEntity
  8
3
 62
     0
100
AcDbMText
 10
450.4743804521607
 20
2323.455760804492
 30
0.0
 40
45.0
 41
0.0
 71
     5
 72
     1
  1
\A1;70
 73
     1
 44
1.0
1001
ACAD
1000
MTEXTBEGIN
1070
    73
1070
     1
1070
    44
1040
1.0
1070
    74
1070
     0
1000
MTEXTEND
  0
POINT
  5
85BF
330
85B5
100
AcDbEntity
  8
DEFPOINTS
 62
     0
100
AcDbPoint
 10
561.9029518807321
 20
2482.588071393663
 30
0.0
  0
POINT
  5
85C0
330
85B5
100
AcDbEntity
  8
DEFPOINTS
 62
     0
100
AcDbPoint
 10
631.902951880731
 20
2463.588071393662
 30
0.0
  0
POINT
  5
85C1
330
85B5
100
AcDbEntity
  8
DEFPOINTS
 62
     0
100
AcDbPoint
 10
631.902951880731
 20
2285.955760804492
 30
0.0
  0
ENDBLK
  5
85C2
330
85B5
100
AcDbEntity
  8
0
100
AcDbBlockEnd
  0
BLOCK
  5
85C4
330
85C3
100
AcDbEntity
  8
0
100
AcDbBlockBegin
  2
*D14
 70
     1
 10
0.0
 20
0.0
 30
0.0
  3
*D14
  1

  0
LINE
  5
85C5
330
85C3
100
AcDbEntity
  8
3
 62
     0
370
    -2
100
AcDbLine
 10
631.902951880731
 20
2456.088071393662
 30
0.0
 11
631.902951880731
 21
2270.955760804493
 31
0.0
  0
LINE
  5
85C6
330
85C3
100
AcDbEntity
  8
3
 62
     0
370
    -2
100
AcDbLine
 10
961.9029518807311
 20
2456.088071393662
 30
0.0
 11
961.9029518807311
 21
2270.955760804493
 31
0.0
  0
LINE
  5
85C7
330
85C3
100
AcDbEntity
  8
3
 62
     0
370
    -2
100
AcDbLine
 10
661.902951880731
 20
2285.955760804492
 30
0.0
 11
931.902951880731
 21
2285.955760804492
 31
0.0
  0
INSERT
  5
85C8
330
85C3
100
AcDbEntity
  8
3
 62
     0
370
    -2
100
AcDbBlockReference
  2
_OPEN
 10
631.902951880731
 20
2285.955760804492
 30
0.0
 41
30.0
 42
30.0
 43
30.0
 50
180.0
  0
INSERT
  5
85C9
330
85C3
100
AcDbEntity
  8
3
 62
     0
370
    -2
100
AcDbBlockReference
  2
_OPEN
 10
961.9029518807311
 20
2285.955760804492
 30
0.0
 41
30.0
 42
30.0
 43
30.0
  0
MTEXT
  5
85CA
330
85C3
100
AcDbEntity
  8
3
 62
     0
100
AcDbMText
 10
796.902951880731
 20
2323.455760804492
 30
0.0
 40
45.0
 41
0.0
 71
     5
 72
     1
  1
\A1;330
 73
     1
 44
1.0
1001
ACAD
1000
MTEXTBEGIN
1070
    73
1070
     1
1070
    44
1040
1.0
1070
    74
1070
     0
1000
MTEXTEND
  0
POINT
  5
85CB
330
85C3
100
AcDbEntity
  8
DEFPOINTS
 62
     0
100
AcDbPoint
 10
631.902951880731
 20
2463.588071393662
 30
0.0
  0
POINT
  5
85CC
330
85C3
100
AcDbEntity
  8
DEFPOINTS
 62
     0
100
AcDbPoint
 10
961.9029518807311
 20
2463.588071393662
 30
0.0
  0
POINT
  5
85CD
330
85C3
100
AcDbEntity
  8
DEFPOINTS
 62
     0
100
AcDbPoint
 10
961.9029518807311
 20
2285.955760804492
 30
0.0
  0
ENDBLK
  5
85CE
330
85C3
100
AcDbEntity
  8
0
100
AcDbBlockEnd
  0
BLOCK
  5
85D0
330
85CF
100
AcDbEntity
  8
0
100
AcDbBlockBegin
  2
*D15
 70
     1
 10
0.0
 20
0.0
 30
0.0
  3
*D15
  1

  0
LINE
  5
85D1
330
85CF
100
AcDbEntity
  8
3
 62
     0
370
    -2
100
AcDbLine
 10
961.9029518807311
 20
2456.088071393662
 30
0.0
 11
961.9029518807311
 21
2270.955760804493
 31
0.0
  0
LINE
  5
85D2
330
85CF
100
AcDbEntity
  8
3
 62
     0
370
    -2
100
AcDbLine
 10
1291.902951880733
 20
2456.088071393662
 30
0.0
 11
1291.902951880733
 21
2270.955760804493
 31
0.0
  0
LINE
  5
85D3
330
85CF
100
AcDbEntity
  8
3
 62
     0
370
    -2
100
AcDbLine
 10
991.902951880731
 20
2285.955760804492
 30
0.0
 11
1261.902951880733
 21
2285.955760804492
 31
0.0
  0
INSERT
  5
85D4
330
85CF
100
AcDbEntity
  8
3
 62
     0
370
    -2
100
AcDbBlockReference
  2
_OPEN
 10
961.9029518807311
 20
2285.955760804492
 30
0.0
 41
30.0
 42
30.0
 43
30.0
 50
180.0
  0
INSERT
  5
85D5
330
85CF
100
AcDbEntity
  8
3
 62
     0
370
    -2
100
AcDbBlockReference
  2
_OPEN
 10
1291.902951880733
 20
2285.955760804492
 30
0.0
 41
30.0
 42
30.0
 43
30.0
  0
MTEXT
  5
85D6
330
85CF
100
AcDbEntity
  8
3
 62
     0
100
AcDbMText
 10
1126.902951880732
 20
2323.455760804492
 30
0.0
 40
45.0
 41
0.0
 71
     5
 72
     1
  1
\A1;330
 73
     1
 44
1.0
1001
ACAD
1000
MTEXTBEGIN
1070
    73
1070
     1
1070
    44
1040
1.0
1070
    74
1070
     0
1000
MTEXTEND
  0
POINT
  5
85D7
330
85CF
100
AcDbEntity
  8
DEFPOINTS
 62
     0
100
AcDbPoint
 10
961.9029518807311
 20
2463.588071393662
 30
0.0
  0
POINT
  5
85D8
330
85CF
100
AcDbEntity
  8
DEFPOINTS
 62
     0
100
AcDbPoint
 10
1291.902951880733
 20
2463.588071393662
 30
0.0
  0
POINT
  5
85D9
330
85CF
100
AcDbEntity
  8
DEFPOINTS
 62
     0
100
AcDbPoint
 10
1291.902951880733
 20
2285.955760804492
 30
0.0
  0
ENDBLK
  5
85DA
330
85CF
100
AcDbEntity
  8
0
100
AcDbBlockEnd
  0
BLOCK
  5
85DC
330
85DB
100
AcDbEntity
  8
0
100
AcDbBlockBegin
  2
*D16
 70
     1
 10
0.0
 20
0.0
 30
0.0
  3
*D16
  1

  0
LINE
  5
85DD
330
85DB
100
AcDbEntity
  8
3
 62
     0
370
    -2
100
AcDbLine
 10
1361.902951880732
 20
2456.088071393663
 30
0.0
 11
1361.902951880732
 21
2270.955760804493
 31
0.0
  0
LINE
  5
85DE
330
85DB
100
AcDbEntity
  8
3
 62
     0
370
    -2
100
AcDbLine
 10
1291.902951880733
 20
2456.088071393662
 30
0.0
 11
1291.902951880733
 21
2270.955760804493
 31
0.0
  0
LINE
  5
85DF
330
85DB
100
AcDbEntity
  8
3
 62
     0
370
    -2
100
AcDbLine
 10
1261.902951880733
 20
2285.955760804492
 30
0.0
 11
1231.902951880733
 21
2285.955760804492
 31
0.0
  0
LINE
  5
85E0
330
85DB
100
AcDbEntity
  8
3
 62
     0
370
    -2
100
AcDbLine
 10
1391.902951880732
 20
2285.955760804492
 30
0.0
 11
1524.760094737875
 21
2285.955760804492
 31
0.0
  0
LINE
  5
85E1
330
85DB
100
AcDbEntity
  8
3
 62
     0
370
    -2
100
AcDbLine
 10
1291.902951880733
 20
2285.955760804492
 30
0.0
 11
1361.902951880732
 21
2285.955760804492
 31
0.0
  0
INSERT
  5
85E2
330
85DB
100
AcDbEntity
  8
3
 62
     0
370
    -2
100
AcDbBlockReference
  2
_OPEN
 10
1291.902951880733
 20
2285.955760804492
 30
0.0
 41
30.0
 42
30.0
 43
30.0
  0
INSERT
  5
85E3
330
85DB
100
AcDbEntity
  8
3
 62
     0
370
    -2
100
AcDbBlockReference
  2
_OPEN
 10
1361.902951880732
 20
2285.955760804492
 30
0.0
 41
30.0
 42
30.0
 43
30.0
 50
180.0
  0
MTEXT
  5
85E4
330
85DB
100
AcDbEntity
  8
3
 62
     0
100
AcDbMText
 10
1473.331523309303
 20
2323.455760804492
 30
0.0
 40
45.0
 41
0.0
 71
     5
 72
     1
  1
\A1;70
 73
     1
 44
1.0
1001
ACAD
1000
MTEXTBEGIN
1070
    73
1070
     1
1070
    44
1040
1.0
1070
    74
1070
     0
1000
MTEXTEND
  0
POINT
  5
85E5
330
85DB
100
AcDbEntity
  8
DEFPOINTS
 62
     0
100
AcDbPoint
 10
1361.902951880732
 20
2463.588071393663
 30
0.0
  0
POINT
  5
85E6
330
85DB
100
AcDbEntity
  8
DEFPOINTS
 62
     0
100
AcDbPoint
 10
1291.902951880733
 20
2463.588071393662
 30
0.0
  0
POINT
  5
85E7
330
85DB
100
AcDbEntity
  8
DEFPOINTS
 62
     0
100
AcDbPoint
 10
1291.902951880733
 20
2285.955760804492
 30
0.0
  0
ENDBLK
  5
85E8
330
85DB
100
AcDbEntity
  8
0
100
AcDbBlockEnd
  0
BLOCK
  5
85EA
330
85E9
100
AcDbEntity
  8
0
100
AcDbBlockBegin
  2
*D17
 70
     1
 10
0.0
 20
0.0
 30
0.0
  3
*D17
  1

  0
LINE
  5
85EB
330
85E9
100
AcDbEntity
  8
3
 62
     0
370
    -2
100
AcDbLine
 10
1368.144190272336
 20
3173.96467238436
 30
0.0
 11
1633.001294706843
 21
3173.96467238436
 31
0.0
  0
LINE
  5
85EC
330
85E9
100
AcDbEntity
  8
3
 62
     0
370
    -2
100
AcDbLine
 10
1369.402951880733
 20
3243.588071393663
 30
0.0
 11
1633.001294706843
 21
3243.588071393663
 31
0.0
  0
LINE
  5
85ED
330
85E9
100
AcDbEntity
  8
3
 62
     0
370
    -2
100
AcDbLine
 10
1618.001294706843
 20
3143.96467238436
 30
0.0
 11
1618.001294706843
 21
3113.96467238436
 31
0.0
  0
LINE
  5
85EE
330
85E9
100
AcDbEntity
  8
3
 62
     0
370
    -2
100
AcDbLine
 10
1618.001294706843
 20
3273.588071393663
 30
0.0
 11
1618.001294706843
 21
3406.445214250805
 31
0.0
  0
LINE
  5
85EF
330
85E9
100
AcDbEntity
  8
3
 62
     0
370
    -2
100
AcDbLine
 10
1618.001294706843
 20
3173.96467238436
 30
0.0
 11
1618.001294706843
 21
3243.588071393663
 31
0.0
  0
INSERT
  5
85F0
330
85E9
100
AcDbEntity
  8
3
 62
     0
370
    -2
100
AcDbBlockReference
  2
_OPEN
 10
1618.001294706843
 20
3173.96467238436
 30
0.0
 41
30.0
 42
30.0
 43
30.0
 50
90.0
  0
INSERT
  5
85F1
330
85E9
100
AcDbEntity
  8
3
 62
     0
370
    -2
100
AcDbBlockReference
  2
_OPEN
 10
1618.001294706843
 20
3243.588071393663
 30
0.0
 41
30.0
 42
30.0
 43
30.0
 50
270.0
  0
MTEXT
  5
85F2
330
85E9
100
AcDbEntity
  8
3
 62
     0
100
AcDbMText
 10
1580.501294706843
 20
3355.016642822235
 30
0.0
 40
45.0
 41
0.0
 71
     5
 72
     1
  1
\A1;70
 11
0.0000000000000001
 21
1.0
 31
0.0
 73
     1
 44
1.0
1001
ACAD
1000
MTEXTBEGIN
1070
    73
1070
     1
1070
    44
1040
1.0
1070
    74
1070
     0
1000
MTEXTEND
  0
POINT
  5
85F3
330
85E9
100
AcDbEntity
  8
DEFPOINTS
 62
     0
100
AcDbPoint
 10
1360.644190272336
 20
3173.96467238436
 30
0.0
  0
POINT
  5
85F4
330
85E9
100
AcDbEntity
  8
DEFPOINTS
 62
     0
100
AcDbPoint
 10
1361.902951880733
 20
3243.588071393663
 30
0.0
  0
POINT
  5
85F5
330
85E9
100
AcDbEntity
  8
DEFPOINTS
 62
     0
100
AcDbPoint
 10
1618.001294706843
 20
3243.588071393663
 30
0.0
  0
ENDBLK
  5
85F6
330
85E9
100
AcDbEntity
  8
0
100
AcDbBlockEnd
  0
BLOCK
  5
85F8
330
85F7
100
AcDbEntity
  8
0
100
AcDbBlockBegin
  2
*D18
 70
     1
 10
0.0
 20
0.0
 30
0.0
  3
*D18
  1

  0
LINE
  5
85F9
330
85F7
100
AcDbEntity
  8
3
 62
     0
370
    -2
100
AcDbLine
 10
554.4029518807328
 20
2843.588071393663
 30
0.0
 11
348.775445302701
 21
2843.588071393663
 31
0.0
  0
LINE
  5
85FA
330
85F7
100
AcDbEntity
  8
3
 62
     0
370
    -2
100
AcDbLine
 10
607.6617134891275
 20
2825.588071393663
 30
0.0
 11
348.775445302701
 21
2825.588071393663
 31
0.0
  0
LINE
  5
85FB
330
85F7
100
AcDbEntity
  8
3
 62
     0
370
    -2
100
AcDbLine
 10
363.775445302701
 20
2795.588071393663
 30
0.0
 11
363.775445302701
 21
2765.588071393663
 31
0.0
  0
LINE
  5
85FC
330
85F7
100
AcDbEntity
  8
3
 62
     0
370
    -2
100
AcDbLine
 10
363.775445302701
 20
2873.588071393663
 30
0.0
 11
363.775445302701
 21
2997.873785679377
 31
0.0
  0
LINE
  5
85FD
330
85F7
100
AcDbEntity
  8
3
 62
     0
370
    -2
100
AcDbLine
 10
363.775445302701
 20
2825.588071393663
 30
0.0
 11
363.775445302701
 21
2843.588071393663
 31
0.0
  0
INSERT
  5
85FE
330
85F7
100
AcDbEntity
  8
3
 62
     0
370
    -2
100
AcDbBlockReference
  2
_OPEN
 10
363.775445302701
 20
2825.588071393663
 30
0.0
 41
30.0
 42
30.0
 43
30.0
 50
90.0
  0
INSERT
  5
85FF
330
85F7
100
AcDbEntity
  8
3
 62
     0
370
    -2
100
AcDbBlockReference
  2
_OPEN
 10
363.775445302701
 20
2843.588071393663
 30
0.0
 41
30.0
 42
30.0
 43
30.0
 50
270.0
  0
MTEXT
  5
8600
330
85F7
100
AcDbEntity
  8
3
 62
     0
100
AcDbMText
 10
326.2754453027005
 20
2950.73092853652
 30
0.0
 40
45.0
 41
0.0
 71
     5
 72
     1
  1
\A1;18
 11
0.0000000000000001
 21
1.0
 31
0.0
 73
     1
 44
1.0
1001
ACAD
1000
MTEXTBEGIN
1070
    73
1070
     1
1070
    44
1040
1.0
1070
    74
1070
     0
1000
MTEXTEND
  0
POINT
  5
8601
330
85F7
100
AcDbEntity
  8
DEFPOINTS
 62
     0
100
AcDbPoint
 10
561.9029518807328
 20
2843.588071393663
 30
0.0
  0
POINT
  5
8602
330
85F7
100
AcDbEntity
  8
DEFPOINTS
 62
     0
100
AcDbPoint
 10
615.1617134891275
 20
2825.588071393663
 30
0.0
  0
POINT
  5
8603
330
85F7
100
AcDbEntity
  8
DEFPOINTS
 62
     0
100
AcDbPoint
 10
363.775445302701
 20
2825.588071393663
 30
0.0
  0
ENDBLK
  5
8604
330
85F7
100
AcDbEntity
  8
0
100
AcDbBlockEnd
  0
BLOCK
  5
8606
330
8605
100
AcDbEntity
  8
0
100
AcDbBlockBegin
  2
*D19
 70
     1
 10
0.0
 20
0.0
 30
0.0
  3
*D19
  1

  0
LINE
  5
8607
330
8605
100
AcDbEntity
  8
3
 62
     0
370
    -2
100
AcDbLine
 10
607.6617134891275
 20
2825.588071393663
 30
0.0
 11
348.775445302701
 21
2825.588071393663
 31
0.0
  0
LINE
  5
8608
330
8605
100
AcDbEntity
  8
3
 62
     0
370
    -2
100
AcDbLine
 10
607.6617134891275
 20
2481.588071393662
 30
0.0
 11
348.7754453027009
 21
2481.588071393662
 31
0.0
  0
LINE
  5
8609
330
8605
100
AcDbEntity
  8
3
 62
     0
370
    -2
100
AcDbLine
 10
363.775445302701
 20
2795.588071393663
 30
0.0
 11
363.7754453027009
 21
2511.588071393662
 31
0.0
  0
INSERT
  5
860A
330
8605
100
AcDbEntity
  8
3
 62
     0
370
    -2
100
AcDbBlockReference
  2
_OPEN
 10
363.775445302701
 20
2825.588071393663
 30
0.0
 41
30.0
 42
30.0
 43
30.0
 50
90.0
  0
INSERT
  5
860B
330
8605
100
AcDbEntity
  8
3
 62
     0
370
    -2
100
AcDbBlockReference
  2
_OPEN
 10
363.7754453027009
 20
2481.588071393662
 30
0.0
 41
30.0
 42
30.0
 43
30.0
 50
270.0
  0
MTEXT
  5
860C
330
8605
100
AcDbEntity
  8
3
 62
     0
100
AcDbMText
 10
326.2754453027005
 20
2653.588071393662
 30
0.0
 40
45.0
 41
0.0
 71
     5
 72
     1
  1
\A1;344
 11
0.0000000000000001
 21
1.0
 31
0.0
 73
     1
 44
1.0
1001
ACAD
1000
MTEXTBEGIN
1070
    73
1070
     1
1070
    44
1040
1.0
1070
    74
1070
     0
1000
MTEXTEND
  0
POINT
  5
860D
330
8605
100
AcDbEntity
  8
DEFPOINTS
 62
     0
100
AcDbPoint
 10
615.1617134891275
 20
2825.588071393663
 30
0.0
  0
POINT
  5
860E
330
8605
100
AcDbEntity
  8
DEFPOINTS
 62
     0
100
AcDbPoint
 10
615.1617134891275
 20
2481.588071393662
 30
0.0
  0
POINT
  5
860F
330
8605
100
AcDbEntity
  8
DEFPOINTS
 62
     0
100
AcDbPoint
 10
363.7754453027009
 20
2481.588071393662
 30
0.0
  0
ENDBLK
  5
8610
330
8605
100
AcDbEntity
  8
0
100
AcDbBlockEnd
  0
BLOCK
  5
8612
330
8611
100
AcDbEntity
  8
0
100
AcDbBlockBegin
  2
*D20
 70
     1
 10
0.0
 20
0.0
 30
0.0
  3
*D20
  1

  0
LINE
  5
8613
330
8611
100
AcDbEntity
  8
3
 62
     0
370
    -2
100
AcDbLine
 10
554.4029518807328
 20
2463.588071393662
 30
0.0
 11
348.7754453027009
 21
2463.588071393662
 31
0.0
  0
LINE
  5
8614
330
8611
100
AcDbEntity
  8
3
 62
     0
370
    -2
100
AcDbLine
 10
607.6617134891275
 20
2481.588071393662
 30
0.0
 11
348.7754453027009
 21
2481.588071393662
 31
0.0
  0
LINE
  5
8615
330
8611
100
AcDbEntity
  8
3
 62
     0
370
    -2
100
AcDbLine
 10
363.7754453027009
 20
2511.588071393662
 30
0.0
 11
363.7754453027009
 21
2541.588071393662
 31
0.0
  0
LINE
  5
8616
330
8611
100
AcDbEntity
  8
3
 62
     0
370
    -2
100
AcDbLine
 10
363.7754453027009
 20
2433.588071393662
 30
0.0
 11
363.7754453027008
 21
2309.302357107947
 31
0.0
  0
LINE
  5
8617
330
8611
100
AcDbEntity
  8
3
 62
     0
370
    -2
100
AcDbLine
 10
363.7754453027009
 20
2481.588071393662
 30
0.0
 11
363.7754453027009
 21
2463.588071393662
 31
0.0
  0
INSERT
  5
8618
330
8611
100
AcDbEntity
  8
3
 62
     0
370
    -2
100
AcDbBlockReference
  2
_OPEN
 10
363.7754453027009
 20
2481.588071393662
 30
0.0
 41
30.0
 42
30.0
 43
30.0
 50
270.0
  0
INSERT
  5
8619
330
8611
100
AcDbEntity
  8
3
 62
     0
370
    -2
100
AcDbBlockReference
  2
_OPEN
 10
363.7754453027009
 20
2463.588071393662
 30
0.0
 41
30.0
 42
30.0
 43
30.0
 50
90.0
  0
MTEXT
  5
861A
330
8611
100
AcDbEntity
  8
3
 62
     0
100
AcDbMText
 10
326.2754453027005
 20
2356.445214250804
 30
0.0
 40
45.0
 41
0.0
 71
     5
 72
     1
  1
\A1;18
 11
0.0000000000000001
 21
1.0
 31
0.0
 73
     1
 44
1.0
1001
ACAD
1000
MTEXTBEGIN
1070
    73
1070
     1
1070
    44
1040
1.0
1070
    74
1070
     0
1000
MTEXTEND
  0
POINT
  5
861B
330
8611
100
AcDbEntity
  8
DEFPOINTS
 62
     0
100
AcDbPoint
 10
561.9029518807328
 20
2463.588071393662
 30
0.0
  0
POINT
  5
861C
330
8611
100
AcDbEntity
  8
DEFPOINTS
 62
     0
100
AcDbPoint
 10
615.1617134891275
 20
2481.588071393662
 30
0.0
  0
POINT
  5
861D
330
8611
100
AcDbEntity
  8
DEFPOINTS
 62
     0
100
AcDbPoint
 10
363.7754453027009
 20
2481.588071393662
 30
0.0
  0
ENDBLK
  5
861E
330
8611
100
AcDbEntity
  8
0
100
AcDbBlockEnd
  0
BLOCK
  5
8642
330
8621
100
AcDbEntity
  8
0
100
AcDbBlockBegin
  2
A$C5F035C4D
 70
     0
 10
0.0
 20
0.0
 30
0.0
  3
A$C5F035C4D
  1

  0
DIMENSION
  5
8622
330
8621
100
AcDbEntity
  8
3
100
AcDbDimension
  2
*D2
 10
-799.9999999999998
 20
-254.1856030264976
 30
0.0
 11
-399.9999999999999
 21
-216.6856030264976
 31
0.0
 12
-1361.902951880732
 22
-2463.588071393663
 32
0.0
 71
     5
 42
799.9999999999998
  3
IGA
100
AcDbAlignedDimension
 13
0.0
 23
-0.0000000000004547
 33
0.0
 14
-799.9999999999998
 24
19.0
 34
0.0
100
AcDbRotatedDimension
1001
ACAD
1000
DSTYLE
1002
{
1070
    40
1040
15.0
1070
   143
1040
0.039
1070
   172
1070
     1
1070
   271
1070
     0
1070
   279
1070
     0
1070
   288
1070
     1
1002
}
  0
DIMENSION
  5
8623
330
8621
100
AcDbEntity
  8
3
100
AcDbDimension
  2
*D3
 10
362.4451822189922
 20
780.0
 30
0.0
 11
324.9451822189917
 21
390.0000000000005
 31
0.0
 12
-1361.902951880732
 22
-2463.588071393663
 32
0.0
 71
     5
 42
780.0000000000005
  3
IGA
100
AcDbAlignedDimension
 13
0.0
 23
-0.0000000000004547
 33
0.0
 14
0.0000000000009095
 24
780.0
 34
0.0
 50
270.0
100
AcDbRotatedDimension
1001
ACAD
1000
DSTYLE
1002
{
1070
    40
1040
15.0
1070
   143
1040
0.039
1070
   172
1070
     1
1070
   271
1070
     0
1070
   279
1070
     0
1070
   288
1070
     1
1002
}
  0
DIMENSION
  5
8624
330
8621
100
AcDbEntity
  8
3
100
AcDbDimension
  2
*D4
 10
-1098.831674133746
 20
380.0
 30
0.0
 11
-1136.331674133747
 21
189.9999999999995
 31
0.0
 12
-1361.902951880732
 22
-2463.588071393663
 32
0.0
 71
     5
 42
380.0000000000005
  3
IGA
100
AcDbAlignedDimension
 13
-799.9999999999991
 23
-0.0000000000004547
 33
0.0
 14
-800.0000000000008
 24
380.0
 34
0.0
 50
270.0
100
AcDbRotatedDimension
1001
ACAD
1000
DSTYLE
1002
{
1070
    40
1040
15.0
1070
   143
1040
0.039
1070
   172
1070
     1
1070
   271
1070
     0
1070
   279
1070
     0
1070
   288
1070
     1
1002
}
  0
DIMENSION
  5
8625
330
8621
100
AcDbEntity
  8
3
100
AcDbDimension
  2
*D5
 10
-359.9999999999991
 20
979.936734003059
 30
0.0
 11
-179.9999999999991
 21
1017.436734003059
 31
0.0
 12
-1361.902951880732
 22
-2463.588071393663
 32
0.0
 71
     5
 42
360.0
  3
IGA
100
AcDbAlignedDimension
 13
0.0000000000009095
 23
780.0
 33
0.0
 14
-359.9999999999991
 24
780.0
 34
0.0
100
AcDbRotatedDimension
1001
ACAD
1000
DSTYLE
1002
{
1070
    40
1040
15.0
1070
   143
1040
0.039
1070
   172
1070
     1
1070
   271
1070
     0
1070
   279
1070
     0
1070
   288
1070
     1
1002
}
  0
DIMENSION
  5
8626
330
8621
100
AcDbEntity
  8
3
100
AcDbDimension
  2
*D6
 10
-800.0000000000008
 20
979.936734003059
 30
0.0
 11
-580.0
 21
1017.436734003059
 31
0.0
 12
-1361.902951880732
 22
-2463.588071393663
 32
0.0
 71
     5
 42
440.0000000000018
  3
IGA
100
AcDbAlignedDimension
 13
-359.9999999999991
 23
780.0
 33
0.0
 14
-800.0000000000008
 24
380.0
 34
0.0
100
AcDbRotatedDimension
1001
ACAD
1000
DSTYLE
1002
{
1070
    40
1040
15.0
1070
   143
1040
0.039
1070
   172
1070
     1
1070
   271
1070
     0
1070
   279
1070
     0
1070
   288
1070
     1
1002
}
  0
LINE
  5
8627
330
8621
100
AcDbEntity
  8
2
100
AcDbLine
 10
-730.0000000000009
 20
380.0
 30
0.0
 11
-730.0000000000009
 21
345.2467980186061
 31
0.0
  0
LINE
  5
8628
330
8621
100
AcDbEntity
  8
2
100
AcDbLine
 10
-746.7412383916044
 20
362.0
 30
0.0
 11
-713.4972759668117
 21
362.0
 31
0.0
  0
LINE
  5
8629
330
8621
100
AcDbEntity
  8
2
100
AcDbLine
 10
-341.9999999999991
 20
728.3766009906972
 30
0.0
 11
-341.9999999999991
 21
693.6233990093032
 31
0.0
  0
LINE
  5
862A
330
8621
100
AcDbEntity
  8
2
100
AcDbLine
 10
-358.7412383916026
 20
710.3766009906971
 30
0.0
 11
-325.4972759668099
 21
710.3766009906971
 31
0.0
  0
LINE
  5
862B
330
8621
100
AcDbEntity
  8
2
100
AcDbLine
 10
-17.99999999999909
 20
728.3766009906972
 30
0.0
 11
-17.99999999999909
 21
693.6233990093032
 31
0.0
  0
LINE
  5
862C
330
8621
100
AcDbEntity
  8
2
100
AcDbLine
 10
-1.258761608395616
 20
710.3766009906971
 30
0.0
 11
-34.50272403318832
 21
710.3766009906971
 31
0.0
  0
LINE
  5
862D
330
8621
100
AcDbEntity
  8
2
100
AcDbLine
 10
-730.0000000000009
 20
-0.0000000000009095
 30
0.0
 11
-730.0000000000009
 21
34.75320198139298
 31
0.0
  0
LINE
  5
862E
330
8621
100
AcDbEntity
  8
2
100
AcDbLine
 10
-746.7412383916044
 20
17.99999999999909
 30
0.0
 11
-713.4972759668117
 21
17.99999999999909
 31
0.0
  0
LINE
  5
862F
330
8621
100
AcDbEntity
  8
2
100
AcDbLine
 10
-400.0000000000008
 20
-0.0000000000009095
 30
0.0
 11
-400.0000000000008
 21
34.75320198139298
 31
0.0
  0
LINE
  5
8630
330
8621
100
AcDbEntity
  8
2
100
AcDbLine
 10
-416.7412383916043
 20
17.99999999999909
 30
0.0
 11
-383.4972759668117
 21
17.99999999999909
 31
0.0
  0
LINE
  5
8631
330
8621
100
AcDbEntity
  8
2
100
AcDbLine
 10
-69.99999999999886
 20
-0.0000000000009095
 30
0.0
 11
-69.99999999999886
 21
34.75320198139298
 31
0.0
  0
LINE
  5
8632
330
8621
100
AcDbEntity
  8
2
100
AcDbLine
 10
-53.25876160839539
 20
17.99999999999909
 30
0.0
 11
-86.50272403318808
 21
17.99999999999909
 31
0.0
  0
DIMENSION
  5
8633
330
8621
100
AcDbEntity
  8
3
100
AcDbDimension
  2
*D7
 10
-730.0000000000009
 20
546.859183500765
 30
0.0
 11
-913.7423732388574
 21
546.859183500765
 31
0.0
 12
-1361.902951880732
 22
-2463.588071393663
 32
0.0
 70
   128
 71
     5
 42
70.0
  3
IGA
100
AcDbAlignedDimension
 13
-800.0000000000008
 23
380.0
 33
0.0
 14
-730.0000000000009
 24
380.0
 34
0.0
100
AcDbRotatedDimension
1001
ACAD
1000
DSTYLE
1002
{
1070
    40
1040
15.0
1070
   143
1040
0.039
1070
   172
1070
     1
1070
   271
1070
     0
1070
   279
1070
     0
1070
   288
1070
     1
1002
}
  0
DIMENSION
  5
8634
330
8621
100
AcDbEntity
  8
3
100
AcDbDimension
  2
*D8
 10
-341.9999999999991
 20
881.1749305793796
 30
0.0
 11
-467.1428571428561
 21
881.1749305793796
 31
0.0
 12
-1361.902951880732
 22
-2463.588071393663
 32
0.0
 70
   128
 71
     5
 42
18.0
  3
IGA
100
AcDbAlignedDimension
 13
-359.9999999999991
 23
780.0
 33
0.0
 14
-341.9999999999991
 24
727.3766009906971
 34
0.0
100
AcDbRotatedDimension
1001
ACAD
1000
DSTYLE
1002
{
1070
    40
1040
15.0
1070
   143
1040
0.039
1070
   172
1070
     1
1070
   271
1070
     0
1070
   279
1070
     0
1070
   288
1070
     1
1002
}
  0
DIMENSION
  5
8635
330
8621
100
AcDbEntity
  8
3
100
AcDbDimension
  2
*D9
 10
-17.99999999999909
 20
881.1749305793796
 30
0.0
 11
-179.9999999999991
 21
918.6749305793796
 31
0.0
 12
-1361.902951880732
 22
-2463.588071393663
 32
0.0
 71
     5
 42
324.0
  3
IGA
100
AcDbAlignedDimension
 13
-341.9999999999991
 23
727.3766009906971
 33
0.0
 14
-17.99999999999909
 24
727.3766009906971
 34
0.0
100
AcDbRotatedDimension
1001
ACAD
1000
DSTYLE
1002
{
1070
    40
1040
15.0
1070
   143
1040
0.039
1070
   172
1070
     1
1070
   271
1070
     0
1070
   279
1070
     1
1070
   288
1070
     1
1002
}
  0
DIMENSION
  5
8636
330
8621
100
AcDbEntity
  8
3
100
AcDbDimension
  2
*D10
 10
-17.99999999999909
 20
881.1749305793796
 30
0.0
 11
107.142857142858
 21
881.1749305793796
 31
0.0
 12
-1361.902951880732
 22
-2463.588071393663
 32
0.0
 70
   128
 71
     5
 42
18.0
  3
IGA
100
AcDbAlignedDimension
 13
0.0000000000009095
 23
780.0
 33
0.0
 14
-17.99999999999909
 24
727.3766009906971
 34
0.0
 50
180.0
100
AcDbRotatedDimension
1001
ACAD
1000
DSTYLE
1002
{
1070
    40
1040
15.0
1070
   143
1040
0.039
1070
   172
1070
     1
1070
   271
1070
     0
1070
   279
1070
     0
1070
   288
1070
     1
1002
}
  0
DIMENSION
  5
8637
330
8621
100
AcDbEntity
  8
3
100
AcDbDimension
  2
*D11
 10
256.0983428261111
 20
390.3766009906972
 30
0.0
 11
218.5983428261106
 21
195.1883004953493
 31
0.0
 12
-1361.902951880732
 22
-2463.588071393663
 32
0.0
 71
     5
 42
390.3766009906972
  3
IGA
100
AcDbAlignedDimension
 13
0.0
 23
0.0
 33
0.0
 14
-1.258761608395616
 24
390.3766009906972
 34
0.0
 50
90.0
100
AcDbRotatedDimension
1001
ACAD
1000
DSTYLE
1002
{
1070
    40
1040
15.0
1070
   143
1040
0.039
1070
   172
1070
     1
1070
   271
1070
     0
1070
   279
1070
     1
1070
   288
1070
     1
1002
}
  0
DIMENSION
  5
8638
330
8621
100
AcDbEntity
  8
3
100
AcDbDimension
  2
*D12
 10
256.0983428261111
 20
710.3766009906971
 30
0.0
 11
218.5983428261106
 21
550.3766009906976
 31
0.0
 12
-1361.902951880732
 22
-2463.588071393663
 32
0.0
 71
     5
 42
320.0
  3
IGA
100
AcDbAlignedDimension
 13
-1.258761608395616
 23
390.3766009906972
 33
0.0
 14
-1.258761608395616
 24
710.3766009906971
 34
0.0
 50
90.0
100
AcDbRotatedDimension
1001
ACAD
1000
DSTYLE
1002
{
1070
    40
1040
15.0
1070
   143
1040
0.039
1070
   172
1070
     1
1070
   271
1070
     0
1070
   279
1070
     1
1070
   288
1070
     1
1002
}
  0
DIMENSION
  5
8639
330
8621
100
AcDbEntity
  8
3
100
AcDbDimension
  2
*D13
 10
-730.0000000000009
 20
-177.6323105891701
 30
0.0
 11
-911.4285714285712
 21
-177.6323105891701
 31
0.0
 12
-1361.902951880732
 22
-2463.588071393663
 32
0.0
 70
   128
 71
     5
 42
69.99999999999886
  3
IGA
100
AcDbAlignedDimension
 13
-799.9999999999998
 23
19.0
 33
0.0
 14
-730.0000000000009
 24
-0.0000000000009095
 34
0.0
100
AcDbRotatedDimension
1001
ACAD
1000
DSTYLE
1002
{
1070
    40
1040
15.0
1070
   143
1040
0.039
1070
   172
1070
     1
1070
   271
1070
     0
1070
   279
1070
     0
1070
   288
1070
     1
1002
}
  0
DIMENSION
  5
863A
330
8621
100
AcDbEntity
  8
3
100
AcDbDimension
  2
*D14
 10
-400.0000000000008
 20
-177.6323105891701
 30
0.0
 11
-565.0000000000009
 21
-140.1323105891701
 31
0.0
 12
-1361.902951880732
 22
-2463.588071393663
 32
0.0
 71
     5
 42
330.0
  3
IGA
100
AcDbAlignedDimension
 13
-730.0000000000009
 23
-0.0000000000009095
 33
0.0
 14
-400.0000000000008
 24
-0.0000000000009095
 34
0.0
100
AcDbRotatedDimension
1001
ACAD
1000
DSTYLE
1002
{
1070
    40
1040
15.0
1070
   143
1040
0.039
1070
   172
1070
     1
1070
   271
1070
     0
1070
   279
1070
     1
1070
   288
1070
     1
1002
}
  0
DIMENSION
  5
863B
330
8621
100
AcDbEntity
  8
3
100
AcDbDimension
  2
*D15
 10
-69.99999999999886
 20
-177.6323105891701
 30
0.0
 11
-235.0
 21
-140.1323105891701
 31
0.0
 12
-1361.902951880732
 22
-2463.588071393663
 32
0.0
 71
     5
 42
330.0000000000021
  3
IGA
100
AcDbAlignedDimension
 13
-400.0000000000008
 23
-0.0000000000009095
 33
0.0
 14
-69.99999999999886
 24
-0.0000000000009095
 34
0.0
100
AcDbRotatedDimension
1001
ACAD
1000
DSTYLE
1002
{
1070
    40
1040
15.0
1070
   143
1040
0.039
1070
   172
1070
     1
1070
   271
1070
     0
1070
   279
1070
     1
1070
   288
1070
     1
1002
}
  0
DIMENSION
  5
863C
330
8621
100
AcDbEntity
  8
3
100
AcDbDimension
  2
*D16
 10
-69.99999999999886
 20
-177.6323105891701
 30
0.0
 11
111.4285714285715
 21
-177.6323105891701
 31
0.0
 12
-1361.902951880732
 22
-2463.588071393663
 32
0.0
 70
   128
 71
     5
 42
69.99999999999886
  3
IGA
100
AcDbAlignedDimension
 13
0.0
 23
0.0
 33
0.0
 14
-69.99999999999886
 24
-0.0000000000009095
 34
0.0
 50
180.0
100
AcDbRotatedDimension
1001
ACAD
1000
DSTYLE
1002
{
1070
    40
1040
15.0
1070
   143
1040
0.039
1070
   172
1070
     1
1070
   271
1070
     0
1070
   279
1070
     0
1070
   288
1070
     1
1002
}
  0
DIMENSION
  5
863D
330
8621
100
AcDbEntity
  8
3
100
AcDbDimension
  2
*D17
 10
256.0983428261116
 20
780.0
 30
0.0
 11
256.0983428261111
 21
891.4285714285719
 31
0.0
 12
-1361.902951880732
 22
-2463.588071393663
 32
0.0
 70
   128
 71
     5
 42
69.62339900930283
  3
IGA
100
AcDbAlignedDimension
 13
-1.258761608395616
 23
710.3766009906971
 33
0.0
 14
0.0000000000009095
 24
780.0
 34
0.0
 50
90.0
100
AcDbRotatedDimension
1001
ACAD
1000
DSTYLE
1002
{
1070
    40
1040
15.0
1070
   143
1040
0.039
1070
   172
1070
     1
1070
   271
1070
     0
1070
   279
1070
     0
1070
   288
1070
     1
1002
}
  0
DIMENSION
  5
863E
330
8621
100
AcDbEntity
  8
3
100
AcDbDimension
  2
*D18
 10
-998.1275065780309
 20
362.0
 30
0.0
 11
-998.1275065780314
 21
487.1428571428573
 31
0.0
 12
-1361.902951880732
 22
-2463.588071393663
 32
0.0
 70
   128
 71
     5
 42
18.0
  3
IGA
100
AcDbAlignedDimension
 13
-799.9999999999991
 23
380.0
 33
0.0
 14
-746.7412383916044
 24
362.0
 34
0.0
 50
90.0
100
AcDbRotatedDimension
1001
ACAD
1000
DSTYLE
1002
{
1070
    40
1040
15.0
1070
   143
1040
0.039
1070
   172
1070
     1
1070
   271
1070
     0
1070
   279
1070
     0
1070
   288
1070
     1
1002
}
  0
DIMENSION
  5
863F
330
8621
100
AcDbEntity
  8
3
100
AcDbDimension
  2
*D19
 10
-998.1275065780309
 20
17.99999999999909
 30
0.0
 11
-1035.627506578031
 21
189.9999999999995
 31
0.0
 12
-1361.902951880732
 22
-2463.588071393663
 32
0.0
 71
     5
 42
344.0000000000009
  3
IGA
100
AcDbAlignedDimension
 13
-746.7412383916044
 23
362.0
 33
0.0
 14
-746.7412383916044
 24
17.99999999999909
 34
0.0
 50
90.0
100
AcDbRotatedDimension
1001
ACAD
1000
DSTYLE
1002
{
1070
    40
1040
15.0
1070
   143
1040
0.039
1070
   172
1070
     1
1070
   271
1070
     0
1070
   279
1070
     1
1070
   288
1070
     1
1002
}
  0
DIMENSION
  5
8640
330
8621
100
AcDbEntity
  8
3
100
AcDbDimension
  2
*D20
 10
-998.1275065780309
 20
17.99999999999909
 30
0.0
 11
-998.1275065780314
 21
-107.1428571428582
 31
0.0
 12
-1361.902951880732
 22
-2463.588071393663
 32
0.0
 70
   128
 71
     5
 42
18.0
  3
IGA
100
AcDbAlignedDimension
 13
-799.9999999999991
 23
-0.0000000000009095
 33
0.0
 14
-746.7412383916044
 24
17.99999999999909
 34
0.0
 50
270.0
100
AcDbRotatedDimension
1001
ACAD
1000
DSTYLE
1002
{
1070
    40
1040
15.0
1070
   143
1040
0.039
1070
   172
1070
     1
1070
   271
1070
     0
1070
   279
1070
     0
1070
   288
1070
     1
1002
}
  0
MULTILEADER
  5
8641
102
{ACAD_XDICTIONARY
360
9F48
102
}
330
8621
100
AcDbEntity
  8
3
 92
     1268
310
F4040000250000000C00000016000000000000C00C00000033000000000000000C00000013000000993A0000AC0000000B000000D09F1F0E5D9D764020AEB11F1A9553C0000000000000000000000000000000000000000000000000000000000000F03F000000000000F03F0000000000000000000000000000000037817E
310
31328C8A0007000000010000000000000000804640000000000000F03F0000000000000000000000000000F03F000000000000000000000000000000000000000073696D706C65782E73687800657874666F6E742E73687800BC0000000B000000D09F1F0E5D9D764010D7D80F8D2A63C00000000000000000000000000000
310
00000000000000000000000000000000F03F000000000000F03F000000000000000000000000000000003735817E3430817E35288FE389BA8378815B83588BA4290017000000010000000000000000804640000000000000F03F0000000000000000000000000000F03F000000000000000000000000000000000000000073
310
696D706C65782E73687800657874666F6E742E736878000C00000033000000000000000C00000010000000010000000C00000016000000000000C00C00000012000000FF7F00000C0000001300000001000000880000001D0000006E4B4A2F2B263BC06813E9424E8729C0000000000000000030DF22175E7851C06813E942
310
4E8729406E4B4A2F2B263BC0000000000000000000FFFFFFFFFF3140000000000000000000000000000000000000000000003E400000000000000000000000000000000000000000000000000000000000000000000000000000F03F0C00000016000000020000C30C00000017000000FDFFFFFF5400000020000000020000
310
00000000000000F0BF555555555555C53F000000000000000000000000000000000000000000000000000000000000000000000000000000000000000000000000000000000000F03F0C00000016000000020000C30C00000017000000FDFFFFFF540000002000000002000000000000000000000000000000000000000000
310
000000000000000000000000F0BF555555555555C5BF000000000000000000000000000000000000000000000000000000000000F03F0C00000016000000020000C30C00000017000000FDFFFFFF540000002000000002000000000000000000000000000000000000000000000000000000000000000000F0BF0000000000
310
000000000000000000000000000000000000000000000000000000000000000000F03F080000001F0000000C00000016000000000000C00C00000012000000FF7F00000C00000033000000000000000C00000013000000891300003C0000000600000002000000AA98A096A65D45C032D52D7A63F114400000000000000000
310
6839B9A7F666744010D7D80F8D0A65C000000000000000000C00000013000000112700003C00000006000000020000006839B9A7F666744010D7D80F8D0A65C00000000000000000CE9F1F0E5DBD744010D7D80F8D0A65C000000000000000000C00000016000000000000C00C00000012000000FF7F00000C000000170000
310
00000000000C000000130000009A3A00003C0000000600000002000000CE9F1F0E5DBD744010D7D80F8D0A65C00000000000000000860CD1D57B74904010D7D80F8D0A65C000000000000000000C00000016000000000000C00C00000012000000FF7F00000C00000017000000FFFFFFFF0C0000003300000000000000
100
AcDbMLeader
300
CONTEXT_DATA{
 40
15.0
 10
331.8352185473749
 20
-168.329719470516
 30
0.0
 41
45.0
140
30.0
145
30.0
174
     5
175
     5
176
     0
177
     0
290
     1
304
7\U+00D712穴\P75\U+00D740\U+00D75(上下ベース共)
 11
0.0
 21
0.0
 31
1.0
340
10
 12
361.835218547375
 22
-33.32971947051601
 32
0.0
 13
1.0
 23
0.0
 33
0.0
 42
0.0
 43
0.0
 44
0.0
 45
1.0
170
     2
 90
-1073741824
171
     1
172
     5
 91
-1073741824
141
0.0
 92
        0
291
     0
292
     0
173
     0
293
     0
142
0.0
143
0.0
294
     0
295
     0
296
     0
110
-69.88074282079174
120
17.99999999999909
130
0.0
111
1.0
121
0.0
131
0.0
112
0.0
122
1.0
132
0.0
297
     0
302
LEADER{
290
     1
291
     1
 10
326.4352185473749
 20
-168.329719470516
 30
0.0
 11
1.0
 21
0.0
 31
0.0
 90
        0
 40
5.399999999999999
304
LEADER_LINE{
 10
-69.88074282079174
 20
17.99999999999909
 30
0.0
 91
        0
305
}
303
}
301
}
340
8505
 90
 50681600
170
     1
 91
-1056964608
341
13
171
    -2
290
     1
291
     1
 41
0.36
342
7A36
 42
2.0
172
     2
343
10
173
     5
 95
        5
174
     1
175
     0
 92
-1056964608
292
     0
 93
-1056964608
 10
1.0
 20
1.0
 30
1.0
 43
0.0
176
     0
293
     0
294
     0
178
     0
179
     1
 45
15.0
1001
ACAD_MLEADERVER
1070
     2
  0
ENDBLK
  5
8643
330
8621
100
AcDbEntity
  8
0
100
AcDbBlockEnd
  0
BLOCK
  5
89FD
330
89FB
100
AcDbEntity
  8
0
100
AcDbBlockBegin
  2
_DotSmall
 70
     0
 10
0.0
 20
0.0
 30
0.0
  3
_DotSmall
  1

  0
LWPOLYLINE
  5
89FC
330
89FB
100
AcDbEntity
  8
0
  6
ByBlock
 62
     0
100
AcDbPolyline
 90
        2
 70
     1
 43
0.5
 10
-0.0625
 20
0.0
 42
1.0
 10
0.0625
 20
0.0
 42
1.0
  0
ENDBLK
  5
89FE
330
89FB
100
AcDbEntity
  8
0
100
AcDbBlockEnd
  0
BLOCK
  5
8AE3
330
8AE2
100
AcDbEntity
  8
0
100
AcDbBlockBegin
  2
_NONE
 70
     0
 10
0.0
 20
0.0
 30
0.0
  3
_NONE
  1

  0
CIRCLE
  5
8AE4
330
8AE2
100
AcDbEntity
  8
0
  6
ByBlock
 62
     0
100
AcDbCircle
 10
0.0
 20
0.0
 30
0.0
 40
0.25
  0
ENDBLK
  5
8AE5
330
8AE2
100
AcDbEntity
  8
0
100
AcDbBlockEnd
  0
BLOCK
  5
93E5
330
93E4
100
AcDbEntity
  8
0
100
AcDbBlockBegin
  2
*D24
 70
     1
 10
0.0
 20
0.0
 30
0.0
  3
*D24
  1

  0
LINE
  5
9E6A
330
93E4
100
AcDbEntity
  8
3
 62
     0
370
    -2
100
AcDbLine
 10
1207.08609091706
 20
988.6872863377528
 30
0.0
 11
1207.08609091706
 21
899.4045529246275
 31
0.0
  0
LINE
  5
9E6B
330
93E4
100
AcDbEntity
  8
3
 62
     0
370
    -2
100
AcDbLine
 10
587.0860909170605
 20
1003.560572212541
 30
0.0
 11
587.0860909170605
 21
899.4045529246275
 31
0.0
  0
LINE
  5
9E6C
330
93E4
100
AcDbEntity
  8
3
 62
     0
370
    -2
100
AcDbLine
 10
1177.08609091706
 20
914.4045529246275
 30
0.0
 11
617.0860909170605
 21
914.4045529246275
 31
0.0
  0
INSERT
  5
9E6D
330
93E4
100
AcDbEntity
  8
3
 62
     0
370
    -2
100
AcDbBlockReference
  2
_OPEN
 10
1207.08609091706
 20
914.4045529246275
 30
0.0
 41
30.0
 42
30.0
 43
30.0
  0
INSERT
  5
9E6E
330
93E4
100
AcDbEntity
  8
3
 62
     0
370
    -2
100
AcDbBlockReference
  2
_OPEN
 10
587.0860909170605
 20
914.4045529246275
 30
0.0
 41
30.0
 42
30.0
 43
30.0
 50
180.0
  0
MTEXT
  5
9E6F
330
93E4
100
AcDbEntity
  8
3
 62
     0
100
AcDbMText
 10
897.0860909170605
 20
951.9045529246275
 30
0.0
 40
45.0
 41
0.0
 71
     5
 72
     1
  1
\A1;620
 73
     1
 44
1.0
1001
ACAD
1000
MTEXTBEGIN
1070
    73
1070
     1
1070
    44
1040
1.0
1070
    74
1070
     0
1000
MTEXTEND
  0
POINT
  5
9E70
330
93E4
100
AcDbEntity
  8
DEFPOINTS
 62
     0
100
AcDbPoint
 10
1207.08609091706
 20
996.1872863377527
 30
0.0
  0
POINT
  5
9E71
330
93E4
100
AcDbEntity
  8
DEFPOINTS
 62
     0
100
AcDbPoint
 10
587.0860909170605
 20
1011.060572212541
 30
0.0
  0
POINT
  5
9E72
330
93E4
100
AcDbEntity
  8
DEFPOINTS
 62
     0
100
AcDbPoint
 10
587.0860909170605
 20
914.4045529246275
 30
0.0
  0
ENDBLK
  5
93E6
330
93E4
100
AcDbEntity
  8
0
100
AcDbBlockEnd
  0
BLOCK
  5
93F1
330
93F0
100
AcDbEntity
  8
0
100
AcDbBlockBegin
  2
*D25
 70
     1
 10
0.0
 20
0.0
 30
0.0
  3
*D25
  1

  0
LINE
  5
9BF6
330
93F0
100
AcDbEntity
  8
3
 62
     0
370
    -2
100
AcDbLine
 10
856.0861513567397
 20
1788.560572212541
 30
0.0
 11
856.0861513567397
 21
1951.799114027631
 31
0.0
  0
LINE
  5
9BF7
330
93F0
100
AcDbEntity
  8
3
 62
     0
370
    -2
100
AcDbLine
 10
1207.08609091706
 20
1821.458320273527
 30
0.0
 11
1207.08609091706
 21
1951.799114027631
 31
0.0
  0
LINE
  5
9BF8
330
93F0
100
AcDbEntity
  8
3
 62
     0
370
    -2
100
AcDbLine
 10
886.0861513567398
 20
1936.799114027632
 30
0.0
 11
1177.08609091706
 21
1936.799114027632
 31
0.0
  0
INSERT
  5
9BF9
330
93F0
100
AcDbEntity
  8
3
 62
     0
370
    -2
100
AcDbBlockReference
  2
_OPEN
 10
856.0861513567397
 20
1936.799114027632
 30
0.0
 41
30.0
 42
30.0
 43
30.0
 50
180.0
  0
INSERT
  5
9BFA
330
93F0
100
AcDbEntity
  8
3
 62
     0
370
    -2
100
AcDbBlockReference
  2
_OPEN
 10
1207.08609091706
 20
1936.799114027632
 30
0.0
 41
30.0
 42
30.0
 43
30.0
  0
MTEXT
  5
9BFB
330
93F0
100
AcDbEntity
  8
3
 62
     0
100
AcDbMText
 10
1031.5861211369
 20
1974.299114027632
 30
0.0
 40
45.0
 41
0.0
 71
     5
 72
     1
  1
\A1;351
 73
     1
 44
1.0
1001
ACAD
1000
MTEXTBEGIN
1070
    73
1070
     1
1070
    44
1040
1.0
1070
    74
1070
     0
1000
MTEXTEND
  0
POINT
  5
9BFC
330
93F0
100
AcDbEntity
  8
DEFPOINTS
 62
     0
100
AcDbPoint
 10
856.0861513567397
 20
1781.060572212541
 30
0.0
  0
POINT
  5
9BFD
330
93F0
100
AcDbEntity
  8
DEFPOINTS
 62
     0
100
AcDbPoint
 10
1207.08609091706
 20
1813.958320273527
 30
0.0
  0
POINT
  5
9BFE
330
93F0
100
AcDbEntity
  8
DEFPOINTS
 62
     0
100
AcDbPoint
 10
1207.08609091706
 20
1936.799114027632
 30
0.0
  0
ENDBLK
  5
93F2
330
93F0
100
AcDbEntity
  8
0
100
AcDbBlockEnd
  0
BLOCK
  5
93FD
330
93FC
100
AcDbEntity
  8
0
100
AcDbBlockBegin
  2
*D26
 70
     1
 10
0.0
 20
0.0
 30
0.0
  3
*D26
  1

  0
LINE
  5
9BFF
330
93FC
100
AcDbEntity
  8
3
 62
     0
370
    -2
100
AcDbLine
 10
856.0861513567397
 20
1788.560572212541
 30
0.0
 11
856.0861513567397
 21
1855.028932801658
 31
0.0
  0
LINE
  5
9C00
330
93FC
100
AcDbEntity
  8
3
 62
     0
370
    -2
100
AcDbLine
 10
1181.08609091706
 20
1788.560572212541
 30
0.0
 11
1181.08609091706
 21
1855.028932801658
 31
0.0
  0
LINE
  5
9C01
330
93FC
100
AcDbEntity
  8
3
 62
     0
370
    -2
100
AcDbLine
 10
886.0861513567398
 20
1840.028932801659
 30
0.0
 11
1151.08609091706
 21
1840.028932801659
 31
0.0
  0
INSERT
  5
9C02
330
93FC
100
AcDbEntity
  8
3
 62
     0
370
    -2
100
AcDbBlockReference
  2
_OPEN
 10
856.0861513567397
 20
1840.028932801659
 30
0.0
 41
30.0
 42
30.0
 43
30.0
 50
180.0
  0
INSERT
  5
9C03
330
93FC
100
AcDbEntity
  8
3
 62
     0
370
    -2
100
AcDbBlockReference
  2
_OPEN
 10
1181.08609091706
 20
1840.028932801659
 30
0.0
 41
30.0
 42
30.0
 43
30.0
  0
MTEXT
  5
9C04
330
93FC
100
AcDbEntity
  8
3
 62
     0
100
AcDbMText
 10
1018.5861211369
 20
1877.528932801659
 30
0.0
 40
45.0
 41
0.0
 71
     5
 72
     1
  1
\A1;325
 73
     1
 44
1.0
1001
ACAD
1000
MTEXTBEGIN
1070
    73
1070
     1
1070
    44
1040
1.0
1070
    74
1070
     0
1000
MTEXTEND
  0
POINT
  5
9C05
330
93FC
100
AcDbEntity
  8
DEFPOINTS
 62
     0
100
AcDbPoint
 10
856.0861513567397
 20
1781.060572212541
 30
0.0
  0
POINT
  5
9C06
330
93FC
100
AcDbEntity
  8
DEFPOINTS
 62
     0
100
AcDbPoint
 10
1181.08609091706
 20
1781.060572212541
 30
0.0
  0
POINT
  5
9C07
330
93FC
100
AcDbEntity
  8
DEFPOINTS
 62
     0
100
AcDbPoint
 10
1181.08609091706
 20
1840.028932801659
 30
0.0
  0
ENDBLK
  5
93FE
330
93FC
100
AcDbEntity
  8
0
100
AcDbBlockEnd
  0
BLOCK
  5
9409
330
9408
100
AcDbEntity
  8
0
100
AcDbBlockBegin
  2
*D27
 70
     1
 10
0.0
 20
0.0
 30
0.0
  3
*D27
  1

  0
LINE
  5
9E97
330
9408
100
AcDbEntity
  8
3
 62
     0
370
    -2
100
AcDbLine
 10
1394.58609091706
 20
1011.06057221254
 30
0.0
 11
1720.630424641645
 21
1011.06057221254
 31
0.0
  0
LINE
  5
9E98
330
9408
100
AcDbEntity
  8
3
 62
     0
370
    -2
100
AcDbLine
 10
1216.974921242017
 20
1781.060572212541
 30
0.0
 11
1720.630424641646
 21
1781.06057221254
 31
0.0
  0
LINE
  5
9E99
330
9408
100
AcDbEntity
  8
3
 62
     0
370
    -2
100
AcDbLine
 10
1705.630424641645
 20
1041.060572212541
 30
0.0
 11
1705.630424641645
 21
1751.06057221254
 31
0.0
  0
INSERT
  5
9E9A
330
9408
100
AcDbEntity
  8
3
 62
     0
370
    -2
100
AcDbBlockReference
  2
_OPEN
 10
1705.630424641645
 20
1011.06057221254
 30
0.0
 41
30.0
 42
30.0
 43
30.0
 50
270.0
  0
INSERT
  5
9E9B
330
9408
100
AcDbEntity
  8
3
 62
     0
370
    -2
100
AcDbBlockReference
  2
_OPEN
 10
1705.630424641645
 20
1781.06057221254
 30
0.0
 41
30.0
 42
30.0
 43
30.0
 50
90.0
  0
MTEXT
  5
9E9C
330
9408
100
AcDbEntity
  8
3
 62
     0
100
AcDbMText
 10
1668.130424641645
 20
1396.060572212541
 30
0.0
 40
45.0
 41
0.0
 71
     5
 72
     1
  1
\A1;770
 11
0.0000000000000001
 21
1.0
 31
0.0
 73
     1
 44
1.0
1001
ACAD
1000
MTEXTBEGIN
1070
    73
1070
     1
1070
    44
1040
1.0
1070
    74
1070
     0
1000
MTEXTEND
  0
POINT
  5
9E9D
330
9408
100
AcDbEntity
  8
DEFPOINTS
 62
     0
100
AcDbPoint
 10
1387.08609091706
 20
1011.06057221254
 30
0.0
  0
POINT
  5
9E9E
330
9408
100
AcDbEntity
  8
DEFPOINTS
 62
     0
100
AcDbPoint
 10
1209.474921242017
 20
1781.060572212541
 30
0.0
  0
POINT
  5
9E9F
330
9408
100
AcDbEntity
  8
DEFPOINTS
 62
     0
100
AcDbPoint
 10
1705.630424641645
 20
1781.06057221254
 30
0.0
  0
ENDBLK
  5
940A
330
9408
100
AcDbEntity
  8
0
100
AcDbBlockEnd
  0
BLOCK
  5
9415
330
9414
100
AcDbEntity
  8
0
100
AcDbBlockBegin
  2
*D28
 70
     1
 10
0.0
 20
0.0
 30
0.0
  3
*D28
  1

  0
LINE
  5
9C11
330
9414
100
AcDbEntity
  8
3
 62
     0
370
    -2
100
AcDbLine
 10
1471.046217267547
 20
1536.060572212541
 30
0.0
 11
1580.675285834083
 21
1536.06057221254
 31
0.0
  0
LINE
  5
9C12
330
9414
100
AcDbEntity
  8
3
 62
     0
370
    -2
100
AcDbLine
 10
1394.58609091706
 20
1181.060572212541
 30
0.0
 11
1580.675285834082
 21
1181.06057221254
 31
0.0
  0
LINE
  5
9C13
330
9414
100
AcDbEntity
  8
3
 62
     0
370
    -2
100
AcDbLine
 10
1565.675285834082
 20
1506.06057221254
 30
0.0
 11
1565.675285834082
 21
1211.06057221254
 31
0.0
  0
INSERT
  5
9C14
330
9414
100
AcDbEntity
  8
3
 62
     0
370
    -2
100
AcDbBlockReference
  2
_OPEN
 10
1565.675285834083
 20
1536.06057221254
 30
0.0
 41
30.0
 42
30.0
 43
30.0
 50
90.0
  0
INSERT
  5
9C15
330
9414
100
AcDbEntity
  8
3
 62
     0
370
    -2
100
AcDbBlockReference
  2
_OPEN
 10
1565.675285834082
 20
1181.06057221254
 30
0.0
 41
30.0
 42
30.0
 43
30.0
 50
270.0
  0
MTEXT
  5
9C16
330
9414
100
AcDbEntity
  8
3
 62
     0
100
AcDbMText
 10
1528.175285834082
 20
1358.560572212541
 30
0.0
 40
45.0
 41
0.0
 71
     5
 72
     1
  1
\A1;355
 11
0.0000000000000001
 21
1.0
 31
0.0
 73
     1
 44
1.0
1001
ACAD
1000
MTEXTBEGIN
1070
    73
1070
     1
1070
    44
1040
1.0
1070
    74
1070
     0
1000
MTEXTEND
  0
POINT
  5
9C17
330
9414
100
AcDbEntity
  8
DEFPOINTS
 62
     0
100
AcDbPoint
 10
1463.546217267547
 20
1536.060572212541
 30
0.0
  0
POINT
  5
9C18
330
9414
100
AcDbEntity
  8
DEFPOINTS
 62
     0
100
AcDbPoint
 10
1387.08609091706
 20
1181.060572212541
 30
0.0
  0
POINT
  5
9C19
330
9414
100
AcDbEntity
  8
DEFPOINTS
 62
     0
100
AcDbPoint
 10
1565.675285834082
 20
1181.06057221254
 30
0.0
  0
ENDBLK
  5
9416
330
9414
100
AcDbEntity
  8
0
100
AcDbBlockEnd
  0
BLOCK
  5
9421
330
9420
100
AcDbEntity
  8
0
100
AcDbBlockBegin
  2
*D29
 70
     1
 10
0.0
 20
0.0
 30
0.0
  3
*D29
  1

  0
LINE
  5
9E7C
330
9420
100
AcDbEntity
  8
3
 62
     0
370
    -2
100
AcDbLine
 10
1387.08609091706
 20
1003.560572212541
 30
0.0
 11
1387.08609091706
 21
898.4450963876701
 31
0.0
  0
LINE
  5
9E7D
330
9420
100
AcDbEntity
  8
3
 62
     0
370
    -2
100
AcDbLine
 10
1207.08609091706
 20
988.6872863377528
 30
0.0
 11
1207.08609091706
 21
898.4450963876701
 31
0.0
  0
LINE
  5
9E7E
330
9420
100
AcDbEntity
  8
3
 62
     0
370
    -2
100
AcDbLine
 10
1357.08609091706
 20
913.4450963876702
 30
0.0
 11
1237.08609091706
 21
913.4450963876702
 31
0.0
  0
MTEXT
  5
9E7F
330
9420
100
AcDbEntity
  8
3
 62
     0
100
AcDbMText
 10
1297.08609091706
 20
953.2516795643228
 30
0.0
 40
45.0
 41
0.0
 71
     5
 72
     1
  1
\A1;180
 73
     1
 44
1.0
1001
ACAD
1000
MTEXTBEGIN
1070
    73
1070
     1
1070
    44
1040
1.0
1070
    74
1070
     0
1000
MTEXTEND
  0
INSERT
  5
9E80
330
9420
100
AcDbEntity
  8
3
 62
     0
370
    -2
100
AcDbBlockReference
  2
_OPEN
 10
1387.08609091706
 20
913.4450963876702
 30
0.0
 41
30.0
 42
30.0
 43
30.0
  0
INSERT
  5
9E81
330
9420
100
AcDbEntity
  8
3
 62
     0
370
    -2
100
AcDbBlockReference
  2
_OPEN
 10
1207.08609091706
 20
913.4450963876702
 30
0.0
 41
30.0
 42
30.0
 43
30.0
 50
180.0
  0
POINT
  5
9E82
330
9420
100
AcDbEntity
  8
DEFPOINTS
 62
     0
100
AcDbPoint
 10
1387.08609091706
 20
1011.06057221254
 30
0.0
  0
POINT
  5
9E83
330
9420
100
AcDbEntity
  8
DEFPOINTS
 62
     0
100
AcDbPoint
 10
1207.08609091706
 20
996.1872863377527
 30
0.0
  0
POINT
  5
9E84
330
9420
100
AcDbEntity
  8
DEFPOINTS
 62
     0
100
AcDbPoint
 10
1207.08609091706
 20
913.4450963876702
 30
0.0
  0
ENDBLK
  5
9422
330
9420
100
AcDbEntity
  8
0
100
AcDbBlockEnd
  0
BLOCK
  5
942D
330
942C
100
AcDbEntity
  8
0
100
AcDbBlockBegin
  2
*D30
 70
     1
 10
0.0
 20
0.0
 30
0.0
  3
*D30
  1

  0
LINE
  5
9E85
330
942C
100
AcDbEntity
  8
3
 62
     0
370
    -2
100
AcDbLine
 10
1394.58609091706
 20
1086.060572212541
 30
0.0
 11
1580.675285834082
 21
1086.06057221254
 31
0.0
  0
LINE
  5
9E86
330
942C
100
AcDbEntity
  8
3
 62
     0
370
    -2
100
AcDbLine
 10
1394.58609091706
 20
1011.06057221254
 30
0.0
 11
1580.675285834082
 21
1011.06057221254
 31
0.0
  0
LINE
  5
9E87
330
942C
100
AcDbEntity
  8
3
 62
     0
370
    -2
100
AcDbLine
 10
1565.675285834082
 20
1116.06057221254
 30
0.0
 11
1565.675285834082
 21
1146.06057221254
 31
0.0
  0
LINE
  5
9E88
330
942C
100
AcDbEntity
  8
3
 62
     0
370
    -2
100
AcDbLine
 10
1565.675285834082
 20
981.0605722125409
 30
0.0
 11
1565.675285834082
 21
848.2034293553979
 31
0.0
  0
LINE
  5
9E89
330
942C
100
AcDbEntity
  8
3
 62
     0
370
    -2
100
AcDbLine
 10
1565.675285834082
 20
1086.06057221254
 30
0.0
 11
1565.675285834082
 21
1011.06057221254
 31
0.0
  0
INSERT
  5
9E8A
330
942C
100
AcDbEntity
  8
3
 62
     0
370
    -2
100
AcDbBlockReference
  2
_DOT
 10
1565.675285834082
 20
1086.06057221254
 30
0.0
 41
30.0
 42
30.0
 43
30.0
 50
270.0
  0
INSERT
  5
9E8B
330
942C
100
AcDbEntity
  8
3
 62
     0
370
    -2
100
AcDbBlockReference
  2
_OPEN
 10
1565.675285834082
 20
1011.06057221254
 30
0.0
 41
30.0
 42
30.0
 43
30.0
 50
90.0
  0
MTEXT
  5
9E8C
330
942C
100
AcDbEntity
  8
3
 62
     0
100
AcDbMText
 10
1528.175285834082
 20
899.6320007839695
 30
0.0
 40
45.0
 41
0.0
 71
     5
 72
     1
  1
\A1;75
 11
0.0000000000000001
 21
1.0
 31
0.0
 73
     1
 44
1.0
1001
ACAD
1000
MTEXTBEGIN
1070
    73
1070
     1
1070
    44
1040
1.0
1070
    74
1070
     0
1000
MTEXTEND
  0
POINT
  5
9E8D
330
942C
100
AcDbEntity
  8
DEFPOINTS
 62
     0
100
AcDbPoint
 10
1387.08609091706
 20
1086.060572212541
 30
0.0
  0
POINT
  5
9E8E
330
942C
100
AcDbEntity
  8
DEFPOINTS
 62
     0
100
AcDbPoint
 10
1387.08609091706
 20
1011.06057221254
 30
0.0
  0
POINT
  5
9E8F
330
942C
100
AcDbEntity
  8
DEFPOINTS
 62
     0
100
AcDbPoint
 10
1565.675285834082
 20
1011.06057221254
 30
0.0
  0
ENDBLK
  5
942E
330
942C
100
AcDbEntity
  8
0
100
AcDbBlockEnd
  0
BLOCK
  5
943B
330
943A
100
AcDbEntity
  8
0
100
AcDbBlockBegin
  2
*D31
 70
     1
 10
0.0
 20
0.0
 30
0.0
  3
*D31
  1

  0
LINE
  5
9C2E
330
943A
100
AcDbEntity
  8
3
 62
     0
370
    -2
100
AcDbLine
 10
1207.08609091706
 20
1821.458320273527
 30
0.0
 11
1207.08609091706
 21
1951.799114027631
 31
0.0
  0
LINE
  5
9C2F
330
943A
100
AcDbEntity
  8
3
 62
     0
370
    -2
100
AcDbLine
 10
1433.04499514489
 20
1524.79561962785
 30
0.0
 11
1433.04499514489
 21
1951.799114027631
 31
0.0
  0
LINE
  5
9C30
330
943A
100
AcDbEntity
  8
3
 62
     0
370
    -2
100
AcDbLine
 10
1237.08609091706
 20
1936.799114027632
 30
0.0
 11
1403.04499514489
 21
1936.799114027632
 31
0.0
  0
INSERT
  5
9C31
330
943A
100
AcDbEntity
  8
3
 62
     0
370
    -2
100
AcDbBlockReference
  2
_OPEN
 10
1207.08609091706
 20
1936.799114027632
 30
0.0
 41
30.0
 42
30.0
 43
30.0
 50
180.0
  0
INSERT
  5
9C32
330
943A
100
AcDbEntity
  8
3
 62
     0
370
    -2
100
AcDbBlockReference
  2
_OPEN
 10
1433.04499514489
 20
1936.799114027632
 30
0.0
 41
30.0
 42
30.0
 43
30.0
  0
MTEXT
  5
9C33
330
943A
100
AcDbEntity
  8
3
 62
     0
100
AcDbMText
 10
1320.065543030975
 20
1974.299114027632
 30
0.0
 40
45.0
 41
0.0
 71
     5
 72
     1
  1
\A1;226
 73
     1
 44
1.0
1001
ACAD
1000
MTEXTBEGIN
1070
    73
1070
     1
1070
    44
1040
1.0
1070
    74
1070
     0
1000
MTEXTEND
  0
POINT
  5
9C34
330
943A
100
AcDbEntity
  8
DEFPOINTS
 62
     0
100
AcDbPoint
 10
1207.08609091706
 20
1813.958320273527
 30
0.0
  0
POINT
  5
9C35
330
943A
100
AcDbEntity
  8
DEFPOINTS
 62
     0
100
AcDbPoint
 10
1433.04499514489
 20
1517.29561962785
 30
0.0
  0
POINT
  5
9C36
330
943A
100
AcDbEntity
  8
DEFPOINTS
 62
     0
100
AcDbPoint
 10
1433.04499514489
 20
1936.799114027632
 30
0.0
  0
ENDBLK
  5
943C
330
943A
100
AcDbEntity
  8
0
100
AcDbBlockEnd
  0
BLOCK
  5
9447
330
9446
100
AcDbEntity
  8
0
100
AcDbBlockBegin
  2
*D32
 70
     1
 10
0.0
 20
0.0
 30
0.0
  3
*D32
  1

  0
LINE
  5
9C37
330
9446
100
AcDbEntity
  8
3
 62
     0
370
    -2
100
AcDbLine
 10
1216.974921242017
 20
1781.060572212541
 30
0.0
 11
1580.675285834082
 21
1781.06057221254
 31
0.0
  0
LINE
  5
9C38
330
9446
100
AcDbEntity
  8
3
 62
     0
370
    -2
100
AcDbLine
 10
1471.046217267547
 20
1536.060572212541
 30
0.0
 11
1580.675285834082
 21
1536.06057221254
 31
0.0
  0
LINE
  5
9C39
330
9446
100
AcDbEntity
  8
3
 62
     0
370
    -2
100
AcDbLine
 10
1565.675285834082
 20
1751.06057221254
 30
0.0
 11
1565.675285834082
 21
1566.06057221254
 31
0.0
  0
INSERT
  5
9C3A
330
9446
100
AcDbEntity
  8
3
 62
     0
370
    -2
100
AcDbBlockReference
  2
_OPEN
 10
1565.675285834082
 20
1781.06057221254
 30
0.0
 41
30.0
 42
30.0
 43
30.0
 50
90.0
  0
INSERT
  5
9C3B
330
9446
100
AcDbEntity
  8
3
 62
     0
370
    -2
100
AcDbBlockReference
  2
_OPEN
 10
1565.675285834082
 20
1536.06057221254
 30
0.0
 41
30.0
 42
30.0
 43
30.0
 50
270.0
  0
MTEXT
  5
9C3C
330
9446
100
AcDbEntity
  8
3
 62
     0
100
AcDbMText
 10
1528.175285834082
 20
1658.560572212541
 30
0.0
 40
45.0
 41
0.0
 71
     5
 72
     1
  1
\A1;245
 11
0.0000000000000001
 21
1.0
 31
0.0
 73
     1
 44
1.0
1001
ACAD
1000
MTEXTBEGIN
1070
    73
1070
     1
1070
    44
1040
1.0
1070
    74
1070
     0
1000
MTEXTEND
  0
POINT
  5
9C3D
330
9446
100
AcDbEntity
  8
DEFPOINTS
 62
     0
100
AcDbPoint
 10
1209.474921242017
 20
1781.060572212541
 30
0.0
  0
POINT
  5
9C3E
330
9446
100
AcDbEntity
  8
DEFPOINTS
 62
     0
100
AcDbPoint
 10
1463.546217267547
 20
1536.060572212541
 30
0.0
  0
POINT
  5
9C3F
330
9446
100
AcDbEntity
  8
DEFPOINTS
 62
     0
100
AcDbPoint
 10
1565.675285834082
 20
1536.06057221254
 30
0.0
  0
ENDBLK
  5
9448
330
9446
100
AcDbEntity
  8
0
100
AcDbBlockEnd
  0
BLOCK
  5
9477
330
9476
100
AcDbEntity
  8
0
100
AcDbBlockBegin
  2
*D33
 70
     1
 10
0.0
 20
0.0
 30
0.0
  3
*D33
  1

  0
LINE
  5
9C40
330
9476
100
AcDbEntity
  8
3
 62
     0
370
    -2
100
AcDbLine
 10
1433.04499514489
 20
1524.79561962785
 30
0.0
 11
1433.04499514489
 21
2054.335979418408
 31
0.0
  0
LINE
  5
9C41
330
9476
100
AcDbEntity
  8
3
 62
     0
370
    -2
100
AcDbLine
 10
587.0860909170605
 20
1263.560572212541
 30
0.0
 11
587.0860909170605
 21
2054.335979418408
 31
0.0
  0
LINE
  5
9C42
330
9476
100
AcDbEntity
  8
3
 62
     0
370
    -2
100
AcDbLine
 10
1403.04499514489
 20
2039.335979418408
 30
0.0
 11
617.0860909170605
 21
2039.335979418408
 31
0.0
  0
INSERT
  5
9C43
330
9476
100
AcDbEntity
  8
3
 62
     0
370
    -2
100
AcDbBlockReference
  2
_OPEN
 10
1433.04499514489
 20
2039.335979418408
 30
0.0
 41
30.0
 42
30.0
 43
30.0
  0
INSERT
  5
9C44
330
9476
100
AcDbEntity
  8
3
 62
     0
370
    -2
100
AcDbBlockReference
  2
_OPEN
 10
587.0860909170605
 20
2039.335979418408
 30
0.0
 41
30.0
 42
30.0
 43
30.0
 50
180.0
  0
MTEXT
  5
9C45
330
9476
100
AcDbEntity
  8
3
 62
     0
100
AcDbMText
 10
981.7992298696227
 20
2076.835979418408
 30
0.0
 40
45.0
 41
0.0
 71
     5
 72
     1
  1
\A1;846
 73
     1
 44
1.0
1001
ACAD
1000
MTEXTBEGIN
1070
    73
1070
     1
1070
    44
1040
1.0
1070
    74
1070
     0
1000
MTEXTEND
  0
POINT
  5
9C46
330
9476
100
AcDbEntity
  8
DEFPOINTS
 62
     0
100
AcDbPoint
 10
1433.04499514489
 20
1517.29561962785
 30
0.0
  0
POINT
  5
9C47
330
9476
100
AcDbEntity
  8
DEFPOINTS
 62
     0
100
AcDbPoint
 10
587.0860909170605
 20
1256.060572212541
 30
0.0
  0
POINT
  5
9C48
330
9476
100
AcDbEntity
  8
DEFPOINTS
 62
     0
100
AcDbPoint
 10
587.0860909170605
 20
2039.335979418408
 30
0.0
  0
ENDBLK
  5
9478
330
9476
100
AcDbEntity
  8
0
100
AcDbBlockEnd
  0
BLOCK
  5
9483
330
9482
100
AcDbEntity
  8
0
100
AcDbBlockBegin
  2
*D34
 70
     1
 10
0.0
 20
0.0
 30
0.0
  3
*D34
  1

  0
LINE
  5
9E90
330
9482
100
AcDbEntity
  8
3
 62
     0
370
    -2
100
AcDbLine
 10
1394.58609091706
 20
1181.060572212541
 30
0.0
 11
1580.675285834082
 21
1181.06057221254
 31
0.0
  0
LINE
  5
9E91
330
9482
100
AcDbEntity
  8
3
 62
     0
370
    -2
100
AcDbLine
 10
1394.58609091706
 20
1086.060572212541
 30
0.0
 11
1580.675285834082
 21
1086.06057221254
 31
0.0
  0
LINE
  5
9E92
330
9482
100
AcDbEntity
  8
3
 62
     0
370
    -2
100
AcDbLine
 10
1565.675285834082
 20
1181.06057221254
 30
0.0
 11
1565.675285834082
 21
1086.06057221254
 31
0.0
  0
MTEXT
  5
9E93
330
9482
100
AcDbEntity
  8
3
 62
     0
100
AcDbMText
 10
1635.958967157437
 20
1141.060572212541
 30
0.0
 40
45.0
 41
0.0
 71
     5
 72
     1
  1
\A1;(95)
 11
0.0000000000000001
 21
1.0
 31
0.0
 73
     1
 44
1.0
1001
ACAD
1000
MTEXTBEGIN
1070
    73
1070
     1
1070
    44
1040
1.0
1070
    74
1070
     0
1000
MTEXTEND
  0
POINT
  5
9E94
330
9482
100
AcDbEntity
  8
DEFPOINTS
 62
     0
100
AcDbPoint
 10
1387.08609091706
 20
1181.060572212541
 30
0.0
  0
POINT
  5
9E95
330
9482
100
AcDbEntity
  8
DEFPOINTS
 62
     0
100
AcDbPoint
 10
1387.08609091706
 20
1086.060572212541
 30
0.0
  0
POINT
  5
9E96
330
9482
100
AcDbEntity
  8
DEFPOINTS
 62
     0
100
AcDbPoint
 10
1565.675285834082
 20
1086.06057221254
 30
0.0
  0
ENDBLK
  5
9484
330
9482
100
AcDbEntity
  8
0
100
AcDbBlockEnd
  0
BLOCK
  5
94A5
330
94A4
100
AcDbEntity
  8
0
100
AcDbBlockBegin
  2
*D35
 70
     1
 10
0.0
 20
0.0
 30
0.0
  3
*D35
  1

  0
LINE
  5
9E3D
330
94A4
100
AcDbEntity
  8
3
 62
     0
370
    -2
100
AcDbLine
 10
579.5860909170624
 20
2450.893722559704
 30
0.0
 11
401.4530702053165
 21
2450.893722559704
 31
0.0
  0
LINE
  5
9E3E
330
94A4
100
AcDbEntity
  8
3
 62
     0
370
    -2
100
AcDbLine
 10
579.5860909170605
 20
2830.893722559704
 30
0.0
 11
401.4530702053166
 21
2830.893722559704
 31
0.0
  0
LINE
  5
9E3F
330
94A4
100
AcDbEntity
  8
3
 62
     0
370
    -2
100
AcDbLine
 10
416.4530702053165
 20
2480.893722559704
 30
0.0
 11
416.4530702053166
 21
2800.893722559704
 31
0.0
  0
INSERT
  5
9E40
330
94A4
100
AcDbEntity
  8
3
 62
     0
370
    -2
100
AcDbBlockReference
  2
_OPEN
 10
416.4530702053165
 20
2450.893722559704
 30
0.0
 41
30.0
 42
30.0
 43
30.0
 50
270.0
  0
INSERT
  5
9E41
330
94A4
100
AcDbEntity
  8
3
 62
     0
370
    -2
100
AcDbBlockReference
  2
_OPEN
 10
416.4530702053166
 20
2830.893722559704
 30
0.0
 41
30.0
 42
30.0
 43
30.0
 50
90.0
  0
MTEXT
  5
9E42
330
94A4
100
AcDbEntity
  8
3
 62
     0
100
AcDbMText
 10
378.9530702053162
 20
2640.893722559704
 30
0.0
 40
45.0
 41
0.0
 71
     5
 72
     1
  1
\A1;380
 11
0.0000000000000001
 21
1.0
 31
0.0
 73
     1
 44
1.0
1001
ACAD
1000
MTEXTBEGIN
1070
    73
1070
     1
1070
    44
1040
1.0
1070
    74
1070
     0
1000
MTEXTEND
  0
POINT
  5
9E43
330
94A4
100
AcDbEntity
  8
DEFPOINTS
 62
     0
100
AcDbPoint
 10
587.0860909170623
 20
2450.893722559704
 30
0.0
  0
POINT
  5
9E44
330
94A4
100
AcDbEntity
  8
DEFPOINTS
 62
     0
100
AcDbPoint
 10
587.0860909170605
 20
2830.893722559704
 30
0.0
  0
POINT
  5
9E45
330
94A4
100
AcDbEntity
  8
DEFPOINTS
 62
     0
100
AcDbPoint
 10
416.4530702053166
 20
2830.893722559704
 30
0.0
  0
ENDBLK
  5
94A6
330
94A4
100
AcDbEntity
  8
0
100
AcDbBlockEnd
  0
BLOCK
  5
94B1
330
94B0
100
AcDbEntity
  8
0
100
AcDbBlockBegin
  2
*D36
 70
     1
 10
0.0
 20
0.0
 30
0.0
  3
*D36
  1

  0
LINE
  5
9E46
330
94B0
100
AcDbEntity
  8
3
 62
     0
370
    -2
100
AcDbLine
 10
1387.086090917062
 20
3238.393722559705
 30
0.0
 11
1387.086090917062
 21
3357.112089561234
 31
0.0
  0
LINE
  5
9E47
330
94B0
100
AcDbEntity
  8
3
 62
     0
370
    -2
100
AcDbLine
 10
1027.086090917062
 20
3238.393722559705
 30
0.0
 11
1027.086090917062
 21
3357.112089561234
 31
0.0
  0
LINE
  5
9E48
330
94B0
100
AcDbEntity
  8
3
 62
     0
370
    -2
100
AcDbLine
 10
1357.086090917062
 20
3342.112089561234
 30
0.0
 11
1057.086090917062
 21
3342.112089561234
 31
0.0
  0
INSERT
  5
9E49
330
94B0
100
AcDbEntity
  8
3
 62
     0
370
    -2
100
AcDbBlockReference
  2
_OPEN
 10
1387.086090917062
 20
3342.112089561234
 30
0.0
 41
30.0
 42
30.0
 43
30.0
  0
INSERT
  5
9E4A
330
94B0
100
AcDbEntity
  8
3
 62
     0
370
    -2
100
AcDbBlockReference
  2
_OPEN
 10
1027.086090917062
 20
3342.112089561234
 30
0.0
 41
30.0
 42
30.0
 43
30.0
 50
180.0
  0
MTEXT
  5
9E4B
330
94B0
100
AcDbEntity
  8
3
 62
     0
100
AcDbMText
 10
1207.086090917062
 20
3379.612089561234
 30
0.0
 40
45.0
 41
0.0
 71
     5
 72
     1
  1
\A1;360
 73
     1
 44
1.0
1001
ACAD
1000
MTEXTBEGIN
1070
    73
1070
     1
1070
    44
1040
1.0
1070
    74
1070
     0
1000
MTEXTEND
  0
POINT
  5
9E4C
330
94B0
100
AcDbEntity
  8
DEFPOINTS
 62
     0
100
AcDbPoint
 10
1387.086090917062
 20
3230.893722559704
 30
0.0
  0
POINT
  5
9E4D
330
94B0
100
AcDbEntity
  8
DEFPOINTS
 62
     0
100
AcDbPoint
 10
1027.086090917062
 20
3230.893722559704
 30
0.0
  0
POINT
  5
9E4E
330
94B0
100
AcDbEntity
  8
DEFPOINTS
 62
     0
100
AcDbPoint
 10
1027.086090917062
 20
3342.112089561234
 30
0.0
  0
ENDBLK
  5
94B2
330
94B0
100
AcDbEntity
  8
0
100
AcDbBlockEnd
  0
BLOCK
  5
94BD
330
94BC
100
AcDbEntity
  8
0
100
AcDbBlockBegin
  2
*D37
 70
     1
 10
0.0
 20
0.0
 30
0.0
  3
*D37
  1

  0
LINE
  5
9E4F
330
94BC
100
AcDbEntity
  8
3
 62
     0
370
    -2
100
AcDbLine
 10
1027.086090917062
 20
3238.393722559705
 30
0.0
 11
1027.086090917062
 21
3357.112089561234
 31
0.0
  0
LINE
  5
9E50
330
94BC
100
AcDbEntity
  8
3
 62
     0
370
    -2
100
AcDbLine
 10
587.0860909170605
 20
2838.393722559704
 30
0.0
 11
587.0860909170605
 21
3357.112089561234
 31
0.0
  0
LINE
  5
9E51
330
94BC
100
AcDbEntity
  8
3
 62
     0
370
    -2
100
AcDbLine
 10
997.0860909170623
 20
3342.112089561234
 30
0.0
 11
617.0860909170605
 21
3342.112089561234
 31
0.0
  0
INSERT
  5
9E52
330
94BC
100
AcDbEntity
  8
3
 62
     0
370
    -2
100
AcDbBlockReference
  2
_OPEN
 10
1027.086090917062
 20
3342.112089561234
 30
0.0
 41
30.0
 42
30.0
 43
30.0
  0
INSERT
  5
9E53
330
94BC
100
AcDbEntity
  8
3
 62
     0
370
    -2
100
AcDbBlockReference
  2
_OPEN
 10
587.0860909170605
 20
3342.112089561234
 30
0.0
 41
30.0
 42
30.0
 43
30.0
 50
180.0
  0
MTEXT
  5
9E54
330
94BC
100
AcDbEntity
  8
3
 62
     0
100
AcDbMText
 10
807.0860909170615
 20
3379.612089561234
 30
0.0
 40
45.0
 41
0.0
 71
     5
 72
     1
  1
\A1;440
 73
     1
 44
1.0
1001
ACAD
1000
MTEXTBEGIN
1070
    73
1070
     1
1070
    44
1040
1.0
1070
    74
1070
     0
1000
MTEXTEND
  0
POINT
  5
9E55
330
94BC
100
AcDbEntity
  8
DEFPOINTS
 62
     0
100
AcDbPoint
 10
1027.086090917062
 20
3230.893722559704
 30
0.0
  0
POINT
  5
9E56
330
94BC
100
AcDbEntity
  8
DEFPOINTS
 62
     0
100
AcDbPoint
 10
587.0860909170605
 20
2830.893722559704
 30
0.0
  0
POINT
  5
9E57
330
94BC
100
AcDbEntity
  8
DEFPOINTS
 62
     0
100
AcDbPoint
 10
587.0860909170605
 20
3342.112089561234
 30
0.0
  0
ENDBLK
  5
94BE
330
94BC
100
AcDbEntity
  8
0
100
AcDbBlockEnd
  0
BLOCK
  5
9517
330
9516
100
AcDbEntity
  8
0
100
AcDbBlockBegin
  2
*D38
 70
     1
 10
0.0
 20
0.0
 30
0.0
  3
*D38
  1

  0
LINE
  5
9E34
330
9516
100
AcDbEntity
  8
3
 62
     0
370
    -2
100
AcDbLine
 10
587.0860909170623
 20
2462.393722559705
 30
0.0
 11
587.0860909170623
 21
2243.261411970534
 31
0.0
  0
LINE
  5
9E35
330
9516
100
AcDbEntity
  8
3
 62
     0
370
    -2
100
AcDbLine
 10
1387.08609091706
 20
2443.393722559703
 30
0.0
 11
1387.08609091706
 21
2243.261411970534
 31
0.0
  0
LINE
  5
9E36
330
9516
100
AcDbEntity
  8
3
 62
     0
370
    -2
100
AcDbLine
 10
617.0860909170624
 20
2258.261411970534
 30
0.0
 11
1357.08609091706
 21
2258.261411970534
 31
0.0
  0
MTEXT
  5
9E37
330
9516
100
AcDbEntity
  8
3
 62
     0
100
AcDbMText
 10
987.0860909170614
 20
2302.407769052384
 30
0.0
 40
45.0
 41
0.0
 71
     5
 72
     1
  1
\A1;800
 73
     1
 44
1.0
1001
ACAD
1000
MTEXTBEGIN
1070
    73
1070
     1
1070
    44
1040
1.0
1070
    74
1070
     0
1000
MTEXTEND
  0
INSERT
  5
9E38
330
9516
100
AcDbEntity
  8
3
 62
     0
370
    -2
100
AcDbBlockReference
  2
_OPEN
 10
587.0860909170623
 20
2258.261411970534
 30
0.0
 41
30.0
 42
30.0
 43
30.0
 50
180.0
  0
INSERT
  5
9E39
330
9516
100
AcDbEntity
  8
3
 62
     0
370
    -2
100
AcDbBlockReference
  2
_OPEN
 10
1387.08609091706
 20
2258.261411970534
 30
0.0
 41
30.0
 42
30.0
 43
30.0
  0
POINT
  5
9E3A
330
9516
100
AcDbEntity
  8
DEFPOINTS
 62
     0
100
AcDbPoint
 10
587.0860909170623
 20
2469.893722559704
 30
0.0
  0
POINT
  5
9E3B
330
9516
100
AcDbEntity
  8
DEFPOINTS
 62
     0
100
AcDbPoint
 10
1387.08609091706
 20
2450.893722559703
 30
0.0
  0
POINT
  5
9E3C
330
9516
100
AcDbEntity
  8
DEFPOINTS
 62
     0
100
AcDbPoint
 10
1387.08609091706
 20
2258.261411970534
 30
0.0
  0
ENDBLK
  5
9518
330
9516
100
AcDbEntity
  8
0
100
AcDbBlockEnd
  0
BLOCK
  5
987B
330
987A
100
AcDbEntity
  8
0
100
AcDbBlockBegin
  2
*D39
 70
     1
 10
0.0
 20
0.0
 30
0.0
  3
*D39
  1

  0
LINE
  5
9E58
330
987A
100
AcDbEntity
  8
3
 62
     0
370
    -2
100
AcDbLine
 10
1987.387694736093
 20
1003.560572212541
 30
0.0
 11
1987.387694736093
 21
893.3299565435124
 31
0.0
  0
LINE
  5
9E59
330
987A
100
AcDbEntity
  8
3
 62
     0
370
    -2
100
AcDbLine
 10
2602.387694736093
 20
986.2880713472765
 30
0.0
 11
2602.387694736093
 21
893.3299565435124
 31
0.0
  0
LINE
  5
9E5A
330
987A
100
AcDbEntity
  8
3
 62
     0
370
    -2
100
AcDbLine
 10
2017.387694736093
 20
908.3299565435124
 30
0.0
 11
2572.387694736093
 21
908.3299565435124
 31
0.0
  0
INSERT
  5
9E5B
330
987A
100
AcDbEntity
  8
3
 62
     0
370
    -2
100
AcDbBlockReference
  2
_OPEN
 10
1987.387694736093
 20
908.3299565435124
 30
0.0
 41
30.0
 42
30.0
 43
30.0
 50
180.0
  0
INSERT
  5
9E5C
330
987A
100
AcDbEntity
  8
3
 62
     0
370
    -2
100
AcDbBlockReference
  2
_OPEN
 10
2602.387694736093
 20
908.3299565435124
 30
0.0
 41
30.0
 42
30.0
 43
30.0
  0
MTEXT
  5
9E5D
330
987A
100
AcDbEntity
  8
3
 62
     0
100
AcDbMText
 10
2294.887694736093
 20
945.8299565435124
 30
0.0
 40
45.0
 41
0.0
 71
     5
 72
     1
  1
\A1;615
 73
     1
 44
1.0
1001
ACAD
1000
MTEXTBEGIN
1070
    73
1070
     1
1070
    44
1040
1.0
1070
    74
1070
     0
1000
MTEXTEND
  0
POINT
  5
9E5E
330
987A
100
AcDbEntity
  8
DEFPOINTS
 62
     0
100
AcDbPoint
 10
1987.387694736093
 20
1011.060572212541
 30
0.0
  0
POINT
  5
9E5F
330
987A
100
AcDbEntity
  8
DEFPOINTS
 62
     0
100
AcDbPoint
 10
2602.387694736093
 20
993.7880713472766
 30
0.0
  0
POINT
  5
9E60
330
987A
100
AcDbEntity
  8
DEFPOINTS
 62
     0
100
AcDbPoint
 10
2602.387694736093
 20
908.3299565435124
 30
0.0
  0
ENDBLK
  5
987C
330
987A
100
AcDbEntity
  8
0
100
AcDbBlockEnd
  0
BLOCK
  5
9887
330
9886
100
AcDbEntity
  8
0
100
AcDbBlockBegin
  2
*D40
 70
     1
 10
0.0
 20
0.0
 30
0.0
  3
*D40
  1

  0
LINE
  5
9EA0
330
9886
100
AcDbEntity
  8
3
 62
     0
370
    -2
100
AcDbLine
 10
2602.387694736093
 20
1930.786890354856
 30
0.0
 11
2602.387694736093
 21
1977.460991666283
 31
0.0
  0
LINE
  5
9EA1
330
9886
100
AcDbEntity
  8
3
 62
     0
370
    -2
100
AcDbLine
 10
1894.387694736093
 20
1633.560572212543
 30
0.0
 11
1894.387694736093
 21
1977.460991666283
 31
0.0
  0
LINE
  5
9EA2
330
9886
100
AcDbEntity
  8
3
 62
     0
370
    -2
100
AcDbLine
 10
2572.387694736093
 20
1962.460991666283
 30
0.0
 11
1924.387694736093
 21
1962.460991666283
 31
0.0
  0
INSERT
  5
9EA3
330
9886
100
AcDbEntity
  8
3
 62
     0
370
    -2
100
AcDbBlockReference
  2
_OPEN
 10
2602.387694736093
 20
1962.460991666283
 30
0.0
 41
30.0
 42
30.0
 43
30.0
  0
INSERT
  5
9EA4
330
9886
100
AcDbEntity
  8
3
 62
     0
370
    -2
100
AcDbBlockReference
  2
_OPEN
 10
1894.387694736093
 20
1962.460991666283
 30
0.0
 41
30.0
 42
30.0
 43
30.0
 50
180.0
  0
MTEXT
  5
9EA5
330
9886
100
AcDbEntity
  8
3
 62
     0
100
AcDbMText
 10
2248.387694736093
 20
2037.460991666283
 30
0.0
 40
45.0
 41
0.0
 71
     5
 72
     1
  1
\A1;MAX\P760
 73
     1
 44
1.0
1001
ACAD
1000
MTEXTBEGIN
1070
    73
1070
     1
1070
    44
1040
1.0
1070
    74
1070
     0
1000
MTEXTEND
  0
POINT
  5
9EA6
330
9886
100
AcDbEntity
  8
DEFPOINTS
 62
     0
100
AcDbPoint
 10
2602.387694736093
 20
1923.286890354856
 30
0.0
  0
POINT
  5
9EA7
330
9886
100
AcDbEntity
  8
DEFPOINTS
 62
     0
100
AcDbPoint
 10
1894.387694736093
 20
1626.060572212543
 30
0.0
  0
POINT
  5
9EA8
330
9886
100
AcDbEntity
  8
DEFPOINTS
 62
     0
100
AcDbPoint
 10
1894.387694736093
 20
1962.460991666283
 30
0.0
  0
ENDBLK
  5
9888
330
9886
100
AcDbEntity
  8
0
100
AcDbBlockEnd
  0
BLOCK
  5
9893
330
9892
100
AcDbEntity
  8
0
100
AcDbBlockBegin
  2
*D41
 70
     1
 10
0.0
 20
0.0
 30
0.0
  3
*D41
  1

  0
LINE
  5
9D1D
330
9892
100
AcDbEntity
  8
3
 62
     0
370
    -2
100
AcDbLine
 10
2755.887694736093
 20
1693.560572212541
 30
0.0
 11
2890.567666278581
 21
1693.560572212541
 31
0.0
  0
LINE
  5
9D1E
330
9892
100
AcDbEntity
  8
3
 62
     0
370
    -2
100
AcDbLine
 10
2755.887694736093
 20
1378.560572212541
 30
0.0
 11
2890.567666278581
 21
1378.560572212541
 31
0.0
  0
LINE
  5
9D1F
330
9892
100
AcDbEntity
  8
3
 62
     0
370
    -2
100
AcDbLine
 10
2875.567666278581
 20
1663.560572212541
 30
0.0
 11
2875.567666278581
 21
1408.560572212541
 31
0.0
  0
INSERT
  5
9D20
330
9892
100
AcDbEntity
  8
3
 62
     0
370
    -2
100
AcDbBlockReference
  2
_OPEN
 10
2875.567666278581
 20
1693.560572212541
 30
0.0
 41
30.0
 42
30.0
 43
30.0
 50
90.0
  0
INSERT
  5
9D21
330
9892
100
AcDbEntity
  8
3
 62
     0
370
    -2
100
AcDbBlockReference
  2
_OPEN
 10
2875.567666278581
 20
1378.560572212541
 30
0.0
 41
30.0
 42
30.0
 43
30.0
 50
270.0
  0
MTEXT
  5
9D22
330
9892
100
AcDbEntity
  8
3
 62
     0
100
AcDbMText
 10
2838.067666278581
 20
1536.060572212541
 30
0.0
 40
45.0
 41
0.0
 71
     5
 72
     1
  1
\A1;\U+03C6315
 11
0.0000000000000001
 21
1.0
 31
0.0
 73
     1
 44
1.0
1001
ACAD
1000
MTEXTBEGIN
1070
    73
1070
     1
1070
    44
1040
1.0
1070
    74
1070
     0
1000
MTEXTEND
  0
POINT
  5
9D23
330
9892
100
AcDbEntity
  8
DEFPOINTS
 62
     0
100
AcDbPoint
 10
2748.387694736094
 20
1693.560572212541
 30
0.0
  0
POINT
  5
9D24
330
9892
100
AcDbEntity
  8
DEFPOINTS
 62
     0
100
AcDbPoint
 10
2748.387694736094
 20
1378.560572212541
 30
0.0
  0
POINT
  5
9D25
330
9892
100
AcDbEntity
  8
DEFPOINTS
 62
     0
100
AcDbPoint
 10
2875.567666278581
 20
1378.560572212541
 30
0.0
  0
ENDBLK
  5
9894
330
9892
100
AcDbEntity
  8
0
100
AcDbBlockEnd
  0
BLOCK
  5
989F
330
989E
100
AcDbEntity
  8
0
100
AcDbBlockBegin
  2
*D42
 70
     1
 10
0.0
 20
0.0
 30
0.0
  3
*D42
  1

  0
LINE
  5
9D26
330
989E
100
AcDbEntity
  8
3
 62
     0
370
    -2
100
AcDbLine
 10
2723.387694736093
 20
1726.060572212541
 30
0.0
 11
2723.387694736093
 21
1977.188448023424
 31
0.0
  0
LINE
  5
9D27
330
989E
100
AcDbEntity
  8
3
 62
     0
370
    -2
100
AcDbLine
 10
2602.387694736093
 20
1930.786890354856
 30
0.0
 11
2602.387694736093
 21
1977.188448023424
 31
0.0
  0
LINE
  5
9D28
330
989E
100
AcDbEntity
  8
3
 62
     0
370
    -2
100
AcDbLine
 10
2693.387694736093
 20
1962.188448023424
 30
0.0
 11
2632.387694736094
 21
1962.188448023424
 31
0.0
  0
MTEXT
  5
9D29
330
989E
100
AcDbEntity
  8
3
 62
     0
100
AcDbMText
 10
2662.887694736093
 20
2003.071154063366
 30
0.0
 40
45.0
 41
0.0
 71
     5
 72
     1
  1
\A1;121
 73
     1
 44
1.0
1001
ACAD
1000
MTEXTBEGIN
1070
    73
1070
     1
1070
    44
1040
1.0
1070
    74
1070
     0
1000
MTEXTEND
  0
INSERT
  5
9D2A
330
989E
100
AcDbEntity
  8
3
 62
     0
370
    -2
100
AcDbBlockReference
  2
_OPEN
 10
2723.387694736093
 20
1962.188448023424
 30
0.0
 41
30.0
 42
30.0
 43
30.0
  0
INSERT
  5
9D2B
330
989E
100
AcDbEntity
  8
3
 62
     0
370
    -2
100
AcDbBlockReference
  2
_OPEN
 10
2602.387694736093
 20
1962.188448023424
 30
0.0
 41
30.0
 42
30.0
 43
30.0
 50
180.0
  0
POINT
  5
9D2C
330
989E
100
AcDbEntity
  8
DEFPOINTS
 62
     0
100
AcDbPoint
 10
2723.387694736093
 20
1718.560572212541
 30
0.0
  0
POINT
  5
9D2D
330
989E
100
AcDbEntity
  8
DEFPOINTS
 62
     0
100
AcDbPoint
 10
2602.387694736093
 20
1923.286890354856
 30
0.0
  0
POINT
  5
9D2E
330
989E
100
AcDbEntity
  8
DEFPOINTS
 62
     0
100
AcDbPoint
 10
2602.387694736093
 20
1962.188448023424
 30
0.0
  0
ENDBLK
  5
98A0
330
989E
100
AcDbEntity
  8
0
100
AcDbBlockEnd
  0
BLOCK
  5
98AB
330
98AA
100
AcDbEntity
  8
0
100
AcDbBlockBegin
  2
*D43
 70
     1
 10
0.0
 20
0.0
 30
0.0
  3
*D43
  1

  0
LINE
  5
9D2F
330
98AA
100
AcDbEntity
  8
3
 62
     0
370
    -2
100
AcDbLine
 10
2484.387694736093
 20
1793.560572212541
 30
0.0
 11
2484.387694736093
 21
1875.664149665423
 31
0.0
  0
LINE
  5
9D30
330
98AA
100
AcDbEntity
  8
3
 62
     0
370
    -2
100
AcDbLine
 10
2720.387694736093
 20
1790.560572212541
 30
0.0
 11
2720.387694736093
 21
1875.664149665423
 31
0.0
  0
LINE
  5
9D31
330
98AA
100
AcDbEntity
  8
3
 62
     0
370
    -2
100
AcDbLine
 10
2514.387694736094
 20
1860.664149665424
 30
0.0
 11
2690.387694736093
 21
1860.664149665424
 31
0.0
  0
INSERT
  5
9D32
330
98AA
100
AcDbEntity
  8
3
 62
     0
370
    -2
100
AcDbBlockReference
  2
_OPEN
 10
2484.387694736093
 20
1860.664149665424
 30
0.0
 41
30.0
 42
30.0
 43
30.0
 50
180.0
  0
INSERT
  5
9D33
330
98AA
100
AcDbEntity
  8
3
 62
     0
370
    -2
100
AcDbBlockReference
  2
_OPEN
 10
2720.387694736093
 20
1860.664149665424
 30
0.0
 41
30.0
 42
30.0
 43
30.0
  0
MTEXT
  5
9D34
330
98AA
100
AcDbEntity
  8
3
 62
     0
100
AcDbMText
 10
2586.173409021807
 20
1898.164149665424
 30
0.0
 40
45.0
 41
0.0
 71
     5
 72
     1
  1
\A1;236
 73
     1
 44
1.0
1001
ACAD
1000
MTEXTBEGIN
1070
    73
1070
     1
1070
    44
1040
1.0
1070
    74
1070
     0
1000
MTEXTEND
  0
POINT
  5
9D35
330
98AA
100
AcDbEntity
  8
DEFPOINTS
 62
     0
100
AcDbPoint
 10
2484.387694736093
 20
1786.060572212541
 30
0.0
  0
POINT
  5
9D36
330
98AA
100
AcDbEntity
  8
DEFPOINTS
 62
     0
100
AcDbPoint
 10
2720.387694736093
 20
1783.060572212541
 30
0.0
  0
POINT
  5
9D37
330
98AA
100
AcDbEntity
  8
DEFPOINTS
 62
     0
100
AcDbPoint
 10
2720.387694736093
 20
1860.664149665424
 30
0.0
  0
ENDBLK
  5
98AC
330
98AA
100
AcDbEntity
  8
0
100
AcDbBlockEnd
  0
BLOCK
  5
98B7
330
98B6
100
AcDbEntity
  8
0
100
AcDbBlockBegin
  2
*D44
 70
     1
 10
0.0
 20
0.0
 30
0.0
  3
*D44
  1

  0
LINE
  5
9E61
330
98B6
100
AcDbEntity
  8
3
 62
     0
370
    -2
100
AcDbLine
 10
2602.387694736093
 20
986.2880713472765
 30
0.0
 11
2602.387694736093
 21
892.9093119602425
 31
0.0
  0
LINE
  5
9E62
330
98B6
100
AcDbEntity
  8
3
 62
     0
370
    -2
100
AcDbLine
 10
2767.387694736092
 20
1003.560572212541
 30
0.0
 11
2767.387694736092
 21
892.9093119602425
 31
0.0
  0
LINE
  5
9E63
330
98B6
100
AcDbEntity
  8
3
 62
     0
370
    -2
100
AcDbLine
 10
2632.387694736094
 20
907.9093119602426
 30
0.0
 11
2737.387694736091
 21
907.9093119602426
 31
0.0
  0
INSERT
  5
9E64
330
98B6
100
AcDbEntity
  8
3
 62
     0
370
    -2
100
AcDbBlockReference
  2
_OPEN
 10
2602.387694736093
 20
907.9093119602426
 30
0.0
 41
30.0
 42
30.0
 43
30.0
 50
180.0
  0
INSERT
  5
9E65
330
98B6
100
AcDbEntity
  8
3
 62
     0
370
    -2
100
AcDbBlockReference
  2
_OPEN
 10
2767.387694736092
 20
907.9093119602426
 30
0.0
 41
30.0
 42
30.0
 43
30.0
  0
MTEXT
  5
9E66
330
98B6
100
AcDbEntity
  8
3
 62
     0
100
AcDbMText
 10
2684.887694736092
 20
945.4093119602426
 30
0.0
 40
45.0
 41
0.0
 71
     5
 72
     1
  1
\A1;165
 73
     1
 44
1.0
1001
ACAD
1000
MTEXTBEGIN
1070
    73
1070
     1
1070
    44
1040
1.0
1070
    74
1070
     0
1000
MTEXTEND
  0
POINT
  5
9E67
330
98B6
100
AcDbEntity
  8
DEFPOINTS
 62
     0
100
AcDbPoint
 10
2602.387694736093
 20
993.7880713472766
 30
0.0
  0
POINT
  5
9E68
330
98B6
100
AcDbEntity
  8
DEFPOINTS
 62
     0
100
AcDbPoint
 10
2767.387694736092
 20
1011.060572212541
 30
0.0
  0
POINT
  5
9E69
330
98B6
100
AcDbEntity
  8
DEFPOINTS
 62
     0
100
AcDbPoint
 10
2767.387694736092
 20
907.9093119602426
 30
0.0
  0
ENDBLK
  5
98B8
330
98B6
100
AcDbEntity
  8
0
100
AcDbBlockEnd
  0
BLOCK
  5
9EB9
330
9EB8
100
AcDbEntity
  8
0
100
AcDbBlockBegin
  2
*D45
 70
     1
 10
0.0
 20
0.0
 30
0.0
  3
*D45
  1

  0
LINE
  5
9EC4
330
9EB8
100
AcDbEntity
  8
3
 62
     0
370
    -2
100
AcDbLine
 10
1394.58609091706
 20
3230.893722559705
 30
0.0
 11
1575.414599012013
 21
3230.893722559705
 31
0.0
  0
LINE
  5
9EC5
330
9EB8
100
AcDbEntity
  8
3
 62
     0
370
    -2
100
AcDbLine
 10
1394.58609091706
 20
2450.893722559704
 30
0.0
 11
1575.414599012013
 21
2450.893722559704
 31
0.0
  0
LINE
  5
9EC6
330
9EB8
100
AcDbEntity
  8
3
 62
     0
370
    -2
100
AcDbLine
 10
1560.414599012013
 20
3200.893722559705
 30
0.0
 11
1560.414599012013
 21
2480.893722559704
 31
0.0
  0
INSERT
  5
9EC7
330
9EB8
100
AcDbEntity
  8
3
 62
     0
370
    -2
100
AcDbBlockReference
  2
_OPEN
 10
1560.414599012013
 20
3230.893722559705
 30
0.0
 41
30.0
 42
30.0
 43
30.0
 50
90.0
  0
INSERT
  5
9EC8
330
9EB8
100
AcDbEntity
  8
3
 62
     0
370
    -2
100
AcDbBlockReference
  2
_OPEN
 10
1560.414599012013
 20
2450.893722559704
 30
0.0
 41
30.0
 42
30.0
 43
30.0
 50
270.0
  0
MTEXT
  5
9EC9
330
9EB8
100
AcDbEntity
  8
3
 62
     0
100
AcDbMText
 10
1522.914599012013
 20
2840.893722559705
 30
0.0
 40
45.0
 41
0.0
 71
     5
 72
     1
  1
\A1;780
 11
0.0000000000000001
 21
1.0
 31
0.0
 73
     1
 44
1.0
1001
ACAD
1000
MTEXTBEGIN
1070
    73
1070
     1
1070
    44
1040
1.0
1070
    74
1070
     0
1000
MTEXTEND
  0
POINT
  5
9ECA
330
9EB8
100
AcDbEntity
  8
DEFPOINTS
 62
     0
100
AcDbPoint
 10
1387.08609091706
 20
3230.893722559705
 30
0.0
  0
POINT
  5
9ECB
330
9EB8
100
AcDbEntity
  8
DEFPOINTS
 62
     0
100
AcDbPoint
 10
1387.08609091706
 20
2450.893722559704
 30
0.0
  0
POINT
  5
9ECC
330
9EB8
100
AcDbEntity
  8
DEFPOINTS
 62
     0
100
AcDbPoint
 10
1560.414599012013
 20
2450.893722559704
 30
0.0
  0
ENDBLK
  5
9EBA
330
9EB8
100
AcDbEntity
  8
0
100
AcDbBlockEnd
  0
ENDSEC
  0
SECTION
  2
ENTITIES
  0
LINE
  5
80DB
330
19
100
AcDbEntity
  8
4
100
AcDbLine
 10
2775.0
 20
750.0
 30
0.0
 11
2775.0
 21
450.0
 31
0.0
  0
LINE
  5
80DC
330
19
100
AcDbEntity
  8
4
100
AcDbLine
 10
1725.0
 20
750.0
 30
0.0
 11
1725.0
 21
450.0
 31
0.0
  0
LINE
  5
80DD
330
19
100
AcDbEntity
  8
4
100
AcDbLine
 10
975.0
 20
750.0
 30
0.0
 11
975.0
 21
450.0
 31
0.0
  0
LINE
  5
80E0
330
19
100
AcDbEntity
  8
4
100
AcDbLine
 10
975.0
 20
450.0
 30
0.0
 11
2775.0
 21
450.0
 31
0.0
  0
LINE
  5
80E1
330
19
100
AcDbEntity
  8
4
100
AcDbLine
 10
975.0
 20
600.0
 30
0.0
 11
2775.0
 21
600.0
 31
0.0
  0
TEXT
  5
80E2
330
19
100
AcDbEntity
  8
4
100
AcDbText
 10
1032.753121270352
 20
647.3145387999193
 30
0.0
 40
75.0
  1
機器名称
100
AcDbText
  0
TEXT
  5
80E3
330
19
100
AcDbEntity
  8
4
100
AcDbText
 10
1029.387159037196
 20
482.4677350980164
 30
0.0
 40
75.0
  1
機器型番
100
AcDbText
  0
TEXT
  5
80E4
330
19
100
AcDbEntity
  8
4
100
AcDbText
 10
1734.622468923646
 20
633.2809535354206
 30
0.0
 40
67.5
  1
ミツヤ多翼送風機
100
AcDbText
  0
TEXT
  5
80E5
330
19
100
AcDbEntity
  8
4
100
AcDbText
 10
1779.981743378221
 20
475.739376419915
 30
0.0
 40
75.0
  1
MF#2-1
100
AcDbText
  0
TEXT
  5
80E7
330
19
100
AcDbEntity
  8
4
100
AcDbText
 10
1170.658094655937
 20
3575.143261998774
 30
0.0
 40
80.99999999999999
  1
床置防振ベット
100
AcDbText
  0
TEXT
  5
80E8
330
19
100
AcDbEntity
  8
4
100
AcDbText
 10
474.2513899941696
 20
3800.821464298947
 30
0.0
 40
108.0
  1
遠心式片吸込片持多翼ファン
100
AcDbText
  0
LINE
  5
80E9
330
19
100
AcDbEntity
  8
4
100
AcDbLine
 10
375.0
 20
3704.113131397207
 30
0.0
 11
2775.0
 21
3704.113131397207
 31
0.0
  0
LINE
  5
80EA
330
19
100
AcDbEntity
  8
4
100
AcDbLine
 10
375.0
 20
4004.113131397207
 30
0.0
 11
2775.0
 21
4004.113131397207
 31
0.0
  0
LINE
  5
80EB
330
19
100
AcDbEntity
  8
4
100
AcDbLine
 10
975.0
 20
750.0
 30
0.0
 11
2775.0
 21
750.0
 31
0.0
  0
LINE
  5
80EC
330
19
100
AcDbEntity
  8
4
100
AcDbLine
 10
375.0
 20
4004.113131397207
 30
0.0
 11
375.0
 21
3704.113131397207
 31
0.0
  0
TEXT
  5
80ED
330
19
100
AcDbEntity
  8
4
100
AcDbText
 10
516.8698462918837
 20
3573.479216319515
 30
0.0
 40
80.99999999999999
  1
右回転上向
100
AcDbText
  0
TEXT
  5
80EE
330
19
100
AcDbEntity
  8
4
100
AcDbText
 10
2203.454338873935
 20
4059.091622242963
 30
0.0
 40
84.00000000000002
  1
No.
100
AcDbText
  0
TEXT
  5
80EF
330
19
100
AcDbEntity
  8
4
100
AcDbText
 10
1966.94409390002
 20
3575.143261998774
 30
0.0
 40
80.99999999999999
  1
縮尺：1/15
100
AcDbText
  0
LINE
  5
80F0
330
19
100
AcDbEntity
  8
4
100
AcDbLine
 10
2775.0
 20
4004.113131397207
 30
0.0
 11
2775.0
 21
3704.113131397207
 31
0.0
  0
LINE
  5
80F1
330
19
100
AcDbEntity
  8
4
100
AcDbLine
 10
3150.0
 20
4425.0
 30
0.0
 11
3150.0
 21
4425.0
 31
0.0
  0
LINE
  5
80F2
330
19
100
AcDbEntity
  8
4
100
AcDbLine
 10
2160.926133539797
 20
4021.895374688102
 30
0.0
 11
2160.926133539797
 21
4179.978392324628
 31
0.0
  0
LINE
  5
80F3
330
19
100
AcDbEntity
  8
4
100
AcDbLine
 10
2160.926133539797
 20
4179.978392324628
 30
0.0
 11
2775.0
 21
4179.978392324628
 31
0.0
  0
LINE
  5
80F4
330
19
100
AcDbEntity
  8
4
100
AcDbLine
 10
2775.0
 20
4179.978392324628
 30
0.0
 11
2775.0
 21
4021.895374688102
 31
0.0
  0
LINE
  5
80F5
330
19
100
AcDbEntity
  8
4
100
AcDbLine
 10
2775.0
 20
4021.895374688102
 30
0.0
 11
2160.926133539797
 21
4021.895374688102
 31
0.0
  0
LINE
  5
80F6
330
19
100
AcDbEntity
  8
4
100
AcDbLine
 10
0.0
 20
0.0
 30
0.0
 11
0.0
 21
4425.0
 31
0.0
  0
LINE
  5
80F7
330
19
100
AcDbEntity
  8
4
100
AcDbLine
 10
0.0
 20
4425.0
 30
0.0
 11
3150.0
 21
4425.0
 31
0.0
  0
LINE
  5
80F8
330
19
100
AcDbEntity
  8
4
100
AcDbLine
 10
3150.0
 20
4425.0
 30
0.0
 11
3150.0
 21
0.0
 31
0.0
  0
LINE
  5
80F9
330
19
100
AcDbEntity
  8
4
100
AcDbLine
 10
3150.0
 20
0.0
 30
0.0
 11
0.0
 21
0.0
 31
0.0
  0
LINE
  5
92BA
330
19
100
AcDbEntity
  8
2
100
AcDbLine
 10
727.0860909170606
 20
2864.032656181051
 30
0.0
 11
727.0860909170606
 21
2402.859122559705
 31
0.0
  0
LINE
  5
92BB
330
19
100
AcDbEntity
  8
2
100
AcDbLine
 10
1207.08609091706
 20
3218.075102568376
 30
0.0
 11
1207.086090917062
 21
2368.727419283798
 31
0.0
  0
LINE
  5
92BC
330
19
100
AcDbEntity
  8
1
100
AcDbLine
 10
856.0861513567397
 20
1756.060572212541
 30
0.0
 11
1181.08609091706
 21
1756.060572212541
 31
0.0
  0
DIMENSION
  5
92BD
330
19
100
AcDbEntity
  8
3
100
AcDbDimension
  2
*D24
 10
587.0860909170605
 20
914.4045529246275
 30
0.0
 11
897.0860909170605
 21
951.9045529246275
 31
0.0
 70
    32
 71
     5
 42
620.0
  3
IGA
100
AcDbAlignedDimension
 13
1207.08609091706
 23
996.1872863377527
 33
0.0
 14
587.0860909170605
 24
1011.060572212541
 34
0.0
 50
180.0
100
AcDbRotatedDimension
1001
ACAD
1000
DSTYLE
1002
{
1070
    40
1040
15.0
1070
   143
1040
0.039
1070
   172
1070
     1
1070
   271
1070
     0
1070
   279
1070
     0
1070
   288
1070
     1
1002
}
  0
DIMENSION
  5
92BE
330
19
100
AcDbEntity
  8
3
100
AcDbDimension
  2
*D25
 10
1207.08609091706
 20
1936.799114027632
 30
0.0
 11
1031.5861211369
 21
1974.299114027632
 31
0.0
 70
    32
 71
     5
 42
350.9999395603208
  3
IGA
100
AcDbAlignedDimension
 13
856.0861513567397
 23
1781.060572212541
 33
0.0
 14
1207.08609091706
 24
1813.958320273527
 34
0.0
 50
180.0
100
AcDbRotatedDimension
1001
ACAD
1000
DSTYLE
1002
{
1070
    40
1040
15.0
1070
   143
1040
0.039
1070
   172
1070
     1
1070
   271
1070
     0
1070
   279
1070
     0
1070
   288
1070
     1
1002
}
  0
DIMENSION
  5
92BF
330
19
100
AcDbEntity
  8
3
100
AcDbDimension
  2
*D26
 10
1181.08609091706
 20
1840.028932801659
 30
0.0
 11
1018.5861211369
 21
1877.528932801659
 31
0.0
 70
    32
 71
     5
 42
324.9999395603209
  3
IGA
100
AcDbAlignedDimension
 13
856.0861513567397
 23
1781.060572212541
 33
0.0
 14
1181.08609091706
 24
1781.060572212541
 34
0.0
 50
180.0
100
AcDbRotatedDimension
1001
ACAD
1000
DSTYLE
1002
{
1070
    40
1040
15.0
1070
   143
1040
0.039
1070
   172
1070
     1
1070
   271
1070
     0
1070
   279
1070
     0
1070
   288
1070
     1
1002
}
  0
LINE
  5
92C0
330
19
100
AcDbEntity
  8
2
100
AcDbLine
 10
852.2252378087177
 20
1536.060572212541
 30
0.0
 11
1463.546217267547
 21
1536.060572212541
 31
0.0
  0
LINE
  5
92C1
330
19
100
AcDbEntity
  8
1
100
AcDbLine
 10
587.0860909170605
 20
1181.060572212541
 30
0.0
 11
1387.08609091706
 21
1181.060572212541
 31
0.0
  0
LINE
  5
92C2
330
19
100
AcDbEntity
  8
1
100
AcDbLine
 10
1181.08609091706
 20
1778.060572212541
 30
0.0
 11
856.0861513567397
 21
1778.060572212541
 31
0.0
  0
LINE
  5
92C3
330
19
100
AcDbEntity
  8
1
100
AcDbLine
 10
1181.08609091706
 20
1781.060572212541
 30
0.0
 11
856.0861513567397
 21
1781.060572212541
 31
0.0
  0
LINE
  5
92C4
330
19
100
AcDbEntity
  8
1
100
AcDbLine
 10
587.0860909170605
 20
1086.060572212541
 30
0.0
 11
1387.08609091706
 21
1086.060572212541
 31
0.0
  0
LINE
  5
92C5
330
19
100
AcDbEntity
  8
1
100
AcDbLine
 10
587.0860909170605
 20
1011.060572212541
 30
0.0
 11
1387.08609091706
 21
1011.06057221254
 31
0.0
  0
DIMENSION
  5
92C6
330
19
100
AcDbEntity
  8
3
100
AcDbDimension
  2
*D27
 10
1705.630424641645
 20
1781.06057221254
 30
0.0
 11
1668.130424641645
 21
1396.060572212541
 31
0.0
 70
    32
 71
     5
 42
769.9999999999999
  3
IGA
100
AcDbAlignedDimension
 13
1387.08609091706
 23
1011.06057221254
 33
0.0
 14
1209.474921242017
 24
1781.060572212541
 34
0.0
 50
90.0
100
AcDbRotatedDimension
1001
ACAD
1000
DSTYLE
1002
{
1070
    40
1040
15.0
1070
   143
1040
0.039
1070
   172
1070
     1
1070
   271
1070
     0
1070
   279
1070
     0
1070
   288
1070
     1
1002
}
  0
DIMENSION
  5
92C7
330
19
100
AcDbEntity
  8
3
100
AcDbDimension
  2
*D28
 10
1565.675285834082
 20
1181.06057221254
 30
0.0
 11
1528.175285834082
 21
1358.560572212541
 31
0.0
 70
    32
 71
     5
 42
355.0
  3
IGA
100
AcDbAlignedDimension
 13
1463.546217267547
 23
1536.060572212541
 33
0.0
 14
1387.08609091706
 24
1181.060572212541
 34
0.0
 50
90.0
100
AcDbRotatedDimension
1001
ACAD
1000
DSTYLE
1002
{
1070
    40
1040
15.0
1070
   143
1040
0.039
1070
   172
1070
     1
1070
   271
1070
     0
1070
   279
1070
     0
1070
   288
1070
     1
1002
}
  0
LINE
  5
92C8
330
19
100
AcDbEntity
  8
2
100
AcDbLine
 10
1207.08609091706
 20
1812.02497934876
 30
0.0
 11
1207.08609091706
 21
996.1872863377527
 31
0.0
  0
DIMENSION
  5
92C9
330
19
100
AcDbEntity
  8
3
100
AcDbDimension
  2
*D29
 10
1207.08609091706
 20
913.4450963876702
 30
0.0
 11
1297.08609091706
 21
953.2516795643228
 31
0.0
 70
   160
 71
     5
 42
180.0
  3
IGA
100
AcDbAlignedDimension
 13
1387.08609091706
 23
1011.06057221254
 33
0.0
 14
1207.08609091706
 24
996.1872863377527
 34
0.0
 50
180.0
100
AcDbRotatedDimension
1001
ACAD
1000
DSTYLE
1002
{
1070
   288
1070
     1
1070
   172
1070
     1
1070
    40
1040
15.0
1070
   271
1070
     0
1070
   143
1040
0.039
1002
}
  0
DIMENSION
  5
92CA
330
19
100
AcDbEntity
  8
3
100
AcDbDimension
  2
*D30
 10
1565.675285834082
 20
1011.06057221254
 30
0.0
 11
1528.175285834082
 21
899.6320007839695
 31
0.0
 70
    32
 71
     5
 42
74.99999999999989
  3
IGA
100
AcDbAlignedDimension
 13
1387.08609091706
 23
1086.060572212541
 33
0.0
 14
1387.08609091706
 24
1011.06057221254
 34
0.0
 50
90.0
100
AcDbRotatedDimension
1001
ACAD
1000
DSTYLE
1002
{
1070
    40
1040
15.0
1070
   143
1040
0.039
1070
   172
1070
     1
1070
   271
1070
     0
1070
   279
1070
     0
1070
   288
1070
     1
1070
   343
1005
817A
1002
}
  0
LINE
  5
92CB
330
19
100
AcDbEntity
  8
1
100
AcDbLine
 10
1387.08609091706
 20
1086.060572212541
 30
0.0
 11
1387.08609091706
 21
1011.060572212541
 31
0.0
  0
DIMENSION
  5
92CC
330
19
100
AcDbEntity
  8
3
100
AcDbDimension
  2
*D31
 10
1433.04499514489
 20
1936.799114027632
 30
0.0
 11
1320.065543030975
 21
1974.299114027632
 31
0.0
 70
    32
 71
     5
 42
225.9589042278294
  3
IGA
100
AcDbAlignedDimension
 13
1207.08609091706
 23
1813.958320273527
 33
0.0
 14
1433.04499514489
 24
1517.29561962785
 34
0.0
 50
180.0
100
AcDbRotatedDimension
1001
ACAD
1000
DSTYLE
1002
{
1070
    40
1040
15.0
1070
   143
1040
0.039
1070
   172
1070
     1
1070
   271
1070
     0
1070
   279
1070
     0
1070
   288
1070
     1
1002
}
  0
DIMENSION
  5
92CD
330
19
100
AcDbEntity
  8
3
100
AcDbDimension
  2
*D32
 10
1565.675285834082
 20
1536.06057221254
 30
0.0
 11
1528.175285834082
 21
1658.560572212541
 31
0.0
 70
    32
 71
     5
 42
245.0
  3
IGA
100
AcDbAlignedDimension
 13
1209.474921242017
 23
1781.060572212541
 33
0.0
 14
1463.546217267547
 24
1536.060572212541
 34
0.0
 50
90.0
100
AcDbRotatedDimension
1001
ACAD
1000
DSTYLE
1002
{
1070
    40
1040
15.0
1070
   143
1040
0.039
1070
   172
1070
     1
1070
   271
1070
     0
1070
   279
1070
     0
1070
   288
1070
     1
1002
}
  0
ARC
  5
92CF
330
19
100
AcDbEntity
  8
1
100
AcDbCircle
 10
1188.08609091706
 20
1774.060572212541
 30
0.0
 40
4.0
100
AcDbArc
 50
90.0
 51
180.0
  0
LINE
  5
92D0
330
19
100
AcDbEntity
  8
1
100
AcDbLine
 10
1184.08609091706
 20
1774.060572212541
 30
0.0
 11
1184.08609091706
 21
1758.060572212541
 31
0.0
  0
ARC
  5
92D1
330
19
100
AcDbEntity
  8
1
100
AcDbCircle
 10
1182.08609091706
 20
1758.060572212541
 30
0.0
 40
2.0
100
AcDbArc
 50
270.0
 51
0.0
  0
LINE
  5
92D2
330
19
100
AcDbEntity
  8
1
100
AcDbLine
 10
1182.08609091706
 20
1756.060572212541
 30
0.0
 11
1181.08609091706
 21
1756.060572212541
 31
0.0
  0
LINE
  5
92D3
330
19
100
AcDbEntity
  8
1
100
AcDbLine
 10
1181.08609091706
 20
1781.060572212541
 30
0.0
 11
1206.08609091706
 21
1781.060572212541
 31
0.0
  0
LINE
  5
92D4
330
19
100
AcDbEntity
  8
1
100
AcDbLine
 10
1206.08609091706
 20
1781.060572212541
 30
0.0
 11
1206.08609091706
 21
1780.060572212541
 31
0.0
  0
ARC
  5
92D5
330
19
100
AcDbEntity
  8
1
100
AcDbCircle
 10
1204.08609091706
 20
1780.060572212541
 30
0.0
 40
2.0
100
AcDbArc
 50
270.0
 51
0.0
  0
LINE
  5
92D6
330
19
100
AcDbEntity
  8
1
100
AcDbLine
 10
1204.08609091706
 20
1778.060572212541
 30
0.0
 11
1188.08609091706
 21
1778.060572212541
 31
0.0
  0
LINE
  5
92D7
330
19
100
AcDbEntity
  8
1
100
AcDbLine
 10
587.0860909170605
 20
1086.060572212541
 30
0.0
 11
587.0860909170605
 21
1011.060572212541
 31
0.0
  0
ARC
  5
92D9
330
19
100
AcDbEntity
  8
1
100
AcDbCircle
 10
849.0861513567397
 20
1774.060572212541
 30
0.0
 40
4.0
100
AcDbArc
 50
0.0
 51
90.0
  0
LINE
  5
92DA
330
19
100
AcDbEntity
  8
1
100
AcDbLine
 10
856.0861513567397
 20
1756.060572212541
 30
0.0
 11
856.0861513567397
 21
1781.060572212541
 31
0.0
  0
LINE
  5
92DB
330
19
100
AcDbEntity
  8
1
100
AcDbLine
 10
859.6565047052536
 20
1756.060572212541
 30
0.0
 11
860.6565047052535
 21
1756.060572212541
 31
0.0
  0
LINE
  5
92DC
330
19
100
AcDbEntity
  8
1
100
AcDbLine
 10
853.0861513567398
 20
1774.060572212541
 30
0.0
 11
853.0861513567398
 21
1758.060572212541
 31
0.0
  0
ARC
  5
92DD
330
19
100
AcDbEntity
  8
1
100
AcDbCircle
 10
855.0861513567397
 20
1758.060572212541
 30
0.0
 40
2.0
100
AcDbArc
 50
180.0
 51
270.0
  0
LINE
  5
92DE
330
19
100
AcDbEntity
  8
1
100
AcDbLine
 10
855.0861513567397
 20
1756.060572212541
 30
0.0
 11
856.0861513567397
 21
1756.060572212541
 31
0.0
  0
LINE
  5
92DF
330
19
100
AcDbEntity
  8
1
100
AcDbLine
 10
856.0861513567397
 20
1781.060572212541
 30
0.0
 11
831.0861513567397
 21
1781.060572212541
 31
0.0
  0
LINE
  5
92E0
330
19
100
AcDbEntity
  8
1
100
AcDbLine
 10
833.0861513567397
 20
1778.060572212541
 30
0.0
 11
849.0861513567397
 21
1778.060572212541
 31
0.0
  0
LINE
  5
92E1
330
19
100
AcDbEntity
  8
1
100
AcDbLine
 10
831.0861513567397
 20
1781.060572212541
 30
0.0
 11
831.0861513567397
 21
1780.060572212541
 31
0.0
  0
ARC
  5
92E2
330
19
100
AcDbEntity
  8
1
100
AcDbCircle
 10
833.0861513567397
 20
1780.060572212541
 30
0.0
 40
2.0
100
AcDbArc
 50
180.0
 51
270.0
  0
LINE
  5
92E3
330
19
100
AcDbEntity
  8
1
100
AcDbLine
 10
1047.086090917062
 20
2490.893722559704
 30
0.0
 11
828.0860909170606
 21
2490.893722559704
 31
0.0
  0
LINE
  5
92E4
330
19
100
AcDbEntity
  8
1
100
AcDbLine
 10
854.4749212420175
 20
2945.893722559704
 30
0.0
 11
1184.474921242017
 21
3185.893722559705
 31
0.0
  0
LINE
  5
92E5
330
19
100
AcDbEntity
  8
1
100
AcDbLine
 10
854.4749212420175
 20
3185.893722559705
 30
0.0
 11
1184.474921242017
 21
2945.893722559705
 31
0.0
  0
LINE
  5
92E6
330
19
100
AcDbEntity
  8
1
100
AcDbLine
 10
854.4749212420175
 20
2945.893722559704
 30
0.0
 11
1184.474921242017
 21
2945.893722559705
 31
0.0
  0
LINE
  5
92E7
330
19
100
AcDbEntity
  8
1
100
AcDbLine
 10
854.4749212420175
 20
3185.893722559705
 30
0.0
 11
1184.474921242017
 21
3185.893722559705
 31
0.0
  0
LINE
  5
92E8
330
19
100
AcDbEntity
  8
1
100
AcDbLine
 10
829.4749212420175
 20
2920.893722559704
 30
0.0
 11
1209.474921242017
 21
2920.893722559705
 31
0.0
  0
LINE
  5
92E9
330
19
100
AcDbEntity
  8
1
100
AcDbLine
 10
829.4749212420175
 20
3210.893722559705
 30
0.0
 11
1209.474921242017
 21
3210.893722559705
 31
0.0
  0
LINE
  5
92EA
330
19
100
AcDbEntity
  8
2
100
AcDbLine
 10
775.0749786451379
 20
3065.893722559705
 30
0.0
 11
1456.685210943276
 21
3065.893722559705
 31
0.0
  0
LINE
  5
92EB
330
19
100
AcDbEntity
  8
1
100
AcDbLine
 10
1027.08609091706
 20
2830.893722559705
 30
0.0
 11
587.0860909170605
 21
2830.893722559705
 31
0.0
  0
LINE
  5
92EC
330
19
100
AcDbEntity
  8
1
100
AcDbLine
 10
1027.08609091706
 20
2790.893722559705
 30
0.0
 11
587.0860909170605
 21
2790.893722559705
 31
0.0
  0
LINE
  5
92ED
330
19
100
AcDbEntity
  8
1
100
AcDbLine
 10
1387.08609091706
 20
2947.893722559705
 30
0.0
 11
1387.08609091706
 21
2450.893722559705
 31
0.0
  0
LINE
  5
92EE
330
19
100
AcDbEntity
  8
1
100
AcDbLine
 10
1027.086090917062
 20
2490.893722559704
 30
0.0
 11
1027.086090917062
 21
2920.893722559705
 31
0.0
  0
LINE
  5
92EF
330
19
100
AcDbEntity
  8
1
100
AcDbLine
 10
1387.08609091706
 20
2450.893722559704
 30
0.0
 11
1307.08609091706
 21
2450.893722559704
 31
0.0
  0
LINE
  5
92F0
330
19
100
AcDbEntity
  8
1
100
AcDbLine
 10
1387.08609091706
 20
2490.893722559705
 30
0.0
 11
1367.086090917061
 21
2490.893722559704
 31
0.0
  0
POINT
  5
92F1
330
19
100
AcDbEntity
  8
1
100
AcDbPoint
 10
1387.08609091706
 20
2450.893722559704
 30
0.0
 50
180.0
  0
LINE
  5
92F2
330
19
100
AcDbEntity
  8
1
100
AcDbLine
 10
1224.58609091706
 20
2947.893722559706
 30
0.0
 11
1224.58609091706
 21
2457.893722559704
 31
0.0
  0
LINE
  5
92F3
330
19
100
AcDbEntity
  8
1
100
AcDbLine
 10
1189.586090917062
 20
2920.893722559705
 30
0.0
 11
1189.58609091706
 21
2457.893722559704
 31
0.0
  0
LINE
  5
92F4
330
19
100
AcDbEntity
  8
1
100
AcDbLine
 10
1209.474921242017
 20
2947.893722559705
 30
0.0
 11
1435.744995144891
 21
2947.893722559705
 31
0.0
  0
LINE
  5
92F5
330
19
100
AcDbEntity
  8
1
100
AcDbLine
 10
1209.474921242017
 20
3183.893722559706
 30
0.0
 11
1435.744995144891
 21
3183.893722559706
 31
0.0
  0
LINE
  5
92F6
330
19
100
AcDbEntity
  8
1
100
AcDbLine
 10
1067.086090917062
 20
3225.893722559705
 30
0.0
 11
1347.08609091706
 21
3225.893722559705
 31
0.0
  0
LINE
  5
92F7
330
19
100
AcDbEntity
  8
1
100
AcDbLine
 10
1209.474921242017
 20
3185.893722559705
 30
0.0
 11
1347.086090917062
 21
3185.893722559705
 31
0.0
  0
LINE
  5
92F8
330
19
100
AcDbEntity
  8
1
100
AcDbLine
 10
1435.744995144891
 20
2947.893722559706
 30
0.0
 11
1435.744995144891
 21
3183.893722559706
 31
0.0
  0
LINE
  5
92F9
330
19
100
AcDbEntity
  8
1
100
AcDbLine
 10
1347.08609091706
 20
3230.893722559705
 30
0.0
 11
1387.08609091706
 21
3230.893722559705
 31
0.0
  0
LINE
  5
92FA
330
19
100
AcDbEntity
  8
1
100
AcDbLine
 10
1387.08609091706
 20
3230.893722559705
 30
0.0
 11
1387.08609091706
 21
3183.893722559706
 31
0.0
  0
POINT
  5
92FB
330
19
100
AcDbEntity
  8
1
100
AcDbPoint
 10
1387.08609091706
 20
3230.893722559705
 30
0.0
 50
180.0
  0
POINT
  5
92FC
330
19
100
AcDbEntity
  8
1
100
AcDbPoint
 10
1387.08609091706
 20
3230.893722559705
 30
0.0
 50
180.0
  0
LINE
  5
92FD
330
19
100
AcDbEntity
  8
1
100
AcDbLine
 10
1347.086090917062
 20
3230.893722559705
 30
0.0
 11
1347.086090917062
 21
3183.893722559706
 31
0.0
  0
LINE
  5
92FE
330
19
100
AcDbEntity
  8
1
100
AcDbLine
 10
1184.474921242017
 20
2945.893722559705
 30
0.0
 11
1184.474921242017
 21
3185.893722559705
 31
0.0
  0
LINE
  5
92FF
330
19
100
AcDbEntity
  8
1
100
AcDbLine
 10
1209.474921242017
 20
2920.893722559705
 30
0.0
 11
1209.474921242017
 21
3210.893722559705
 31
0.0
  0
LINE
  5
9300
330
19
100
AcDbEntity
  8
1
100
AcDbLine
 10
1027.08609091706
 20
3230.893722559705
 30
0.0
 11
1067.086090917062
 21
3230.893722559705
 31
0.0
  0
LINE
  5
9301
330
19
100
AcDbEntity
  8
1
100
AcDbLine
 10
1067.086090917062
 20
3210.893722559705
 30
0.0
 11
1067.086090917062
 21
3230.893722559704
 31
0.0
  0
LINE
  5
9302
330
19
100
AcDbEntity
  8
1
100
AcDbLine
 10
1027.08609091706
 20
3210.893722559705
 30
0.0
 11
1027.08609091706
 21
3230.893722559705
 31
0.0
  0
POINT
  5
9303
330
19
100
AcDbEntity
  8
1
100
AcDbPoint
 10
1027.08609091706
 20
3230.893722559705
 30
0.0
 50
180.0
  0
LINE
  5
9304
330
19
100
AcDbEntity
  8
1
100
AcDbLine
 10
626.0860909170605
 20
2490.893722559704
 30
0.0
 11
587.0860909170605
 21
2490.893722559704
 31
0.0
  0
LINE
  5
9305
330
19
100
AcDbEntity
  8
1
100
AcDbLine
 10
587.0860909170605
 20
2469.893722559705
 30
0.0
 11
587.0860909170605
 21
2490.893722559704
 31
0.0
  0
LINE
  5
9306
330
19
100
AcDbEntity
  8
1
100
AcDbLine
 10
587.0860909170587
 20
2790.893722559705
 30
0.0
 11
587.0860909170587
 21
2830.893722559705
 31
0.0
  0
POINT
  5
9307
330
19
100
AcDbEntity
  8
1
100
AcDbPoint
 10
587.0860909170587
 20
2830.893722559705
 30
0.0
 50
180.0
  0
LINE
  5
9308
330
19
100
AcDbEntity
  8
1
100
AcDbLine
 10
854.4749212420175
 20
2945.893722559704
 30
0.0
 11
854.4749212420175
 21
3185.893722559705
 31
0.0
  0
LINE
  5
9309
330
19
100
AcDbEntity
  8
1
100
AcDbLine
 10
829.4749212420175
 20
2920.893722559704
 30
0.0
 11
829.4749212420175
 21
3210.893722559705
 31
0.0
  0
DIMENSION
  5
9316
330
19
100
AcDbEntity
  8
3
100
AcDbDimension
  2
*D33
 10
587.0860909170605
 20
2039.335979418408
 30
0.0
 11
981.7992298696227
 21
2039.335979418408
 31
0.0
 70
   160
 71
     5
 42
845.9589042278294
  3
IGA
100
AcDbAlignedDimension
 13
1433.04499514489
 23
1517.29561962785
 33
0.0
 14
587.0860909170605
 24
1256.060572212541
 34
0.0
 50
180.0
100
AcDbRotatedDimension
1001
ACAD
1000
DSTYLE
1002
{
1070
    40
1040
15.0
1070
   143
1040
0.039
1070
   172
1070
     1
1070
   271
1070
     0
1070
   279
1070
     0
1070
   288
1070
     1
1002
}
  0
DIMENSION
  5
9317
330
19
100
AcDbEntity
  8
3
100
AcDbDimension
  2
*D34
 10
1565.675285834082
 20
1086.06057221254
 30
0.0
 11
1635.958967157437
 21
1141.060572212541
 31
0.0
 70
   160
  1
(<>)
 71
     5
 42
95.0
  3
IGA
100
AcDbAlignedDimension
 13
1387.08609091706
 23
1181.060572212541
 33
0.0
 14
1387.08609091706
 24
1086.060572212541
 34
0.0
 50
90.0
100
AcDbRotatedDimension
1001
ACAD
1000
DSTYLE
1002
{
1070
    40
1040
15.0
1070
   143
1040
0.039
1070
   172
1070
     1
1070
   271
1070
     0
1070
   288
1070
     1
1070
   343
1005
8AE2
1070
   344
1005
8AE2
1002
}
  0
DIMENSION
  5
931A
330
19
100
AcDbEntity
  8
3
100
AcDbDimension
  2
*D35
 10
416.4530702053166
 20
2830.893722559704
 30
0.0
 11
416.4530702053161
 21
2640.893722559704
 31
0.0
 70
   160
 71
     5
 42
380.0000000000005
  3
IGA
100
AcDbAlignedDimension
 13
587.0860909170623
 23
2450.893722559704
 33
0.0
 14
587.0860909170605
 24
2830.893722559704
 34
0.0
 50
270.0
100
AcDbRotatedDimension
1001
ACAD
1000
DSTYLE
1002
{
1070
    40
1040
15.0
1070
   143
1040
0.039
1070
   172
1070
     1
1070
   271
1070
     0
1070
   279
1070
     0
1070
   288
1070
     1
1002
}
  0
DIMENSION
  5
931B
330
19
100
AcDbEntity
  8
3
100
AcDbDimension
  2
*D36
 10
1027.086090917062
 20
3342.112089561234
 30
0.0
 11
1207.086090917062
 21
3379.612089561234
 31
0.0
 70
    32
 71
     5
 42
360.0
  3
IGA
100
AcDbAlignedDimension
 13
1387.086090917062
 23
3230.893722559704
 33
0.0
 14
1027.086090917062
 24
3230.893722559704
 34
0.0
100
AcDbRotatedDimension
1001
ACAD
1000
DSTYLE
1002
{
1070
    40
1040
15.0
1070
   143
1040
0.039
1070
   172
1070
     1
1070
   271
1070
     0
1070
   279
1070
     0
1070
   288
1070
     1
1002
}
  0
DIMENSION
  5
931C
330
19
100
AcDbEntity
  8
3
100
AcDbDimension
  2
*D37
 10
587.0860909170605
 20
3342.112089561234
 30
0.0
 11
807.0860909170615
 21
3379.612089561234
 31
0.0
 70
    32
 71
     5
 42
440.0000000000018
  3
IGA
100
AcDbAlignedDimension
 13
1027.086090917062
 23
3230.893722559704
 33
0.0
 14
587.0860909170605
 24
2830.893722559704
 34
0.0
100
AcDbRotatedDimension
1001
ACAD
1000
DSTYLE
1002
{
1070
    40
1040
15.0
1070
   143
1040
0.039
1070
   172
1070
     1
1070
   271
1070
     0
1070
   279
1070
     0
1070
   288
1070
     1
1002
}
  0
DIMENSION
  5
932F
330
19
100
AcDbEntity
  8
3
100
AcDbDimension
  2
*D38
 10
1387.08609091706
 20
2258.261411970534
 30
0.0
 11
987.0860909170614
 21
2302.407769052384
 31
0.0
 70
   160
 71
     5
 42
799.9999999999982
  3
IGA
100
AcDbAlignedDimension
 13
587.0860909170623
 23
2469.893722559704
 33
0.0
 14
1387.08609091706
 24
2450.893722559703
 34
0.0
100
AcDbRotatedDimension
1001
ACAD
1000
DSTYLE
1002
{
1070
    40
1040
15.0
1070
   143
1040
0.039
1070
   172
1070
     1
1070
   271
1070
     0
1070
   288
1070
     1
1002
}
  0
LINE
  5
933E
330
19
100
AcDbEntity
  8
1
100
AcDbLine
 10
1387.08609091706
 20
1256.060572212541
 30
0.0
 11
1387.08609091706
 21
1181.060572212541
 31
0.0
  0
LINE
  5
933F
330
19
100
AcDbEntity
  8
1
100
AcDbLine
 10
587.0860909170605
 20
1256.060572212541
 30
0.0
 11
587.0860909170605
 21
1181.060572212541
 31
0.0
  0
POINT
  5
9340
330
19
100
AcDbEntity
  8
1
100
AcDbPoint
 10
1387.08609091706
 20
1181.060572212541
 30
0.0
 50
180.0
  0
POINT
  5
9341
330
19
100
AcDbEntity
  8
1
100
AcDbPoint
 10
1387.08609091706
 20
1181.060572212541
 30
0.0
 50
180.0
  0
LINE
  5
9342
330
19
100
AcDbEntity
  8
1
100
AcDbLine
 10
1357.08609091706
 20
1482.46057221254
 30
0.0
 11
1057.08609091706
 21
1482.46057221254
 31
0.0
  0
LINE
  5
9344
330
19
100
AcDbEntity
  8
1
100
AcDbLine
 10
587.0860909170605
 20
1256.060572212541
 30
0.0
 11
1387.08609091706
 21
1256.060572212541
 31
0.0
  0
LINE
  5
9345
330
19
100
AcDbEntity
  8
1
100
AcDbLine
 10
856.0860909170605
 20
1756.060572212543
 30
0.0
 11
887.7380050289085
 21
1520.393102388944
 31
0.0
  0
LINE
  5
9346
330
19
100
AcDbEntity
  8
1
100
AcDbLine
 10
1357.08609091706
 20
1482.46057221254
 30
0.0
 11
1357.08609091706
 21
1256.060572212541
 31
0.0
  0
ARC
  5
9348
330
19
100
AcDbEntity
  8
1
100
AcDbCircle
 10
1225.58609091706
 20
1517.560572212544
 30
0.0
 40
207.5
100
AcDbArc
 50
5.115090299483455
 51
90.0
  0
ARC
  5
9349
330
19
100
AcDbEntity
  8
1
100
AcDbCircle
 10
1183.08609091706
 20
1560.060572212542
 30
0.0
 40
298.0
100
AcDbArc
 50
187.6494783385173
 51
270.0
  0
LINE
  5
934A
330
19
100
AcDbEntity
  8
1
100
AcDbLine
 10
827.0860909170606
 20
1296.060572212544
 30
0.0
 11
787.0860909170605
 21
1296.060572212544
 31
0.0
  0
LINE
  5
934B
330
19
100
AcDbEntity
  8
1
100
AcDbLine
 10
827.0860909170606
 20
1308.060572212541
 30
0.0
 11
807.620599418913
 21
1335.108189647407
 31
0.0
  0
LWPOLYLINE
  5
934C
330
19
100
AcDbEntity
  8
1
100
AcDbPolyline
 90
        4
 70
     1
 43
0.0
 10
592.0860909170605
 20
1256.060572212541
 10
862.0860909170605
 20
1256.060572212541
 10
852.0860909170606
 20
1296.060572212544
 10
602.0860909170606
 20
1296.060572212544
  0
LINE
  5
934D
330
19
100
AcDbEntity
  8
2
100
AcDbLine
 10
561.8118358708288
 20
1396.06057221254
 30
0.0
 11
855.3860909170598
 21
1396.06057221254
 31
0.0
  0
ARC
  5
934E
330
19
100
AcDbEntity
  8
1
100
AcDbCircle
 10
727.0860909170606
 20
1396.06057221254
 30
0.0
 40
101.0
100
AcDbArc
 50
293.7728168000096
 51
246.2271831999903
  0
CIRCLE
  5
934F
330
19
100
AcDbEntity
  8
1
100
AcDbCircle
 10
727.0860909170606
 20
1396.06057221254
 30
0.0
 40
90.0
  0
ARC
  5
9350
330
19
100
AcDbEntity
  8
1
100
AcDbCircle
 10
1183.08609091706
 20
1512.060572212544
 30
0.0
 40
250.0
100
AcDbArc
 50
270.0
 51
5.508878671176142
  0
LINE
  5
9351
330
19
100
AcDbEntity
  8
1
100
AcDbLine
 10
1057.08609091706
 20
1482.46057221254
 30
0.0
 11
1057.08609091706
 21
1256.060572212541
 31
0.0
  0
LINE
  5
9352
330
19
100
AcDbEntity
  8
1
100
AcDbLine
 10
827.0860909170606
 20
1296.060572212544
 30
0.0
 11
827.0860909170606
 21
1308.060572212541
 31
0.0
  0
CIRCLE
  5
9353
330
19
100
AcDbEntity
  8
1
100
AcDbCircle
 10
1207.08609091706
 20
1536.060572212541
 30
0.0
 40
51.0
  0
LINE
  5
9354
330
19
100
AcDbEntity
  8
2
100
AcDbLine
 10
727.0860909170606
 20
1225.38643193538
 30
0.0
 11
727.0860909170606
 21
1547.406245252993
 31
0.0
  0
LINE
  5
9356
330
19
100
AcDbEntity
  8
1
100
AcDbLine
 10
627.0860909170606
 20
1308.060572212541
 30
0.0
 11
646.5515824152117
 21
1335.108189647407
 31
0.0
  0
LINE
  5
9357
330
19
100
AcDbEntity
  8
1
100
AcDbLine
 10
627.0860909170606
 20
1296.060572212544
 30
0.0
 11
627.0860909170606
 21
1308.060572212541
 31
0.0
  0
LINE
  5
9358
330
19
100
AcDbEntity
  8
1
100
AcDbLine
 10
815.0860909170605
 20
1296.060572212544
 30
0.0
 11
787.0860909170605
 21
1296.060572212544
 31
0.0
  0
LINE
  5
9359
330
19
100
AcDbEntity
  8
1
100
AcDbLine
 10
686.3718636728608
 20
1303.630319048831
 30
0.0
 11
767.8003181612602
 21
1303.630319048831
 31
0.0
  0
LINE
  5
935A
330
19
100
AcDbEntity
  8
1
100
AcDbLine
 10
627.0860909170606
 20
1296.060572212544
 30
0.0
 11
667.0860909170605
 21
1296.060572212544
 31
0.0
  0
ARC
  5
935B
330
19
100
AcDbEntity
  8
1
100
AcDbCircle
 10
1225.58609091706
 20
1554.560572212541
 30
0.0
 40
170.5
100
AcDbArc
 50
90.0
 51
105.1292328169643
  0
LINE
  5
935C
330
19
100
AcDbEntity
  8
1
100
AcDbLine
 10
1181.08609091706
 20
1781.060572212543
 30
0.0
 11
1181.08609091706
 21
1719.150972904687
 31
0.0
  0
LINE
  5
935D
330
19
100
AcDbEntity
  8
1
100
AcDbLine
 10
1196.668476950688
 20
1585.985248668658
 30
0.0
 11
708.7020662705344
 21
1484.162942429214
 31
0.0
  0
LINE
  5
935E
330
19
100
AcDbEntity
  8
1
100
AcDbLine
 10
1225.14146488342
 20
1488.363575756423
 30
0.0
 11
758.9485155635903
 21
1311.889401995868
 31
0.0
  0
LINE
  5
939E
330
19
100
AcDbEntity
  8
1
100
AcDbLine
 10
1357.086090917062
 20
2488.693722559703
 30
0.0
 11
1224.586090917062
 21
2488.693722559703
 31
0.0
  0
LINE
  5
939F
330
19
100
AcDbEntity
  8
1
100
AcDbLine
 10
1357.086090917062
 20
2488.693722559703
 30
0.0
 11
1357.086090917062
 21
2947.893722559705
 31
0.0
  0
LINE
  5
93A0
330
19
100
AcDbEntity
  8
1
100
AcDbLine
 10
1057.086090917062
 20
2488.693722559703
 30
0.0
 11
1057.086090917062
 21
2920.893722559704
 31
0.0
  0
LINE
  5
93A1
330
19
100
AcDbEntity
  8
1
100
AcDbLine
 10
1189.586090917062
 20
2488.693722559703
 30
0.0
 11
1057.086090917062
 21
2488.693722559703
 31
0.0
  0
LINE
  5
93A2
330
19
100
AcDbEntity
  8
1
100
AcDbLine
 10
1258.086090917062
 20
2397.893722559703
 30
0.0
 11
1156.086090917062
 21
2397.893722559707
 31
0.0
  0
LINE
  5
93A3
330
19
100
AcDbEntity
  8
1
100
AcDbLine
 10
1258.086090917062
 20
2447.893722559703
 30
0.0
 11
1156.086090917062
 21
2447.893722559707
 31
0.0
  0
LINE
  5
93A4
330
19
100
AcDbEntity
  8
1
100
AcDbLine
 10
1156.086090917062
 20
2447.893722559703
 30
0.0
 11
1156.086090917062
 21
2397.893722559707
 31
0.0
  0
LINE
  5
93A5
330
19
100
AcDbEntity
  8
1
100
AcDbLine
 10
1258.086090917062
 20
2397.893722559703
 30
0.0
 11
1258.086090917062
 21
2447.893722559703
 31
0.0
  0
LINE
  5
93A6
330
19
100
AcDbEntity
  8
1
100
AcDbLine
 10
1223.086090917062
 20
2477.893722559705
 30
0.0
 11
1223.086090917062
 21
2447.893722559703
 31
0.0
  0
LINE
  5
93A7
330
19
100
AcDbEntity
  8
1
100
AcDbLine
 10
1224.586090917062
 20
2477.893722559705
 30
0.0
 11
1223.086090917062
 21
2477.893722559705
 31
0.0
  0
LINE
  5
93A8
330
19
100
AcDbEntity
  8
1
100
AcDbLine
 10
1191.086090917062
 20
2477.893722559705
 30
0.0
 11
1191.086090917062
 21
2447.893722559703
 31
0.0
  0
LINE
  5
93A9
330
19
100
AcDbEntity
  8
1
100
AcDbLine
 10
1191.086090917062
 20
2477.893722559705
 30
0.0
 11
1189.586090917062
 21
2477.893722559705
 31
0.0
  0
LINE
  5
93AA
330
19
100
AcDbEntity
  8
1
100
AcDbLine
 10
827.5685835547665
 20
2788.893722559708
 30
0.0
 11
827.5685835547811
 21
2493.893722559705
 31
0.0
  0
LINE
  5
93AB
330
19
100
AcDbEntity
  8
1
100
AcDbLine
 10
827.5685835547811
 20
2493.893722559705
 30
0.0
 11
626.7685835547744
 21
2493.893722559705
 31
0.0
  0
LINE
  5
93AC
330
19
100
AcDbEntity
  8
1
100
AcDbLine
 10
816.7685835547745
 20
2447.893722559703
 30
0.0
 11
636.7685835547745
 21
2447.893722559703
 31
0.0
  0
LINE
  5
93AD
330
19
100
AcDbEntity
  8
1
100
AcDbLine
 10
816.7685835547745
 20
2397.893722559707
 30
0.0
 11
636.7685835547745
 21
2397.893722559707
 31
0.0
  0
LINE
  5
93AE
330
19
100
AcDbEntity
  8
1
100
AcDbLine
 10
816.7685835547745
 20
2397.893722559707
 30
0.0
 11
816.7685835547745
 21
2447.893722559703
 31
0.0
  0
LINE
  5
93AF
330
19
100
AcDbEntity
  8
1
100
AcDbLine
 10
636.7685835547745
 20
2397.893722559707
 30
0.0
 11
636.7685835547745
 21
2447.893722559703
 31
0.0
  0
LINE
  5
93B0
330
19
100
AcDbEntity
  8
1
100
AcDbLine
 10
766.7685835547745
 20
2493.893722559705
 30
0.0
 11
766.7685835547745
 21
2490.893722559705
 31
0.0
  0
LINE
  5
93B1
330
19
100
AcDbEntity
  8
1
100
AcDbLine
 10
740.7685835547745
 20
2482.893722559708
 30
0.0
 11
740.7685835547745
 21
2447.893722559707
 31
0.0
  0
LINE
  5
93B2
330
19
100
AcDbEntity
  8
1
100
AcDbLine
 10
741.3685835547839
 20
2487.893722559705
 30
0.0
 11
741.3685835547839
 21
2482.893722559708
 31
0.0
  0
LINE
  5
93B3
330
19
100
AcDbEntity
  8
1
100
AcDbLine
 10
712.7685835547745
 20
2482.893722559708
 30
0.0
 11
712.7685835547745
 21
2447.893722559707
 31
0.0
  0
LINE
  5
93B4
330
19
100
AcDbEntity
  8
1
100
AcDbLine
 10
712.1686835547843
 20
2487.893722559705
 30
0.0
 11
712.1686835547843
 21
2482.893722559708
 31
0.0
  0
LINE
  5
93B5
330
19
100
AcDbEntity
  8
1
100
AcDbLine
 10
741.3685835547839
 20
2482.893722559708
 30
0.0
 11
712.1686835547843
 21
2482.893722559708
 31
0.0
  0
LINE
  5
93B6
330
19
100
AcDbEntity
  8
1
100
AcDbLine
 10
686.7685835547745
 20
2493.893722559705
 30
0.0
 11
686.7685835547745
 21
2490.893722559705
 31
0.0
  0
ARC
  5
93B7
330
19
100
AcDbEntity
  8
1
100
AcDbCircle
 10
689.7685835547745
 20
2490.893722559705
 30
0.0
 40
2.999899999999998
100
AcDbArc
 50
179.9987999999833
 51
270.0011999999124
  0
LINE
  5
93B8
330
19
100
AcDbEntity
  8
1
100
AcDbLine
 10
689.7685835547745
 20
2487.893722559705
 30
0.0
 11
763.7685835547745
 21
2487.893722559705
 31
0.0
  0
ARC
  5
93B9
330
19
100
AcDbEntity
  8
1
100
AcDbCircle
 10
763.768683554772
 20
2490.893722559705
 30
0.0
 40
2.999899999999998
100
AcDbArc
 50
269.9988000000876
 51
0.0012000000166386
  0
LINE
  5
93BA
330
19
100
AcDbEntity
  8
1
100
AcDbLine
 10
626.7685835547744
 20
2788.893722559708
 30
0.0
 11
827.5685835547811
 21
2788.893722559708
 31
0.0
  0
LINE
  5
93BB
330
19
100
AcDbEntity
  8
1
100
AcDbLine
 10
626.7685835547744
 20
2493.893722559705
 30
0.0
 11
626.7685835547744
 21
2788.893722559705
 31
0.0
  0
LINE
  5
93BC
330
19
100
AcDbEntity
  8
1
100
AcDbLine
 10
1307.086090917062
 20
2479.893722559703
 30
0.0
 11
602.3759476104824
 21
2479.893722559703
 31
0.0
  0
LINE
  5
93BD
330
19
100
AcDbEntity
  8
1
100
AcDbLine
 10
1307.086090917062
 20
2357.893722559703
 30
0.0
 11
602.3759476104824
 21
2357.893722559707
 31
0.0
  0
LINE
  5
93BE
330
19
100
AcDbEntity
  8
1
100
AcDbLine
 10
1307.086090917062
 20
2357.893722559703
 30
0.0
 11
1307.086090917062
 21
2479.893722559703
 31
0.0
  0
LINE
  5
93BF
330
19
100
AcDbEntity
  8
1
100
AcDbLine
 10
602.3759476104824
 20
2357.893722559707
 30
0.0
 11
602.3759476104824
 21
2479.893722559708
 31
0.0
  0
DIMENSION
  5
9828
330
19
100
AcDbEntity
  8
3
100
AcDbDimension
  2
*D39
 10
2602.387694736093
 20
908.3299565435124
 30
0.0
 11
2294.887694736093
 21
945.8299565435124
 31
0.0
 70
    32
 71
     5
 42
615.0
  3
IGA
100
AcDbAlignedDimension
 13
1987.387694736093
 23
1011.060572212541
 33
0.0
 14
2602.387694736093
 24
993.7880713472766
 34
0.0
100
AcDbRotatedDimension
1001
ACAD
1000
DSTYLE
1002
{
1070
    40
1040
15.0
1070
   143
1040
0.039
1070
   172
1070
     1
1070
   271
1070
     0
1070
   279
1070
     0
1070
   288
1070
     1
1002
}
  0
DIMENSION
  5
9829
330
19
100
AcDbEntity
  8
3
100
AcDbDimension
  2
*D40
 10
1894.387694736093
 20
1962.460991666283
 30
0.0
 11
2248.387694736093
 21
2037.460991666283
 31
0.0
 70
    32
  1
MAX\P760
 71
     5
 42
708.0
  3
IGA
100
AcDbAlignedDimension
 13
2602.387694736093
 23
1923.286890354856
 33
0.0
 14
1894.387694736093
 24
1626.060572212543
 34
0.0
100
AcDbRotatedDimension
1001
ACAD
1000
DSTYLE
1002
{
1070
    40
1040
15.0
1070
   143
1040
0.039
1070
   172
1070
     1
1070
   271
1070
     0
1070
   279
1070
     0
1070
   288
1070
     1
1002
}
  0
LINE
  5
982A
330
19
100
AcDbEntity
  8
1
100
AcDbLine
 10
2767.387694736092
 20
1011.060572212541
 30
0.0
 11
1987.387694736093
 21
1011.060572212541
 31
0.0
  0
LINE
  5
982B
330
19
100
AcDbEntity
  8
1
100
AcDbLine
 10
2767.387694736092
 20
1086.060572212541
 30
0.0
 11
1987.387694736093
 21
1086.060572212541
 31
0.0
  0
LINE
  5
982C
330
19
100
AcDbEntity
  8
2
100
AcDbLine
 10
2637.261509733291
 20
1536.060572212541
 30
0.0
 11
1892.602064331217
 21
1536.060572212541
 31
0.0
  0
LINE
  5
982D
330
19
100
AcDbEntity
  8
1
100
AcDbLine
 10
2767.387694736092
 20
1181.060572212541
 30
0.0
 11
1987.387694736093
 21
1181.060572212541
 31
0.0
  0
LINE
  5
982E
330
19
100
AcDbEntity
  8
1
100
AcDbLine
 10
1987.387694736093
 20
1086.060572212541
 30
0.0
 11
1987.387694736093
 21
1011.060572212541
 31
0.0
  0
DIMENSION
  5
982F
330
19
100
AcDbEntity
  8
3
100
AcDbDimension
  2
*D41
 10
2875.567666278581
 20
1378.560572212541
 30
0.0
 11
2838.067666278581
 21
1536.060572212541
 31
0.0
 70
    32
 71
     5
 42
315.0
  3
IGA
100
AcDbAlignedDimension
 13
2748.387694736094
 23
1693.560572212541
 33
0.0
 14
2748.387694736094
 24
1378.560572212541
 34
0.0
 50
90.0
100
AcDbRotatedDimension
1001
ACAD
1000
DSTYLE
1002
{
1070
     3
1000
\U+03C6<>
1070
    40
1040
15.0
1070
   143
1040
0.039
1070
   172
1070
     1
1070
   271
1070
     0
1070
   279
1070
     0
1070
   288
1070
     1
1002
}
  0
LINE
  5
9830
330
19
100
AcDbEntity
  8
1
100
AcDbLine
 10
2767.387694736092
 20
1086.060572212541
 30
0.0
 11
2767.387694736092
 21
1011.060572212541
 31
0.0
  0
DIMENSION
  5
9831
330
19
100
AcDbEntity
  8
3
100
AcDbDimension
  2
*D42
 10
2602.387694736093
 20
1962.188448023424
 30
0.0
 11
2662.887694736093
 21
2003.071154063366
 31
0.0
 70
   160
 71
     5
 42
121.0
  3
IGA
100
AcDbAlignedDimension
 13
2723.387694736093
 23
1718.560572212541
 33
0.0
 14
2602.387694736093
 24
1923.286890354856
 34
0.0
100
AcDbRotatedDimension
1001
ACAD
1000
DSTYLE
1002
{
1070
   288
1070
     1
1070
   172
1070
     1
1070
    40
1040
15.0
1070
   271
1070
     0
1070
   143
1040
0.039
1002
}
  0
LINE
  5
9832
330
19
100
AcDbEntity
  8
2
100
AcDbLine
 10
2760.177983135256
 20
1536.060572212541
 30
0.0
 11
2688.585076845544
 21
1536.060572212541
 31
0.0
  0
DIMENSION
  5
9833
330
19
100
AcDbEntity
  8
3
100
AcDbDimension
  2
*D43
 10
2720.387694736093
 20
1860.664149665424
 30
0.0
 11
2586.173409021807
 21
1860.664149665424
 31
0.0
 70
   160
 71
     5
 42
236.0
  3
IGA
100
AcDbAlignedDimension
 13
2484.387694736093
 23
1786.060572212541
 33
0.0
 14
2720.387694736093
 24
1783.060572212541
 34
0.0
100
AcDbRotatedDimension
1001
ACAD
1000
DSTYLE
1002
{
1070
    40
1040
15.0
1070
   143
1040
0.039
1070
   172
1070
     1
1070
   271
1070
     0
1070
   279
1070
     0
1070
   288
1070
     1
1002
}
  0
LINE
  5
9834
330
19
100
AcDbEntity
  8
1
100
AcDbLine
 10
2482.387694736094
 20
1778.060572212541
 30
0.0
 11
2722.387694736093
 21
1778.060572212541
 31
0.0
  0
LINE
  5
9835
330
19
100
AcDbEntity
  8
1
100
AcDbLine
 10
2482.387694736094
 20
1756.060572212541
 30
0.0
 11
2722.887694736093
 21
1756.060572212541
 31
0.0
  0
LINE
  5
9836
330
19
100
AcDbEntity
  8
1
100
AcDbLine
 10
2482.387694736094
 20
1781.060572212541
 30
0.0
 11
2722.387694736093
 21
1781.060572212541
 31
0.0
  0
LWPOLYLINE
  5
9837
330
19
100
AcDbEntity
  8
1
100
AcDbPolyline
 90
        9
 70
     1
 43
0.0
 10
2482.387694736094
 20
1781.060572212541
 10
2457.387694736093
 20
1781.060572212541
 10
2457.387694736093
 20
1780.060572212541
 42
0.4142135623730951
 10
2459.387694736093
 20
1778.060572212541
 10
2475.387694736093
 20
1778.060572212541
 42
-0.4142135623730951
 10
2479.387694736093
 20
1774.060572212541
 10
2479.387694736093
 20
1758.060572212541
 42
0.4142135623730951
 10
2481.387694736093
 20
1756.060572212541
 10
2482.387694736094
 20
1756.060572212541
  0
LWPOLYLINE
  5
9838
330
19
100
AcDbEntity
  8
1
100
AcDbPolyline
 90
        9
 70
     1
 43
0.0
 10
2722.387694736093
 20
1781.060572212541
 10
2747.387694736093
 20
1781.060572212541
 10
2747.387694736093
 20
1780.060572212541
 42
-0.4142135623730951
 10
2745.387694736094
 20
1778.060572212541
 10
2729.387694736093
 20
1778.060572212541
 42
0.4142135623730951
 10
2725.387694736093
 20
1774.060572212541
 10
2725.387694736093
 20
1758.060572212541
 42
-0.4142135623730951
 10
2723.387694736093
 20
1756.060572212541
 10
2722.387694736093
 20
1756.060572212541
  0
LINE
  5
9839
330
19
100
AcDbEntity
  8
2
100
AcDbLine
 10
2602.387694736093
 20
1868.845612169257
 30
0.0
 11
2602.387694736093
 21
993.7880713472766
 31
0.0
  0
DIMENSION
  5
983A
330
19
100
AcDbEntity
  8
3
100
AcDbDimension
  2
*D44
 10
2767.387694736092
 20
907.9093119602426
 30
0.0
 11
2684.887694736092
 21
945.4093119602426
 31
0.0
 70
    32
 71
     5
 42
164.9999999999982
  3
IGA
100
AcDbAlignedDimension
 13
2602.387694736093
 23
993.7880713472766
 33
0.0
 14
2767.387694736092
 24
1011.060572212541
 34
0.0
100
AcDbRotatedDimension
1001
ACAD
1000
DSTYLE
1002
{
1070
    40
1040
15.0
1070
   143
1040
0.039
1070
   172
1070
     1
1070
   271
1070
     0
1070
   288
1070
     1
1002
}
  0
LINE
  5
983B
330
19
100
AcDbEntity
  8
1
100
AcDbLine
 10
2767.387694736093
 20
1256.060572212541
 30
0.0
 11
2767.387694736093
 21
1181.060572212541
 31
0.0
  0
LINE
  5
983C
330
19
100
AcDbEntity
  8
1
100
AcDbLine
 10
1987.387694736093
 20
1181.060572212541
 30
0.0
 11
1987.387694736093
 21
1256.060572212541
 31
0.0
  0
LINE
  5
983D
330
19
100
AcDbEntity
  8
1
100
AcDbLine
 10
2748.387694736094
 20
1377.560572212541
 30
0.0
 11
2748.387694736094
 21
1693.560572212543
 31
0.0
  0
LINE
  5
983E
330
19
100
AcDbEntity
  8
1
100
AcDbLine
 10
2726.387694736093
 20
1693.560572212543
 30
0.0
 11
2726.387694736093
 21
1371.560572212541
 31
0.0
  0
LINE
  5
983F
330
19
100
AcDbEntity
  8
1
100
AcDbLine
 10
2723.387694736093
 20
1718.560572212543
 30
0.0
 11
2723.387694736093
 21
1353.560572212541
 31
0.0
  0
LINE
  5
9840
330
19
100
AcDbEntity
  8
1
100
AcDbLine
 10
2722.387694736106
 20
1256.060572212541
 30
0.0
 11
2722.387694736106
 21
1756.060572212543
 31
0.0
  0
LINE
  5
9841
330
19
100
AcDbEntity
  8
1
100
AcDbLine
 10
2482.387694736094
 20
1756.060572212543
 30
0.0
 11
2482.387694736094
 21
1256.060572212541
 31
0.0
  0
LINE
  5
9842
330
19
100
AcDbEntity
  8
1
100
AcDbLine
 10
2484.387694736093
 20
1553.560572212545
 30
0.0
 11
2014.387694736093
 21
1553.560572212545
 31
0.0
  0
LINE
  5
9843
330
19
100
AcDbEntity
  8
2
100
AcDbLine
 10
2762.177983135249
 20
1536.060572212541
 30
0.0
 11
1879.146896347511
 21
1536.060572212541
 31
0.0
  0
LINE
  5
9844
330
19
100
AcDbEntity
  8
1
100
AcDbLine
 10
2484.387694736093
 20
1518.560572212541
 30
0.0
 11
2014.387694736093
 21
1518.560572212541
 31
0.0
  0
LINE
  5
9845
330
19
100
AcDbEntity
  8
1
100
AcDbLine
 10
2484.387694736093
 20
1482.460572212541
 30
0.0
 11
2025.187694736104
 21
1482.460572212541
 31
0.0
  0
LINE
  5
9846
330
19
100
AcDbEntity
  8
1
100
AcDbLine
 10
2767.387694736093
 20
1256.060572212541
 30
0.0
 11
2027.387694736093
 21
1256.060572212541
 31
0.0
  0
LINE
  5
9847
330
19
100
AcDbEntity
  8
1
100
AcDbLine
 10
1894.387694736093
 20
1626.060572212543
 30
0.0
 11
1894.387694736093
 21
1256.060572212541
 31
0.0
  0
LINE
  5
9849
330
19
100
AcDbEntity
  8
1
100
AcDbLine
 10
1934.387694736093
 20
1587.060572212543
 30
0.0
 11
1934.387694736093
 21
1306.060572212541
 31
0.0
  0
LINE
  5
984A
330
19
100
AcDbEntity
  8
1
100
AcDbLine
 10
1984.387694736093
 20
1587.060572212543
 30
0.0
 11
1984.387694736093
 21
1306.060572212541
 31
0.0
  0
LINE
  5
984B
330
19
100
AcDbEntity
  8
1
100
AcDbLine
 10
1894.387694736093
 20
1256.060572212541
 30
0.0
 11
2016.387694736093
 21
1256.060572212541
 31
0.0
  0
LINE
  5
984C
330
19
100
AcDbEntity
  8
2
100
AcDbLine
 10
1877.826506273673
 20
1396.060572212541
 30
0.0
 11
2044.078108544321
 21
1396.060572212541
 31
0.0
  0
LINE
  5
984D
330
19
100
AcDbEntity
  8
1
100
AcDbLine
 10
2016.387694736093
 20
1304.296133223229
 30
0.0
 11
2016.387694736093
 21
1256.060572212541
 31
0.0
  0
LINE
  5
984E
330
19
100
AcDbEntity
  8
1
100
AcDbLine
 10
1987.387694736093
 20
1256.060572212541
 30
0.0
 11
2027.387694736093
 21
1256.060572212541
 31
0.0
  0
LINE
  5
984F
330
19
100
AcDbEntity
  8
1
100
AcDbLine
 10
1934.387694736093
 20
1306.060572212541
 30
0.0
 11
1984.387694736093
 21
1306.060572212541
 31
0.0
  0
LINE
  5
9850
330
19
100
AcDbEntity
  8
1
100
AcDbLine
 10
1934.387694736093
 20
1485.349705837792
 30
0.0
 11
1984.387694736093
 21
1485.349705837792
 31
0.0
  0
LINE
  5
9851
330
19
100
AcDbEntity
  8
1
100
AcDbLine
 10
1934.387694736093
 20
1445.060572212541
 30
0.0
 11
1984.387694736093
 21
1445.060572212541
 31
0.0
  0
LINE
  5
9852
330
19
100
AcDbEntity
  8
1
100
AcDbLine
 10
1894.387694736093
 20
1626.060572212543
 30
0.0
 11
2016.387694736093
 21
1626.060572212543
 31
0.0
  0
LINE
  5
9853
330
19
100
AcDbEntity
  8
1
100
AcDbLine
 10
2014.387694736093
 20
1520.060572212541
 30
0.0
 11
1984.387694736093
 21
1520.060572212541
 31
0.0
  0
LINE
  5
9854
330
19
100
AcDbEntity
  8
1
100
AcDbLine
 10
2014.387694736093
 20
1552.060572212545
 30
0.0
 11
1984.387694736093
 21
1552.060572212545
 31
0.0
  0
LINE
  5
9855
330
19
100
AcDbEntity
  8
1
100
AcDbLine
 10
2014.387694736093
 20
1553.560572212545
 30
0.0
 11
2014.387694736093
 21
1518.560572212541
 31
0.0
  0
LINE
  5
9856
330
19
100
AcDbEntity
  8
1
100
AcDbLine
 10
2016.387694736093
 20
1626.060572212543
 30
0.0
 11
2016.387694736093
 21
1581.22706583252
 31
0.0
  0
LINE
  5
9857
330
19
100
AcDbEntity
  8
1
100
AcDbLine
 10
1934.387694736093
 20
1587.060572212543
 30
0.0
 11
1984.387694736093
 21
1587.060572212543
 31
0.0
  0
LINE
  5
9858
330
19
100
AcDbEntity
  8
1
100
AcDbLine
 10
2746.387694736093
 20
1375.560572212541
 30
0.0
 11
2730.387694736093
 21
1375.560572212541
 31
0.0
  0
LINE
  5
9859
330
19
100
AcDbEntity
  8
1
100
AcDbLine
 10
2723.387694736093
 20
1378.560572212541
 30
0.0
 11
2748.387694736094
 21
1378.560572212541
 31
0.0
  0
ARC
  5
985A
330
19
100
AcDbEntity
  8
1
100
AcDbCircle
 10
2730.387694736093
 20
1371.560572212541
 30
0.0
 40
4.0
100
AcDbArc
 50
90.0
 51
180.0
  0
ARC
  5
985B
330
19
100
AcDbEntity
  8
1
100
AcDbCircle
 10
2724.387694736093
 20
1355.560572212545
 30
0.0
 40
2.0
100
AcDbArc
 50
270.0
 51
0.0
  0
LINE
  5
985C
330
19
100
AcDbEntity
  8
1
100
AcDbLine
 10
2724.387694736093
 20
1353.560572212541
 30
0.0
 11
2723.387694736093
 21
1353.560572212541
 31
0.0
  0
LINE
  5
985D
330
19
100
AcDbEntity
  8
1
100
AcDbLine
 10
2726.387694736093
 20
1371.560572212541
 30
0.0
 11
2726.387694736093
 21
1355.560572212545
 31
0.0
  0
ARC
  5
985E
330
19
100
AcDbEntity
  8
1
100
AcDbCircle
 10
2746.387694736093
 20
1377.560572212541
 30
0.0
 40
2.0
100
AcDbArc
 50
270.0
 51
0.0
  0
LINE
  5
985F
330
19
100
AcDbEntity
  8
1
100
AcDbLine
 10
2748.387694736094
 20
1378.560572212541
 30
0.0
 11
2748.387694736094
 21
1377.560572212541
 31
0.0
  0
LINE
  5
9860
330
19
100
AcDbEntity
  8
1
100
AcDbLine
 10
2723.387694736093
 20
1353.560572212541
 30
0.0
 11
2720.387694736108
 21
1353.560572212541
 31
0.0
  0
LINE
  5
9861
330
19
100
AcDbEntity
  8
1
100
AcDbLine
 10
2723.387694736093
 20
1718.560572212543
 30
0.0
 11
2722.387694736106
 21
1718.560572212543
 31
0.0
  0
LINE
  5
9862
330
19
100
AcDbEntity
  8
1
100
AcDbLine
 10
2746.387694736093
 20
1696.560572212543
 30
0.0
 11
2730.387694736093
 21
1696.560572212543
 31
0.0
  0
LINE
  5
9863
330
19
100
AcDbEntity
  8
1
100
AcDbLine
 10
2723.387694736093
 20
1693.560572212543
 30
0.0
 11
2748.387694736094
 21
1693.560572212543
 31
0.0
  0
ARC
  5
9864
330
19
100
AcDbEntity
  8
1
100
AcDbCircle
 10
2730.387694736093
 20
1700.560572212543
 30
0.0
 40
4.0
100
AcDbArc
 50
180.0
 51
270.0
  0
ARC
  5
9865
330
19
100
AcDbEntity
  8
1
100
AcDbCircle
 10
2724.387694736093
 20
1716.560572212543
 30
0.0
 40
2.0
100
AcDbArc
 50
0.0
 51
90.0
  0
LINE
  5
9866
330
19
100
AcDbEntity
  8
1
100
AcDbLine
 10
2724.387694736093
 20
1718.560572212543
 30
0.0
 11
2723.387694736093
 21
1718.560572212543
 31
0.0
  0
LINE
  5
9867
330
19
100
AcDbEntity
  8
1
100
AcDbLine
 10
2726.387694736093
 20
1700.560572212543
 30
0.0
 11
2726.387694736093
 21
1716.560572212543
 31
0.0
  0
ARC
  5
9868
330
19
100
AcDbEntity
  8
1
100
AcDbCircle
 10
2746.387694736093
 20
1694.560572212543
 30
0.0
 40
2.0
100
AcDbArc
 50
0.0
 51
90.0
  0
LINE
  5
9869
330
19
100
AcDbEntity
  8
1
100
AcDbLine
 10
2748.387694736094
 20
1693.560572212543
 30
0.0
 11
2748.387694736094
 21
1694.560572212543
 31
0.0
  0
LINE
  5
986A
330
19
100
AcDbEntity
  8
1
100
AcDbLine
 10
2325.387694736108
 20
1496.060572212535
 30
0.0
 11
2325.387694736108
 21
1482.46057221254
 31
0.0
  0
LINE
  5
986C
330
19
100
AcDbEntity
  8
1
100
AcDbLine
 10
2325.387694736108
 20
1496.060572212535
 30
0.0
 11
2030.387694736093
 21
1496.060572212535
 31
0.0
  0
LINE
  5
986D
330
19
100
AcDbEntity
  8
1
100
AcDbLine
 10
2024.387694736108
 20
1433.060572212541
 30
0.0
 11
2024.387694736108
 21
1359.060572212541
 31
0.0
  0
LINE
  5
986E
330
19
100
AcDbEntity
  8
1
100
AcDbLine
 10
2019.387694736093
 20
1381.460572212535
 30
0.0
 11
2019.387694736093
 21
1410.660472212536
 31
0.0
  0
ARC
  5
986F
330
19
100
AcDbEntity
  8
1
100
AcDbCircle
 10
2027.387694736108
 20
1359.060472212538
 30
0.0
 40
2.999899999999998
100
AcDbArc
 50
179.9988000000876
 51
222.8313679086556
  0
LINE
  5
9870
330
19
100
AcDbEntity
  8
1
100
AcDbLine
 10
2024.387694736108
 20
1381.460572212535
 30
0.0
 11
2019.387694736093
 21
1381.460572212535
 31
0.0
  0
ARC
  5
9872
330
19
100
AcDbEntity
  8
1
100
AcDbCircle
 10
2027.387694736108
 20
1433.060572212541
 30
0.0
 40
2.999899999999998
100
AcDbArc
 50
137.1686320913444
 51
180.0011999999124
  0
LINE
  5
9874
330
19
100
AcDbEntity
  8
1
100
AcDbLine
 10
2024.387694736108
 20
1410.660472212536
 30
0.0
 11
2019.387694736093
 21
1410.660472212536
 31
0.0
  0
LINE
  5
9875
330
19
100
AcDbEntity
  8
1
100
AcDbLine
 10
2019.387694736093
 20
1382.060572212541
 30
0.0
 11
1984.387694736093
 21
1382.060572212541
 31
0.0
  0
LINE
  5
9876
330
19
100
AcDbEntity
  8
1
100
AcDbLine
 10
2019.387694736093
 20
1410.060572212541
 30
0.0
 11
1984.387694736093
 21
1410.060572212541
 31
0.0
  0
LINE
  5
9877
330
19
100
AcDbEntity
  8
1
100
AcDbLine
 10
2030.387694736094
 20
1482.46057221254
 30
0.0
 11
2030.387694736093
 21
1496.060572212535
 31
0.0
  0
LINE
  5
9879
330
19
100
AcDbEntity
  8
1
100
AcDbLine
 10
2025.187694736089
 20
1482.460572212541
 30
0.0
 11
2025.187694736089
 21
1256.060572212541
 31
0.0
  0
DIMENSION
  5
9EB7
330
19
100
AcDbEntity
  8
3
100
AcDbDimension
  2
*D45
 10
1560.414599012013
 20
2450.893722559704
 30
0.0
 11
1560.414599012013
 21
2840.893722559705
 31
0.0
 70
   160
 71
     5
 42
780.0000000000009
  3
IGA
100
AcDbAlignedDimension
 13
1387.08609091706
 23
3230.893722559705
 33
0.0
 14
1387.08609091706
 24
2450.893722559704
 34
0.0
 50
90.0
100
AcDbRotatedDimension
1001
ACAD
1000
DSTYLE
1002
{
1070
    40
1040
15.0
1070
   143
1040
0.039
1070
   172
1070
     1
1070
   271
1070
     0
1070
   279
1070
     0
1070
   288
1070
     1
1002
}
  0
ARC
  5
9EE5
330
19
100
AcDbEntity
  8
1
100
AcDbCircle
 10
1207.08609091706
 20
1536.060572212541
 30
0.0
 40
100.0
100
AcDbArc
 50
290.9245891434864
 51
99.38354695714622
  0
LINE
  5
9EE6
330
19
100
AcDbEntity
  8
1
100
AcDbLine
 10
1242.799980023262
 20
1442.655443205029
 30
0.0
 11
780.6569245763628
 21
1265.952878701273
 31
0.0
  0
ARC
  5
9EE7
330
19
100
AcDbEntity
  8
1
100
AcDbCircle
 10
727.0860909170612
 20
1406.060572212541
 30
0.0
 40
150.0
100
AcDbArc
 50
99.38354695714622
 51
290.9245891434864
  0
LINE
  5
9EE8
330
19
100
AcDbEntity
  8
1
100
AcDbLine
 10
1190.781825749396
 20
1634.722474370073
 30
0.0
 11
702.6296931655636
 21
1554.053425448838
 31
0.0
  0
ENDSEC
  0
SECTION
  2
OBJECTS
  0
DICTIONARY
  5
C
330
0
100
AcDbDictionary
281
     1
  3
ACAD_CIP_PREVIOUS_PRODUCT_INFO
350
850C
  3
ACAD_COLOR
350
84EF
  3
ACAD_DETAILVIEWSTYLE
350
8508
  3
ACAD_GROUP
350
D
  3
ACAD_LAYOUT
350
84AF
  3
ACAD_MATERIAL
350
84BD
  3
ACAD_MLEADERSTYLE
350
8504
  3
ACAD_MLINESTYLE
350
E
  3
ACAD_PLOTSETTINGS
350
84B0
  3
ACAD_PLOTSTYLENAME
350
84AD
  3
ACAD_SCALELIST
350
84F2
  3
ACAD_SECTIONVIEWSTYLE
350
8506
  3
ACAD_TABLESTYLE
350
84F0
  3
ACAD_VISUALSTYLE
350
84D6
  3
ACDB_RECOMPOSE_DATA
350
9F01
  3
AcDbVariableDictionary
350
851D
  3
AcDsDecomposeData
350
9F08
  3
DWGPROPS
350
9F02
  0
DICTIONARY
  5
861F
330
2
100
AcDbDictionary
280
     1
281
     1
  3
ACAD_LAYERSTATES
360
8620
  0
DICTIONARY
  5
850D
330
F
100
AcDbDictionary
280
     1
281
     1
  3
ADSK_XREC_LAYER_RECONCILED
360
850E
  0
DICTIONARY
  5
850F
330
31
100
AcDbDictionary
280
     1
281
     1
  3
ADSK_XREC_LAYER_RECONCILED
360
8510
  0
DICTIONARY
  5
8511
330
76D0
100
AcDbDictionary
280
     1
281
     1
  3
ADSK_XREC_LAYER_RECONCILED
360
8512
  0
DICTIONARY
  5
8513
330
76D1
100
AcDbDictionary
280
     1
281
     1
  3
ADSK_XREC_LAYER_RECONCILED
360
8514
  0
DICTIONARY
  5
8515
330
76D2
100
AcDbDictionary
280
     1
281
     1
  3
ADSK_XREC_LAYER_RECONCILED
360
8516
  0
DICTIONARY
  5
8858
330
19
100
AcDbDictionary
280
     1
281
     1
  3
ACAD_SORTENTS
360
8859
  0
DICTIONARY
  5
9F48
330
8641
100
AcDbDictionary
280
     1
281
     1
  3
ACAD_XREC_ROUNDTRIP
360
9F49
  0
XRECORD
  5
850C
102
{ACAD_REACTORS
330
C
102
}
330
C
100
AcDbXrecord
280
     1
300
ACDLT
300
2015
300
INVLTS_F_S
  0
DICTIONARY
  5
84EF
102
{ACAD_REACTORS
330
C
102
}
330
C
100
AcDbDictionary
281
     1
  0
DICTIONARY
  5
8508
102
{ACAD_REACTORS
330
C
102
}
330
C
100
AcDbDictionary
281
     1
  3
Imperial24
350
9EDC
  3
Metric50
350
8509
  0
DICTIONARY
  5
D
102
{ACAD_REACTORS
330
C
102
}
330
C
100
AcDbDictionary
281
     1
  0
DICTIONARY
  5
84AF
102
{ACAD_REACTORS
330
C
102
}
330
C
100
AcDbDictionary
281
     1
  3
Model
350
84B1
  3
ﾚｲｱｳﾄ1
350
84B2
  0
DICTIONARY
  5
84BD
102
{ACAD_REACTORS
330
C
102
}
330
C
100
AcDbDictionary
281
     1
  3
ByBlock
350
84C6
  3
ByLayer
350
84BE
  3
Global
350
84CE
  0
DICTIONARY
  5
8504
102
{ACAD_REACTORS
330
C
102
}
330
C
100
AcDbDictionary
281
     1
  3
Standard
350
8505
  0
DICTIONARY
  5
E
102
{ACAD_REACTORS
330
C
102
}
330
C
100
AcDbDictionary
281
     1
  3
STANDARD
350
1C
  0
DICTIONARY
  5
84B0
102
{ACAD_REACTORS
330
C
102
}
330
C
100
AcDbDictionary
281
     1
  0
ACDBDICTIONARYWDFLT
  5
84AD
102
{ACAD_REACTORS
330
C
102
}
330
C
100
AcDbDictionary
281
     1
  3
Normal
350
84AE
100
AcDbDictionaryWithDefault
340
84AE
  0
DICTIONARY
  5
84F2
102
{ACAD_REACTORS
330
C
102
}
330
C
100
AcDbDictionary
281
     1
  3
A0
350
84F3
  3
A1
350
84F4
  3
A2
350
84F5
  3
A3
350
84F6
  3
A4
350
84F7
  3
A5
350
84F8
  3
A6
350
84F9
  3
A7
350
84FA
  3
A8
350
84FB
  3
A9
350
84FC
  3
B0
350
84FD
  3
B1
350
84FE
  3
B2
350
84FF
  3
B3
350
8500
  3
B4
350
8501
  3
B5
350
8502
  3
B6
350
8503
  0
DICTIONARY
  5
8506
102
{ACAD_REACTORS
330
C
102
}
330
C
100
AcDbDictionary
281
     1
  3
Imperial24
350
9EDB
  3
Metric50
350
8507
  0
DICTIONARY
  5
84F0
102
{ACAD_REACTORS
330
C
102
}
330
C
100
AcDbDictionary
281
     1
  3
Standard
350
84F1
  0
DICTIONARY
  5
84D6
102
{ACAD_REACTORS
330
C
102
}
330
C
100
AcDbDictionary
281
     1
  3
2dWireframe
350
84DC
  3
Basic
350
84DB
  3
Brighten
350
84E2
  3
ColorChange
350
84E6
  3
Conceptual
350
84DF
  3
Dim
350
84E1
  3
EdgeColorOff
350
84EE
  3
Facepattern
350
84E5
  3
Flat
350
84D7
  3
FlatWithEdges
350
84D8
  3
Gouraud
350
84D9
  3
GouraudWithEdges
350
84DA
  3
Hidden
350
84DE
  3
JitterOff
350
84EC
  3
Linepattern
350
84E4
  3
OverhangOff
350
84ED
  3
Realistic
350
84E0
  3
Shaded
350
84EB
  3
Shaded with edges
350
84EA
  3
Shades of Gray
350
84E7
  3
Sketchy
350
84E8
  3
Thicken
350
84E3
  3
Wireframe
350
84DD
  3
X-Ray
350
84E9
  0
XRECORD
  5
9F01
102
{ACAD_REACTORS
330
C
102
}
330
C
100
AcDbXrecord
280
     1
 90
        1
330
84F1
  0
DICTIONARY
  5
851D
102
{ACAD_REACTORS
330
C
102
}
330
C
100
AcDbDictionary
281
     1
  3
CANNOSCALE
350
8523
  3
CMLEADERSTYLE
350
851F
  3
CTABLESTYLE
350
851E
  3
CVIEWDETAILSTYLE
350
8520
  3
CVIEWSECTIONSTYLE
350
8521
  3
DIMASSOC
350
9EFD
  3
INDEXCTL
350
9EFC
  3
LAYEREVAL
350
8525
  3
LAYERNOTIFY
350
8526
  3
LIGHTINGUNITS
350
8524
  3
MSLTSCALE
350
8522
  3
SORTENTS
350
9EFB
  3
XCLIPFRAME
350
9EFE
  0
DICTIONARY
  5
9F08
102
{ACAD_REACTORS
330
C
102
}
330
C
100
AcDbDictionary
281
     1
  3
AcDsRecords
350
9F0A
  3
AcDsSchemas
350
9F09
1001
ACAD
1070
     2
  0
XRECORD
  5
9F02
102
{ACAD_REACTORS
330
C
102
}
330
C
100
AcDbXrecord
280
     1
  1
DWGPROPS COOKIE
  2

  3

  4

  6

  7

  8
miho.otawara
  9

300
=
301
=
302
=
303
=
304
=
305
=
306
=
307
=
308
=
309
=
 40
0.1657682407407407
 41
2451019.499692246
 42
2459605.795429178
  1

 90
        0
  0
DICTIONARY
  5
8620
102
{ACAD_REACTORS
330
861F
102
}
330
861F
100
AcDbDictionary
281
     1
  0
XRECORD
  5
850E
102
{ACAD_REACTORS
330
850D
102
}
330
850D
100
AcDbXrecord
280
     1
290
     1
  0
XRECORD
  5
8510
102
{ACAD_REACTORS
330
850F
102
}
330
850F
100
AcDbXrecord
280
     1
290
     1
  0
XRECORD
  5
8512
102
{ACAD_REACTORS
330
8511
102
}
330
8511
100
AcDbXrecord
280
     1
290
     1
  0
XRECORD
  5
8514
102
{ACAD_REACTORS
330
8513
102
}
330
8513
100
AcDbXrecord
280
     1
290
     1
  0
XRECORD
  5
8516
102
{ACAD_REACTORS
330
8515
102
}
330
8515
100
AcDbXrecord
280
     1
290
     1
  0
SORTENTSTABLE
  5
8859
102
{ACAD_REACTORS
330
8858
102
}
330
8858
100
AcDbSortentsTable
330
19
331
80F0
  5
80F1
331
80F2
  5
80F3
331
80E1
  5
80E2
331
80E3
  5
80E4
331
80F4
  5
80F5
331
80F6
  5
80F7
331
80E5
  5
80E7
331
80E7
  5
80E8
331
80F8
  5
80F9
331
80E9
  5
80EA
331
80EB
  5
80EC
331
80ED
  5
80EE
331
80DC
  5
80DD
331
80EF
  5
80F0
331
80F1
  5
80F2
331
80E0
  5
80E1
331
80E2
  5
80E3
331
80F3
  5
80F4
331
80F5
  5
80F6
331
80E4
  5
80E5
331
80F7
  5
80F8
331
80F9
  5
8256
331
80E8
  5
80E9
331
80EA
  5
80EB
331
80DB
  5
80DC
331
80EC
  5
80ED
331
80EE
  5
80EF
331
80DD
  5
80E0
  0
XRECORD
  5
9F49
102
{ACAD_REACTORS
330
9F48
102
}
330
9F48
100
AcDbXrecord
280
     1
102
ACAD_ROUNDTRIP_2012_MLEADER
295
     1
  0
ACDBDETAILVIEWSTYLE
  5
9EDC
102
{ACAD_XDICTIONARY
360
9EF4
102
}
102
{ACAD_REACTORS
330
8508
102
}
330
8508
100
AcDbModelDocViewStyle
 70
     0
  3
Imperial24
290
     0
100
AcDbDetailViewStyle
 70
     0
 71
     0
 90
        3
 71
     1
340
10
 40
0.24
340
0
 40
0.24
300

 40
0.36
280
     3
 71
     2
340
15
 90
       25
 71
     3
340
10
 40
0.24
 90
        1
 40
0.75
 90
        1
300
%<\AcVar ViewType \f "%tc1">% %<\AcVar ViewDetailId>%\PSCALE %<\AcVar ViewScale \f "%sn">%
 71
     4
340
15
 90
       25
340
15
 90
       25
280
     0
  0
ACDBDETAILVIEWSTYLE
  5
8509
102
{ACAD_XDICTIONARY
360
851A
102
}
102
{ACAD_REACTORS
330
8508
102
}
330
8508
100
AcDbModelDocViewStyle
 70
     0
  3
Metric50
290
     0
100
AcDbDetailViewStyle
 70
     0
 71
     0
 90
        3
 71
     1
340
10
 40
5.0
340
0
 40
5.0
300

 40
0.0
280
     1
 71
     2
340
15
 90
       25
 71
     3
340
10
 40
5.0
 90
        0
 40
15.0
 90
        1
300
%<\AcVar ViewDetailId>% (%<\AcVar ViewScale \f "%sn">%)
 71
     4
340
15
 90
       25
340
15
 90
       25
280
     0
  0
LAYOUT
  5
84B1
102
{ACAD_XDICTIONARY
360
9F0B
102
}
102
{ACAD_REACTORS
330
84AF
102
}
330
84AF
100
AcDbPlotSettings
  1

  2
RICOH MP 7503 JPN RPCS
  4
A4
  6

 40
5.873749732971191
 41
5.873748779296875
 42
5.873733520507812
 43
5.873748779296875
 44
209.9733276367187
 45
296.9259948730469
 46
-5.899895582363058
 47
-4.928757263368424
 48
0.0
 49
0.0
140
0.0
141
0.0
142
1.0
143
15.0
 70
 11940
 72
     1
 73
     0
 74
     1
  7
monochrome.ctb
 75
     0
147
0.0264374506397495
148
0.1922519409645247
149
0.2700682027843868
100
AcDbLayout
  1
Model
 70
     1
 71
     0
 10
0.0
 20
0.0
 11
12.0
 21
9.0
 12
0.0
 22
0.0
 32
0.0
 14
0.0
 24
0.0
 34
0.0
 15
0.0
 25
0.0
 35
0.0
146
0.0
 13
0.0
 23
0.0
 33
0.0
 16
1.0
 26
0.0
 36
0.0
 17
0.0
 27
1.0
 37
0.0
 76
     0
330
19
331
84BB
1001
ACAD_PSEXT
1000
RICOH MP 7503 JPN RPCS
1000
RICOH MP 7503 JPN RPCS
1000
IP_192.168.7.16
1000
RPCS Driver (For Windows)
1070
     0
  0
LAYOUT
  5
84B2
102
{ACAD_XDICTIONARY
360
9F0D
102
}
102
{ACAD_REACTORS
330
84AF
102
}
330
84AF
100
AcDbPlotSettings
  1

  2
EPSON LP-9300
  4

  6

 40
0.0
 41
0.0
 42
0.0
 43
0.0
 44
0.0
 45
0.0
 46
0.0
 47
0.0
 48
0.0
 49
0.0
140
0.0
141
0.0
142
1.0
143
1.0
 70
   688
 72
     0
 73
     0
 74
     5
  7
monochrome.ctb
 75
    16
147
1.0
148
0.0
149
0.0
100
AcDbLayout
  1
ﾚｲｱｳﾄ1
 70
     1
 71
     1
 10
0.0
 20
0.0
 11
12.0
 21
9.0
 12
0.0
 22
0.0
 32
0.0
 14
1.000000000000000E+20
 24
1.000000000000000E+20
 34
1.000000000000000E+20
 15
-1.000000000000000E+20
 25
-1.000000000000000E+20
 35
-1.000000000000000E+20
146
0.0
 13
0.0
 23
0.0
 33
0.0
 16
1.0
 26
0.0
 36
0.0
 17
0.0
 27
1.0
 37
0.0
 76
     0
330
16
  0
MATERIAL
  5
84C6
102
{ACAD_XDICTIONARY
360
84C7
102
}
102
{ACAD_REACTORS
330
84BD
102
}
330
84BD
100
AcDbMaterial
  1
ByBlock
 72
     0
 43
0.0208333333333333
 43
0.0
 43
0.0
 43
0.0
 43
0.0
 43
0.0208333333333333
 43
0.0
 43
0.0
 43
0.0
 43
0.0
 43
1.0
 43
0.0
 43
0.0
 43
0.0
 43
0.0
 43
1.0
 77
     0
 47
0.0208333333333333
 47
0.0
 47
0.0
 47
0.0
 47
0.0
 47
0.0208333333333333
 47
0.0
 47
0.0
 47
0.0
 47
0.0
 47
1.0
 47
0.0
 47
0.0
 47
0.0
 47
0.0
 47
1.0
171
     0
 49
0.0208333333333333
 49
0.0
 49
0.0
 49
0.0
 49
0.0
 49
0.0208333333333333
 49
0.0
 49
0.0
 49
0.0
 49
0.0
 49
1.0
 49
0.0
 49
0.0
 49
0.0
 49
0.0
 49
1.0
175
     0
142
0.0208333333333333
142
0.0
142
0.0
142
0.0
142
0.0
142
0.0208333333333333
142
0.0
142
0.0
142
0.0
142
0.0
142
1.0
142
0.0
142
0.0
142
0.0
142
0.0
142
1.0
179
     0
144
0.0208333333333333
144
0.0
144
0.0
144
0.0
144
0.0
144
0.0208333333333333
144
0.0
144
0.0
144
0.0
144
0.0
144
1.0
144
0.0
144
0.0
144
0.0
144
0.0
144
1.0
147
0.0208333333333333
147
0.0
147
0.0
147
0.0
147
0.0
147
0.0208333333333333
147
0.0
147
0.0
147
0.0
147
0.0
147
1.0
147
0.0
147
0.0
147
0.0
147
0.0
147
1.0
  0
MATERIAL
  5
84BE
102
{ACAD_XDICTIONARY
360
84BF
102
}
102
{ACAD_REACTORS
330
84BD
102
}
330
84BD
100
AcDbMaterial
  1
ByLayer
 72
     0
 43
0.0208333333333333
 43
0.0
 43
0.0
 43
0.0
 43
0.0
 43
0.0208333333333333
 43
0.0
 43
0.0
 43
0.0
 43
0.0
 43
1.0
 43
0.0
 43
0.0
 43
0.0
 43
0.0
 43
1.0
 77
     0
 47
0.0208333333333333
 47
0.0
 47
0.0
 47
0.0
 47
0.0
 47
0.0208333333333333
 47
0.0
 47
0.0
 47
0.0
 47
0.0
 47
1.0
 47
0.0
 47
0.0
 47
0.0
 47
0.0
 47
1.0
171
     0
 49
0.0208333333333333
 49
0.0
 49
0.0
 49
0.0
 49
0.0
 49
0.0208333333333333
 49
0.0
 49
0.0
 49
0.0
 49
0.0
 49
1.0
 49
0.0
 49
0.0
 49
0.0
 49
0.0
 49
1.0
175
     0
142
0.0208333333333333
142
0.0
142
0.0
142
0.0
142
0.0
142
0.0208333333333333
142
0.0
142
0.0
142
0.0
142
0.0
142
1.0
142
0.0
142
0.0
142
0.0
142
0.0
142
1.0
179
     0
144
0.0208333333333333
144
0.0
144
0.0
144
0.0
144
0.0
144
0.0208333333333333
144
0.0
144
0.0
144
0.0
144
0.0
144
1.0
144
0.0
144
0.0
144
0.0
144
0.0
144
1.0
147
0.0208333333333333
147
0.0
147
0.0
147
0.0
147
0.0
147
0.0208333333333333
147
0.0
147
0.0
147
0.0
147
0.0
147
1.0
147
0.0
147
0.0
147
0.0
147
0.0
147
1.0
  0
MATERIAL
  5
84CE
102
{ACAD_XDICTIONARY
360
84CF
102
}
102
{ACAD_REACTORS
330
84BD
102
}
330
84BD
100
AcDbMaterial
  1
Global
 72
     0
 43
0.0208333333333333
 43
0.0
 43
0.0
 43
0.0
 43
0.0
 43
0.0208333333333333
 43
0.0
 43
0.0
 43
0.0
 43
0.0
 43
1.0
 43
0.0
 43
0.0
 43
0.0
 43
0.0
 43
1.0
 77
     0
 47
0.0208333333333333
 47
0.0
 47
0.0
 47
0.0
 47
0.0
 47
0.0208333333333333
 47
0.0
 47
0.0
 47
0.0
 47
0.0
 47
1.0
 47
0.0
 47
0.0
 47
0.0
 47
0.0
 47
1.0
171
     0
 49
0.0208333333333333
 49
0.0
 49
0.0
 49
0.0
 49
0.0
 49
0.0208333333333333
 49
0.0
 49
0.0
 49
0.0
 49
0.0
 49
1.0
 49
0.0
 49
0.0
 49
0.0
 49
0.0
 49
1.0
175
     0
142
0.0208333333333333
142
0.0
142
0.0
142
0.0
142
0.0
142
0.0208333333333333
142
0.0
142
0.0
142
0.0
142
0.0
142
1.0
142
0.0
142
0.0
142
0.0
142
0.0
142
1.0
179
     0
144
0.0208333333333333
144
0.0
144
0.0
144
0.0
144
0.0
144
0.0208333333333333
144
0.0
144
0.0
144
0.0
144
0.0
144
1.0
144
0.0
144
0.0
144
0.0
144
0.0
144
1.0
147
0.0208333333333333
147
0.0
147
0.0
147
0.0
147
0.0
147
0.0208333333333333
147
0.0
147
0.0
147
0.0
147
0.0
147
1.0
147
0.0
147
0.0
147
0.0
147
0.0
147
1.0
  0
MLEADERSTYLE
  5
8505
102
{ACAD_XDICTIONARY
360
9F44
102
}
102
{ACAD_REACTORS
330
8504
330
8641
102
}
330
8504
100
AcDbMLeaderStyle
170
     2
171
     1
172
     0
 90
        2
 40
0.0
 41
0.0
173
     1
 91
-1056964608
340
13
 92
       -2
290
     1
 42
2.0
291
     1
 43
0.36
  3
Standard
 44
4.0
300

342
10
174
     1
178
     6
175
     1
176
     0
 93
-1056964608
 45
4.0
292
     0
297
     0
 46
4.0
 94
-1056964608
 47
1.0
 49
1.0
140
1.0
293
     1
141
0.0
294
     1
177
     0
142
1.0
295
     0
296
     0
143
0.125
1001
ACAD_MLEADERVER
1070
     2
  0
MLINESTYLE
  5
1C
102
{ACAD_REACTORS
330
E
102
}
330
E
100
AcDbMlineStyle
  2
STANDARD
 70
     0
  3

 62
     0
 51
90.0
 52
90.0
 71
     2
 49
0.5
 62
   256
  6
BYLAYER
 49
-0.5
 62
   256
  6
BYLAYER
  0
ACDBPLACEHOLDER
  5
84AE
102
{ACAD_REACTORS
330
84AD
102
}
330
84AD
  0
SCALE
  5
84F3
102
{ACAD_REACTORS
330
84F2
102
}
330
84F2
100
AcDbScale
 70
     0
300
1:1
140
1.0
141
1.0
290
     1
  0
SCALE
  5
84F4
102
{ACAD_REACTORS
330
84F2
102
}
330
84F2
100
AcDbScale
 70
     0
300
1:2
140
1.0
141
2.0
290
     0
  0
SCALE
  5
84F5
102
{ACAD_REACTORS
330
84F2
102
}
330
84F2
100
AcDbScale
 70
     0
300
1:4
140
1.0
141
4.0
290
     0
  0
SCALE
  5
84F6
102
{ACAD_REACTORS
330
84F2
102
}
330
84F2
100
AcDbScale
 70
     0
300
1:5
140
1.0
141
5.0
290
     0
  0
SCALE
  5
84F7
102
{ACAD_REACTORS
330
84F2
102
}
330
84F2
100
AcDbScale
 70
     0
300
1:8
140
1.0
141
8.0
290
     0
  0
SCALE
  5
84F8
102
{ACAD_REACTORS
330
84F2
102
}
330
84F2
100
AcDbScale
 70
     0
300
1:10
140
1.0
141
10.0
290
     0
  0
SCALE
  5
84F9
102
{ACAD_REACTORS
330
84F2
102
}
330
84F2
100
AcDbScale
 70
     0
300
1:16
140
1.0
141
16.0
290
     0
  0
SCALE
  5
84FA
102
{ACAD_REACTORS
330
84F2
102
}
330
84F2
100
AcDbScale
 70
     0
300
1:20
140
1.0
141
20.0
290
     0
  0
SCALE
  5
84FB
102
{ACAD_REACTORS
330
84F2
102
}
330
84F2
100
AcDbScale
 70
     0
300
1:30
140
1.0
141
30.0
290
     0
  0
SCALE
  5
84FC
102
{ACAD_REACTORS
330
84F2
102
}
330
84F2
100
AcDbScale
 70
     0
300
1:40
140
1.0
141
40.0
290
     0
  0
SCALE
  5
84FD
102
{ACAD_REACTORS
330
84F2
102
}
330
84F2
100
AcDbScale
 70
     0
300
1:50
140
1.0
141
50.0
290
     0
  0
SCALE
  5
84FE
102
{ACAD_REACTORS
330
84F2
102
}
330
84F2
100
AcDbScale
 70
     0
300
1:100
140
1.0
141
100.0
290
     0
  0
SCALE
  5
84FF
102
{ACAD_REACTORS
330
84F2
102
}
330
84F2
100
AcDbScale
 70
     0
300
2:1
140
2.0
141
1.0
290
     0
  0
SCALE
  5
8500
102
{ACAD_REACTORS
330
84F2
102
}
330
84F2
100
AcDbScale
 70
     0
300
4:1
140
4.0
141
1.0
290
     0
  0
SCALE
  5
8501
102
{ACAD_REACTORS
330
84F2
102
}
330
84F2
100
AcDbScale
 70
     0
300
8:1
140
8.0
141
1.0
290
     0
  0
SCALE
  5
8502
102
{ACAD_REACTORS
330
84F2
102
}
330
84F2
100
AcDbScale
 70
     0
300
10:1
140
10.0
141
1.0
290
     0
  0
SCALE
  5
8503
102
{ACAD_REACTORS
330
84F2
102
}
330
84F2
100
AcDbScale
 70
     0
300
100:1
140
100.0
141
1.0
290
     0
  0
ACDBSECTIONVIEWSTYLE
  5
9EDB
102
{ACAD_XDICTIONARY
360
9EF2
102
}
102
{ACAD_REACTORS
330
8506
102
}
330
8506
100
AcDbModelDocViewStyle
 70
     0
  3
Imperial24
290
     0
100
AcDbSectionViewStyle
 70
     0
 71
     0
 90
       78
 71
     1
340
10
 40
0.24
340
0
340
0
 40
0.24
300
I, O, Q, S, X, Z
 40
0.48
 90
        3
 40
0.18
 90
        1
 71
     2
340
15
 90
       25
340
15
 90
       50
 40
0.24
 40
0.0
 40
0.24
 71
     3
340
10
 40
0.24
 90
        1
 40
0.75
 90
        1
300
%<\AcVar ViewType \f "%tc1">% %<\AcVar ViewSectionStartId>%-%<\AcVar ViewSectionEndId>%\PSCALE %<\AcVar ViewScale \f "%sn">%
 71
     4
300
ANSI31
 40
1.0
 90
        0
290
     0
290
     0
 90
        6
 40
0.0
 40
1.570796326794896
 40
0.2617993877991494
 40
1.308996938995747
 40
-0.2617993877991494
 40
1.832595714594046
  0
ACDBSECTIONVIEWSTYLE
  5
8507
102
{ACAD_XDICTIONARY
360
8518
102
}
102
{ACAD_REACTORS
330
8506
102
}
330
8506
100
AcDbModelDocViewStyle
 70
     0
  3
Metric50
290
     0
100
AcDbSectionViewStyle
 70
     0
 71
     0
 90
      102
 71
     1
340
10
 40
5.0
340
0
340
0
 40
5.0
300
I, O, Q, S, X, Z
 40
10.0
 90
        0
 40
2.5
 90
        0
 71
     2
340
15
 90
       25
340
15
 90
       50
 40
5.0
 40
2.5
 40
5.0
 71
     3
340
10
 40
5.0
 90
        0
 40
15.0
 90
        1
300
%<\AcVar ViewSectionStartId>%-%<\AcVar ViewSectionEndId>% (%<\AcVar ViewScale \f "%sn">%)
 71
     4
300
ANSI31
 40
1.0
 90
        0
290
     0
290
     0
 90
        6
 40
0.0
 40
1.570796326794896
 40
0.2617993877991494
 40
1.308996938995747
 40
-0.2617993877991494
 40
1.832595714594046
  0
TABLESTYLE
  5
84F1
102
{ACAD_XDICTIONARY
360
9EFF
102
}
102
{ACAD_REACTORS
330
84F0
102
}
330
84F0
100
AcDbTableStyle
  3
Standard
 70
     0
 71
     0
 40
1.5
 41
1.5
280
     0
281
     0
  7
STANDARD
140
4.5
170
     2
 62
     0
 63
     7
283
     0
274
    -2
284
     1
 64
     0
275
    -2
285
     1
 65
     0
276
    -2
286
     1
 66
     0
277
    -2
287
     1
 67
     0
278
    -2
288
     1
 68
     0
279
    -2
289
     1
 69
     0
  7
STANDARD
140
6.0
170
     5
 62
     0
 63
     7
283
     0
274
    -2
284
     1
 64
     0
275
    -2
285
     1
 65
     0
276
    -2
286
     1
 66
     0
277
    -2
287
     1
 67
     0
278
    -2
288
     1
 68
     0
279
    -2
289
     1
 69
     0
  7
STANDARD
140
4.5
170
     5
 62
     0
 63
     7
283
     0
274
    -2
284
     1
 64
     0
275
    -2
285
     1
 65
     0
276
    -2
286
     1
 66
     0
277
    -2
287
     1
 67
     0
278
    -2
288
     1
 68
     0
279
    -2
289
     1
 69
     0
  0
VISUALSTYLE
  5
84DC
102
{ACAD_XDICTIONARY
360
9F1C
102
}
102
{ACAD_REACTORS
330
84D6
102
}
330
84D6
100
AcDbVisualStyle
  2
2dWireframe
 70
     4
 71
     0
 72
     2
 73
     0
 90
        0
 40
-0.6
 41
-30.0
 62
     5
 63
     7
 74
     1
 91
        4
 64
     7
 65
   257
 75
     1
175
     1
 42
1.0
 92
        0
 66
   257
 43
1.0
 76
     1
 77
     6
 78
     2
 67
     7
 79
     5
170
     0
171
     0
290
     0
174
     0
 93
        1
 44
0.0
173
     0
291
     0
 45
0.0
1001
ACAD
1000
AcDbSavedByObjectVersion
1070
     0
  0
VISUALSTYLE
  5
84DB
102
{ACAD_XDICTIONARY
360
9F1A
102
}
102
{ACAD_REACTORS
330
84D6
102
}
330
84D6
100
AcDbVisualStyle
  2
Basic
 70
     7
 71
     1
 72
     0
 73
     1
 90
        0
 40
-0.6
 41
-30.0
 62
     5
 63
     7
 74
     0
 91
        4
 64
     7
 65
   257
 75
     1
175
     1
 42
1.0
 92
        8
 66
     7
 43
1.0
 76
     1
 77
     6
 78
     2
 67
     7
 79
     5
170
     0
171
     0
290
     0
174
     0
 93
        1
 44
0.0
173
     0
291
     1
 45
0.0
1001
ACAD
1000
AcDbSavedByObjectVersion
1070
     0
  0
VISUALSTYLE
  5
84E2
102
{ACAD_XDICTIONARY
360
9F28
102
}
102
{ACAD_REACTORS
330
84D6
102
}
330
84D6
100
AcDbVisualStyle
  2
Brighten
 70
    12
 71
     2
 72
     2
 73
     0
 90
        0
 40
-0.6
 41
-30.0
 62
     5
 63
     7
 74
     1
 91
        4
 64
     7
 65
   257
 75
     1
175
     1
 42
1.0
 92
        8
 66
     7
 43
1.0
 76
     1
 77
     6
 78
     2
 67
     7
 79
     5
170
     0
171
     0
290
     0
174
     0
 93
        1
 44
50.0
173
     0
291
     1
 45
0.0
1001
ACAD
1000
AcDbSavedByObjectVersion
1070
     0
  0
VISUALSTYLE
  5
84E6
102
{ACAD_XDICTIONARY
360
9F30
102
}
102
{ACAD_REACTORS
330
84D6
102
}
330
84D6
100
AcDbVisualStyle
  2
ColorChange
 70
    16
 71
     2
 72
     2
 73
     3
 90
        0
 40
-0.6
 41
-30.0
 62
     5
 63
     8
 74
     1
 91
        4
 64
     7
 65
   257
 75
     1
175
     1
 42
1.0
 92
        8
 66
     8
 43
1.0
 76
     1
 77
     6
 78
     2
 67
     7
 79
     5
170
     0
171
     0
290
     0
174
     0
 93
        1
 44
0.0
173
     0
291
     1
 45
0.0
1001
ACAD
1000
AcDbSavedByObjectVersion
1070
     0
  0
VISUALSTYLE
  5
84DF
102
{ACAD_XDICTIONARY
360
9F22
102
}
102
{ACAD_REACTORS
330
84D6
102
}
330
84D6
100
AcDbVisualStyle
  2
Conceptual
 70
     9
 71
     3
 72
     2
 73
     0
 90
        0
 40
-0.6
 41
-30.0
 62
     5
 63
     7
 74
     2
 91
        2
 64
     7
 65
   257
 75
     1
175
     1
 42
179.0
 92
        8
 66
     7
 43
1.0
 76
     1
 77
     6
 78
     2
 67
     7
 79
     3
170
     0
171
     0
290
     0
174
     0
 93
        1
 44
0.0
173
     0
291
     0
 45
0.0
1001
ACAD
1000
AcDbSavedByObjectVersion
1070
     0
  0
VISUALSTYLE
  5
84E1
102
{ACAD_XDICTIONARY
360
9F26
102
}
102
{ACAD_REACTORS
330
84D6
102
}
330
84D6
100
AcDbVisualStyle
  2
Dim
 70
    11
 71
     2
 72
     2
 73
     0
 90
        0
 40
-0.6
 41
-30.0
 62
     5
 63
     7
 74
     1
 91
        4
 64
     7
 65
   257
 75
     1
175
     1
 42
1.0
 92
        8
 66
     7
 43
1.0
 76
     1
 77
     6
 78
     2
 67
     7
 79
     5
170
     0
171
     0
290
     0
174
     0
 93
        1
 44
-50.0
173
     0
291
     1
 45
0.0
1001
ACAD
1000
AcDbSavedByObjectVersion
1070
     0
  0
VISUALSTYLE
  5
84EE
102
{ACAD_XDICTIONARY
360
9F40
102
}
102
{ACAD_REACTORS
330
84D6
102
}
330
84D6
100
AcDbVisualStyle
  2
EdgeColorOff
 70
    22
 71
     2
 72
     2
 73
     0
 90
        0
 40
-0.6
 41
-30.0
 62
     5
 63
     7
 74
     1
 91
        4
 64
     7
 65
   257
 75
     1
175
     1
 42
1.0
 92
        8
 66
     7
 43
1.0
 76
     1
 77
     6
 78
     2
 67
     7
 79
     5
170
     0
171
     0
290
     0
174
     0
 93
        1
 44
0.0
173
     0
291
     1
 45
0.0
1001
ACAD
1000
AcDbSavedByObjectVersion
1070
     0
  0
VISUALSTYLE
  5
84E5
102
{ACAD_XDICTIONARY
360
9F2E
102
}
102
{ACAD_REACTORS
330
84D6
102
}
330
84D6
100
AcDbVisualStyle
  2
Facepattern
 70
    15
 71
     2
 72
     2
 73
     0
 90
        0
 40
-0.6
 41
-30.0
 62
     5
 63
     7
 74
     1
 91
        4
 64
     7
 65
   257
 75
     1
175
     1
 42
1.0
 92
        8
 66
     7
 43
1.0
 76
     1
 77
     6
 78
     2
 67
     7
 79
     5
170
     0
171
     0
290
     0
174
     0
 93
        1
 44
0.0
173
     0
291
     1
 45
0.0
1001
ACAD
1000
AcDbSavedByObjectVersion
1070
     0
  0
VISUALSTYLE
  5
84D7
102
{ACAD_XDICTIONARY
360
9F12
102
}
102
{ACAD_REACTORS
330
84D6
102
}
330
84D6
100
AcDbVisualStyle
  2
Flat
 70
     0
 71
     2
 72
     1
 73
     1
 90
        2
 40
-0.6
 41
30.0
 62
     5
 63
     7
 74
     0
 91
        0
 64
     7
 65
   257
 75
     1
175
     1
 42
1.0
 92
        8
 66
     7
 43
1.0
 76
     1
 77
     6
 78
     2
 67
     7
 79
     5
170
     0
171
     0
290
     0
174
     0
 93
       13
 44
0.0
173
     0
291
     1
 45
0.0
1001
ACAD
1000
AcDbSavedByObjectVersion
1070
     0
  0
VISUALSTYLE
  5
84D8
102
{ACAD_XDICTIONARY
360
9F14
102
}
102
{ACAD_REACTORS
330
84D6
102
}
330
84D6
100
AcDbVisualStyle
  2
FlatWithEdges
 70
     1
 71
     2
 72
     1
 73
     1
 90
        2
 40
-0.6
 41
30.0
 62
     5
 63
     7
 74
     1
 91
        0
 64
     7
 65
   257
 75
     1
175
     1
 42
1.0
 92
        0
 66
   257
 43
1.0
 76
     1
 77
     6
 78
     2
 67
     7
 79
     5
170
     0
171
     0
290
     0
174
     0
 93
       13
 44
0.0
173
     0
291
     1
 45
0.0
1001
ACAD
1000
AcDbSavedByObjectVersion
1070
     0
  0
VISUALSTYLE
  5
84D9
102
{ACAD_XDICTIONARY
360
9F16
102
}
102
{ACAD_REACTORS
330
84D6
102
}
330
84D6
100
AcDbVisualStyle
  2
Gouraud
 70
     2
 71
     2
 72
     2
 73
     1
 90
        2
 40
-0.6
 41
30.0
 62
     5
 63
     7
 74
     0
 91
        0
 64
     7
 65
   257
 75
     1
175
     1
 42
1.0
 92
        0
 66
     7
 43
1.0
 76
     1
 77
     6
 78
     2
 67
     7
 79
     5
170
     0
171
     0
290
     0
174
     0
 93
       13
 44
0.0
173
     0
291
     1
 45
0.0
1001
ACAD
1000
AcDbSavedByObjectVersion
1070
     0
  0
VISUALSTYLE
  5
84DA
102
{ACAD_XDICTIONARY
360
9F18
102
}
102
{ACAD_REACTORS
330
84D6
102
}
330
84D6
100
AcDbVisualStyle
  2
GouraudWithEdges
 70
     3
 71
     2
 72
     2
 73
     1
 90
        2
 40
-0.6
 41
30.0
 62
     5
 63
     7
 74
     1
 91
        0
 64
     7
 65
   257
 75
     1
175
     1
 42
1.0
 92
        0
 66
   257
 43
1.0
 76
     1
 77
     6
 78
     2
 67
     7
 79
     5
170
     0
171
     0
290
     0
174
     0
 93
       13
 44
0.0
173
     0
291
     1
 45
0.0
1001
ACAD
1000
AcDbSavedByObjectVersion
1070
     0
  0
VISUALSTYLE
  5
84DE
102
{ACAD_XDICTIONARY
360
9F20
102
}
102
{ACAD_REACTORS
330
84D6
102
}
330
84D6
100
AcDbVisualStyle
  2
Hidden
 70
     6
 71
     1
 72
     2
 73
     2
 90
        0
 40
-0.6
 41
-30.0
 62
     5
 63
     7
 74
     2
 91
        2
 64
     7
 65
   257
 75
     2
175
     1
 42
40.0
 92
        0
 66
   257
 43
1.0
 76
     1
 77
     6
 78
     2
 67
     7
 79
     3
170
     0
171
     0
290
     0
174
     0
 93
        1
 44
0.0
173
     0
291
     0
 45
0.0
1001
ACAD
1000
AcDbSavedByObjectVersion
1070
     0
  0
VISUALSTYLE
  5
84EC
102
{ACAD_XDICTIONARY
360
9F3C
102
}
102
{ACAD_REACTORS
330
84D6
102
}
330
84D6
100
AcDbVisualStyle
  2
JitterOff
 70
    20
 71
     2
 72
     2
 73
     0
 90
        0
 40
-0.6
 41
-30.0
 62
     5
 63
     7
 74
     1
 91
        4
 64
     7
 65
   257
 75
     1
175
     1
 42
1.0
 92
       10
 66
     7
 43
1.0
 76
     1
 77
     6
 78
     2
 67
     7
 79
     5
170
     0
171
     0
290
     0
174
     0
 93
        1
 44
0.0
173
     0
291
     1
 45
0.0
1001
ACAD
1000
AcDbSavedByObjectVersion
1070
     0
  0
VISUALSTYLE
  5
84E4
102
{ACAD_XDICTIONARY
360
9F2C
102
}
102
{ACAD_REACTORS
330
84D6
102
}
330
84D6
100
AcDbVisualStyle
  2
Linepattern
 70
    14
 71
     2
 72
     2
 73
     0
 90
        0
 40
-0.6
 41
-30.0
 62
     5
 63
     7
 74
     1
 91
        4
 64
     7
 65
   257
 75
     7
175
     7
 42
1.0
 92
        8
 66
     7
 43
1.0
 76
     1
 77
     6
 78
     2
 67
     7
 79
     5
170
     0
171
     0
290
     0
174
     0
 93
        1
 44
0.0
173
     0
291
     1
 45
0.0
1001
ACAD
1000
AcDbSavedByObjectVersion
1070
     0
  0
VISUALSTYLE
  5
84ED
102
{ACAD_XDICTIONARY
360
9F3E
102
}
102
{ACAD_REACTORS
330
84D6
102
}
330
84D6
100
AcDbVisualStyle
  2
OverhangOff
 70
    21
 71
     2
 72
     2
 73
     0
 90
        0
 40
-0.6
 41
-30.0
 62
     5
 63
     7
 74
     1
 91
        4
 64
     7
 65
   257
 75
     1
175
     1
 42
1.0
 92
        9
 66
     7
 43
1.0
 76
     1
 77
     6
 78
     2
 67
     7
 79
     5
170
     0
171
     0
290
     0
174
     0
 93
        1
 44
0.0
173
     0
291
     1
 45
0.0
1001
ACAD
1000
AcDbSavedByObjectVersion
1070
     0
  0
VISUALSTYLE
  5
84E0
102
{ACAD_XDICTIONARY
360
9F24
102
}
102
{ACAD_REACTORS
330
84D6
102
}
330
84D6
100
AcDbVisualStyle
  2
Realistic
 70
     8
 71
     2
 72
     3
 73
     0
 90
        2
 40
-0.6
 41
30.0
 62
     5
 63
     7
 74
     0
 91
        0
 64
     7
 65
   257
 75
     1
175
     1
 42
1.0
 92
        8
 66
   257
 43
1.0
 76
     1
 77
     6
 78
     2
 67
     7
 79
     3
170
     0
171
     0
290
     0
174
     0
 93
       13
 44
0.0
173
     0
291
     0
 45
0.0
1001
ACAD
1000
AcDbSavedByObjectVersion
1070
     0
  0
VISUALSTYLE
  5
84EB
102
{ACAD_XDICTIONARY
360
9F3A
102
}
102
{ACAD_REACTORS
330
84D6
102
}
330
84D6
100
AcDbVisualStyle
  2
Shaded
 70
    27
 71
     2
 72
     2
 73
     1
 90
        2
 40
-0.6
 41
30.0
 62
     5
 63
     7
 74
     0
 91
        4
 64
     7
 65
   257
 75
     1
175
     1
 42
1.0
 92
        8
 66
   257
 43
1.0
 76
     1
 77
     6
 78
     2
 67
     8
 79
     3
170
     0
171
     0
290
     0
174
     0
 93
        5
 44
0.0
173
     0
291
     0
 45
0.0
1001
ACAD
1000
AcDbSavedByObjectVersion
1070
     0
  0
VISUALSTYLE
  5
84EA
102
{ACAD_XDICTIONARY
360
9F38
102
}
102
{ACAD_REACTORS
330
84D6
102
}
330
84D6
100
AcDbVisualStyle
  2
Shaded with edges
 70
    26
 71
     2
 72
     2
 73
     1
 90
        2
 40
-0.6
 41
30.0
 62
     5
 63
     7
 74
     1
 91
       10
 64
     7
 65
   257
 75
     2
175
     1
 42
1.0
 92
        8
 66
   257
 43
1.0
 76
     1
 77
     6
 78
     2
 67
     7
 79
     3
170
     0
171
     0
290
     0
174
     0
 93
        5
 44
0.0
173
     0
291
     0
 45
0.0
1001
ACAD
1000
AcDbSavedByObjectVersion
1070
     0
  0
VISUALSTYLE
  5
84E7
102
{ACAD_XDICTIONARY
360
9F32
102
}
102
{ACAD_REACTORS
330
84D6
102
}
330
84D6
100
AcDbVisualStyle
  2
Shades of Gray
 70
    23
 71
     2
 72
     2
 73
     3
 90
        0
 40
-0.6
 41
-30.0
 62
     5
 63
     7
 74
     2
 91
        2
 64
     7
 65
     7
 75
     1
175
     1
 42
40.0
 92
        8
 66
     7
 43
1.0
 76
     1
 77
     6
 78
     2
 67
     7
 79
     3
170
     0
171
     0
290
     0
174
     0
 93
        1
 44
0.0
173
     0
291
     0
 45
0.0
1001
ACAD
1000
AcDbSavedByObjectVersion
1070
     0
  0
VISUALSTYLE
  5
84E8
102
{ACAD_XDICTIONARY
360
9F34
102
}
102
{ACAD_REACTORS
330
84D6
102
}
330
84D6
100
AcDbVisualStyle
  2
Sketchy
 70
    24
 71
     1
 72
     2
 73
     2
 90
        0
 40
-0.6
 41
-30.0
 62
     5
 63
     7
 74
     2
 91
        2
 64
     7
 65
     7
 75
     1
175
     1
 42
40.0
 92
       11
 66
     7
 43
1.0
 76
     1
 77
     6
 78
     2
 67
     7
 79
     6
170
     0
171
     0
290
     0
174
     0
 93
        1
 44
0.0
173
     0
291
     0
 45
0.0
1001
ACAD
1000
AcDbSavedByObjectVersion
1070
     0
  0
VISUALSTYLE
  5
84E3
102
{ACAD_XDICTIONARY
360
9F2A
102
}
102
{ACAD_REACTORS
330
84D6
102
}
330
84D6
100
AcDbVisualStyle
  2
Thicken
 70
    13
 71
     2
 72
     2
 73
     0
 90
        0
 40
-0.6
 41
-30.0
 62
     5
 63
     7
 74
     1
 91
        4
 64
     7
 65
   257
 75
     1
175
     1
 42
1.0
 92
       12
 66
     7
 43
1.0
 76
     1
 77
     6
 78
     2
 67
     7
 79
     5
170
     0
171
     0
290
     0
174
     0
 93
        1
 44
0.0
173
     0
291
     1
 45
0.0
1001
ACAD
1000
AcDbSavedByObjectVersion
1070
     0
  0
VISUALSTYLE
  5
84DD
102
{ACAD_XDICTIONARY
360
9F1E
102
}
102
{ACAD_REACTORS
330
84D6
102
}
330
84D6
100
AcDbVisualStyle
  2
Wireframe
 70
     5
 71
     0
 72
     2
 73
     0
 90
        0
 40
-0.6
 41
-30.0
 62
     5
 63
     7
 74
     1
 91
        4
 64
     7
 65
   257
 75
     1
175
     1
 42
1.0
 92
        0
 66
   257
 43
1.0
 76
     1
 77
     6
 78
     2
 67
     7
 79
     3
170
     0
171
     0
290
     0
174
     0
 93
        1
 44
0.0
173
     0
291
     0
 45
0.0
1001
ACAD
1000
AcDbSavedByObjectVersion
1070
     0
  0
VISUALSTYLE
  5
84E9
102
{ACAD_XDICTIONARY
360
9F36
102
}
102
{ACAD_REACTORS
330
84D6
102
}
330
84D6
100
AcDbVisualStyle
  2
X-Ray
 70
    25
 71
     2
 72
     2
 73
     1
 90
        1
 40
0.5
 41
-30.0
 62
     5
 63
     7
 74
     1
 91
        0
 64
     7
 65
   257
 75
     1
175
     1
 42
1.0
 92
        8
 66
     7
 43
1.0
 76
     1
 77
     6
 78
     2
 67
     7
 79
     3
170
     0
171
     0
290
     0
174
     0
 93
       13
 44
0.0
173
     0
291
     0
 45
0.0
1001
ACAD
1000
AcDbSavedByObjectVersion
1070
     0
  0
DICTIONARYVAR
  5
8523
102
{ACAD_REACTORS
330
851D
102
}
330
851D
100
DictionaryVariables
280
     0
  1
1:1
  0
DICTIONARYVAR
  5
851F
102
{ACAD_REACTORS
330
851D
102
}
330
851D
100
DictionaryVariables
280
     0
  1
STANDARD
  0
DICTIONARYVAR
  5
851E
102
{ACAD_REACTORS
330
851D
102
}
330
851D
100
DictionaryVariables
280
     0
  1
STANDARD
  0
DICTIONARYVAR
  5
8520
102
{ACAD_REACTORS
330
851D
102
}
330
851D
100
DictionaryVariables
280
     0
  1
Metric50
  0
DICTIONARYVAR
  5
8521
102
{ACAD_REACTORS
330
851D
102
}
330
851D
100
DictionaryVariables
280
     0
  1
Metric50
  0
DICTIONARYVAR
  5
9EFD
102
{ACAD_REACTORS
330
851D
102
}
330
851D
100
DictionaryVariables
280
     0
  1
1
  0
DICTIONARYVAR
  5
9EFC
102
{ACAD_REACTORS
330
851D
102
}
330
851D
100
DictionaryVariables
280
     0
  1
0
  0
DICTIONARYVAR
  5
8525
102
{ACAD_REACTORS
330
851D
102
}
330
851D
100
DictionaryVariables
280
     0
  1
1
  0
DICTIONARYVAR
  5
8526
102
{ACAD_REACTORS
330
851D
102
}
330
851D
100
DictionaryVariables
280
     0
  1
15
  0
DICTIONARYVAR
  5
8524
102
{ACAD_REACTORS
330
851D
102
}
330
851D
100
DictionaryVariables
280
     0
  1
0
  0
DICTIONARYVAR
  5
8522
102
{ACAD_REACTORS
330
851D
102
}
330
851D
100
DictionaryVariables
280
     0
  1
0
  0
DICTIONARYVAR
  5
9EFB
102
{ACAD_REACTORS
330
851D
102
}
330
851D
100
DictionaryVariables
280
     0
  1
127
  0
DICTIONARYVAR
  5
9EFE
102
{ACAD_REACTORS
330
851D
102
}
330
851D
100
DictionaryVariables
280
     0
  1
2
  0
DICTIONARY
  5
9F0A
102
{ACAD_REACTORS
330
9F08
102
}
330
9F08
100
AcDbDictionary
281
     1
  0
DICTIONARY
  5
9F09
102
{ACAD_REACTORS
330
9F08
102
}
330
9F08
100
AcDbDictionary
281
     1
  3
140686696533296
350
9F03
  3
140686696533312
350
9F04
  3
140686696533328
350
9F05
  3
140686696533344
350
9F06
  3
140686696533360
350
9F07
  0
DICTIONARY
  5
9EF4
330
9EDC
100
AcDbDictionary
280
     1
281
     1
  3
ACAD_XREC_ROUNDTRIP
360
9F4B
  0
DICTIONARY
  5
851A
330
8509
100
AcDbDictionary
280
     1
281
     1
  3
ACAD_XREC_ROUNDTRIP
360
9F47
  0
DICTIONARY
  5
9F0B
330
84B1
100
AcDbDictionary
280
     1
281
     1
  3
ACAD_XREC_ROUNDTRIP
360
9F0C
  0
DICTIONARY
  5
9F0D
330
84B2
100
AcDbDictionary
280
     1
281
     1
  3
ACAD_XREC_ROUNDTRIP
360
9F0E
  0
DICTIONARY
  5
84C7
330
84C6
100
AcDbDictionary
280
     1
281
     1
  3
ACAD_XREC_ROUNDTRIP
360
9F10
  3
BUMPTILE
360
84C9
  3
DIFFUSETILE
360
84C8
  3
OPACITYTILE
360
84CC
  3
REFLECTIONTILE
360
84CB
  3
REFRACTIONTILE
360
84CD
  3
SPECULARTILE
360
84CA
  0
DICTIONARY
  5
84BF
330
84BE
100
AcDbDictionary
280
     1
281
     1
  3
ACAD_XREC_ROUNDTRIP
360
9F0F
  3
BUMPTILE
360
84C1
  3
DIFFUSETILE
360
84C0
  3
OPACITYTILE
360
84C4
  3
REFLECTIONTILE
360
84C3
  3
REFRACTIONTILE
360
84C5
  3
SPECULARTILE
360
84C2
  0
DICTIONARY
  5
84CF
330
84CE
100
AcDbDictionary
280
     1
281
     1
  3
ACAD_XREC_ROUNDTRIP
360
9F11
  3
BUMPTILE
360
84D1
  3
DIFFUSETILE
360
84D0
  3
FBXASSET
360
870C
  3
OPACITYTILE
360
84D4
  3
REFLECTIONTILE
360
84D3
  3
REFRACTIONTILE
360
84D5
  3
SPECULARTILE
360
84D2
  0
DICTIONARY
  5
9F44
330
8505
100
AcDbDictionary
280
     1
281
     1
  3
ACAD_XREC_ROUNDTRIP
360
9F45
  0
DICTIONARY
  5
9EF2
330
9EDB
100
AcDbDictionary
280
     1
281
     1
  3
ACAD_XREC_ROUNDTRIP
360
9F4A
  0
DICTIONARY
  5
8518
330
8507
100
AcDbDictionary
280
     1
281
     1
  3
ACAD_XREC_ROUNDTRIP
360
9F46
  0
DICTIONARY
  5
9EFF
330
84F1
100
AcDbDictionary
280
     1
281
     1
  3
ACAD_ROUNDTRIP_2008_TABLESTYLE_CELLSTYLEMAP
360
9F00
  3
ACAD_XREC_ROUNDTRIP
360
9F42
  0
DICTIONARY
  5
9F1C
330
84DC
100
AcDbDictionary
280
     1
281
     1
  3
ACAD_XREC_ROUNDTRIP
360
9F1D
  0
DICTIONARY
  5
9F1A
330
84DB
100
AcDbDictionary
280
     1
281
     1
  3
ACAD_XREC_ROUNDTRIP
360
9F1B
  0
DICTIONARY
  5
9F28
330
84E2
100
AcDbDictionary
280
     1
281
     1
  3
ACAD_XREC_ROUNDTRIP
360
9F29
  0
DICTIONARY
  5
9F30
330
84E6
100
AcDbDictionary
280
     1
281
     1
  3
ACAD_XREC_ROUNDTRIP
360
9F31
  0
DICTIONARY
  5
9F22
330
84DF
100
AcDbDictionary
280
     1
281
     1
  3
ACAD_XREC_ROUNDTRIP
360
9F23
  0
DICTIONARY
  5
9F26
330
84E1
100
AcDbDictionary
280
     1
281
     1
  3
ACAD_XREC_ROUNDTRIP
360
9F27
  0
DICTIONARY
  5
9F40
330
84EE
100
AcDbDictionary
280
     1
281
     1
  3
ACAD_XREC_ROUNDTRIP
360
9F41
  0
DICTIONARY
  5
9F2E
330
84E5
100
AcDbDictionary
280
     1
281
     1
  3
ACAD_XREC_ROUNDTRIP
360
9F2F
  0
DICTIONARY
  5
9F12
330
84D7
100
AcDbDictionary
280
     1
281
     1
  3
ACAD_XREC_ROUNDTRIP
360
9F13
  0
DICTIONARY
  5
9F14
330
84D8
100
AcDbDictionary
280
     1
281
     1
  3
ACAD_XREC_ROUNDTRIP
360
9F15
  0
DICTIONARY
  5
9F16
330
84D9
100
AcDbDictionary
280
     1
281
     1
  3
ACAD_XREC_ROUNDTRIP
360
9F17
  0
DICTIONARY
  5
9F18
330
84DA
100
AcDbDictionary
280
     1
281
     1
  3
ACAD_XREC_ROUNDTRIP
360
9F19
  0
DICTIONARY
  5
9F20
330
84DE
100
AcDbDictionary
280
     1
281
     1
  3
ACAD_XREC_ROUNDTRIP
360
9F21
  0
DICTIONARY
  5
9F3C
330
84EC
100
AcDbDictionary
280
     1
281
     1
  3
ACAD_XREC_ROUNDTRIP
360
9F3D
  0
DICTIONARY
  5
9F2C
330
84E4
100
AcDbDictionary
280
     1
281
     1
  3
ACAD_XREC_ROUNDTRIP
360
9F2D
  0
DICTIONARY
  5
9F3E
330
84ED
100
AcDbDictionary
280
     1
281
     1
  3
ACAD_XREC_ROUNDTRIP
360
9F3F
  0
DICTIONARY
  5
9F24
330
84E0
100
AcDbDictionary
280
     1
281
     1
  3
ACAD_XREC_ROUNDTRIP
360
9F25
  0
DICTIONARY
  5
9F3A
330
84EB
100
AcDbDictionary
280
     1
281
     1
  3
ACAD_XREC_ROUNDTRIP
360
9F3B
  0
DICTIONARY
  5
9F38
330
84EA
100
AcDbDictionary
280
     1
281
     1
  3
ACAD_XREC_ROUNDTRIP
360
9F39
  0
DICTIONARY
  5
9F32
330
84E7
100
AcDbDictionary
280
     1
281
     1
  3
ACAD_XREC_ROUNDTRIP
360
9F33
  0
DICTIONARY
  5
9F34
330
84E8
100
AcDbDictionary
280
     1
281
     1
  3
ACAD_XREC_ROUNDTRIP
360
9F35
  0
DICTIONARY
  5
9F2A
330
84E3
100
AcDbDictionary
280
     1
281
     1
  3
ACAD_XREC_ROUNDTRIP
360
9F2B
  0
DICTIONARY
  5
9F1E
330
84DD
100
AcDbDictionary
280
     1
281
     1
  3
ACAD_XREC_ROUNDTRIP
360
9F1F
  0
DICTIONARY
  5
9F36
330
84E9
100
AcDbDictionary
280
     1
281
     1
  3
ACAD_XREC_ROUNDTRIP
360
9F37
  0
XRECORD
  5
9F03
102
{ACAD_REACTORS
330
9F09
102
}
330
9F09
100
AcDbXrecord
280
     1
  1
AcDb_Thumbnail_Schema
102
{ATTRRECORD
341
9F04
  2
AcDbDs::TreatedAsObjectData
280
     1
291
     1
102
ATTRRECORD}
102
{ATTRRECORD
341
9F05
  2
AcDbDs::Legacy
280
     1
291
     1
102
ATTRRECORD}
  2
AcDbDs::ID
280
    10
 91
        8
102
{ATTRRECORD
341
9F06
  2
AcDs:Indexable
280
     1
291
     1
102
ATTRRECORD}
102
{ATTRRECORD
341
9F07
  2
AcDbDs::HandleAttribute
280
     7
282
     1
102
ATTRRECORD}
  2
Thumbnail_Data
280
    15
 91
        0
  0
XRECORD
  5
9F04
102
{ACAD_REACTORS
330
9F09
102
}
330
9F09
100
AcDbXrecord
280
     1
  1
AcDbDs::TreatedAsObjectDataSchema
  2
AcDbDs::TreatedAsObjectData
280
     1
 91
        0
  0
XRECORD
  5
9F05
102
{ACAD_REACTORS
330
9F09
102
}
330
9F09
100
AcDbXrecord
280
     1
  1
AcDbDs::LegacySchema
  2
AcDbDs::Legacy
280
     1
 91
        0
  0
XRECORD
  5
9F06
102
{ACAD_REACTORS
330
9F09
102
}
330
9F09
100
AcDbXrecord
280
     1
  1
AcDbDs::IndexedPropertySchema
  2
AcDs:Indexable
280
     1
 91
        0
  0
XRECORD
  5
9F07
102
{ACAD_REACTORS
330
9F09
102
}
330
9F09
100
AcDbXrecord
280
     1
  1
AcDbDs::HandleAttributeSchema
  2
AcDbDs::HandleAttribute
280
     7
 91
        1
284
     1
  0
XRECORD
  5
9F4B
102
{ACAD_REACTORS
330
9EF4
102
}
330
9EF4
100
AcDbXrecord
280
     1
102
DISPLAYNAME
  1
Imperial24
102
FLAGS
 90
        0
  0
XRECORD
  5
9F47
102
{ACAD_REACTORS
330
851A
102
}
330
851A
100
AcDbXrecord
280
     1
102
DISPLAYNAME
  1
Metric50
102
FLAGS
 90
        0
  0
XRECORD
  5
9F0C
102
{ACAD_REACTORS
330
9F0B
102
}
330
9F0B
100
AcDbXrecord
280
     1
102
SHADEPLOT
 70
     0
102
SHADEPLOTRESLEVEL
 70
     2
102
SHADEPLOTCUSTOMDPI
 70
   300
  0
XRECORD
  5
9F0E
102
{ACAD_REACTORS
330
9F0D
102
}
330
9F0D
100
AcDbXrecord
280
     1
102
SHADEPLOT
 70
     0
102
SHADEPLOTRESLEVEL
 70
     2
102
SHADEPLOTCUSTOMDPI
 70
   300
  0
XRECORD
  5
9F10
102
{ACAD_REACTORS
330
84C7
102
}
330
84C7
100
AcDbXrecord
280
     1
102
MATERIAL
148
0.0
149
0.0
149
0.0
 93
        0
 94
      127
282
     0
 72
     0
 77
     0
171
     0
175
     0
179
     0
273
     0
  0
XRECORD
  5
84C9
102
{ACAD_REACTORS
330
84C7
102
}
330
84C7
100
AcDbXrecord
280
     1
270
     1
271
     1
  0
XRECORD
  5
84C8
102
{ACAD_REACTORS
330
84C7
102
}
330
84C7
100
AcDbXrecord
280
     1
270
     1
271
     1
  0
XRECORD
  5
84CC
102
{ACAD_REACTORS
330
84C7
102
}
330
84C7
100
AcDbXrecord
280
     1
270
     1
271
     1
  0
XRECORD
  5
84CB
102
{ACAD_REACTORS
330
84C7
102
}
330
84C7
100
AcDbXrecord
280
     1
270
     1
271
     1
  0
XRECORD
  5
84CD
102
{ACAD_REACTORS
330
84C7
102
}
330
84C7
100
AcDbXrecord
280
     1
270
     1
271
     1
  0
XRECORD
  5
84CA
102
{ACAD_REACTORS
330
84C7
102
}
330
84C7
100
AcDbXrecord
280
     1
270
     1
271
     1
  0
XRECORD
  5
9F0F
102
{ACAD_REACTORS
330
84BF
102
}
330
84BF
100
AcDbXrecord
280
     1
102
MATERIAL
148
0.0
149
0.0
149
0.0
 93
        0
 94
      127
282
     0
 72
     0
 77
     0
171
     0
175
     0
179
     0
273
     0
  0
XRECORD
  5
84C1
102
{ACAD_REACTORS
330
84BF
102
}
330
84BF
100
AcDbXrecord
280
     1
270
     1
271
     1
  0
XRECORD
  5
84C0
102
{ACAD_REACTORS
330
84BF
102
}
330
84BF
100
AcDbXrecord
280
     1
270
     1
271
     1
  0
XRECORD
  5
84C4
102
{ACAD_REACTORS
330
84BF
102
}
330
84BF
100
AcDbXrecord
280
     1
270
     1
271
     1
  0
XRECORD
  5
84C3
102
{ACAD_REACTORS
330
84BF
102
}
330
84BF
100
AcDbXrecord
280
     1
270
     1
271
     1
  0
XRECORD
  5
84C5
102
{ACAD_REACTORS
330
84BF
102
}
330
84BF
100
AcDbXrecord
280
     1
270
     1
271
     1
  0
XRECORD
  5
84C2
102
{ACAD_REACTORS
330
84BF
102
}
330
84BF
100
AcDbXrecord
280
     1
270
     1
271
     1
  0
XRECORD
  5
9F11
102
{ACAD_REACTORS
330
84CF
102
}
330
84CF
100
AcDbXrecord
280
     1
102
MATERIAL
148
0.0
149
0.0
149
0.0
 93
        0
 94
      127
282
     0
 72
     0
 77
     0
171
     0
175
     0
179
     0
273
     0
  0
XRECORD
  5
84D1
102
{ACAD_REACTORS
330
84CF
102
}
330
84CF
100
AcDbXrecord
280
     1
270
     1
271
     1
  0
XRECORD
  5
84D0
102
{ACAD_REACTORS
330
84CF
102
}
330
84CF
100
AcDbXrecord
280
     1
270
     1
271
     1
  0
XRECORD
  5
870C
102
{ACAD_REACTORS
330
84CF
102
}
330
84CF
100
AcDbXrecord
280
     1
 70
     1
 90
1959938040
 71
     1
  1
8D66EA2C-4ED4-4441-9371-C633DE96D406
311
504B0304140006080800AC59F84AD11205B5DB000000200100004F00000031413836433430302D334133372D343937342D414642422D4433314242383544333831372F4173736574446174612F446566696E6974696F6E4974657261746F7250726F706572746965732E62696E454E4D4F023110AD1E301E3CF80F08F7D28F
311
65D9650318C4EA492F72F2424A19964DBA5DD276138F1EFDD73A8D182679F3E6F3CD7C13427ECE8621B9427CA1BF437E0107BE31EFE608AD268354B1DD4EDB9B4BEF1AC3943EC141F736A6ADD72618B0563BE8FA707F191DB63AA29CB6E3B4748BF82F84A450FF1D4BF7DF10E9A5C47A7FAA1E74081017ECB0FB648A3F66AB
311
A99851552841277999D3526453BA2E945C3FAB992AF98A79085DEF0D042619DF9E95B72757C362643CE01FFBD1527251505E5039D9085189AC92F9C79CC5A685E53C44DFB87AE874FB0B504B0304140006080800AC59F84A1B5A140608010000300200004500000031413836433430302D334133372D343937342D41464242
311
2D4433314242383544333831372F4173736574446174612F496E7374616E636550726F706572746965732E62696EEB606060F80F0540260323103700495E20ED9E9A975A94991C9C9C919A9BA80214B070313373753472D635717531D135313131D4B5343637D4753633367671B53473313130634768046931363471713532
311
B5D435353131D635313332D475727372D13534373670367376B67474B5042A03DBCBA019D37FE8ABC6157B20CD04146B0062181F4C03F940F0C11EA29A8141C08141002C0426541C106CAC2CA046088033B02A030AC2157C6006F21A8018AAF50194E6010A610250382264E08660284CD9E98021862280A91564B406929A0F
311
F62C401E28B6F88038B83CB1243943D7A928312F2535052403033A408623104FE2506158C526081346A14166C30490D577319D8009C36900504B0304140006080800AC59F84A28BB58AF800100009E0500003D00000031413836433430302D334133372D343937342D414642422D4433314242383544333831372F53636865
311
6D61732F436F6D6D6F6E536368656D612E786D6CBD544D4FC23018BEFB2B96DE15493C78601010A34B880709DEDFB52FD0D8B54BD70DF6EFED3AC0B12E6442E2716BFB3CEFF3D18E26FB440405EA8C2B1992E1C323095052C5B8DC842437EBFB673219DF8DA659866649B798C078B48AE6410122242F2A4994AC7F93815DF8
311
5C049C8564CA0A901499DD886B2EB9B1E02448F358701A9235880C49A0119892A20C89D1B9FD768815CAD268CB5E0355B40B1E47F3E37A2020464BED06AA57CE8FCC20C3C3446D46761A2632A8C1283D07031EFF2AE7CCB1BFEEE916E406DFAC8E36FFD99A9D60A6944090EEDC3B670C7DC13DE86B6B2C5C240D6E503BB85A
311
CD579D513F1B9F9A69DC9CC22AFA80C426D40AF0B21EA168559156B6276F0F726A6BFF04DCD513A87A62CAD41FB24FCB2858B3952E3D852084DA25B9303C15687973CC8E8AAE11DF2836C38C6A9E765E8C1BA1BFB1DC29CDFE518C8B5A7655A4ED7E77291ABEB80DBD82EC866ADE1B8D05AF9E35CF09D7A061F38A986D9EC4
311
12B8F0F65E5D81534D9B231D1E5A8FE577A241F3A5FD01504B0304140006080800AC59F84A2CCEBD668A040000E01200003E00000031413836433430302D334133372D343937342D414642422D4433314242383544333831372F536368656D61732F47656E65726963536368656D612E786D6CD5586D6FDB380CFE7EBF42F0
311
F7A649B70E1B90744856B4970F450FCD7A5F05459613EDE4174872DADCAF3F522F8ED3B88D2F1D06AC4050DBA2493EE4438AF2F8EB73AEC8466823CB62928C06C384888297A92C5693A4B6D9D9E7E4EBD51FE3A931C22EF85AE4EC6AFC38BF261BA626C9AD288496DC3F4FCEAFC63366845F7A10452AF41DB320C0D44EC26E
311
AB20918735565582695670811A6A49643A49A6E9069FA4604A64B29016DC4B48552F95E4932463CA888468C1D2B250DB4962750DF7CE273069CE8363F1FF4EDB00E0A21999574AE4A2B00C353B93F3BD4777B8A61ED8F604ABFEDD79CE56A2B7BDFBDBC50996E0ADDE16FED26223C5D30956C29BDF4A55EA686E5E58B112DA
311
45CE67F76F4FA27EFA3FB672FD7372FC388FAECDCA5209E693CAD167BADCD272F943701B3812F8A3D852008B1D2E32DB927B2F833C6EA95879925356D254582695095A3CE982924720BE5774A3CB9CDCDB350427D2DF20DA1B5532EBE2D5D6288D75D4F7E4FD9890A0EF8E3D93EBB8F8BA4758158EF6FB90A6F9520281C93D
311
E7AAC6D24607DA296BB96018123F821A7D6A5C5884050C475DA4865442732C8B95684A50165CBB3A32F25F783A4A480ED59AD7F924B968AEA50131F46303223E6A397B0E52976030DC1DCA81D7E7C1EDEEA42C19FF27635C505E2BD5198A599020DF50A2330FCB3AAF28CB0124108429553EF1B228802E2265D8F7CC240104
311
2B155BCC7070F1E5C55F13B4A9577362CCCE46C32174E010C3C378C44841A4BDA00FE3A12006CE11EE6AEC59894D3526DDE1CD59D503ECC324017F8061B7F162162FA62EDD81AE3308617770796DCBDAD2B2625C5AE8A63DE20B2C8AA5E95E76E5730823955956E33E705425A2187C185D36489A1B44D3DCEC2172F6BA2105
311
C3546287A7194B2331768EBBE64F6E70A9930ABE0ADEA89E9E2C38523B810287AD67A54A039C1606EAFE68F8304610BB9093DBDDABC0B2AE4E290DCDA15376D7E39F72B556F0B32EAB5D3D498B4C41ABADEC3A1434C422D87E8025A84BDCB2B1417ED750FAE4DA8976863974C577C7F902D3F156AD354DEA3540DE6BEAE2BE
311
A52F7A2EB4CA43802ECE5BF2CE2EDC9347179FFB023CE412E60BE16DA0BE29B374988A553F561DC04615DD35F7D2C8979F60E5955CE93DF29DED8AFA1EE6642D53418086C03C47C377910F75F7E8F5EF665F70B60FFB22AEDF897D119E8423C773E819A3C1E55E550599EE6EDCA34D0C86FD72057DF2CD46F16A470682471C
311
164E4346D5306BF12D7D12D82CFF673D41636C347443FEB51B50D72EA171A8E4A58623A4A16E0FA2B8B10A0D23268D87C33896EE8FB73305A74BF224EDBADFA0BD674AB354D63DB7BD5D83426761C077DE767728235446A552754EB93B755891C3C4CC6CADE37CF0E912A7BB38DBA010F9DE1282EDF470CA69A9CDA482E334
311
C4A6EA4107987980B17E72F31730EBF88BBD39E7C629F56797A3C0009C2C5AE7951D9A05A02773440F02EEB4DE396A3B6A570C72CCFBCD823B0B8ED3F1D5CEDDFED772FA70236C83FB7D86C385D570B87107535572A60A96035F8F7C6A7192F13007246BBE0521855E6AC46F3E27689CEE7D186A6FD679D98CDCAD13333E04
311
EBE7ED6F55FF01504B0304140006080800AC59F84A6180134D5F0100006B0300004500000031413836433430302D334133372D343937342D414642422D4433314242383544333831372F536368656D61732F52656E6465724D6174657269616C536368656D612E786D6CA5934D6FC2300C86EFFB1551EEE343DBA41D1A1030
311
09551ADAD40EAE28A4A68D9426284961FCFBE5A340113B2071746D3F765EBF4DC6BFB5407BD0862B49F0B037C0082453059725C18DDD3EBFE3F1E829991803366715D474942CD30FB4A782E00C64017A412D684E454CE3FE28995203B162A6EA5AC94B66997D225E109CD63B0135484BAD1B3C07E9080CA35DB3119C11BCA5
311
C200461A68A1A438126C75E3E230D40FF81FB3F03C91D1E3A3A0AF79FE28E25BC39EC3E17E4C2A2D94A0833A51AF55BCCA7D88572FCBAC529C4140B020FC3AAFA886621DCED7EAD7664CC86024E806DC297DA1BB393E4156543457A4537DB8817349A70F8ACBF09B3EEE2CB2F33E91B65D60786E4E3B39B77E3FEEEF565042
311
4525DA657FB8B46BE6BF064646F0A0F7327C0BC1BC1B4CBBC1C419FA3CCB23500007872A2580CAAE5461865565294E4EDB4617B62FF579DF9A5B2F54E834076A597573A020912FED777F9B3F504B0304140006080800AC59F84A71DC8CAF51000000570000004700000031413836433430302D334133372D343937342D4146
311
42422D4433314242383544333831372F4173736574446174612F41737365745461626C654F66436F6E74656E74732E62696E53616060B070313373753472D635717531D135313131D4B5343637D4753633367671B534733131301302AACB4D2C492DCA4CCC492C28484D2C4ACC4B4E050A82012F90744FCD03CA26072767A4
311
E6260200504B0304140006080800AC59F84AF865834058000000680000004500000031413836433430302D334133372D343937342D414642422D4433314242383544333831372F4173736574446174612F53747265616D56657273696F6E5461626C652E696E66558CBD0A80300C06F73E4B117FB66E451741D041DC5BF984
311
80A492E4FDD18EAEC7DD4555D89EF28DF51A0B1BD8340C4DE7DD848B988C0ACF0649566493F2408C508DDEBB99D5129FF8F1AF8CF5B9503E20FAE5A16B5AF702504B0304140006080800AC59F84A1860AF98350100009A0400003600000031413836433430302D334133372D343937342D414642422D443331424238354433
311
3831372F4173736574446174612F636E782E786D6CCD94314FC3301085FF4AE43D7612404595E30AC1D209242A06B6AB7369AD3A76645F10FC7BEC3603A888A943D7F3BBF3F327BF93ABCFC1161F18A2F1AE6535AF58814EFBCEB85DCB26EACB7B56AC940CDED30F192B1C0CD8B25C664AEE829FC6B9D4610F93CD556BDC61
311
2E3EC488B481ADC5E7FED13B42479115DA428C2D8B7A8F037098C877180FBC03025EF380D14F41639A4466C079920E08841D534D552FCA6A5136B79BBA5ED637CBE6EE5D8AAC5472EBBD9DF5265D16FC58E8D3AD4C5552E46325A760664D7E0B537F79E45BE3A4484A252385C464EEA0AF3175C0385AA381123AE135219549
311
84304871122B2932835F249EB037CEE496753206E4C34BB287810C5E1D91FFBC5E9ECCDA4502A7F17A799C3BBC3C85D7E30F7A3B05F298986BCBC9B9436E5C7F819488E31A49A1C95B457D03504B0304140006080800AC59F84A4C4359C6090100004F0300003400000031413836433430302D334133372D343937342D4146
311
42422D4433314242383544333831372F536368656D61732F636E782E786D6CCD93BD4E042114855F65423FCC306AD66C18B6B0B0B2512B3B84BBBB64813BE1C7E8DB0B23C56E62A7C57670F842CE395CF8EED3D9EE034234E867C2E8483AF00AB5F18799E4B4EFEF49B7133C20A6338C745E3A98499589E0878079699286BD
311
CCB6AAD6F853131FD039F42FEA084E924E5919E34CE2BAA53227D4104F54CB2429A30122E6A0A0DC908C8376830A20136822A6916DFA71D34FB7AF8C6DD9CD76BA7BE34325057F47B48D373E41C0A5535816BED819F9508F05CFC134A66620E2DC1B2D6DF0A11082C7144A078D4C5F4B21E5B258A3642A550D2BF8C3083ED4
311
A817811FC14330EA3A135F98FBB7C8CFE03584A7F24AC1487B9DC97FF3F8B7028675F6CB08D4AF20BE01504B0304140006080800AC59F84A410A3D5871000000A40000002C00000031413836433430302D334133372D343937342D414642422D4433314242383544333831372F636E782E786D6C55CC4D0E82301086E1AB34
311
B31774E7A22D31F1069E60020334B633A63FC6E34B0909B07DDE2F9FEE7EC1AB2FC5E4840DDC9A2B28E25E06C7938192C7CB1D54677514C9871928C640062A83D55394F2D968A0118BAFEA1DBF377CA444F98919176EAB9FEAAB9F2960DA5BBB1E2ED3FA6FFF504B0304140006080800AC59F84A1096E96A7D000000A30000
311
0007000000636E782E786D6C4D8CD10AC22018465F45FE7B4BD1D2401DDAE83D467343DA346C468F9FC62EBAFAE0F09DA3BACFBAA0B7CFAF90A2067A20807CBCA731C45943D9262C017546E594B6BF1BA038AC5E43C360D49C5379EE68F4D350964697101F3BA4569EAF9C10CC2C13985F04C7F6E61CEE19754E9E7A26A9A8
311
C6B129757EBDBA2D6FBE504B0304140006080800AC59F84A16E99B5DA600000035010000130000005B436F6E74656E745F54797065735D2E786D6C9590410E82301045AFD2740F4517C6180A0BF5065E60AC53688469D30E066F6F91AD9AB89CF9FFFD3F99BA9DC7413C3026E749CB4D59498164FCCD51A7E5C4B6D84BD136
311
F5E5193089ECA5A465CF1C0E4A25D3E308A9F401292BD6C711388FB15301CC1D3A54DBAADA29E38991B8E0254336F5092D4C038BF39CD76B6FC6A538AEBEA54A4B08617006389FA516557DE4AE8E7E70DE30729138228C5F021CD93F02D4FB0DCD0B504B0304140006080800AC59F84A3DEE336E64000000790000001B0000
311
006175746F6465736B2D64657369676E2D7061636B6167652E786D6C35CBC10E83200C00D05F21DCA56CA76D41FC96062B120735B69A7DBE268BB7777961F8D5AF396893C2ADB70FE7ADA196782C2DF776D7A97B5933C430F15651E5469C55D70F80A4992A3ADC954792C525AE70A1E4D6AD9816CC044FEFDF01FE3FDE9078
311
02504B0304140006080800AC59F84A46FAA3D0F8000000960100003700000031413836433430302D334133372D343937342D414642422D4433314242383544333831372F4173736574446174612F636F72652E786D6C8550CB6EC32010FC156BEFD8C68EED26C24469F11FF4D41B02E2A0C460F1A8FAF985D895DA532F2C9A
311
9D99DD1D72FE5A1EC5A7725E5B33022E6B289411566A338F10C315BD4071A6C4591B7ED1A0307C5123641828999D8DEB0E096B8232193556AA1DE4DEAB008578A4CF085EDCD4C24B1E4362F87BB97271E7B32A71B9F1288951CB5DAA6572D357AD1CD0A1EFFAA9650C1D5EEBF4B4B843C7B79EA1696213BB74757B9C8EA4CA
311
624A825E7EA60BA77850126853E301D5036A0EEF189F707B6ABA0F526526253EB874F33E345F07F492B7663C70526DDD3FAE7195FFBB466D42DBECAE9BC203C569C96783922AA794CA33C25473A2F41B504B0304140006080800AC59F84ABA0335A2F7000000940100003500000031413836433430302D334133372D343937
311
342D414642422D4433314242383544333831372F536368656D61732F636F72652E786D6C8550CB6E833010FC15B47703860025328EDAC217B4A7DE2CDB2156828DFCA8FAF9B5814AEDA917AF353B33BB3BE4F2B53CB24F699D327A009C979049CD8D507A1E20F82B7A82EC428935C6FFA241A6D92207483050325B13D603E2
311
467BA913AA8D9007C89C931E32FE889F011CBFC985E52CF8C870F77C65FCCE6699E37CE751128212875489E8A6AE4A5AA05DDBB4533D8EE8F452C6A7C60DEA5FDB114DD3388DCF4D59F7534F8A24A6C4ABE5673AB7927929805625EE50D9A1EAF48EF119D7E7AAF920456252E2BC8D371F43D37540DFB63D1D29F6DE1FCFB0
311
8AFF3D83D2BEAE0ECF5DE180E2B8E2D6A0A44819C5B205186BCA937E03504B0304140006080800AC59F84A2542E97401010000D70100002D00000031413836433430302D334133372D343937342D414642422D4433314242383544333831372F636F72652E786D6C9591DD4EC42010855F85704F5B4AD7D60D65D3BAF109BC
311
F20ECB6C25BB85861FE3E30BB646BDD32BC8E13B339C197E7A5F6EE80D9CD7D6F4981615466026ABB4997B1CC38574189D0477D6861F1846462ED0E32C63C16767E3BA4B9335014C568D55B08BD27B08184DB774E9B19F5E6191858C2111FE5AAC72BACA190A5A6C9CE0412F5FD6C9810CA0B0A82BDA92AA2575F344E991B2
311
637D78E66526058FDA0456EFCD60790185EC1A52242C0EBCDC5E1315B5DA19ADD21FF54583C3820EDDDD435355840DAC25CD7DDB90E1711CC999D171EC0E67D6D136154966C17D7069327B913C83BFDA37E3AF647155FF4CB6397CEAF91DAACC6316BCFCDC413AF34AC407504B0304140006080800AC59F84AD32DA6780701
311
0000B201000008000000636F72652E786D6C8D50C16E842010FD1532771474D5EE06D9B4D53FE8A9372AAC4B56C1006EDABF2FAC36696FBD30E4BD37F3DE0C3B7FCE13BA2BE7B5352DD08C005266B0529BB185355CF013A03367CEDAF04B06C88859B59060E06C74765D7668B02628935063A5DA41E1BD0A8086297E5AF0C3
311
55CD22136B880A7FCB1631DCC4A8329A6D3ACE829E7F5A07A74450127841688349838BC31BA5275A9E8AEA9DE549C9D9BA6AB95B6919DDF5452B07BCA9ABBA2FBB0E1F5E487C4A5AE1E36BDDE1BEEFFAEEB922E5B13FB23C3573E6838B3BEF4362CE80BCB8275F966F14671FD64EBB208692C89AE90B38617922FE845E17F9
311
8FD0DA84B2D8076E1D1E388D811E44344E178CE571DE58D3B5F937504B01021400140006080800AC59F84AD11205B5DB000000200100004F000000000000000000000000000000000031413836433430302D334133372D343937342D414642422D4433314242383544333831372F4173736574446174612F446566696E6974
311
696F6E4974657261746F7250726F706572746965732E62696E504B01021400140006080800AC59F84A1B5A1406080100003002000045000000000000000000000000004801000031413836433430302D334133372D343937342D414642422D4433314242383544333831372F4173736574446174612F496E7374616E636550
311
726F706572746965732E62696E504B01021400140006080800AC59F84A28BB58AF800100009E0500003D00000000000000000000000000B302000031413836433430302D334133372D343937342D414642422D4433314242383544333831372F536368656D61732F436F6D6D6F6E536368656D612E786D6C504B0102140014
311
0006080800AC59F84A2CCEBD668A040000E01200003E000000000000000000000000008E04000031413836433430302D334133372D343937342D414642422D4433314242383544333831372F536368656D61732F47656E65726963536368656D612E786D6C504B01021400140006080800AC59F84A6180134D5F0100006B03
311
000045000000000000000000000000007409000031413836433430302D334133372D343937342D414642422D4433314242383544333831372F536368656D61732F52656E6465724D6174657269616C536368656D612E786D6C504B01021400140006080800AC59F84A71DC8CAF510000005700000047000000000000000000
311
00000000360B000031413836433430302D334133372D343937342D414642422D4433314242383544333831372F4173736574446174612F41737365745461626C654F66436F6E74656E74732E62696E504B01021400140006080800AC59F84AF865834058000000680000004500000000000000000000000000EC0B00003141
311
3836433430302D334133372D343937342D414642422D4433314242383544333831372F4173736574446174612F53747265616D56657273696F6E5461626C652E696E66504B01021400140006080800AC59F84A1860AF98350100009A0400003600000000000000000000000000A70C000031413836433430302D334133372D
311
343937342D414642422D4433314242383544333831372F4173736574446174612F636E782E786D6C504B01021400140006080800AC59F84A4C4359C6090100004F0300003400000000000000000000000000300E000031413836433430302D334133372D343937342D414642422D4433314242383544333831372F53636865
311
6D61732F636E782E786D6C504B01021400140006080800AC59F84A410A3D5871000000A40000002C000000000000000000000000008B0F000031413836433430302D334133372D343937342D414642422D4433314242383544333831372F636E782E786D6C504B01021400140006080800AC59F84A1096E96A7D000000A300
311
0000070000000000000000000000000046100000636E782E786D6C504B01021400140006080800AC59F84A16E99B5DA6000000350100001300000000000000000000000000E81000005B436F6E74656E745F54797065735D2E786D6C504B01021400140006080800AC59F84A3DEE336E64000000790000001B000000000000
311
00000000000000BF1100006175746F6465736B2D64657369676E2D7061636B6167652E786D6C504B01021400140006080800AC59F84A46FAA3D0F80000009601000037000000000000000000000000005C12000031413836433430302D334133372D343937342D414642422D4433314242383544333831372F417373657444
311
6174612F636F72652E786D6C504B01021400140006080800AC59F84ABA0335A2F7000000940100003500000000000000000000000000A913000031413836433430302D334133372D343937342D414642422D4433314242383544333831372F536368656D61732F636F72652E786D6C504B01021400140006080800AC59F84A
311
2542E97401010000D70100002D00000000000000000000000000F314000031413836433430302D334133372D343937342D414642422D4433314242383544333831372F636F72652E786D6C504B01021400140006080800AC59F84AD32DA67807010000B201000008000000000000000000000000003F160000636F72652E78
311
6D6C504B050600000000110011005A0600006C1700000000
310
504B0304140006080800AC59F84A000000000000000000000000370000006662782F35323636314535302D324139382D343536422D393333452D3245333139373833353732342F617474726962757465732E62696E504B0304140006080800AC59F84A000000000000000000000000350000006662782F3532363631453530
310
2D324139382D343536422D393333452D3245333139373833353732342F76657274696365732E62696E504B0304140006080800AC59F84AF270F1330600000004000000360000006662782F35323636314535302D324139382D343536422D393333452D3245333139373833353732342F747269616E676C65732E62696E6366
310
60600000504B0304140006080800AC59F84A51464CB48900000043010000360000006662782F35323636314535302D324139382D343536422D393333452D3245333139373833353732342F6469726563746F72792E786D6C9D8F310EC2300C45AF127987122606C71DD918B841D4B851A43646695A717C52A85029031293A5
310
A76FBF6FACEF7DA7264E43906840EF0FA03836E242F406C6DCEE4EA06AC22492573150D1F66C60C640E8938CB705396EEDD86DE9B5042FE27813D640EA63BB001C722AF6E55CB61E4863F58284D5D3F53DD715CE1C3985E63FD7F1B7EBDD617E9F1E504B0304140006080800AC59F84A72AC064E2F0700001A1C0000340000
310
006662782F35323636314535302D324139382D343536422D393333452D3245333139373833353732342F6F626A656374732E786D6CDD596D6FDB380CFE2B82EFB3DF62274D8634439BA44330741B16EC70DF0CC551525DFD06C9EECBFDFAA364C9B11D27717B1B305C0BB4A92A53E443F221454F3FBEC4117A228CD334B936
310
5CCB311049C2744B93FDB551E43B736CA08F333465699AD7F61928C131B936C4B2319BEE595A646A694B76B888DAAB77B77F211E928418288C30E7D7060F1F488C2D5CE4E996F0476B8B736CED772F966B951B9B62F70C670FADA332CC489283AAB09E8014A581DBFC134CB267535B6C686C1BF4DBE69DD9664BC39B8AD284
310
E738098FB46AC919F4D3CA73FDC572309C9843DFF74C7F3470CDDBBBDB85E95E79CE7C349F4F6E961303CDA69B348D2A076424D982175F8D993BB5C57F2AF3150A5D7A8769929050A1D9B5614B945C4A781B9306B0AE34ADE690D2D6DA82D7D3F813DB7A81D250A981B6364EFFAE476FBAF91B40E07DA2947122A29CE70C7C
310
ADB02FF3C199DAE56AC32F94A318E784511CA1886E1866E020D85A3AA82146648B10850466D28B5A5E5D5708ECCBB9D4A5E5AE882291BFC64C665A00F948722E35A3FF1076D0BE7E1AE804D61634C9C7CAD8FC35031193A92D17CBFF7903F5CF1248B48BF01EA205CC149BBC410BAFB9E082D5C2987DBEDBBCAC053F741F9E
310
B134232C1791279359E59DF6602DB420F87A8052E2DAF4DD0195EF00FD1740BED2054DC1738CBEF82FBEB69DE184EF5216837790834C077E38487C3CFA34B5AB87670835B8F214A690B63F09D386198DB36B90CEA64F10F429F39471EB104710D3F73411790E8182A2149680EF779B1763B602328545780A47603D7C4F6DF1
310
11C1AF520EF04DCB435DF4DBC3513A61DA7976F0D527881946C3CA550D1B4FE13BFC29F8DE2CD69FD705DBE190DCABC45E901D4D680EC5B45BA106E88D94FFB1FA2233F2C89EC6AE10CED9A782383AFCB2567E41D231A08AA8C3A56BE4CA3D85748F229C90B4E06ABD8BA8C2344A59B0790DCA1CEE3CEB4F1D04E56190DF22
310
023AC90CAA7BC86826403166CABC8A09AD034E82075500EE4BA7061B1C3E0A78831018EB3D7A40D462D6165AC45980E3B448047D1F8777DB34CB73E497EB4E06CE64309E8CB4B15C8AD7D9A3A9A1525E9C13E3ECC421F386B7146B68C9651EF9C0965D1684D0331579906638A479772CB48C50190A609F55794B77BB8203A9
310
77C2D2D2D8F2DC21726A3FAB43CE6BAF0E09688CF724D86151E13ACF6B005409D7167422B38F52CE6942B8EC508E98AB858A6301119471ABA5760421E5414C72FC9EF89325AF157E8CECA2007AA95C74B397A34F2BA8AAE72989A2734B9340DAFF1A701C6751D9A55DC2C01DB44EE8C455282D8E7882780B701E385B229BEE
310
4BD22B5ED0F8F6923E79B7F813F030FCCBE1D1475068BDA1465EF6AC6B0DDD89F81A03A98C86AE77A51D71092B7D542E7A90A880AE297C0D9E09DD3FF423B45EE77012ED021A45451C94F5202731B460382F58AF7C1D0D9D23E72B5E682544EDA41D8DA041EE4D9AB2F7D0DD0758259B8F53A4593B068CA209DCD17A197264
310
4567084B5FC8FBA8B8765DF6FEDBA5FE67BEACDF531EC9EB73CAB69D9A36DB08DD81E98641D0A5AA70551C49C9B3693DF9627971B98C83AF85287E2B6F092A421879A26230216F409DF707FE8CF31088742D7F9BB790115BB23DF4140D716ACC61CCE0502D4DF7A9F59B0E909D281F8DC66B250835866903163C7B2F3E44DF
310
31B81A3A3F6EABAEC62ED757A2B059305839E87146D6D74FEB961458E9FDF4378111796E4950AB73D1C89D11F56375E8575B1294453F56671ECF1F8A7893602A2AA3080BBCCD3E7C9477C96B1B2E0AF6D2B9F56E46EEC45C5E2D5DD31F8E87E6D8F546E6FC6A3998DF2D27CBB1736333C2D3828584DB03DB0974EF94257B1D
310
1825747D6E143055B87CF5D3F1DC76F0FFF84611A51B7C2A167FD70B45D5EE8986AC958B7D2F149D44BD795BF7EF1E117577117B53E75CCE0A74809F2F5B4046BADEF76F2DB468DD4974EB5CAB886F2CBC276F2BBFBCC63408BDB33E347674517E938B61F6D451A5F4ED56F2DA78311A2D6F0673D35F2E7CD3F77DD79C7857
310
AE391F79DE6239192D7CE7702554B5B06F5DF92D38542B5B1BA3C13498A71185A13CD9A23D49E1060453871EFCCA62C2E5CD061A0055C6F51B811E4F3F9533D51C6F22FD74F88061301DA98A5C843014855BC7B5A1D6D11F3006159348399CB21EA1F0A8683750C1E8B501219053A82FD606C659727828A5B7C695E0369CEC
310
C59DA97CAAFAFBF098400762E56057B5A70F2ECAB24674C2702093EF0980ED7443F27ED3B53A08E7F07153E49531878583350A04FD42A0340EA67E8F0ADE17209EF376B996DCD380A4D764FE6C1C9452CD1CB3BD1CAFD7F0BE597CB3C5647CF5156551B117EE3C57EF1B924CD167444539849A42602833332CEEE1F30FF637
310
96C22BA618DD5108027B9EC6719AA83F6ED42B2AB47E80174E5B5B0FFBA06571DCA12D3B1E35D08789152716DEF2475800A7322AA6A225B80DD757C45473BDF685F0023CD6D8BF5A2045FFB5E6B5DEB40A60E4341F410A89B7382261EA1B6AA347C802D0AA9CD0561FF4C2D46630FE9EFD0B504B0304140006080800AC59F8
310
4AFBB7D6C53E01000046050000300000006662782F35323636314535302D324139382D343536422D393333452D3245333139373833353732342F636E782E786D6CCD94C14E032110865F65C37D61A99A9A86A589079FC083F1C6B2D315CBC2060663DF5EA8DBAA31351E9AD81B19FE49FE6FE6CF88F5DB68AB5708D178D712
310
4E1B5281D3BE376E6849C24D7D4BAAB514C17BFC2223955323B4A494891443F0699A4B3D6C54B2A56A8DDBCE4585184C971022A9B45531B624EA67181555097D0F714B7B858A721A20FA1434E47E3423CCFD3A8042E8895C347C5937CB7A71FDC0F98A5FAD16374F8215A5149DF776D61B8710FC54699F1F2E9B69042BDF52
310
A460664D2120F2D319ED8C132CFF4B11B35B37CC3ADC4D45374DD66885794CCC6B04ACB308D428D887580A5678BF51DFDF3D1E1C54BD09A0D187DD3F0D809F1AC0D118CD49F81BFF5EF83BB6EF5E32EE7F6DFB24EC6CEB6CA887B4C61CD79FFBCF29526EB09717FAA3B1F3673E9F1234FAF2900FBECE44CCF6272F2FBD5C40
310
F90E504B0304140006080800AC59F84ABBDAFDB27D000000A30000000B0000006662782F636E782E786D6C4D8CD10A832018465F45FE7BB7D434033536F0416259C44CC3E5D8E34F4717BBFAE0F09DA386CFE6D1DBA5D71A8306726900B9F088D31A160DF998B104341895623CFE6E80C2B8390D1583514B8A793FD1E4E631
310
FB4AFD1A9E27E45408627983E9AD97B8E5E28E7BC62CA69691BE938C77B42DC6B52A657EBDB2356FBE504B0304140006080800AC59F84AA6D797065F0000008200000007000000636E782E786D6C4DCB3B0E80201045D1AD90E9FD7516806B51190811670C8A61F982B1B0BAC9C97B72CA7B1037C6D3332918DA1E04D2CAC6
310
9353902EDB8C20262D23F3F59B81A079470595414B17391D1F19B4730A5583A7ED43BBE4025D9592775E5ADFFA01504B0304140006080800AC59F84A4FEB6A7CA0000000F4000000130000005B436F6E74656E745F54797065735D2E786D6C7D8F4B0EC2300C44AF1279DFA6B0400835ED02B8011730C16D239A8F121795DB
310
93D02D6269CFBC19BBED573B8B17C564BC53B0AB1B10E4B47F18372A5878A88E20FAAEBDBD032591BD2E299898C349CAA427B2986A1FC86565F0D122E7318E32A07EE24872DF3407A9BD63725C71C980AEBDD080CBCCE2BAE6F5D69B7110E7CD57AA146008B3D1C8F92C5954F993BB1BF787F39A89ABC491D09600F9FDA2FB
310
00504B0304140006080800AC59F84A3DEE336E64000000790000001B0000006175746F6465736B2D64657369676E2D7061636B6167652E786D6C35CBC10E83200C00D05F21DCA56CA76D41FC96062B120735B69A7DBE268BB7777961F8D5AF396893C2ADB70FE7ADA196782C2DF776D7A97B5933C430F15651E5469C55D70F
310
80A4992A3ADC954792C525AE70A1E4D6AD9816CC044FEFDF01FE3FDE907802504B0304140006080800AC59F84A50FF938CF9000000960100003B0000006662782F35323636314535302D324139382D343536422D393333452D3245333139373833353732342F7265736F75726365732F636F72652E786D6C8550CB6E833010
310
FC15B4770376482191719414FEA0A7DE2CB3A156821DF951F5F36B072AB5A79E76353B33BB3BFCF4B5DC8B4F745E5BD3032D6B28D0283B6933F710C39574509C0477D6865F34288C5CB0870C83E0B3B3F1B141CA9A8026A3C64EB881D27B0C50A87B6A7AF0EA031759CA1812C3DFCA875437396349CB9527788C7ADAA47A4A
310
6EFAAAD181D81F5E0F433D9C49C32E7BD28CBB915CEAB6239791356DD39DE9C05E7895C58207BDFC6C570E65C00904AB694BEA96B0E68DD223DD1DD9FE9D579929B80F2EFDBC2DCDDF8170E86D740A3DAFD6E91FD7F898FE778DDA841DDB5C57850741D391CF81E0554E29956784A9E644C537504B0304140006080800AC59
310
F84A4FF8CD61F0000000B1010000310000006662782F35323636314535302D324139382D343536422D393333452D3245333139373833353732342F636F72652E786D6C8D50CB6EC32010FC156BEFD806FC8C30512BF90F7AEA0D6192A0C460F1A8FAF985D895DA5B4E8B666798D961E7EFF5517C29E7B53513E0B286421969
310
176DAE13C47041031467CE9CB5E10F0D0A235635418681B3ABB3713B20694D5026A3C62EEA0085F72A40211FE931819737B58A52C49018FE5E6E42DEC55595B8DC799C05BDFE4AA55322A80538A9718FEA1E91E603E313A627D27EB22A33398B512F87955E92BBBE68E580B7A4EBF0DCD688BC8D036ADAEE1D8D94CE88CC14
310
8FFD40DB9E34ACCA62CE7C70E9E6E3937CDDABF25DF82F73DC9617326B1328390C7785078E539EE782B32A1798C6B3DD3473D9FC07504B0304140006080800AC59F84A65D9A7F354010000DD0200000C0000006662782F636F72652E786D6C8D525D6F832014FD2B867754A89D6D8334EDDA7FB0A7BD51A48E54C12098FEFC
310
811F713EAC5B4C909C7BEF39F79C408ECFA68E7A613AA95501509C824828AE4BA9AA02387B873B101D29315ADB1F6D2052AC11050830A0A432DAB513C4B5B2420554E9524C20EB3A6141C46B7F2940C7BF44C362E6ACEFE81E71CBF883552246F1D8478973B29C4665E9D9E45D0A03E876FFBEBFA49713CCF0790BB3EBE60A
310
CF69BE83E72BCEF26C774217FC4692304C8995CDACCE8D60569480E214E530CD21CE3E103AA0CD016F3F49123A29E9ACF19E27D1E00ED0FBED4992115FF1B9B6FC9BCF49653778E21B273A40915F6F285092847CFC6F086F9DA117F6F95976AB670B0F0FF5825B6D325F29B55B4A3DAB9DF0D469347C2419AB9E7920F88D07
310
BFE079CDE18362AAF2AB31EBAF376783FA7AA75618D8DB67A4B46958BD2C37AEB89C8BD0CAD23CCE75ADCD7FA667AB7398497898F41B504B0304140006080800AC59F84A99839F9F07010000B201000008000000636F72652E786D6C8D50C172832014FC15E6DD5141AD26836462E31FF4D41B15629828388299F6EF0BD1CE
310
B4B79E1EB3BBEFEDB2ECF4398DE8A116A7AD6980241920657A2BB5191A58FD15D7804E9C2DD6FA5F3240464CAA81080367C362D779877A6BBC32113556AA1D14CE290FA81FC3A301D7DFD42412B1FAA070F76416FD5D0C2A21C9A6E3CCEBE967B55F94F04A02A719A97056615ABC117224F99196EF2C8D4ACED655CBDD4ACB
310
E0AEAF5A2DC0CBC3EBE1925DCEB8A06D898B2EEF709B55356E3B5A54457D2617FAC2D2B8CC99F34BF8F37E24E4F4C88947F465E94671F661EDB80B422889AC19BF80672C8DC49FD0EB2CFF115A1B9FD3FDE0B6E1809310E84904E3D86018CF7AC38C6DF36F504B01021400140006080800AC59F84A00000000000000000000
310
00003700000000000000000000000000000000006662782F35323636314535302D324139382D343536422D393333452D3245333139373833353732342F617474726962757465732E62696E504B01021400140006080800AC59F84A0000000000000000000000003500000000000000000000000000550000006662782F3532
310
3636314535302D324139382D343536422D393333452D3245333139373833353732342F76657274696365732E62696E504B01021400140006080800AC59F84AF270F13306000000040000003600000000000000000000000000A80000006662782F35323636314535302D324139382D343536422D393333452D324533313937
310
3833353732342F747269616E676C65732E62696E504B01021400140006080800AC59F84A51464CB489000000430100003600000000000000000000000000020100006662782F35323636314535302D324139382D343536422D393333452D3245333139373833353732342F6469726563746F72792E786D6C504B0102140014
310
0006080800AC59F84A72AC064E2F0700001A1C00003400000000000000000000000000DF0100006662782F35323636314535302D324139382D343536422D393333452D3245333139373833353732342F6F626A656374732E786D6C504B01021400140006080800AC59F84AFBB7D6C53E010000460500003000000000000000
310
000000000000600900006662782F35323636314535302D324139382D343536422D393333452D3245333139373833353732342F636E782E786D6C504B01021400140006080800AC59F84ABBDAFDB27D000000A30000000B00000000000000000000000000EC0A00006662782F636E782E786D6C504B01021400140006080800
310
AC59F84AA6D797065F000000820000000700000000000000000000000000920B0000636E782E786D6C504B01021400140006080800AC59F84A4FEB6A7CA0000000F40000001300000000000000000000000000160C00005B436F6E74656E745F54797065735D2E786D6C504B01021400140006080800AC59F84A3DEE336E64
310
000000790000001B00000000000000000000000000E70C00006175746F6465736B2D64657369676E2D7061636B6167652E786D6C504B01021400140006080800AC59F84A50FF938CF9000000960100003B00000000000000000000000000840D00006662782F35323636314535302D324139382D343536422D393333452D32
310
45333139373833353732342F7265736F75726365732F636F72652E786D6C504B01021400140006080800AC59F84A4FF8CD61F0000000B10100003100000000000000000000000000D60E00006662782F35323636314535302D324139382D343536422D393333452D3245333139373833353732342F636F72652E786D6C504B
310
01021400140006080800AC59F84A65D9A7F354010000DD0200000C00000000000000000000000000151000006662782F636F72652E786D6C504B01021400140006080800AC59F84A99839F9F07010000B2010000080000000000000000000000000093110000636F72652E786D6C504B0506000000000E000E0080040000C0
310
1200000000
  0
XRECORD
  5
84D4
102
{ACAD_REACTORS
330
84CF
102
}
330
84CF
100
AcDbXrecord
280
     1
270
     1
271
     1
  0
XRECORD
  5
84D3
102
{ACAD_REACTORS
330
84CF
102
}
330
84CF
100
AcDbXrecord
280
     1
270
     1
271
     1
  0
XRECORD
  5
84D5
102
{ACAD_REACTORS
330
84CF
102
}
330
84CF
100
AcDbXrecord
280
     1
270
     1
271
     1
  0
XRECORD
  5
84D2
102
{ACAD_REACTORS
330
84CF
102
}
330
84CF
100
AcDbXrecord
280
     1
270
     1
271
     1
  0
XRECORD
  5
9F45
102
{ACAD_REACTORS
330
9F44
102
}
330
9F44
100
AcDbXrecord
280
     1
102
ACAD_ROUNDTRIP_2012_MLEADER_STYLE
298
     1
  0
XRECORD
  5
9F4A
102
{ACAD_REACTORS
330
9EF2
102
}
330
9EF2
100
AcDbXrecord
280
     1
102
DISPLAYNAME
  1
Imperial24
102
FLAGS
 90
        0
  0
XRECORD
  5
9F46
102
{ACAD_REACTORS
330
8518
102
}
330
8518
100
AcDbXrecord
280
     1
102
DISPLAYNAME
  1
Metric50
102
FLAGS
 90
        0
  0
CELLSTYLEMAP
  5
9F00
102
{ACAD_REACTORS
330
9EFF
102
}
330
9EFF
100
AcDbCellStyleMap
 90
        3
300
CELLSTYLE
  1
TABLEFORMAT_BEGIN
 90
        5
170
     1
 91
        0
 92
    32768
 62
   257
 93
        1
300
CONTENTFORMAT
  1
CONTENTFORMAT_BEGIN
 90
        0
 91
        0
 92
      512
 93
        0
300

 40
0.0
140
1.0
 94
        5
 62
     0
340
10
144
6.0
309
CONTENTFORMAT_END
171
     1
301
MARGIN
  1
CELLMARGIN_BEGIN
 40
1.5
 40
1.5
 40
1.5
 40
1.5
 40
4.5
 40
4.5
309
CELLMARGIN_END
 94
        6
 95
        1
302
GRIDFORMAT
  1
GRIDFORMAT_BEGIN
 90
        0
 91
        1
 62
     0
 92
       -2
340
0
 93
        0
 40
1.125
309
GRIDFORMAT_END
 95
        2
302
GRIDFORMAT
  1
GRIDFORMAT_BEGIN
 90
        0
 91
        1
 62
     0
 92
       -2
340
0
 93
        0
 40
1.125
309
GRIDFORMAT_END
 95
        4
302
GRIDFORMAT
  1
GRIDFORMAT_BEGIN
 90
        0
 91
        1
 62
     0
 92
       -2
340
0
 93
        0
 40
1.125
309
GRIDFORMAT_END
 95
        8
302
GRIDFORMAT
  1
GRIDFORMAT_BEGIN
 90
        0
 91
        1
 62
     0
 92
       -2
340
0
 93
        0
 40
1.125
309
GRIDFORMAT_END
 95
       16
302
GRIDFORMAT
  1
GRIDFORMAT_BEGIN
 90
        0
 91
        1
 62
     0
 92
       -2
340
0
 93
        0
 40
1.125
309
GRIDFORMAT_END
 95
       32
302
GRIDFORMAT
  1
GRIDFORMAT_BEGIN
 90
        0
 91
        1
 62
     0
 92
       -2
340
0
 93
        0
 40
1.125
309
GRIDFORMAT_END
309
TABLEFORMAT_END
  1
CELLSTYLE_BEGIN
 90
        1
 91
        1
300
_TITLE
309
CELLSTYLE_END
300
CELLSTYLE
  1
TABLEFORMAT_BEGIN
 90
        5
170
     1
 91
        0
 92
        0
 62
   257
 93
        1
300
CONTENTFORMAT
  1
CONTENTFORMAT_BEGIN
 90
        0
 91
        0
 92
      512
 93
        0
300

 40
0.0
140
1.0
 94
        5
 62
     0
340
10
144
4.5
309
CONTENTFORMAT_END
171
     1
301
MARGIN
  1
CELLMARGIN_BEGIN
 40
1.5
 40
1.5
 40
1.5
 40
1.5
 40
4.5
 40
4.5
309
CELLMARGIN_END
 94
        6
 95
        1
302
GRIDFORMAT
  1
GRIDFORMAT_BEGIN
 90
        0
 91
        1
 62
     0
 92
       -2
340
0
 93
        0
 40
1.125
309
GRIDFORMAT_END
 95
        2
302
GRIDFORMAT
  1
GRIDFORMAT_BEGIN
 90
        0
 91
        1
 62
     0
 92
       -2
340
0
 93
        0
 40
1.125
309
GRIDFORMAT_END
 95
        4
302
GRIDFORMAT
  1
GRIDFORMAT_BEGIN
 90
        0
 91
        1
 62
     0
 92
       -2
340
0
 93
        0
 40
1.125
309
GRIDFORMAT_END
 95
        8
302
GRIDFORMAT
  1
GRIDFORMAT_BEGIN
 90
        0
 91
        1
 62
     0
 92
       -2
340
0
 93
        0
 40
1.125
309
GRIDFORMAT_END
 95
       16
302
GRIDFORMAT
  1
GRIDFORMAT_BEGIN
 90
        0
 91
        1
 62
     0
 92
       -2
340
0
 93
        0
 40
1.125
309
GRIDFORMAT_END
 95
       32
302
GRIDFORMAT
  1
GRIDFORMAT_BEGIN
 90
        0
 91
        1
 62
     0
 92
       -2
340
0
 93
        0
 40
1.125
309
GRIDFORMAT_END
309
TABLEFORMAT_END
  1
CELLSTYLE_BEGIN
 90
        2
 91
        1
300
_HEADER
309
CELLSTYLE_END
300
CELLSTYLE
  1
TABLEFORMAT_BEGIN
 90
        5
170
     1
 91
        0
 92
        0
 62
   257
 93
        1
300
CONTENTFORMAT
  1
CONTENTFORMAT_BEGIN
 90
        0
 91
        0
 92
      512
 93
        0
300

 40
0.0
140
1.0
 94
        2
 62
     0
340
10
144
4.5
309
CONTENTFORMAT_END
171
     1
301
MARGIN
  1
CELLMARGIN_BEGIN
 40
1.5
 40
1.5
 40
1.5
 40
1.5
 40
4.5
 40
4.5
309
CELLMARGIN_END
 94
        6
 95
        1
302
GRIDFORMAT
  1
GRIDFORMAT_BEGIN
 90
        0
 91
        1
 62
     0
 92
       -2
340
0
 93
        0
 40
1.125
309
GRIDFORMAT_END
 95
        2
302
GRIDFORMAT
  1
GRIDFORMAT_BEGIN
 90
        0
 91
        1
 62
     0
 92
       -2
340
0
 93
        0
 40
1.125
309
GRIDFORMAT_END
 95
        4
302
GRIDFORMAT
  1
GRIDFORMAT_BEGIN
 90
        0
 91
        1
 62
     0
 92
       -2
340
0
 93
        0
 40
1.125
309
GRIDFORMAT_END
 95
        8
302
GRIDFORMAT
  1
GRIDFORMAT_BEGIN
 90
        0
 91
        1
 62
     0
 92
       -2
340
0
 93
        0
 40
1.125
309
GRIDFORMAT_END
 95
       16
302
GRIDFORMAT
  1
GRIDFORMAT_BEGIN
 90
        0
 91
        1
 62
     0
 92
       -2
340
0
 93
        0
 40
1.125
309
GRIDFORMAT_END
 95
       32
302
GRIDFORMAT
  1
GRIDFORMAT_BEGIN
 90
        0
 91
        1
 62
     0
 92
       -2
340
0
 93
        0
 40
1.125
309
GRIDFORMAT_END
309
TABLEFORMAT_END
  1
CELLSTYLE_BEGIN
 90
        3
 91
        2
300
_DATA
309
CELLSTYLE_END
  0
XRECORD
  5
9F42
102
{ACAD_REACTORS
330
9EFF
102
}
330
9EFF
100
AcDbXrecord
280
     1
102
ACAD_ROUNDTRIP_PRE2007_TABLESTYLE
 90
      512
 91
        0
  1

 92
      512
 93
        0
  2

 94
      512
 95
        0
  3

  0
XRECORD
  5
9F1D
102
{ACAD_REACTORS
330
9F1C
102
}
330
9F1C
100
AcDbXrecord
280
     1
102
RTVSPost2010Prop28
280
     1
102
RTVSPost2010PropOp28
 70
     1
102
RTVSPost2010Prop29
280
     1
102
RTVSPost2010PropOp29
 70
     1
102
RTVSPost2010Prop30
280
     0
102
RTVSPost2010PropOp30
 70
     1
102
RTVSPost2010Prop31
280
     0
102
RTVSPost2010PropOp31
 70
     1
102
RTVSPost2010Prop32
280
     0
102
RTVSPost2010PropOp32
 70
     1
102
RTVSPost2010Prop33
280
     0
102
RTVSPost2010PropOp33
 70
     1
102
RTVSPost2010Prop34
280
     0
102
RTVSPost2010PropOp34
 70
     1
102
RTVSPost2010Prop35
280
     0
102
RTVSPost2010PropOp35
 70
     1
102
RTVSPost2010Prop36
280
     0
102
RTVSPost2010PropOp36
 70
     1
102
RTVSPost2010Prop37
 90
       50
102
RTVSPost2010PropOp37
 70
     1
102
RTVSPost2010Prop38
140
0.0
102
RTVSPost2010PropOp38
 70
     1
102
RTVSPost2010Prop39
140
1.0
102
RTVSPost2010PropOp39
 70
     1
102
RTVSPost2010Prop40
 90
        0
102
RTVSPost2010PropOp40
 70
     1
102
RTVSPost2010Prop41ColorIndex
 90
       18
102
RTVSPost2010Prop41ColorRGB
 90
        0
102
RTVSPost2010PropOp41
 70
     1
102
RTVSPost2010Prop42
 90
       50
102
RTVSPost2010PropOp42
 70
     1
102
RTVSPost2010Prop43
 90
        3
102
RTVSPost2010PropOp43
 70
     1
102
RTVSPost2010Prop44ColorIndex
 90
        5
102
RTVSPost2010Prop44ColorRGB
 90
      255
102
RTVSPost2010PropOp44
 70
     1
102
RTVSPost2010Prop45
280
     0
102
RTVSPost2010PropOp45
 70
     1
102
RTVSPost2010Prop46
 90
       50
102
RTVSPost2010PropOp46
 70
     1
102
RTVSPost2010Prop47
 90
       50
102
RTVSPost2010PropOp47
 70
     1
102
RTVSPost2010Prop48
 90
       50
102
RTVSPost2010PropOp48
 70
     1
102
RTVSPost2010Prop49
280
     0
102
RTVSPost2010PropOp49
 70
     1
102
RTVSPost2010Prop50
 90
       50
102
RTVSPost2010PropOp50
 70
     1
102
RTVSPost2010Prop51ColorIndex
 90
      256
102
RTVSPost2010Prop51ColorRGB
 90
-16777216
102
RTVSPost2010PropOp51
 70
     0
102
RTVSPost2010Prop52
140
1.0
102
RTVSPost2010PropOp52
 70
     0
102
RTVSPost2010Prop53
 90
        2
102
RTVSPost2010PropOp53
 70
     1
102
RTVSPost2010Prop54
  1
strokes_ogs.tif
102
RTVSPost2010PropOp54
 70
     1
102
RTVSPost2010Prop55
280
     0
102
RTVSPost2010PropOp55
 70
     1
102
RTVSPost2010Prop56
140
1.0
102
RTVSPost2010PropOp56
 70
     1
102
RTVSPost2010Prop57
140
1.0
102
RTVSPost2010PropOp57
 70
     1
102
RTVSPropertyOp0
 70
     1
102
RTVSPropertyOp1
 70
     1
102
RTVSPropertyOp2
 70
     1
102
RTVSPropertyOp3
 70
     1
102
RTVSPropertyOp4
 70
     1
102
RTVSPropertyOp5
 70
     1
102
RTVSPropertyOp6
 70
     1
102
RTVSPropertyOp7
 70
     1
102
RTVSPropertyOp8
 70
     1
102
RTVSPropertyOp9
 70
     1
102
RTVSPropertyOp10
 70
     1
102
RTVSPropertyOp11
 70
     1
102
RTVSPropertyOp12
 70
     1
102
RTVSPropertyOp13
 70
     1
102
RTVSPropertyOp14
 70
     1
102
RTVSPropertyOp15
 70
     1
102
RTVSPropertyOp16
 70
     1
102
RTVSPropertyOp17
 70
     1
102
RTVSPropertyOp18
 70
     1
102
RTVSPropertyOp19
 70
     1
102
RTVSPropertyOp20
 70
     1
102
RTVSPropertyOp21
 70
     1
102
RTVSPropertyOp22
 70
     1
102
RTVSPropertyOp23
 70
     1
102
RTVSPropertyOp24
 70
     1
102
RTVSPropertyOp25
 70
     1
102
RTVSPropertyOp26
 70
     1
102
RTVSPropertyOp27
 70
     1
102
RTVSPropertyOp28
 70
     1
102
RTVSPropertyOp29
 70
     1
102
RTVSPropertyOp30
 70
     1
102
RTVSPropertyOp31
 70
     1
102
RTVSPropertyOp32
 70
     1
102
RTVSPropertyOp33
 70
     1
102
RTVSPropertyOp34
 70
     1
102
RTVSPropertyOp35
 70
     1
102
RTVSPropertyOp36
 70
     1
102
RTVSPropertyOp37
 70
     1
102
RTVSPropertyOp38
 70
     1
102
RTVSPropertyOp39
 70
     1
102
RTVSPropertyOp40
 70
     1
102
RTVSPropertyOp41
 70
     1
102
RTVSPropertyOp42
 70
     1
102
RTVSPropertyOp43
 70
     1
102
RTVSPropertyOp44
 70
     1
102
RTVSPropertyOp45
 70
     1
102
RTVSPropertyOp46
 70
     1
102
RTVSPropertyOp47
 70
     1
102
RTVSPropertyOp48
 70
     1
102
RTVSPropertyOp49
 70
     1
102
RTVSPropertyOp50
 70
     1
102
RTVSPropertyOp51
 70
     0
102
RTVSPropertyOp52
 70
     0
102
RTVSPropertyOp53
 70
     1
102
RTVSPropertyOp54
 70
     1
102
RTVSPropertyOp55
 70
     1
102
RTVSPropertyOp56
 70
     1
102
RTVSPropertyOp57
 70
     1
102
RTVSPropertyOp58
 70
     1
102
RTVSPropertyOp59
 70
     1
102
RTVSPropertyOp60
 70
     1
102
RTVSPropertyOp61
 70
     1
102
RTVSPropertyOp62
 70
     1
  0
XRECORD
  5
9F1B
102
{ACAD_REACTORS
330
9F1A
102
}
330
9F1A
100
AcDbXrecord
280
     1
102
RTVSPost2010Prop28
280
     0
102
RTVSPost2010PropOp28
 70
     1
102
RTVSPost2010Prop29
280
     1
102
RTVSPost2010PropOp29
 70
     1
102
RTVSPost2010Prop30
280
     1
102
RTVSPost2010PropOp30
 70
     1
102
RTVSPost2010Prop31
280
     0
102
RTVSPost2010PropOp31
 70
     1
102
RTVSPost2010Prop32
280
     0
102
RTVSPost2010PropOp32
 70
     1
102
RTVSPost2010Prop33
280
     0
102
RTVSPost2010PropOp33
 70
     1
102
RTVSPost2010Prop34
280
     0
102
RTVSPost2010PropOp34
 70
     1
102
RTVSPost2010Prop35
280
     0
102
RTVSPost2010PropOp35
 70
     1
102
RTVSPost2010Prop36
280
     0
102
RTVSPost2010PropOp36
 70
     1
102
RTVSPost2010Prop37
 90
       50
102
RTVSPost2010PropOp37
 70
     1
102
RTVSPost2010Prop38
140
0.0
102
RTVSPost2010PropOp38
 70
     1
102
RTVSPost2010Prop39
140
1.0
102
RTVSPost2010PropOp39
 70
     1
102
RTVSPost2010Prop40
 90
        0
102
RTVSPost2010PropOp40
 70
     1
102
RTVSPost2010Prop41ColorIndex
 90
       18
102
RTVSPost2010Prop41ColorRGB
 90
        0
102
RTVSPost2010PropOp41
 70
     1
102
RTVSPost2010Prop42
 90
       50
102
RTVSPost2010PropOp42
 70
     1
102
RTVSPost2010Prop43
 90
        3
102
RTVSPost2010PropOp43
 70
     1
102
RTVSPost2010Prop44ColorIndex
 90
        5
102
RTVSPost2010Prop44ColorRGB
 90
      255
102
RTVSPost2010PropOp44
 70
     1
102
RTVSPost2010Prop45
280
     0
102
RTVSPost2010PropOp45
 70
     1
102
RTVSPost2010Prop46
 90
       50
102
RTVSPost2010PropOp46
 70
     1
102
RTVSPost2010Prop47
 90
       50
102
RTVSPost2010PropOp47
 70
     1
102
RTVSPost2010Prop48
 90
       50
102
RTVSPost2010PropOp48
 70
     1
102
RTVSPost2010Prop49
280
     0
102
RTVSPost2010PropOp49
 70
     1
102
RTVSPost2010Prop50
 90
       50
102
RTVSPost2010PropOp50
 70
     1
102
RTVSPost2010Prop51ColorIndex
 90
      256
102
RTVSPost2010Prop51ColorRGB
 90
-16777216
102
RTVSPost2010PropOp51
 70
     0
102
RTVSPost2010Prop52
140
1.0
102
RTVSPost2010PropOp52
 70
     0
102
RTVSPost2010Prop53
 90
        2
102
RTVSPost2010PropOp53
 70
     1
102
RTVSPost2010Prop54
  1
strokes_ogs.tif
102
RTVSPost2010PropOp54
 70
     1
102
RTVSPost2010Prop55
280
     0
102
RTVSPost2010PropOp55
 70
     1
102
RTVSPost2010Prop56
140
1.0
102
RTVSPost2010PropOp56
 70
     1
102
RTVSPost2010Prop57
140
1.0
102
RTVSPost2010PropOp57
 70
     1
102
RTVSPropertyOp0
 70
     1
102
RTVSPropertyOp1
 70
     1
102
RTVSPropertyOp2
 70
     1
102
RTVSPropertyOp3
 70
     1
102
RTVSPropertyOp4
 70
     1
102
RTVSPropertyOp5
 70
     1
102
RTVSPropertyOp6
 70
     1
102
RTVSPropertyOp7
 70
     1
102
RTVSPropertyOp8
 70
     1
102
RTVSPropertyOp9
 70
     1
102
RTVSPropertyOp10
 70
     1
102
RTVSPropertyOp11
 70
     1
102
RTVSPropertyOp12
 70
     1
102
RTVSPropertyOp13
 70
     1
102
RTVSPropertyOp14
 70
     1
102
RTVSPropertyOp15
 70
     1
102
RTVSPropertyOp16
 70
     1
102
RTVSPropertyOp17
 70
     1
102
RTVSPropertyOp18
 70
     1
102
RTVSPropertyOp19
 70
     1
102
RTVSPropertyOp20
 70
     1
102
RTVSPropertyOp21
 70
     1
102
RTVSPropertyOp22
 70
     1
102
RTVSPropertyOp23
 70
     1
102
RTVSPropertyOp24
 70
     1
102
RTVSPropertyOp25
 70
     1
102
RTVSPropertyOp26
 70
     1
102
RTVSPropertyOp27
 70
     1
102
RTVSPropertyOp28
 70
     1
102
RTVSPropertyOp29
 70
     1
102
RTVSPropertyOp30
 70
     1
102
RTVSPropertyOp31
 70
     1
102
RTVSPropertyOp32
 70
     1
102
RTVSPropertyOp33
 70
     1
102
RTVSPropertyOp34
 70
     1
102
RTVSPropertyOp35
 70
     1
102
RTVSPropertyOp36
 70
     1
102
RTVSPropertyOp37
 70
     1
102
RTVSPropertyOp38
 70
     1
102
RTVSPropertyOp39
 70
     1
102
RTVSPropertyOp40
 70
     1
102
RTVSPropertyOp41
 70
     1
102
RTVSPropertyOp42
 70
     1
102
RTVSPropertyOp43
 70
     1
102
RTVSPropertyOp44
 70
     1
102
RTVSPropertyOp45
 70
     1
102
RTVSPropertyOp46
 70
     1
102
RTVSPropertyOp47
 70
     1
102
RTVSPropertyOp48
 70
     1
102
RTVSPropertyOp49
 70
     1
102
RTVSPropertyOp50
 70
     1
102
RTVSPropertyOp51
 70
     0
102
RTVSPropertyOp52
 70
     0
102
RTVSPropertyOp53
 70
     1
102
RTVSPropertyOp54
 70
     1
102
RTVSPropertyOp55
 70
     1
102
RTVSPropertyOp56
 70
     1
102
RTVSPropertyOp57
 70
     1
102
RTVSPropertyOp58
 70
     1
102
RTVSPropertyOp59
 70
     1
102
RTVSPropertyOp60
 70
     1
102
RTVSPropertyOp61
 70
     1
102
RTVSPropertyOp62
 70
     1
  0
XRECORD
  5
9F29
102
{ACAD_REACTORS
330
9F28
102
}
330
9F28
100
AcDbXrecord
280
     1
102
RTVSPost2010Prop28
280
     0
102
RTVSPost2010PropOp28
 70
     1
102
RTVSPost2010Prop29
280
     1
102
RTVSPost2010PropOp29
 70
     1
102
RTVSPost2010Prop30
280
     1
102
RTVSPost2010PropOp30
 70
     1
102
RTVSPost2010Prop31
280
     0
102
RTVSPost2010PropOp31
 70
     1
102
RTVSPost2010Prop32
280
     0
102
RTVSPost2010PropOp32
 70
     1
102
RTVSPost2010Prop33
280
     0
102
RTVSPost2010PropOp33
 70
     1
102
RTVSPost2010Prop34
280
     0
102
RTVSPost2010PropOp34
 70
     1
102
RTVSPost2010Prop35
280
     0
102
RTVSPost2010PropOp35
 70
     1
102
RTVSPost2010Prop36
280
     0
102
RTVSPost2010PropOp36
 70
     1
102
RTVSPost2010Prop37
 90
       50
102
RTVSPost2010PropOp37
 70
     1
102
RTVSPost2010Prop38
140
0.0
102
RTVSPost2010PropOp38
 70
     1
102
RTVSPost2010Prop39
140
1.0
102
RTVSPost2010PropOp39
 70
     1
102
RTVSPost2010Prop40
 90
        0
102
RTVSPost2010PropOp40
 70
     1
102
RTVSPost2010Prop41ColorIndex
 90
       18
102
RTVSPost2010Prop41ColorRGB
 90
        0
102
RTVSPost2010PropOp41
 70
     1
102
RTVSPost2010Prop42
 90
       50
102
RTVSPost2010PropOp42
 70
     1
102
RTVSPost2010Prop43
 90
        3
102
RTVSPost2010PropOp43
 70
     1
102
RTVSPost2010Prop44ColorIndex
 90
        5
102
RTVSPost2010Prop44ColorRGB
 90
      255
102
RTVSPost2010PropOp44
 70
     1
102
RTVSPost2010Prop45
280
     0
102
RTVSPost2010PropOp45
 70
     1
102
RTVSPost2010Prop46
 90
       50
102
RTVSPost2010PropOp46
 70
     1
102
RTVSPost2010Prop47
 90
       50
102
RTVSPost2010PropOp47
 70
     1
102
RTVSPost2010Prop48
 90
       50
102
RTVSPost2010PropOp48
 70
     1
102
RTVSPost2010Prop49
280
     0
102
RTVSPost2010PropOp49
 70
     1
102
RTVSPost2010Prop50
 90
       50
102
RTVSPost2010PropOp50
 70
     1
102
RTVSPost2010Prop51ColorIndex
 90
      256
102
RTVSPost2010Prop51ColorRGB
 90
-16777216
102
RTVSPost2010PropOp51
 70
     0
102
RTVSPost2010Prop52
140
1.0
102
RTVSPost2010PropOp52
 70
     0
102
RTVSPost2010Prop53
 90
        2
102
RTVSPost2010PropOp53
 70
     1
102
RTVSPost2010Prop54
  1
strokes_ogs.tif
102
RTVSPost2010PropOp54
 70
     1
102
RTVSPost2010Prop55
280
     0
102
RTVSPost2010PropOp55
 70
     1
102
RTVSPost2010Prop56
140
1.0
102
RTVSPost2010PropOp56
 70
     1
102
RTVSPost2010Prop57
140
1.0
102
RTVSPost2010PropOp57
 70
     1
102
RTVSPropertyOp0
 70
     1
102
RTVSPropertyOp1
 70
     1
102
RTVSPropertyOp2
 70
     1
102
RTVSPropertyOp3
 70
     1
102
RTVSPropertyOp4
 70
     1
102
RTVSPropertyOp5
 70
     1
102
RTVSPropertyOp6
 70
     1
102
RTVSPropertyOp7
 70
     1
102
RTVSPropertyOp8
 70
     1
102
RTVSPropertyOp9
 70
     1
102
RTVSPropertyOp10
 70
     1
102
RTVSPropertyOp11
 70
     1
102
RTVSPropertyOp12
 70
     1
102
RTVSPropertyOp13
 70
     1
102
RTVSPropertyOp14
 70
     1
102
RTVSPropertyOp15
 70
     1
102
RTVSPropertyOp16
 70
     1
102
RTVSPropertyOp17
 70
     1
102
RTVSPropertyOp18
 70
     1
102
RTVSPropertyOp19
 70
     1
102
RTVSPropertyOp20
 70
     1
102
RTVSPropertyOp21
 70
     1
102
RTVSPropertyOp22
 70
     1
102
RTVSPropertyOp23
 70
     1
102
RTVSPropertyOp24
 70
     1
102
RTVSPropertyOp25
 70
     1
102
RTVSPropertyOp26
 70
     1
102
RTVSPropertyOp27
 70
     1
102
RTVSPropertyOp28
 70
     1
102
RTVSPropertyOp29
 70
     1
102
RTVSPropertyOp30
 70
     1
102
RTVSPropertyOp31
 70
     1
102
RTVSPropertyOp32
 70
     1
102
RTVSPropertyOp33
 70
     1
102
RTVSPropertyOp34
 70
     1
102
RTVSPropertyOp35
 70
     1
102
RTVSPropertyOp36
 70
     1
102
RTVSPropertyOp37
 70
     1
102
RTVSPropertyOp38
 70
     1
102
RTVSPropertyOp39
 70
     1
102
RTVSPropertyOp40
 70
     1
102
RTVSPropertyOp41
 70
     1
102
RTVSPropertyOp42
 70
     1
102
RTVSPropertyOp43
 70
     1
102
RTVSPropertyOp44
 70
     1
102
RTVSPropertyOp45
 70
     1
102
RTVSPropertyOp46
 70
     1
102
RTVSPropertyOp47
 70
     1
102
RTVSPropertyOp48
 70
     1
102
RTVSPropertyOp49
 70
     1
102
RTVSPropertyOp50
 70
     1
102
RTVSPropertyOp51
 70
     0
102
RTVSPropertyOp52
 70
     0
102
RTVSPropertyOp53
 70
     1
102
RTVSPropertyOp54
 70
     1
102
RTVSPropertyOp55
 70
     1
102
RTVSPropertyOp56
 70
     1
102
RTVSPropertyOp57
 70
     1
102
RTVSPropertyOp58
 70
     1
102
RTVSPropertyOp59
 70
     1
102
RTVSPropertyOp60
 70
     1
102
RTVSPropertyOp61
 70
     1
102
RTVSPropertyOp62
 70
     1
  0
XRECORD
  5
9F31
102
{ACAD_REACTORS
330
9F30
102
}
330
9F30
100
AcDbXrecord
280
     1
102
RTVSPost2010Prop28
280
     0
102
RTVSPost2010PropOp28
 70
     1
102
RTVSPost2010Prop29
280
     1
102
RTVSPost2010PropOp29
 70
     1
102
RTVSPost2010Prop30
280
     1
102
RTVSPost2010PropOp30
 70
     1
102
RTVSPost2010Prop31
280
     0
102
RTVSPost2010PropOp31
 70
     1
102
RTVSPost2010Prop32
280
     0
102
RTVSPost2010PropOp32
 70
     1
102
RTVSPost2010Prop33
280
     0
102
RTVSPost2010PropOp33
 70
     1
102
RTVSPost2010Prop34
280
     0
102
RTVSPost2010PropOp34
 70
     1
102
RTVSPost2010Prop35
280
     0
102
RTVSPost2010PropOp35
 70
     1
102
RTVSPost2010Prop36
280
     0
102
RTVSPost2010PropOp36
 70
     1
102
RTVSPost2010Prop37
 90
       50
102
RTVSPost2010PropOp37
 70
     1
102
RTVSPost2010Prop38
140
0.0
102
RTVSPost2010PropOp38
 70
     1
102
RTVSPost2010Prop39
140
1.0
102
RTVSPost2010PropOp39
 70
     1
102
RTVSPost2010Prop40
 90
        0
102
RTVSPost2010PropOp40
 70
     1
102
RTVSPost2010Prop41ColorIndex
 90
       18
102
RTVSPost2010Prop41ColorRGB
 90
        0
102
RTVSPost2010PropOp41
 70
     1
102
RTVSPost2010Prop42
 90
       50
102
RTVSPost2010PropOp42
 70
     1
102
RTVSPost2010Prop43
 90
        3
102
RTVSPost2010PropOp43
 70
     1
102
RTVSPost2010Prop44ColorIndex
 90
        5
102
RTVSPost2010Prop44ColorRGB
 90
      255
102
RTVSPost2010PropOp44
 70
     1
102
RTVSPost2010Prop45
280
     0
102
RTVSPost2010PropOp45
 70
     1
102
RTVSPost2010Prop46
 90
       50
102
RTVSPost2010PropOp46
 70
     1
102
RTVSPost2010Prop47
 90
       50
102
RTVSPost2010PropOp47
 70
     1
102
RTVSPost2010Prop48
 90
       50
102
RTVSPost2010PropOp48
 70
     1
102
RTVSPost2010Prop49
280
     0
102
RTVSPost2010PropOp49
 70
     1
102
RTVSPost2010Prop50
 90
       50
102
RTVSPost2010PropOp50
 70
     1
102
RTVSPost2010Prop51ColorIndex
 90
      256
102
RTVSPost2010Prop51ColorRGB
 90
-16777216
102
RTVSPost2010PropOp51
 70
     0
102
RTVSPost2010Prop52
140
1.0
102
RTVSPost2010PropOp52
 70
     0
102
RTVSPost2010Prop53
 90
        2
102
RTVSPost2010PropOp53
 70
     1
102
RTVSPost2010Prop54
  1
strokes_ogs.tif
102
RTVSPost2010PropOp54
 70
     1
102
RTVSPost2010Prop55
280
     0
102
RTVSPost2010PropOp55
 70
     1
102
RTVSPost2010Prop56
140
1.0
102
RTVSPost2010PropOp56
 70
     1
102
RTVSPost2010Prop57
140
1.0
102
RTVSPost2010PropOp57
 70
     1
102
RTVSPropertyOp0
 70
     1
102
RTVSPropertyOp1
 70
     1
102
RTVSPropertyOp2
 70
     1
102
RTVSPropertyOp3
 70
     1
102
RTVSPropertyOp4
 70
     1
102
RTVSPropertyOp5
 70
     1
102
RTVSPropertyOp6
 70
     1
102
RTVSPropertyOp7
 70
     1
102
RTVSPropertyOp8
 70
     1
102
RTVSPropertyOp9
 70
     1
102
RTVSPropertyOp10
 70
     1
102
RTVSPropertyOp11
 70
     1
102
RTVSPropertyOp12
 70
     1
102
RTVSPropertyOp13
 70
     1
102
RTVSPropertyOp14
 70
     1
102
RTVSPropertyOp15
 70
     1
102
RTVSPropertyOp16
 70
     1
102
RTVSPropertyOp17
 70
     1
102
RTVSPropertyOp18
 70
     1
102
RTVSPropertyOp19
 70
     1
102
RTVSPropertyOp20
 70
     1
102
RTVSPropertyOp21
 70
     1
102
RTVSPropertyOp22
 70
     1
102
RTVSPropertyOp23
 70
     1
102
RTVSPropertyOp24
 70
     1
102
RTVSPropertyOp25
 70
     1
102
RTVSPropertyOp26
 70
     1
102
RTVSPropertyOp27
 70
     1
102
RTVSPropertyOp28
 70
     1
102
RTVSPropertyOp29
 70
     1
102
RTVSPropertyOp30
 70
     1
102
RTVSPropertyOp31
 70
     1
102
RTVSPropertyOp32
 70
     1
102
RTVSPropertyOp33
 70
     1
102
RTVSPropertyOp34
 70
     1
102
RTVSPropertyOp35
 70
     1
102
RTVSPropertyOp36
 70
     1
102
RTVSPropertyOp37
 70
     1
102
RTVSPropertyOp38
 70
     1
102
RTVSPropertyOp39
 70
     1
102
RTVSPropertyOp40
 70
     1
102
RTVSPropertyOp41
 70
     1
102
RTVSPropertyOp42
 70
     1
102
RTVSPropertyOp43
 70
     1
102
RTVSPropertyOp44
 70
     1
102
RTVSPropertyOp45
 70
     1
102
RTVSPropertyOp46
 70
     1
102
RTVSPropertyOp47
 70
     1
102
RTVSPropertyOp48
 70
     1
102
RTVSPropertyOp49
 70
     1
102
RTVSPropertyOp50
 70
     1
102
RTVSPropertyOp51
 70
     0
102
RTVSPropertyOp52
 70
     0
102
RTVSPropertyOp53
 70
     1
102
RTVSPropertyOp54
 70
     1
102
RTVSPropertyOp55
 70
     1
102
RTVSPropertyOp56
 70
     1
102
RTVSPropertyOp57
 70
     1
102
RTVSPropertyOp58
 70
     1
102
RTVSPropertyOp59
 70
     1
102
RTVSPropertyOp60
 70
     1
102
RTVSPropertyOp61
 70
     1
102
RTVSPropertyOp62
 70
     1
  0
XRECORD
  5
9F23
102
{ACAD_REACTORS
330
9F22
102
}
330
9F22
100
AcDbXrecord
280
     1
102
RTVSPost2010Prop28
280
     0
102
RTVSPost2010PropOp28
 70
     1
102
RTVSPost2010Prop29
280
     1
102
RTVSPost2010PropOp29
 70
     1
102
RTVSPost2010Prop30
280
     1
102
RTVSPost2010PropOp30
 70
     1
102
RTVSPost2010Prop31
280
     0
102
RTVSPost2010PropOp31
 70
     1
102
RTVSPost2010Prop32
280
     0
102
RTVSPost2010PropOp32
 70
     1
102
RTVSPost2010Prop33
280
     0
102
RTVSPost2010PropOp33
 70
     1
102
RTVSPost2010Prop34
280
     0
102
RTVSPost2010PropOp34
 70
     1
102
RTVSPost2010Prop35
280
     0
102
RTVSPost2010PropOp35
 70
     1
102
RTVSPost2010Prop36
280
     0
102
RTVSPost2010PropOp36
 70
     1
102
RTVSPost2010Prop37
 90
       50
102
RTVSPost2010PropOp37
 70
     1
102
RTVSPost2010Prop38
140
0.0
102
RTVSPost2010PropOp38
 70
     1
102
RTVSPost2010Prop39
140
1.0
102
RTVSPost2010PropOp39
 70
     1
102
RTVSPost2010Prop40
 90
        0
102
RTVSPost2010PropOp40
 70
     1
102
RTVSPost2010Prop41ColorIndex
 90
       18
102
RTVSPost2010Prop41ColorRGB
 90
        0
102
RTVSPost2010PropOp41
 70
     1
102
RTVSPost2010Prop42
 90
       50
102
RTVSPost2010PropOp42
 70
     1
102
RTVSPost2010Prop43
 90
        3
102
RTVSPost2010PropOp43
 70
     1
102
RTVSPost2010Prop44ColorIndex
 90
        5
102
RTVSPost2010Prop44ColorRGB
 90
      255
102
RTVSPost2010PropOp44
 70
     1
102
RTVSPost2010Prop45
280
     0
102
RTVSPost2010PropOp45
 70
     1
102
RTVSPost2010Prop46
 90
       50
102
RTVSPost2010PropOp46
 70
     1
102
RTVSPost2010Prop47
 90
       50
102
RTVSPost2010PropOp47
 70
     1
102
RTVSPost2010Prop48
 90
       50
102
RTVSPost2010PropOp48
 70
     1
102
RTVSPost2010Prop49
280
     0
102
RTVSPost2010PropOp49
 70
     1
102
RTVSPost2010Prop50
 90
       50
102
RTVSPost2010PropOp50
 70
     1
102
RTVSPost2010Prop51ColorIndex
 90
      256
102
RTVSPost2010Prop51ColorRGB
 90
-16777216
102
RTVSPost2010PropOp51
 70
     0
102
RTVSPost2010Prop52
140
1.0
102
RTVSPost2010PropOp52
 70
     0
102
RTVSPost2010Prop53
 90
        2
102
RTVSPost2010PropOp53
 70
     1
102
RTVSPost2010Prop54
  1
strokes_ogs.tif
102
RTVSPost2010PropOp54
 70
     1
102
RTVSPost2010Prop55
280
     0
102
RTVSPost2010PropOp55
 70
     1
102
RTVSPost2010Prop56
140
1.0
102
RTVSPost2010PropOp56
 70
     1
102
RTVSPost2010Prop57
140
1.0
102
RTVSPost2010PropOp57
 70
     1
102
RTVSPropertyOp0
 70
     1
102
RTVSPropertyOp1
 70
     1
102
RTVSPropertyOp2
 70
     1
102
RTVSPropertyOp3
 70
     1
102
RTVSPropertyOp4
 70
     1
102
RTVSPropertyOp5
 70
     1
102
RTVSPropertyOp6
 70
     1
102
RTVSPropertyOp7
 70
     1
102
RTVSPropertyOp8
 70
     1
102
RTVSPropertyOp9
 70
     1
102
RTVSPropertyOp10
 70
     1
102
RTVSPropertyOp11
 70
     1
102
RTVSPropertyOp12
 70
     1
102
RTVSPropertyOp13
 70
     1
102
RTVSPropertyOp14
 70
     1
102
RTVSPropertyOp15
 70
     1
102
RTVSPropertyOp16
 70
     1
102
RTVSPropertyOp17
 70
     1
102
RTVSPropertyOp18
 70
     1
102
RTVSPropertyOp19
 70
     1
102
RTVSPropertyOp20
 70
     1
102
RTVSPropertyOp21
 70
     1
102
RTVSPropertyOp22
 70
     1
102
RTVSPropertyOp23
 70
     1
102
RTVSPropertyOp24
 70
     1
102
RTVSPropertyOp25
 70
     1
102
RTVSPropertyOp26
 70
     1
102
RTVSPropertyOp27
 70
     1
102
RTVSPropertyOp28
 70
     1
102
RTVSPropertyOp29
 70
     1
102
RTVSPropertyOp30
 70
     1
102
RTVSPropertyOp31
 70
     1
102
RTVSPropertyOp32
 70
     1
102
RTVSPropertyOp33
 70
     1
102
RTVSPropertyOp34
 70
     1
102
RTVSPropertyOp35
 70
     1
102
RTVSPropertyOp36
 70
     1
102
RTVSPropertyOp37
 70
     1
102
RTVSPropertyOp38
 70
     1
102
RTVSPropertyOp39
 70
     1
102
RTVSPropertyOp40
 70
     1
102
RTVSPropertyOp41
 70
     1
102
RTVSPropertyOp42
 70
     1
102
RTVSPropertyOp43
 70
     1
102
RTVSPropertyOp44
 70
     1
102
RTVSPropertyOp45
 70
     1
102
RTVSPropertyOp46
 70
     1
102
RTVSPropertyOp47
 70
     1
102
RTVSPropertyOp48
 70
     1
102
RTVSPropertyOp49
 70
     1
102
RTVSPropertyOp50
 70
     1
102
RTVSPropertyOp51
 70
     0
102
RTVSPropertyOp52
 70
     0
102
RTVSPropertyOp53
 70
     1
102
RTVSPropertyOp54
 70
     1
102
RTVSPropertyOp55
 70
     1
102
RTVSPropertyOp56
 70
     1
102
RTVSPropertyOp57
 70
     1
102
RTVSPropertyOp58
 70
     1
102
RTVSPropertyOp59
 70
     1
102
RTVSPropertyOp60
 70
     1
102
RTVSPropertyOp61
 70
     1
102
RTVSPropertyOp62
 70
     1
  0
XRECORD
  5
9F27
102
{ACAD_REACTORS
330
9F26
102
}
330
9F26
100
AcDbXrecord
280
     1
102
RTVSPost2010Prop28
280
     0
102
RTVSPost2010PropOp28
 70
     1
102
RTVSPost2010Prop29
280
     1
102
RTVSPost2010PropOp29
 70
     1
102
RTVSPost2010Prop30
280
     1
102
RTVSPost2010PropOp30
 70
     1
102
RTVSPost2010Prop31
280
     0
102
RTVSPost2010PropOp31
 70
     1
102
RTVSPost2010Prop32
280
     0
102
RTVSPost2010PropOp32
 70
     1
102
RTVSPost2010Prop33
280
     0
102
RTVSPost2010PropOp33
 70
     1
102
RTVSPost2010Prop34
280
     0
102
RTVSPost2010PropOp34
 70
     1
102
RTVSPost2010Prop35
280
     0
102
RTVSPost2010PropOp35
 70
     1
102
RTVSPost2010Prop36
280
     0
102
RTVSPost2010PropOp36
 70
     1
102
RTVSPost2010Prop37
 90
       50
102
RTVSPost2010PropOp37
 70
     1
102
RTVSPost2010Prop38
140
0.0
102
RTVSPost2010PropOp38
 70
     1
102
RTVSPost2010Prop39
140
1.0
102
RTVSPost2010PropOp39
 70
     1
102
RTVSPost2010Prop40
 90
        0
102
RTVSPost2010PropOp40
 70
     1
102
RTVSPost2010Prop41ColorIndex
 90
       18
102
RTVSPost2010Prop41ColorRGB
 90
        0
102
RTVSPost2010PropOp41
 70
     1
102
RTVSPost2010Prop42
 90
       50
102
RTVSPost2010PropOp42
 70
     1
102
RTVSPost2010Prop43
 90
        3
102
RTVSPost2010PropOp43
 70
     1
102
RTVSPost2010Prop44ColorIndex
 90
        5
102
RTVSPost2010Prop44ColorRGB
 90
      255
102
RTVSPost2010PropOp44
 70
     1
102
RTVSPost2010Prop45
280
     0
102
RTVSPost2010PropOp45
 70
     1
102
RTVSPost2010Prop46
 90
       50
102
RTVSPost2010PropOp46
 70
     1
102
RTVSPost2010Prop47
 90
       50
102
RTVSPost2010PropOp47
 70
     1
102
RTVSPost2010Prop48
 90
       50
102
RTVSPost2010PropOp48
 70
     1
102
RTVSPost2010Prop49
280
     0
102
RTVSPost2010PropOp49
 70
     1
102
RTVSPost2010Prop50
 90
       50
102
RTVSPost2010PropOp50
 70
     1
102
RTVSPost2010Prop51ColorIndex
 90
      256
102
RTVSPost2010Prop51ColorRGB
 90
-16777216
102
RTVSPost2010PropOp51
 70
     0
102
RTVSPost2010Prop52
140
1.0
102
RTVSPost2010PropOp52
 70
     0
102
RTVSPost2010Prop53
 90
        2
102
RTVSPost2010PropOp53
 70
     1
102
RTVSPost2010Prop54
  1
strokes_ogs.tif
102
RTVSPost2010PropOp54
 70
     1
102
RTVSPost2010Prop55
280
     0
102
RTVSPost2010PropOp55
 70
     1
102
RTVSPost2010Prop56
140
1.0
102
RTVSPost2010PropOp56
 70
     1
102
RTVSPost2010Prop57
140
1.0
102
RTVSPost2010PropOp57
 70
     1
102
RTVSPropertyOp0
 70
     1
102
RTVSPropertyOp1
 70
     1
102
RTVSPropertyOp2
 70
     1
102
RTVSPropertyOp3
 70
     1
102
RTVSPropertyOp4
 70
     1
102
RTVSPropertyOp5
 70
     1
102
RTVSPropertyOp6
 70
     1
102
RTVSPropertyOp7
 70
     1
102
RTVSPropertyOp8
 70
     1
102
RTVSPropertyOp9
 70
     1
102
RTVSPropertyOp10
 70
     1
102
RTVSPropertyOp11
 70
     1
102
RTVSPropertyOp12
 70
     1
102
RTVSPropertyOp13
 70
     1
102
RTVSPropertyOp14
 70
     1
102
RTVSPropertyOp15
 70
     1
102
RTVSPropertyOp16
 70
     1
102
RTVSPropertyOp17
 70
     1
102
RTVSPropertyOp18
 70
     1
102
RTVSPropertyOp19
 70
     1
102
RTVSPropertyOp20
 70
     1
102
RTVSPropertyOp21
 70
     1
102
RTVSPropertyOp22
 70
     1
102
RTVSPropertyOp23
 70
     1
102
RTVSPropertyOp24
 70
     1
102
RTVSPropertyOp25
 70
     1
102
RTVSPropertyOp26
 70
     1
102
RTVSPropertyOp27
 70
     1
102
RTVSPropertyOp28
 70
     1
102
RTVSPropertyOp29
 70
     1
102
RTVSPropertyOp30
 70
     1
102
RTVSPropertyOp31
 70
     1
102
RTVSPropertyOp32
 70
     1
102
RTVSPropertyOp33
 70
     1
102
RTVSPropertyOp34
 70
     1
102
RTVSPropertyOp35
 70
     1
102
RTVSPropertyOp36
 70
     1
102
RTVSPropertyOp37
 70
     1
102
RTVSPropertyOp38
 70
     1
102
RTVSPropertyOp39
 70
     1
102
RTVSPropertyOp40
 70
     1
102
RTVSPropertyOp41
 70
     1
102
RTVSPropertyOp42
 70
     1
102
RTVSPropertyOp43
 70
     1
102
RTVSPropertyOp44
 70
     1
102
RTVSPropertyOp45
 70
     1
102
RTVSPropertyOp46
 70
     1
102
RTVSPropertyOp47
 70
     1
102
RTVSPropertyOp48
 70
     1
102
RTVSPropertyOp49
 70
     1
102
RTVSPropertyOp50
 70
     1
102
RTVSPropertyOp51
 70
     0
102
RTVSPropertyOp52
 70
     0
102
RTVSPropertyOp53
 70
     1
102
RTVSPropertyOp54
 70
     1
102
RTVSPropertyOp55
 70
     1
102
RTVSPropertyOp56
 70
     1
102
RTVSPropertyOp57
 70
     1
102
RTVSPropertyOp58
 70
     1
102
RTVSPropertyOp59
 70
     1
102
RTVSPropertyOp60
 70
     1
102
RTVSPropertyOp61
 70
     1
102
RTVSPropertyOp62
 70
     1
  0
XRECORD
  5
9F41
102
{ACAD_REACTORS
330
9F40
102
}
330
9F40
100
AcDbXrecord
280
     1
102
RTVSPost2010Prop28
280
     0
102
RTVSPost2010PropOp28
 70
     0
102
RTVSPost2010Prop29
280
     1
102
RTVSPost2010PropOp29
 70
     0
102
RTVSPost2010Prop30
280
     1
102
RTVSPost2010PropOp30
 70
     0
102
RTVSPost2010Prop31
280
     0
102
RTVSPost2010PropOp31
 70
     0
102
RTVSPost2010Prop32
280
     0
102
RTVSPost2010PropOp32
 70
     0
102
RTVSPost2010Prop33
280
     0
102
RTVSPost2010PropOp33
 70
     0
102
RTVSPost2010Prop34
280
     0
102
RTVSPost2010PropOp34
 70
     0
102
RTVSPost2010Prop35
280
     0
102
RTVSPost2010PropOp35
 70
     0
102
RTVSPost2010Prop36
280
     0
102
RTVSPost2010PropOp36
 70
     0
102
RTVSPost2010Prop37
 90
       50
102
RTVSPost2010PropOp37
 70
     0
102
RTVSPost2010Prop38
140
0.0
102
RTVSPost2010PropOp38
 70
     0
102
RTVSPost2010Prop39
140
1.0
102
RTVSPost2010PropOp39
 70
     0
102
RTVSPost2010Prop40
 90
        0
102
RTVSPost2010PropOp40
 70
     0
102
RTVSPost2010Prop41ColorIndex
 90
       18
102
RTVSPost2010Prop41ColorRGB
 90
        0
102
RTVSPost2010PropOp41
 70
     0
102
RTVSPost2010Prop42
 90
       50
102
RTVSPost2010PropOp42
 70
     0
102
RTVSPost2010Prop43
 90
        3
102
RTVSPost2010PropOp43
 70
     0
102
RTVSPost2010Prop44ColorIndex
 90
        5
102
RTVSPost2010Prop44ColorRGB
 90
      255
102
RTVSPost2010PropOp44
 70
     0
102
RTVSPost2010Prop45
280
     0
102
RTVSPost2010PropOp45
 70
     0
102
RTVSPost2010Prop46
 90
       50
102
RTVSPost2010PropOp46
 70
     0
102
RTVSPost2010Prop47
 90
       50
102
RTVSPost2010PropOp47
 70
     0
102
RTVSPost2010Prop48
 90
       50
102
RTVSPost2010PropOp48
 70
     0
102
RTVSPost2010Prop49
280
     0
102
RTVSPost2010PropOp49
 70
     0
102
RTVSPost2010Prop50
 90
       50
102
RTVSPost2010PropOp50
 70
     0
102
RTVSPost2010Prop51ColorIndex
 90
      256
102
RTVSPost2010Prop51ColorRGB
 90
-16777216
102
RTVSPost2010PropOp51
 70
     0
102
RTVSPost2010Prop52
140
1.0
102
RTVSPost2010PropOp52
 70
     0
102
RTVSPost2010Prop53
 90
        2
102
RTVSPost2010PropOp53
 70
     0
102
RTVSPost2010Prop54
  1
strokes_ogs.tif
102
RTVSPost2010PropOp54
 70
     0
102
RTVSPost2010Prop55
280
     0
102
RTVSPost2010PropOp55
 70
     0
102
RTVSPost2010Prop56
140
1.0
102
RTVSPost2010PropOp56
 70
     0
102
RTVSPost2010Prop57
140
1.0
102
RTVSPost2010PropOp57
 70
     0
102
RTVSPropertyOp0
 70
     0
102
RTVSPropertyOp1
 70
     0
102
RTVSPropertyOp2
 70
     0
102
RTVSPropertyOp3
 70
     0
102
RTVSPropertyOp4
 70
     0
102
RTVSPropertyOp5
 70
     0
102
RTVSPropertyOp6
 70
     0
102
RTVSPropertyOp7
 70
     0
102
RTVSPropertyOp8
 70
     0
102
RTVSPropertyOp9
 70
     0
102
RTVSPropertyOp10
 70
     0
102
RTVSPropertyOp11
 70
     0
102
RTVSPropertyOp12
 70
     0
102
RTVSPropertyOp13
 70
     0
102
RTVSPropertyOp14
 70
     2
102
RTVSPropertyOp15
 70
     0
102
RTVSPropertyOp16
 70
     0
102
RTVSPropertyOp17
 70
     0
102
RTVSPropertyOp18
 70
     0
102
RTVSPropertyOp19
 70
     0
102
RTVSPropertyOp20
 70
     0
102
RTVSPropertyOp21
 70
     0
102
RTVSPropertyOp22
 70
     0
102
RTVSPropertyOp23
 70
     0
102
RTVSPropertyOp24
 70
     0
102
RTVSPropertyOp25
 70
     0
102
RTVSPropertyOp26
 70
     0
102
RTVSPropertyOp27
 70
     0
102
RTVSPropertyOp28
 70
     0
102
RTVSPropertyOp29
 70
     0
102
RTVSPropertyOp30
 70
     0
102
RTVSPropertyOp31
 70
     0
102
RTVSPropertyOp32
 70
     0
102
RTVSPropertyOp33
 70
     0
102
RTVSPropertyOp34
 70
     0
102
RTVSPropertyOp35
 70
     0
102
RTVSPropertyOp36
 70
     0
102
RTVSPropertyOp37
 70
     0
102
RTVSPropertyOp38
 70
     0
102
RTVSPropertyOp39
 70
     0
102
RTVSPropertyOp40
 70
     0
102
RTVSPropertyOp41
 70
     0
102
RTVSPropertyOp42
 70
     0
102
RTVSPropertyOp43
 70
     0
102
RTVSPropertyOp44
 70
     0
102
RTVSPropertyOp45
 70
     0
102
RTVSPropertyOp46
 70
     0
102
RTVSPropertyOp47
 70
     0
102
RTVSPropertyOp48
 70
     0
102
RTVSPropertyOp49
 70
     0
102
RTVSPropertyOp50
 70
     0
102
RTVSPropertyOp51
 70
     0
102
RTVSPropertyOp52
 70
     0
102
RTVSPropertyOp53
 70
     0
102
RTVSPropertyOp54
 70
     0
102
RTVSPropertyOp55
 70
     0
102
RTVSPropertyOp56
 70
     0
102
RTVSPropertyOp57
 70
     0
102
RTVSPropertyOp58
 70
     1
102
RTVSPropertyOp59
 70
     1
102
RTVSPropertyOp60
 70
     1
102
RTVSPropertyOp61
 70
     1
102
RTVSPropertyOp62
 70
     1
  0
XRECORD
  5
9F2F
102
{ACAD_REACTORS
330
9F2E
102
}
330
9F2E
100
AcDbXrecord
280
     1
102
RTVSPost2010Prop28
280
     0
102
RTVSPost2010PropOp28
 70
     1
102
RTVSPost2010Prop29
280
     1
102
RTVSPost2010PropOp29
 70
     1
102
RTVSPost2010Prop30
280
     1
102
RTVSPost2010PropOp30
 70
     1
102
RTVSPost2010Prop31
280
     0
102
RTVSPost2010PropOp31
 70
     1
102
RTVSPost2010Prop32
280
     0
102
RTVSPost2010PropOp32
 70
     1
102
RTVSPost2010Prop33
280
     0
102
RTVSPost2010PropOp33
 70
     1
102
RTVSPost2010Prop34
280
     0
102
RTVSPost2010PropOp34
 70
     1
102
RTVSPost2010Prop35
280
     0
102
RTVSPost2010PropOp35
 70
     1
102
RTVSPost2010Prop36
280
     0
102
RTVSPost2010PropOp36
 70
     1
102
RTVSPost2010Prop37
 90
       50
102
RTVSPost2010PropOp37
 70
     1
102
RTVSPost2010Prop38
140
0.0
102
RTVSPost2010PropOp38
 70
     1
102
RTVSPost2010Prop39
140
1.0
102
RTVSPost2010PropOp39
 70
     1
102
RTVSPost2010Prop40
 90
        0
102
RTVSPost2010PropOp40
 70
     1
102
RTVSPost2010Prop41ColorIndex
 90
       18
102
RTVSPost2010Prop41ColorRGB
 90
        0
102
RTVSPost2010PropOp41
 70
     1
102
RTVSPost2010Prop42
 90
       50
102
RTVSPost2010PropOp42
 70
     1
102
RTVSPost2010Prop43
 90
        3
102
RTVSPost2010PropOp43
 70
     1
102
RTVSPost2010Prop44ColorIndex
 90
        5
102
RTVSPost2010Prop44ColorRGB
 90
      255
102
RTVSPost2010PropOp44
 70
     1
102
RTVSPost2010Prop45
280
     0
102
RTVSPost2010PropOp45
 70
     1
102
RTVSPost2010Prop46
 90
       50
102
RTVSPost2010PropOp46
 70
     1
102
RTVSPost2010Prop47
 90
       50
102
RTVSPost2010PropOp47
 70
     1
102
RTVSPost2010Prop48
 90
       50
102
RTVSPost2010PropOp48
 70
     1
102
RTVSPost2010Prop49
280
     0
102
RTVSPost2010PropOp49
 70
     1
102
RTVSPost2010Prop50
 90
       50
102
RTVSPost2010PropOp50
 70
     1
102
RTVSPost2010Prop51ColorIndex
 90
      256
102
RTVSPost2010Prop51ColorRGB
 90
-16777216
102
RTVSPost2010PropOp51
 70
     0
102
RTVSPost2010Prop52
140
1.0
102
RTVSPost2010PropOp52
 70
     0
102
RTVSPost2010Prop53
 90
        2
102
RTVSPost2010PropOp53
 70
     1
102
RTVSPost2010Prop54
  1
strokes_ogs.tif
102
RTVSPost2010PropOp54
 70
     1
102
RTVSPost2010Prop55
280
     0
102
RTVSPost2010PropOp55
 70
     1
102
RTVSPost2010Prop56
140
1.0
102
RTVSPost2010PropOp56
 70
     1
102
RTVSPost2010Prop57
140
1.0
102
RTVSPost2010PropOp57
 70
     1
102
RTVSPropertyOp0
 70
     1
102
RTVSPropertyOp1
 70
     1
102
RTVSPropertyOp2
 70
     1
102
RTVSPropertyOp3
 70
     1
102
RTVSPropertyOp4
 70
     1
102
RTVSPropertyOp5
 70
     1
102
RTVSPropertyOp6
 70
     1
102
RTVSPropertyOp7
 70
     1
102
RTVSPropertyOp8
 70
     1
102
RTVSPropertyOp9
 70
     1
102
RTVSPropertyOp10
 70
     1
102
RTVSPropertyOp11
 70
     1
102
RTVSPropertyOp12
 70
     1
102
RTVSPropertyOp13
 70
     1
102
RTVSPropertyOp14
 70
     1
102
RTVSPropertyOp15
 70
     1
102
RTVSPropertyOp16
 70
     1
102
RTVSPropertyOp17
 70
     1
102
RTVSPropertyOp18
 70
     1
102
RTVSPropertyOp19
 70
     1
102
RTVSPropertyOp20
 70
     1
102
RTVSPropertyOp21
 70
     1
102
RTVSPropertyOp22
 70
     1
102
RTVSPropertyOp23
 70
     1
102
RTVSPropertyOp24
 70
     1
102
RTVSPropertyOp25
 70
     1
102
RTVSPropertyOp26
 70
     1
102
RTVSPropertyOp27
 70
     1
102
RTVSPropertyOp28
 70
     1
102
RTVSPropertyOp29
 70
     1
102
RTVSPropertyOp30
 70
     1
102
RTVSPropertyOp31
 70
     1
102
RTVSPropertyOp32
 70
     1
102
RTVSPropertyOp33
 70
     1
102
RTVSPropertyOp34
 70
     1
102
RTVSPropertyOp35
 70
     1
102
RTVSPropertyOp36
 70
     1
102
RTVSPropertyOp37
 70
     1
102
RTVSPropertyOp38
 70
     1
102
RTVSPropertyOp39
 70
     1
102
RTVSPropertyOp40
 70
     1
102
RTVSPropertyOp41
 70
     1
102
RTVSPropertyOp42
 70
     1
102
RTVSPropertyOp43
 70
     1
102
RTVSPropertyOp44
 70
     1
102
RTVSPropertyOp45
 70
     1
102
RTVSPropertyOp46
 70
     1
102
RTVSPropertyOp47
 70
     1
102
RTVSPropertyOp48
 70
     1
102
RTVSPropertyOp49
 70
     1
102
RTVSPropertyOp50
 70
     1
102
RTVSPropertyOp51
 70
     0
102
RTVSPropertyOp52
 70
     0
102
RTVSPropertyOp53
 70
     1
102
RTVSPropertyOp54
 70
     1
102
RTVSPropertyOp55
 70
     1
102
RTVSPropertyOp56
 70
     1
102
RTVSPropertyOp57
 70
     1
102
RTVSPropertyOp58
 70
     1
102
RTVSPropertyOp59
 70
     1
102
RTVSPropertyOp60
 70
     1
102
RTVSPropertyOp61
 70
     1
102
RTVSPropertyOp62
 70
     1
  0
XRECORD
  5
9F13
102
{ACAD_REACTORS
330
9F12
102
}
330
9F12
100
AcDbXrecord
280
     1
102
RTVSPost2010Prop28
280
     0
102
RTVSPost2010PropOp28
 70
     1
102
RTVSPost2010Prop29
280
     1
102
RTVSPost2010PropOp29
 70
     1
102
RTVSPost2010Prop30
280
     1
102
RTVSPost2010PropOp30
 70
     1
102
RTVSPost2010Prop31
280
     0
102
RTVSPost2010PropOp31
 70
     1
102
RTVSPost2010Prop32
280
     0
102
RTVSPost2010PropOp32
 70
     1
102
RTVSPost2010Prop33
280
     0
102
RTVSPost2010PropOp33
 70
     1
102
RTVSPost2010Prop34
280
     0
102
RTVSPost2010PropOp34
 70
     1
102
RTVSPost2010Prop35
280
     0
102
RTVSPost2010PropOp35
 70
     1
102
RTVSPost2010Prop36
280
     0
102
RTVSPost2010PropOp36
 70
     1
102
RTVSPost2010Prop37
 90
       50
102
RTVSPost2010PropOp37
 70
     1
102
RTVSPost2010Prop38
140
0.0
102
RTVSPost2010PropOp38
 70
     1
102
RTVSPost2010Prop39
140
1.0
102
RTVSPost2010PropOp39
 70
     1
102
RTVSPost2010Prop40
 90
        0
102
RTVSPost2010PropOp40
 70
     1
102
RTVSPost2010Prop41ColorIndex
 90
       18
102
RTVSPost2010Prop41ColorRGB
 90
        0
102
RTVSPost2010PropOp41
 70
     1
102
RTVSPost2010Prop42
 90
       50
102
RTVSPost2010PropOp42
 70
     1
102
RTVSPost2010Prop43
 90
        3
102
RTVSPost2010PropOp43
 70
     1
102
RTVSPost2010Prop44ColorIndex
 90
        5
102
RTVSPost2010Prop44ColorRGB
 90
      255
102
RTVSPost2010PropOp44
 70
     1
102
RTVSPost2010Prop45
280
     0
102
RTVSPost2010PropOp45
 70
     1
102
RTVSPost2010Prop46
 90
       50
102
RTVSPost2010PropOp46
 70
     1
102
RTVSPost2010Prop47
 90
       50
102
RTVSPost2010PropOp47
 70
     1
102
RTVSPost2010Prop48
 90
       50
102
RTVSPost2010PropOp48
 70
     1
102
RTVSPost2010Prop49
280
     0
102
RTVSPost2010PropOp49
 70
     1
102
RTVSPost2010Prop50
 90
       50
102
RTVSPost2010PropOp50
 70
     1
102
RTVSPost2010Prop51ColorIndex
 90
      256
102
RTVSPost2010Prop51ColorRGB
 90
-16777216
102
RTVSPost2010PropOp51
 70
     0
102
RTVSPost2010Prop52
140
1.0
102
RTVSPost2010PropOp52
 70
     0
102
RTVSPost2010Prop53
 90
        2
102
RTVSPost2010PropOp53
 70
     1
102
RTVSPost2010Prop54
  1
strokes_ogs.tif
102
RTVSPost2010PropOp54
 70
     1
102
RTVSPost2010Prop55
280
     0
102
RTVSPost2010PropOp55
 70
     1
102
RTVSPost2010Prop56
140
1.0
102
RTVSPost2010PropOp56
 70
     1
102
RTVSPost2010Prop57
140
1.0
102
RTVSPost2010PropOp57
 70
     1
102
RTVSPropertyOp0
 70
     1
102
RTVSPropertyOp1
 70
     1
102
RTVSPropertyOp2
 70
     1
102
RTVSPropertyOp3
 70
     1
102
RTVSPropertyOp4
 70
     1
102
RTVSPropertyOp5
 70
     1
102
RTVSPropertyOp6
 70
     1
102
RTVSPropertyOp7
 70
     1
102
RTVSPropertyOp8
 70
     1
102
RTVSPropertyOp9
 70
     1
102
RTVSPropertyOp10
 70
     1
102
RTVSPropertyOp11
 70
     1
102
RTVSPropertyOp12
 70
     1
102
RTVSPropertyOp13
 70
     1
102
RTVSPropertyOp14
 70
     1
102
RTVSPropertyOp15
 70
     1
102
RTVSPropertyOp16
 70
     1
102
RTVSPropertyOp17
 70
     1
102
RTVSPropertyOp18
 70
     1
102
RTVSPropertyOp19
 70
     1
102
RTVSPropertyOp20
 70
     1
102
RTVSPropertyOp21
 70
     1
102
RTVSPropertyOp22
 70
     1
102
RTVSPropertyOp23
 70
     1
102
RTVSPropertyOp24
 70
     1
102
RTVSPropertyOp25
 70
     1
102
RTVSPropertyOp26
 70
     1
102
RTVSPropertyOp27
 70
     1
102
RTVSPropertyOp28
 70
     1
102
RTVSPropertyOp29
 70
     1
102
RTVSPropertyOp30
 70
     1
102
RTVSPropertyOp31
 70
     1
102
RTVSPropertyOp32
 70
     1
102
RTVSPropertyOp33
 70
     1
102
RTVSPropertyOp34
 70
     1
102
RTVSPropertyOp35
 70
     1
102
RTVSPropertyOp36
 70
     1
102
RTVSPropertyOp37
 70
     1
102
RTVSPropertyOp38
 70
     1
102
RTVSPropertyOp39
 70
     1
102
RTVSPropertyOp40
 70
     1
102
RTVSPropertyOp41
 70
     1
102
RTVSPropertyOp42
 70
     1
102
RTVSPropertyOp43
 70
     1
102
RTVSPropertyOp44
 70
     1
102
RTVSPropertyOp45
 70
     1
102
RTVSPropertyOp46
 70
     1
102
RTVSPropertyOp47
 70
     1
102
RTVSPropertyOp48
 70
     1
102
RTVSPropertyOp49
 70
     1
102
RTVSPropertyOp50
 70
     1
102
RTVSPropertyOp51
 70
     0
102
RTVSPropertyOp52
 70
     0
102
RTVSPropertyOp53
 70
     1
102
RTVSPropertyOp54
 70
     1
102
RTVSPropertyOp55
 70
     1
102
RTVSPropertyOp56
 70
     1
102
RTVSPropertyOp57
 70
     1
102
RTVSPropertyOp58
 70
     1
102
RTVSPropertyOp59
 70
     1
102
RTVSPropertyOp60
 70
     1
102
RTVSPropertyOp61
 70
     1
102
RTVSPropertyOp62
 70
     1
  0
XRECORD
  5
9F15
102
{ACAD_REACTORS
330
9F14
102
}
330
9F14
100
AcDbXrecord
280
     1
102
RTVSPost2010Prop28
280
     0
102
RTVSPost2010PropOp28
 70
     1
102
RTVSPost2010Prop29
280
     1
102
RTVSPost2010PropOp29
 70
     1
102
RTVSPost2010Prop30
280
     1
102
RTVSPost2010PropOp30
 70
     1
102
RTVSPost2010Prop31
280
     0
102
RTVSPost2010PropOp31
 70
     1
102
RTVSPost2010Prop32
280
     0
102
RTVSPost2010PropOp32
 70
     1
102
RTVSPost2010Prop33
280
     0
102
RTVSPost2010PropOp33
 70
     1
102
RTVSPost2010Prop34
280
     0
102
RTVSPost2010PropOp34
 70
     1
102
RTVSPost2010Prop35
280
     0
102
RTVSPost2010PropOp35
 70
     1
102
RTVSPost2010Prop36
280
     0
102
RTVSPost2010PropOp36
 70
     1
102
RTVSPost2010Prop37
 90
       50
102
RTVSPost2010PropOp37
 70
     1
102
RTVSPost2010Prop38
140
0.0
102
RTVSPost2010PropOp38
 70
     1
102
RTVSPost2010Prop39
140
1.0
102
RTVSPost2010PropOp39
 70
     1
102
RTVSPost2010Prop40
 90
        0
102
RTVSPost2010PropOp40
 70
     1
102
RTVSPost2010Prop41ColorIndex
 90
       18
102
RTVSPost2010Prop41ColorRGB
 90
        0
102
RTVSPost2010PropOp41
 70
     1
102
RTVSPost2010Prop42
 90
       50
102
RTVSPost2010PropOp42
 70
     1
102
RTVSPost2010Prop43
 90
        3
102
RTVSPost2010PropOp43
 70
     1
102
RTVSPost2010Prop44ColorIndex
 90
        5
102
RTVSPost2010Prop44ColorRGB
 90
      255
102
RTVSPost2010PropOp44
 70
     1
102
RTVSPost2010Prop45
280
     0
102
RTVSPost2010PropOp45
 70
     1
102
RTVSPost2010Prop46
 90
       50
102
RTVSPost2010PropOp46
 70
     1
102
RTVSPost2010Prop47
 90
       50
102
RTVSPost2010PropOp47
 70
     1
102
RTVSPost2010Prop48
 90
       50
102
RTVSPost2010PropOp48
 70
     1
102
RTVSPost2010Prop49
280
     0
102
RTVSPost2010PropOp49
 70
     1
102
RTVSPost2010Prop50
 90
       50
102
RTVSPost2010PropOp50
 70
     1
102
RTVSPost2010Prop51ColorIndex
 90
      256
102
RTVSPost2010Prop51ColorRGB
 90
-16777216
102
RTVSPost2010PropOp51
 70
     0
102
RTVSPost2010Prop52
140
1.0
102
RTVSPost2010PropOp52
 70
     0
102
RTVSPost2010Prop53
 90
        2
102
RTVSPost2010PropOp53
 70
     1
102
RTVSPost2010Prop54
  1
strokes_ogs.tif
102
RTVSPost2010PropOp54
 70
     1
102
RTVSPost2010Prop55
280
     0
102
RTVSPost2010PropOp55
 70
     1
102
RTVSPost2010Prop56
140
1.0
102
RTVSPost2010PropOp56
 70
     1
102
RTVSPost2010Prop57
140
1.0
102
RTVSPost2010PropOp57
 70
     1
102
RTVSPropertyOp0
 70
     1
102
RTVSPropertyOp1
 70
     1
102
RTVSPropertyOp2
 70
     1
102
RTVSPropertyOp3
 70
     1
102
RTVSPropertyOp4
 70
     1
102
RTVSPropertyOp5
 70
     1
102
RTVSPropertyOp6
 70
     1
102
RTVSPropertyOp7
 70
     1
102
RTVSPropertyOp8
 70
     1
102
RTVSPropertyOp9
 70
     1
102
RTVSPropertyOp10
 70
     1
102
RTVSPropertyOp11
 70
     1
102
RTVSPropertyOp12
 70
     1
102
RTVSPropertyOp13
 70
     1
102
RTVSPropertyOp14
 70
     1
102
RTVSPropertyOp15
 70
     1
102
RTVSPropertyOp16
 70
     1
102
RTVSPropertyOp17
 70
     1
102
RTVSPropertyOp18
 70
     1
102
RTVSPropertyOp19
 70
     1
102
RTVSPropertyOp20
 70
     1
102
RTVSPropertyOp21
 70
     1
102
RTVSPropertyOp22
 70
     1
102
RTVSPropertyOp23
 70
     1
102
RTVSPropertyOp24
 70
     1
102
RTVSPropertyOp25
 70
     1
102
RTVSPropertyOp26
 70
     1
102
RTVSPropertyOp27
 70
     1
102
RTVSPropertyOp28
 70
     1
102
RTVSPropertyOp29
 70
     1
102
RTVSPropertyOp30
 70
     1
102
RTVSPropertyOp31
 70
     1
102
RTVSPropertyOp32
 70
     1
102
RTVSPropertyOp33
 70
     1
102
RTVSPropertyOp34
 70
     1
102
RTVSPropertyOp35
 70
     1
102
RTVSPropertyOp36
 70
     1
102
RTVSPropertyOp37
 70
     1
102
RTVSPropertyOp38
 70
     1
102
RTVSPropertyOp39
 70
     1
102
RTVSPropertyOp40
 70
     1
102
RTVSPropertyOp41
 70
     1
102
RTVSPropertyOp42
 70
     1
102
RTVSPropertyOp43
 70
     1
102
RTVSPropertyOp44
 70
     1
102
RTVSPropertyOp45
 70
     1
102
RTVSPropertyOp46
 70
     1
102
RTVSPropertyOp47
 70
     1
102
RTVSPropertyOp48
 70
     1
102
RTVSPropertyOp49
 70
     1
102
RTVSPropertyOp50
 70
     1
102
RTVSPropertyOp51
 70
     0
102
RTVSPropertyOp52
 70
     0
102
RTVSPropertyOp53
 70
     1
102
RTVSPropertyOp54
 70
     1
102
RTVSPropertyOp55
 70
     1
102
RTVSPropertyOp56
 70
     1
102
RTVSPropertyOp57
 70
     1
102
RTVSPropertyOp58
 70
     1
102
RTVSPropertyOp59
 70
     1
102
RTVSPropertyOp60
 70
     1
102
RTVSPropertyOp61
 70
     1
102
RTVSPropertyOp62
 70
     1
  0
XRECORD
  5
9F17
102
{ACAD_REACTORS
330
9F16
102
}
330
9F16
100
AcDbXrecord
280
     1
102
RTVSPost2010Prop28
280
     0
102
RTVSPost2010PropOp28
 70
     1
102
RTVSPost2010Prop29
280
     1
102
RTVSPost2010PropOp29
 70
     1
102
RTVSPost2010Prop30
280
     1
102
RTVSPost2010PropOp30
 70
     1
102
RTVSPost2010Prop31
280
     0
102
RTVSPost2010PropOp31
 70
     1
102
RTVSPost2010Prop32
280
     0
102
RTVSPost2010PropOp32
 70
     1
102
RTVSPost2010Prop33
280
     0
102
RTVSPost2010PropOp33
 70
     1
102
RTVSPost2010Prop34
280
     0
102
RTVSPost2010PropOp34
 70
     1
102
RTVSPost2010Prop35
280
     0
102
RTVSPost2010PropOp35
 70
     1
102
RTVSPost2010Prop36
280
     0
102
RTVSPost2010PropOp36
 70
     1
102
RTVSPost2010Prop37
 90
       50
102
RTVSPost2010PropOp37
 70
     1
102
RTVSPost2010Prop38
140
0.0
102
RTVSPost2010PropOp38
 70
     1
102
RTVSPost2010Prop39
140
1.0
102
RTVSPost2010PropOp39
 70
     1
102
RTVSPost2010Prop40
 90
        0
102
RTVSPost2010PropOp40
 70
     1
102
RTVSPost2010Prop41ColorIndex
 90
       18
102
RTVSPost2010Prop41ColorRGB
 90
        0
102
RTVSPost2010PropOp41
 70
     1
102
RTVSPost2010Prop42
 90
       50
102
RTVSPost2010PropOp42
 70
     1
102
RTVSPost2010Prop43
 90
        3
102
RTVSPost2010PropOp43
 70
     1
102
RTVSPost2010Prop44ColorIndex
 90
        5
102
RTVSPost2010Prop44ColorRGB
 90
      255
102
RTVSPost2010PropOp44
 70
     1
102
RTVSPost2010Prop45
280
     0
102
RTVSPost2010PropOp45
 70
     1
102
RTVSPost2010Prop46
 90
       50
102
RTVSPost2010PropOp46
 70
     1
102
RTVSPost2010Prop47
 90
       50
102
RTVSPost2010PropOp47
 70
     1
102
RTVSPost2010Prop48
 90
       50
102
RTVSPost2010PropOp48
 70
     1
102
RTVSPost2010Prop49
280
     0
102
RTVSPost2010PropOp49
 70
     1
102
RTVSPost2010Prop50
 90
       50
102
RTVSPost2010PropOp50
 70
     1
102
RTVSPost2010Prop51ColorIndex
 90
      256
102
RTVSPost2010Prop51ColorRGB
 90
-16777216
102
RTVSPost2010PropOp51
 70
     0
102
RTVSPost2010Prop52
140
1.0
102
RTVSPost2010PropOp52
 70
     0
102
RTVSPost2010Prop53
 90
        2
102
RTVSPost2010PropOp53
 70
     1
102
RTVSPost2010Prop54
  1
strokes_ogs.tif
102
RTVSPost2010PropOp54
 70
     1
102
RTVSPost2010Prop55
280
     0
102
RTVSPost2010PropOp55
 70
     1
102
RTVSPost2010Prop56
140
1.0
102
RTVSPost2010PropOp56
 70
     1
102
RTVSPost2010Prop57
140
1.0
102
RTVSPost2010PropOp57
 70
     1
102
RTVSPropertyOp0
 70
     1
102
RTVSPropertyOp1
 70
     1
102
RTVSPropertyOp2
 70
     1
102
RTVSPropertyOp3
 70
     1
102
RTVSPropertyOp4
 70
     1
102
RTVSPropertyOp5
 70
     1
102
RTVSPropertyOp6
 70
     1
102
RTVSPropertyOp7
 70
     1
102
RTVSPropertyOp8
 70
     1
102
RTVSPropertyOp9
 70
     1
102
RTVSPropertyOp10
 70
     1
102
RTVSPropertyOp11
 70
     1
102
RTVSPropertyOp12
 70
     1
102
RTVSPropertyOp13
 70
     1
102
RTVSPropertyOp14
 70
     1
102
RTVSPropertyOp15
 70
     1
102
RTVSPropertyOp16
 70
     1
102
RTVSPropertyOp17
 70
     1
102
RTVSPropertyOp18
 70
     1
102
RTVSPropertyOp19
 70
     1
102
RTVSPropertyOp20
 70
     1
102
RTVSPropertyOp21
 70
     1
102
RTVSPropertyOp22
 70
     1
102
RTVSPropertyOp23
 70
     1
102
RTVSPropertyOp24
 70
     1
102
RTVSPropertyOp25
 70
     1
102
RTVSPropertyOp26
 70
     1
102
RTVSPropertyOp27
 70
     1
102
RTVSPropertyOp28
 70
     1
102
RTVSPropertyOp29
 70
     1
102
RTVSPropertyOp30
 70
     1
102
RTVSPropertyOp31
 70
     1
102
RTVSPropertyOp32
 70
     1
102
RTVSPropertyOp33
 70
     1
102
RTVSPropertyOp34
 70
     1
102
RTVSPropertyOp35
 70
     1
102
RTVSPropertyOp36
 70
     1
102
RTVSPropertyOp37
 70
     1
102
RTVSPropertyOp38
 70
     1
102
RTVSPropertyOp39
 70
     1
102
RTVSPropertyOp40
 70
     1
102
RTVSPropertyOp41
 70
     1
102
RTVSPropertyOp42
 70
     1
102
RTVSPropertyOp43
 70
     1
102
RTVSPropertyOp44
 70
     1
102
RTVSPropertyOp45
 70
     1
102
RTVSPropertyOp46
 70
     1
102
RTVSPropertyOp47
 70
     1
102
RTVSPropertyOp48
 70
     1
102
RTVSPropertyOp49
 70
     1
102
RTVSPropertyOp50
 70
     1
102
RTVSPropertyOp51
 70
     0
102
RTVSPropertyOp52
 70
     0
102
RTVSPropertyOp53
 70
     1
102
RTVSPropertyOp54
 70
     1
102
RTVSPropertyOp55
 70
     1
102
RTVSPropertyOp56
 70
     1
102
RTVSPropertyOp57
 70
     1
102
RTVSPropertyOp58
 70
     1
102
RTVSPropertyOp59
 70
     1
102
RTVSPropertyOp60
 70
     1
102
RTVSPropertyOp61
 70
     1
102
RTVSPropertyOp62
 70
     1
  0
XRECORD
  5
9F19
102
{ACAD_REACTORS
330
9F18
102
}
330
9F18
100
AcDbXrecord
280
     1
102
RTVSPost2010Prop28
280
     0
102
RTVSPost2010PropOp28
 70
     1
102
RTVSPost2010Prop29
280
     1
102
RTVSPost2010PropOp29
 70
     1
102
RTVSPost2010Prop30
280
     1
102
RTVSPost2010PropOp30
 70
     1
102
RTVSPost2010Prop31
280
     0
102
RTVSPost2010PropOp31
 70
     1
102
RTVSPost2010Prop32
280
     0
102
RTVSPost2010PropOp32
 70
     1
102
RTVSPost2010Prop33
280
     0
102
RTVSPost2010PropOp33
 70
     1
102
RTVSPost2010Prop34
280
     0
102
RTVSPost2010PropOp34
 70
     1
102
RTVSPost2010Prop35
280
     0
102
RTVSPost2010PropOp35
 70
     1
102
RTVSPost2010Prop36
280
     0
102
RTVSPost2010PropOp36
 70
     1
102
RTVSPost2010Prop37
 90
       50
102
RTVSPost2010PropOp37
 70
     1
102
RTVSPost2010Prop38
140
0.0
102
RTVSPost2010PropOp38
 70
     1
102
RTVSPost2010Prop39
140
1.0
102
RTVSPost2010PropOp39
 70
     1
102
RTVSPost2010Prop40
 90
        0
102
RTVSPost2010PropOp40
 70
     1
102
RTVSPost2010Prop41ColorIndex
 90
       18
102
RTVSPost2010Prop41ColorRGB
 90
        0
102
RTVSPost2010PropOp41
 70
     1
102
RTVSPost2010Prop42
 90
       50
102
RTVSPost2010PropOp42
 70
     1
102
RTVSPost2010Prop43
 90
        3
102
RTVSPost2010PropOp43
 70
     1
102
RTVSPost2010Prop44ColorIndex
 90
        5
102
RTVSPost2010Prop44ColorRGB
 90
      255
102
RTVSPost2010PropOp44
 70
     1
102
RTVSPost2010Prop45
280
     0
102
RTVSPost2010PropOp45
 70
     1
102
RTVSPost2010Prop46
 90
       50
102
RTVSPost2010PropOp46
 70
     1
102
RTVSPost2010Prop47
 90
       50
102
RTVSPost2010PropOp47
 70
     1
102
RTVSPost2010Prop48
 90
       50
102
RTVSPost2010PropOp48
 70
     1
102
RTVSPost2010Prop49
280
     0
102
RTVSPost2010PropOp49
 70
     1
102
RTVSPost2010Prop50
 90
       50
102
RTVSPost2010PropOp50
 70
     1
102
RTVSPost2010Prop51ColorIndex
 90
      256
102
RTVSPost2010Prop51ColorRGB
 90
-16777216
102
RTVSPost2010PropOp51
 70
     0
102
RTVSPost2010Prop52
140
1.0
102
RTVSPost2010PropOp52
 70
     0
102
RTVSPost2010Prop53
 90
        2
102
RTVSPost2010PropOp53
 70
     1
102
RTVSPost2010Prop54
  1
strokes_ogs.tif
102
RTVSPost2010PropOp54
 70
     1
102
RTVSPost2010Prop55
280
     0
102
RTVSPost2010PropOp55
 70
     1
102
RTVSPost2010Prop56
140
1.0
102
RTVSPost2010PropOp56
 70
     1
102
RTVSPost2010Prop57
140
1.0
102
RTVSPost2010PropOp57
 70
     1
102
RTVSPropertyOp0
 70
     1
102
RTVSPropertyOp1
 70
     1
102
RTVSPropertyOp2
 70
     1
102
RTVSPropertyOp3
 70
     1
102
RTVSPropertyOp4
 70
     1
102
RTVSPropertyOp5
 70
     1
102
RTVSPropertyOp6
 70
     1
102
RTVSPropertyOp7
 70
     1
102
RTVSPropertyOp8
 70
     1
102
RTVSPropertyOp9
 70
     1
102
RTVSPropertyOp10
 70
     1
102
RTVSPropertyOp11
 70
     1
102
RTVSPropertyOp12
 70
     1
102
RTVSPropertyOp13
 70
     1
102
RTVSPropertyOp14
 70
     1
102
RTVSPropertyOp15
 70
     1
102
RTVSPropertyOp16
 70
     1
102
RTVSPropertyOp17
 70
     1
102
RTVSPropertyOp18
 70
     1
102
RTVSPropertyOp19
 70
     1
102
RTVSPropertyOp20
 70
     1
102
RTVSPropertyOp21
 70
     1
102
RTVSPropertyOp22
 70
     1
102
RTVSPropertyOp23
 70
     1
102
RTVSPropertyOp24
 70
     1
102
RTVSPropertyOp25
 70
     1
102
RTVSPropertyOp26
 70
     1
102
RTVSPropertyOp27
 70
     1
102
RTVSPropertyOp28
 70
     1
102
RTVSPropertyOp29
 70
     1
102
RTVSPropertyOp30
 70
     1
102
RTVSPropertyOp31
 70
     1
102
RTVSPropertyOp32
 70
     1
102
RTVSPropertyOp33
 70
     1
102
RTVSPropertyOp34
 70
     1
102
RTVSPropertyOp35
 70
     1
102
RTVSPropertyOp36
 70
     1
102
RTVSPropertyOp37
 70
     1
102
RTVSPropertyOp38
 70
     1
102
RTVSPropertyOp39
 70
     1
102
RTVSPropertyOp40
 70
     1
102
RTVSPropertyOp41
 70
     1
102
RTVSPropertyOp42
 70
     1
102
RTVSPropertyOp43
 70
     1
102
RTVSPropertyOp44
 70
     1
102
RTVSPropertyOp45
 70
     1
102
RTVSPropertyOp46
 70
     1
102
RTVSPropertyOp47
 70
     1
102
RTVSPropertyOp48
 70
     1
102
RTVSPropertyOp49
 70
     1
102
RTVSPropertyOp50
 70
     1
102
RTVSPropertyOp51
 70
     0
102
RTVSPropertyOp52
 70
     0
102
RTVSPropertyOp53
 70
     1
102
RTVSPropertyOp54
 70
     1
102
RTVSPropertyOp55
 70
     1
102
RTVSPropertyOp56
 70
     1
102
RTVSPropertyOp57
 70
     1
102
RTVSPropertyOp58
 70
     1
102
RTVSPropertyOp59
 70
     1
102
RTVSPropertyOp60
 70
     1
102
RTVSPropertyOp61
 70
     1
102
RTVSPropertyOp62
 70
     1
  0
XRECORD
  5
9F21
102
{ACAD_REACTORS
330
9F20
102
}
330
9F20
100
AcDbXrecord
280
     1
102
RTVSPost2010Prop28
280
     0
102
RTVSPost2010PropOp28
 70
     1
102
RTVSPost2010Prop29
280
     1
102
RTVSPost2010PropOp29
 70
     1
102
RTVSPost2010Prop30
280
     1
102
RTVSPost2010PropOp30
 70
     1
102
RTVSPost2010Prop31
280
     0
102
RTVSPost2010PropOp31
 70
     1
102
RTVSPost2010Prop32
280
     0
102
RTVSPost2010PropOp32
 70
     1
102
RTVSPost2010Prop33
280
     0
102
RTVSPost2010PropOp33
 70
     1
102
RTVSPost2010Prop34
280
     0
102
RTVSPost2010PropOp34
 70
     1
102
RTVSPost2010Prop35
280
     0
102
RTVSPost2010PropOp35
 70
     1
102
RTVSPost2010Prop36
280
     0
102
RTVSPost2010PropOp36
 70
     1
102
RTVSPost2010Prop37
 90
       50
102
RTVSPost2010PropOp37
 70
     1
102
RTVSPost2010Prop38
140
0.0
102
RTVSPost2010PropOp38
 70
     1
102
RTVSPost2010Prop39
140
1.0
102
RTVSPost2010PropOp39
 70
     1
102
RTVSPost2010Prop40
 90
        0
102
RTVSPost2010PropOp40
 70
     1
102
RTVSPost2010Prop41ColorIndex
 90
       18
102
RTVSPost2010Prop41ColorRGB
 90
        0
102
RTVSPost2010PropOp41
 70
     1
102
RTVSPost2010Prop42
 90
       50
102
RTVSPost2010PropOp42
 70
     1
102
RTVSPost2010Prop43
 90
        3
102
RTVSPost2010PropOp43
 70
     1
102
RTVSPost2010Prop44ColorIndex
 90
        5
102
RTVSPost2010Prop44ColorRGB
 90
      255
102
RTVSPost2010PropOp44
 70
     1
102
RTVSPost2010Prop45
280
     0
102
RTVSPost2010PropOp45
 70
     1
102
RTVSPost2010Prop46
 90
       50
102
RTVSPost2010PropOp46
 70
     1
102
RTVSPost2010Prop47
 90
       50
102
RTVSPost2010PropOp47
 70
     1
102
RTVSPost2010Prop48
 90
       50
102
RTVSPost2010PropOp48
 70
     1
102
RTVSPost2010Prop49
280
     0
102
RTVSPost2010PropOp49
 70
     1
102
RTVSPost2010Prop50
 90
       50
102
RTVSPost2010PropOp50
 70
     1
102
RTVSPost2010Prop51ColorIndex
 90
      256
102
RTVSPost2010Prop51ColorRGB
 90
-16777216
102
RTVSPost2010PropOp51
 70
     0
102
RTVSPost2010Prop52
140
1.0
102
RTVSPost2010PropOp52
 70
     0
102
RTVSPost2010Prop53
 90
        2
102
RTVSPost2010PropOp53
 70
     1
102
RTVSPost2010Prop54
  1
strokes_ogs.tif
102
RTVSPost2010PropOp54
 70
     1
102
RTVSPost2010Prop55
280
     0
102
RTVSPost2010PropOp55
 70
     1
102
RTVSPost2010Prop56
140
1.0
102
RTVSPost2010PropOp56
 70
     1
102
RTVSPost2010Prop57
140
1.0
102
RTVSPost2010PropOp57
 70
     1
102
RTVSPropertyOp0
 70
     1
102
RTVSPropertyOp1
 70
     1
102
RTVSPropertyOp2
 70
     1
102
RTVSPropertyOp3
 70
     1
102
RTVSPropertyOp4
 70
     1
102
RTVSPropertyOp5
 70
     1
102
RTVSPropertyOp6
 70
     1
102
RTVSPropertyOp7
 70
     1
102
RTVSPropertyOp8
 70
     1
102
RTVSPropertyOp9
 70
     1
102
RTVSPropertyOp10
 70
     1
102
RTVSPropertyOp11
 70
     1
102
RTVSPropertyOp12
 70
     1
102
RTVSPropertyOp13
 70
     1
102
RTVSPropertyOp14
 70
     1
102
RTVSPropertyOp15
 70
     1
102
RTVSPropertyOp16
 70
     1
102
RTVSPropertyOp17
 70
     1
102
RTVSPropertyOp18
 70
     1
102
RTVSPropertyOp19
 70
     1
102
RTVSPropertyOp20
 70
     1
102
RTVSPropertyOp21
 70
     1
102
RTVSPropertyOp22
 70
     1
102
RTVSPropertyOp23
 70
     1
102
RTVSPropertyOp24
 70
     1
102
RTVSPropertyOp25
 70
     1
102
RTVSPropertyOp26
 70
     1
102
RTVSPropertyOp27
 70
     1
102
RTVSPropertyOp28
 70
     1
102
RTVSPropertyOp29
 70
     1
102
RTVSPropertyOp30
 70
     1
102
RTVSPropertyOp31
 70
     1
102
RTVSPropertyOp32
 70
     1
102
RTVSPropertyOp33
 70
     1
102
RTVSPropertyOp34
 70
     1
102
RTVSPropertyOp35
 70
     1
102
RTVSPropertyOp36
 70
     1
102
RTVSPropertyOp37
 70
     1
102
RTVSPropertyOp38
 70
     1
102
RTVSPropertyOp39
 70
     1
102
RTVSPropertyOp40
 70
     1
102
RTVSPropertyOp41
 70
     1
102
RTVSPropertyOp42
 70
     1
102
RTVSPropertyOp43
 70
     1
102
RTVSPropertyOp44
 70
     1
102
RTVSPropertyOp45
 70
     1
102
RTVSPropertyOp46
 70
     1
102
RTVSPropertyOp47
 70
     1
102
RTVSPropertyOp48
 70
     1
102
RTVSPropertyOp49
 70
     1
102
RTVSPropertyOp50
 70
     1
102
RTVSPropertyOp51
 70
     0
102
RTVSPropertyOp52
 70
     0
102
RTVSPropertyOp53
 70
     1
102
RTVSPropertyOp54
 70
     1
102
RTVSPropertyOp55
 70
     1
102
RTVSPropertyOp56
 70
     1
102
RTVSPropertyOp57
 70
     1
102
RTVSPropertyOp58
 70
     1
102
RTVSPropertyOp59
 70
     1
102
RTVSPropertyOp60
 70
     1
102
RTVSPropertyOp61
 70
     1
102
RTVSPropertyOp62
 70
     1
  0
XRECORD
  5
9F3D
102
{ACAD_REACTORS
330
9F3C
102
}
330
9F3C
100
AcDbXrecord
280
     1
102
RTVSPost2010Prop28
280
     0
102
RTVSPost2010PropOp28
 70
     0
102
RTVSPost2010Prop29
280
     1
102
RTVSPost2010PropOp29
 70
     0
102
RTVSPost2010Prop30
280
     1
102
RTVSPost2010PropOp30
 70
     0
102
RTVSPost2010Prop31
280
     0
102
RTVSPost2010PropOp31
 70
     0
102
RTVSPost2010Prop32
280
     0
102
RTVSPost2010PropOp32
 70
     0
102
RTVSPost2010Prop33
280
     0
102
RTVSPost2010PropOp33
 70
     0
102
RTVSPost2010Prop34
280
     0
102
RTVSPost2010PropOp34
 70
     0
102
RTVSPost2010Prop35
280
     0
102
RTVSPost2010PropOp35
 70
     0
102
RTVSPost2010Prop36
280
     0
102
RTVSPost2010PropOp36
 70
     0
102
RTVSPost2010Prop37
 90
       50
102
RTVSPost2010PropOp37
 70
     0
102
RTVSPost2010Prop38
140
0.0
102
RTVSPost2010PropOp38
 70
     0
102
RTVSPost2010Prop39
140
1.0
102
RTVSPost2010PropOp39
 70
     0
102
RTVSPost2010Prop40
 90
        0
102
RTVSPost2010PropOp40
 70
     0
102
RTVSPost2010Prop41ColorIndex
 90
       18
102
RTVSPost2010Prop41ColorRGB
 90
        0
102
RTVSPost2010PropOp41
 70
     0
102
RTVSPost2010Prop42
 90
       50
102
RTVSPost2010PropOp42
 70
     0
102
RTVSPost2010Prop43
 90
        3
102
RTVSPost2010PropOp43
 70
     0
102
RTVSPost2010Prop44ColorIndex
 90
        5
102
RTVSPost2010Prop44ColorRGB
 90
      255
102
RTVSPost2010PropOp44
 70
     0
102
RTVSPost2010Prop45
280
     0
102
RTVSPost2010PropOp45
 70
     0
102
RTVSPost2010Prop46
 90
       50
102
RTVSPost2010PropOp46
 70
     0
102
RTVSPost2010Prop47
 90
       50
102
RTVSPost2010PropOp47
 70
     0
102
RTVSPost2010Prop48
 90
       50
102
RTVSPost2010PropOp48
 70
     0
102
RTVSPost2010Prop49
280
     0
102
RTVSPost2010PropOp49
 70
     0
102
RTVSPost2010Prop50
 90
       50
102
RTVSPost2010PropOp50
 70
     0
102
RTVSPost2010Prop51ColorIndex
 90
      256
102
RTVSPost2010Prop51ColorRGB
 90
-16777216
102
RTVSPost2010PropOp51
 70
     0
102
RTVSPost2010Prop52
140
1.0
102
RTVSPost2010PropOp52
 70
     0
102
RTVSPost2010Prop53
 90
        2
102
RTVSPost2010PropOp53
 70
     0
102
RTVSPost2010Prop54
  1
strokes_ogs.tif
102
RTVSPost2010PropOp54
 70
     0
102
RTVSPost2010Prop55
280
     0
102
RTVSPost2010PropOp55
 70
     0
102
RTVSPost2010Prop56
140
1.0
102
RTVSPost2010PropOp56
 70
     0
102
RTVSPost2010Prop57
140
1.0
102
RTVSPost2010PropOp57
 70
     0
102
RTVSPropertyOp0
 70
     0
102
RTVSPropertyOp1
 70
     0
102
RTVSPropertyOp2
 70
     0
102
RTVSPropertyOp3
 70
     0
102
RTVSPropertyOp4
 70
     0
102
RTVSPropertyOp5
 70
     0
102
RTVSPropertyOp6
 70
     0
102
RTVSPropertyOp7
 70
     0
102
RTVSPropertyOp8
 70
     0
102
RTVSPropertyOp9
 70
     0
102
RTVSPropertyOp10
 70
     0
102
RTVSPropertyOp11
 70
     0
102
RTVSPropertyOp12
 70
     0
102
RTVSPropertyOp13
 70
     0
102
RTVSPropertyOp14
 70
     2
102
RTVSPropertyOp15
 70
     0
102
RTVSPropertyOp16
 70
     0
102
RTVSPropertyOp17
 70
     0
102
RTVSPropertyOp18
 70
     0
102
RTVSPropertyOp19
 70
     0
102
RTVSPropertyOp20
 70
     0
102
RTVSPropertyOp21
 70
     0
102
RTVSPropertyOp22
 70
     0
102
RTVSPropertyOp23
 70
     0
102
RTVSPropertyOp24
 70
     0
102
RTVSPropertyOp25
 70
     0
102
RTVSPropertyOp26
 70
     0
102
RTVSPropertyOp27
 70
     0
102
RTVSPropertyOp28
 70
     0
102
RTVSPropertyOp29
 70
     0
102
RTVSPropertyOp30
 70
     0
102
RTVSPropertyOp31
 70
     0
102
RTVSPropertyOp32
 70
     0
102
RTVSPropertyOp33
 70
     0
102
RTVSPropertyOp34
 70
     0
102
RTVSPropertyOp35
 70
     0
102
RTVSPropertyOp36
 70
     0
102
RTVSPropertyOp37
 70
     0
102
RTVSPropertyOp38
 70
     0
102
RTVSPropertyOp39
 70
     0
102
RTVSPropertyOp40
 70
     0
102
RTVSPropertyOp41
 70
     0
102
RTVSPropertyOp42
 70
     0
102
RTVSPropertyOp43
 70
     0
102
RTVSPropertyOp44
 70
     0
102
RTVSPropertyOp45
 70
     0
102
RTVSPropertyOp46
 70
     0
102
RTVSPropertyOp47
 70
     0
102
RTVSPropertyOp48
 70
     0
102
RTVSPropertyOp49
 70
     0
102
RTVSPropertyOp50
 70
     0
102
RTVSPropertyOp51
 70
     0
102
RTVSPropertyOp52
 70
     0
102
RTVSPropertyOp53
 70
     0
102
RTVSPropertyOp54
 70
     0
102
RTVSPropertyOp55
 70
     0
102
RTVSPropertyOp56
 70
     0
102
RTVSPropertyOp57
 70
     0
102
RTVSPropertyOp58
 70
     1
102
RTVSPropertyOp59
 70
     1
102
RTVSPropertyOp60
 70
     1
102
RTVSPropertyOp61
 70
     1
102
RTVSPropertyOp62
 70
     1
  0
XRECORD
  5
9F2D
102
{ACAD_REACTORS
330
9F2C
102
}
330
9F2C
100
AcDbXrecord
280
     1
102
RTVSPost2010Prop28
280
     0
102
RTVSPost2010PropOp28
 70
     1
102
RTVSPost2010Prop29
280
     1
102
RTVSPost2010PropOp29
 70
     1
102
RTVSPost2010Prop30
280
     1
102
RTVSPost2010PropOp30
 70
     1
102
RTVSPost2010Prop31
280
     0
102
RTVSPost2010PropOp31
 70
     1
102
RTVSPost2010Prop32
280
     0
102
RTVSPost2010PropOp32
 70
     1
102
RTVSPost2010Prop33
280
     0
102
RTVSPost2010PropOp33
 70
     1
102
RTVSPost2010Prop34
280
     0
102
RTVSPost2010PropOp34
 70
     1
102
RTVSPost2010Prop35
280
     0
102
RTVSPost2010PropOp35
 70
     1
102
RTVSPost2010Prop36
280
     0
102
RTVSPost2010PropOp36
 70
     1
102
RTVSPost2010Prop37
 90
       50
102
RTVSPost2010PropOp37
 70
     1
102
RTVSPost2010Prop38
140
0.0
102
RTVSPost2010PropOp38
 70
     1
102
RTVSPost2010Prop39
140
1.0
102
RTVSPost2010PropOp39
 70
     1
102
RTVSPost2010Prop40
 90
        0
102
RTVSPost2010PropOp40
 70
     1
102
RTVSPost2010Prop41ColorIndex
 90
       18
102
RTVSPost2010Prop41ColorRGB
 90
        0
102
RTVSPost2010PropOp41
 70
     1
102
RTVSPost2010Prop42
 90
       50
102
RTVSPost2010PropOp42
 70
     1
102
RTVSPost2010Prop43
 90
        3
102
RTVSPost2010PropOp43
 70
     1
102
RTVSPost2010Prop44ColorIndex
 90
        5
102
RTVSPost2010Prop44ColorRGB
 90
      255
102
RTVSPost2010PropOp44
 70
     1
102
RTVSPost2010Prop45
280
     0
102
RTVSPost2010PropOp45
 70
     1
102
RTVSPost2010Prop46
 90
       50
102
RTVSPost2010PropOp46
 70
     1
102
RTVSPost2010Prop47
 90
       50
102
RTVSPost2010PropOp47
 70
     1
102
RTVSPost2010Prop48
 90
       50
102
RTVSPost2010PropOp48
 70
     1
102
RTVSPost2010Prop49
280
     0
102
RTVSPost2010PropOp49
 70
     1
102
RTVSPost2010Prop50
 90
       50
102
RTVSPost2010PropOp50
 70
     1
102
RTVSPost2010Prop51ColorIndex
 90
      256
102
RTVSPost2010Prop51ColorRGB
 90
-16777216
102
RTVSPost2010PropOp51
 70
     0
102
RTVSPost2010Prop52
140
1.0
102
RTVSPost2010PropOp52
 70
     0
102
RTVSPost2010Prop53
 90
        2
102
RTVSPost2010PropOp53
 70
     1
102
RTVSPost2010Prop54
  1
strokes_ogs.tif
102
RTVSPost2010PropOp54
 70
     1
102
RTVSPost2010Prop55
280
     0
102
RTVSPost2010PropOp55
 70
     1
102
RTVSPost2010Prop56
140
1.0
102
RTVSPost2010PropOp56
 70
     1
102
RTVSPost2010Prop57
140
1.0
102
RTVSPost2010PropOp57
 70
     1
102
RTVSPropertyOp0
 70
     1
102
RTVSPropertyOp1
 70
     1
102
RTVSPropertyOp2
 70
     1
102
RTVSPropertyOp3
 70
     1
102
RTVSPropertyOp4
 70
     1
102
RTVSPropertyOp5
 70
     1
102
RTVSPropertyOp6
 70
     1
102
RTVSPropertyOp7
 70
     1
102
RTVSPropertyOp8
 70
     1
102
RTVSPropertyOp9
 70
     1
102
RTVSPropertyOp10
 70
     1
102
RTVSPropertyOp11
 70
     1
102
RTVSPropertyOp12
 70
     1
102
RTVSPropertyOp13
 70
     1
102
RTVSPropertyOp14
 70
     1
102
RTVSPropertyOp15
 70
     1
102
RTVSPropertyOp16
 70
     1
102
RTVSPropertyOp17
 70
     1
102
RTVSPropertyOp18
 70
     1
102
RTVSPropertyOp19
 70
     1
102
RTVSPropertyOp20
 70
     1
102
RTVSPropertyOp21
 70
     1
102
RTVSPropertyOp22
 70
     1
102
RTVSPropertyOp23
 70
     1
102
RTVSPropertyOp24
 70
     1
102
RTVSPropertyOp25
 70
     1
102
RTVSPropertyOp26
 70
     1
102
RTVSPropertyOp27
 70
     1
102
RTVSPropertyOp28
 70
     1
102
RTVSPropertyOp29
 70
     1
102
RTVSPropertyOp30
 70
     1
102
RTVSPropertyOp31
 70
     1
102
RTVSPropertyOp32
 70
     1
102
RTVSPropertyOp33
 70
     1
102
RTVSPropertyOp34
 70
     1
102
RTVSPropertyOp35
 70
     1
102
RTVSPropertyOp36
 70
     1
102
RTVSPropertyOp37
 70
     1
102
RTVSPropertyOp38
 70
     1
102
RTVSPropertyOp39
 70
     1
102
RTVSPropertyOp40
 70
     1
102
RTVSPropertyOp41
 70
     1
102
RTVSPropertyOp42
 70
     1
102
RTVSPropertyOp43
 70
     1
102
RTVSPropertyOp44
 70
     1
102
RTVSPropertyOp45
 70
     1
102
RTVSPropertyOp46
 70
     1
102
RTVSPropertyOp47
 70
     1
102
RTVSPropertyOp48
 70
     1
102
RTVSPropertyOp49
 70
     1
102
RTVSPropertyOp50
 70
     1
102
RTVSPropertyOp51
 70
     0
102
RTVSPropertyOp52
 70
     0
102
RTVSPropertyOp53
 70
     1
102
RTVSPropertyOp54
 70
     1
102
RTVSPropertyOp55
 70
     1
102
RTVSPropertyOp56
 70
     1
102
RTVSPropertyOp57
 70
     1
102
RTVSPropertyOp58
 70
     1
102
RTVSPropertyOp59
 70
     1
102
RTVSPropertyOp60
 70
     1
102
RTVSPropertyOp61
 70
     1
102
RTVSPropertyOp62
 70
     1
  0
XRECORD
  5
9F3F
102
{ACAD_REACTORS
330
9F3E
102
}
330
9F3E
100
AcDbXrecord
280
     1
102
RTVSPost2010Prop28
280
     0
102
RTVSPost2010PropOp28
 70
     0
102
RTVSPost2010Prop29
280
     1
102
RTVSPost2010PropOp29
 70
     0
102
RTVSPost2010Prop30
280
     1
102
RTVSPost2010PropOp30
 70
     0
102
RTVSPost2010Prop31
280
     0
102
RTVSPost2010PropOp31
 70
     0
102
RTVSPost2010Prop32
280
     0
102
RTVSPost2010PropOp32
 70
     0
102
RTVSPost2010Prop33
280
     0
102
RTVSPost2010PropOp33
 70
     0
102
RTVSPost2010Prop34
280
     0
102
RTVSPost2010PropOp34
 70
     0
102
RTVSPost2010Prop35
280
     0
102
RTVSPost2010PropOp35
 70
     0
102
RTVSPost2010Prop36
280
     0
102
RTVSPost2010PropOp36
 70
     0
102
RTVSPost2010Prop37
 90
       50
102
RTVSPost2010PropOp37
 70
     0
102
RTVSPost2010Prop38
140
0.0
102
RTVSPost2010PropOp38
 70
     0
102
RTVSPost2010Prop39
140
1.0
102
RTVSPost2010PropOp39
 70
     0
102
RTVSPost2010Prop40
 90
        0
102
RTVSPost2010PropOp40
 70
     0
102
RTVSPost2010Prop41ColorIndex
 90
       18
102
RTVSPost2010Prop41ColorRGB
 90
        0
102
RTVSPost2010PropOp41
 70
     0
102
RTVSPost2010Prop42
 90
       50
102
RTVSPost2010PropOp42
 70
     0
102
RTVSPost2010Prop43
 90
        3
102
RTVSPost2010PropOp43
 70
     0
102
RTVSPost2010Prop44ColorIndex
 90
        5
102
RTVSPost2010Prop44ColorRGB
 90
      255
102
RTVSPost2010PropOp44
 70
     0
102
RTVSPost2010Prop45
280
     0
102
RTVSPost2010PropOp45
 70
     0
102
RTVSPost2010Prop46
 90
       50
102
RTVSPost2010PropOp46
 70
     0
102
RTVSPost2010Prop47
 90
       50
102
RTVSPost2010PropOp47
 70
     0
102
RTVSPost2010Prop48
 90
       50
102
RTVSPost2010PropOp48
 70
     0
102
RTVSPost2010Prop49
280
     0
102
RTVSPost2010PropOp49
 70
     0
102
RTVSPost2010Prop50
 90
       50
102
RTVSPost2010PropOp50
 70
     0
102
RTVSPost2010Prop51ColorIndex
 90
      256
102
RTVSPost2010Prop51ColorRGB
 90
-16777216
102
RTVSPost2010PropOp51
 70
     0
102
RTVSPost2010Prop52
140
1.0
102
RTVSPost2010PropOp52
 70
     0
102
RTVSPost2010Prop53
 90
        2
102
RTVSPost2010PropOp53
 70
     0
102
RTVSPost2010Prop54
  1
strokes_ogs.tif
102
RTVSPost2010PropOp54
 70
     0
102
RTVSPost2010Prop55
280
     0
102
RTVSPost2010PropOp55
 70
     0
102
RTVSPost2010Prop56
140
1.0
102
RTVSPost2010PropOp56
 70
     0
102
RTVSPost2010Prop57
140
1.0
102
RTVSPost2010PropOp57
 70
     0
102
RTVSPropertyOp0
 70
     0
102
RTVSPropertyOp1
 70
     0
102
RTVSPropertyOp2
 70
     0
102
RTVSPropertyOp3
 70
     0
102
RTVSPropertyOp4
 70
     0
102
RTVSPropertyOp5
 70
     0
102
RTVSPropertyOp6
 70
     0
102
RTVSPropertyOp7
 70
     0
102
RTVSPropertyOp8
 70
     0
102
RTVSPropertyOp9
 70
     0
102
RTVSPropertyOp10
 70
     0
102
RTVSPropertyOp11
 70
     0
102
RTVSPropertyOp12
 70
     0
102
RTVSPropertyOp13
 70
     0
102
RTVSPropertyOp14
 70
     2
102
RTVSPropertyOp15
 70
     0
102
RTVSPropertyOp16
 70
     0
102
RTVSPropertyOp17
 70
     0
102
RTVSPropertyOp18
 70
     0
102
RTVSPropertyOp19
 70
     0
102
RTVSPropertyOp20
 70
     0
102
RTVSPropertyOp21
 70
     0
102
RTVSPropertyOp22
 70
     0
102
RTVSPropertyOp23
 70
     0
102
RTVSPropertyOp24
 70
     0
102
RTVSPropertyOp25
 70
     0
102
RTVSPropertyOp26
 70
     0
102
RTVSPropertyOp27
 70
     0
102
RTVSPropertyOp28
 70
     0
102
RTVSPropertyOp29
 70
     0
102
RTVSPropertyOp30
 70
     0
102
RTVSPropertyOp31
 70
     0
102
RTVSPropertyOp32
 70
     0
102
RTVSPropertyOp33
 70
     0
102
RTVSPropertyOp34
 70
     0
102
RTVSPropertyOp35
 70
     0
102
RTVSPropertyOp36
 70
     0
102
RTVSPropertyOp37
 70
     0
102
RTVSPropertyOp38
 70
     0
102
RTVSPropertyOp39
 70
     0
102
RTVSPropertyOp40
 70
     0
102
RTVSPropertyOp41
 70
     0
102
RTVSPropertyOp42
 70
     0
102
RTVSPropertyOp43
 70
     0
102
RTVSPropertyOp44
 70
     0
102
RTVSPropertyOp45
 70
     0
102
RTVSPropertyOp46
 70
     0
102
RTVSPropertyOp47
 70
     0
102
RTVSPropertyOp48
 70
     0
102
RTVSPropertyOp49
 70
     0
102
RTVSPropertyOp50
 70
     0
102
RTVSPropertyOp51
 70
     0
102
RTVSPropertyOp52
 70
     0
102
RTVSPropertyOp53
 70
     0
102
RTVSPropertyOp54
 70
     0
102
RTVSPropertyOp55
 70
     0
102
RTVSPropertyOp56
 70
     0
102
RTVSPropertyOp57
 70
     0
102
RTVSPropertyOp58
 70
     1
102
RTVSPropertyOp59
 70
     1
102
RTVSPropertyOp60
 70
     1
102
RTVSPropertyOp61
 70
     1
102
RTVSPropertyOp62
 70
     1
  0
XRECORD
  5
9F25
102
{ACAD_REACTORS
330
9F24
102
}
330
9F24
100
AcDbXrecord
280
     1
102
RTVSPost2010Prop28
280
     0
102
RTVSPost2010PropOp28
 70
     1
102
RTVSPost2010Prop29
280
     1
102
RTVSPost2010PropOp29
 70
     1
102
RTVSPost2010Prop30
280
     1
102
RTVSPost2010PropOp30
 70
     1
102
RTVSPost2010Prop31
280
     0
102
RTVSPost2010PropOp31
 70
     1
102
RTVSPost2010Prop32
280
     0
102
RTVSPost2010PropOp32
 70
     1
102
RTVSPost2010Prop33
280
     0
102
RTVSPost2010PropOp33
 70
     1
102
RTVSPost2010Prop34
280
     0
102
RTVSPost2010PropOp34
 70
     1
102
RTVSPost2010Prop35
280
     0
102
RTVSPost2010PropOp35
 70
     1
102
RTVSPost2010Prop36
280
     0
102
RTVSPost2010PropOp36
 70
     1
102
RTVSPost2010Prop37
 90
       50
102
RTVSPost2010PropOp37
 70
     1
102
RTVSPost2010Prop38
140
0.0
102
RTVSPost2010PropOp38
 70
     1
102
RTVSPost2010Prop39
140
1.0
102
RTVSPost2010PropOp39
 70
     1
102
RTVSPost2010Prop40
 90
        0
102
RTVSPost2010PropOp40
 70
     1
102
RTVSPost2010Prop41ColorIndex
 90
       18
102
RTVSPost2010Prop41ColorRGB
 90
        0
102
RTVSPost2010PropOp41
 70
     1
102
RTVSPost2010Prop42
 90
       50
102
RTVSPost2010PropOp42
 70
     1
102
RTVSPost2010Prop43
 90
        3
102
RTVSPost2010PropOp43
 70
     1
102
RTVSPost2010Prop44ColorIndex
 90
        5
102
RTVSPost2010Prop44ColorRGB
 90
      255
102
RTVSPost2010PropOp44
 70
     1
102
RTVSPost2010Prop45
280
     0
102
RTVSPost2010PropOp45
 70
     1
102
RTVSPost2010Prop46
 90
       50
102
RTVSPost2010PropOp46
 70
     1
102
RTVSPost2010Prop47
 90
       50
102
RTVSPost2010PropOp47
 70
     1
102
RTVSPost2010Prop48
 90
       50
102
RTVSPost2010PropOp48
 70
     1
102
RTVSPost2010Prop49
280
     0
102
RTVSPost2010PropOp49
 70
     1
102
RTVSPost2010Prop50
 90
       50
102
RTVSPost2010PropOp50
 70
     1
102
RTVSPost2010Prop51ColorIndex
 90
      256
102
RTVSPost2010Prop51ColorRGB
 90
-16777216
102
RTVSPost2010PropOp51
 70
     0
102
RTVSPost2010Prop52
140
1.0
102
RTVSPost2010PropOp52
 70
     0
102
RTVSPost2010Prop53
 90
        2
102
RTVSPost2010PropOp53
 70
     1
102
RTVSPost2010Prop54
  1
strokes_ogs.tif
102
RTVSPost2010PropOp54
 70
     1
102
RTVSPost2010Prop55
280
     0
102
RTVSPost2010PropOp55
 70
     1
102
RTVSPost2010Prop56
140
1.0
102
RTVSPost2010PropOp56
 70
     1
102
RTVSPost2010Prop57
140
1.0
102
RTVSPost2010PropOp57
 70
     1
102
RTVSPropertyOp0
 70
     1
102
RTVSPropertyOp1
 70
     1
102
RTVSPropertyOp2
 70
     1
102
RTVSPropertyOp3
 70
     1
102
RTVSPropertyOp4
 70
     1
102
RTVSPropertyOp5
 70
     1
102
RTVSPropertyOp6
 70
     1
102
RTVSPropertyOp7
 70
     1
102
RTVSPropertyOp8
 70
     1
102
RTVSPropertyOp9
 70
     1
102
RTVSPropertyOp10
 70
     1
102
RTVSPropertyOp11
 70
     1
102
RTVSPropertyOp12
 70
     1
102
RTVSPropertyOp13
 70
     1
102
RTVSPropertyOp14
 70
     1
102
RTVSPropertyOp15
 70
     1
102
RTVSPropertyOp16
 70
     1
102
RTVSPropertyOp17
 70
     1
102
RTVSPropertyOp18
 70
     1
102
RTVSPropertyOp19
 70
     1
102
RTVSPropertyOp20
 70
     1
102
RTVSPropertyOp21
 70
     1
102
RTVSPropertyOp22
 70
     1
102
RTVSPropertyOp23
 70
     1
102
RTVSPropertyOp24
 70
     1
102
RTVSPropertyOp25
 70
     1
102
RTVSPropertyOp26
 70
     1
102
RTVSPropertyOp27
 70
     1
102
RTVSPropertyOp28
 70
     1
102
RTVSPropertyOp29
 70
     1
102
RTVSPropertyOp30
 70
     1
102
RTVSPropertyOp31
 70
     1
102
RTVSPropertyOp32
 70
     1
102
RTVSPropertyOp33
 70
     1
102
RTVSPropertyOp34
 70
     1
102
RTVSPropertyOp35
 70
     1
102
RTVSPropertyOp36
 70
     1
102
RTVSPropertyOp37
 70
     1
102
RTVSPropertyOp38
 70
     1
102
RTVSPropertyOp39
 70
     1
102
RTVSPropertyOp40
 70
     1
102
RTVSPropertyOp41
 70
     1
102
RTVSPropertyOp42
 70
     1
102
RTVSPropertyOp43
 70
     1
102
RTVSPropertyOp44
 70
     1
102
RTVSPropertyOp45
 70
     1
102
RTVSPropertyOp46
 70
     1
102
RTVSPropertyOp47
 70
     1
102
RTVSPropertyOp48
 70
     1
102
RTVSPropertyOp49
 70
     1
102
RTVSPropertyOp50
 70
     1
102
RTVSPropertyOp51
 70
     0
102
RTVSPropertyOp52
 70
     0
102
RTVSPropertyOp53
 70
     1
102
RTVSPropertyOp54
 70
     1
102
RTVSPropertyOp55
 70
     1
102
RTVSPropertyOp56
 70
     1
102
RTVSPropertyOp57
 70
     1
102
RTVSPropertyOp58
 70
     1
102
RTVSPropertyOp59
 70
     1
102
RTVSPropertyOp60
 70
     1
102
RTVSPropertyOp61
 70
     1
102
RTVSPropertyOp62
 70
     1
  0
XRECORD
  5
9F3B
102
{ACAD_REACTORS
330
9F3A
102
}
330
9F3A
100
AcDbXrecord
280
     1
102
RTVSPost2010Prop28
280
     0
102
RTVSPost2010PropOp28
 70
     1
102
RTVSPost2010Prop29
280
     1
102
RTVSPost2010PropOp29
 70
     1
102
RTVSPost2010Prop30
280
     1
102
RTVSPost2010PropOp30
 70
     1
102
RTVSPost2010Prop31
280
     0
102
RTVSPost2010PropOp31
 70
     1
102
RTVSPost2010Prop32
280
     0
102
RTVSPost2010PropOp32
 70
     1
102
RTVSPost2010Prop33
280
     0
102
RTVSPost2010PropOp33
 70
     1
102
RTVSPost2010Prop34
280
     0
102
RTVSPost2010PropOp34
 70
     1
102
RTVSPost2010Prop35
280
     0
102
RTVSPost2010PropOp35
 70
     1
102
RTVSPost2010Prop36
280
     0
102
RTVSPost2010PropOp36
 70
     1
102
RTVSPost2010Prop37
 90
       50
102
RTVSPost2010PropOp37
 70
     1
102
RTVSPost2010Prop38
140
0.0
102
RTVSPost2010PropOp38
 70
     1
102
RTVSPost2010Prop39
140
1.0
102
RTVSPost2010PropOp39
 70
     1
102
RTVSPost2010Prop40
 90
        0
102
RTVSPost2010PropOp40
 70
     1
102
RTVSPost2010Prop41ColorIndex
 90
       18
102
RTVSPost2010Prop41ColorRGB
 90
        0
102
RTVSPost2010PropOp41
 70
     1
102
RTVSPost2010Prop42
 90
       50
102
RTVSPost2010PropOp42
 70
     1
102
RTVSPost2010Prop43
 90
        3
102
RTVSPost2010PropOp43
 70
     1
102
RTVSPost2010Prop44ColorIndex
 90
        5
102
RTVSPost2010Prop44ColorRGB
 90
      255
102
RTVSPost2010PropOp44
 70
     1
102
RTVSPost2010Prop45
280
     0
102
RTVSPost2010PropOp45
 70
     1
102
RTVSPost2010Prop46
 90
       50
102
RTVSPost2010PropOp46
 70
     1
102
RTVSPost2010Prop47
 90
       50
102
RTVSPost2010PropOp47
 70
     1
102
RTVSPost2010Prop48
 90
       50
102
RTVSPost2010PropOp48
 70
     1
102
RTVSPost2010Prop49
280
     0
102
RTVSPost2010PropOp49
 70
     1
102
RTVSPost2010Prop50
 90
       50
102
RTVSPost2010PropOp50
 70
     1
102
RTVSPost2010Prop51ColorIndex
 90
      256
102
RTVSPost2010Prop51ColorRGB
 90
-16777216
102
RTVSPost2010PropOp51
 70
     0
102
RTVSPost2010Prop52
140
1.0
102
RTVSPost2010PropOp52
 70
     0
102
RTVSPost2010Prop53
 90
        2
102
RTVSPost2010PropOp53
 70
     1
102
RTVSPost2010Prop54
  1
strokes_ogs.tif
102
RTVSPost2010PropOp54
 70
     1
102
RTVSPost2010Prop55
280
     0
102
RTVSPost2010PropOp55
 70
     1
102
RTVSPost2010Prop56
140
1.0
102
RTVSPost2010PropOp56
 70
     1
102
RTVSPost2010Prop57
140
1.0
102
RTVSPost2010PropOp57
 70
     1
102
RTVSPropertyOp0
 70
     1
102
RTVSPropertyOp1
 70
     1
102
RTVSPropertyOp2
 70
     1
102
RTVSPropertyOp3
 70
     1
102
RTVSPropertyOp4
 70
     1
102
RTVSPropertyOp5
 70
     1
102
RTVSPropertyOp6
 70
     1
102
RTVSPropertyOp7
 70
     1
102
RTVSPropertyOp8
 70
     1
102
RTVSPropertyOp9
 70
     1
102
RTVSPropertyOp10
 70
     1
102
RTVSPropertyOp11
 70
     1
102
RTVSPropertyOp12
 70
     1
102
RTVSPropertyOp13
 70
     1
102
RTVSPropertyOp14
 70
     1
102
RTVSPropertyOp15
 70
     1
102
RTVSPropertyOp16
 70
     1
102
RTVSPropertyOp17
 70
     1
102
RTVSPropertyOp18
 70
     1
102
RTVSPropertyOp19
 70
     1
102
RTVSPropertyOp20
 70
     1
102
RTVSPropertyOp21
 70
     1
102
RTVSPropertyOp22
 70
     1
102
RTVSPropertyOp23
 70
     1
102
RTVSPropertyOp24
 70
     1
102
RTVSPropertyOp25
 70
     1
102
RTVSPropertyOp26
 70
     1
102
RTVSPropertyOp27
 70
     1
102
RTVSPropertyOp28
 70
     1
102
RTVSPropertyOp29
 70
     1
102
RTVSPropertyOp30
 70
     1
102
RTVSPropertyOp31
 70
     1
102
RTVSPropertyOp32
 70
     1
102
RTVSPropertyOp33
 70
     1
102
RTVSPropertyOp34
 70
     1
102
RTVSPropertyOp35
 70
     1
102
RTVSPropertyOp36
 70
     1
102
RTVSPropertyOp37
 70
     1
102
RTVSPropertyOp38
 70
     1
102
RTVSPropertyOp39
 70
     1
102
RTVSPropertyOp40
 70
     1
102
RTVSPropertyOp41
 70
     1
102
RTVSPropertyOp42
 70
     1
102
RTVSPropertyOp43
 70
     1
102
RTVSPropertyOp44
 70
     1
102
RTVSPropertyOp45
 70
     1
102
RTVSPropertyOp46
 70
     1
102
RTVSPropertyOp47
 70
     1
102
RTVSPropertyOp48
 70
     1
102
RTVSPropertyOp49
 70
     1
102
RTVSPropertyOp50
 70
     1
102
RTVSPropertyOp51
 70
     0
102
RTVSPropertyOp52
 70
     0
102
RTVSPropertyOp53
 70
     1
102
RTVSPropertyOp54
 70
     1
102
RTVSPropertyOp55
 70
     1
102
RTVSPropertyOp56
 70
     1
102
RTVSPropertyOp57
 70
     1
102
RTVSPropertyOp58
 70
     1
102
RTVSPropertyOp59
 70
     1
102
RTVSPropertyOp60
 70
     1
102
RTVSPropertyOp61
 70
     1
102
RTVSPropertyOp62
 70
     1
  0
XRECORD
  5
9F39
102
{ACAD_REACTORS
330
9F38
102
}
330
9F38
100
AcDbXrecord
280
     1
102
RTVSPost2010Prop28
280
     0
102
RTVSPost2010PropOp28
 70
     1
102
RTVSPost2010Prop29
280
     1
102
RTVSPost2010PropOp29
 70
     1
102
RTVSPost2010Prop30
280
     1
102
RTVSPost2010PropOp30
 70
     1
102
RTVSPost2010Prop31
280
     0
102
RTVSPost2010PropOp31
 70
     1
102
RTVSPost2010Prop32
280
     0
102
RTVSPost2010PropOp32
 70
     1
102
RTVSPost2010Prop33
280
     0
102
RTVSPost2010PropOp33
 70
     1
102
RTVSPost2010Prop34
280
     0
102
RTVSPost2010PropOp34
 70
     1
102
RTVSPost2010Prop35
280
     0
102
RTVSPost2010PropOp35
 70
     1
102
RTVSPost2010Prop36
280
     0
102
RTVSPost2010PropOp36
 70
     1
102
RTVSPost2010Prop37
 90
       50
102
RTVSPost2010PropOp37
 70
     1
102
RTVSPost2010Prop38
140
0.0
102
RTVSPost2010PropOp38
 70
     1
102
RTVSPost2010Prop39
140
1.0
102
RTVSPost2010PropOp39
 70
     1
102
RTVSPost2010Prop40
 90
        0
102
RTVSPost2010PropOp40
 70
     1
102
RTVSPost2010Prop41ColorIndex
 90
       18
102
RTVSPost2010Prop41ColorRGB
 90
        0
102
RTVSPost2010PropOp41
 70
     1
102
RTVSPost2010Prop42
 90
       50
102
RTVSPost2010PropOp42
 70
     1
102
RTVSPost2010Prop43
 90
        3
102
RTVSPost2010PropOp43
 70
     1
102
RTVSPost2010Prop44ColorIndex
 90
        5
102
RTVSPost2010Prop44ColorRGB
 90
      255
102
RTVSPost2010PropOp44
 70
     1
102
RTVSPost2010Prop45
280
     0
102
RTVSPost2010PropOp45
 70
     1
102
RTVSPost2010Prop46
 90
       50
102
RTVSPost2010PropOp46
 70
     1
102
RTVSPost2010Prop47
 90
       50
102
RTVSPost2010PropOp47
 70
     1
102
RTVSPost2010Prop48
 90
       50
102
RTVSPost2010PropOp48
 70
     1
102
RTVSPost2010Prop49
280
     0
102
RTVSPost2010PropOp49
 70
     1
102
RTVSPost2010Prop50
 90
       50
102
RTVSPost2010PropOp50
 70
     1
102
RTVSPost2010Prop51ColorIndex
 90
      256
102
RTVSPost2010Prop51ColorRGB
 90
-16777216
102
RTVSPost2010PropOp51
 70
     0
102
RTVSPost2010Prop52
140
1.0
102
RTVSPost2010PropOp52
 70
     0
102
RTVSPost2010Prop53
 90
        2
102
RTVSPost2010PropOp53
 70
     1
102
RTVSPost2010Prop54
  1
strokes_ogs.tif
102
RTVSPost2010PropOp54
 70
     1
102
RTVSPost2010Prop55
280
     0
102
RTVSPost2010PropOp55
 70
     1
102
RTVSPost2010Prop56
140
1.0
102
RTVSPost2010PropOp56
 70
     1
102
RTVSPost2010Prop57
140
1.0
102
RTVSPost2010PropOp57
 70
     1
102
RTVSPropertyOp0
 70
     1
102
RTVSPropertyOp1
 70
     1
102
RTVSPropertyOp2
 70
     1
102
RTVSPropertyOp3
 70
     1
102
RTVSPropertyOp4
 70
     1
102
RTVSPropertyOp5
 70
     1
102
RTVSPropertyOp6
 70
     1
102
RTVSPropertyOp7
 70
     1
102
RTVSPropertyOp8
 70
     1
102
RTVSPropertyOp9
 70
     1
102
RTVSPropertyOp10
 70
     1
102
RTVSPropertyOp11
 70
     1
102
RTVSPropertyOp12
 70
     1
102
RTVSPropertyOp13
 70
     1
102
RTVSPropertyOp14
 70
     1
102
RTVSPropertyOp15
 70
     1
102
RTVSPropertyOp16
 70
     1
102
RTVSPropertyOp17
 70
     1
102
RTVSPropertyOp18
 70
     1
102
RTVSPropertyOp19
 70
     1
102
RTVSPropertyOp20
 70
     1
102
RTVSPropertyOp21
 70
     1
102
RTVSPropertyOp22
 70
     1
102
RTVSPropertyOp23
 70
     1
102
RTVSPropertyOp24
 70
     1
102
RTVSPropertyOp25
 70
     1
102
RTVSPropertyOp26
 70
     1
102
RTVSPropertyOp27
 70
     1
102
RTVSPropertyOp28
 70
     1
102
RTVSPropertyOp29
 70
     1
102
RTVSPropertyOp30
 70
     1
102
RTVSPropertyOp31
 70
     1
102
RTVSPropertyOp32
 70
     1
102
RTVSPropertyOp33
 70
     1
102
RTVSPropertyOp34
 70
     1
102
RTVSPropertyOp35
 70
     1
102
RTVSPropertyOp36
 70
     1
102
RTVSPropertyOp37
 70
     1
102
RTVSPropertyOp38
 70
     1
102
RTVSPropertyOp39
 70
     1
102
RTVSPropertyOp40
 70
     1
102
RTVSPropertyOp41
 70
     1
102
RTVSPropertyOp42
 70
     1
102
RTVSPropertyOp43
 70
     1
102
RTVSPropertyOp44
 70
     1
102
RTVSPropertyOp45
 70
     1
102
RTVSPropertyOp46
 70
     1
102
RTVSPropertyOp47
 70
     1
102
RTVSPropertyOp48
 70
     1
102
RTVSPropertyOp49
 70
     1
102
RTVSPropertyOp50
 70
     1
102
RTVSPropertyOp51
 70
     0
102
RTVSPropertyOp52
 70
     0
102
RTVSPropertyOp53
 70
     1
102
RTVSPropertyOp54
 70
     1
102
RTVSPropertyOp55
 70
     1
102
RTVSPropertyOp56
 70
     1
102
RTVSPropertyOp57
 70
     1
102
RTVSPropertyOp58
 70
     1
102
RTVSPropertyOp59
 70
     1
102
RTVSPropertyOp60
 70
     1
102
RTVSPropertyOp61
 70
     1
102
RTVSPropertyOp62
 70
     1
  0
XRECORD
  5
9F33
102
{ACAD_REACTORS
330
9F32
102
}
330
9F32
100
AcDbXrecord
280
     1
102
RTVSPost2010Prop28
280
     0
102
RTVSPost2010PropOp28
 70
     1
102
RTVSPost2010Prop29
280
     1
102
RTVSPost2010PropOp29
 70
     1
102
RTVSPost2010Prop30
280
     1
102
RTVSPost2010PropOp30
 70
     1
102
RTVSPost2010Prop31
280
     0
102
RTVSPost2010PropOp31
 70
     1
102
RTVSPost2010Prop32
280
     0
102
RTVSPost2010PropOp32
 70
     1
102
RTVSPost2010Prop33
280
     0
102
RTVSPost2010PropOp33
 70
     1
102
RTVSPost2010Prop34
280
     0
102
RTVSPost2010PropOp34
 70
     1
102
RTVSPost2010Prop35
280
     0
102
RTVSPost2010PropOp35
 70
     1
102
RTVSPost2010Prop36
280
     0
102
RTVSPost2010PropOp36
 70
     1
102
RTVSPost2010Prop37
 90
       50
102
RTVSPost2010PropOp37
 70
     1
102
RTVSPost2010Prop38
140
0.0
102
RTVSPost2010PropOp38
 70
     1
102
RTVSPost2010Prop39
140
1.0
102
RTVSPost2010PropOp39
 70
     1
102
RTVSPost2010Prop40
 90
        0
102
RTVSPost2010PropOp40
 70
     1
102
RTVSPost2010Prop41ColorIndex
 90
       18
102
RTVSPost2010Prop41ColorRGB
 90
        0
102
RTVSPost2010PropOp41
 70
     1
102
RTVSPost2010Prop42
 90
       50
102
RTVSPost2010PropOp42
 70
     1
102
RTVSPost2010Prop43
 90
        3
102
RTVSPost2010PropOp43
 70
     1
102
RTVSPost2010Prop44ColorIndex
 90
        5
102
RTVSPost2010Prop44ColorRGB
 90
      255
102
RTVSPost2010PropOp44
 70
     1
102
RTVSPost2010Prop45
280
     0
102
RTVSPost2010PropOp45
 70
     1
102
RTVSPost2010Prop46
 90
       50
102
RTVSPost2010PropOp46
 70
     1
102
RTVSPost2010Prop47
 90
       50
102
RTVSPost2010PropOp47
 70
     1
102
RTVSPost2010Prop48
 90
       50
102
RTVSPost2010PropOp48
 70
     1
102
RTVSPost2010Prop49
280
     0
102
RTVSPost2010PropOp49
 70
     1
102
RTVSPost2010Prop50
 90
       50
102
RTVSPost2010PropOp50
 70
     1
102
RTVSPost2010Prop51ColorIndex
 90
      256
102
RTVSPost2010Prop51ColorRGB
 90
-16777216
102
RTVSPost2010PropOp51
 70
     0
102
RTVSPost2010Prop52
140
1.0
102
RTVSPost2010PropOp52
 70
     0
102
RTVSPost2010Prop53
 90
        2
102
RTVSPost2010PropOp53
 70
     1
102
RTVSPost2010Prop54
  1
strokes_ogs.tif
102
RTVSPost2010PropOp54
 70
     1
102
RTVSPost2010Prop55
280
     0
102
RTVSPost2010PropOp55
 70
     1
102
RTVSPost2010Prop56
140
1.0
102
RTVSPost2010PropOp56
 70
     1
102
RTVSPost2010Prop57
140
1.0
102
RTVSPost2010PropOp57
 70
     1
102
RTVSPropertyOp0
 70
     1
102
RTVSPropertyOp1
 70
     1
102
RTVSPropertyOp2
 70
     1
102
RTVSPropertyOp3
 70
     1
102
RTVSPropertyOp4
 70
     1
102
RTVSPropertyOp5
 70
     1
102
RTVSPropertyOp6
 70
     1
102
RTVSPropertyOp7
 70
     1
102
RTVSPropertyOp8
 70
     1
102
RTVSPropertyOp9
 70
     1
102
RTVSPropertyOp10
 70
     1
102
RTVSPropertyOp11
 70
     1
102
RTVSPropertyOp12
 70
     1
102
RTVSPropertyOp13
 70
     1
102
RTVSPropertyOp14
 70
     1
102
RTVSPropertyOp15
 70
     1
102
RTVSPropertyOp16
 70
     1
102
RTVSPropertyOp17
 70
     1
102
RTVSPropertyOp18
 70
     1
102
RTVSPropertyOp19
 70
     1
102
RTVSPropertyOp20
 70
     1
102
RTVSPropertyOp21
 70
     1
102
RTVSPropertyOp22
 70
     1
102
RTVSPropertyOp23
 70
     1
102
RTVSPropertyOp24
 70
     1
102
RTVSPropertyOp25
 70
     1
102
RTVSPropertyOp26
 70
     1
102
RTVSPropertyOp27
 70
     1
102
RTVSPropertyOp28
 70
     1
102
RTVSPropertyOp29
 70
     1
102
RTVSPropertyOp30
 70
     1
102
RTVSPropertyOp31
 70
     1
102
RTVSPropertyOp32
 70
     1
102
RTVSPropertyOp33
 70
     1
102
RTVSPropertyOp34
 70
     1
102
RTVSPropertyOp35
 70
     1
102
RTVSPropertyOp36
 70
     1
102
RTVSPropertyOp37
 70
     1
102
RTVSPropertyOp38
 70
     1
102
RTVSPropertyOp39
 70
     1
102
RTVSPropertyOp40
 70
     1
102
RTVSPropertyOp41
 70
     1
102
RTVSPropertyOp42
 70
     1
102
RTVSPropertyOp43
 70
     1
102
RTVSPropertyOp44
 70
     1
102
RTVSPropertyOp45
 70
     1
102
RTVSPropertyOp46
 70
     1
102
RTVSPropertyOp47
 70
     1
102
RTVSPropertyOp48
 70
     1
102
RTVSPropertyOp49
 70
     1
102
RTVSPropertyOp50
 70
     1
102
RTVSPropertyOp51
 70
     0
102
RTVSPropertyOp52
 70
     0
102
RTVSPropertyOp53
 70
     1
102
RTVSPropertyOp54
 70
     1
102
RTVSPropertyOp55
 70
     1
102
RTVSPropertyOp56
 70
     1
102
RTVSPropertyOp57
 70
     1
102
RTVSPropertyOp58
 70
     1
102
RTVSPropertyOp59
 70
     1
102
RTVSPropertyOp60
 70
     1
102
RTVSPropertyOp61
 70
     1
102
RTVSPropertyOp62
 70
     1
  0
XRECORD
  5
9F35
102
{ACAD_REACTORS
330
9F34
102
}
330
9F34
100
AcDbXrecord
280
     1
102
RTVSPost2010Prop28
280
     0
102
RTVSPost2010PropOp28
 70
     1
102
RTVSPost2010Prop29
280
     1
102
RTVSPost2010PropOp29
 70
     1
102
RTVSPost2010Prop30
280
     1
102
RTVSPost2010PropOp30
 70
     1
102
RTVSPost2010Prop31
280
     0
102
RTVSPost2010PropOp31
 70
     1
102
RTVSPost2010Prop32
280
     0
102
RTVSPost2010PropOp32
 70
     1
102
RTVSPost2010Prop33
280
     0
102
RTVSPost2010PropOp33
 70
     1
102
RTVSPost2010Prop34
280
     0
102
RTVSPost2010PropOp34
 70
     1
102
RTVSPost2010Prop35
280
     0
102
RTVSPost2010PropOp35
 70
     1
102
RTVSPost2010Prop36
280
     0
102
RTVSPost2010PropOp36
 70
     1
102
RTVSPost2010Prop37
 90
       50
102
RTVSPost2010PropOp37
 70
     1
102
RTVSPost2010Prop38
140
0.0
102
RTVSPost2010PropOp38
 70
     1
102
RTVSPost2010Prop39
140
1.0
102
RTVSPost2010PropOp39
 70
     1
102
RTVSPost2010Prop40
 90
        0
102
RTVSPost2010PropOp40
 70
     1
102
RTVSPost2010Prop41ColorIndex
 90
       18
102
RTVSPost2010Prop41ColorRGB
 90
        0
102
RTVSPost2010PropOp41
 70
     1
102
RTVSPost2010Prop42
 90
       50
102
RTVSPost2010PropOp42
 70
     1
102
RTVSPost2010Prop43
 90
        3
102
RTVSPost2010PropOp43
 70
     1
102
RTVSPost2010Prop44ColorIndex
 90
        5
102
RTVSPost2010Prop44ColorRGB
 90
      255
102
RTVSPost2010PropOp44
 70
     1
102
RTVSPost2010Prop45
280
     0
102
RTVSPost2010PropOp45
 70
     1
102
RTVSPost2010Prop46
 90
       50
102
RTVSPost2010PropOp46
 70
     1
102
RTVSPost2010Prop47
 90
       50
102
RTVSPost2010PropOp47
 70
     1
102
RTVSPost2010Prop48
 90
       50
102
RTVSPost2010PropOp48
 70
     1
102
RTVSPost2010Prop49
280
     0
102
RTVSPost2010PropOp49
 70
     1
102
RTVSPost2010Prop50
 90
       50
102
RTVSPost2010PropOp50
 70
     1
102
RTVSPost2010Prop51ColorIndex
 90
      256
102
RTVSPost2010Prop51ColorRGB
 90
-16777216
102
RTVSPost2010PropOp51
 70
     0
102
RTVSPost2010Prop52
140
1.0
102
RTVSPost2010PropOp52
 70
     0
102
RTVSPost2010Prop53
 90
        2
102
RTVSPost2010PropOp53
 70
     1
102
RTVSPost2010Prop54
  1
strokes_ogs.tif
102
RTVSPost2010PropOp54
 70
     1
102
RTVSPost2010Prop55
280
     0
102
RTVSPost2010PropOp55
 70
     1
102
RTVSPost2010Prop56
140
1.0
102
RTVSPost2010PropOp56
 70
     1
102
RTVSPost2010Prop57
140
1.0
102
RTVSPost2010PropOp57
 70
     1
102
RTVSPropertyOp0
 70
     1
102
RTVSPropertyOp1
 70
     1
102
RTVSPropertyOp2
 70
     1
102
RTVSPropertyOp3
 70
     1
102
RTVSPropertyOp4
 70
     1
102
RTVSPropertyOp5
 70
     1
102
RTVSPropertyOp6
 70
     1
102
RTVSPropertyOp7
 70
     1
102
RTVSPropertyOp8
 70
     1
102
RTVSPropertyOp9
 70
     1
102
RTVSPropertyOp10
 70
     1
102
RTVSPropertyOp11
 70
     1
102
RTVSPropertyOp12
 70
     1
102
RTVSPropertyOp13
 70
     1
102
RTVSPropertyOp14
 70
     1
102
RTVSPropertyOp15
 70
     1
102
RTVSPropertyOp16
 70
     1
102
RTVSPropertyOp17
 70
     1
102
RTVSPropertyOp18
 70
     1
102
RTVSPropertyOp19
 70
     1
102
RTVSPropertyOp20
 70
     1
102
RTVSPropertyOp21
 70
     1
102
RTVSPropertyOp22
 70
     1
102
RTVSPropertyOp23
 70
     1
102
RTVSPropertyOp24
 70
     1
102
RTVSPropertyOp25
 70
     1
102
RTVSPropertyOp26
 70
     1
102
RTVSPropertyOp27
 70
     1
102
RTVSPropertyOp28
 70
     1
102
RTVSPropertyOp29
 70
     1
102
RTVSPropertyOp30
 70
     1
102
RTVSPropertyOp31
 70
     1
102
RTVSPropertyOp32
 70
     1
102
RTVSPropertyOp33
 70
     1
102
RTVSPropertyOp34
 70
     1
102
RTVSPropertyOp35
 70
     1
102
RTVSPropertyOp36
 70
     1
102
RTVSPropertyOp37
 70
     1
102
RTVSPropertyOp38
 70
     1
102
RTVSPropertyOp39
 70
     1
102
RTVSPropertyOp40
 70
     1
102
RTVSPropertyOp41
 70
     1
102
RTVSPropertyOp42
 70
     1
102
RTVSPropertyOp43
 70
     1
102
RTVSPropertyOp44
 70
     1
102
RTVSPropertyOp45
 70
     1
102
RTVSPropertyOp46
 70
     1
102
RTVSPropertyOp47
 70
     1
102
RTVSPropertyOp48
 70
     1
102
RTVSPropertyOp49
 70
     1
102
RTVSPropertyOp50
 70
     1
102
RTVSPropertyOp51
 70
     0
102
RTVSPropertyOp52
 70
     0
102
RTVSPropertyOp53
 70
     1
102
RTVSPropertyOp54
 70
     1
102
RTVSPropertyOp55
 70
     1
102
RTVSPropertyOp56
 70
     1
102
RTVSPropertyOp57
 70
     1
102
RTVSPropertyOp58
 70
     1
102
RTVSPropertyOp59
 70
     1
102
RTVSPropertyOp60
 70
     1
102
RTVSPropertyOp61
 70
     1
102
RTVSPropertyOp62
 70
     1
  0
XRECORD
  5
9F2B
102
{ACAD_REACTORS
330
9F2A
102
}
330
9F2A
100
AcDbXrecord
280
     1
102
RTVSPost2010Prop28
280
     0
102
RTVSPost2010PropOp28
 70
     1
102
RTVSPost2010Prop29
280
     1
102
RTVSPost2010PropOp29
 70
     1
102
RTVSPost2010Prop30
280
     1
102
RTVSPost2010PropOp30
 70
     1
102
RTVSPost2010Prop31
280
     0
102
RTVSPost2010PropOp31
 70
     1
102
RTVSPost2010Prop32
280
     0
102
RTVSPost2010PropOp32
 70
     1
102
RTVSPost2010Prop33
280
     0
102
RTVSPost2010PropOp33
 70
     1
102
RTVSPost2010Prop34
280
     0
102
RTVSPost2010PropOp34
 70
     1
102
RTVSPost2010Prop35
280
     0
102
RTVSPost2010PropOp35
 70
     1
102
RTVSPost2010Prop36
280
     0
102
RTVSPost2010PropOp36
 70
     1
102
RTVSPost2010Prop37
 90
       50
102
RTVSPost2010PropOp37
 70
     1
102
RTVSPost2010Prop38
140
0.0
102
RTVSPost2010PropOp38
 70
     1
102
RTVSPost2010Prop39
140
1.0
102
RTVSPost2010PropOp39
 70
     1
102
RTVSPost2010Prop40
 90
        0
102
RTVSPost2010PropOp40
 70
     1
102
RTVSPost2010Prop41ColorIndex
 90
       18
102
RTVSPost2010Prop41ColorRGB
 90
        0
102
RTVSPost2010PropOp41
 70
     1
102
RTVSPost2010Prop42
 90
       50
102
RTVSPost2010PropOp42
 70
     1
102
RTVSPost2010Prop43
 90
        3
102
RTVSPost2010PropOp43
 70
     1
102
RTVSPost2010Prop44ColorIndex
 90
        5
102
RTVSPost2010Prop44ColorRGB
 90
      255
102
RTVSPost2010PropOp44
 70
     1
102
RTVSPost2010Prop45
280
     0
102
RTVSPost2010PropOp45
 70
     1
102
RTVSPost2010Prop46
 90
       50
102
RTVSPost2010PropOp46
 70
     1
102
RTVSPost2010Prop47
 90
       50
102
RTVSPost2010PropOp47
 70
     1
102
RTVSPost2010Prop48
 90
       50
102
RTVSPost2010PropOp48
 70
     1
102
RTVSPost2010Prop49
280
     0
102
RTVSPost2010PropOp49
 70
     1
102
RTVSPost2010Prop50
 90
       50
102
RTVSPost2010PropOp50
 70
     1
102
RTVSPost2010Prop51ColorIndex
 90
      256
102
RTVSPost2010Prop51ColorRGB
 90
-16777216
102
RTVSPost2010PropOp51
 70
     0
102
RTVSPost2010Prop52
140
1.0
102
RTVSPost2010PropOp52
 70
     0
102
RTVSPost2010Prop53
 90
        2
102
RTVSPost2010PropOp53
 70
     1
102
RTVSPost2010Prop54
  1
strokes_ogs.tif
102
RTVSPost2010PropOp54
 70
     1
102
RTVSPost2010Prop55
280
     0
102
RTVSPost2010PropOp55
 70
     1
102
RTVSPost2010Prop56
140
1.0
102
RTVSPost2010PropOp56
 70
     1
102
RTVSPost2010Prop57
140
1.0
102
RTVSPost2010PropOp57
 70
     1
102
RTVSPropertyOp0
 70
     1
102
RTVSPropertyOp1
 70
     1
102
RTVSPropertyOp2
 70
     1
102
RTVSPropertyOp3
 70
     1
102
RTVSPropertyOp4
 70
     1
102
RTVSPropertyOp5
 70
     1
102
RTVSPropertyOp6
 70
     1
102
RTVSPropertyOp7
 70
     1
102
RTVSPropertyOp8
 70
     1
102
RTVSPropertyOp9
 70
     1
102
RTVSPropertyOp10
 70
     1
102
RTVSPropertyOp11
 70
     1
102
RTVSPropertyOp12
 70
     1
102
RTVSPropertyOp13
 70
     1
102
RTVSPropertyOp14
 70
     1
102
RTVSPropertyOp15
 70
     1
102
RTVSPropertyOp16
 70
     1
102
RTVSPropertyOp17
 70
     1
102
RTVSPropertyOp18
 70
     1
102
RTVSPropertyOp19
 70
     1
102
RTVSPropertyOp20
 70
     1
102
RTVSPropertyOp21
 70
     1
102
RTVSPropertyOp22
 70
     1
102
RTVSPropertyOp23
 70
     1
102
RTVSPropertyOp24
 70
     1
102
RTVSPropertyOp25
 70
     1
102
RTVSPropertyOp26
 70
     1
102
RTVSPropertyOp27
 70
     1
102
RTVSPropertyOp28
 70
     1
102
RTVSPropertyOp29
 70
     1
102
RTVSPropertyOp30
 70
     1
102
RTVSPropertyOp31
 70
     1
102
RTVSPropertyOp32
 70
     1
102
RTVSPropertyOp33
 70
     1
102
RTVSPropertyOp34
 70
     1
102
RTVSPropertyOp35
 70
     1
102
RTVSPropertyOp36
 70
     1
102
RTVSPropertyOp37
 70
     1
102
RTVSPropertyOp38
 70
     1
102
RTVSPropertyOp39
 70
     1
102
RTVSPropertyOp40
 70
     1
102
RTVSPropertyOp41
 70
     1
102
RTVSPropertyOp42
 70
     1
102
RTVSPropertyOp43
 70
     1
102
RTVSPropertyOp44
 70
     1
102
RTVSPropertyOp45
 70
     1
102
RTVSPropertyOp46
 70
     1
102
RTVSPropertyOp47
 70
     1
102
RTVSPropertyOp48
 70
     1
102
RTVSPropertyOp49
 70
     1
102
RTVSPropertyOp50
 70
     1
102
RTVSPropertyOp51
 70
     0
102
RTVSPropertyOp52
 70
     0
102
RTVSPropertyOp53
 70
     1
102
RTVSPropertyOp54
 70
     1
102
RTVSPropertyOp55
 70
     1
102
RTVSPropertyOp56
 70
     1
102
RTVSPropertyOp57
 70
     1
102
RTVSPropertyOp58
 70
     1
102
RTVSPropertyOp59
 70
     1
102
RTVSPropertyOp60
 70
     1
102
RTVSPropertyOp61
 70
     1
102
RTVSPropertyOp62
 70
     1
  0
XRECORD
  5
9F1F
102
{ACAD_REACTORS
330
9F1E
102
}
330
9F1E
100
AcDbXrecord
280
     1
102
RTVSPost2010Prop28
280
     0
102
RTVSPost2010PropOp28
 70
     1
102
RTVSPost2010Prop29
280
     1
102
RTVSPost2010PropOp29
 70
     1
102
RTVSPost2010Prop30
280
     1
102
RTVSPost2010PropOp30
 70
     1
102
RTVSPost2010Prop31
280
     0
102
RTVSPost2010PropOp31
 70
     1
102
RTVSPost2010Prop32
280
     0
102
RTVSPost2010PropOp32
 70
     1
102
RTVSPost2010Prop33
280
     0
102
RTVSPost2010PropOp33
 70
     1
102
RTVSPost2010Prop34
280
     0
102
RTVSPost2010PropOp34
 70
     1
102
RTVSPost2010Prop35
280
     0
102
RTVSPost2010PropOp35
 70
     1
102
RTVSPost2010Prop36
280
     0
102
RTVSPost2010PropOp36
 70
     1
102
RTVSPost2010Prop37
 90
       50
102
RTVSPost2010PropOp37
 70
     1
102
RTVSPost2010Prop38
140
0.0
102
RTVSPost2010PropOp38
 70
     1
102
RTVSPost2010Prop39
140
1.0
102
RTVSPost2010PropOp39
 70
     1
102
RTVSPost2010Prop40
 90
        0
102
RTVSPost2010PropOp40
 70
     1
102
RTVSPost2010Prop41ColorIndex
 90
       18
102
RTVSPost2010Prop41ColorRGB
 90
        0
102
RTVSPost2010PropOp41
 70
     1
102
RTVSPost2010Prop42
 90
       50
102
RTVSPost2010PropOp42
 70
     1
102
RTVSPost2010Prop43
 90
        3
102
RTVSPost2010PropOp43
 70
     1
102
RTVSPost2010Prop44ColorIndex
 90
        5
102
RTVSPost2010Prop44ColorRGB
 90
      255
102
RTVSPost2010PropOp44
 70
     1
102
RTVSPost2010Prop45
280
     0
102
RTVSPost2010PropOp45
 70
     1
102
RTVSPost2010Prop46
 90
       50
102
RTVSPost2010PropOp46
 70
     1
102
RTVSPost2010Prop47
 90
       50
102
RTVSPost2010PropOp47
 70
     1
102
RTVSPost2010Prop48
 90
       50
102
RTVSPost2010PropOp48
 70
     1
102
RTVSPost2010Prop49
280
     0
102
RTVSPost2010PropOp49
 70
     1
102
RTVSPost2010Prop50
 90
       50
102
RTVSPost2010PropOp50
 70
     1
102
RTVSPost2010Prop51ColorIndex
 90
      256
102
RTVSPost2010Prop51ColorRGB
 90
-16777216
102
RTVSPost2010PropOp51
 70
     0
102
RTVSPost2010Prop52
140
1.0
102
RTVSPost2010PropOp52
 70
     0
102
RTVSPost2010Prop53
 90
        2
102
RTVSPost2010PropOp53
 70
     1
102
RTVSPost2010Prop54
  1
strokes_ogs.tif
102
RTVSPost2010PropOp54
 70
     1
102
RTVSPost2010Prop55
280
     0
102
RTVSPost2010PropOp55
 70
     1
102
RTVSPost2010Prop56
140
1.0
102
RTVSPost2010PropOp56
 70
     1
102
RTVSPost2010Prop57
140
1.0
102
RTVSPost2010PropOp57
 70
     1
102
RTVSPropertyOp0
 70
     1
102
RTVSPropertyOp1
 70
     1
102
RTVSPropertyOp2
 70
     1
102
RTVSPropertyOp3
 70
     1
102
RTVSPropertyOp4
 70
     1
102
RTVSPropertyOp5
 70
     1
102
RTVSPropertyOp6
 70
     1
102
RTVSPropertyOp7
 70
     1
102
RTVSPropertyOp8
 70
     1
102
RTVSPropertyOp9
 70
     1
102
RTVSPropertyOp10
 70
     1
102
RTVSPropertyOp11
 70
     1
102
RTVSPropertyOp12
 70
     1
102
RTVSPropertyOp13
 70
     1
102
RTVSPropertyOp14
 70
     1
102
RTVSPropertyOp15
 70
     1
102
RTVSPropertyOp16
 70
     1
102
RTVSPropertyOp17
 70
     1
102
RTVSPropertyOp18
 70
     1
102
RTVSPropertyOp19
 70
     1
102
RTVSPropertyOp20
 70
     1
102
RTVSPropertyOp21
 70
     1
102
RTVSPropertyOp22
 70
     1
102
RTVSPropertyOp23
 70
     1
102
RTVSPropertyOp24
 70
     1
102
RTVSPropertyOp25
 70
     1
102
RTVSPropertyOp26
 70
     1
102
RTVSPropertyOp27
 70
     1
102
RTVSPropertyOp28
 70
     1
102
RTVSPropertyOp29
 70
     1
102
RTVSPropertyOp30
 70
     1
102
RTVSPropertyOp31
 70
     1
102
RTVSPropertyOp32
 70
     1
102
RTVSPropertyOp33
 70
     1
102
RTVSPropertyOp34
 70
     1
102
RTVSPropertyOp35
 70
     1
102
RTVSPropertyOp36
 70
     1
102
RTVSPropertyOp37
 70
     1
102
RTVSPropertyOp38
 70
     1
102
RTVSPropertyOp39
 70
     1
102
RTVSPropertyOp40
 70
     1
102
RTVSPropertyOp41
 70
     1
102
RTVSPropertyOp42
 70
     1
102
RTVSPropertyOp43
 70
     1
102
RTVSPropertyOp44
 70
     1
102
RTVSPropertyOp45
 70
     1
102
RTVSPropertyOp46
 70
     1
102
RTVSPropertyOp47
 70
     1
102
RTVSPropertyOp48
 70
     1
102
RTVSPropertyOp49
 70
     1
102
RTVSPropertyOp50
 70
     1
102
RTVSPropertyOp51
 70
     0
102
RTVSPropertyOp52
 70
     0
102
RTVSPropertyOp53
 70
     1
102
RTVSPropertyOp54
 70
     1
102
RTVSPropertyOp55
 70
     1
102
RTVSPropertyOp56
 70
     1
102
RTVSPropertyOp57
 70
     1
102
RTVSPropertyOp58
 70
     1
102
RTVSPropertyOp59
 70
     1
102
RTVSPropertyOp60
 70
     1
102
RTVSPropertyOp61
 70
     1
102
RTVSPropertyOp62
 70
     1
  0
XRECORD
  5
9F37
102
{ACAD_REACTORS
330
9F36
102
}
330
9F36
100
AcDbXrecord
280
     1
102
RTVSPost2010Prop28
280
     0
102
RTVSPost2010PropOp28
 70
     1
102
RTVSPost2010Prop29
280
     1
102
RTVSPost2010PropOp29
 70
     1
102
RTVSPost2010Prop30
280
     1
102
RTVSPost2010PropOp30
 70
     1
102
RTVSPost2010Prop31
280
     0
102
RTVSPost2010PropOp31
 70
     1
102
RTVSPost2010Prop32
280
     0
102
RTVSPost2010PropOp32
 70
     1
102
RTVSPost2010Prop33
280
     0
102
RTVSPost2010PropOp33
 70
     1
102
RTVSPost2010Prop34
280
     0
102
RTVSPost2010PropOp34
 70
     1
102
RTVSPost2010Prop35
280
     0
102
RTVSPost2010PropOp35
 70
     1
102
RTVSPost2010Prop36
280
     0
102
RTVSPost2010PropOp36
 70
     1
102
RTVSPost2010Prop37
 90
       50
102
RTVSPost2010PropOp37
 70
     1
102
RTVSPost2010Prop38
140
0.0
102
RTVSPost2010PropOp38
 70
     1
102
RTVSPost2010Prop39
140
1.0
102
RTVSPost2010PropOp39
 70
     1
102
RTVSPost2010Prop40
 90
        0
102
RTVSPost2010PropOp40
 70
     1
102
RTVSPost2010Prop41ColorIndex
 90
       18
102
RTVSPost2010Prop41ColorRGB
 90
        0
102
RTVSPost2010PropOp41
 70
     1
102
RTVSPost2010Prop42
 90
       50
102
RTVSPost2010PropOp42
 70
     1
102
RTVSPost2010Prop43
 90
        3
102
RTVSPost2010PropOp43
 70
     1
102
RTVSPost2010Prop44ColorIndex
 90
        5
102
RTVSPost2010Prop44ColorRGB
 90
      255
102
RTVSPost2010PropOp44
 70
     1
102
RTVSPost2010Prop45
280
     0
102
RTVSPost2010PropOp45
 70
     1
102
RTVSPost2010Prop46
 90
       50
102
RTVSPost2010PropOp46
 70
     1
102
RTVSPost2010Prop47
 90
       50
102
RTVSPost2010PropOp47
 70
     1
102
RTVSPost2010Prop48
 90
       50
102
RTVSPost2010PropOp48
 70
     1
102
RTVSPost2010Prop49
280
     0
102
RTVSPost2010PropOp49
 70
     1
102
RTVSPost2010Prop50
 90
       50
102
RTVSPost2010PropOp50
 70
     1
102
RTVSPost2010Prop51ColorIndex
 90
      256
102
RTVSPost2010Prop51ColorRGB
 90
-16777216
102
RTVSPost2010PropOp51
 70
     0
102
RTVSPost2010Prop52
140
1.0
102
RTVSPost2010PropOp52
 70
     0
102
RTVSPost2010Prop53
 90
        2
102
RTVSPost2010PropOp53
 70
     1
102
RTVSPost2010Prop54
  1
strokes_ogs.tif
102
RTVSPost2010PropOp54
 70
     1
102
RTVSPost2010Prop55
280
     0
102
RTVSPost2010PropOp55
 70
     1
102
RTVSPost2010Prop56
140
1.0
102
RTVSPost2010PropOp56
 70
     1
102
RTVSPost2010Prop57
140
1.0
102
RTVSPost2010PropOp57
 70
     1
102
RTVSPropertyOp0
 70
     1
102
RTVSPropertyOp1
 70
     1
102
RTVSPropertyOp2
 70
     1
102
RTVSPropertyOp3
 70
     1
102
RTVSPropertyOp4
 70
     1
102
RTVSPropertyOp5
 70
     1
102
RTVSPropertyOp6
 70
     1
102
RTVSPropertyOp7
 70
     1
102
RTVSPropertyOp8
 70
     1
102
RTVSPropertyOp9
 70
     1
102
RTVSPropertyOp10
 70
     1
102
RTVSPropertyOp11
 70
     1
102
RTVSPropertyOp12
 70
     1
102
RTVSPropertyOp13
 70
     1
102
RTVSPropertyOp14
 70
     1
102
RTVSPropertyOp15
 70
     1
102
RTVSPropertyOp16
 70
     1
102
RTVSPropertyOp17
 70
     1
102
RTVSPropertyOp18
 70
     1
102
RTVSPropertyOp19
 70
     1
102
RTVSPropertyOp20
 70
     1
102
RTVSPropertyOp21
 70
     1
102
RTVSPropertyOp22
 70
     1
102
RTVSPropertyOp23
 70
     1
102
RTVSPropertyOp24
 70
     1
102
RTVSPropertyOp25
 70
     1
102
RTVSPropertyOp26
 70
     1
102
RTVSPropertyOp27
 70
     1
102
RTVSPropertyOp28
 70
     1
102
RTVSPropertyOp29
 70
     1
102
RTVSPropertyOp30
 70
     1
102
RTVSPropertyOp31
 70
     1
102
RTVSPropertyOp32
 70
     1
102
RTVSPropertyOp33
 70
     1
102
RTVSPropertyOp34
 70
     1
102
RTVSPropertyOp35
 70
     1
102
RTVSPropertyOp36
 70
     1
102
RTVSPropertyOp37
 70
     1
102
RTVSPropertyOp38
 70
     1
102
RTVSPropertyOp39
 70
     1
102
RTVSPropertyOp40
 70
     1
102
RTVSPropertyOp41
 70
     1
102
RTVSPropertyOp42
 70
     1
102
RTVSPropertyOp43
 70
     1
102
RTVSPropertyOp44
 70
     1
102
RTVSPropertyOp45
 70
     1
102
RTVSPropertyOp46
 70
     1
102
RTVSPropertyOp47
 70
     1
102
RTVSPropertyOp48
 70
     1
102
RTVSPropertyOp49
 70
     1
102
RTVSPropertyOp50
 70
     1
102
RTVSPropertyOp51
 70
     0
102
RTVSPropertyOp52
 70
     0
102
RTVSPropertyOp53
 70
     1
102
RTVSPropertyOp54
 70
     1
102
RTVSPropertyOp55
 70
     1
102
RTVSPropertyOp56
 70
     1
102
RTVSPropertyOp57
 70
     1
102
RTVSPropertyOp58
 70
     1
102
RTVSPropertyOp59
 70
     1
102
RTVSPropertyOp60
 70
     1
102
RTVSPropertyOp61
 70
     1
102
RTVSPropertyOp62
 70
     1
  0
ENDSEC
  0
EOF
