  0
SECTION
  2
HEADER
  9
$ACADVER
  1
AC1015
  9
$ACADMAINTVER
 70
    20
  9
$DWGCODEPAGE
  3
ANSI_932
  9
$INSBASE
 10
0.0
 20
0.0
 30
0.0
  9
$EXTMIN
 10
0.0
 20
0.0
 30
0.0
  9
$EXTMAX
 10
3150.0
 20
4425.0
 30
0.0
  9
$LIMMIN
 10
0.0
 20
0.0
  9
$LIMMAX
 10
297.0
 20
210.0
  9
$ORTHOMODE
 70
     1
  9
$REGENMODE
 70
     1
  9
$FILLMODE
 70
     0
  9
$QTEXTMODE
 70
     0
  9
$MIRRTEXT
 70
     1
  9
$LTSCALE
 40
100.0
  9
$ATTMODE
 70
     1
  9
$TEXTSIZE
 40
180.0
  9
$TRACEWID
 40
0.05
  9
$TEXTSTYLE
  7
STANDARD
  9
$CLAYER
  8
3
  9
$CELTYPE
  6
BYLAYER
  9
$CECOLOR
 62
     2
  9
$CELTSCALE
 40
1.0
  9
$DISPSILH
 70
     0
  9
$DIMSCALE
 40
15.0
  9
$DIMASZ
 40
2.0
  9
$DIMEXO
 40
0.5
  9
$DIMDLI
 40
10.0
  9
$DIMRND
 40
0.0
  9
$DIMDLE
 40
0.0
  9
$DIMEXE
 40
1.0
  9
$DIMTP
 40
1.0
  9
$DIMTM
 40
1.0
  9
$DIMTXT
 40
3.0
  9
$DIMCEN
 40
0.0
  9
$DIMTSZ
 40
0.0
  9
$DIMTOL
 70
     0
  9
$DIMLIM
 70
     0
  9
$DIMTIH
 70
     0
  9
$DIMTOH
 70
     0
  9
$DIMSE1
 70
     0
  9
$DIMSE2
 70
     0
  9
$DIMTAD
 70
     1
  9
$DIMZIN
 70
     8
  9
$DIMBLK
  1

  9
$DIMASO
 70
     1
  9
$DIMSHO
 70
     1
  9
$DIMPOST
  1

  9
$DIMAPOST
  1

  9
$DIMALT
 70
     0
  9
$DIMALTD
 70
     2
  9
$DIMALTF
 40
0.039
  9
$DIMLFAC
 40
1.0
  9
$DIMTOFL
 70
     1
  9
$DIMTVP
 40
0.0
  9
$DIMTIX
 70
     0
  9
$DIMSOXD
 70
     0
  9
$DIMSAH
 70
     1
  9
$DIMBLK1
  1
OPEN
  9
$DIMBLK2
  1
OPEN
  9
$DIMSTYLE
  2
IGA
  9
$DIMCLRD
 70
     0
  9
$DIMCLRE
 70
     0
  9
$DIMCLRT
 70
     0
  9
$DIMTFAC
 40
10.0
  9
$DIMGAP
 40
1.0
  9
$DIMJUST
 70
     0
  9
$DIMSD1
 70
     0
  9
$DIMSD2
 70
     0
  9
$DIMTOLJ
 70
     1
  9
$DIMTZIN
 70
     8
  9
$DIMALTZ
 70
     0
  9
$DIMALTTZ
 70
     0
  9
$DIMUPT
 70
     1
  9
$DIMDEC
 70
     0
  9
$DIMTDEC
 70
     0
  9
$DIMALTU
 70
     2
  9
$DIMALTTD
 70
     2
  9
$DIMTXSTY
  7
STANDARD
  9
$DIMAUNIT
 70
     0
  9
$DIMADEC
 70
     0
  9
$DIMALTRND
 40
0.0
  9
$DIMAZIN
 70
     0
  9
$DIMDSEP
 70
    46
  9
$DIMATFIT
 70
     3
  9
$DIMFRAC
 70
     0
  9
$DIMLDRBLK
  1
OPEN
  9
$DIMLUNIT
 70
     2
  9
$DIMLWD
 70
    -2
  9
$DIMLWE
 70
    -2
  9
$DIMTMOVE
 70
     0
  9
$LUNITS
 70
     2
  9
$LUPREC
 70
     3
  9
$SKETCHINC
 40
0.1
  9
$FILLETRAD
 40
50.0
  9
$AUNITS
 70
     0
  9
$AUPREC
 70
     0
  9
$MENU
  1
acad
  9
$ELEVATION
 40
0.0
  9
$PELEVATION
 40
0.0
  9
$THICKNESS
 40
0.0
  9
$LIMCHECK
 70
     0
  9
$CHAMFERA
 40
0.5
  9
$CHAMFERB
 40
0.5
  9
$CHAMFERC
 40
20.0
  9
$CHAMFERD
 40
0.0
  9
$SKPOLY
 70
     0
  9
$TDCREATE
 40
2451019.484950116
  9
$TDUCREATE
 40
2451019.109950116
  9
$TDUPDATE
 40
2459605.795285637
  9
$TDUUPDATE
 40
2459605.420285637
  9
$TDINDWG
 40
0.1792166088
  9
$TDUSRTIMER
 40
0.1792166088
  9
$USRTIMER
 70
     1
  9
$ANGBASE
 50
0.0
  9
$ANGDIR
 70
     0
  9
$PDMODE
 70
     0
  9
$PDSIZE
 40
0.0
  9
$PLINEWID
 40
0.0
  9
$SPLFRAME
 70
     0
  9
$SPLINETYPE
 70
     6
  9
$SPLINESEGS
 70
     8
  9
$HANDSEED
  5
A84E
  9
$SURFTAB1
 70
     6
  9
$SURFTAB2
 70
     6
  9
$SURFTYPE
 70
     6
  9
$SURFU
 70
     6
  9
$SURFV
 70
     6
  9
$UCSBASE
  2

  9
$UCSNAME
  2

  9
$UCSORG
 10
0.0
 20
0.0
 30
0.0
  9
$UCSXDIR
 10
1.0
 20
0.0
 30
0.0
  9
$UCSYDIR
 10
0.0
 20
1.0
 30
0.0
  9
$UCSORTHOREF
  2

  9
$UCSORTHOVIEW
 70
     0
  9
$UCSORGTOP
 10
0.0
 20
0.0
 30
0.0
  9
$UCSORGBOTTOM
 10
0.0
 20
0.0
 30
0.0
  9
$UCSORGLEFT
 10
0.0
 20
0.0
 30
0.0
  9
$UCSORGRIGHT
 10
0.0
 20
0.0
 30
0.0
  9
$UCSORGFRONT
 10
0.0
 20
0.0
 30
0.0
  9
$UCSORGBACK
 10
0.0
 20
0.0
 30
0.0
  9
$PUCSBASE
  2

  9
$PUCSNAME
  2

  9
$PUCSORG
 10
0.0
 20
0.0
 30
0.0
  9
$PUCSXDIR
 10
1.0
 20
0.0
 30
0.0
  9
$PUCSYDIR
 10
0.0
 20
1.0
 30
0.0
  9
$PUCSORTHOREF
  2

  9
$PUCSORTHOVIEW
 70
     0
  9
$PUCSORGTOP
 10
0.0
 20
0.0
 30
0.0
  9
$PUCSORGBOTTOM
 10
0.0
 20
0.0
 30
0.0
  9
$PUCSORGLEFT
 10
0.0
 20
0.0
 30
0.0
  9
$PUCSORGRIGHT
 10
0.0
 20
0.0
 30
0.0
  9
$PUCSORGFRONT
 10
0.0
 20
0.0
 30
0.0
  9
$PUCSORGBACK
 10
0.0
 20
0.0
 30
0.0
  9
$USERI1
 70
     0
  9
$USERI2
 70
     0
  9
$USERI3
 70
     0
  9
$USERI4
 70
     0
  9
$USERI5
 70
     0
  9
$USERR1
 40
0.0
  9
$USERR2
 40
0.0
  9
$USERR3
 40
0.0
  9
$USERR4
 40
0.0
  9
$USERR5
 40
0.0
  9
$WORLDVIEW
 70
     1
  9
$SHADEDGE
 70
     3
  9
$SHADEDIF
 70
    70
  9
$TILEMODE
 70
     1
  9
$MAXACTVP
 70
    16
  9
$PINSBASE
 10
0.0
 20
0.0
 30
0.0
  9
$PLIMCHECK
 70
     0
  9
$PEXTMIN
 10
1.000000000000000E+20
 20
1.000000000000000E+20
 30
1.000000000000000E+20
  9
$PEXTMAX
 10
-1.000000000000000E+20
 20
-1.000000000000000E+20
 30
-1.000000000000000E+20
  9
$PLIMMIN
 10
0.0
 20
0.0
  9
$PLIMMAX
 10
12.0
 20
9.0
  9
$UNITMODE
 70
     0
  9
$VISRETAIN
 70
     0
  9
$PLINEGEN
 70
     0
  9
$PSLTSCALE
 70
     1
  9
$TREEDEPTH
 70
  3020
  9
$CMLSTYLE
  2
STANDARD
  9
$CMLJUST
 70
     0
  9
$CMLSCALE
 40
20.0
  9
$PROXYGRAPHICS
 70
     1
  9
$MEASUREMENT
 70
     1
  9
$CELWEIGHT
370
    -1
  9
$ENDCAPS
280
     0
  9
$JOINSTYLE
280
     0
  9
$LWDISPLAY
290
     0
  9
$INSUNITS
 70
     0
  9
$HYPERLINKBASE
  1

  9
$STYLESHEET
  1
monochrome.ctb
  9
$XEDIT
290
     1
  9
$CEPSNTYPE
380
     0
  9
$PSTYLEMODE
290
     1
  9
$FINGERPRINTGUID
  2
{0F5EFFE1-9AA9-44FA-8B50-C239A7895CCB}
  9
$VERSIONGUID
  2
{5F205C8E-2C1D-4433-B1DF-03CF5BEA904E}
  9
$EXTNAMES
290
     1
  9
$PSVPSCALE
 40
0.0
  9
$OLESTARTUP
290
     0
  0
ENDSEC
  0
SECTION
  2
CLASSES
  0
CLASS
  1
ACDBDICTIONARYWDFLT
  2
AcDbDictionaryWithDefault
  3
ObjectDBX Classes
 90
        0
280
     0
281
     0
  0
CLASS
  1
ACDBPLACEHOLDER
  2
AcDbPlaceHolder
  3
ObjectDBX Classes
 90
        0
280
     0
281
     0
  0
CLASS
  1
LAYOUT
  2
AcDbLayout
  3
ObjectDBX Classes
 90
        0
280
     0
281
     0
  0
CLASS
  1
MATERIAL
  2
AcDbMaterial
  3
ObjectDBX Classes
 90
     1153
280
     0
281
     0
  0
CLASS
  1
VISUALSTYLE
  2
AcDbVisualStyle
  3
ObjectDBX Classes
 90
     4095
280
     0
281
     0
  0
CLASS
  1
TABLESTYLE
  2
AcDbTableStyle
  3
ObjectDBX Classes
 90
     4095
280
     0
281
     0
  0
CLASS
  1
SCALE
  2
AcDbScale
  3
ObjectDBX Classes
 90
     1153
280
     0
281
     0
  0
CLASS
  1
MLEADERSTYLE
  2
AcDbMLeaderStyle
  3
ACDB_MLEADERSTYLE_CLASS
 90
     4095
280
     0
281
     0
  0
CLASS
  1
ACDBSECTIONVIEWSTYLE
  2
AcDbSectionViewStyle
  3
ObjectDBX Classes
 90
     1025
280
     0
281
     0
  0
CLASS
  1
ACDBDETAILVIEWSTYLE
  2
AcDbDetailViewStyle
  3
ObjectDBX Classes
 90
     1025
280
     0
281
     0
  0
CLASS
  1
DICTIONARYVAR
  2
AcDbDictionaryVar
  3
ObjectDBX Classes
 90
        0
280
     0
281
     0
  0
CLASS
  1
MULTILEADER
  2
AcDbMLeader
  3
ACDB_MLEADER_CLASS
 90
    33793
280
     0
281
     1
  0
CLASS
  1
SORTENTSTABLE
  2
AcDbSortentsTable
  3
ObjectDBX Classes
 90
        0
280
     0
281
     0
  0
CLASS
  1
CELLSTYLEMAP
  2
AcDbCellStyleMap
  3
ObjectDBX Classes
 90
     1152
280
     0
281
     0
  0
ENDSEC
  0
SECTION
  2
TABLES
  0
TABLE
  2
VPORT
  5
8
330
0
100
AcDbSymbolTable
 70
     1
  0
VPORT
  5
847F
330
8
100
AcDbSymbolTableRecord
100
AcDbViewportTableRecord
  2
*Active
 70
     0
 10
0.0
 20
0.0
 11
1.0
 21
1.0
 12
2156.309325298836
 22
2212.500041213223
 13
0.0
 23
0.0
 14
10.0
 24
10.0
 15
10.0
 25
10.0
 16
0.0
 26
0.0
 36
1.0
 17
0.0
 27
0.0
 37
0.0
 40
4320.421146928048
 41
1.727564102564102
 42
50.0
 43
0.0
 44
0.0
 50
0.0
 51
0.0
 71
     0
 72
   100
 73
     1
 74
     0
 75
     0
 76
     0
 77
     0
 78
     0
281
     0
 65
     1
110
0.0
120
0.0
130
0.0
111
1.0
121
0.0
131
0.0
112
0.0
122
1.0
132
0.0
 79
     0
146
0.0
1001
ACAD_NAV_VCDISPLAY
1070
     3
  0
ENDTAB
  0
TABLE
  2
LTYPE
  5
5
330
0
100
AcDbSymbolTable
 70
     2
  0
LTYPE
  5
13
330
5
100
AcDbSymbolTableRecord
100
AcDbLinetypeTableRecord
  2
BYBLOCK
 70
     0
  3

 72
    65
 73
     0
 40
0.0
  0
LTYPE
  5
14
330
5
100
AcDbSymbolTableRecord
100
AcDbLinetypeTableRecord
  2
BYLAYER
 70
     0
  3

 72
    65
 73
     0
 40
0.0
  0
LTYPE
  5
15
330
5
100
AcDbSymbolTableRecord
100
AcDbLinetypeTableRecord
  2
CONTINUOUS
 70
     0
  3
Solid line
 72
    65
 73
     0
 40
0.0
  0
LTYPE
  5
1F
330
5
100
AcDbSymbolTableRecord
100
AcDbLinetypeTableRecord
  2
CENTER
 70
     0
  3
____ _ ____ _ ____ _ ____ _ ____ _ ____ _ ____ 
 72
    65
 73
     4
 40
2.0
 49
1.25
 74
     0
 49
-0.25
 74
     0
 49
0.25
 74
     0
 49
-0.25
 74
     0
  0
ENDTAB
  0
TABLE
  2
LAYER
  5
2
102
{ACAD_XDICTIONARY
360
8811
102
}
330
0
100
AcDbSymbolTable
 70
     6
  0
LAYER
  5
F
102
{ACAD_XDICTIONARY
360
84D1
102
}
330
2
100
AcDbSymbolTableRecord
100
AcDbLayerTableRecord
  2
0
 70
     0
 62
     7
  6
CONTINUOUS
370
    -3
390
8472
  0
LAYER
  5
31
102
{ACAD_XDICTIONARY
360
84D3
102
}
330
2
100
AcDbSymbolTableRecord
100
AcDbLayerTableRecord
  2
3
 70
     0
 62
     2
  6
CONTINUOUS
370
    -3
390
8472
  0
LAYER
  5
76D0
102
{ACAD_XDICTIONARY
360
84D5
102
}
330
2
100
AcDbSymbolTableRecord
100
AcDbLayerTableRecord
  2
2
 70
     0
 62
     3
  6
CENTER
370
    -3
390
8472
  0
LAYER
  5
76D1
102
{ACAD_XDICTIONARY
360
84D7
102
}
330
2
100
AcDbSymbolTableRecord
100
AcDbLayerTableRecord
  2
1
 70
     0
 62
     4
  6
CONTINUOUS
370
    -3
390
8472
  0
LAYER
  5
76D2
102
{ACAD_XDICTIONARY
360
84D9
102
}
330
2
100
AcDbSymbolTableRecord
100
AcDbLayerTableRecord
  2
4
 70
     0
 62
     7
  6
CONTINUOUS
370
    -3
390
8472
  0
LAYER
  5
7B21
330
2
100
AcDbSymbolTableRecord
100
AcDbLayerTableRecord
  2
DEFPOINTS
 70
     0
 62
     7
  6
CONTINUOUS
290
     0
370
    -3
390
8472
  0
ENDTAB
  0
TABLE
  2
STYLE
  5
3
330
0
100
AcDbSymbolTable
 70
     1
  0
STYLE
  5
10
330
3
100
AcDbSymbolTableRecord
100
AcDbTextStyleTableRecord
  2
STANDARD
 70
     0
 40
0.0
 41
1.0
 50
0.0
 71
     0
 42
180.0
  3
simplex.shx
  4
extfont.shx
  0
ENDTAB
  0
TABLE
  2
VIEW
  5
6
330
0
100
AcDbSymbolTable
 70
     0
  0
ENDTAB
  0
TABLE
  2
UCS
  5
7
330
0
100
AcDbSymbolTable
 70
     0
  0
ENDTAB
  0
TABLE
  2
APPID
  5
9
330
0
100
AcDbSymbolTable
 70
     6
  0
APPID
  5
11
330
9
100
AcDbSymbolTableRecord
100
AcDbRegAppTableRecord
  2
ACAD
 70
     0
  0
APPID
  5
84DB
330
9
100
AcDbSymbolTableRecord
100
AcDbRegAppTableRecord
  2
ACAD_NAV_VCDISPLAY
 70
     0
  0
APPID
  5
84F1
330
9
100
AcDbSymbolTableRecord
100
AcDbRegAppTableRecord
  2
ACAD_EXEMPT_FROM_CAD_STANDARDS
 70
     0
  0
APPID
  5
886E
330
9
100
AcDbSymbolTableRecord
100
AcDbRegAppTableRecord
  2
ACAD_PSEXT
 70
     0
  0
APPID
  5
88C2
330
9
100
AcDbSymbolTableRecord
100
AcDbRegAppTableRecord
  2
AcadAnnoMonitorAlertIconDisabled
 70
     0
  0
APPID
  5
A847
330
9
100
AcDbSymbolTableRecord
100
AcDbRegAppTableRecord
  2
ACAD_MLEADERVER
 70
     0
  0
ENDTAB
  0
TABLE
  2
DIMSTYLE
  5
A
330
0
100
AcDbSymbolTable
 70
     2
100
AcDbDimStyleTable
 71
     1
340
1D
  0
DIMSTYLE
105
1D
102
{ACAD_REACTORS
330
90C1
330
90C2
330
90C4
330
90C5
330
90C7
330
90C8
330
90C9
330
90CB
330
90CC
330
90CD
330
90EF
330
9702
330
9703
330
972F
330
9736
330
9749
330
974A
330
9A95
330
9A96
330
9A97
330
A723
330
A79B
102
}
330
A
100
AcDbSymbolTableRecord
100
AcDbDimStyleTableRecord
  2
IGA
 70
     0
 40
2.0
 41
2.0
 42
0.5
 43
10.0
 44
1.0
 47
1.0
 48
1.0
 73
     0
 74
     0
 77
     1
 78
     8
140
3.0
141
0.0
143
0.03937
146
10.0
147
1.0
173
     1
271
     1
272
     0
279
     2
284
     8
340
10
341
7A11
343
7A11
344
7A11
  0
DIMSTYLE
105
A25D
330
A
100
AcDbSymbolTableRecord
100
AcDbDimStyleTableRecord
  2
STANDARD
 70
     0
 40
15.0
271
     3
272
     3
279
     2
284
     8
285
     8
286
     8
340
10
  0
ENDTAB
  0
TABLE
  2
BLOCK_RECORD
  5
1
330
0
100
AcDbSymbolTable
 70
    25
  0
BLOCK_RECORD
  5
19
102
{ACAD_XDICTIONARY
360
8908
102
}
330
1
100
AcDbSymbolTableRecord
100
AcDbBlockTableRecord
  2
*MODEL_SPACE
340
8475
  0
BLOCK_RECORD
  5
16
330
1
100
AcDbSymbolTableRecord
100
AcDbBlockTableRecord
  2
*PAPER_SPACE
340
8476
  0
BLOCK_RECORD
  5
7A11
330
1
100
AcDbSymbolTableRecord
100
AcDbBlockTableRecord
  2
_OPEN
340
0
102
{BLKREFS
331
A758
331
A759
331
A76A
331
A76B
331
A773
331
A774
331
A785
331
A786
331
A7AB
331
A7AC
331
A7E0
331
A7E1
331
A5BE
331
A5BF
331
A5C7
331
A5C8
331
A5DB
331
A5DC
331
A5E4
331
A5E5
331
A5ED
331
A5EE
331
A62B
331
A62C
331
A63E
331
A63F
331
A646
331
A647
331
A6BE
331
A6BF
331
A70B
331
A70C
331
A714
331
A715
331
A71D
331
A71E
331
A733
331
A734
331
A73C
331
A73D
331
A748
331
A750
102
}
  0
BLOCK_RECORD
  5
814F
330
1
100
AcDbSymbolTableRecord
100
AcDbBlockTableRecord
  2
_DOT
340
0
102
{BLKREFS
331
A747
102
}
  0
BLOCK_RECORD
  5
896B
330
1
100
AcDbSymbolTableRecord
100
AcDbBlockTableRecord
  2
_DotSmall
340
0
102
{BLKREFS
331
A751
102
}
  0
BLOCK_RECORD
  5
9105
330
1
100
AcDbSymbolTableRecord
100
AcDbBlockTableRecord
  2
*D3
340
0
  0
BLOCK_RECORD
  5
9111
330
1
100
AcDbSymbolTableRecord
100
AcDbBlockTableRecord
  2
*D4
340
0
  0
BLOCK_RECORD
  5
911D
330
1
100
AcDbSymbolTableRecord
100
AcDbBlockTableRecord
  2
*D5
340
0
  0
BLOCK_RECORD
  5
9129
330
1
100
AcDbSymbolTableRecord
100
AcDbBlockTableRecord
  2
*D6
340
0
  0
BLOCK_RECORD
  5
9137
330
1
100
AcDbSymbolTableRecord
100
AcDbBlockTableRecord
  2
*D7
340
0
  0
BLOCK_RECORD
  5
9143
330
1
100
AcDbSymbolTableRecord
100
AcDbBlockTableRecord
  2
*D8
340
0
  0
BLOCK_RECORD
  5
914F
330
1
100
AcDbSymbolTableRecord
100
AcDbBlockTableRecord
  2
*D9
340
0
  0
BLOCK_RECORD
  5
915B
330
1
100
AcDbSymbolTableRecord
100
AcDbBlockTableRecord
  2
*D10
340
0
  0
BLOCK_RECORD
  5
9167
330
1
100
AcDbSymbolTableRecord
100
AcDbBlockTableRecord
  2
*D11
340
0
  0
BLOCK_RECORD
  5
9172
330
1
100
AcDbSymbolTableRecord
100
AcDbBlockTableRecord
  2
*D12
340
0
  0
BLOCK_RECORD
  5
917E
330
1
100
AcDbSymbolTableRecord
100
AcDbBlockTableRecord
  2
*D13
340
0
  0
BLOCK_RECORD
  5
9758
330
1
100
AcDbSymbolTableRecord
100
AcDbBlockTableRecord
  2
*D14
340
0
  0
BLOCK_RECORD
  5
9764
330
1
100
AcDbSymbolTableRecord
100
AcDbBlockTableRecord
  2
*D15
340
0
  0
BLOCK_RECORD
  5
9770
330
1
100
AcDbSymbolTableRecord
100
AcDbBlockTableRecord
  2
*D16
340
0
  0
BLOCK_RECORD
  5
977C
330
1
100
AcDbSymbolTableRecord
100
AcDbBlockTableRecord
  2
*D17
340
0
  0
BLOCK_RECORD
  5
9788
330
1
100
AcDbSymbolTableRecord
100
AcDbBlockTableRecord
  2
*D18
340
0
  0
BLOCK_RECORD
  5
9794
330
1
100
AcDbSymbolTableRecord
100
AcDbBlockTableRecord
  2
*D19
340
0
  0
BLOCK_RECORD
  5
9AED
330
1
100
AcDbSymbolTableRecord
100
AcDbBlockTableRecord
  2
*D20
340
0
  0
BLOCK_RECORD
  5
9AF9
330
1
100
AcDbSymbolTableRecord
100
AcDbBlockTableRecord
  2
*D21
340
0
  0
BLOCK_RECORD
  5
9B05
330
1
100
AcDbSymbolTableRecord
100
AcDbBlockTableRecord
  2
*D22
340
0
  0
BLOCK_RECORD
  5
A724
330
1
100
AcDbSymbolTableRecord
100
AcDbBlockTableRecord
  2
*D23
340
0
  0
BLOCK_RECORD
  5
A79C
330
1
100
AcDbSymbolTableRecord
100
AcDbBlockTableRecord
  2
*D24
340
0
  0
ENDTAB
  0
ENDSEC
  0
SECTION
  2
BLOCKS
  0
BLOCK
  5
1A
330
19
100
AcDbEntity
  8
0
100
AcDbBlockBegin
  2
*MODEL_SPACE
 70
     0
 10
0.0
 20
0.0
 30
0.0
  3
*MODEL_SPACE
  1

  0
ENDBLK
  5
1B
330
19
100
AcDbEntity
  8
0
100
AcDbBlockEnd
  0
BLOCK
  5
17
330
16
100
AcDbEntity
 67
     1
  8
0
100
AcDbBlockBegin
  2
*PAPER_SPACE
 70
     0
 10
0.0
 20
0.0
 30
0.0
  3
*PAPER_SPACE
  1

  0
ENDBLK
  5
18
330
16
100
AcDbEntity
 67
     1
  8
0
100
AcDbBlockEnd
  0
BLOCK
  5
7A15
330
7A11
100
AcDbEntity
  8
0
100
AcDbBlockBegin
  2
_OPEN
 70
     0
 10
0.0
 20
0.0
 30
0.0
  3
_OPEN
  1

  0
LINE
  5
7A12
330
7A11
100
AcDbEntity
  8
0
  6
ByBlock
 62
     0
100
AcDbLine
 10
-1.0
 20
0.1666666666666666
 30
0.0
 11
0.0
 21
0.0
 31
0.0
  0
LINE
  5
7A13
330
7A11
100
AcDbEntity
  8
0
  6
ByBlock
 62
     0
100
AcDbLine
 10
0.0
 20
0.0
 30
0.0
 11
-1.0
 21
-0.1666666666666666
 31
0.0
  0
LINE
  5
7A14
330
7A11
100
AcDbEntity
  8
0
  6
ByBlock
 62
     0
100
AcDbLine
 10
0.0
 20
0.0
 30
0.0
 11
-1.0
 21
0.0
 31
0.0
  0
ENDBLK
  5
7A16
330
7A11
100
AcDbEntity
  8
0
100
AcDbBlockEnd
  0
BLOCK
  5
8150
330
814F
100
AcDbEntity
  8
0
100
AcDbBlockBegin
  2
_DOT
 70
     0
 10
0.0
 20
0.0
 30
0.0
  3
_DOT
  1

  0
LINE
  5
8163
330
814F
100
AcDbEntity
  8
0
  6
ByBlock
 62
     0
100
AcDbLine
 10
0.0
 20
0.0
 30
0.0
 11
-1.0
 21
-0.0000000000000284
 31
0.0
  0
LWPOLYLINE
  5
8164
330
814F
100
AcDbEntity
  8
0
  6
ByBlock
 62
     0
100
AcDbPolyline
 90
        2
 70
     1
 43
0.1666666666666666
 10
-0.0833333333333286
 20
-0.0000000000000284
 42
1.0
 10
0.0833333333333286
 20
-0.0000000000000284
 42
1.0
  0
ENDBLK
  5
8156
330
814F
100
AcDbEntity
  8
0
100
AcDbBlockEnd
  0
BLOCK
  5
896D
330
896B
100
AcDbEntity
  8
0
100
AcDbBlockBegin
  2
_DotSmall
 70
     0
 10
0.0
 20
0.0
 30
0.0
  3
_DotSmall
  1

  0
LWPOLYLINE
  5
896C
330
896B
100
AcDbEntity
  8
0
  6
ByBlock
 62
     0
100
AcDbPolyline
 90
        2
 70
     1
 43
0.5
 10
-0.0625
 20
0.0
 42
1.0
 10
0.0625
 20
0.0
 42
1.0
  0
ENDBLK
  5
896E
330
896B
100
AcDbEntity
  8
0
100
AcDbBlockEnd
  0
BLOCK
  5
9106
330
9105
100
AcDbEntity
  8
0
100
AcDbBlockBegin
  2
*D3
 70
     1
 10
0.0
 20
0.0
 30
0.0
  3
*D3
  1

  0
LINE
  5
A739
330
9105
100
AcDbEntity
  8
3
 62
     0
370
    -2
100
AcDbLine
 10
561.9029518807315
 20
1031.278408308641
 30
0.0
 11
561.9029518807315
 21
927.4641630317567
 31
0.0
  0
LINE
  5
A73A
330
9105
100
AcDbEntity
  8
3
 62
     0
370
    -2
100
AcDbLine
 10
1181.902951880732
 20
1005.776579037829
 30
0.0
 11
1181.902951880732
 21
927.4641630317567
 31
0.0
  0
LINE
  5
A73B
330
9105
100
AcDbEntity
  8
3
 62
     0
370
    -2
100
AcDbLine
 10
591.9029518807315
 20
942.4641630317568
 30
0.0
 11
1151.902951880732
 21
942.4641630317568
 31
0.0
  0
INSERT
  5
A73C
330
9105
100
AcDbEntity
  8
3
 62
     0
370
    -2
100
AcDbBlockReference
  2
_OPEN
 10
561.9029518807315
 20
942.4641630317568
 30
0.0
 41
30.0
 42
30.0
 43
30.0
 50
180.0
  0
INSERT
  5
A73D
330
9105
100
AcDbEntity
  8
3
 62
     0
370
    -2
100
AcDbBlockReference
  2
_OPEN
 10
1181.902951880732
 20
942.4641630317568
 30
0.0
 41
30.0
 42
30.0
 43
30.0
  0
MTEXT
  5
A73E
330
9105
100
AcDbEntity
  8
3
 62
     0
100
AcDbMText
 10
871.9029518807319
 20
979.9641630317568
 30
0.0
 40
45.0
 41
0.0
 71
     5
 72
     1
  1
\A1;620
 73
     1
 44
1.0
1001
ACAD
1000
MTEXTBEGIN
1070
    73
1070
     1
1070
    44
1040
1.0
1070
    74
1070
     0
1000
MTEXTEND
  0
POINT
  5
A73F
330
9105
100
AcDbEntity
  8
DEFPOINTS
 62
     0
100
AcDbPoint
 10
561.9029518807315
 20
1038.778408308641
 30
0.0
  0
POINT
  5
A740
330
9105
100
AcDbEntity
  8
DEFPOINTS
 62
     0
100
AcDbPoint
 10
1181.902951880732
 20
1013.276579037829
 30
0.0
  0
POINT
  5
A741
330
9105
100
AcDbEntity
  8
DEFPOINTS
 62
     0
100
AcDbPoint
 10
1181.902951880732
 20
942.4641630317568
 30
0.0
  0
ENDBLK
  5
9107
330
9105
100
AcDbEntity
  8
0
100
AcDbBlockEnd
  0
BLOCK
  5
9112
330
9111
100
AcDbEntity
  8
0
100
AcDbBlockBegin
  2
*D4
 70
     1
 10
0.0
 20
0.0
 30
0.0
  3
*D4
  1

  0
LINE
  5
A5BB
330
9111
100
AcDbEntity
  8
3
 62
     0
370
    -2
100
AcDbLine
 10
1181.902951880732
 20
1915.362795425264
 30
0.0
 11
1181.902951880732
 21
2022.031434373935
 31
0.0
  0
LINE
  5
A5BC
330
9111
100
AcDbEntity
  8
3
 62
     0
370
    -2
100
AcDbLine
 10
908.3380710000506
 20
1555.27840830864
 30
0.0
 11
908.3380710000506
 21
2022.031434373935
 31
0.0
  0
LINE
  5
A5BD
330
9111
100
AcDbEntity
  8
3
 62
     0
370
    -2
100
AcDbLine
 10
1151.902951880732
 20
2007.031434373935
 30
0.0
 11
938.3380710000507
 21
2007.031434373935
 31
0.0
  0
INSERT
  5
A5BE
330
9111
100
AcDbEntity
  8
3
 62
     0
370
    -2
100
AcDbBlockReference
  2
_OPEN
 10
1181.902951880732
 20
2007.031434373935
 30
0.0
 41
30.0
 42
30.0
 43
30.0
  0
INSERT
  5
A5BF
330
9111
100
AcDbEntity
  8
3
 62
     0
370
    -2
100
AcDbBlockReference
  2
_OPEN
 10
908.3380710000506
 20
2007.031434373935
 30
0.0
 41
30.0
 42
30.0
 43
30.0
 50
180.0
  0
MTEXT
  5
A5C0
330
9111
100
AcDbEntity
  8
3
 62
     0
100
AcDbMText
 10
1045.120511440391
 20
2044.531434373935
 30
0.0
 40
45.0
 41
0.0
 71
     5
 72
     1
  1
\A1;274
 73
     1
 44
1.0
1001
ACAD
1000
MTEXTBEGIN
1070
    73
1070
     1
1070
    44
1040
1.0
1070
    74
1070
     0
1000
MTEXTEND
  0
POINT
  5
A5C1
330
9111
100
AcDbEntity
  8
DEFPOINTS
 62
     0
100
AcDbPoint
 10
1181.902951880732
 20
1907.862795425264
 30
0.0
  0
POINT
  5
A5C2
330
9111
100
AcDbEntity
  8
DEFPOINTS
 62
     0
100
AcDbPoint
 10
908.3380710000506
 20
1547.77840830864
 30
0.0
  0
POINT
  5
A5C3
330
9111
100
AcDbEntity
  8
DEFPOINTS
 62
     0
100
AcDbPoint
 10
908.3380710000506
 20
2007.031434373935
 30
0.0
  0
ENDBLK
  5
9113
330
9111
100
AcDbEntity
  8
0
100
AcDbBlockEnd
  0
BLOCK
  5
911E
330
911D
100
AcDbEntity
  8
0
100
AcDbBlockBegin
  2
*D5
 70
     1
 10
0.0
 20
0.0
 30
0.0
  3
*D5
  1

  0
LINE
  5
A5C4
330
911D
100
AcDbEntity
  8
3
 62
     0
370
    -2
100
AcDbLine
 10
1445.863078231218
 20
1523.77840830864
 30
0.0
 11
1654.50731891713
 21
1523.778408308639
 31
0.0
  0
LINE
  5
A5C5
330
911D
100
AcDbEntity
  8
3
 62
     0
370
    -2
100
AcDbLine
 10
1369.402951880732
 20
1208.77840830864
 30
0.0
 11
1654.50731891713
 21
1208.77840830864
 31
0.0
  0
LINE
  5
A5C6
330
911D
100
AcDbEntity
  8
3
 62
     0
370
    -2
100
AcDbLine
 10
1639.50731891713
 20
1493.77840830864
 30
0.0
 11
1639.50731891713
 21
1238.77840830864
 31
0.0
  0
INSERT
  5
A5C7
330
911D
100
AcDbEntity
  8
3
 62
     0
370
    -2
100
AcDbBlockReference
  2
_OPEN
 10
1639.50731891713
 20
1523.778408308639
 30
0.0
 41
30.0
 42
30.0
 43
30.0
 50
90.0
  0
INSERT
  5
A5C8
330
911D
100
AcDbEntity
  8
3
 62
     0
370
    -2
100
AcDbBlockReference
  2
_OPEN
 10
1639.50731891713
 20
1208.77840830864
 30
0.0
 41
30.0
 42
30.0
 43
30.0
 50
270.0
  0
MTEXT
  5
A5C9
330
911D
100
AcDbEntity
  8
3
 62
     0
100
AcDbMText
 10
1602.00731891713
 20
1366.27840830864
 30
0.0
 40
45.0
 41
0.0
 71
     5
 72
     1
  1
\A1;315
 11
0.0000000000000001
 21
1.0
 31
0.0
 73
     1
 44
1.0
1001
ACAD
1000
MTEXTBEGIN
1070
    73
1070
     1
1070
    44
1040
1.0
1070
    74
1070
     0
1000
MTEXTEND
  0
POINT
  5
A5CA
330
911D
100
AcDbEntity
  8
DEFPOINTS
 62
     0
100
AcDbPoint
 10
1438.363078231218
 20
1523.77840830864
 30
0.0
  0
POINT
  5
A5CB
330
911D
100
AcDbEntity
  8
DEFPOINTS
 62
     0
100
AcDbPoint
 10
1361.902951880732
 20
1208.77840830864
 30
0.0
  0
POINT
  5
A5CC
330
911D
100
AcDbEntity
  8
DEFPOINTS
 62
     0
100
AcDbPoint
 10
1639.50731891713
 20
1208.77840830864
 30
0.0
  0
ENDBLK
  5
911F
330
911D
100
AcDbEntity
  8
0
100
AcDbBlockEnd
  0
BLOCK
  5
912A
330
9129
100
AcDbEntity
  8
0
100
AcDbBlockBegin
  2
*D6
 70
     1
 10
0.0
 20
0.0
 30
0.0
  3
*D6
  1

  0
LINE
  5
A742
330
9129
100
AcDbEntity
  8
3
 62
     0
370
    -2
100
AcDbLine
 10
1369.402951880731
 20
1113.77840830864
 30
0.0
 11
1654.50731891713
 21
1113.77840830864
 31
0.0
  0
LINE
  5
A743
330
9129
100
AcDbEntity
  8
3
 62
     0
370
    -2
100
AcDbLine
 10
1369.402951880731
 20
1038.77840830864
 30
0.0
 11
1654.50731891713
 21
1038.77840830864
 31
0.0
  0
LINE
  5
A744
330
9129
100
AcDbEntity
  8
3
 62
     0
370
    -2
100
AcDbLine
 10
1639.50731891713
 20
1143.77840830864
 30
0.0
 11
1639.50731891713
 21
1173.77840830864
 31
0.0
  0
LINE
  5
A745
330
9129
100
AcDbEntity
  8
3
 62
     0
370
    -2
100
AcDbLine
 10
1639.50731891713
 20
1008.77840830864
 30
0.0
 11
1639.50731891713
 21
875.9212654514971
 31
0.0
  0
LINE
  5
A746
330
9129
100
AcDbEntity
  8
3
 62
     0
370
    -2
100
AcDbLine
 10
1639.50731891713
 20
1113.77840830864
 30
0.0
 11
1639.50731891713
 21
1038.77840830864
 31
0.0
  0
INSERT
  5
A747
330
9129
100
AcDbEntity
  8
3
 62
     0
370
    -2
100
AcDbBlockReference
  2
_DOT
 10
1639.50731891713
 20
1113.77840830864
 30
0.0
 41
30.0
 42
30.0
 43
30.0
 50
270.0
  0
INSERT
  5
A748
330
9129
100
AcDbEntity
  8
3
 62
     0
370
    -2
100
AcDbBlockReference
  2
_OPEN
 10
1639.50731891713
 20
1038.77840830864
 30
0.0
 41
30.0
 42
30.0
 43
30.0
 50
90.0
  0
MTEXT
  5
A749
330
9129
100
AcDbEntity
  8
3
 62
     0
100
AcDbMText
 10
1602.00731891713
 20
927.3498368800687
 30
0.0
 40
45.0
 41
0.0
 71
     5
 72
     1
  1
\A1;75
 11
0.0000000000000001
 21
1.0
 31
0.0
 73
     1
 44
1.0
1001
ACAD
1000
MTEXTBEGIN
1070
    73
1070
     1
1070
    44
1040
1.0
1070
    74
1070
     0
1000
MTEXTEND
  0
POINT
  5
A74A
330
9129
100
AcDbEntity
  8
DEFPOINTS
 62
     0
100
AcDbPoint
 10
1361.902951880731
 20
1113.77840830864
 30
0.0
  0
POINT
  5
A74B
330
9129
100
AcDbEntity
  8
DEFPOINTS
 62
     0
100
AcDbPoint
 10
1361.902951880731
 20
1038.77840830864
 30
0.0
  0
POINT
  5
A74C
330
9129
100
AcDbEntity
  8
DEFPOINTS
 62
     0
100
AcDbPoint
 10
1639.50731891713
 20
1038.77840830864
 30
0.0
  0
ENDBLK
  5
912B
330
9129
100
AcDbEntity
  8
0
100
AcDbBlockEnd
  0
BLOCK
  5
9138
330
9137
100
AcDbEntity
  8
0
100
AcDbBlockBegin
  2
*D7
 70
     1
 10
0.0
 20
0.0
 30
0.0
  3
*D7
  1

  0
LINE
  5
A5D8
330
9137
100
AcDbEntity
  8
3
 62
     0
370
    -2
100
AcDbLine
 10
1426.902951880732
 20
1908.889577983684
 30
0.0
 11
1426.902951880732
 21
2022.031434373935
 31
0.0
  0
LINE
  5
A5D9
330
9137
100
AcDbEntity
  8
3
 62
     0
370
    -2
100
AcDbLine
 10
1181.902951880732
 20
1915.362795425264
 30
0.0
 11
1181.902951880732
 21
2022.031434373935
 31
0.0
  0
LINE
  5
A5DA
330
9137
100
AcDbEntity
  8
3
 62
     0
370
    -2
100
AcDbLine
 10
1396.902951880732
 20
2007.031434373935
 30
0.0
 11
1211.902951880732
 21
2007.031434373935
 31
0.0
  0
INSERT
  5
A5DB
330
9137
100
AcDbEntity
  8
3
 62
     0
370
    -2
100
AcDbBlockReference
  2
_OPEN
 10
1426.902951880732
 20
2007.031434373935
 30
0.0
 41
30.0
 42
30.0
 43
30.0
  0
INSERT
  5
A5DC
330
9137
100
AcDbEntity
  8
3
 62
     0
370
    -2
100
AcDbBlockReference
  2
_OPEN
 10
1181.902951880732
 20
2007.031434373935
 30
0.0
 41
30.0
 42
30.0
 43
30.0
 50
180.0
  0
MTEXT
  5
A5DD
330
9137
100
AcDbEntity
  8
3
 62
     0
100
AcDbMText
 10
1304.402951880732
 20
2044.531434373935
 30
0.0
 40
45.0
 41
0.0
 71
     5
 72
     1
  1
\A1;245
 73
     1
 44
1.0
1001
ACAD
1000
MTEXTBEGIN
1070
    73
1070
     1
1070
    44
1040
1.0
1070
    74
1070
     0
1000
MTEXTEND
  0
POINT
  5
A5DE
330
9137
100
AcDbEntity
  8
DEFPOINTS
 62
     0
100
AcDbPoint
 10
1426.902951880732
 20
1901.389577983684
 30
0.0
  0
POINT
  5
A5DF
330
9137
100
AcDbEntity
  8
DEFPOINTS
 62
     0
100
AcDbPoint
 10
1181.902951880732
 20
1907.862795425264
 30
0.0
  0
POINT
  5
A5E0
330
9137
100
AcDbEntity
  8
DEFPOINTS
 62
     0
100
AcDbPoint
 10
1181.902951880732
 20
2007.031434373935
 30
0.0
  0
ENDBLK
  5
9139
330
9137
100
AcDbEntity
  8
0
100
AcDbBlockEnd
  0
BLOCK
  5
9144
330
9143
100
AcDbEntity
  8
0
100
AcDbBlockBegin
  2
*D8
 70
     1
 10
0.0
 20
0.0
 30
0.0
  3
*D8
  1

  0
LINE
  5
A5E1
330
9143
100
AcDbEntity
  8
3
 62
     0
370
    -2
100
AcDbLine
 10
1434.402951880732
 20
1874.77840830864
 30
0.0
 11
1654.50731891713
 21
1874.77840830864
 31
0.0
  0
LINE
  5
A5E2
330
9143
100
AcDbEntity
  8
3
 62
     0
370
    -2
100
AcDbLine
 10
1445.863078231218
 20
1523.77840830864
 30
0.0
 11
1654.50731891713
 21
1523.778408308639
 31
0.0
  0
LINE
  5
A5E3
330
9143
100
AcDbEntity
  8
3
 62
     0
370
    -2
100
AcDbLine
 10
1639.50731891713
 20
1844.77840830864
 30
0.0
 11
1639.50731891713
 21
1553.778408308639
 31
0.0
  0
INSERT
  5
A5E4
330
9143
100
AcDbEntity
  8
3
 62
     0
370
    -2
100
AcDbBlockReference
  2
_OPEN
 10
1639.50731891713
 20
1874.77840830864
 30
0.0
 41
30.0
 42
30.0
 43
30.0
 50
90.0
  0
INSERT
  5
A5E5
330
9143
100
AcDbEntity
  8
3
 62
     0
370
    -2
100
AcDbBlockReference
  2
_OPEN
 10
1639.50731891713
 20
1523.778408308639
 30
0.0
 41
30.0
 42
30.0
 43
30.0
 50
270.0
  0
MTEXT
  5
A5E6
330
9143
100
AcDbEntity
  8
3
 62
     0
100
AcDbMText
 10
1602.00731891713
 20
1699.27840830864
 30
0.0
 40
45.0
 41
0.0
 71
     5
 72
     1
  1
\A1;351
 11
0.0000000000000001
 21
1.0
 31
0.0
 73
     1
 44
1.0
1001
ACAD
1000
MTEXTBEGIN
1070
    73
1070
     1
1070
    44
1040
1.0
1070
    74
1070
     0
1000
MTEXTEND
  0
POINT
  5
A5E7
330
9143
100
AcDbEntity
  8
DEFPOINTS
 62
     0
100
AcDbPoint
 10
1426.902951880732
 20
1874.77840830864
 30
0.0
  0
POINT
  5
A5E8
330
9143
100
AcDbEntity
  8
DEFPOINTS
 62
     0
100
AcDbPoint
 10
1438.363078231218
 20
1523.77840830864
 30
0.0
  0
POINT
  5
A5E9
330
9143
100
AcDbEntity
  8
DEFPOINTS
 62
     0
100
AcDbPoint
 10
1639.50731891713
 20
1523.778408308639
 30
0.0
  0
ENDBLK
  5
9145
330
9143
100
AcDbEntity
  8
0
100
AcDbBlockEnd
  0
BLOCK
  5
9150
330
914F
100
AcDbEntity
  8
0
100
AcDbBlockBegin
  2
*D9
 70
     1
 10
0.0
 20
0.0
 30
0.0
  3
*D9
  1

  0
LINE
  5
A5EA
330
914F
100
AcDbEntity
  8
3
 62
     0
370
    -2
100
AcDbLine
 10
1434.402951880732
 20
1874.77840830864
 30
0.0
 11
1553.997788784843
 21
1874.77840830864
 31
0.0
  0
LINE
  5
A5EB
330
914F
100
AcDbEntity
  8
3
 62
     0
370
    -2
100
AcDbLine
 10
1434.402951880732
 20
1549.77840830864
 30
0.0
 11
1553.997788784843
 21
1549.77840830864
 31
0.0
  0
LINE
  5
A5EC
330
914F
100
AcDbEntity
  8
3
 62
     0
370
    -2
100
AcDbLine
 10
1538.997788784843
 20
1844.77840830864
 30
0.0
 11
1538.997788784843
 21
1579.778408308639
 31
0.0
  0
INSERT
  5
A5ED
330
914F
100
AcDbEntity
  8
3
 62
     0
370
    -2
100
AcDbBlockReference
  2
_OPEN
 10
1538.997788784843
 20
1874.77840830864
 30
0.0
 41
30.0
 42
30.0
 43
30.0
 50
90.0
  0
INSERT
  5
A5EE
330
914F
100
AcDbEntity
  8
3
 62
     0
370
    -2
100
AcDbBlockReference
  2
_OPEN
 10
1538.997788784843
 20
1549.77840830864
 30
0.0
 41
30.0
 42
30.0
 43
30.0
 50
270.0
  0
MTEXT
  5
A5EF
330
914F
100
AcDbEntity
  8
3
 62
     0
100
AcDbMText
 10
1501.497788784843
 20
1712.27840830864
 30
0.0
 40
45.0
 41
0.0
 71
     5
 72
     1
  1
\A1;325
 11
0.0000000000000001
 21
1.0
 31
0.0
 73
     1
 44
1.0
1001
ACAD
1000
MTEXTBEGIN
1070
    73
1070
     1
1070
    44
1040
1.0
1070
    74
1070
     0
1000
MTEXTEND
  0
POINT
  5
A5F0
330
914F
100
AcDbEntity
  8
DEFPOINTS
 62
     0
100
AcDbPoint
 10
1426.902951880732
 20
1874.77840830864
 30
0.0
  0
POINT
  5
A5F1
330
914F
100
AcDbEntity
  8
DEFPOINTS
 62
     0
100
AcDbPoint
 10
1426.902951880732
 20
1549.77840830864
 30
0.0
  0
POINT
  5
A5F2
330
914F
100
AcDbEntity
  8
DEFPOINTS
 62
     0
100
AcDbPoint
 10
1538.997788784843
 20
1549.77840830864
 30
0.0
  0
ENDBLK
  5
9151
330
914F
100
AcDbEntity
  8
0
100
AcDbBlockEnd
  0
BLOCK
  5
915C
330
915B
100
AcDbEntity
  8
0
100
AcDbBlockBegin
  2
*D10
 70
     1
 10
0.0
 20
0.0
 30
0.0
  3
*D10
  1

  0
LINE
  5
A6BB
330
915B
100
AcDbEntity
  8
3
 62
     0
370
    -2
100
AcDbLine
 10
1426.902951880732
 20
1908.889577983684
 30
0.0
 11
1426.902951880732
 21
2113.648472065769
 31
0.0
  0
LINE
  5
A6BC
330
915B
100
AcDbEntity
  8
3
 62
     0
370
    -2
100
AcDbLine
 10
561.9029518807324
 20
1291.278408308641
 30
0.0
 11
561.9029518807324
 21
2113.648472065769
 31
0.0
  0
LINE
  5
A6BD
330
915B
100
AcDbEntity
  8
3
 62
     0
370
    -2
100
AcDbLine
 10
1396.902951880732
 20
2098.648472065769
 30
0.0
 11
591.9029518807324
 21
2098.648472065769
 31
0.0
  0
INSERT
  5
A6BE
330
915B
100
AcDbEntity
  8
3
 62
     0
370
    -2
100
AcDbBlockReference
  2
_OPEN
 10
1426.902951880732
 20
2098.648472065769
 30
0.0
 41
30.0
 42
30.0
 43
30.0
  0
INSERT
  5
A6BF
330
915B
100
AcDbEntity
  8
3
 62
     0
370
    -2
100
AcDbBlockReference
  2
_OPEN
 10
561.9029518807324
 20
2098.648472065769
 30
0.0
 41
30.0
 42
30.0
 43
30.0
 50
180.0
  0
MTEXT
  5
A6C0
330
915B
100
AcDbEntity
  8
3
 62
     0
100
AcDbMText
 10
994.4029518807324
 20
2136.148472065769
 30
0.0
 40
45.0
 41
0.0
 71
     5
 72
     1
  1
\A1;865
 73
     1
 44
1.0
1001
ACAD
1000
MTEXTBEGIN
1070
    73
1070
     1
1070
    44
1040
1.0
1070
    74
1070
     0
1000
MTEXTEND
  0
POINT
  5
A6C1
330
915B
100
AcDbEntity
  8
DEFPOINTS
 62
     0
100
AcDbPoint
 10
1426.902951880732
 20
1901.389577983684
 30
0.0
  0
POINT
  5
A6C2
330
915B
100
AcDbEntity
  8
DEFPOINTS
 62
     0
100
AcDbPoint
 10
561.9029518807324
 20
1283.778408308641
 30
0.0
  0
POINT
  5
A6C3
330
915B
100
AcDbEntity
  8
DEFPOINTS
 62
     0
100
AcDbPoint
 10
561.9029518807324
 20
2098.648472065769
 30
0.0
  0
ENDBLK
  5
915D
330
915B
100
AcDbEntity
  8
0
100
AcDbBlockEnd
  0
BLOCK
  5
9168
330
9167
100
AcDbEntity
  8
0
100
AcDbBlockBegin
  2
*D11
 70
     1
 10
0.0
 20
0.0
 30
0.0
  3
*D11
  1

  0
LINE
  5
A74D
330
9167
100
AcDbEntity
  8
3
 62
     0
370
    -2
100
AcDbLine
 10
1369.402951880731
 20
1113.77840830864
 30
0.0
 11
1654.50731891713
 21
1113.77840830864
 31
0.0
  0
LINE
  5
A74E
330
9167
100
AcDbEntity
  8
3
 62
     0
370
    -2
100
AcDbLine
 10
1639.50731891713
 20
1178.77840830864
 30
0.0
 11
1639.50731891713
 21
1113.77840830864
 31
0.0
  0
MTEXT
  5
A74F
330
9167
100
AcDbEntity
  8
3
 62
     0
100
AcDbMText
 10
1698.236873404306
 20
1146.27840830864
 30
0.0
 40
45.0
 41
0.0
 71
     5
 72
     1
  1
\A1;(95)
 11
0.0000000000000001
 21
1.0
 31
0.0
 73
     1
 44
1.0
1001
ACAD
1000
MTEXTBEGIN
1070
    73
1070
     1
1070
    44
1040
1.0
1070
    74
1070
     0
1000
MTEXTEND
  0
INSERT
  5
A750
330
9167
100
AcDbEntity
  8
3
 62
     0
370
    -2
100
AcDbBlockReference
  2
_OPEN
 10
1639.50731891713
 20
1208.77840830864
 30
0.0
 41
30.0
 42
30.0
 43
30.0
 50
90.0
  0
INSERT
  5
A751
330
9167
100
AcDbEntity
  8
3
 62
     0
370
    -2
100
AcDbBlockReference
  2
_DotSmall
 10
1639.50731891713
 20
1113.77840830864
 30
0.0
 41
30.0
 42
30.0
 43
30.0
 50
270.0
  0
POINT
  5
A752
330
9167
100
AcDbEntity
  8
DEFPOINTS
 62
     0
100
AcDbPoint
 10
1361.902951880732
 20
1208.77840830864
 30
0.0
  0
POINT
  5
A753
330
9167
100
AcDbEntity
  8
DEFPOINTS
 62
     0
100
AcDbPoint
 10
1361.902951880731
 20
1113.77840830864
 30
0.0
  0
POINT
  5
A754
330
9167
100
AcDbEntity
  8
DEFPOINTS
 62
     0
100
AcDbPoint
 10
1639.50731891713
 20
1113.77840830864
 30
0.0
  0
ENDBLK
  5
9169
330
9167
100
AcDbEntity
  8
0
100
AcDbBlockEnd
  0
BLOCK
  5
9173
330
9172
100
AcDbEntity
  8
0
100
AcDbBlockBegin
  2
*D12
 70
     1
 10
0.0
 20
0.0
 30
0.0
  3
*D12
  1

  0
LINE
  5
A755
330
9172
100
AcDbEntity
  8
3
 62
     0
370
    -2
100
AcDbLine
 10
1361.902951880731
 20
1031.27840830864
 30
0.0
 11
1361.902951880731
 21
927.4641630317567
 31
0.0
  0
LINE
  5
A756
330
9172
100
AcDbEntity
  8
3
 62
     0
370
    -2
100
AcDbLine
 10
1181.902951880732
 20
1005.776579037829
 30
0.0
 11
1181.902951880732
 21
927.4641630317567
 31
0.0
  0
LINE
  5
A757
330
9172
100
AcDbEntity
  8
3
 62
     0
370
    -2
100
AcDbLine
 10
1331.902951880731
 20
942.4641630317568
 30
0.0
 11
1211.902951880732
 21
942.4641630317568
 31
0.0
  0
INSERT
  5
A758
330
9172
100
AcDbEntity
  8
3
 62
     0
370
    -2
100
AcDbBlockReference
  2
_OPEN
 10
1361.902951880731
 20
942.4641630317568
 30
0.0
 41
30.0
 42
30.0
 43
30.0
  0
INSERT
  5
A759
330
9172
100
AcDbEntity
  8
3
 62
     0
370
    -2
100
AcDbBlockReference
  2
_OPEN
 10
1181.902951880732
 20
942.4641630317568
 30
0.0
 41
30.0
 42
30.0
 43
30.0
 50
180.0
  0
MTEXT
  5
A75A
330
9172
100
AcDbEntity
  8
3
 62
     0
100
AcDbMText
 10
1271.902951880732
 20
979.9641630317568
 30
0.0
 40
45.0
 41
0.0
 71
     5
 72
     1
  1
\A1;180
 73
     1
 44
1.0
1001
ACAD
1000
MTEXTBEGIN
1070
    73
1070
     1
1070
    44
1040
1.0
1070
    74
1070
     0
1000
MTEXTEND
  0
POINT
  5
A75B
330
9172
100
AcDbEntity
  8
DEFPOINTS
 62
     0
100
AcDbPoint
 10
1361.902951880731
 20
1038.77840830864
 30
0.0
  0
POINT
  5
A75C
330
9172
100
AcDbEntity
  8
DEFPOINTS
 62
     0
100
AcDbPoint
 10
1181.902951880732
 20
1013.276579037829
 30
0.0
  0
POINT
  5
A75D
330
9172
100
AcDbEntity
  8
DEFPOINTS
 62
     0
100
AcDbPoint
 10
1181.902951880732
 20
942.4641630317568
 30
0.0
  0
ENDBLK
  5
9174
330
9172
100
AcDbEntity
  8
0
100
AcDbBlockEnd
  0
BLOCK
  5
917F
330
917E
100
AcDbEntity
  8
0
100
AcDbBlockBegin
  2
*D13
 70
     1
 10
0.0
 20
0.0
 30
0.0
  3
*D13
  1

  0
LINE
  5
A7DD
330
917E
100
AcDbEntity
  8
3
 62
     0
370
    -2
100
AcDbLine
 10
1439.73775180338
 20
1902.27840830864
 30
0.0
 11
1790.204683248239
 21
1902.278408308639
 31
0.0
  0
LINE
  5
A7DE
330
917E
100
AcDbEntity
  8
3
 62
     0
370
    -2
100
AcDbLine
 10
1369.402951880731
 20
1038.77840830864
 30
0.0
 11
1790.204683248239
 21
1038.77840830864
 31
0.0
  0
LINE
  5
A7DF
330
917E
100
AcDbEntity
  8
3
 62
     0
370
    -2
100
AcDbLine
 10
1775.204683248239
 20
1872.278408308639
 30
0.0
 11
1775.204683248239
 21
1068.77840830864
 31
0.0
  0
INSERT
  5
A7E0
330
917E
100
AcDbEntity
  8
3
 62
     0
370
    -2
100
AcDbBlockReference
  2
_OPEN
 10
1775.204683248239
 20
1902.278408308639
 30
0.0
 41
30.0
 42
30.0
 43
30.0
 50
90.0
  0
INSERT
  5
A7E1
330
917E
100
AcDbEntity
  8
3
 62
     0
370
    -2
100
AcDbBlockReference
  2
_OPEN
 10
1775.204683248239
 20
1038.77840830864
 30
0.0
 41
30.0
 42
30.0
 43
30.0
 50
270.0
  0
MTEXT
  5
A7E2
330
917E
100
AcDbEntity
  8
3
 62
     0
100
AcDbMText
 10
1737.704683248239
 20
1495.255323619868
 30
0.0
 40
45.0
 41
0.0
 71
     5
 72
     1
  1
\A1;864
 11
0.0000000000000001
 21
1.0
 31
0.0
 73
     1
 44
1.0
1001
ACAD
1000
MTEXTBEGIN
1070
    73
1070
     1
1070
    44
1040
1.0
1070
    74
1070
     0
1000
MTEXTEND
  0
POINT
  5
A7E3
330
917E
100
AcDbEntity
  8
DEFPOINTS
 62
     0
100
AcDbPoint
 10
1432.23775180338
 20
1902.27840830864
 30
0.0
  0
POINT
  5
A7E4
330
917E
100
AcDbEntity
  8
DEFPOINTS
 62
     0
100
AcDbPoint
 10
1361.902951880731
 20
1038.77840830864
 30
0.0
  0
POINT
  5
A7E5
330
917E
100
AcDbEntity
  8
DEFPOINTS
 62
     0
100
AcDbPoint
 10
1775.204683248239
 20
1038.77840830864
 30
0.0
  0
ENDBLK
  5
9180
330
917E
100
AcDbEntity
  8
0
100
AcDbBlockEnd
  0
BLOCK
  5
9759
330
9758
100
AcDbEntity
  8
0
100
AcDbBlockBegin
  2
*D14
 70
     1
 10
0.0
 20
0.0
 30
0.0
  3
*D14
  1

  0
LINE
  5
A782
330
9758
100
AcDbEntity
  8
3
 62
     0
370
    -2
100
AcDbLine
 10
2642.442618391042
 20
2086.260350178944
 30
0.0
 11
2642.442618391042
 21
2122.176483587796
 31
0.0
  0
LINE
  5
A783
330
9758
100
AcDbEntity
  8
3
 62
     0
370
    -2
100
AcDbLine
 10
1934.442618391042
 20
1631.27840830864
 30
0.0
 11
1934.442618391042
 21
2122.176483587796
 31
0.0
  0
LINE
  5
A784
330
9758
100
AcDbEntity
  8
3
 62
     0
370
    -2
100
AcDbLine
 10
2612.442618391042
 20
2107.176483587797
 30
0.0
 11
1964.442618391042
 21
2107.176483587797
 31
0.0
  0
INSERT
  5
A785
330
9758
100
AcDbEntity
  8
3
 62
     0
370
    -2
100
AcDbBlockReference
  2
_OPEN
 10
2642.442618391042
 20
2107.176483587797
 30
0.0
 41
30.0
 42
30.0
 43
30.0
  0
INSERT
  5
A786
330
9758
100
AcDbEntity
  8
3
 62
     0
370
    -2
100
AcDbBlockReference
  2
_OPEN
 10
1934.442618391042
 20
2107.176483587797
 30
0.0
 41
30.0
 42
30.0
 43
30.0
 50
180.0
  0
MTEXT
  5
A787
330
9758
100
AcDbEntity
  8
3
 62
     0
100
AcDbMText
 10
2288.442618391042
 20
2182.176483587797
 30
0.0
 40
45.0
 41
0.0
 71
     5
 72
     1
  1
\A1;MAX\P760
 73
     1
 44
1.0
1001
ACAD
1000
MTEXTBEGIN
1070
    73
1070
     1
1070
    44
1040
1.0
1070
    74
1070
     0
1000
MTEXTEND
  0
POINT
  5
A788
330
9758
100
AcDbEntity
  8
DEFPOINTS
 62
     0
100
AcDbPoint
 10
2642.442618391042
 20
2078.760350178944
 30
0.0
  0
POINT
  5
A789
330
9758
100
AcDbEntity
  8
DEFPOINTS
 62
     0
100
AcDbPoint
 10
1934.442618391042
 20
1623.77840830864
 30
0.0
  0
POINT
  5
A78A
330
9758
100
AcDbEntity
  8
DEFPOINTS
 62
     0
100
AcDbPoint
 10
1934.442618391042
 20
2107.176483587797
 30
0.0
  0
ENDBLK
  5
975A
330
9758
100
AcDbEntity
  8
0
100
AcDbBlockEnd
  0
BLOCK
  5
9765
330
9764
100
AcDbEntity
  8
0
100
AcDbBlockBegin
  2
*D15
 70
     1
 10
0.0
 20
0.0
 30
0.0
  3
*D15
  1

  0
LINE
  5
A767
330
9764
100
AcDbEntity
  8
3
 62
     0
370
    -2
100
AcDbLine
 10
2027.442618391042
 20
1031.27840830864
 30
0.0
 11
2027.442618391042
 21
923.0303455279017
 31
0.0
  0
LINE
  5
A768
330
9764
100
AcDbEntity
  8
3
 62
     0
370
    -2
100
AcDbLine
 10
2642.442618391042
 20
1005.77657903783
 30
0.0
 11
2642.442618391042
 21
923.0303455279017
 31
0.0
  0
LINE
  5
A769
330
9764
100
AcDbEntity
  8
3
 62
     0
370
    -2
100
AcDbLine
 10
2057.442618391042
 20
938.0303455279017
 30
0.0
 11
2612.442618391042
 21
938.0303455279017
 31
0.0
  0
INSERT
  5
A76A
330
9764
100
AcDbEntity
  8
3
 62
     0
370
    -2
100
AcDbBlockReference
  2
_OPEN
 10
2027.442618391042
 20
938.0303455279017
 30
0.0
 41
30.0
 42
30.0
 43
30.0
 50
180.0
  0
INSERT
  5
A76B
330
9764
100
AcDbEntity
  8
3
 62
     0
370
    -2
100
AcDbBlockReference
  2
_OPEN
 10
2642.442618391042
 20
938.0303455279017
 30
0.0
 41
30.0
 42
30.0
 43
30.0
  0
MTEXT
  5
A76C
330
9764
100
AcDbEntity
  8
3
 62
     0
100
AcDbMText
 10
2334.942618391042
 20
975.5303455279017
 30
0.0
 40
45.0
 41
0.0
 71
     5
 72
     1
  1
\A1;615
 73
     1
 44
1.0
1001
ACAD
1000
MTEXTBEGIN
1070
    73
1070
     1
1070
    44
1040
1.0
1070
    74
1070
     0
1000
MTEXTEND
  0
POINT
  5
A76D
330
9764
100
AcDbEntity
  8
DEFPOINTS
 62
     0
100
AcDbPoint
 10
2027.442618391042
 20
1038.77840830864
 30
0.0
  0
POINT
  5
A76E
330
9764
100
AcDbEntity
  8
DEFPOINTS
 62
     0
100
AcDbPoint
 10
2642.442618391042
 20
1013.27657903783
 30
0.0
  0
POINT
  5
A76F
330
9764
100
AcDbEntity
  8
DEFPOINTS
 62
     0
100
AcDbPoint
 10
2642.442618391042
 20
938.0303455279017
 30
0.0
  0
ENDBLK
  5
9766
330
9764
100
AcDbEntity
  8
0
100
AcDbBlockEnd
  0
BLOCK
  5
9771
330
9770
100
AcDbEntity
  8
0
100
AcDbBlockBegin
  2
*D16
 70
     1
 10
0.0
 20
0.0
 30
0.0
  3
*D16
  1

  0
LINE
  5
A628
330
9770
100
AcDbEntity
  8
3
 62
     0
370
    -2
100
AcDbLine
 10
2795.942618391042
 20
1681.278408308641
 30
0.0
 11
2930.62258993353
 21
1681.278408308641
 31
0.0
  0
LINE
  5
A629
330
9770
100
AcDbEntity
  8
3
 62
     0
370
    -2
100
AcDbLine
 10
2795.942618391042
 20
1366.278408308641
 30
0.0
 11
2930.62258993353
 21
1366.278408308641
 31
0.0
  0
LINE
  5
A62A
330
9770
100
AcDbEntity
  8
3
 62
     0
370
    -2
100
AcDbLine
 10
2915.62258993353
 20
1651.278408308641
 30
0.0
 11
2915.62258993353
 21
1396.278408308641
 31
0.0
  0
INSERT
  5
A62B
330
9770
100
AcDbEntity
  8
3
 62
     0
370
    -2
100
AcDbBlockReference
  2
_OPEN
 10
2915.62258993353
 20
1681.278408308641
 30
0.0
 41
30.0
 42
30.0
 43
30.0
 50
90.0
  0
INSERT
  5
A62C
330
9770
100
AcDbEntity
  8
3
 62
     0
370
    -2
100
AcDbBlockReference
  2
_OPEN
 10
2915.62258993353
 20
1366.278408308641
 30
0.0
 41
30.0
 42
30.0
 43
30.0
 50
270.0
  0
MTEXT
  5
A62D
330
9770
100
AcDbEntity
  8
3
 62
     0
100
AcDbMText
 10
2878.122589933529
 20
1523.778408308641
 30
0.0
 40
45.0
 41
0.0
 71
     5
 72
     1
  1
\A1;\U+03C6315
 11
0.0000000000000001
 21
1.0
 31
0.0
 73
     1
 44
1.0
1001
ACAD
1000
MTEXTBEGIN
1070
    73
1070
     1
1070
    44
1040
1.0
1070
    74
1070
     0
1000
MTEXTEND
  0
POINT
  5
A62E
330
9770
100
AcDbEntity
  8
DEFPOINTS
 62
     0
100
AcDbPoint
 10
2788.442618391042
 20
1681.278408308641
 30
0.0
  0
POINT
  5
A62F
330
9770
100
AcDbEntity
  8
DEFPOINTS
 62
     0
100
AcDbPoint
 10
2788.442618391042
 20
1366.278408308641
 30
0.0
  0
POINT
  5
A630
330
9770
100
AcDbEntity
  8
DEFPOINTS
 62
     0
100
AcDbPoint
 10
2915.62258993353
 20
1366.278408308641
 30
0.0
  0
ENDBLK
  5
9772
330
9770
100
AcDbEntity
  8
0
100
AcDbBlockEnd
  0
BLOCK
  5
977D
330
977C
100
AcDbEntity
  8
0
100
AcDbBlockBegin
  2
*D17
 70
     1
 10
0.0
 20
0.0
 30
0.0
  3
*D17
  1

  0
LINE
  5
A770
330
977C
100
AcDbEntity
  8
3
 62
     0
370
    -2
100
AcDbLine
 10
2642.442618391042
 20
1005.77657903783
 30
0.0
 11
2642.442618391042
 21
923.0303455279017
 31
0.0
  0
LINE
  5
A771
330
977C
100
AcDbEntity
  8
3
 62
     0
370
    -2
100
AcDbLine
 10
2807.442618391041
 20
1031.278408308641
 30
0.0
 11
2807.442618391041
 21
923.0303455279017
 31
0.0
  0
LINE
  5
A772
330
977C
100
AcDbEntity
  8
3
 62
     0
370
    -2
100
AcDbLine
 10
2672.442618391042
 20
938.0303455279017
 30
0.0
 11
2777.442618391041
 21
938.0303455279017
 31
0.0
  0
INSERT
  5
A773
330
977C
100
AcDbEntity
  8
3
 62
     0
370
    -2
100
AcDbBlockReference
  2
_OPEN
 10
2642.442618391042
 20
938.0303455279017
 30
0.0
 41
30.0
 42
30.0
 43
30.0
 50
180.0
  0
INSERT
  5
A774
330
977C
100
AcDbEntity
  8
3
 62
     0
370
    -2
100
AcDbBlockReference
  2
_OPEN
 10
2807.442618391041
 20
938.0303455279017
 30
0.0
 41
30.0
 42
30.0
 43
30.0
  0
MTEXT
  5
A775
330
977C
100
AcDbEntity
  8
3
 62
     0
100
AcDbMText
 10
2724.942618391042
 20
975.5303455279017
 30
0.0
 40
45.0
 41
0.0
 71
     5
 72
     1
  1
\A1;165
 73
     1
 44
1.0
1001
ACAD
1000
MTEXTBEGIN
1070
    73
1070
     1
1070
    44
1040
1.0
1070
    74
1070
     0
1000
MTEXTEND
  0
POINT
  5
A776
330
977C
100
AcDbEntity
  8
DEFPOINTS
 62
     0
100
AcDbPoint
 10
2642.442618391042
 20
1013.27657903783
 30
0.0
  0
POINT
  5
A777
330
977C
100
AcDbEntity
  8
DEFPOINTS
 62
     0
100
AcDbPoint
 10
2807.442618391041
 20
1038.778408308641
 30
0.0
  0
POINT
  5
A778
330
977C
100
AcDbEntity
  8
DEFPOINTS
 62
     0
100
AcDbPoint
 10
2807.442618391041
 20
938.0303455279017
 30
0.0
  0
ENDBLK
  5
977E
330
977C
100
AcDbEntity
  8
0
100
AcDbBlockEnd
  0
BLOCK
  5
9789
330
9788
100
AcDbEntity
  8
0
100
AcDbBlockBegin
  2
*D18
 70
     1
 10
0.0
 20
0.0
 30
0.0
  3
*D18
  1

  0
LINE
  5
A63A
330
9788
100
AcDbEntity
  8
3
 62
     0
370
    -2
100
AcDbLine
 10
2642.442618391042
 20
2086.260350178944
 30
0.0
 11
2642.442618391042
 21
2122.176483587796
 31
0.0
  0
LINE
  5
A63B
330
9788
100
AcDbEntity
  8
3
 62
     0
370
    -2
100
AcDbLine
 10
2763.442618391042
 20
1528.889577983685
 30
0.0
 11
2763.442618391042
 21
2122.176483587796
 31
0.0
  0
LINE
  5
A63C
330
9788
100
AcDbEntity
  8
3
 62
     0
370
    -2
100
AcDbLine
 10
2672.442618391042
 20
2107.176483587797
 30
0.0
 11
2733.442618391042
 21
2107.176483587797
 31
0.0
  0
MTEXT
  5
A63D
330
9788
100
AcDbEntity
  8
3
 62
     0
100
AcDbMText
 10
2702.942618391042
 20
2149.878488633671
 30
0.0
 40
45.0
 41
0.0
 71
     5
 72
     1
  1
\A1;121
 73
     1
 44
1.0
1001
ACAD
1000
MTEXTBEGIN
1070
    73
1070
     1
1070
    44
1040
1.0
1070
    74
1070
     0
1000
MTEXTEND
  0
INSERT
  5
A63E
330
9788
100
AcDbEntity
  8
3
 62
     0
370
    -2
100
AcDbBlockReference
  2
_OPEN
 10
2642.442618391042
 20
2107.176483587797
 30
0.0
 41
30.0
 42
30.0
 43
30.0
 50
180.0
  0
INSERT
  5
A63F
330
9788
100
AcDbEntity
  8
3
 62
     0
370
    -2
100
AcDbBlockReference
  2
_OPEN
 10
2763.442618391042
 20
2107.176483587797
 30
0.0
 41
30.0
 42
30.0
 43
30.0
  0
POINT
  5
A640
330
9788
100
AcDbEntity
  8
DEFPOINTS
 62
     0
100
AcDbPoint
 10
2642.442618391042
 20
2078.760350178944
 30
0.0
  0
POINT
  5
A641
330
9788
100
AcDbEntity
  8
DEFPOINTS
 62
     0
100
AcDbPoint
 10
2763.442618391042
 20
1521.389577983685
 30
0.0
  0
POINT
  5
A642
330
9788
100
AcDbEntity
  8
DEFPOINTS
 62
     0
100
AcDbPoint
 10
2763.442618391042
 20
2107.176483587797
 30
0.0
  0
ENDBLK
  5
978A
330
9788
100
AcDbEntity
  8
0
100
AcDbBlockEnd
  0
BLOCK
  5
9795
330
9794
100
AcDbEntity
  8
0
100
AcDbBlockBegin
  2
*D19
 70
     1
 10
0.0
 20
0.0
 30
0.0
  3
*D19
  1

  0
LINE
  5
A643
330
9794
100
AcDbEntity
  8
3
 62
     0
370
    -2
100
AcDbLine
 10
2524.442618391042
 20
1883.889577983685
 30
0.0
 11
2524.442618391042
 21
2021.941552098001
 31
0.0
  0
LINE
  5
A644
330
9794
100
AcDbEntity
  8
3
 62
     0
370
    -2
100
AcDbLine
 10
2760.442618391042
 20
1883.889577983685
 30
0.0
 11
2760.442618391042
 21
2021.941552098001
 31
0.0
  0
LINE
  5
A645
330
9794
100
AcDbEntity
  8
3
 62
     0
370
    -2
100
AcDbLine
 10
2554.442618391042
 20
2006.941552098001
 30
0.0
 11
2730.442618391042
 21
2006.941552098001
 31
0.0
  0
INSERT
  5
A646
330
9794
100
AcDbEntity
  8
3
 62
     0
370
    -2
100
AcDbBlockReference
  2
_OPEN
 10
2524.442618391042
 20
2006.941552098001
 30
0.0
 41
30.0
 42
30.0
 43
30.0
 50
180.0
  0
INSERT
  5
A647
330
9794
100
AcDbEntity
  8
3
 62
     0
370
    -2
100
AcDbBlockReference
  2
_OPEN
 10
2760.442618391042
 20
2006.941552098001
 30
0.0
 41
30.0
 42
30.0
 43
30.0
  0
MTEXT
  5
A648
330
9794
100
AcDbEntity
  8
3
 62
     0
100
AcDbMText
 10
2642.442618391042
 20
2044.441552098001
 30
0.0
 40
45.0
 41
0.0
 71
     5
 72
     1
  1
\A1;236
 73
     1
 44
1.0
1001
ACAD
1000
MTEXTBEGIN
1070
    73
1070
     1
1070
    44
1040
1.0
1070
    74
1070
     0
1000
MTEXTEND
  0
POINT
  5
A649
330
9794
100
AcDbEntity
  8
DEFPOINTS
 62
     0
100
AcDbPoint
 10
2524.442618391042
 20
1876.389577983685
 30
0.0
  0
POINT
  5
A64A
330
9794
100
AcDbEntity
  8
DEFPOINTS
 62
     0
100
AcDbPoint
 10
2760.442618391042
 20
1876.389577983685
 30
0.0
  0
POINT
  5
A64B
330
9794
100
AcDbEntity
  8
DEFPOINTS
 62
     0
100
AcDbPoint
 10
2760.442618391042
 20
2006.941552098001
 30
0.0
  0
ENDBLK
  5
9796
330
9794
100
AcDbEntity
  8
0
100
AcDbBlockEnd
  0
BLOCK
  5
9AEE
330
9AED
100
AcDbEntity
  8
0
100
AcDbBlockBegin
  2
*D20
 70
     1
 10
0.0
 20
0.0
 30
0.0
  3
*D20
  1

  0
LINE
  5
A708
330
9AED
100
AcDbEntity
  8
3
 62
     0
370
    -2
100
AcDbLine
 10
554.4029518807337
 20
2463.588071393662
 30
0.0
 11
410.6572713902137
 21
2463.588071393662
 31
0.0
  0
LINE
  5
A709
330
9AED
100
AcDbEntity
  8
3
 62
     0
370
    -2
100
AcDbLine
 10
554.4029518807319
 20
2843.588071393662
 30
0.0
 11
410.6572713902137
 21
2843.588071393662
 31
0.0
  0
LINE
  5
A70A
330
9AED
100
AcDbEntity
  8
3
 62
     0
370
    -2
100
AcDbLine
 10
425.6572713902136
 20
2493.588071393662
 30
0.0
 11
425.6572713902137
 21
2813.588071393662
 31
0.0
  0
INSERT
  5
A70B
330
9AED
100
AcDbEntity
  8
3
 62
     0
370
    -2
100
AcDbBlockReference
  2
_OPEN
 10
425.6572713902136
 20
2463.588071393662
 30
0.0
 41
30.0
 42
30.0
 43
30.0
 50
270.0
  0
INSERT
  5
A70C
330
9AED
100
AcDbEntity
  8
3
 62
     0
370
    -2
100
AcDbBlockReference
  2
_OPEN
 10
425.6572713902137
 20
2843.588071393662
 30
0.0
 41
30.0
 42
30.0
 43
30.0
 50
90.0
  0
MTEXT
  5
A70D
330
9AED
100
AcDbEntity
  8
3
 62
     0
100
AcDbMText
 10
388.1572713902133
 20
2653.588071393662
 30
0.0
 40
45.0
 41
0.0
 71
     5
 72
     1
  1
\A1;380
 11
0.0000000000000001
 21
1.0
 31
0.0
 73
     1
 44
1.0
1001
ACAD
1000
MTEXTBEGIN
1070
    73
1070
     1
1070
    44
1040
1.0
1070
    74
1070
     0
1000
MTEXTEND
  0
POINT
  5
A70E
330
9AED
100
AcDbEntity
  8
DEFPOINTS
 62
     0
100
AcDbPoint
 10
561.9029518807337
 20
2463.588071393662
 30
0.0
  0
POINT
  5
A70F
330
9AED
100
AcDbEntity
  8
DEFPOINTS
 62
     0
100
AcDbPoint
 10
561.902951880732
 20
2843.588071393662
 30
0.0
  0
POINT
  5
A710
330
9AED
100
AcDbEntity
  8
DEFPOINTS
 62
     0
100
AcDbPoint
 10
425.6572713902137
 20
2843.588071393662
 30
0.0
  0
ENDBLK
  5
9AEF
330
9AED
100
AcDbEntity
  8
0
100
AcDbBlockEnd
  0
BLOCK
  5
9AFA
330
9AF9
100
AcDbEntity
  8
0
100
AcDbBlockBegin
  2
*D21
 70
     1
 10
0.0
 20
0.0
 30
0.0
  3
*D21
  1

  0
LINE
  5
A711
330
9AF9
100
AcDbEntity
  8
3
 62
     0
370
    -2
100
AcDbLine
 10
1361.902951880734
 20
3251.088071393662
 30
0.0
 11
1361.902951880734
 21
3369.806438395192
 31
0.0
  0
LINE
  5
A712
330
9AF9
100
AcDbEntity
  8
3
 62
     0
370
    -2
100
AcDbLine
 10
1001.902951880734
 20
3251.088071393662
 30
0.0
 11
1001.902951880734
 21
3369.806438395192
 31
0.0
  0
LINE
  5
A713
330
9AF9
100
AcDbEntity
  8
3
 62
     0
370
    -2
100
AcDbLine
 10
1331.902951880734
 20
3354.806438395192
 30
0.0
 11
1031.902951880734
 21
3354.806438395192
 31
0.0
  0
INSERT
  5
A714
330
9AF9
100
AcDbEntity
  8
3
 62
     0
370
    -2
100
AcDbBlockReference
  2
_OPEN
 10
1361.902951880734
 20
3354.806438395192
 30
0.0
 41
30.0
 42
30.0
 43
30.0
  0
INSERT
  5
A715
330
9AF9
100
AcDbEntity
  8
3
 62
     0
370
    -2
100
AcDbBlockReference
  2
_OPEN
 10
1001.902951880734
 20
3354.806438395192
 30
0.0
 41
30.0
 42
30.0
 43
30.0
 50
180.0
  0
MTEXT
  5
A716
330
9AF9
100
AcDbEntity
  8
3
 62
     0
100
AcDbMText
 10
1181.902951880734
 20
3392.306438395192
 30
0.0
 40
45.0
 41
0.0
 71
     5
 72
     1
  1
\A1;360
 73
     1
 44
1.0
1001
ACAD
1000
MTEXTBEGIN
1070
    73
1070
     1
1070
    44
1040
1.0
1070
    74
1070
     0
1000
MTEXTEND
  0
POINT
  5
A717
330
9AF9
100
AcDbEntity
  8
DEFPOINTS
 62
     0
100
AcDbPoint
 10
1361.902951880734
 20
3243.588071393662
 30
0.0
  0
POINT
  5
A718
330
9AF9
100
AcDbEntity
  8
DEFPOINTS
 62
     0
100
AcDbPoint
 10
1001.902951880734
 20
3243.588071393662
 30
0.0
  0
POINT
  5
A719
330
9AF9
100
AcDbEntity
  8
DEFPOINTS
 62
     0
100
AcDbPoint
 10
1001.902951880734
 20
3354.806438395192
 30
0.0
  0
ENDBLK
  5
9AFB
330
9AF9
100
AcDbEntity
  8
0
100
AcDbBlockEnd
  0
BLOCK
  5
9B06
330
9B05
100
AcDbEntity
  8
0
100
AcDbBlockBegin
  2
*D22
 70
     1
 10
0.0
 20
0.0
 30
0.0
  3
*D22
  1

  0
LINE
  5
A71A
330
9B05
100
AcDbEntity
  8
3
 62
     0
370
    -2
100
AcDbLine
 10
1001.902951880734
 20
3251.088071393662
 30
0.0
 11
1001.902951880734
 21
3369.806438395192
 31
0.0
  0
LINE
  5
A71B
330
9B05
100
AcDbEntity
  8
3
 62
     0
370
    -2
100
AcDbLine
 10
561.902951880732
 20
2851.088071393662
 30
0.0
 11
561.902951880732
 21
3369.806438395192
 31
0.0
  0
LINE
  5
A71C
330
9B05
100
AcDbEntity
  8
3
 62
     0
370
    -2
100
AcDbLine
 10
971.9029518807337
 20
3354.806438395192
 30
0.0
 11
591.9029518807319
 21
3354.806438395192
 31
0.0
  0
INSERT
  5
A71D
330
9B05
100
AcDbEntity
  8
3
 62
     0
370
    -2
100
AcDbBlockReference
  2
_OPEN
 10
1001.902951880734
 20
3354.806438395192
 30
0.0
 41
30.0
 42
30.0
 43
30.0
  0
INSERT
  5
A71E
330
9B05
100
AcDbEntity
  8
3
 62
     0
370
    -2
100
AcDbBlockReference
  2
_OPEN
 10
561.902951880732
 20
3354.806438395192
 30
0.0
 41
30.0
 42
30.0
 43
30.0
 50
180.0
  0
MTEXT
  5
A71F
330
9B05
100
AcDbEntity
  8
3
 62
     0
100
AcDbMText
 10
781.9029518807329
 20
3392.306438395192
 30
0.0
 40
45.0
 41
0.0
 71
     5
 72
     1
  1
\A1;440
 73
     1
 44
1.0
1001
ACAD
1000
MTEXTBEGIN
1070
    73
1070
     1
1070
    44
1040
1.0
1070
    74
1070
     0
1000
MTEXTEND
  0
POINT
  5
A720
330
9B05
100
AcDbEntity
  8
DEFPOINTS
 62
     0
100
AcDbPoint
 10
1001.902951880734
 20
3243.588071393662
 30
0.0
  0
POINT
  5
A721
330
9B05
100
AcDbEntity
  8
DEFPOINTS
 62
     0
100
AcDbPoint
 10
561.902951880732
 20
2843.588071393662
 30
0.0
  0
POINT
  5
A722
330
9B05
100
AcDbEntity
  8
DEFPOINTS
 62
     0
100
AcDbPoint
 10
561.902951880732
 20
3354.806438395192
 30
0.0
  0
ENDBLK
  5
9B07
330
9B05
100
AcDbEntity
  8
0
100
AcDbBlockEnd
  0
BLOCK
  5
A725
330
A724
100
AcDbEntity
  8
0
 62
     2
100
AcDbBlockBegin
  2
*D23
 70
     1
 10
0.0
 20
0.0
 30
0.0
  3
*D23
  1

  0
LINE
  5
A730
330
A724
100
AcDbEntity
  8
3
 62
     0
370
    -2
100
AcDbLine
 10
561.9029518807328
 20
2456.088071393662
 30
0.0
 11
561.9029518807328
 21
2256.251799445406
 31
0.0
  0
LINE
  5
A731
330
A724
100
AcDbEntity
  8
3
 62
     0
370
    -2
100
AcDbLine
 10
1361.902951880732
 20
2456.088071393661
 30
0.0
 11
1361.902951880732
 21
2256.251799445406
 31
0.0
  0
LINE
  5
A732
330
A724
100
AcDbEntity
  8
3
 62
     0
370
    -2
100
AcDbLine
 10
591.9029518807328
 20
2271.251799445407
 30
0.0
 11
1331.902951880732
 21
2271.251799445407
 31
0.0
  0
INSERT
  5
A733
330
A724
100
AcDbEntity
  8
3
 62
     0
370
    -2
100
AcDbBlockReference
  2
_OPEN
 10
561.9029518807328
 20
2271.251799445407
 30
0.0
 41
30.0
 42
30.0
 43
30.0
 50
180.0
  0
INSERT
  5
A734
330
A724
100
AcDbEntity
  8
3
 62
     0
370
    -2
100
AcDbBlockReference
  2
_OPEN
 10
1361.902951880732
 20
2271.251799445407
 30
0.0
 41
30.0
 42
30.0
 43
30.0
  0
MTEXT
  5
A735
330
A724
100
AcDbEntity
  8
3
 62
     0
100
AcDbMText
 10
945.0673873716441
 20
2308.751799445406
 30
0.0
 40
45.0
 41
0.0
 71
     5
 72
     1
  1
\A1;800
 73
     1
 44
1.0
1001
ACAD
1000
MTEXTBEGIN
1070
    73
1070
     1
1070
    44
1040
1.0
1070
    74
1070
     0
1000
MTEXTEND
  0
POINT
  5
A736
330
A724
100
AcDbEntity
  8
DEFPOINTS
 62
     0
100
AcDbPoint
 10
561.9029518807328
 20
2463.588071393662
 30
0.0
  0
POINT
  5
A737
330
A724
100
AcDbEntity
  8
DEFPOINTS
 62
     0
100
AcDbPoint
 10
1361.902951880732
 20
2463.588071393661
 30
0.0
  0
POINT
  5
A738
330
A724
100
AcDbEntity
  8
DEFPOINTS
 62
     0
100
AcDbPoint
 10
1361.902951880732
 20
2271.251799445407
 30
0.0
  0
ENDBLK
  5
A726
330
A724
100
AcDbEntity
  8
0
 62
     2
100
AcDbBlockEnd
  0
BLOCK
  5
A79D
330
A79C
100
AcDbEntity
  8
0
 62
     2
100
AcDbBlockBegin
  2
*D24
 70
     1
 10
0.0
 20
0.0
 30
0.0
  3
*D24
  1

  0
LINE
  5
A7A8
330
A79C
100
AcDbEntity
  8
3
 62
     0
370
    -2
100
AcDbLine
 10
1369.402951880733
 20
3243.588071393663
 30
0.0
 11
1554.114691262036
 21
3243.588071393663
 31
0.0
  0
LINE
  5
A7A9
330
A79C
100
AcDbEntity
  8
3
 62
     0
370
    -2
100
AcDbLine
 10
1369.402951880732
 20
2463.588071393663
 30
0.0
 11
1554.114691262036
 21
2463.588071393663
 31
0.0
  0
LINE
  5
A7AA
330
A79C
100
AcDbEntity
  8
3
 62
     0
370
    -2
100
AcDbLine
 10
1539.114691262036
 20
3213.588071393663
 30
0.0
 11
1539.114691262036
 21
2493.588071393663
 31
0.0
  0
INSERT
  5
A7AB
330
A79C
100
AcDbEntity
  8
3
 62
     0
370
    -2
100
AcDbBlockReference
  2
_OPEN
 10
1539.114691262036
 20
3243.588071393663
 30
0.0
 41
30.0
 42
30.0
 43
30.0
 50
90.0
  0
INSERT
  5
A7AC
330
A79C
100
AcDbEntity
  8
3
 62
     0
370
    -2
100
AcDbBlockReference
  2
_OPEN
 10
1539.114691262036
 20
2463.588071393663
 30
0.0
 41
30.0
 42
30.0
 43
30.0
 50
270.0
  0
MTEXT
  5
A7AD
330
A79C
100
AcDbEntity
  8
3
 62
     0
100
AcDbMText
 10
1501.614691262036
 20
2853.588071393663
 30
0.0
 40
45.0
 41
0.0
 71
     5
 72
     1
  1
\A1;780
 11
0.0000000000000001
 21
1.0
 31
0.0
 73
     1
 44
1.0
1001
ACAD
1000
MTEXTBEGIN
1070
    73
1070
     1
1070
    44
1040
1.0
1070
    74
1070
     0
1000
MTEXTEND
  0
POINT
  5
A7AE
330
A79C
100
AcDbEntity
  8
DEFPOINTS
 62
     0
100
AcDbPoint
 10
1361.902951880733
 20
3243.588071393663
 30
0.0
  0
POINT
  5
A7AF
330
A79C
100
AcDbEntity
  8
DEFPOINTS
 62
     0
100
AcDbPoint
 10
1361.902951880732
 20
2463.588071393663
 30
0.0
  0
POINT
  5
A7B0
330
A79C
100
AcDbEntity
  8
DEFPOINTS
 62
     0
100
AcDbPoint
 10
1539.114691262036
 20
2463.588071393663
 30
0.0
  0
ENDBLK
  5
A79E
330
A79C
100
AcDbEntity
  8
0
 62
     2
100
AcDbBlockEnd
  0
ENDSEC
  0
SECTION
  2
ENTITIES
  0
LINE
  5
7CE8
330
19
100
AcDbEntity
  8
1
100
AcDbLine
 10
2807.442618391041
 20
1208.778408308641
 30
0.0
 11
2027.442618391042
 21
1208.77840830864
 31
0.0
  0
LINE
  5
7D13
330
19
100
AcDbEntity
  8
1
100
AcDbLine
 10
561.9029518807324
 20
1208.778408308641
 30
0.0
 11
1361.902951880733
 21
1208.778408308641
 31
0.0
  0
LINE
  5
8083
330
19
100
AcDbEntity
  8
4
100
AcDbLine
 10
2775.0
 20
750.0
 30
0.0
 11
2775.0
 21
450.0
 31
0.0
  0
LINE
  5
8084
330
19
100
AcDbEntity
  8
4
100
AcDbLine
 10
1725.0
 20
750.0
 30
0.0
 11
1725.0
 21
450.0
 31
0.0
  0
LINE
  5
8085
330
19
100
AcDbEntity
  8
4
100
AcDbLine
 10
975.0
 20
750.0
 30
0.0
 11
975.0
 21
450.0
 31
0.0
  0
LINE
  5
8088
330
19
100
AcDbEntity
  8
4
100
AcDbLine
 10
975.0
 20
450.0
 30
0.0
 11
2775.0
 21
450.0
 31
0.0
  0
LINE
  5
8089
330
19
100
AcDbEntity
  8
4
100
AcDbLine
 10
975.0
 20
600.0
 30
0.0
 11
2775.0
 21
600.0
 31
0.0
  0
TEXT
  5
808A
330
19
100
AcDbEntity
  8
4
100
AcDbText
 10
1032.753121270352
 20
647.3145387999193
 30
0.0
 40
75.0
  1
機器名称
100
AcDbText
  0
TEXT
  5
808B
330
19
100
AcDbEntity
  8
4
100
AcDbText
 10
1029.387159037196
 20
482.4677350980164
 30
0.0
 40
75.0
  1
機器型番
100
AcDbText
  0
TEXT
  5
808C
330
19
100
AcDbEntity
  8
4
100
AcDbText
 10
1733.811510132951
 20
634.0913930483091
 30
0.0
 40
67.5
  1
ミツヤ多翼送風機
100
AcDbText
  0
TEXT
  5
808D
330
19
100
AcDbEntity
  8
4
100
AcDbText
 10
1779.981743378221
 20
475.739376419915
 30
0.0
 40
75.0
  1
MF#2-1
100
AcDbText
  0
TEXT
  5
808F
330
19
100
AcDbEntity
  8
4
100
AcDbText
 10
1122.000583055938
 20
3575.143261998774
 30
0.0
 40
80.99999999999999
  1
床置防振ベット
100
AcDbText
  0
TEXT
  5
8090
330
19
100
AcDbEntity
  8
4
100
AcDbText
 10
474.2513899941696
 20
3800.821464298947
 30
0.0
 40
108.0
  1
遠心式片吸込片持多翼ファン
100
AcDbText
  0
LINE
  5
8091
330
19
100
AcDbEntity
  8
4
100
AcDbLine
 10
375.0
 20
3704.113131397207
 30
0.0
 11
2775.0
 21
3704.113131397207
 31
0.0
  0
LINE
  5
8092
330
19
100
AcDbEntity
  8
4
100
AcDbLine
 10
375.0
 20
4004.113131397207
 30
0.0
 11
2775.0
 21
4004.113131397207
 31
0.0
  0
LINE
  5
8093
330
19
100
AcDbEntity
  8
4
100
AcDbLine
 10
975.0
 20
750.0
 30
0.0
 11
2775.0
 21
750.0
 31
0.0
  0
LINE
  5
8094
330
19
100
AcDbEntity
  8
4
100
AcDbLine
 10
375.0
 20
4004.113131397207
 30
0.0
 11
375.0
 21
3704.113131397207
 31
0.0
  0
TEXT
  5
8095
330
19
100
AcDbEntity
  8
4
100
AcDbText
 10
468.2123346918851
 20
3573.479216319515
 30
0.0
 40
80.99999999999999
  1
右回転右横向
100
AcDbText
  0
TEXT
  5
8096
330
19
100
AcDbEntity
  8
4
100
AcDbText
 10
2203.454338873935
 20
4059.091622242963
 30
0.0
 40
84.00000000000002
  1
No.
100
AcDbText
  0
TEXT
  5
8097
330
19
100
AcDbEntity
  8
4
100
AcDbText
 10
1966.94409390002
 20
3575.143261998774
 30
0.0
 40
80.99999999999999
  1
縮尺：1/15
100
AcDbText
  0
LINE
  5
8098
330
19
100
AcDbEntity
  8
4
100
AcDbLine
 10
2775.0
 20
4004.113131397207
 30
0.0
 11
2775.0
 21
3704.113131397207
 31
0.0
  0
LINE
  5
8099
330
19
100
AcDbEntity
  8
4
100
AcDbLine
 10
3150.0
 20
4425.0
 30
0.0
 11
3150.0
 21
4425.0
 31
0.0
  0
LINE
  5
809A
330
19
100
AcDbEntity
  8
4
100
AcDbLine
 10
2160.926133539797
 20
4021.895374688102
 30
0.0
 11
2160.926133539797
 21
4179.978392324628
 31
0.0
  0
LINE
  5
809B
330
19
100
AcDbEntity
  8
4
100
AcDbLine
 10
2160.926133539797
 20
4179.978392324628
 30
0.0
 11
2775.0
 21
4179.978392324628
 31
0.0
  0
LINE
  5
809C
330
19
100
AcDbEntity
  8
4
100
AcDbLine
 10
2775.0
 20
4179.978392324628
 30
0.0
 11
2775.0
 21
4021.895374688102
 31
0.0
  0
LINE
  5
809D
330
19
100
AcDbEntity
  8
4
100
AcDbLine
 10
2775.0
 20
4021.895374688102
 30
0.0
 11
2160.926133539797
 21
4021.895374688102
 31
0.0
  0
LINE
  5
809E
330
19
100
AcDbEntity
  8
4
100
AcDbLine
 10
0.0
 20
0.0
 30
0.0
 11
0.0
 21
4425.0
 31
0.0
  0
LINE
  5
809F
330
19
100
AcDbEntity
  8
4
100
AcDbLine
 10
0.0
 20
4425.0
 30
0.0
 11
3150.0
 21
4425.0
 31
0.0
  0
LINE
  5
80A0
330
19
100
AcDbEntity
  8
4
100
AcDbLine
 10
3150.0
 20
4425.0
 30
0.0
 11
3150.0
 21
0.0
 31
0.0
  0
LINE
  5
80A1
330
19
100
AcDbEntity
  8
4
100
AcDbLine
 10
3150.0
 20
0.0
 30
0.0
 11
0.0
 21
0.0
 31
0.0
  0
LINE
  5
90BD
330
19
100
AcDbEntity
  8
1
100
AcDbLine
 10
1426.902951880732
 20
1552.278408308639
 30
0.0
 11
1426.902951880732
 21
1877.27840830864
 31
0.0
  0
LINE
  5
90BE
330
19
100
AcDbEntity
  8
1
100
AcDbLine
 10
561.9029518807315
 20
1038.778408308641
 30
0.0
 11
1361.902951880732
 21
1038.77840830864
 31
0.0
  0
LINE
  5
90BF
330
19
100
AcDbEntity
  8
1
100
AcDbLine
 10
561.9029518807315
 20
1113.778408308641
 30
0.0
 11
1361.902951880732
 21
1113.77840830864
 31
0.0
  0
DIMENSION
  5
90C1
330
19
100
AcDbEntity
  8
3
100
AcDbDimension
  2
*D3
 10
1181.902951880732
 20
942.4641630317568
 30
0.0
 11
871.9029518807319
 21
979.9641630317568
 31
0.0
 70
    32
 71
     5
 42
620.0000000000009
  3
IGA
100
AcDbAlignedDimension
 13
561.9029518807315
 23
1038.778408308641
 33
0.0
 14
1181.902951880732
 24
1013.276579037829
 34
0.0
 50
180.0
100
AcDbRotatedDimension
1001
ACAD
1000
DSTYLE
1002
{
1070
    40
1040
15.0
1070
   143
1040
0.039
1070
   172
1070
     1
1070
   271
1070
     0
1070
   279
1070
     0
1070
   288
1070
     1
1002
}
  0
DIMENSION
  5
90C2
330
19
100
AcDbEntity
  8
3
100
AcDbDimension
  2
*D4
 10
908.3380710000506
 20
2007.031434373935
 30
0.0
 11
1045.120511440391
 21
2044.531434373935
 31
0.0
 70
    32
 71
     5
 42
273.5648808806818
  3
IGA
100
AcDbAlignedDimension
 13
1181.902951880732
 23
1907.862795425264
 33
0.0
 14
908.3380710000506
 24
1547.77840830864
 34
0.0
 50
180.0
100
AcDbRotatedDimension
1001
ACAD
1000
DSTYLE
1002
{
1070
    40
1040
15.0
1070
   143
1040
0.039
1070
   172
1070
     1
1070
   271
1070
     0
1070
   279
1070
     0
1070
   288
1070
     1
1002
}
  0
LINE
  5
90C3
330
19
100
AcDbEntity
  8
2
100
AcDbLine
 10
1181.902951880732
 20
1907.594092317705
 30
0.0
 11
1181.902951880732
 21
1013.276579037829
 31
0.0
  0
DIMENSION
  5
90C4
330
19
100
AcDbEntity
  8
3
100
AcDbDimension
  2
*D5
 10
1639.50731891713
 20
1208.77840830864
 30
0.0
 11
1602.00731891713
 21
1366.27840830864
 31
0.0
 70
    32
 71
     5
 42
314.9999999999998
  3
IGA
100
AcDbAlignedDimension
 13
1438.363078231218
 23
1523.77840830864
 33
0.0
 14
1361.902951880732
 24
1208.77840830864
 34
0.0
 50
270.0
100
AcDbRotatedDimension
1001
ACAD
1000
DSTYLE
1002
{
1070
    40
1040
15.0
1070
   143
1040
0.039
1070
   172
1070
     1
1070
   271
1070
     0
1070
   279
1070
     0
1070
   288
1070
     1
1002
}
  0
DIMENSION
  5
90C5
330
19
100
AcDbEntity
  8
3
100
AcDbDimension
  2
*D6
 10
1639.50731891713
 20
1038.77840830864
 30
0.0
 11
1602.00731891713
 21
927.3498368800687
 31
0.0
 70
    32
 71
     5
 42
75.0
  3
IGA
100
AcDbAlignedDimension
 13
1361.902951880731
 23
1113.77840830864
 33
0.0
 14
1361.902951880731
 24
1038.77840830864
 34
0.0
 50
270.0
100
AcDbRotatedDimension
1001
ACAD
1000
DSTYLE
1002
{
1070
    40
1040
15.0
1070
   143
1040
0.039
1070
   172
1070
     1
1070
   271
1070
     0
1070
   279
1070
     0
1070
   288
1070
     1
1070
   343
1005
814F
1002
}
  0
LINE
  5
90C6
330
19
100
AcDbEntity
  8
1
100
AcDbLine
 10
1361.902951880731
 20
1113.77840830864
 30
0.0
 11
1361.902951880731
 21
1038.77840830864
 31
0.0
  0
DIMENSION
  5
90C7
330
19
100
AcDbEntity
  8
3
100
AcDbDimension
  2
*D7
 10
1181.902951880732
 20
2007.031434373935
 30
0.0
 11
1304.402951880732
 21
2044.531434373935
 31
0.0
 70
    32
 71
     5
 42
245.0
  3
IGA
100
AcDbAlignedDimension
 13
1426.902951880732
 23
1901.389577983684
 33
0.0
 14
1181.902951880732
 24
1907.862795425264
 34
0.0
 50
180.0
100
AcDbRotatedDimension
1001
ACAD
1000
DSTYLE
1002
{
1070
    40
1040
15.0
1070
   143
1040
0.039
1070
   172
1070
     1
1070
   271
1070
     0
1070
   279
1070
     0
1070
   288
1070
     1
1002
}
  0
DIMENSION
  5
90C8
330
19
100
AcDbEntity
  8
3
100
AcDbDimension
  2
*D8
 10
1639.50731891713
 20
1523.778408308639
 30
0.0
 11
1602.00731891713
 21
1699.27840830864
 31
0.0
 70
    32
 71
     5
 42
351.0
  3
IGA
100
AcDbAlignedDimension
 13
1426.902951880732
 23
1874.77840830864
 33
0.0
 14
1438.363078231218
 24
1523.77840830864
 34
0.0
 50
270.0
100
AcDbRotatedDimension
1001
ACAD
1000
DSTYLE
1002
{
1070
    40
1040
15.0
1070
   143
1040
0.039
1070
   172
1070
     1
1070
   271
1070
     0
1070
   279
1070
     0
1070
   288
1070
     1
1002
}
  0
DIMENSION
  5
90C9
330
19
100
AcDbEntity
  8
3
100
AcDbDimension
  2
*D9
 10
1538.997788784843
 20
1549.77840830864
 30
0.0
 11
1501.497788784843
 21
1712.27840830864
 31
0.0
 70
    32
 71
     5
 42
325.0
  3
IGA
100
AcDbAlignedDimension
 13
1426.902951880732
 23
1874.77840830864
 33
0.0
 14
1426.902951880732
 24
1549.77840830864
 34
0.0
 50
270.0
100
AcDbRotatedDimension
1001
ACAD
1000
DSTYLE
1002
{
1070
    40
1040
15.0
1070
   143
1040
0.039
1070
   172
1070
     1
1070
   271
1070
     0
1070
   279
1070
     0
1070
   288
1070
     1
1002
}
  0
LINE
  5
90CA
330
19
100
AcDbEntity
  8
1
100
AcDbLine
 10
561.9029518807315
 20
1113.778408308641
 30
0.0
 11
561.9029518807315
 21
1038.778408308641
 31
0.0
  0
DIMENSION
  5
90CB
330
19
100
AcDbEntity
  8
3
100
AcDbDimension
  2
*D10
 10
561.9029518807324
 20
2098.648472065769
 30
0.0
 11
994.4029518807324
 21
2136.148472065769
 31
0.0
 70
    32
 71
     5
 42
865.0
  3
IGA
100
AcDbAlignedDimension
 13
1426.902951880732
 23
1901.389577983684
 33
0.0
 14
561.9029518807324
 24
1283.778408308641
 34
0.0
 50
180.0
100
AcDbRotatedDimension
1001
ACAD
1000
DSTYLE
1002
{
1070
    40
1040
15.0
1070
   143
1040
0.039
1070
   172
1070
     1
1070
   271
1070
     0
1070
   288
1070
     1
1002
}
  0
DIMENSION
  5
90CC
330
19
100
AcDbEntity
  8
3
100
AcDbDimension
  2
*D11
 10
1639.50731891713
 20
1113.77840830864
 30
0.0
 11
1698.236873404306
 21
1146.27840830864
 31
0.0
 70
   160
  1
(<>)
 71
     5
 42
95.0
  3
IGA
100
AcDbAlignedDimension
 13
1361.902951880732
 23
1208.77840830864
 33
0.0
 14
1361.902951880731
 24
1113.77840830864
 34
0.0
 50
90.0
100
AcDbRotatedDimension
1001
ACAD
1000
DSTYLE
1002
{
1070
    40
1040
15.0
1070
    75
1070
     1
1070
   143
1040
0.039
1070
   172
1070
     1
1070
   271
1070
     0
1070
   288
1070
     1
1070
   343
1005
7A11
1070
   344
1005
896B
1002
}
  0
DIMENSION
  5
90CD
330
19
100
AcDbEntity
  8
3
100
AcDbDimension
  2
*D12
 10
1181.902951880732
 20
942.4641630317568
 30
0.0
 11
1271.902951880732
 21
979.9641630317568
 31
0.0
 70
    32
 71
     5
 42
179.9999999999991
  3
IGA
100
AcDbAlignedDimension
 13
1361.902951880731
 23
1038.77840830864
 33
0.0
 14
1181.902951880732
 24
1013.276579037829
 34
0.0
 50
180.0
100
AcDbRotatedDimension
1001
ACAD
1000
DSTYLE
1002
{
1070
    40
1040
15.0
1070
   143
1040
0.039
1070
   172
1070
     1
1070
   271
1070
     0
1070
   288
1070
     1
1002
}
  0
LINE
  5
90D0
330
19
100
AcDbEntity
  8
2
100
AcDbLine
 10
701.9029518807323
 20
1253.10426803148
 30
0.0
 11
701.9029518807323
 21
1575.124081349092
 31
0.0
  0
ARC
  5
90D1
330
19
100
AcDbEntity
  8
1
100
AcDbCircle
 10
1163.402951880732
 20
1505.278408308642
 30
0.0
 40
207.5
100
AcDbArc
 50
275.1150902994889
 51
0.0
  0
ARC
  5
90D3
330
19
100
AcDbEntity
  8
1
100
AcDbCircle
 10
1157.902951880732
 20
1547.77840830864
 30
0.0
 40
250.0
100
AcDbArc
 50
180.0
 51
275.5088786711771
  0
CIRCLE
  5
90D4
330
19
100
AcDbEntity
  8
1
100
AcDbCircle
 10
701.9029518807323
 20
1423.77840830864
 30
0.0
 40
90.0
  0
ARC
  5
90D5
330
19
100
AcDbEntity
  8
1
100
AcDbCircle
 10
701.9029518807323
 20
1423.77840830864
 30
0.0
 40
101.0
100
AcDbArc
 50
293.7728167999808
 51
246.2271832000191
  0
LINE
  5
90D6
330
19
100
AcDbEntity
  8
1
100
AcDbLine
 10
727.2089936544339
 20
1337.409407794871
 30
0.0
 11
1196.243042219164
 21
1474.835974684168
 31
0.0
  0
LINE
  5
90D7
330
19
100
AcDbEntity
  8
1
100
AcDbLine
 10
561.9029518807324
 20
1283.778408308641
 30
0.0
 11
1361.902951880732
 21
1283.77840830864
 31
0.0
  0
LINE
  5
90D8
330
19
100
AcDbEntity
  8
1
100
AcDbLine
 10
561.9029518807324
 20
1283.778408308641
 30
0.0
 11
561.9029518807324
 21
1208.778408308641
 31
0.0
  0
LINE
  5
90D9
330
19
100
AcDbEntity
  8
1
100
AcDbLine
 10
801.9029518807323
 20
1323.778408308642
 30
0.0
 11
761.9029518807324
 21
1323.778408308642
 31
0.0
  0
LINE
  5
90DA
330
19
100
AcDbEntity
  8
1
100
AcDbLine
 10
789.9029518807324
 20
1323.778408308642
 30
0.0
 11
761.9029518807324
 21
1323.778408308642
 31
0.0
  0
LINE
  5
90DB
330
19
100
AcDbEntity
  8
2
100
AcDbLine
 10
536.6286968345043
 20
1423.778408308641
 30
0.0
 11
830.2029518807316
 21
1423.77840830864
 31
0.0
  0
LWPOLYLINE
  5
90DC
330
19
100
AcDbEntity
  8
1
100
AcDbPolyline
 90
        4
 70
     1
 43
0.0
 10
566.9029518807324
 20
1283.778408308641
 10
836.9029518807323
 20
1283.77840830864
 10
826.9029518807323
 20
1323.778408308642
 10
576.9029518807323
 20
1323.778408308643
  0
LINE
  5
90DD
330
19
100
AcDbEntity
  8
1
100
AcDbLine
 10
601.9029518807323
 20
1323.778408308643
 30
0.0
 11
601.9029518807323
 21
1335.778408308641
 31
0.0
  0
LINE
  5
90DE
330
19
100
AcDbEntity
  8
1
100
AcDbLine
 10
601.9029518807323
 20
1335.778408308641
 30
0.0
 11
621.3684433788834
 21
1362.826025743506
 31
0.0
  0
LINE
  5
90DF
330
19
100
AcDbEntity
  8
1
100
AcDbLine
 10
601.9029518807323
 20
1323.778408308643
 30
0.0
 11
641.9029518807324
 21
1323.778408308642
 31
0.0
  0
LINE
  5
90E0
330
19
100
AcDbEntity
  8
1
100
AcDbLine
 10
661.1887246365236
 20
1331.348155144931
 30
0.0
 11
742.6171791249339
 21
1331.348155144931
 31
0.0
  0
LINE
  5
90E1
330
19
100
AcDbEntity
  8
1
100
AcDbLine
 10
801.9029518807323
 20
1323.778408308642
 30
0.0
 11
801.9029518807323
 21
1335.77840830864
 31
0.0
  0
LINE
  5
90E2
330
19
100
AcDbEntity
  8
1
100
AcDbLine
 10
801.9029518807323
 20
1335.77840830864
 30
0.0
 11
782.4374603825722
 21
1362.826025743506
 31
0.0
  0
LINE
  5
90E3
330
19
100
AcDbEntity
  8
1
100
AcDbLine
 10
1361.902951880732
 20
1283.77840830864
 30
0.0
 11
1361.902951880732
 21
1208.77840830864
 31
0.0
  0
POINT
  5
90E4
330
19
100
AcDbEntity
  8
1
100
AcDbPoint
 10
1361.902951880732
 20
1208.77840830864
 30
0.0
 50
180.0
  0
POINT
  5
90E5
330
19
100
AcDbEntity
  8
1
100
AcDbPoint
 10
1361.902951880732
 20
1208.77840830864
 30
0.0
 50
180.0
  0
ARC
  5
90E7
330
19
100
AcDbEntity
  8
1
100
AcDbCircle
 10
1205.902951880732
 20
1547.77840830864
 30
0.0
 40
298.0
100
AcDbArc
 50
97.64947833851509
 51
180.0
  0
LINE
  5
90E8
330
19
100
AcDbEntity
  8
2
100
AcDbLine
 10
880.7054730575941
 20
1523.77840830864
 30
0.0
 11
1382.494232664756
 21
1523.77840830864
 31
0.0
  0
LINE
  5
90E9
330
19
100
AcDbEntity
  8
1
100
AcDbLine
 10
690.6135490421324
 20
1513.067541933891
 30
0.0
 11
1175.505623605524
 21
1574.375584029617
 31
0.0
  0
LINE
  5
90EA
330
19
100
AcDbEntity
  8
1
100
AcDbLine
 10
1401.902951880732
 20
1874.77840830864
 30
0.0
 11
1166.235482057134
 21
1843.126494196791
 31
0.0
  0
LINE
  5
90EB
330
19
100
AcDbEntity
  8
1
100
AcDbLine
 10
1331.902951880725
 20
1470.178408308641
 30
0.0
 11
1031.902951880725
 21
1470.178408308641
 31
0.0
  0
CIRCLE
  5
90EC
330
19
100
AcDbEntity
  8
1
100
AcDbCircle
 10
1181.902951880732
 20
1523.77840830864
 30
0.0
 40
51.0
  0
LINE
  5
90ED
330
19
100
AcDbEntity
  8
1
100
AcDbLine
 10
1426.902951880732
 20
1549.77840830864
 30
0.0
 11
1364.993352572873
 21
1549.77840830864
 31
0.0
  0
ARC
  5
90EE
330
19
100
AcDbEntity
  8
1
100
AcDbCircle
 10
1200.402951880732
 20
1505.278408308642
 30
0.0
 40
170.5
100
AcDbArc
 50
0.0
 51
15.12923281697574
  0
DIMENSION
  5
90EF
330
19
100
AcDbEntity
  8
3
100
AcDbDimension
  2
*D13
 10
1775.204683248239
 20
1038.77840830864
 30
0.0
 11
1775.204683248239
 21
1495.255323619868
 31
0.0
 70
   160
  1
864
 71
     5
 42
863.4999999999998
  3
IGA
100
AcDbAlignedDimension
 13
1432.23775180338
 23
1902.27840830864
 33
0.0
 14
1361.902951880731
 24
1038.77840830864
 34
0.0
 50
90.0
100
AcDbRotatedDimension
1001
ACAD
1000
DSTYLE
1002
{
1070
    40
1040
15.0
1070
   143
1040
0.039
1070
   172
1070
     1
1070
   271
1070
     0
1070
   279
1070
     0
1070
   288
1070
     1
1002
}
  0
LINE
  5
90F0
330
19
100
AcDbEntity
  8
1
100
AcDbLine
 10
1401.902951880732
 20
1877.27840830864
 30
0.0
 11
1426.902951880732
 21
1877.27840830864
 31
0.0
  0
LINE
  5
90F1
330
19
100
AcDbEntity
  8
1
100
AcDbLine
 10
1419.902951880732
 20
1880.27840830864
 30
0.0
 11
1403.902951880732
 21
1880.27840830864
 31
0.0
  0
LINE
  5
90F2
330
19
100
AcDbEntity
  8
1
100
AcDbLine
 10
1419.902951880732
 20
1549.278408308639
 30
0.0
 11
1403.902951880732
 21
1549.278408308639
 31
0.0
  0
LINE
  5
90F3
330
19
100
AcDbEntity
  8
1
100
AcDbLine
 10
1423.902951880732
 20
1552.278408308639
 30
0.0
 11
1423.902951880732
 21
1877.27840830864
 31
0.0
  0
LINE
  5
90F4
330
19
100
AcDbEntity
  8
1
100
AcDbLine
 10
1426.902951880732
 20
1552.278408308639
 30
0.0
 11
1426.902951880732
 21
1527.278408308639
 31
0.0
  0
LINE
  5
90F5
330
19
100
AcDbEntity
  8
1
100
AcDbLine
 10
1423.902951880732
 20
1529.278408308639
 30
0.0
 11
1423.902951880732
 21
1545.278408308639
 31
0.0
  0
ARC
  5
90F6
330
19
100
AcDbEntity
  8
1
100
AcDbCircle
 10
1425.902951880732
 20
1529.278408308639
 30
0.0
 40
2.0
100
AcDbArc
 50
180.0
 51
270.0
  0
LINE
  5
90F7
330
19
100
AcDbEntity
  8
1
100
AcDbLine
 10
1426.902951880732
 20
1527.278408308639
 30
0.0
 11
1425.902951880732
 21
1527.278408308639
 31
0.0
  0
ARC
  5
90F8
330
19
100
AcDbEntity
  8
1
100
AcDbCircle
 10
1419.902951880732
 20
1545.278408308639
 30
0.0
 40
4.0
100
AcDbArc
 50
0.0
 51
90.0
  0
LINE
  5
90F9
330
19
100
AcDbEntity
  8
1
100
AcDbLine
 10
1426.902951880732
 20
1877.27840830864
 30
0.0
 11
1426.902951880732
 21
1902.27840830864
 31
0.0
  0
LINE
  5
90FA
330
19
100
AcDbEntity
  8
1
100
AcDbLine
 10
1423.902951880732
 20
1900.27840830864
 30
0.0
 11
1423.902951880732
 21
1884.27840830864
 31
0.0
  0
ARC
  5
90FB
330
19
100
AcDbEntity
  8
1
100
AcDbCircle
 10
1419.902951880732
 20
1884.27840830864
 30
0.0
 40
4.0
100
AcDbArc
 50
270.0
 51
0.0
  0
LINE
  5
90FC
330
19
100
AcDbEntity
  8
1
100
AcDbLine
 10
1426.902951880732
 20
1877.278408308639
 30
0.0
 11
1419.272640206434
 21
1877.278408308639
 31
0.0
  0
LINE
  5
90FD
330
19
100
AcDbEntity
  8
1
100
AcDbLine
 10
1426.902951880732
 20
1902.27840830864
 30
0.0
 11
1425.902951880732
 21
1902.27840830864
 31
0.0
  0
ARC
  5
90FE
330
19
100
AcDbEntity
  8
1
100
AcDbCircle
 10
1425.902951880732
 20
1900.27840830864
 30
0.0
 40
2.0
100
AcDbArc
 50
90.0
 51
180.0
  0
LINE
  5
90FF
330
19
100
AcDbEntity
  8
1
100
AcDbLine
 10
1401.902951880732
 20
1877.27840830864
 30
0.0
 11
1401.902951880732
 21
1552.278408308639
 31
0.0
  0
LINE
  5
9100
330
19
100
AcDbEntity
  8
1
100
AcDbLine
 10
1401.902951880732
 20
1551.278408308639
 30
0.0
 11
1401.902951880732
 21
1552.278408308639
 31
0.0
  0
ARC
  5
9101
330
19
100
AcDbEntity
  8
1
100
AcDbCircle
 10
1403.902951880732
 20
1551.278408308639
 30
0.0
 40
2.0
100
AcDbArc
 50
180.0
 51
270.0
  0
LINE
  5
9102
330
19
100
AcDbEntity
  8
1
100
AcDbLine
 10
1401.902951880733
 20
1873.708054960126
 30
0.0
 11
1401.902951880733
 21
1872.708054960126
 31
0.0
  0
LINE
  5
9103
330
19
100
AcDbEntity
  8
1
100
AcDbLine
 10
1401.902951880732
 20
1878.27840830864
 30
0.0
 11
1401.902951880732
 21
1877.27840830864
 31
0.0
  0
ARC
  5
9104
330
19
100
AcDbEntity
  8
1
100
AcDbCircle
 10
1403.902951880732
 20
1878.27840830864
 30
0.0
 40
2.0
100
AcDbArc
 50
90.0
 51
180.0
  0
DIMENSION
  5
9702
330
19
100
AcDbEntity
  8
3
100
AcDbDimension
  2
*D14
 10
1934.442618391042
 20
2107.176483587797
 30
0.0
 11
2288.442618391042
 21
2182.176483587797
 31
0.0
 70
    32
  1
MAX\P760
 71
     5
 42
708.0
  3
IGA
100
AcDbAlignedDimension
 13
2642.442618391042
 23
2078.760350178944
 33
0.0
 14
1934.442618391042
 24
1623.77840830864
 34
0.0
100
AcDbRotatedDimension
1001
ACAD
1000
DSTYLE
1002
{
1070
    40
1040
15.0
1070
   143
1040
0.039
1070
   172
1070
     1
1070
   271
1070
     0
1070
   279
1070
     0
1070
   288
1070
     1
1002
}
  0
DIMENSION
  5
9703
330
19
100
AcDbEntity
  8
3
100
AcDbDimension
  2
*D15
 10
2642.442618391042
 20
938.0303455279017
 30
0.0
 11
2334.942618391042
 21
975.5303455279017
 31
0.0
 70
    32
 71
     5
 42
615.0
  3
IGA
100
AcDbAlignedDimension
 13
2027.442618391042
 23
1038.77840830864
 33
0.0
 14
2642.442618391042
 24
1013.27657903783
 34
0.0
100
AcDbRotatedDimension
1001
ACAD
1000
DSTYLE
1002
{
1070
    40
1040
15.0
1070
   143
1040
0.039
1070
   172
1070
     1
1070
   271
1070
     0
1070
   279
1070
     0
1070
   288
1070
     1
1002
}
  0
LINE
  5
9704
330
19
100
AcDbEntity
  8
1
100
AcDbLine
 10
2027.442618391042
 20
1283.77840830864
 30
0.0
 11
2807.442618391041
 21
1283.77840830864
 31
0.0
  0
LINE
  5
9708
330
19
100
AcDbEntity
  8
1
100
AcDbLine
 10
2807.442618391041
 20
1038.778408308641
 30
0.0
 11
2027.442618391042
 21
1038.77840830864
 31
0.0
  0
LINE
  5
9709
330
19
100
AcDbEntity
  8
1
100
AcDbLine
 10
2807.442618391041
 20
1113.77840830864
 30
0.0
 11
2027.442618391042
 21
1113.77840830864
 31
0.0
  0
LINE
  5
970A
330
19
100
AcDbEntity
  8
2
100
AcDbLine
 10
2824.547841032378
 20
1523.778408308641
 30
0.0
 11
1946.849666051403
 21
1523.778408308641
 31
0.0
  0
LINE
  5
9714
330
19
100
AcDbEntity
  8
1
100
AcDbLine
 10
2027.442618391042
 20
1283.77840830864
 30
0.0
 11
2027.442618391042
 21
1208.77840830864
 31
0.0
  0
LINE
  5
9715
330
19
100
AcDbEntity
  8
1
100
AcDbLine
 10
2027.442618391042
 20
1113.77840830864
 30
0.0
 11
2027.442618391042
 21
1038.77840830864
 31
0.0
  0
DIMENSION
  5
972F
330
19
100
AcDbEntity
  8
3
100
AcDbDimension
  2
*D16
 10
2915.62258993353
 20
1366.278408308641
 30
0.0
 11
2878.122589933529
 21
1523.778408308641
 31
0.0
 70
    32
 71
     5
 42
315.0
  3
IGA
100
AcDbAlignedDimension
 13
2788.442618391042
 23
1681.278408308641
 33
0.0
 14
2788.442618391042
 24
1366.278408308641
 34
0.0
 50
90.0
100
AcDbRotatedDimension
1001
ACAD
1000
DSTYLE
1002
{
1070
     3
1000
\U+03C6<>
1070
    40
1040
15.0
1070
   143
1040
0.039
1070
   172
1070
     1
1070
   271
1070
     0
1070
   279
1070
     0
1070
   288
1070
     1
1002
}
  0
LINE
  5
9730
330
19
100
AcDbEntity
  8
1
100
AcDbLine
 10
2760.442618391042
 20
1521.389577983685
 30
0.0
 11
2760.442618391042
 21
1283.77840830864
 31
0.0
  0
LINE
  5
9732
330
19
100
AcDbEntity
  8
1
100
AcDbLine
 10
2766.442618391042
 20
1521.389577983685
 30
0.0
 11
2766.442618391042
 21
1359.278408308641
 31
0.0
  0
LINE
  5
9733
330
19
100
AcDbEntity
  8
1
100
AcDbLine
 10
2763.442618391042
 20
1341.278408308641
 30
0.0
 11
2763.442618391042
 21
1521.389577983685
 31
0.0
  0
LINE
  5
9734
330
19
100
AcDbEntity
  8
1
100
AcDbLine
 10
2788.442618391042
 20
1366.278408308641
 30
0.0
 11
2788.442618391042
 21
1682.278435072866
 31
0.0
  0
LINE
  5
9735
330
19
100
AcDbEntity
  8
2
100
AcDbLine
 10
2642.442618391042
 20
2018.363940544928
 30
0.0
 11
2642.442618391042
 21
1013.27657903783
 31
0.0
  0
DIMENSION
  5
9736
330
19
100
AcDbEntity
  8
3
100
AcDbDimension
  2
*D17
 10
2807.442618391041
 20
938.0303455279017
 30
0.0
 11
2724.942618391042
 21
975.5303455279017
 31
0.0
 70
    32
 71
     5
 42
164.9999999999991
  3
IGA
100
AcDbAlignedDimension
 13
2642.442618391042
 23
1013.27657903783
 33
0.0
 14
2807.442618391041
 24
1038.778408308641
 34
0.0
100
AcDbRotatedDimension
1001
ACAD
1000
DSTYLE
1002
{
1070
    40
1040
15.0
1070
   143
1040
0.039
1070
   172
1070
     1
1070
   271
1070
     0
1070
   288
1070
     1
1002
}
  0
LINE
  5
9737
330
19
100
AcDbEntity
  8
1
100
AcDbLine
 10
2807.442618391041
 20
1283.77840830864
 30
0.0
 11
2807.442618391041
 21
1208.77840830864
 31
0.0
  0
LINE
  5
9738
330
19
100
AcDbEntity
  8
1
100
AcDbLine
 10
2807.442618391041
 20
1113.77840830864
 30
0.0
 11
2807.442618391041
 21
1038.77840830864
 31
0.0
  0
ARC
  5
9742
330
19
100
AcDbEntity
  8
1
100
AcDbCircle
 10
2764.442618391042
 20
1343.278408308641
 30
0.0
 40
2.0
100
AcDbArc
 50
270.0
 51
0.0
  0
ARC
  5
9743
330
19
100
AcDbEntity
  8
1
100
AcDbCircle
 10
2770.442618391042
 20
1359.278408308641
 30
0.0
 40
4.0
100
AcDbArc
 50
90.0
 51
180.0
  0
LINE
  5
9744
330
19
100
AcDbEntity
  8
1
100
AcDbLine
 10
2764.442618391042
 20
1341.278408308641
 30
0.0
 11
2763.442618391042
 21
1341.278408308641
 31
0.0
  0
LINE
  5
9745
330
19
100
AcDbEntity
  8
1
100
AcDbLine
 10
2766.442618391042
 20
1359.278408308641
 30
0.0
 11
2766.442618391042
 21
1343.278408308641
 31
0.0
  0
LINE
  5
9746
330
19
100
AcDbEntity
  8
1
100
AcDbLine
 10
2786.442618391042
 20
1363.278408308641
 30
0.0
 11
2770.442618391042
 21
1363.278408308641
 31
0.0
  0
ARC
  5
9747
330
19
100
AcDbEntity
  8
1
100
AcDbCircle
 10
2786.442618391042
 20
1365.278408308641
 30
0.0
 40
2.0
100
AcDbArc
 50
270.0
 51
0.0
  0
LINE
  5
9748
330
19
100
AcDbEntity
  8
1
100
AcDbLine
 10
2788.442618391042
 20
1366.278408308641
 30
0.0
 11
2788.442618391042
 21
1365.278408308641
 31
0.0
  0
DIMENSION
  5
9749
330
19
100
AcDbEntity
  8
3
100
AcDbDimension
  2
*D18
 10
2763.442618391042
 20
2107.176483587797
 30
0.0
 11
2702.942618391042
 21
2149.878488633671
 31
0.0
 70
   160
 71
     5
 42
121.0
  3
IGA
100
AcDbAlignedDimension
 13
2642.442618391042
 23
2078.760350178944
 33
0.0
 14
2763.442618391042
 24
1521.389577983685
 34
0.0
100
AcDbRotatedDimension
1001
ACAD
1000
DSTYLE
1002
{
1070
   288
1070
     1
1070
   172
1070
     1
1070
    40
1040
15.0
1070
   271
1070
     0
1070
   143
1040
0.039
1002
}
  0
DIMENSION
  5
974A
330
19
100
AcDbEntity
  8
3
100
AcDbDimension
  2
*D19
 10
2760.442618391042
 20
2006.941552098001
 30
0.0
 11
2642.442618391042
 21
2044.441552098001
 31
0.0
 70
    32
 71
     5
 42
236.0
  3
IGA
100
AcDbAlignedDimension
 13
2524.442618391042
 23
1876.389577983685
 33
0.0
 14
2760.442618391042
 24
1876.389577983685
 34
0.0
100
AcDbRotatedDimension
1001
ACAD
1000
DSTYLE
1002
{
1070
    40
1040
15.0
1070
   143
1040
0.039
1070
   172
1070
     1
1070
   271
1070
     0
1070
   279
1070
     0
1070
   288
1070
     1
1002
}
  0
LINE
  5
974B
330
19
100
AcDbEntity
  8
1
100
AcDbLine
 10
2524.442618391042
 20
1876.389577983685
 30
0.0
 11
2760.442618391042
 21
1546.389577983685
 31
0.0
  0
LINE
  5
974C
330
19
100
AcDbEntity
  8
1
100
AcDbLine
 10
2760.442618391042
 20
1876.389577983685
 30
0.0
 11
2524.442618391042
 21
1546.389577983685
 31
0.0
  0
LINE
  5
974D
330
19
100
AcDbEntity
  8
1
100
AcDbLine
 10
2524.442618391042
 20
1876.389577983685
 30
0.0
 11
2524.442618391042
 21
1546.389577983685
 31
0.0
  0
LINE
  5
974E
330
19
100
AcDbEntity
  8
1
100
AcDbLine
 10
2760.442618391042
 20
1876.389577983685
 30
0.0
 11
2760.442618391042
 21
1546.389577983685
 31
0.0
  0
LINE
  5
974F
330
19
100
AcDbEntity
  8
1
100
AcDbLine
 10
2787.442618391042
 20
1901.389577983685
 30
0.0
 11
2787.442618391042
 21
1521.389577983685
 31
0.0
  0
LINE
  5
9750
330
19
100
AcDbEntity
  8
1
100
AcDbLine
 10
2497.442618391042
 20
1901.389577983685
 30
0.0
 11
2497.442618391042
 21
1521.389577983685
 31
0.0
  0
LINE
  5
9751
330
19
100
AcDbEntity
  8
1
100
AcDbLine
 10
2524.442618391042
 20
1546.389577983684
 30
0.0
 11
2760.442618391042
 21
1546.389577983684
 31
0.0
  0
LINE
  5
9752
330
19
100
AcDbEntity
  8
1
100
AcDbLine
 10
2497.442618391042
 20
1521.389577983685
 30
0.0
 11
2787.442618391042
 21
1521.389577983685
 31
0.0
  0
LINE
  5
9753
330
19
100
AcDbEntity
  8
1
100
AcDbLine
 10
2788.442618391042
 20
1682.278435072866
 30
0.0
 11
2787.442618391042
 21
1682.278435072866
 31
0.0
  0
LINE
  5
9754
330
19
100
AcDbEntity
  8
1
100
AcDbLine
 10
2524.442618391042
 20
1876.389577983685
 30
0.0
 11
2760.442618391042
 21
1876.389577983685
 31
0.0
  0
LINE
  5
9755
330
19
100
AcDbEntity
  8
1
100
AcDbLine
 10
2497.442618391042
 20
1901.389577983685
 30
0.0
 11
2787.442618391042
 21
1901.389577983685
 31
0.0
  0
LINE
  5
97EF
330
19
100
AcDbEntity
  8
1
100
AcDbLine
 10
2024.442618391042
 20
1574.77840830864
 30
0.0
 11
2024.442618391042
 21
1333.77840830864
 31
0.0
  0
LINE
  5
97F0
330
19
100
AcDbEntity
  8
1
100
AcDbLine
 10
1974.442618391042
 20
1574.77840830864
 30
0.0
 11
1974.442618391042
 21
1333.77840830864
 31
0.0
  0
LINE
  5
97F2
330
19
100
AcDbEntity
  8
1
100
AcDbLine
 10
1934.442618391042
 20
1623.77840830864
 30
0.0
 11
1934.442618391042
 21
1283.77840830864
 31
0.0
  0
LINE
  5
97F3
330
19
100
AcDbEntity
  8
1
100
AcDbLine
 10
1974.442618391042
 20
1333.77840830864
 30
0.0
 11
2024.442618391042
 21
1333.77840830864
 31
0.0
  0
LINE
  5
97F4
330
19
100
AcDbEntity
  8
1
100
AcDbLine
 10
2027.442618391042
 20
1283.77840830864
 30
0.0
 11
2067.442618391042
 21
1283.77840830864
 31
0.0
  0
LINE
  5
97F5
330
19
100
AcDbEntity
  8
1
100
AcDbLine
 10
2056.442618391042
 20
1332.013969319328
 30
0.0
 11
2056.442618391042
 21
1283.77840830864
 31
0.0
  0
LINE
  5
97F6
330
19
100
AcDbEntity
  8
2
100
AcDbLine
 10
1917.881429928611
 20
1423.77840830864
 30
0.0
 11
2084.13303219927
 21
1423.77840830864
 31
0.0
  0
LINE
  5
97F7
330
19
100
AcDbEntity
  8
1
100
AcDbLine
 10
1934.442618391042
 20
1283.77840830864
 30
0.0
 11
2056.442618391042
 21
1283.77840830864
 31
0.0
  0
LINE
  5
97F8
330
19
100
AcDbEntity
  8
1
100
AcDbLine
 10
2524.442618391031
 20
1470.178408308641
 30
0.0
 11
2065.242618391041
 21
1470.178408308641
 31
0.0
  0
LINE
  5
97FA
330
19
100
AcDbEntity
  8
1
100
AcDbLine
 10
2524.442618391042
 20
1541.27840830864
 30
0.0
 11
2054.442618391042
 21
1541.27840830864
 31
0.0
  0
LINE
  5
97FB
330
19
100
AcDbEntity
  8
1
100
AcDbLine
 10
1974.442618391042
 20
1574.77840830864
 30
0.0
 11
2024.442618391042
 21
1574.77840830864
 31
0.0
  0
LINE
  5
97FC
330
19
100
AcDbEntity
  8
1
100
AcDbLine
 10
2056.442618391042
 20
1623.77840830864
 30
0.0
 11
2056.442618391042
 21
1578.944901928623
 31
0.0
  0
LINE
  5
97FD
330
19
100
AcDbEntity
  8
1
100
AcDbLine
 10
2054.442618391042
 20
1541.27840830864
 30
0.0
 11
2054.442618391042
 21
1506.27840830864
 31
0.0
  0
LINE
  5
97FE
330
19
100
AcDbEntity
  8
1
100
AcDbLine
 10
2054.442618391042
 20
1539.77840830864
 30
0.0
 11
2024.442618391042
 21
1539.77840830864
 31
0.0
  0
LINE
  5
97FF
330
19
100
AcDbEntity
  8
1
100
AcDbLine
 10
2054.442618391042
 20
1507.77840830864
 30
0.0
 11
2024.442618391042
 21
1507.77840830864
 31
0.0
  0
LINE
  5
9800
330
19
100
AcDbEntity
  8
1
100
AcDbLine
 10
1934.442618391042
 20
1623.77840830864
 30
0.0
 11
2056.442618391042
 21
1623.77840830864
 31
0.0
  0
LINE
  5
9801
330
19
100
AcDbEntity
  8
1
100
AcDbLine
 10
1974.442618391042
 20
1472.77840830864
 30
0.0
 11
2024.442618391042
 21
1472.77840830864
 31
0.0
  0
LINE
  5
9802
330
19
100
AcDbEntity
  8
1
100
AcDbLine
 10
1974.442618391042
 20
1513.067541933891
 30
0.0
 11
2024.442618391042
 21
1513.067541933891
 31
0.0
  0
LINE
  5
9803
330
19
100
AcDbEntity
  8
1
100
AcDbLine
 10
2365.442618391042
 20
1506.27840830864
 30
0.0
 11
2365.442618391042
 21
1470.178408308641
 31
0.0
  0
LINE
  5
9806
330
19
100
AcDbEntity
  8
1
100
AcDbLine
 10
2070.442618391042
 20
1470.178408308641
 30
0.0
 11
2070.442618391042
 21
1506.27840830864
 31
0.0
  0
LINE
  5
9807
330
19
100
AcDbEntity
  8
1
100
AcDbLine
 10
2064.442618391042
 20
1460.77840830864
 30
0.0
 11
2064.442618391042
 21
1386.77840830864
 31
0.0
  0
LINE
  5
9808
330
19
100
AcDbEntity
  8
1
100
AcDbLine
 10
2064.442618391042
 20
1438.378308308636
 30
0.0
 11
2059.442618391042
 21
1438.378308308636
 31
0.0
  0
LINE
  5
980A
330
19
100
AcDbEntity
  8
1
100
AcDbLine
 10
2064.442618391042
 20
1409.178408308634
 30
0.0
 11
2059.442618391042
 21
1409.178408308634
 31
0.0
  0
ARC
  5
980B
330
19
100
AcDbEntity
  8
1
100
AcDbCircle
 10
2067.442618391042
 20
1386.778308308637
 30
0.0
 40
2.999899999999998
100
AcDbArc
 50
179.9988000000876
 51
222.8313679088735
  0
LINE
  5
980C
330
19
100
AcDbEntity
  8
1
100
AcDbLine
 10
2059.442618391042
 20
1409.178408308634
 30
0.0
 11
2059.442618391042
 21
1438.378308308636
 31
0.0
  0
ARC
  5
980E
330
19
100
AcDbEntity
  8
1
100
AcDbCircle
 10
2067.442618391042
 20
1460.77840830864
 30
0.0
 40
2.999899999999998
100
AcDbArc
 50
137.1686320913659
 51
180.0011999999124
  0
LINE
  5
980F
330
19
100
AcDbEntity
  8
1
100
AcDbLine
 10
2059.442618391042
 20
1437.77840830864
 30
0.0
 11
2024.442618391042
 21
1437.77840830864
 31
0.0
  0
LINE
  5
9810
330
19
100
AcDbEntity
  8
1
100
AcDbLine
 10
2059.442618391042
 20
1409.77840830864
 30
0.0
 11
2024.442618391042
 21
1409.77840830864
 31
0.0
  0
LINE
  5
9811
330
19
100
AcDbEntity
  8
1
100
AcDbLine
 10
2524.442618391042
 20
1506.27840830864
 30
0.0
 11
2054.442618391042
 21
1506.27840830864
 31
0.0
  0
LINE
  5
9813
330
19
100
AcDbEntity
  8
1
100
AcDbLine
 10
2065.242618391021
 20
1470.178408308641
 30
0.0
 11
2065.242618391041
 21
1283.77840830864
 31
0.0
  0
LINE
  5
9814
330
19
100
AcDbEntity
  8
1
100
AcDbLine
 10
2524.442618391042
 20
1874.77840830864
 30
0.0
 11
2524.442618391042
 21
1283.77840830864
 31
0.0
  0
LINE
  5
9A70
330
19
100
AcDbEntity
  8
2
100
AcDbLine
 10
1181.902951880733
 20
3230.769451402334
 30
0.0
 11
1181.902951880733
 21
2381.421768117756
 31
0.0
  0
LINE
  5
9A71
330
19
100
AcDbEntity
  8
2
100
AcDbLine
 10
701.9029518807329
 20
2751.525071393663
 30
0.0
 11
701.9029518807329
 21
2415.553471393663
 31
0.0
  0
LINE
  5
9A72
330
19
100
AcDbEntity
  8
1
100
AcDbLine
 10
1164.402951880733
 20
2960.588071393664
 30
0.0
 11
1164.402951880733
 21
2460.588071393664
 31
0.0
  0
LINE
  5
9A73
330
19
100
AcDbEntity
  8
1
100
AcDbLine
 10
1199.402951880733
 20
2960.588071393663
 30
0.0
 11
1199.402951880733
 21
2460.588071393664
 31
0.0
  0
LINE
  5
9A74
330
19
100
AcDbEntity
  8
1
100
AcDbLine
 10
1361.902951880733
 20
2960.588071393663
 30
0.0
 11
1361.902951880732
 21
2463.588071393663
 31
0.0
  0
LINE
  5
9A75
330
19
100
AcDbEntity
  8
1
100
AcDbLine
 10
1361.902951880733
 20
2463.588071393662
 30
0.0
 11
561.9029518807328
 21
2463.588071393662
 31
0.0
  0
POINT
  5
9A76
330
19
100
AcDbEntity
  8
1
100
AcDbPoint
 10
1361.902951880732
 20
2463.588071393662
 30
0.0
 50
180.0
  0
LINE
  5
9A77
330
19
100
AcDbEntity
  8
1
100
AcDbLine
 10
1041.902951880735
 20
3238.588071393663
 30
0.0
 11
1321.902951880733
 21
3238.588071393663
 31
0.0
  0
LINE
  5
9A78
330
19
100
AcDbEntity
  8
1
100
AcDbLine
 10
907.9029518807329
 20
2960.588071393664
 30
0.0
 11
1422.902951880732
 21
2960.588071393663
 31
0.0
  0
LINE
  5
9A79
330
19
100
AcDbEntity
  8
1
100
AcDbLine
 10
907.9029518807329
 20
3196.588071393663
 30
0.0
 11
1422.902951880732
 21
3196.588071393663
 31
0.0
  0
LINE
  5
9A7A
330
19
100
AcDbEntity
  8
1
100
AcDbLine
 10
1041.902951880735
 20
3198.588071393663
 30
0.0
 11
1321.902951880733
 21
3198.588071393663
 31
0.0
  0
LINE
  5
9A7B
330
19
100
AcDbEntity
  8
2
100
AcDbLine
 10
881.871690333368
 20
3078.588071393663
 30
0.0
 11
1458.07778785693
 21
3078.588071393663
 31
0.0
  0
LINE
  5
9A7C
330
19
100
AcDbEntity
  8
1
100
AcDbLine
 10
1426.902951880733
 20
2933.588071393662
 30
0.0
 11
1426.902951880733
 21
3223.588071393662
 31
0.0
  0
LINE
  5
9A7D
330
19
100
AcDbEntity
  8
1
100
AcDbLine
 10
1423.902951880733
 20
2933.588071393662
 30
0.0
 11
1423.902951880733
 21
3223.588071393662
 31
0.0
  0
LINE
  5
9A7E
330
19
100
AcDbEntity
  8
1
100
AcDbLine
 10
1423.902951880733
 20
2933.588071393662
 30
0.0
 11
1426.902951880733
 21
2933.588071393662
 31
0.0
  0
LINE
  5
9A7F
330
19
100
AcDbEntity
  8
1
100
AcDbLine
 10
1361.902951880732
 20
2503.588071393663
 30
0.0
 11
1331.902951880733
 21
2503.588071393663
 31
0.0
  0
LINE
  5
9A80
330
19
100
AcDbEntity
  8
1
100
AcDbLine
 10
1423.902951880733
 20
3223.588071393662
 30
0.0
 11
1426.902951880733
 21
3223.588071393662
 31
0.0
  0
LINE
  5
9A81
330
19
100
AcDbEntity
  8
1
100
AcDbLine
 10
1321.902951880733
 20
3243.588071393663
 30
0.0
 11
1361.902951880733
 21
3243.588071393663
 31
0.0
  0
LINE
  5
9A82
330
19
100
AcDbEntity
  8
1
100
AcDbLine
 10
1361.902951880733
 20
3243.588071393663
 30
0.0
 11
1361.902951880733
 21
3196.588071393663
 31
0.0
  0
POINT
  5
9A83
330
19
100
AcDbEntity
  8
1
100
AcDbPoint
 10
1361.902951880733
 20
3243.588071393663
 30
0.0
 50
180.0
  0
POINT
  5
9A84
330
19
100
AcDbEntity
  8
1
100
AcDbPoint
 10
1361.902951880733
 20
3243.588071393663
 30
0.0
 50
180.0
  0
LINE
  5
9A85
330
19
100
AcDbEntity
  8
1
100
AcDbLine
 10
1321.902951880733
 20
3243.588071393663
 30
0.0
 11
1321.902951880733
 21
3196.588071393663
 31
0.0
  0
LINE
  5
9A86
330
19
100
AcDbEntity
  8
1
100
AcDbLine
 10
1001.902951880734
 20
2503.588071393662
 30
0.0
 11
1001.902951880733
 21
2960.588071393663
 31
0.0
  0
LINE
  5
9A87
330
19
100
AcDbEntity
  8
1
100
AcDbLine
 10
1001.902951880733
 20
2803.588071393663
 30
0.0
 11
561.9029518807328
 21
2803.588071393663
 31
0.0
  0
LINE
  5
9A88
330
19
100
AcDbEntity
  8
1
100
AcDbLine
 10
1001.902951880733
 20
2843.588071393663
 30
0.0
 11
561.9029518807328
 21
2843.588071393663
 31
0.0
  0
LINE
  5
9A89
330
19
100
AcDbEntity
  8
1
100
AcDbLine
 10
1031.902951880732
 20
2503.588071393662
 30
0.0
 11
741.585444518444
 21
2503.588071393663
 31
0.0
  0
LINE
  5
9A8A
330
19
100
AcDbEntity
  8
1
100
AcDbLine
 10
561.9029518807328
 20
2463.588071393662
 30
0.0
 11
561.902951880732
 21
2503.588071393662
 31
0.0
  0
LINE
  5
9A8B
330
19
100
AcDbEntity
  8
1
100
AcDbLine
 10
661.5854445184449
 20
2503.588071393662
 30
0.0
 11
561.9029518807328
 21
2503.588071393662
 31
0.0
  0
LINE
  5
9A8C
330
19
100
AcDbEntity
  8
1
100
AcDbLine
 10
561.902951880731
 20
2803.588071393663
 30
0.0
 11
561.902951880731
 21
2843.588071393663
 31
0.0
  0
POINT
  5
9A8D
330
19
100
AcDbEntity
  8
1
100
AcDbPoint
 10
561.902951880731
 20
2843.588071393663
 30
0.0
 50
180.0
  0
LINE
  5
9A8E
330
19
100
AcDbEntity
  8
1
100
AcDbLine
 10
907.9029518807329
 20
2960.588071393663
 30
0.0
 11
907.9029518807329
 21
3196.588071393663
 31
0.0
  0
LINE
  5
9A8F
330
19
100
AcDbEntity
  8
1
100
AcDbLine
 10
1041.902951880735
 20
3196.588071393663
 30
0.0
 11
1041.902951880735
 21
3243.588071393662
 31
0.0
  0
LINE
  5
9A90
330
19
100
AcDbEntity
  8
1
100
AcDbLine
 10
1001.902951880733
 20
3196.588071393663
 30
0.0
 11
1001.902951880733
 21
3243.588071393663
 31
0.0
  0
LINE
  5
9A91
330
19
100
AcDbEntity
  8
1
100
AcDbLine
 10
1001.902951880733
 20
3243.588071393663
 30
0.0
 11
1041.902951880735
 21
3243.588071393663
 31
0.0
  0
POINT
  5
9A92
330
19
100
AcDbEntity
  8
1
100
AcDbPoint
 10
1001.902951880733
 20
3243.588071393663
 30
0.0
 50
180.0
  0
DIMENSION
  5
9A95
330
19
100
AcDbEntity
  8
3
100
AcDbDimension
  2
*D20
 10
425.6572713902137
 20
2843.588071393662
 30
0.0
 11
425.6572713902133
 21
2653.588071393662
 31
0.0
 70
   160
 71
     5
 42
380.0000000000005
  3
IGA
100
AcDbAlignedDimension
 13
561.9029518807337
 23
2463.588071393662
 33
0.0
 14
561.902951880732
 24
2843.588071393662
 34
0.0
 50
270.0
100
AcDbRotatedDimension
1001
ACAD
1000
DSTYLE
1002
{
1070
    40
1040
15.0
1070
   143
1040
0.039
1070
   172
1070
     1
1070
   271
1070
     0
1070
   279
1070
     0
1070
   288
1070
     1
1002
}
  0
DIMENSION
  5
9A96
330
19
100
AcDbEntity
  8
3
100
AcDbDimension
  2
*D21
 10
1001.902951880734
 20
3354.806438395192
 30
0.0
 11
1181.902951880734
 21
3392.306438395192
 31
0.0
 70
    32
 71
     5
 42
360.0
  3
IGA
100
AcDbAlignedDimension
 13
1361.902951880734
 23
3243.588071393662
 33
0.0
 14
1001.902951880734
 24
3243.588071393662
 34
0.0
100
AcDbRotatedDimension
1001
ACAD
1000
DSTYLE
1002
{
1070
    40
1040
15.0
1070
   143
1040
0.039
1070
   172
1070
     1
1070
   271
1070
     0
1070
   279
1070
     0
1070
   288
1070
     1
1002
}
  0
DIMENSION
  5
9A97
330
19
100
AcDbEntity
  8
3
100
AcDbDimension
  2
*D22
 10
561.902951880732
 20
3354.806438395192
 30
0.0
 11
781.9029518807329
 21
3392.306438395192
 31
0.0
 70
    32
 71
     5
 42
440.0000000000018
  3
IGA
100
AcDbAlignedDimension
 13
1001.902951880734
 23
3243.588071393662
 33
0.0
 14
561.902951880732
 24
2843.588071393662
 34
0.0
100
AcDbRotatedDimension
1001
ACAD
1000
DSTYLE
1002
{
1070
    40
1040
15.0
1070
   143
1040
0.039
1070
   172
1070
     1
1070
   271
1070
     0
1070
   279
1070
     0
1070
   288
1070
     1
1002
}
  0
LINE
  5
9AB7
330
19
100
AcDbEntity
  8
1
100
AcDbLine
 10
1031.902951880732
 20
2501.388071393663
 30
0.0
 11
1031.902951880732
 21
2960.588071393664
 31
0.0
  0
LINE
  5
9AB8
330
19
100
AcDbEntity
  8
1
100
AcDbLine
 10
1331.902951880733
 20
2501.388071393663
 30
0.0
 11
1331.902951880733
 21
2960.588071393664
 31
0.0
  0
LINE
  5
9AB9
330
19
100
AcDbEntity
  8
1
100
AcDbLine
 10
1331.902951880733
 20
2501.388071393663
 30
0.0
 11
1199.402951880733
 21
2501.388071393663
 31
0.0
  0
LINE
  5
9ABA
330
19
100
AcDbEntity
  8
1
100
AcDbLine
 10
1164.402951880733
 20
2501.388071393663
 30
0.0
 11
1031.902951880732
 21
2501.388071393663
 31
0.0
  0
LINE
  5
9ABB
330
19
100
AcDbEntity
  8
1
100
AcDbLine
 10
1232.902951880733
 20
2410.588071393663
 30
0.0
 11
1232.902951880733
 21
2460.588071393663
 31
0.0
  0
LINE
  5
9ABC
330
19
100
AcDbEntity
  8
1
100
AcDbLine
 10
1130.902951880733
 20
2460.588071393663
 30
0.0
 11
1130.902951880733
 21
2410.588071393667
 31
0.0
  0
LINE
  5
9ABD
330
19
100
AcDbEntity
  8
1
100
AcDbLine
 10
1232.902951880733
 20
2460.588071393663
 30
0.0
 11
1130.902951880733
 21
2460.588071393665
 31
0.0
  0
LINE
  5
9ABE
330
19
100
AcDbEntity
  8
1
100
AcDbLine
 10
1232.902951880733
 20
2410.588071393663
 30
0.0
 11
1130.902951880733
 21
2410.588071393667
 31
0.0
  0
LINE
  5
9ABF
330
19
100
AcDbEntity
  8
1
100
AcDbLine
 10
601.585444518445
 20
2506.588071393663
 30
0.0
 11
601.585444518445
 21
2801.588071393665
 31
0.0
  0
LINE
  5
9AC0
330
19
100
AcDbEntity
  8
1
100
AcDbLine
 10
802.3854445184442
 20
2801.588071393665
 30
0.0
 11
802.3854445184442
 21
2506.588071393663
 31
0.0
  0
LINE
  5
9AC1
330
19
100
AcDbEntity
  8
1
100
AcDbLine
 10
791.585444518445
 20
2410.588071393667
 30
0.0
 11
611.5854445184449
 21
2410.588071393667
 31
0.0
  0
LINE
  5
9AC2
330
19
100
AcDbEntity
  8
1
100
AcDbLine
 10
791.585444518445
 20
2460.588071393663
 30
0.0
 11
611.5854445184449
 21
2460.588071393663
 31
0.0
  0
LINE
  5
9AC3
330
19
100
AcDbEntity
  8
1
100
AcDbLine
 10
802.3854445184442
 20
2506.588071393663
 30
0.0
 11
601.585444518445
 21
2506.588071393663
 31
0.0
  0
ARC
  5
9AC4
330
19
100
AcDbEntity
  8
1
100
AcDbCircle
 10
738.5855445184443
 20
2503.588071393663
 30
0.0
 40
2.999899999999998
100
AcDbArc
 50
269.9988000000876
 51
0.0012000000166386
  0
LINE
  5
9AC5
330
19
100
AcDbEntity
  8
1
100
AcDbLine
 10
664.585444518445
 20
2500.588071393663
 30
0.0
 11
738.585444518445
 21
2500.588071393663
 31
0.0
  0
ARC
  5
9AC6
330
19
100
AcDbEntity
  8
1
100
AcDbCircle
 10
664.585444518445
 20
2503.588071393663
 30
0.0
 40
2.999899999999998
100
AcDbArc
 50
179.9987999999833
 51
270.0011999999124
  0
LINE
  5
9AC7
330
19
100
AcDbEntity
  8
1
100
AcDbLine
 10
661.5854445184449
 20
2506.588071393663
 30
0.0
 11
661.5854445184449
 21
2503.588071393663
 31
0.0
  0
LINE
  5
9AC8
330
19
100
AcDbEntity
  8
1
100
AcDbLine
 10
716.1854445184453
 20
2495.588071393664
 30
0.0
 11
686.9855445184439
 21
2495.588071393664
 31
0.0
  0
LINE
  5
9AC9
330
19
100
AcDbEntity
  8
1
100
AcDbLine
 10
686.9855445184439
 20
2500.588071393663
 30
0.0
 11
686.9855445184439
 21
2495.588071393664
 31
0.0
  0
LINE
  5
9ACA
330
19
100
AcDbEntity
  8
1
100
AcDbLine
 10
687.585444518445
 20
2495.588071393664
 30
0.0
 11
687.585444518445
 21
2460.588071393665
 31
0.0
  0
LINE
  5
9ACB
330
19
100
AcDbEntity
  8
1
100
AcDbLine
 10
716.1854445184453
 20
2500.588071393663
 30
0.0
 11
716.1854445184453
 21
2495.588071393664
 31
0.0
  0
LINE
  5
9ACC
330
19
100
AcDbEntity
  8
1
100
AcDbLine
 10
715.5854445184449
 20
2495.588071393664
 30
0.0
 11
715.5854445184449
 21
2460.588071393665
 31
0.0
  0
LINE
  5
9ACD
330
19
100
AcDbEntity
  8
1
100
AcDbLine
 10
741.585444518445
 20
2506.588071393663
 30
0.0
 11
741.585444518445
 21
2503.588071393663
 31
0.0
  0
LINE
  5
9ACE
330
19
100
AcDbEntity
  8
1
100
AcDbLine
 10
611.5854445184449
 20
2410.588071393667
 30
0.0
 11
611.5854445184449
 21
2460.588071393663
 31
0.0
  0
LINE
  5
9ACF
330
19
100
AcDbEntity
  8
1
100
AcDbLine
 10
791.585444518445
 20
2410.588071393667
 30
0.0
 11
791.585444518445
 21
2460.588071393663
 31
0.0
  0
LINE
  5
9AD0
330
19
100
AcDbEntity
  8
1
100
AcDbLine
 10
601.585444518445
 20
2801.588071393665
 30
0.0
 11
802.3854445184442
 21
2801.588071393665
 31
0.0
  0
LINE
  5
9AD1
330
19
100
AcDbEntity
  8
1
100
AcDbLine
 10
1281.902951880733
 20
2370.588071393663
 30
0.0
 11
577.1928085741547
 21
2370.588071393664
 31
0.0
  0
LINE
  5
9AD2
330
19
100
AcDbEntity
  8
1
100
AcDbLine
 10
1281.902951880733
 20
2492.588071393662
 30
0.0
 11
577.1928085741547
 21
2492.588071393662
 31
0.0
  0
LINE
  5
9AD3
330
19
100
AcDbEntity
  8
1
100
AcDbLine
 10
577.1928085741547
 20
2370.588071393664
 30
0.0
 11
577.1928085741547
 21
2492.588071393665
 31
0.0
  0
LINE
  5
9AD4
330
19
100
AcDbEntity
  8
1
100
AcDbLine
 10
1281.902951880733
 20
2370.588071393663
 30
0.0
 11
1281.902951880733
 21
2492.588071393662
 31
0.0
  0
LINE
  5
A351
330
19
100
AcDbEntity
  8
1
100
AcDbLine
 10
1031.902951880738
 20
1470.178408308639
 30
0.0
 11
1031.902951880738
 21
1283.77840830864
 31
0.0
  0
LINE
  5
A356
330
19
100
AcDbEntity
  8
1
100
AcDbLine
 10
1331.902951880738
 20
1470.178408308639
 30
0.0
 11
1331.902951880738
 21
1283.77840830864
 31
0.0
  0
DIMENSION
  5
A723
330
19
100
AcDbEntity
  8
3
 62
     2
100
AcDbDimension
  2
*D23
 10
1361.902951880732
 20
2271.251799445407
 30
0.0
 11
945.0673873716441
 21
2271.251799445407
 31
0.0
 70
   160
 71
     5
 42
799.9999999999991
  3
IGA
100
AcDbAlignedDimension
 13
561.9029518807328
 23
2463.588071393662
 33
0.0
 14
1361.902951880732
 24
2463.588071393661
 34
0.0
100
AcDbRotatedDimension
1001
ACAD
1000
DSTYLE
1002
{
1070
    40
1040
15.0
1070
   143
1040
0.039
1070
   172
1070
     1
1070
   271
1070
     0
1070
   279
1070
     0
1070
   288
1070
     1
1002
}
  0
DIMENSION
  5
A79B
330
19
100
AcDbEntity
  8
3
 62
     2
100
AcDbDimension
  2
*D24
 10
1539.114691262036
 20
2463.588071393663
 30
0.0
 11
1539.114691262035
 21
2853.588071393663
 31
0.0
 70
   160
 71
     5
 42
780.0
  3
IGA
100
AcDbAlignedDimension
 13
1361.902951880733
 23
3243.588071393663
 33
0.0
 14
1361.902951880732
 24
2463.588071393663
 34
0.0
 50
90.0
100
AcDbRotatedDimension
1001
ACAD
1000
DSTYLE
1002
{
1070
    40
1040
15.0
1070
   143
1040
0.039
1070
   172
1070
     1
1070
   271
1070
     0
1070
   279
1070
     0
1070
   288
1070
     1
1002
}
  0
LINE
  5
A7C9
330
19
100
AcDbEntity
  8
1
100
AcDbLine
 10
744.4953091671278
 20
1289.9525027812
 30
0.0
 11
1210.29785673833
 21
1427.894471290347
 31
0.0
  0
ARC
  5
A7CA
330
19
100
AcDbEntity
  8
1
100
AcDbCircle
 10
1181.902951880732
 20
1523.77840830864
 30
0.0
 40
100.0
100
AcDbArc
 50
286.4960384112947
 51
94.7432721410213
  0
ARC
  5
A7CB
330
19
100
AcDbEntity
  8
1
100
AcDbCircle
 10
701.9029518807327
 20
1433.77840830864
 30
0.0
 40
150.0
100
AcDbArc
 50
94.7432721410213
 51
286.4960384112947
  0
LINE
  5
A7CC
330
19
100
AcDbEntity
  8
1
100
AcDbLine
 10
689.4992738396206
 20
1583.264691194571
 30
0.0
 11
1173.633833186658
 21
1623.435930232594
 31
0.0
  0
ENDSEC
  0
SECTION
  2
OBJECTS
  0
DICTIONARY
  5
C
330
0
100
AcDbDictionary
281
     1
  3
ACAD_CIP_PREVIOUS_PRODUCT_INFO
350
84D0
  3
ACAD_COLOR
350
84B3
  3
ACAD_DETAILVIEWSTYLE
350
84CC
  3
ACAD_GROUP
350
D
  3
ACAD_LAYOUT
350
8473
  3
ACAD_MATERIAL
350
8481
  3
ACAD_MLEADERSTYLE
350
84C8
  3
ACAD_MLINESTYLE
350
E
  3
ACAD_PLOTSETTINGS
350
8474
  3
ACAD_PLOTSTYLENAME
350
8471
  3
ACAD_SCALELIST
350
84B6
  3
ACAD_SECTIONVIEWSTYLE
350
84CA
  3
ACAD_TABLESTYLE
350
84B4
  3
ACAD_VISUALSTYLE
350
849A
  3
ACDB_RECOMPOSE_DATA
350
A805
  3
AcDbVariableDictionary
350
8848
  3
AcDsDecomposeData
350
A80C
  3
DWGPROPS
350
A806
  0
DICTIONARY
  5
8811
330
2
100
AcDbDictionary
280
     1
281
     1
  3
ACAD_LAYERSTATES
360
8812
  0
DICTIONARY
  5
84D1
330
F
100
AcDbDictionary
280
     1
281
     1
  3
ADSK_XREC_LAYER_RECONCILED
360
84D2
  0
DICTIONARY
  5
84D3
330
31
100
AcDbDictionary
280
     1
281
     1
  3
ADSK_XREC_LAYER_RECONCILED
360
84D4
  0
DICTIONARY
  5
84D5
330
76D0
100
AcDbDictionary
280
     1
281
     1
  3
ADSK_XREC_LAYER_RECONCILED
360
84D6
  0
DICTIONARY
  5
84D7
330
76D1
100
AcDbDictionary
280
     1
281
     1
  3
ADSK_XREC_LAYER_RECONCILED
360
84D8
  0
DICTIONARY
  5
84D9
330
76D2
100
AcDbDictionary
280
     1
281
     1
  3
ADSK_XREC_LAYER_RECONCILED
360
84DA
  0
DICTIONARY
  5
8908
330
19
100
AcDbDictionary
280
     1
281
     1
  3
ACAD_SORTENTS
360
8909
  0
XRECORD
  5
84D0
102
{ACAD_REACTORS
330
C
102
}
330
C
100
AcDbXrecord
280
     1
300
ACDLT
300
2015
300
INVLTS_F_S
  0
DICTIONARY
  5
84B3
102
{ACAD_REACTORS
330
C
102
}
330
C
100
AcDbDictionary
281
     1
  0
DICTIONARY
  5
84CC
102
{ACAD_REACTORS
330
C
102
}
330
C
100
AcDbDictionary
281
     1
  3
Imperial24
350
A25F
  3
Metric50
350
84CD
  0
DICTIONARY
  5
D
102
{ACAD_REACTORS
330
C
102
}
330
C
100
AcDbDictionary
281
     1
  0
DICTIONARY
  5
8473
102
{ACAD_REACTORS
330
C
102
}
330
C
100
AcDbDictionary
281
     1
  3
Model
350
8475
  3
ﾚｲｱｳﾄ1
350
8476
  0
DICTIONARY
  5
8481
102
{ACAD_REACTORS
330
C
102
}
330
C
100
AcDbDictionary
281
     1
  3
ByBlock
350
848A
  3
ByLayer
350
8482
  3
Global
350
8492
  0
DICTIONARY
  5
84C8
102
{ACAD_REACTORS
330
C
102
}
330
C
100
AcDbDictionary
281
     1
  3
Standard
350
84C9
  0
DICTIONARY
  5
E
102
{ACAD_REACTORS
330
C
102
}
330
C
100
AcDbDictionary
281
     1
  3
STANDARD
350
1C
  0
DICTIONARY
  5
8474
102
{ACAD_REACTORS
330
C
102
}
330
C
100
AcDbDictionary
281
     1
  0
ACDBDICTIONARYWDFLT
  5
8471
102
{ACAD_REACTORS
330
C
102
}
330
C
100
AcDbDictionary
281
     1
  3
Normal
350
8472
100
AcDbDictionaryWithDefault
340
8472
  0
DICTIONARY
  5
84B6
102
{ACAD_REACTORS
330
C
102
}
330
C
100
AcDbDictionary
281
     1
  3
A0
350
84B7
  3
A1
350
84B8
  3
A2
350
84B9
  3
A3
350
84BA
  3
A4
350
84BB
  3
A5
350
84BC
  3
A6
350
84BD
  3
A7
350
84BE
  3
A8
350
84BF
  3
A9
350
84C0
  3
B0
350
84C1
  3
B1
350
84C2
  3
B2
350
84C3
  3
B3
350
84C4
  3
B4
350
84C5
  3
B5
350
84C6
  3
B6
350
84C7
  0
DICTIONARY
  5
84CA
102
{ACAD_REACTORS
330
C
102
}
330
C
100
AcDbDictionary
281
     1
  3
Imperial24
350
A25E
  3
Metric50
350
84CB
  0
DICTIONARY
  5
84B4
102
{ACAD_REACTORS
330
C
102
}
330
C
100
AcDbDictionary
281
     1
  3
Standard
350
84B5
  0
DICTIONARY
  5
849A
102
{ACAD_REACTORS
330
C
102
}
330
C
100
AcDbDictionary
281
     1
  3
2dWireframe
350
84A0
  3
Basic
350
849F
  3
Brighten
350
84A6
  3
ColorChange
350
84AA
  3
Conceptual
350
84A3
  3
Dim
350
84A5
  3
EdgeColorOff
350
84B2
  3
Facepattern
350
84A9
  3
Flat
350
849B
  3
FlatWithEdges
350
849C
  3
Gouraud
350
849D
  3
GouraudWithEdges
350
849E
  3
Hidden
350
84A2
  3
JitterOff
350
84B0
  3
Linepattern
350
84A8
  3
OverhangOff
350
84B1
  3
Realistic
350
84A4
  3
Shaded
350
84AF
  3
Shaded with edges
350
84AE
  3
Shades of Gray
350
84AB
  3
Sketchy
350
84AC
  3
Thicken
350
84A7
  3
Wireframe
350
84A1
  3
X-Ray
350
84AD
  0
XRECORD
  5
A805
102
{ACAD_REACTORS
330
C
102
}
330
C
100
AcDbXrecord
280
     1
 90
        1
330
84B5
  0
DICTIONARY
  5
8848
102
{ACAD_REACTORS
330
C
102
}
330
C
100
AcDbDictionary
281
     1
  3
CANNOSCALE
350
884E
  3
CMLEADERSTYLE
350
884A
  3
CTABLESTYLE
350
8849
  3
CVIEWDETAILSTYLE
350
884B
  3
CVIEWSECTIONSTYLE
350
884C
  3
DIMASSOC
350
A801
  3
INDEXCTL
350
A800
  3
LAYEREVAL
350
8850
  3
LAYERNOTIFY
350
8851
  3
LIGHTINGUNITS
350
884F
  3
MSLTSCALE
350
884D
  3
SORTENTS
350
A7FF
  3
XCLIPFRAME
350
A802
  0
DICTIONARY
  5
A80C
102
{ACAD_REACTORS
330
C
102
}
330
C
100
AcDbDictionary
281
     1
  3
AcDsRecords
350
A80E
  3
AcDsSchemas
350
A80D
1001
ACAD
1070
     2
  0
XRECORD
  5
A806
102
{ACAD_REACTORS
330
C
102
}
330
C
100
AcDbXrecord
280
     1
  1
DWGPROPS COOKIE
  2

  3

  4

  6

  7

  8
miho.otawara
  9

300
=
301
=
302
=
303
=
304
=
305
=
306
=
307
=
308
=
309
=
 40
0.1792155902777778
 41
2451019.484950116
 42
2459605.795285637
  1

 90
        0
  0
DICTIONARY
  5
8812
102
{ACAD_REACTORS
330
8811
102
}
330
8811
100
AcDbDictionary
281
     1
  0
XRECORD
  5
84D2
102
{ACAD_REACTORS
330
84D1
102
}
330
84D1
100
AcDbXrecord
280
     1
290
     1
  0
XRECORD
  5
84D4
102
{ACAD_REACTORS
330
84D3
102
}
330
84D3
100
AcDbXrecord
280
     1
290
     1
  0
XRECORD
  5
84D6
102
{ACAD_REACTORS
330
84D5
102
}
330
84D5
100
AcDbXrecord
280
     1
290
     1
  0
XRECORD
  5
84D8
102
{ACAD_REACTORS
330
84D7
102
}
330
84D7
100
AcDbXrecord
280
     1
290
     1
  0
XRECORD
  5
84DA
102
{ACAD_REACTORS
330
84D9
102
}
330
84D9
100
AcDbXrecord
280
     1
290
     1
  0
SORTENTSTABLE
  5
8909
102
{ACAD_REACTORS
330
8908
102
}
330
8908
100
AcDbSortentsTable
330
19
331
809F
  5
80A0
331
8096
  5
8097
331
8098
  5
8099
331
8089
  5
808A
331
80A0
  5
80A1
331
8091
  5
8092
331
809A
  5
809B
331
808B
  5
808C
331
8084
  5
8085
331
809C
  5
809D
331
808D
  5
808F
331
8093
  5
8094
331
8095
  5
8096
331
809E
  5
809F
331
808F
  5
8090
331
7CE8
  5
7CE8
331
8088
  5
8089
331
8097
  5
8098
331
8090
  5
8091
331
8099
  5
809A
331
7D13
  5
7D13
331
808A
  5
808B
331
80A1
  5
8374
331
8092
  5
8093
331
8083
  5
8084
331
808C
  5
808D
331
809B
  5
809C
331
8085
  5
8088
331
809D
  5
809E
331
8094
  5
8095
  0
ACDBDETAILVIEWSTYLE
  5
A25F
102
{ACAD_XDICTIONARY
360
A6AA
102
}
102
{ACAD_REACTORS
330
84CC
102
}
330
84CC
100
AcDbModelDocViewStyle
 70
     0
  3
Imperial24
290
     0
100
AcDbDetailViewStyle
 70
     0
 71
     0
 90
        3
 71
     1
340
10
 40
0.24
340
0
 40
0.24
300

 40
0.36
280
     3
 71
     2
340
15
 90
       25
 71
     3
340
10
 40
0.24
 90
        1
 40
0.75
 90
        1
300
%<\AcVar ViewType \f "%tc1">% %<\AcVar ViewDetailId>%\PSCALE %<\AcVar ViewScale \f "%sn">%
 71
     4
340
15
 90
       25
340
15
 90
       25
280
     0
  0
ACDBDETAILVIEWSTYLE
  5
84CD
102
{ACAD_XDICTIONARY
360
8845
102
}
102
{ACAD_REACTORS
330
84CC
102
}
330
84CC
100
AcDbModelDocViewStyle
 70
     0
  3
Metric50
290
     0
100
AcDbDetailViewStyle
 70
     0
 71
     0
 90
        3
 71
     1
340
10
 40
5.0
340
0
 40
5.0
300

 40
0.0
280
     1
 71
     2
340
15
 90
       25
 71
     3
340
10
 40
5.0
 90
        0
 40
15.0
 90
        1
300
%<\AcVar ViewDetailId>% (%<\AcVar ViewScale \f "%sn">%)
 71
     4
340
15
 90
       25
340
15
 90
       25
280
     0
  0
LAYOUT
  5
8475
102
{ACAD_XDICTIONARY
360
A80F
102
}
102
{ACAD_REACTORS
330
8473
102
}
330
8473
100
AcDbPlotSettings
  1

  2
RICOH MP 7503 JPN RPCS
  4
A4
  6

 40
5.873749732971191
 41
5.873748779296875
 42
5.873733520507812
 43
5.873748779296875
 44
209.9733276367187
 45
296.9259948730469
 46
-5.896690258683946
 47
-4.924254546771521
 48
0.0
 49
0.0
140
0.0
141
0.0
142
1.0
143
15.0
 70
 11940
 72
     1
 73
     0
 74
     1
  7
monochrome.ctb
 75
     0
147
0.0264374506397495
148
0.1441574163291079
149
0.2025068467482924
100
AcDbLayout
  1
Model
 70
     1
 71
     0
 10
0.0
 20
0.0
 11
12.0
 21
9.0
 12
0.0
 22
0.0
 32
0.0
 14
0.0
 24
0.0
 34
0.0
 15
0.0
 25
0.0
 35
0.0
146
0.0
 13
0.0
 23
0.0
 33
0.0
 16
1.0
 26
0.0
 36
0.0
 17
0.0
 27
1.0
 37
0.0
 76
     0
330
19
331
847F
1001
ACAD_PSEXT
1000
RICOH MP 7503 JPN RPCS
1000
RICOH MP 7503 JPN RPCS
1000
IP_192.168.7.16
1000
RPCS Driver (For Windows)
1070
     0
  0
LAYOUT
  5
8476
102
{ACAD_XDICTIONARY
360
A811
102
}
102
{ACAD_REACTORS
330
8473
102
}
330
8473
100
AcDbPlotSettings
  1

  2
EPSON LP-9300
  4

  6

 40
0.0
 41
0.0
 42
0.0
 43
0.0
 44
0.0
 45
0.0
 46
0.0
 47
0.0
 48
0.0
 49
0.0
140
0.0
141
0.0
142
1.0
143
1.0
 70
   688
 72
     0
 73
     0
 74
     5
  7
monochrome.ctb
 75
    16
147
1.0
148
0.0
149
0.0
100
AcDbLayout
  1
ﾚｲｱｳﾄ1
 70
     1
 71
     1
 10
0.0
 20
0.0
 11
12.0
 21
9.0
 12
0.0
 22
0.0
 32
0.0
 14
1.000000000000000E+20
 24
1.000000000000000E+20
 34
1.000000000000000E+20
 15
-1.000000000000000E+20
 25
-1.000000000000000E+20
 35
-1.000000000000000E+20
146
0.0
 13
0.0
 23
0.0
 33
0.0
 16
1.0
 26
0.0
 36
0.0
 17
0.0
 27
1.0
 37
0.0
 76
     0
330
16
  0
MATERIAL
  5
848A
102
{ACAD_XDICTIONARY
360
848B
102
}
102
{ACAD_REACTORS
330
8481
102
}
330
8481
100
AcDbMaterial
  1
ByBlock
 72
     0
 43
0.0208333333333333
 43
0.0
 43
0.0
 43
0.0
 43
0.0
 43
0.0208333333333333
 43
0.0
 43
0.0
 43
0.0
 43
0.0
 43
1.0
 43
0.0
 43
0.0
 43
0.0
 43
0.0
 43
1.0
 77
     0
 47
0.0208333333333333
 47
0.0
 47
0.0
 47
0.0
 47
0.0
 47
0.0208333333333333
 47
0.0
 47
0.0
 47
0.0
 47
0.0
 47
1.0
 47
0.0
 47
0.0
 47
0.0
 47
0.0
 47
1.0
171
     0
 49
0.0208333333333333
 49
0.0
 49
0.0
 49
0.0
 49
0.0
 49
0.0208333333333333
 49
0.0
 49
0.0
 49
0.0
 49
0.0
 49
1.0
 49
0.0
 49
0.0
 49
0.0
 49
0.0
 49
1.0
175
     0
142
0.0208333333333333
142
0.0
142
0.0
142
0.0
142
0.0
142
0.0208333333333333
142
0.0
142
0.0
142
0.0
142
0.0
142
1.0
142
0.0
142
0.0
142
0.0
142
0.0
142
1.0
179
     0
144
0.0208333333333333
144
0.0
144
0.0
144
0.0
144
0.0
144
0.0208333333333333
144
0.0
144
0.0
144
0.0
144
0.0
144
1.0
144
0.0
144
0.0
144
0.0
144
0.0
144
1.0
147
0.0208333333333333
147
0.0
147
0.0
147
0.0
147
0.0
147
0.0208333333333333
147
0.0
147
0.0
147
0.0
147
0.0
147
1.0
147
0.0
147
0.0
147
0.0
147
0.0
147
1.0
  0
MATERIAL
  5
8482
102
{ACAD_XDICTIONARY
360
8483
102
}
102
{ACAD_REACTORS
330
8481
102
}
330
8481
100
AcDbMaterial
  1
ByLayer
 72
     0
 43
0.0208333333333333
 43
0.0
 43
0.0
 43
0.0
 43
0.0
 43
0.0208333333333333
 43
0.0
 43
0.0
 43
0.0
 43
0.0
 43
1.0
 43
0.0
 43
0.0
 43
0.0
 43
0.0
 43
1.0
 77
     0
 47
0.0208333333333333
 47
0.0
 47
0.0
 47
0.0
 47
0.0
 47
0.0208333333333333
 47
0.0
 47
0.0
 47
0.0
 47
0.0
 47
1.0
 47
0.0
 47
0.0
 47
0.0
 47
0.0
 47
1.0
171
     0
 49
0.0208333333333333
 49
0.0
 49
0.0
 49
0.0
 49
0.0
 49
0.0208333333333333
 49
0.0
 49
0.0
 49
0.0
 49
0.0
 49
1.0
 49
0.0
 49
0.0
 49
0.0
 49
0.0
 49
1.0
175
     0
142
0.0208333333333333
142
0.0
142
0.0
142
0.0
142
0.0
142
0.0208333333333333
142
0.0
142
0.0
142
0.0
142
0.0
142
1.0
142
0.0
142
0.0
142
0.0
142
0.0
142
1.0
179
     0
144
0.0208333333333333
144
0.0
144
0.0
144
0.0
144
0.0
144
0.0208333333333333
144
0.0
144
0.0
144
0.0
144
0.0
144
1.0
144
0.0
144
0.0
144
0.0
144
0.0
144
1.0
147
0.0208333333333333
147
0.0
147
0.0
147
0.0
147
0.0
147
0.0208333333333333
147
0.0
147
0.0
147
0.0
147
0.0
147
1.0
147
0.0
147
0.0
147
0.0
147
0.0
147
1.0
  0
MATERIAL
  5
8492
102
{ACAD_XDICTIONARY
360
8493
102
}
102
{ACAD_REACTORS
330
8481
102
}
330
8481
100
AcDbMaterial
  1
Global
 72
     0
 43
0.0208333333333333
 43
0.0
 43
0.0
 43
0.0
 43
0.0
 43
0.0208333333333333
 43
0.0
 43
0.0
 43
0.0
 43
0.0
 43
1.0
 43
0.0
 43
0.0
 43
0.0
 43
0.0
 43
1.0
 77
     0
 47
0.0208333333333333
 47
0.0
 47
0.0
 47
0.0
 47
0.0
 47
0.0208333333333333
 47
0.0
 47
0.0
 47
0.0
 47
0.0
 47
1.0
 47
0.0
 47
0.0
 47
0.0
 47
0.0
 47
1.0
171
     0
 49
0.0208333333333333
 49
0.0
 49
0.0
 49
0.0
 49
0.0
 49
0.0208333333333333
 49
0.0
 49
0.0
 49
0.0
 49
0.0
 49
1.0
 49
0.0
 49
0.0
 49
0.0
 49
0.0
 49
1.0
175
     0
142
0.0208333333333333
142
0.0
142
0.0
142
0.0
142
0.0
142
0.0208333333333333
142
0.0
142
0.0
142
0.0
142
0.0
142
1.0
142
0.0
142
0.0
142
0.0
142
0.0
142
1.0
179
     0
144
0.0208333333333333
144
0.0
144
0.0
144
0.0
144
0.0
144
0.0208333333333333
144
0.0
144
0.0
144
0.0
144
0.0
144
1.0
144
0.0
144
0.0
144
0.0
144
0.0
144
1.0
147
0.0208333333333333
147
0.0
147
0.0
147
0.0
147
0.0
147
0.0208333333333333
147
0.0
147
0.0
147
0.0
147
0.0
147
1.0
147
0.0
147
0.0
147
0.0
147
0.0
147
1.0
  0
MLEADERSTYLE
  5
84C9
102
{ACAD_XDICTIONARY
360
A848
102
}
102
{ACAD_REACTORS
330
84C8
102
}
330
84C8
100
AcDbMLeaderStyle
170
     2
171
     1
172
     0
 90
        2
 40
0.0
 41
0.0
173
     1
 91
-1056964608
340
13
 92
       -2
290
     1
 42
2.0
291
     1
 43
0.36
  3
Standard
 44
4.0
300

342
10
174
     1
178
     6
175
     1
176
     0
 93
-1056964608
 45
4.0
292
     0
297
     0
 46
4.0
 94
-1056964608
 47
1.0
 49
1.0
140
1.0
293
     1
141
0.0
294
     1
177
     0
142
1.0
295
     0
296
     0
143
0.125
1001
ACAD_MLEADERVER
1070
     2
  0
MLINESTYLE
  5
1C
102
{ACAD_REACTORS
330
E
102
}
330
E
100
AcDbMlineStyle
  2
STANDARD
 70
     0
  3

 62
     0
 51
90.0
 52
90.0
 71
     2
 49
0.5
 62
   256
  6
BYLAYER
 49
-0.5
 62
   256
  6
BYLAYER
  0
ACDBPLACEHOLDER
  5
8472
102
{ACAD_REACTORS
330
8471
102
}
330
8471
  0
SCALE
  5
84B7
102
{ACAD_REACTORS
330
84B6
102
}
330
84B6
100
AcDbScale
 70
     0
300
1:1
140
1.0
141
1.0
290
     1
  0
SCALE
  5
84B8
102
{ACAD_REACTORS
330
84B6
102
}
330
84B6
100
AcDbScale
 70
     0
300
1:2
140
1.0
141
2.0
290
     0
  0
SCALE
  5
84B9
102
{ACAD_REACTORS
330
84B6
102
}
330
84B6
100
AcDbScale
 70
     0
300
1:4
140
1.0
141
4.0
290
     0
  0
SCALE
  5
84BA
102
{ACAD_REACTORS
330
84B6
102
}
330
84B6
100
AcDbScale
 70
     0
300
1:5
140
1.0
141
5.0
290
     0
  0
SCALE
  5
84BB
102
{ACAD_REACTORS
330
84B6
102
}
330
84B6
100
AcDbScale
 70
     0
300
1:8
140
1.0
141
8.0
290
     0
  0
SCALE
  5
84BC
102
{ACAD_REACTORS
330
84B6
102
}
330
84B6
100
AcDbScale
 70
     0
300
1:10
140
1.0
141
10.0
290
     0
  0
SCALE
  5
84BD
102
{ACAD_REACTORS
330
84B6
102
}
330
84B6
100
AcDbScale
 70
     0
300
1:16
140
1.0
141
16.0
290
     0
  0
SCALE
  5
84BE
102
{ACAD_REACTORS
330
84B6
102
}
330
84B6
100
AcDbScale
 70
     0
300
1:20
140
1.0
141
20.0
290
     0
  0
SCALE
  5
84BF
102
{ACAD_REACTORS
330
84B6
102
}
330
84B6
100
AcDbScale
 70
     0
300
1:30
140
1.0
141
30.0
290
     0
  0
SCALE
  5
84C0
102
{ACAD_REACTORS
330
84B6
102
}
330
84B6
100
AcDbScale
 70
     0
300
1:40
140
1.0
141
40.0
290
     0
  0
SCALE
  5
84C1
102
{ACAD_REACTORS
330
84B6
102
}
330
84B6
100
AcDbScale
 70
     0
300
1:50
140
1.0
141
50.0
290
     0
  0
SCALE
  5
84C2
102
{ACAD_REACTORS
330
84B6
102
}
330
84B6
100
AcDbScale
 70
     0
300
1:100
140
1.0
141
100.0
290
     0
  0
SCALE
  5
84C3
102
{ACAD_REACTORS
330
84B6
102
}
330
84B6
100
AcDbScale
 70
     0
300
2:1
140
2.0
141
1.0
290
     0
  0
SCALE
  5
84C4
102
{ACAD_REACTORS
330
84B6
102
}
330
84B6
100
AcDbScale
 70
     0
300
4:1
140
4.0
141
1.0
290
     0
  0
SCALE
  5
84C5
102
{ACAD_REACTORS
330
84B6
102
}
330
84B6
100
AcDbScale
 70
     0
300
8:1
140
8.0
141
1.0
290
     0
  0
SCALE
  5
84C6
102
{ACAD_REACTORS
330
84B6
102
}
330
84B6
100
AcDbScale
 70
     0
300
10:1
140
10.0
141
1.0
290
     0
  0
SCALE
  5
84C7
102
{ACAD_REACTORS
330
84B6
102
}
330
84B6
100
AcDbScale
 70
     0
300
100:1
140
100.0
141
1.0
290
     0
  0
ACDBSECTIONVIEWSTYLE
  5
A25E
102
{ACAD_XDICTIONARY
360
A6A8
102
}
102
{ACAD_REACTORS
330
84CA
102
}
330
84CA
100
AcDbModelDocViewStyle
 70
     0
  3
Imperial24
290
     0
100
AcDbSectionViewStyle
 70
     0
 71
     0
 90
       78
 71
     1
340
10
 40
0.24
340
0
340
0
 40
0.24
300
I, O, Q, S, X, Z
 40
0.48
 90
        3
 40
0.18
 90
        1
 71
     2
340
15
 90
       25
340
15
 90
       50
 40
0.24
 40
0.0
 40
0.24
 71
     3
340
10
 40
0.24
 90
        1
 40
0.75
 90
        1
300
%<\AcVar ViewType \f "%tc1">% %<\AcVar ViewSectionStartId>%-%<\AcVar ViewSectionEndId>%\PSCALE %<\AcVar ViewScale \f "%sn">%
 71
     4
300
ANSI31
 40
1.0
 90
        0
290
     0
290
     0
 90
        6
 40
0.0
 40
1.570796326794896
 40
0.2617993877991494
 40
1.308996938995747
 40
-0.2617993877991494
 40
1.832595714594046
  0
ACDBSECTIONVIEWSTYLE
  5
84CB
102
{ACAD_XDICTIONARY
360
8843
102
}
102
{ACAD_REACTORS
330
84CA
102
}
330
84CA
100
AcDbModelDocViewStyle
 70
     0
  3
Metric50
290
     0
100
AcDbSectionViewStyle
 70
     0
 71
     0
 90
      102
 71
     1
340
10
 40
5.0
340
0
340
0
 40
5.0
300
I, O, Q, S, X, Z
 40
10.0
 90
        0
 40
2.5
 90
        0
 71
     2
340
15
 90
       25
340
15
 90
       50
 40
5.0
 40
2.5
 40
5.0
 71
     3
340
10
 40
5.0
 90
        0
 40
15.0
 90
        1
300
%<\AcVar ViewSectionStartId>%-%<\AcVar ViewSectionEndId>% (%<\AcVar ViewScale \f "%sn">%)
 71
     4
300
ANSI31
 40
1.0
 90
        0
290
     0
290
     0
 90
        6
 40
0.0
 40
1.570796326794896
 40
0.2617993877991494
 40
1.308996938995747
 40
-0.2617993877991494
 40
1.832595714594046
  0
TABLESTYLE
  5
84B5
102
{ACAD_XDICTIONARY
360
A803
102
}
102
{ACAD_REACTORS
330
84B4
102
}
330
84B4
100
AcDbTableStyle
  3
Standard
 70
     0
 71
     0
 40
1.5
 41
1.5
280
     0
281
     0
  7
STANDARD
140
4.5
170
     2
 62
     0
 63
     7
283
     0
274
    -2
284
     1
 64
     0
275
    -2
285
     1
 65
     0
276
    -2
286
     1
 66
     0
277
    -2
287
     1
 67
     0
278
    -2
288
     1
 68
     0
279
    -2
289
     1
 69
     0
  7
STANDARD
140
6.0
170
     5
 62
     0
 63
     7
283
     0
274
    -2
284
     1
 64
     0
275
    -2
285
     1
 65
     0
276
    -2
286
     1
 66
     0
277
    -2
287
     1
 67
     0
278
    -2
288
     1
 68
     0
279
    -2
289
     1
 69
     0
  7
STANDARD
140
4.5
170
     5
 62
     0
 63
     7
283
     0
274
    -2
284
     1
 64
     0
275
    -2
285
     1
 65
     0
276
    -2
286
     1
 66
     0
277
    -2
287
     1
 67
     0
278
    -2
288
     1
 68
     0
279
    -2
289
     1
 69
     0
  0
VISUALSTYLE
  5
84A0
102
{ACAD_XDICTIONARY
360
A820
102
}
102
{ACAD_REACTORS
330
849A
102
}
330
849A
100
AcDbVisualStyle
  2
2dWireframe
 70
     4
 71
     0
 72
     2
 73
     0
 90
        0
 40
-0.6
 41
-30.0
 62
     5
 63
     7
 74
     1
 91
        4
 64
     7
 65
   257
 75
     1
175
     1
 42
1.0
 92
        0
 66
   257
 43
1.0
 76
     1
 77
     6
 78
     2
 67
     7
 79
     5
170
     0
171
     0
290
     0
174
     0
 93
        1
 44
0.0
173
     0
291
     0
 45
0.0
1001
ACAD
1000
AcDbSavedByObjectVersion
1070
     0
  0
VISUALSTYLE
  5
849F
102
{ACAD_XDICTIONARY
360
A81E
102
}
102
{ACAD_REACTORS
330
849A
102
}
330
849A
100
AcDbVisualStyle
  2
Basic
 70
     7
 71
     1
 72
     0
 73
     1
 90
        0
 40
-0.6
 41
-30.0
 62
     5
 63
     7
 74
     0
 91
        4
 64
     7
 65
   257
 75
     1
175
     1
 42
1.0
 92
        8
 66
     7
 43
1.0
 76
     1
 77
     6
 78
     2
 67
     7
 79
     5
170
     0
171
     0
290
     0
174
     0
 93
        1
 44
0.0
173
     0
291
     1
 45
0.0
1001
ACAD
1000
AcDbSavedByObjectVersion
1070
     0
  0
VISUALSTYLE
  5
84A6
102
{ACAD_XDICTIONARY
360
A82C
102
}
102
{ACAD_REACTORS
330
849A
102
}
330
849A
100
AcDbVisualStyle
  2
Brighten
 70
    12
 71
     2
 72
     2
 73
     0
 90
        0
 40
-0.6
 41
-30.0
 62
     5
 63
     7
 74
     1
 91
        4
 64
     7
 65
   257
 75
     1
175
     1
 42
1.0
 92
        8
 66
     7
 43
1.0
 76
     1
 77
     6
 78
     2
 67
     7
 79
     5
170
     0
171
     0
290
     0
174
     0
 93
        1
 44
50.0
173
     0
291
     1
 45
0.0
1001
ACAD
1000
AcDbSavedByObjectVersion
1070
     0
  0
VISUALSTYLE
  5
84AA
102
{ACAD_XDICTIONARY
360
A834
102
}
102
{ACAD_REACTORS
330
849A
102
}
330
849A
100
AcDbVisualStyle
  2
ColorChange
 70
    16
 71
     2
 72
     2
 73
     3
 90
        0
 40
-0.6
 41
-30.0
 62
     5
 63
     8
 74
     1
 91
        4
 64
     7
 65
   257
 75
     1
175
     1
 42
1.0
 92
        8
 66
     8
 43
1.0
 76
     1
 77
     6
 78
     2
 67
     7
 79
     5
170
     0
171
     0
290
     0
174
     0
 93
        1
 44
0.0
173
     0
291
     1
 45
0.0
1001
ACAD
1000
AcDbSavedByObjectVersion
1070
     0
  0
VISUALSTYLE
  5
84A3
102
{ACAD_XDICTIONARY
360
A826
102
}
102
{ACAD_REACTORS
330
849A
102
}
330
849A
100
AcDbVisualStyle
  2
Conceptual
 70
     9
 71
     3
 72
     2
 73
     0
 90
        0
 40
-0.6
 41
-30.0
 62
     5
 63
     7
 74
     2
 91
        2
 64
     7
 65
   257
 75
     1
175
     1
 42
179.0
 92
        8
 66
     7
 43
1.0
 76
     1
 77
     6
 78
     2
 67
     7
 79
     3
170
     0
171
     0
290
     0
174
     0
 93
        1
 44
0.0
173
     0
291
     0
 45
0.0
1001
ACAD
1000
AcDbSavedByObjectVersion
1070
     0
  0
VISUALSTYLE
  5
84A5
102
{ACAD_XDICTIONARY
360
A82A
102
}
102
{ACAD_REACTORS
330
849A
102
}
330
849A
100
AcDbVisualStyle
  2
Dim
 70
    11
 71
     2
 72
     2
 73
     0
 90
        0
 40
-0.6
 41
-30.0
 62
     5
 63
     7
 74
     1
 91
        4
 64
     7
 65
   257
 75
     1
175
     1
 42
1.0
 92
        8
 66
     7
 43
1.0
 76
     1
 77
     6
 78
     2
 67
     7
 79
     5
170
     0
171
     0
290
     0
174
     0
 93
        1
 44
-50.0
173
     0
291
     1
 45
0.0
1001
ACAD
1000
AcDbSavedByObjectVersion
1070
     0
  0
VISUALSTYLE
  5
84B2
102
{ACAD_XDICTIONARY
360
A844
102
}
102
{ACAD_REACTORS
330
849A
102
}
330
849A
100
AcDbVisualStyle
  2
EdgeColorOff
 70
    22
 71
     2
 72
     2
 73
     0
 90
        0
 40
-0.6
 41
-30.0
 62
     5
 63
     7
 74
     1
 91
        4
 64
     7
 65
   257
 75
     1
175
     1
 42
1.0
 92
        8
 66
     7
 43
1.0
 76
     1
 77
     6
 78
     2
 67
     7
 79
     5
170
     0
171
     0
290
     0
174
     0
 93
        1
 44
0.0
173
     0
291
     1
 45
0.0
1001
ACAD
1000
AcDbSavedByObjectVersion
1070
     0
  0
VISUALSTYLE
  5
84A9
102
{ACAD_XDICTIONARY
360
A832
102
}
102
{ACAD_REACTORS
330
849A
102
}
330
849A
100
AcDbVisualStyle
  2
Facepattern
 70
    15
 71
     2
 72
     2
 73
     0
 90
        0
 40
-0.6
 41
-30.0
 62
     5
 63
     7
 74
     1
 91
        4
 64
     7
 65
   257
 75
     1
175
     1
 42
1.0
 92
        8
 66
     7
 43
1.0
 76
     1
 77
     6
 78
     2
 67
     7
 79
     5
170
     0
171
     0
290
     0
174
     0
 93
        1
 44
0.0
173
     0
291
     1
 45
0.0
1001
ACAD
1000
AcDbSavedByObjectVersion
1070
     0
  0
VISUALSTYLE
  5
849B
102
{ACAD_XDICTIONARY
360
A816
102
}
102
{ACAD_REACTORS
330
849A
102
}
330
849A
100
AcDbVisualStyle
  2
Flat
 70
     0
 71
     2
 72
     1
 73
     1
 90
        2
 40
-0.6
 41
30.0
 62
     5
 63
     7
 74
     0
 91
        0
 64
     7
 65
   257
 75
     1
175
     1
 42
1.0
 92
        8
 66
     7
 43
1.0
 76
     1
 77
     6
 78
     2
 67
     7
 79
     5
170
     0
171
     0
290
     0
174
     0
 93
       13
 44
0.0
173
     0
291
     1
 45
0.0
1001
ACAD
1000
AcDbSavedByObjectVersion
1070
     0
  0
VISUALSTYLE
  5
849C
102
{ACAD_XDICTIONARY
360
A818
102
}
102
{ACAD_REACTORS
330
849A
102
}
330
849A
100
AcDbVisualStyle
  2
FlatWithEdges
 70
     1
 71
     2
 72
     1
 73
     1
 90
        2
 40
-0.6
 41
30.0
 62
     5
 63
     7
 74
     1
 91
        0
 64
     7
 65
   257
 75
     1
175
     1
 42
1.0
 92
        0
 66
   257
 43
1.0
 76
     1
 77
     6
 78
     2
 67
     7
 79
     5
170
     0
171
     0
290
     0
174
     0
 93
       13
 44
0.0
173
     0
291
     1
 45
0.0
1001
ACAD
1000
AcDbSavedByObjectVersion
1070
     0
  0
VISUALSTYLE
  5
849D
102
{ACAD_XDICTIONARY
360
A81A
102
}
102
{ACAD_REACTORS
330
849A
102
}
330
849A
100
AcDbVisualStyle
  2
Gouraud
 70
     2
 71
     2
 72
     2
 73
     1
 90
        2
 40
-0.6
 41
30.0
 62
     5
 63
     7
 74
     0
 91
        0
 64
     7
 65
   257
 75
     1
175
     1
 42
1.0
 92
        0
 66
     7
 43
1.0
 76
     1
 77
     6
 78
     2
 67
     7
 79
     5
170
     0
171
     0
290
     0
174
     0
 93
       13
 44
0.0
173
     0
291
     1
 45
0.0
1001
ACAD
1000
AcDbSavedByObjectVersion
1070
     0
  0
VISUALSTYLE
  5
849E
102
{ACAD_XDICTIONARY
360
A81C
102
}
102
{ACAD_REACTORS
330
849A
102
}
330
849A
100
AcDbVisualStyle
  2
GouraudWithEdges
 70
     3
 71
     2
 72
     2
 73
     1
 90
        2
 40
-0.6
 41
30.0
 62
     5
 63
     7
 74
     1
 91
        0
 64
     7
 65
   257
 75
     1
175
     1
 42
1.0
 92
        0
 66
   257
 43
1.0
 76
     1
 77
     6
 78
     2
 67
     7
 79
     5
170
     0
171
     0
290
     0
174
     0
 93
       13
 44
0.0
173
     0
291
     1
 45
0.0
1001
ACAD
1000
AcDbSavedByObjectVersion
1070
     0
  0
VISUALSTYLE
  5
84A2
102
{ACAD_XDICTIONARY
360
A824
102
}
102
{ACAD_REACTORS
330
849A
102
}
330
849A
100
AcDbVisualStyle
  2
Hidden
 70
     6
 71
     1
 72
     2
 73
     2
 90
        0
 40
-0.6
 41
-30.0
 62
     5
 63
     7
 74
     2
 91
        2
 64
     7
 65
   257
 75
     2
175
     1
 42
40.0
 92
        0
 66
   257
 43
1.0
 76
     1
 77
     6
 78
     2
 67
     7
 79
     3
170
     0
171
     0
290
     0
174
     0
 93
        1
 44
0.0
173
     0
291
     0
 45
0.0
1001
ACAD
1000
AcDbSavedByObjectVersion
1070
     0
  0
VISUALSTYLE
  5
84B0
102
{ACAD_XDICTIONARY
360
A840
102
}
102
{ACAD_REACTORS
330
849A
102
}
330
849A
100
AcDbVisualStyle
  2
JitterOff
 70
    20
 71
     2
 72
     2
 73
     0
 90
        0
 40
-0.6
 41
-30.0
 62
     5
 63
     7
 74
     1
 91
        4
 64
     7
 65
   257
 75
     1
175
     1
 42
1.0
 92
       10
 66
     7
 43
1.0
 76
     1
 77
     6
 78
     2
 67
     7
 79
     5
170
     0
171
     0
290
     0
174
     0
 93
        1
 44
0.0
173
     0
291
     1
 45
0.0
1001
ACAD
1000
AcDbSavedByObjectVersion
1070
     0
  0
VISUALSTYLE
  5
84A8
102
{ACAD_XDICTIONARY
360
A830
102
}
102
{ACAD_REACTORS
330
849A
102
}
330
849A
100
AcDbVisualStyle
  2
Linepattern
 70
    14
 71
     2
 72
     2
 73
     0
 90
        0
 40
-0.6
 41
-30.0
 62
     5
 63
     7
 74
     1
 91
        4
 64
     7
 65
   257
 75
     7
175
     7
 42
1.0
 92
        8
 66
     7
 43
1.0
 76
     1
 77
     6
 78
     2
 67
     7
 79
     5
170
     0
171
     0
290
     0
174
     0
 93
        1
 44
0.0
173
     0
291
     1
 45
0.0
1001
ACAD
1000
AcDbSavedByObjectVersion
1070
     0
  0
VISUALSTYLE
  5
84B1
102
{ACAD_XDICTIONARY
360
A842
102
}
102
{ACAD_REACTORS
330
849A
102
}
330
849A
100
AcDbVisualStyle
  2
OverhangOff
 70
    21
 71
     2
 72
     2
 73
     0
 90
        0
 40
-0.6
 41
-30.0
 62
     5
 63
     7
 74
     1
 91
        4
 64
     7
 65
   257
 75
     1
175
     1
 42
1.0
 92
        9
 66
     7
 43
1.0
 76
     1
 77
     6
 78
     2
 67
     7
 79
     5
170
     0
171
     0
290
     0
174
     0
 93
        1
 44
0.0
173
     0
291
     1
 45
0.0
1001
ACAD
1000
AcDbSavedByObjectVersion
1070
     0
  0
VISUALSTYLE
  5
84A4
102
{ACAD_XDICTIONARY
360
A828
102
}
102
{ACAD_REACTORS
330
849A
102
}
330
849A
100
AcDbVisualStyle
  2
Realistic
 70
     8
 71
     2
 72
     3
 73
     0
 90
        2
 40
-0.6
 41
30.0
 62
     5
 63
     7
 74
     0
 91
        0
 64
     7
 65
   257
 75
     1
175
     1
 42
1.0
 92
        8
 66
   257
 43
1.0
 76
     1
 77
     6
 78
     2
 67
     7
 79
     3
170
     0
171
     0
290
     0
174
     0
 93
       13
 44
0.0
173
     0
291
     0
 45
0.0
1001
ACAD
1000
AcDbSavedByObjectVersion
1070
     0
  0
VISUALSTYLE
  5
84AF
102
{ACAD_XDICTIONARY
360
A83E
102
}
102
{ACAD_REACTORS
330
849A
102
}
330
849A
100
AcDbVisualStyle
  2
Shaded
 70
    27
 71
     2
 72
     2
 73
     1
 90
        2
 40
-0.6
 41
30.0
 62
     5
 63
     7
 74
     0
 91
        4
 64
     7
 65
   257
 75
     1
175
     1
 42
1.0
 92
        8
 66
   257
 43
1.0
 76
     1
 77
     6
 78
     2
 67
     8
 79
     3
170
     0
171
     0
290
     0
174
     0
 93
        5
 44
0.0
173
     0
291
     0
 45
0.0
1001
ACAD
1000
AcDbSavedByObjectVersion
1070
     0
  0
VISUALSTYLE
  5
84AE
102
{ACAD_XDICTIONARY
360
A83C
102
}
102
{ACAD_REACTORS
330
849A
102
}
330
849A
100
AcDbVisualStyle
  2
Shaded with edges
 70
    26
 71
     2
 72
     2
 73
     1
 90
        2
 40
-0.6
 41
30.0
 62
     5
 63
     7
 74
     1
 91
       10
 64
     7
 65
   257
 75
     2
175
     1
 42
1.0
 92
        8
 66
   257
 43
1.0
 76
     1
 77
     6
 78
     2
 67
     7
 79
     3
170
     0
171
     0
290
     0
174
     0
 93
        5
 44
0.0
173
     0
291
     0
 45
0.0
1001
ACAD
1000
AcDbSavedByObjectVersion
1070
     0
  0
VISUALSTYLE
  5
84AB
102
{ACAD_XDICTIONARY
360
A836
102
}
102
{ACAD_REACTORS
330
849A
102
}
330
849A
100
AcDbVisualStyle
  2
Shades of Gray
 70
    23
 71
     2
 72
     2
 73
     3
 90
        0
 40
-0.6
 41
-30.0
 62
     5
 63
     7
 74
     2
 91
        2
 64
     7
 65
     7
 75
     1
175
     1
 42
40.0
 92
        8
 66
     7
 43
1.0
 76
     1
 77
     6
 78
     2
 67
     7
 79
     3
170
     0
171
     0
290
     0
174
     0
 93
        1
 44
0.0
173
     0
291
     0
 45
0.0
1001
ACAD
1000
AcDbSavedByObjectVersion
1070
     0
  0
VISUALSTYLE
  5
84AC
102
{ACAD_XDICTIONARY
360
A838
102
}
102
{ACAD_REACTORS
330
849A
102
}
330
849A
100
AcDbVisualStyle
  2
Sketchy
 70
    24
 71
     1
 72
     2
 73
     2
 90
        0
 40
-0.6
 41
-30.0
 62
     5
 63
     7
 74
     2
 91
        2
 64
     7
 65
     7
 75
     1
175
     1
 42
40.0
 92
       11
 66
     7
 43
1.0
 76
     1
 77
     6
 78
     2
 67
     7
 79
     6
170
     0
171
     0
290
     0
174
     0
 93
        1
 44
0.0
173
     0
291
     0
 45
0.0
1001
ACAD
1000
AcDbSavedByObjectVersion
1070
     0
  0
VISUALSTYLE
  5
84A7
102
{ACAD_XDICTIONARY
360
A82E
102
}
102
{ACAD_REACTORS
330
849A
102
}
330
849A
100
AcDbVisualStyle
  2
Thicken
 70
    13
 71
     2
 72
     2
 73
     0
 90
        0
 40
-0.6
 41
-30.0
 62
     5
 63
     7
 74
     1
 91
        4
 64
     7
 65
   257
 75
     1
175
     1
 42
1.0
 92
       12
 66
     7
 43
1.0
 76
     1
 77
     6
 78
     2
 67
     7
 79
     5
170
     0
171
     0
290
     0
174
     0
 93
        1
 44
0.0
173
     0
291
     1
 45
0.0
1001
ACAD
1000
AcDbSavedByObjectVersion
1070
     0
  0
VISUALSTYLE
  5
84A1
102
{ACAD_XDICTIONARY
360
A822
102
}
102
{ACAD_REACTORS
330
849A
102
}
330
849A
100
AcDbVisualStyle
  2
Wireframe
 70
     5
 71
     0
 72
     2
 73
     0
 90
        0
 40
-0.6
 41
-30.0
 62
     5
 63
     7
 74
     1
 91
        4
 64
     7
 65
   257
 75
     1
175
     1
 42
1.0
 92
        0
 66
   257
 43
1.0
 76
     1
 77
     6
 78
     2
 67
     7
 79
     3
170
     0
171
     0
290
     0
174
     0
 93
        1
 44
0.0
173
     0
291
     0
 45
0.0
1001
ACAD
1000
AcDbSavedByObjectVersion
1070
     0
  0
VISUALSTYLE
  5
84AD
102
{ACAD_XDICTIONARY
360
A83A
102
}
102
{ACAD_REACTORS
330
849A
102
}
330
849A
100
AcDbVisualStyle
  2
X-Ray
 70
    25
 71
     2
 72
     2
 73
     1
 90
        1
 40
0.5
 41
-30.0
 62
     5
 63
     7
 74
     1
 91
        0
 64
     7
 65
   257
 75
     1
175
     1
 42
1.0
 92
        8
 66
     7
 43
1.0
 76
     1
 77
     6
 78
     2
 67
     7
 79
     3
170
     0
171
     0
290
     0
174
     0
 93
       13
 44
0.0
173
     0
291
     0
 45
0.0
1001
ACAD
1000
AcDbSavedByObjectVersion
1070
     0
  0
DICTIONARYVAR
  5
884E
102
{ACAD_REACTORS
330
8848
102
}
330
8848
100
DictionaryVariables
280
     0
  1
1:1
  0
DICTIONARYVAR
  5
884A
102
{ACAD_REACTORS
330
8848
102
}
330
8848
100
DictionaryVariables
280
     0
  1
STANDARD
  0
DICTIONARYVAR
  5
8849
102
{ACAD_REACTORS
330
8848
102
}
330
8848
100
DictionaryVariables
280
     0
  1
STANDARD
  0
DICTIONARYVAR
  5
884B
102
{ACAD_REACTORS
330
8848
102
}
330
8848
100
DictionaryVariables
280
     0
  1
Metric50
  0
DICTIONARYVAR
  5
884C
102
{ACAD_REACTORS
330
8848
102
}
330
8848
100
DictionaryVariables
280
     0
  1
Metric50
  0
DICTIONARYVAR
  5
A801
102
{ACAD_REACTORS
330
8848
102
}
330
8848
100
DictionaryVariables
280
     0
  1
1
  0
DICTIONARYVAR
  5
A800
102
{ACAD_REACTORS
330
8848
102
}
330
8848
100
DictionaryVariables
280
     0
  1
0
  0
DICTIONARYVAR
  5
8850
102
{ACAD_REACTORS
330
8848
102
}
330
8848
100
DictionaryVariables
280
     0
  1
1
  0
DICTIONARYVAR
  5
8851
102
{ACAD_REACTORS
330
8848
102
}
330
8848
100
DictionaryVariables
280
     0
  1
15
  0
DICTIONARYVAR
  5
884F
102
{ACAD_REACTORS
330
8848
102
}
330
8848
100
DictionaryVariables
280
     0
  1
0
  0
DICTIONARYVAR
  5
884D
102
{ACAD_REACTORS
330
8848
102
}
330
8848
100
DictionaryVariables
280
     0
  1
0
  0
DICTIONARYVAR
  5
A7FF
102
{ACAD_REACTORS
330
8848
102
}
330
8848
100
DictionaryVariables
280
     0
  1
127
  0
DICTIONARYVAR
  5
A802
102
{ACAD_REACTORS
330
8848
102
}
330
8848
100
DictionaryVariables
280
     0
  1
2
  0
DICTIONARY
  5
A80E
102
{ACAD_REACTORS
330
A80C
102
}
330
A80C
100
AcDbDictionary
281
     1
  0
DICTIONARY
  5
A80D
102
{ACAD_REACTORS
330
A80C
102
}
330
A80C
100
AcDbDictionary
281
     1
  3
140686696516080
350
A807
  3
140686696516096
350
A808
  3
140686696516112
350
A809
  3
140686696516128
350
A80A
  3
140686696516144
350
A80B
  0
DICTIONARY
  5
A6AA
330
A25F
100
AcDbDictionary
280
     1
281
     1
  3
ACAD_XREC_ROUNDTRIP
360
A84D
  0
DICTIONARY
  5
8845
330
84CD
100
AcDbDictionary
280
     1
281
     1
  3
ACAD_XREC_ROUNDTRIP
360
A84B
  0
DICTIONARY
  5
A80F
330
8475
100
AcDbDictionary
280
     1
281
     1
  3
ACAD_XREC_ROUNDTRIP
360
A810
  0
DICTIONARY
  5
A811
330
8476
100
AcDbDictionary
280
     1
281
     1
  3
ACAD_XREC_ROUNDTRIP
360
A812
  0
DICTIONARY
  5
848B
330
848A
100
AcDbDictionary
280
     1
281
     1
  3
ACAD_XREC_ROUNDTRIP
360
A814
  3
BUMPTILE
360
848D
  3
DIFFUSETILE
360
848C
  3
OPACITYTILE
360
8490
  3
REFLECTIONTILE
360
848F
  3
REFRACTIONTILE
360
8491
  3
SPECULARTILE
360
848E
  0
DICTIONARY
  5
8483
330
8482
100
AcDbDictionary
280
     1
281
     1
  3
ACAD_XREC_ROUNDTRIP
360
A813
  3
BUMPTILE
360
8485
  3
DIFFUSETILE
360
8484
  3
OPACITYTILE
360
8488
  3
REFLECTIONTILE
360
8487
  3
REFRACTIONTILE
360
8489
  3
SPECULARTILE
360
8486
  0
DICTIONARY
  5
8493
330
8492
100
AcDbDictionary
280
     1
281
     1
  3
ACAD_XREC_ROUNDTRIP
360
A815
  3
BUMPTILE
360
8495
  3
DIFFUSETILE
360
8494
  3
FBXASSET
360
8878
  3
OPACITYTILE
360
8498
  3
REFLECTIONTILE
360
8497
  3
REFRACTIONTILE
360
8499
  3
SPECULARTILE
360
8496
  0
DICTIONARY
  5
A848
330
84C9
100
AcDbDictionary
280
     1
281
     1
  3
ACAD_XREC_ROUNDTRIP
360
A849
  0
DICTIONARY
  5
A6A8
330
A25E
100
AcDbDictionary
280
     1
281
     1
  3
ACAD_XREC_ROUNDTRIP
360
A84C
  0
DICTIONARY
  5
8843
330
84CB
100
AcDbDictionary
280
     1
281
     1
  3
ACAD_XREC_ROUNDTRIP
360
A84A
  0
DICTIONARY
  5
A803
330
84B5
100
AcDbDictionary
280
     1
281
     1
  3
ACAD_ROUNDTRIP_2008_TABLESTYLE_CELLSTYLEMAP
360
A804
  3
ACAD_XREC_ROUNDTRIP
360
A846
  0
DICTIONARY
  5
A820
330
84A0
100
AcDbDictionary
280
     1
281
     1
  3
ACAD_XREC_ROUNDTRIP
360
A821
  0
DICTIONARY
  5
A81E
330
849F
100
AcDbDictionary
280
     1
281
     1
  3
ACAD_XREC_ROUNDTRIP
360
A81F
  0
DICTIONARY
  5
A82C
330
84A6
100
AcDbDictionary
280
     1
281
     1
  3
ACAD_XREC_ROUNDTRIP
360
A82D
  0
DICTIONARY
  5
A834
330
84AA
100
AcDbDictionary
280
     1
281
     1
  3
ACAD_XREC_ROUNDTRIP
360
A835
  0
DICTIONARY
  5
A826
330
84A3
100
AcDbDictionary
280
     1
281
     1
  3
ACAD_XREC_ROUNDTRIP
360
A827
  0
DICTIONARY
  5
A82A
330
84A5
100
AcDbDictionary
280
     1
281
     1
  3
ACAD_XREC_ROUNDTRIP
360
A82B
  0
DICTIONARY
  5
A844
330
84B2
100
AcDbDictionary
280
     1
281
     1
  3
ACAD_XREC_ROUNDTRIP
360
A845
  0
DICTIONARY
  5
A832
330
84A9
100
AcDbDictionary
280
     1
281
     1
  3
ACAD_XREC_ROUNDTRIP
360
A833
  0
DICTIONARY
  5
A816
330
849B
100
AcDbDictionary
280
     1
281
     1
  3
ACAD_XREC_ROUNDTRIP
360
A817
  0
DICTIONARY
  5
A818
330
849C
100
AcDbDictionary
280
     1
281
     1
  3
ACAD_XREC_ROUNDTRIP
360
A819
  0
DICTIONARY
  5
A81A
330
849D
100
AcDbDictionary
280
     1
281
     1
  3
ACAD_XREC_ROUNDTRIP
360
A81B
  0
DICTIONARY
  5
A81C
330
849E
100
AcDbDictionary
280
     1
281
     1
  3
ACAD_XREC_ROUNDTRIP
360
A81D
  0
DICTIONARY
  5
A824
330
84A2
100
AcDbDictionary
280
     1
281
     1
  3
ACAD_XREC_ROUNDTRIP
360
A825
  0
DICTIONARY
  5
A840
330
84B0
100
AcDbDictionary
280
     1
281
     1
  3
ACAD_XREC_ROUNDTRIP
360
A841
  0
DICTIONARY
  5
A830
330
84A8
100
AcDbDictionary
280
     1
281
     1
  3
ACAD_XREC_ROUNDTRIP
360
A831
  0
DICTIONARY
  5
A842
330
84B1
100
AcDbDictionary
280
     1
281
     1
  3
ACAD_XREC_ROUNDTRIP
360
A843
  0
DICTIONARY
  5
A828
330
84A4
100
AcDbDictionary
280
     1
281
     1
  3
ACAD_XREC_ROUNDTRIP
360
A829
  0
DICTIONARY
  5
A83E
330
84AF
100
AcDbDictionary
280
     1
281
     1
  3
ACAD_XREC_ROUNDTRIP
360
A83F
  0
DICTIONARY
  5
A83C
330
84AE
100
AcDbDictionary
280
     1
281
     1
  3
ACAD_XREC_ROUNDTRIP
360
A83D
  0
DICTIONARY
  5
A836
330
84AB
100
AcDbDictionary
280
     1
281
     1
  3
ACAD_XREC_ROUNDTRIP
360
A837
  0
DICTIONARY
  5
A838
330
84AC
100
AcDbDictionary
280
     1
281
     1
  3
ACAD_XREC_ROUNDTRIP
360
A839
  0
DICTIONARY
  5
A82E
330
84A7
100
AcDbDictionary
280
     1
281
     1
  3
ACAD_XREC_ROUNDTRIP
360
A82F
  0
DICTIONARY
  5
A822
330
84A1
100
AcDbDictionary
280
     1
281
     1
  3
ACAD_XREC_ROUNDTRIP
360
A823
  0
DICTIONARY
  5
A83A
330
84AD
100
AcDbDictionary
280
     1
281
     1
  3
ACAD_XREC_ROUNDTRIP
360
A83B
  0
XRECORD
  5
A807
102
{ACAD_REACTORS
330
A80D
102
}
330
A80D
100
AcDbXrecord
280
     1
  1
AcDb_Thumbnail_Schema
102
{ATTRRECORD
341
A808
  2
AcDbDs::TreatedAsObjectData
280
     1
291
     1
102
ATTRRECORD}
102
{ATTRRECORD
341
A809
  2
AcDbDs::Legacy
280
     1
291
     1
102
ATTRRECORD}
  2
AcDbDs::ID
280
    10
 91
        8
102
{ATTRRECORD
341
A80A
  2
AcDs:Indexable
280
     1
291
     1
102
ATTRRECORD}
102
{ATTRRECORD
341
A80B
  2
AcDbDs::HandleAttribute
280
     7
282
     1
102
ATTRRECORD}
  2
Thumbnail_Data
280
    15
 91
        0
  0
XRECORD
  5
A808
102
{ACAD_REACTORS
330
A80D
102
}
330
A80D
100
AcDbXrecord
280
     1
  1
AcDbDs::TreatedAsObjectDataSchema
  2
AcDbDs::TreatedAsObjectData
280
     1
 91
        0
  0
XRECORD
  5
A809
102
{ACAD_REACTORS
330
A80D
102
}
330
A80D
100
AcDbXrecord
280
     1
  1
AcDbDs::LegacySchema
  2
AcDbDs::Legacy
280
     1
 91
        0
  0
XRECORD
  5
A80A
102
{ACAD_REACTORS
330
A80D
102
}
330
A80D
100
AcDbXrecord
280
     1
  1
AcDbDs::IndexedPropertySchema
  2
AcDs:Indexable
280
     1
 91
        0
  0
XRECORD
  5
A80B
102
{ACAD_REACTORS
330
A80D
102
}
330
A80D
100
AcDbXrecord
280
     1
  1
AcDbDs::HandleAttributeSchema
  2
AcDbDs::HandleAttribute
280
     7
 91
        1
284
     1
  0
XRECORD
  5
A84D
102
{ACAD_REACTORS
330
A6AA
102
}
330
A6AA
100
AcDbXrecord
280
     1
102
DISPLAYNAME
  1
Imperial24
102
FLAGS
 90
        0
  0
XRECORD
  5
A84B
102
{ACAD_REACTORS
330
8845
102
}
330
8845
100
AcDbXrecord
280
     1
102
DISPLAYNAME
  1
Metric50
102
FLAGS
 90
        0
  0
XRECORD
  5
A810
102
{ACAD_REACTORS
330
A80F
102
}
330
A80F
100
AcDbXrecord
280
     1
102
SHADEPLOT
 70
     0
102
SHADEPLOTRESLEVEL
 70
     2
102
SHADEPLOTCUSTOMDPI
 70
   300
  0
XRECORD
  5
A812
102
{ACAD_REACTORS
330
A811
102
}
330
A811
100
AcDbXrecord
280
     1
102
SHADEPLOT
 70
     0
102
SHADEPLOTRESLEVEL
 70
     2
102
SHADEPLOTCUSTOMDPI
 70
   300
  0
XRECORD
  5
A814
102
{ACAD_REACTORS
330
848B
102
}
330
848B
100
AcDbXrecord
280
     1
102
MATERIAL
148
0.0
149
0.0
149
0.0
 93
        0
 94
      127
282
     0
 72
     0
 77
     0
171
     0
175
     0
179
     0
273
     0
  0
XRECORD
  5
848D
102
{ACAD_REACTORS
330
848B
102
}
330
848B
100
AcDbXrecord
280
     1
270
     1
271
     1
  0
XRECORD
  5
848C
102
{ACAD_REACTORS
330
848B
102
}
330
848B
100
AcDbXrecord
280
     1
270
     1
271
     1
  0
XRECORD
  5
8490
102
{ACAD_REACTORS
330
848B
102
}
330
848B
100
AcDbXrecord
280
     1
270
     1
271
     1
  0
XRECORD
  5
848F
102
{ACAD_REACTORS
330
848B
102
}
330
848B
100
AcDbXrecord
280
     1
270
     1
271
     1
  0
XRECORD
  5
8491
102
{ACAD_REACTORS
330
848B
102
}
330
848B
100
AcDbXrecord
280
     1
270
     1
271
     1
  0
XRECORD
  5
848E
102
{ACAD_REACTORS
330
848B
102
}
330
848B
100
AcDbXrecord
280
     1
270
     1
271
     1
  0
XRECORD
  5
A813
102
{ACAD_REACTORS
330
8483
102
}
330
8483
100
AcDbXrecord
280
     1
102
MATERIAL
148
0.0
149
0.0
149
0.0
 93
        0
 94
      127
282
     0
 72
     0
 77
     0
171
     0
175
     0
179
     0
273
     0
  0
XRECORD
  5
8485
102
{ACAD_REACTORS
330
8483
102
}
330
8483
100
AcDbXrecord
280
     1
270
     1
271
     1
  0
XRECORD
  5
8484
102
{ACAD_REACTORS
330
8483
102
}
330
8483
100
AcDbXrecord
280
     1
270
     1
271
     1
  0
XRECORD
  5
8488
102
{ACAD_REACTORS
330
8483
102
}
330
8483
100
AcDbXrecord
280
     1
270
     1
271
     1
  0
XRECORD
  5
8487
102
{ACAD_REACTORS
330
8483
102
}
330
8483
100
AcDbXrecord
280
     1
270
     1
271
     1
  0
XRECORD
  5
8489
102
{ACAD_REACTORS
330
8483
102
}
330
8483
100
AcDbXrecord
280
     1
270
     1
271
     1
  0
XRECORD
  5
8486
102
{ACAD_REACTORS
330
8483
102
}
330
8483
100
AcDbXrecord
280
     1
270
     1
271
     1
  0
XRECORD
  5
A815
102
{ACAD_REACTORS
330
8493
102
}
330
8493
100
AcDbXrecord
280
     1
102
MATERIAL
148
0.0
149
0.0
149
0.0
 93
        0
 94
      127
282
     0
 72
     0
 77
     0
171
     0
175
     0
179
     0
273
     0
  0
XRECORD
  5
8495
102
{ACAD_REACTORS
330
8493
102
}
330
8493
100
AcDbXrecord
280
     1
270
     1
271
     1
  0
XRECORD
  5
8494
102
{ACAD_REACTORS
330
8493
102
}
330
8493
100
AcDbXrecord
280
     1
270
     1
271
     1
  0
XRECORD
  5
8878
102
{ACAD_REACTORS
330
8493
102
}
330
8493
100
AcDbXrecord
280
     1
 70
     1
 90
1959938040
 71
     1
  1
FA086245-86C3-4C2E-8847-F4D34640E900
311
504B0304140006080800A459F84A472EF782DB000000200100004F00000036433431423341432D413938452D343741312D414433392D4146343036463342444539412F4173736574446174612F446566696E6974696F6E4974657261746F7250726F706572746965732E62696E454E3D4FC33010350C200606FE41D5DDD84E
311
DAE6436D51298609169858AAAB7B0D911CA7B21D8991917F0D6751D493DEBDFB7C77DF8CB19FA351C8CE085FE4AF899FD0A16FCDABF9C00ED845AAD87E0BF6F2D43BA730A50FB887C1C6B4F5DC0683D682C37E0837A7D1510791E4C0DEA6A52BC27F212485E6EF58BAFF42482F2586DDA1BE8310302EC47EFB29B4BCCF5733
311
55715D68C527D372CA4B95CFF8BAD0D9FA5157BA942BE131F48337184426E4E6A8BC39B8061763E391FED88D979954059705CF266F4AD52AAF65F53E17B1ED70390FD1B7AE1939E87E01504B0304140006080800A459F84A212C1E2E07010000300200004500000036433431423341432D413938452D343741312D41443339
311
2D4146343036463342444539412F4173736574446174612F496E7374616E636550726F706572746965732E62696EEB606060F80F0540260323103700495E20ED9E9A975A94991C9C9C919A9BA80214707334B030333231D5B5307336D635713672D5B5B03031D7753371313631333170B53430604768046931363471713532
311
B5D4353531016A313332D475727372D13534373670367376B67474B5042A03DBCBA019D37FE8ABC6157B20CD04146B0062181F4C03F940F0C11EA29A8141C08141002C0426541C106CAC2CA046088033B02A030AC2157C6006F21A8018AAF50194E6010A610250382264E08660284CD9E98021862280A91564B406929A0FF6
311
2C401E28B6F88038B83CB1243943D7A928312F2535052403033A4086231077B1F030AE605F0A1346A14166C30490D5B3B047C184E13400504B0304140006080800A459F84A28BB58AF800100009E0500003D00000036433431423341432D413938452D343741312D414433392D4146343036463342444539412F536368656D
311
61732F436F6D6D6F6E536368656D612E786D6CBD544D4FC23018BEFB2B96DE15493C78601010A34B880709DEDFB52FD0D8B54BD70DF6EFED3AC0B12E6442E2716BFB3CEFF3D18E26FB440405EA8C2B1992E1C323095052C5B8DC842437EBFB673219DF8DA659866649B798C078B48AE6410122242F2A4994AC7F93815DF85C
311
049C8564CA0A901499DD886B2EB9B1E02448F358701A9235880C49A0119892A20C89D1B9FD768815CAD268CB5E0355B40B1E47F3E37A2020464BED06AA57CE8FCC20C3C3446D46761A2632A8C1283D07031EFF2AE7CCB1BFEEE916E406DFAC8E36FFD99A9D60A6944090EEDC3B670C7DC13DE86B6B2C5C240D6E503BB85ACD
311
579D513F1B9F9A69DC9CC22AFA80C426D40AF0B21EA168559156B6276F0F726A6BFF04DCD513A87A62CAD41FB24FCB2858B3952E3D852084DA25B9303C15687973CC8E8AAE11DF2836C38C6A9E765E8C1BA1BFB1DC29CDFE518C8B5A7655A4ED7E77291ABEB80DBD82EC866ADE1B8D05AF9E35CF09D7A061F38A986D9EC412
311
B8F0F65E5D81534D9B231D1E5A8FE577A241F3A5FD01504B0304140006080800A459F84A2CCEBD668A040000E01200003E00000036433431423341432D413938452D343741312D414433392D4146343036463342444539412F536368656D61732F47656E65726963536368656D612E786D6CD5586D6FDB380CFE7EBF42F0F7
311
A649B70E1B90744856B4970F450FCD7A5F05459613EDE4174872DADCAF3F522F8ED3B88D2F1D06AC4050DBA2493EE4438AF2F8EB73AEC8466823CB62928C06C384888297A92C5693A4B6D9D9E7E4EBD51FE3A931C22EF85AE4EC6AFC38BF261BA626C9AD288496DC3F4FCEAFC63366845F7A10452AF41DB320C0D44EC26EAB
311
20918735565582695670811A6A49643A49A6E9069FA4604A64B29016DC4B48552F95E4932463CA888468C1D2B250DB4962750DF7CE273069CE8363F1FF4EDB00E0A21999574AE4A2B00C353B93F3BD4777B8A61ED8F604ABFEDD79CE56A2B7BDFBDBC50996E0ADDE16FED26223C5D30956C29BDF4A55EA686E5E58B112DA45
311
CE67F76F4FA27EFA3FB672FD7372FC388FAECDCA5209E693CAD167BADCD272F943701B3812F8A3D852008B1D2E32DB927B2F833C6EA95879925356D254582695095A3CE982924720BE5774A3CB9CDCDB350427D2DF20DA1B5532EBE2D5D6288D75D4F7E4FD9890A0EF8E3D93EBB8F8BA4758158EF6FB90A6F9520281C93DE7
311
AAC6D24607DA296BB96018123F821A7D6A5C5884050C475DA4865442732C8B95684A50165CBB3A32F25F783A4A480ED59AD7F924B968AEA50131F46303223E6A397B0E52976030DC1DCA81D7E7C1EDEEA42C19FF27635C505E2BD5198A599020DF50A2330FCB3AAF28CB0124108429553EF1B228802E2265D8F7CC2401042B
311
155BCC7070F1E5C55F13B4A9577362CCCE46C32174E010C3C378C44841A4BDA00FE3A12006CE11EE6AEC59894D3526DDE1CD59D503ECC324017F8061B7F162162FA62EDD81AE3308617770796DCBDAD2B2625C5AE8A63DE20B2C8AA5E95E76E5730823955956E33E705425A2187C185D36489A1B44D3DCEC2172F6BA2105C3
311
546287A7194B2331768EBBE64F6E70A9930ABE0ADEA89E9E2C38523B810287AD67A54A039C1606EAFE68F8304610BB9093DBDDABC0B2AE4E290DCDA15376D7E39F72B556F0B32EAB5D3D498B4C41ABADEC3A1434C422D87E8025A84BDCB2B1417ED750FAE4DA8976863974C577C7F902D3F156AD354DEA3540DE6BEAE2BEA5
311
2F7A2EB4CA43802ECE5BF2CE2EDC9347179FFB023CE412E60BE16DA0BE29B374988A553F561DC04615DD35F7D2C8979F60E5955CE93DF29DED8AFA1EE6642D53418086C03C47C377910F75F7E8F5EF665F70B60FFB22AEDF897D119E8423C773E819A3C1E55E550599EE6EDCA34D0C86FD72057DF2CD46F16A470682471C16
311
4E4346D5306BF12D7D12D82CFF673D41636C347443FEB51B50D72EA171A8E4A58623A4A16E0FA2B8B10A0D23268D87C33896EE8FB73305A74BF224EDBADFA0BD674AB354D63DB7BD5D83426761C077DE767728235446A552754EB93B755891C3C4CC6CADE37CF0E912A7BB38DBA010F9DE1282EDF470CA69A9CDA482E334C4
311
A6EA4107987980B17E72F31730EBF88BBD39E7C629F56797A3C0009C2C5AE7951D9A05A02773440F02EEB4DE396A3B6A570C72CCFBCD823B0B8ED3F1D5CEDDFED772FA70236C83FB7D86C385D570B87107535572A60A96035F8F7C6A7192F13007246BBE0521855E6AC46F3E27689CEE7D186A6FD679D98CDCAD13333E04EB
311
E7ED6F55FF01504B0304140006080800A459F84A6180134D5F0100006B0300004500000036433431423341432D413938452D343741312D414433392D4146343036463342444539412F536368656D61732F52656E6465724D6174657269616C536368656D612E786D6CA5934D6FC2300C86EFFB1551EEE343DBA41D1A103009
311
551ADAD40EAE28A4A68D9426284961FCFBE5A340113B2071746D3F765EBF4DC6BFB5407BD0862B49F0B037C0082453059725C18DDD3EBFE3F1E829991803366715D474942CD30FB4A782E00C64017A412D684E454CE3FE28995203B162A6EA5AC94B66997D225E109CD63B0135484BAD1B3C07E9080CA35DB3119C11BCA5C2
311
00461A68A1A438126C75E3E230D40FF81FB3F03C91D1E3A3A0AF79FE28E25BC39EC3E17E4C2A2D94A0833A51AF55BCCA7D88572FCBAC529C4140B020FC3AAFA886621DCED7EAD7664CC86024E806DC297DA1BB393E4156543457A4537DB8817349A70F8ACBF09B3EEE2CB2F33E91B65D60786E4E3B39B77E3FEEEF56504245
311
25DA657FB8B46BE6BF064646F0A0F7327C0BC1BC1B4CBBC1C419FA3CCB23500007872A2580CAAE5461865565294E4EDB4617B62FF579DF9A5B2F54E834076A597573A020912FED777F9B3F504B0304140006080800A459F84A8990D76451000000570000004700000036433431423341432D413938452D343741312D414433
311
392D4146343036463342444539412F4173736574446174612F41737365745461626C654F66436F6E74656E74732E62696E53616060707334B030333231D5B5307336D635713672D5B5B03031D7753371313631333170B534301002AACB4D2C492DCA4CCC492C28484D2C4ACC4B4E050A82012F90744FCD03CA26072767A4E6
311
260200504B0304140006080800A459F84AF865834058000000680000004500000036433431423341432D413938452D343741312D414433392D4146343036463342444539412F4173736574446174612F53747265616D56657273696F6E5461626C652E696E66558CBD0A80300C06F73E4B117FB66E451741D041DC5BF98480
311
A492E4FDD18EAEC7DD4555D89EF28DF51A0B1BD8340C4DE7DD848B988C0ACF0649566493F2408C508DDEBB99D5129FF8F1AF8CF5B9503E20FAE5A16B5AF702504B0304140006080800A459F84AC9E09C57350100009A0400003600000036433431423341432D413938452D343741312D414433392D41463430364633424445
311
39412F4173736574446174612F636E782E786D6CCD94314FC3301085FF4AE43D7652900A95E30AC1D209242A06B6AB7369AD3A76645F10FC7BEC3403A888A943D7F3BBF3F327BF93EBCFDE161F18A2F1AE6135AF58814EFBD6B87DC346EACA3B56AC950CDED30F192B1CF4D8B05C664AEE831F87B9D46207A3CD556BDC712E
311
3EC488B4859DC5E7EED13B42479115DA428C0D8BFA803D7018C9B7188FBC05025EF380D18F41639A44A6C779920E08842D538BAA5E96D5B25CDC6EEB7A55DFACAAFB7729B252C99DF776D69B7459F043A14FB7325549918F951C839935F92D4CFDE591EF8C932229958C141293B983BE86D401C3608D064AE884D784542611
311
422FC549ACA4C80C7E9178C2CE38935B36C918900F2FC91E0632787544FEF37A79321B17099CC6EBE571EEF0F2145EA71FF4760AE494986BCBC9B9436E5C77819488698DA4D0E4ADA2BE01504B0304140006080800A459F84A5E9D02F2080100004F0300003400000036433431423341432D413938452D343741312D414433
311
392D4146343036463342444539412F536368656D61732F636E782E786D6CCD933F4F432114C5BFCA0B7BE1514DAA0D8F0E0E4E2EEAE48670DB9202F7853F46BFBDF0646813371DBAC1E11772CEE122769FDE0D1F1093C530114E473240D0686C384CA4E4FDEA8E0C3B2922623EC3C810948789349948718858E62E19D8ABE2
311
9AEA6C3875F101BDC7F0A28FE01519B453294D242D5BAA4A4603E9448DCA8A721A2161891AEA0DD97AE837E8082A8321723DF2CD6ADCACD6B7AF9C6FF9CD76BC7F13AC9152BC23BACEDB9021E23C68AC8B50ED8C82B563294AB49D6919883CF7466B1B8255428A9463EDA093F96BAEA49A6767B5CAB52AB6803F8C14AC45BD
311
08FC0801A2D5D799F8C2DCBF457E8660203ED5578A56B9EB4CFE9BC7BF15C096D9AF23D0BE82FC06504B0304140006080800A459F84A410A3D5871000000A40000002C00000036433431423341432D413938452D343741312D414433392D4146343036463342444539412F636E782E786D6C55CC4D0E82301086E1AB34B317
311
74E7A22D31F1069E60020334B633A63FC6E34B0909B07DDE2F9FEE7EC1AB2FC5E4840DDC9A2B28E25E06C7938192C7CB1D54677514C9871928C640062A83D55394F2D968A0118BAFEA1DBF377CA444F98919176EAB9FEAAB9F2960DA5BBB1E2ED3FA6FFF504B0304140006080800A459F84ABF46773B7E000000A300000007
311
000000636E782E786D6C4D8C4D0AC3201805AF22DFDE36A2A411D460FEEE111A13A4468B8DA5C7AF962CBA7A30BC19D17E7687DE26BE6CF012C8A50264FC3D2CD66F12D2B1E20650AB440CE1F8BB01F2F36E24140C4A6C31A4E78916B3CEC915EAAC7F9CB0EE19E9A8EEB1E6CD88D94D13AC07CAB19E58554FB41B46AEB371
311
2D4A9E5F2F6FC9AB2F504B0304140006080800A459F84A16E99B5DA600000035010000130000005B436F6E74656E745F54797065735D2E786D6C9590410E82301045AFD2740F4517C6180A0BF5065E60AC53688469D30E066F6F91AD9AB89CF9FFFD3F99BA9DC7413C3026E749CB4D59498164FCCD51A7E5C4B6D84BD136F5
311
E5193089ECA5A465CF1C0E4A25D3E308A9F401292BD6C711388FB15301CC1D3A54DBAADA29E38991B8E0254336F5092D4C038BF39CD76B6FC6A538AEBEA54A4B08617006389FA516557DE4AE8E7E70DE30729138228C5F021CD93F02D4FB0DCD0B504B0304140006080800A459F84A3DEE336E64000000790000001B000000
311
6175746F6465736B2D64657369676E2D7061636B6167652E786D6C35CBC10E83200C00D05F21DCA56CA76D41FC96062B120735B69A7DBE268BB7777961F8D5AF396893C2ADB70FE7ADA196782C2DF776D7A97B5933C430F15651E5469C55D70F80A4992A3ADC954792C525AE70A1E4D6AD9816CC044FEFDF01FE3FDE907802
311
504B0304140006080800A459F84AC436F5E7F7000000960100003700000036433431423341432D413938452D343741312D414433392D4146343036463342444539412F4173736574446174612F636F72652E786D6C8550416EC32010FC8AB5776C6350B1234C94C8F20B7AEA0D19E2A0C46019A8FAFC42EC4AEDA9A75DCDCE
311
CCEE0E3F7F2DCFE2536FDE38DB032E6B28B49D9C3276EE21861B6AA1380BBE39177ED1A0B072D13D6418049F3717D7039A9C0DDA66D43AA50F507AAF0314D333353DF8E9AE1759CA1812C33FCA554E0F39EB12973B4FF0188D3AA446253773337A0331624AEB9610741D2941940C0C5D58F7863A4AD99576E34059CBAB2C16
311
3C98E567FBB46919B402D1D498A19AA186BE637CC2E454771FBCCA4CC17DD8D2CFC7D2FC1D884BBE7A9041F26A9FFE718DABFADF351A1B4873B8EE0A0F02A7235F03C1AB9C522AAF0853CD898A6F504B0304140006080800A459F84AEF39D766F6000000940100003500000036433431423341432D413938452D343741312D
311
414433392D4146343036463342444539412F536368656D61732F636F72652E786D6C8550C16E842010FD153377549414DD209B6E36FE407BEA8D00EB925DC10834FDFC82DAA43DF5349337EFBD9979ECFC353F8B4FBD7AE3EC00B8ACA1D0563A65EC34400C37D44171E66C752EFCA24161C5AC07C8307036AD2E2E07249D0D
311
DA66D43AA50F5078AF0314F2999A01BCBCEB59942286C4F08F7211F221265DE272E77116A35187D4A8E4666E46AFC0474C48DDB52DBA8CA445A4BD52F44AFB17D413422FA41FAF8476ACCA62CE82997FB6CB558BA015F0A6C614D51435E41DE3136E4F75FFC1AACCE4CC8735FD7C2CCDDF017FDBEEF4ACDA677F3CE3A2FEF7
311
8CC686B6393C7785078ED389DB80B32A6794CA1660AA394FFE0D504B0304140006080800A459F84A580CD71B02010000D70100002D00000036433431423341432D413938452D343741312D414433392D4146343036463342444539412F636F72652E786D6C9591DD72832010855F85D97B54D4C6984132E6EF097AD53B0A1B
311
C3248223D8E9E317AB9DB677ED15CCE13BBB9C5DBE7FEF1FE40D476F9C6D80251910B4CA6963BB06A670A55B207BC147E7C20F0C88953D3630CB207837BA695825E56C403BABD6695C45E93D0620EA112F0D7875C35E26720A91F0F76490EA2E3B4C58B2708207D37F59D58832A0069167ACA25945F3F299B11D2B7659FDC2
311
D399147C323614F9DA0CFB57D4C40D214602F1C4D3E5355293D12B6374FCA3B91A1C416C8E253B14ED91B6F5F64CCBAA65B43D15356D2F65B6B91487D3B96E63916816DC87314E662D32CFE0AFF6C5F82BD934E87F265B1C1E04FB0E95CE63163CFDDC413CE795880F504B0304140006080800A459F84AD0CAE6FD06010000
311
B201000008000000636F72652E786D6C8D50416EC32010FC0ADA3BB6B15189234CD428F20B7AEA8D1AE2A0D8601988DADF1762576A6F3D2D9A99DD19869F3EE7093DF4EA8DB31D90A202A4EDE094B16307315CF101D049F0D5B9F04B06C8CA59779061107C5C5D5C76687036689B51EB94DE41E9BD0E8086293D3AF0C34DCF
311
B290312485BF178B1CEE72D40529369DE0C1CC3FABC3AA65D00A445D11862B866BFA46C89134C7AA7DE765560A1EA351BB9551C9DD5C8D5E41F484D2EAD034F8DCD306D3E6C2F02B6B5F704B293BD3B6BF5076E0655E16DC8735FD793F927206E4E523FBF272A304FF706EDA05299442CE4E5F202A5E66E24FE8B8A87F8436
311
3634F57E70DBF020480AF42492716E308D67BD69E6B6C537504B01021400140006080800A459F84A472EF782DB000000200100004F000000000000000000000000000000000036433431423341432D413938452D343741312D414433392D4146343036463342444539412F4173736574446174612F446566696E6974696F6E
311
4974657261746F7250726F706572746965732E62696E504B01021400140006080800A459F84A212C1E2E070100003002000045000000000000000000000000004801000036433431423341432D413938452D343741312D414433392D4146343036463342444539412F4173736574446174612F496E7374616E636550726F70
311
6572746965732E62696E504B01021400140006080800A459F84A28BB58AF800100009E0500003D00000000000000000000000000B202000036433431423341432D413938452D343741312D414433392D4146343036463342444539412F536368656D61732F436F6D6D6F6E536368656D612E786D6C504B0102140014000608
311
0800A459F84A2CCEBD668A040000E01200003E000000000000000000000000008D04000036433431423341432D413938452D343741312D414433392D4146343036463342444539412F536368656D61732F47656E65726963536368656D612E786D6C504B01021400140006080800A459F84A6180134D5F0100006B03000045
311
000000000000000000000000007309000036433431423341432D413938452D343741312D414433392D4146343036463342444539412F536368656D61732F52656E6465724D6174657269616C536368656D612E786D6C504B01021400140006080800A459F84A8990D764510000005700000047000000000000000000000000
311
00350B000036433431423341432D413938452D343741312D414433392D4146343036463342444539412F4173736574446174612F41737365745461626C654F66436F6E74656E74732E62696E504B01021400140006080800A459F84AF865834058000000680000004500000000000000000000000000EB0B00003643343142
311
3341432D413938452D343741312D414433392D4146343036463342444539412F4173736574446174612F53747265616D56657273696F6E5461626C652E696E66504B01021400140006080800A459F84AC9E09C57350100009A0400003600000000000000000000000000A60C000036433431423341432D413938452D343741
311
312D414433392D4146343036463342444539412F4173736574446174612F636E782E786D6C504B01021400140006080800A459F84A5E9D02F2080100004F03000034000000000000000000000000002F0E000036433431423341432D413938452D343741312D414433392D4146343036463342444539412F536368656D6173
311
2F636E782E786D6C504B01021400140006080800A459F84A410A3D5871000000A40000002C00000000000000000000000000890F000036433431423341432D413938452D343741312D414433392D4146343036463342444539412F636E782E786D6C504B01021400140006080800A459F84ABF46773B7E000000A300000007
311
0000000000000000000000000044100000636E782E786D6C504B01021400140006080800A459F84A16E99B5DA6000000350100001300000000000000000000000000E71000005B436F6E74656E745F54797065735D2E786D6C504B01021400140006080800A459F84A3DEE336E64000000790000001B000000000000000000
311
00000000BE1100006175746F6465736B2D64657369676E2D7061636B6167652E786D6C504B01021400140006080800A459F84AC436F5E7F70000009601000037000000000000000000000000005B12000036433431423341432D413938452D343741312D414433392D4146343036463342444539412F417373657444617461
311
2F636F72652E786D6C504B01021400140006080800A459F84AEF39D766F6000000940100003500000000000000000000000000A713000036433431423341432D413938452D343741312D414433392D4146343036463342444539412F536368656D61732F636F72652E786D6C504B01021400140006080800A459F84A580CD7
311
1B02010000D70100002D00000000000000000000000000F014000036433431423341432D413938452D343741312D414433392D4146343036463342444539412F636F72652E786D6C504B01021400140006080800A459F84AD0CAE6FD06010000B201000008000000000000000000000000003D160000636F72652E786D6C50
311
4B050600000000110011005A060000691700000000
310
504B0304140006080800A459F84A000000000000000000000000370000006662782F41344333303445442D364139382D344431312D423536462D3136364442423937433431312F617474726962757465732E62696E504B0304140006080800A459F84A000000000000000000000000350000006662782F4134433330344544
310
2D364139382D344431312D423536462D3136364442423937433431312F76657274696365732E62696E504B0304140006080800A459F84AF270F1330600000004000000360000006662782F41344333303445442D364139382D344431312D423536462D3136364442423937433431312F747269616E676C65732E62696E6366
310
60600000504B0304140006080800A459F84A51464CB48900000043010000360000006662782F41344333303445442D364139382D344431312D423536462D3136364442423937433431312F6469726563746F72792E786D6C9D8F310EC2300C45AF127987122606C71DD918B841D4B851A43646695A717C52A85029031293A5
310
A76FBF6FACEF7DA7264E43906840EF0FA03836E242F406C6DCEE4EA06AC22492573150D1F66C60C640E8938CB705396EEDD86DE9B5042FE27813D640EA63BB001C722AF6E55CB61E4863F58284D5D3F53DD715CE1C3985E63FD7F1B7EBDD617E9F1E504B0304140006080800A459F84AEEB83B302E0700001A1C0000340000
310
006662782F41344333303445442D364139382D344431312D423536462D3136364442423937433431312F6F626A656374732E786D6CDD59DB6EDB3810FD1542FB6C5D7C8B5D382E12DB298C226D51A38B7D13688952B8D10DA494CB7EFD0E29529664D956B22D506C02240E430D67CECC9C198E161F5FE2083D11C6699A5C1B
310
8E691B88245EEAD324BC368A3C18CC0CF47189162C4DF3DA3E03253826D7865836968B90A545A6967C12E0226AAFDEDDFE85B8471262202FC29C5F1BDC7B2031367191A73EE18FA68F736C86C18BE998E5C6A6D890E1ECA17554861949725015D61390A234709A7F8249D67261890D8D6DC37EDB4667B659D2F0A6A234E139
310
4EBC23AD5A7286FDB41A39E3F56638990F26E3F168309E0E9DC1EDDDED7AE05C8DECD574B59ADF6CE6065A2EF6691A550EC848E283175F8DA5B3B0C47F2AF3150A5D7A7B6992104FA1D9B5C1274A2E25BC8D490358479A567348696B6D61D4D3F813DB7A81D250A981B6364EFFAE476FBAFF1B40E07DA2947122A29CE70C7C
310
ADB02FF3C15E58E56AC32F94A318E784511CA188EE1966E020D85A3AA82146648B10850466D28B5A5E5D5708ECCBB9D4A565504491C85F632933CD857C2439979AD17F083B685F3F0D74026B0B9AE433656CFE9A8188F9C2928BE5FF4643F5CF124814443884680133C5A6D1B085D74A70C1766D2C3FDFED5F76821FBA0FCF
310
589A11968BC893C9ACF24E7BB0165A107C3D4029716DFAEE80CA7780FE0B205FE98216E039465FC62F636D3BC3090F52168377908D0636FCB091F878F46961550F2F116A70E5294C216D7F12A60D331A67D7205D2E9E20E8533652C6ED3C1C414CDFD344E439040A8A525802BE0FF62FC6720B640A8BF0148EC07AF85E58E2
310
23825FA51CE09B9687BAE8B787A374C2B4F3ECE0AB4F10338C7A95AB1A369EC277F253F0BD59EF3EEF0A16608FDCABC45E938026348762DAAD5003F446CAFFD87E911979644F639707E784A9208E0EBFEC945F90740CA822EA70E91AB9724F21DDA30827242DB85AEF222A2F8D52E6EE5FDD32873BCFFA5307417918E4B788
310
804E3283EAEE319A09508CA532AF6242F38093E041158061E954778FBD4701AFEB0163BD470F885ACCDA428B3873719C1689A0EFE3F06E9B668E6CF9E538F3A13D1FCEE6536D2C97E275F6686AA89417E7C4383B71C8AAE12DC51A5A7299476360CB2E0B3CE8998ADC4D33ECD1BC3B165A46A80C05B0CFAAECD3202838907A
310
272C2D8DCD91334176ED6775C879EDD5212E8D7148DC008B0AD7795E03A04AB8B6A01399304A39A709E1B2433962AE162AB6094450C6AD96DA118494BB31C9F17BE24F96BC56F83112442EF452B9E8662F479F565055CF531245E79626AEB4FFD5E538CEA2B24BBB8481336C9DD089AB505A1CF104F1E6E2DCB57D229BEE4B
310
D22B5ED0F8F6923E7FB7F813F030FCCBE1D1475068BDA1465EF6AC634E9CB9F89A01A94C27CEE84A3BE21256FAA85CF42051015D93F7EA3E131A3EF423B45EE77012052E8DA22276CB7A9093185A309C17AC57BE4E27F691F3152FB412A27652402368907B93A6EC3D74F70156C9E6E31469D68E01A3680277B45E861C59D1
310
19C2D217F23E2AAE5D97BDFF76A9FF992FEBF79447F2FA9C32BF53D3661BA13B30DD3008BA5415AE8A232979B9A8275F2C2F2E9771186B218ADFCA5B828A10469EA8184CC81B50E7FD813FE3DC0322DDC9DF835BC8089FF8879EA2214E8D398C251CAAA5E93EB57ED301B213E5A3D1786D05A1C6306DC08267EFC587E83B06
310
5743E7C72DD5D558E5FA56143613062B073DCEC8FAFA69D792022BBD9FFE263022CF2D096A75251AB933A27E6C0FFD6A4B82B2E8C7F6CCE3F94311EF134C4565146181FDECC3477997BCB6E0A2606DECDBD1CDD4990F36571B67309ECC268399339A0E56579BE1EA6E33DFCCEC1B8B119E16CC23DC1A5AB6AB7BA72C097560
310
94D0F5B951C054E1F2D54FC773DBC1FFE31B4594EEF1A958FC5D2F1455BB271AB2562EF6BD507412F5FE6DDDBF7344D4DD45EC4D9D73392BD0017EBE6C0119E97ADFBFB5D0A27527D1AD73AD22BEB1F09EBCADFCF21AD320F4CEFAD0D8D145F94D2E86D9534795D2B75BC96B7737F66C3A1C037B4D5730835D0D3783D96C7C
310
35B81BAF47E3E9D8DECC6BAD8EAA857DEBCA6FC1A15AD9DA180DA6C13C8D280CE5898F4292C20D08A60E3DF895C584CB9B0D3400AA8CEB37023D9E7E2A67AA39DE47FA69EF01C3603A5215B9F060280AB78E6B43ADA33F600C2A26917238653E42E151D16EA082D16B034220A7505FCC3D8CB3E4F0504A6F8D2BC16D3809C5
310
9DA97CAAFAFBF098400762E56057B5A70F2ECAB24674C2702093EF0980ED7443F27ED3B53A08E7F0715FE49531878583350A04FD42A0340EA67E8F0ADE17209EF37639A6DCD380A4D764FE6C1C9452073966A11CAFD7F0BE597FB3C4647CFB156551110A779EABF70D4903D167444539845A40602833332CEEE1AB0FD63796
310
C22BA618DD5108026B95C6719AA83F6ED42B2AB47B80174EBEA5877DD0B2D8CEC4921D8F1AE8C3C48A1313FBFC1116C0A98C8AA968096EC3F51531D55CAF7D21BC008F35F66FD748D17FAD79AD37AD021839CD479042E22D8E4898FA86DAE811B200B42A27B4D507BDB0B0188CBF97FF02504B0304140006080800A459F84A
310
55ECA00C3E01000046050000300000006662782F41344333303445442D364139382D344431312D423536462D3136364442423937433431312F636E782E786D6CCD94C14EC3300C865F25CABD4D3B9006539A491C78020E885B9A7A252C8DABC445ECED494637406888C324768B9CDFD2FFD9BF2CD76F8363AF10A245DFF0BA
310
AC38036FB0B3BE6FF8449BE286B3B5920191BEC838F37A8086E73257B20F388D73A9838D9E5CAE3AEBB773511305DB4E049133E3748C0D8FE619065DEA89B083B82D3B4DBAACCB0011A76020F5931D60EE37013441C7D5A2AA9745B52C16D70F75BDAAAF56D5ED931459A9648BE866BDF504014766303D7C32534991BF959C
310
829D359980AB4F67656BBD14E95FC998DCFA7ED6D16ECCBA7174D6684A63126808A84822D083141F622545E6FD467D7FF77870C03A1BC01086DD3F0DA03E3580A3B13225E16FFC7BE1EFD8D8BE24DCFFDAF649D8D9D6D9500F698D29AE3FF79F52A47DEF2E2FF44763E7CF7C3A2564CDE5211F7C9D8958EC4F5E5A7ABE80EA
310
1D504B0304140006080800A459F84A190576FA7F000000A30000000B0000006662782F636E782E786D6C4D8CD10E822018465F85FDF794FF22D20D7022F51E2ED1B1109A49EBF183E64557DF76F69D23DACFE2C9DBAE2F1783043C54406CB8C7D1855942DA265A0369955863DCFE6E40C2B05809058312F31AD37347A39D86
310
E40BF52E3C76D8B1FE54B1ABA1BC6B6ACA0C22D5677EA3C8B9D1BAB9F40C311BC7A2E4F9F5F296BCFA02504B0304140006080800A459F84AA6D797065F0000008200000007000000636E782E786D6C4DCB3B0E80201045D1AD90E9FD7516806B51190811670C8A61F982B1B0BAC9C97B72CA7B1037C6D3332918DA1E04D2CA
310
C69353902EDB8C20262D23F3F59B81A079470595414B17391D1F19B4730A5583A7ED43BBE4025D9592775E5ADFFA01504B0304140006080800A459F84A4FEB6A7CA0000000F4000000130000005B436F6E74656E745F54797065735D2E786D6C7D8F4B0EC2300C44AF1279DFA6B0400835ED02B8011730C16D239A8F121795
310
DB93D02D6269CFBC19BBED573B8B17C564BC53B0AB1B10E4B47F18372A5878A88E20FAAEBDBD032591BD2E299898C349CAA427B2986A1FC86565F0D122E7318E32A07EE24872DF3407A9BD63725C71C980AEBDD080CBCCE2BAE6F5D69B7110E7CD57AA146008B3D1C8F92C5954F993BB1BF787F39A89ABC491D09600F9FDA2
310
FB00504B0304140006080800A459F84A3DEE336E64000000790000001B0000006175746F6465736B2D64657369676E2D7061636B6167652E786D6C35CBC10E83200C00D05F21DCA56CA76D41FC96062B120735B69A7DBE268BB7777961F8D5AF396893C2ADB70FE7ADA196782C2DF776D7A97B5933C430F15651E5469C55D7
310
0F80A4992A3ADC954792C525AE70A1E4D6AD9816CC044FEFDF01FE3FDE907802504B0304140006080800A459F84AA31B97F2F9000000960100003B0000006662782F41344333303445442D364139382D344431312D423536462D3136364442423937433431312F7265736F75726365732F636F72652E786D6C8550CB6EC320
310
10FC156BEFD8603BB11361A22651BFA0A7DE106C529418221E553FBF10BB527BEA6957B333B3BBC30F5FF3BDFA441F8CB313B09A428556396DEC7582142F6484EA20B8772EFEA24165E58C13141804BF7A971E2BA49C8D680B6A9DC615942160844ADD733341501F38CB5AA69819E1563FA4BAC92BD6AC5E7882A764F42A35
310
3ABB998B410F627BA2EC75386D083DF71BD21F8F3B32762F03E9C65DBB65FDB0A5E7336F8A58F068E69FEDCAA38CA841B4940D840EA4EDDF18DBB36E4F77EFBC294CC143F4F9E77569F90E84C7E092571878B34CFFB8A687FEDF35191BBB76755D140104CB473E07823725A55C9E11E65A1215DF504B0304140006080800A4
310
59F84A061CCD7CF2000000B1010000310000006662782F41344333303445442D364139382D344431312D423536462D3136364442423937433431312F636F72652E786D6C8D50CB6E833010FC15B47703060A21328E4268BFA0A7DE2CDBA156828DFCA8FAF9B50395DA5B4E6BCDCE7866879CBE977BF625AD53460F80F31232
310
A9B9114ACF03047F4507C84E945863FC1F1A649A2D7280040325B33561DD216EB4973AA1DA08B983CC39E921E3F7F818C0F14FB9B09C051F19EE96AF8CDFD82C739C6F3C4ABC5A7EA5DC4AE6A5005A95B8436587AAE61DE323AE8F65FF418AC4A4240425762B25A2BBBA2A69819E9B4B5D36AF136ACFFD013513C6687C69DF
310
106EDB691CFBEED2604C8A24A6C4791B6FDE3F49D73D2BDF84FF3287553C9159695F57BBE1A67040539EC78292221518C7A3DD3853D9F407504B0304140006080800A459F84A5513F1D154010000DD0200000C0000006662782F636F72652E786D6C8D525D6F832014FD2B867714D4D6B6419AB5CD7EC19EF646913A520583
310
60FAF3077EA4F361DD6282E4DC7BCFB9E704727CB44D3408D34BAD4A80630422A1B8AEA4AA4BE0EC0DEE4074A4C4686D7FB48148B1569420C08092DA68D7CD10D7CA0A1550A52B3183ACEF8505116FFCA5043DFF122D8B99B3BEA3BFC71DE377568B18C7531F25CEC96A1E9595679337290CA0DB33C2EFC57903D125DFC0FC
310
74DAC35DF656C06CB74FB7382FB6E872214918A6C4CA7651E746302B2A4053840B880A98E61F181F707640FB4F92844E4A7A6BBCE75934B803F4767D9064C2577CAEABFEE67352D92C9DF9A6891E50ECD71B0B9424211FFF1BC35B67E8857D7E965D9BC5C2DD4383E0569BDC572AED9EA581354E786A148D1F49A6AA671E09
310
7EE3495FF0BCE6F0413155FBD598F5D7ABB3417DBD53270C1CEC2352DAB4AC792E37ADF83C9F422B4BCB38D78D36FF995EAC2E6126E161D26F504B0304140006080800A459F84A730BEA4A08010000B201000008000000636F72652E786D6C8D50CB6EC32010FC15B4776CB01D3F224CD4C4EA17F4D41B35C441B1C132386A
310
FFBE10BB527BEB69D1CCECCE30ECF4398DE8A116A7AD698126049032BD95DA0C2DACFE8A6B4027CE166BFD2F19202326D5428481B361B1EBBC43BD355E99881A2BD50E0AE79407D48FE1D182EB6F6A1289587D50B87B328BFE2E0695D064D371E6F5F4B3DA2F4A7825816784569854382BDE283DD2FC489A7796462567EBAA
310
E56EA56570D757AD16E0E585D0D7EA72C0A42B0EB8389F1B5CE72F15CEEB262B695195A4EB581A9739737E097FDE8F849C1E39F188BE2CDD28CE3EAC1D774108259135E31770C2D248FC09BDCEF21FA1B5F179B61FDC361C701A023D89601C1B0CE3596F98B16DFE0D504B01021400140006080800A459F84A000000000000
310
0000000000003700000000000000000000000000000000006662782F41344333303445442D364139382D344431312D423536462D3136364442423937433431312F617474726962757465732E62696E504B01021400140006080800A459F84A0000000000000000000000003500000000000000000000000000550000006662
310
782F41344333303445442D364139382D344431312D423536462D3136364442423937433431312F76657274696365732E62696E504B01021400140006080800A459F84AF270F13306000000040000003600000000000000000000000000A80000006662782F41344333303445442D364139382D344431312D423536462D3136
310
364442423937433431312F747269616E676C65732E62696E504B01021400140006080800A459F84A51464CB489000000430100003600000000000000000000000000020100006662782F41344333303445442D364139382D344431312D423536462D3136364442423937433431312F6469726563746F72792E786D6C504B01
310
021400140006080800A459F84AEEB83B302E0700001A1C00003400000000000000000000000000DF0100006662782F41344333303445442D364139382D344431312D423536462D3136364442423937433431312F6F626A656374732E786D6C504B01021400140006080800A459F84A55ECA00C3E0100004605000030000000
310
000000000000000000005F0900006662782F41344333303445442D364139382D344431312D423536462D3136364442423937433431312F636E782E786D6C504B01021400140006080800A459F84A190576FA7F000000A30000000B00000000000000000000000000EB0A00006662782F636E782E786D6C504B010214001400
310
06080800A459F84AA6D797065F000000820000000700000000000000000000000000930B0000636E782E786D6C504B01021400140006080800A459F84A4FEB6A7CA0000000F40000001300000000000000000000000000170C00005B436F6E74656E745F54797065735D2E786D6C504B01021400140006080800A459F84A3D
310
EE336E64000000790000001B00000000000000000000000000E80C00006175746F6465736B2D64657369676E2D7061636B6167652E786D6C504B01021400140006080800A459F84AA31B97F2F9000000960100003B00000000000000000000000000850D00006662782F41344333303445442D364139382D344431312D4235
310
36462D3136364442423937433431312F7265736F75726365732F636F72652E786D6C504B01021400140006080800A459F84A061CCD7CF2000000B10100003100000000000000000000000000D70E00006662782F41344333303445442D364139382D344431312D423536462D3136364442423937433431312F636F72652E78
310
6D6C504B01021400140006080800A459F84A5513F1D154010000DD0200000C00000000000000000000000000181000006662782F636F72652E786D6C504B01021400140006080800A459F84A730BEA4A08010000B2010000080000000000000000000000000096110000636F72652E786D6C504B0506000000000E000E0080
310
040000C41200000000
  0
XRECORD
  5
8498
102
{ACAD_REACTORS
330
8493
102
}
330
8493
100
AcDbXrecord
280
     1
270
     1
271
     1
  0
XRECORD
  5
8497
102
{ACAD_REACTORS
330
8493
102
}
330
8493
100
AcDbXrecord
280
     1
270
     1
271
     1
  0
XRECORD
  5
8499
102
{ACAD_REACTORS
330
8493
102
}
330
8493
100
AcDbXrecord
280
     1
270
     1
271
     1
  0
XRECORD
  5
8496
102
{ACAD_REACTORS
330
8493
102
}
330
8493
100
AcDbXrecord
280
     1
270
     1
271
     1
  0
XRECORD
  5
A849
102
{ACAD_REACTORS
330
A848
102
}
330
A848
100
AcDbXrecord
280
     1
102
ACAD_ROUNDTRIP_2012_MLEADER_STYLE
298
     1
  0
XRECORD
  5
A84C
102
{ACAD_REACTORS
330
A6A8
102
}
330
A6A8
100
AcDbXrecord
280
     1
102
DISPLAYNAME
  1
Imperial24
102
FLAGS
 90
        0
  0
XRECORD
  5
A84A
102
{ACAD_REACTORS
330
8843
102
}
330
8843
100
AcDbXrecord
280
     1
102
DISPLAYNAME
  1
Metric50
102
FLAGS
 90
        0
  0
CELLSTYLEMAP
  5
A804
102
{ACAD_REACTORS
330
A803
102
}
330
A803
100
AcDbCellStyleMap
 90
        3
300
CELLSTYLE
  1
TABLEFORMAT_BEGIN
 90
        5
170
     1
 91
        0
 92
    32768
 62
   257
 93
        1
300
CONTENTFORMAT
  1
CONTENTFORMAT_BEGIN
 90
        0
 91
        0
 92
      512
 93
        0
300

 40
0.0
140
1.0
 94
        5
 62
     0
340
10
144
6.0
309
CONTENTFORMAT_END
171
     1
301
MARGIN
  1
CELLMARGIN_BEGIN
 40
1.5
 40
1.5
 40
1.5
 40
1.5
 40
4.5
 40
4.5
309
CELLMARGIN_END
 94
        6
 95
        1
302
GRIDFORMAT
  1
GRIDFORMAT_BEGIN
 90
        0
 91
        1
 62
     0
 92
       -2
340
0
 93
        0
 40
1.125
309
GRIDFORMAT_END
 95
        2
302
GRIDFORMAT
  1
GRIDFORMAT_BEGIN
 90
        0
 91
        1
 62
     0
 92
       -2
340
0
 93
        0
 40
1.125
309
GRIDFORMAT_END
 95
        4
302
GRIDFORMAT
  1
GRIDFORMAT_BEGIN
 90
        0
 91
        1
 62
     0
 92
       -2
340
0
 93
        0
 40
1.125
309
GRIDFORMAT_END
 95
        8
302
GRIDFORMAT
  1
GRIDFORMAT_BEGIN
 90
        0
 91
        1
 62
     0
 92
       -2
340
0
 93
        0
 40
1.125
309
GRIDFORMAT_END
 95
       16
302
GRIDFORMAT
  1
GRIDFORMAT_BEGIN
 90
        0
 91
        1
 62
     0
 92
       -2
340
0
 93
        0
 40
1.125
309
GRIDFORMAT_END
 95
       32
302
GRIDFORMAT
  1
GRIDFORMAT_BEGIN
 90
        0
 91
        1
 62
     0
 92
       -2
340
0
 93
        0
 40
1.125
309
GRIDFORMAT_END
309
TABLEFORMAT_END
  1
CELLSTYLE_BEGIN
 90
        1
 91
        1
300
_TITLE
309
CELLSTYLE_END
300
CELLSTYLE
  1
TABLEFORMAT_BEGIN
 90
        5
170
     1
 91
        0
 92
        0
 62
   257
 93
        1
300
CONTENTFORMAT
  1
CONTENTFORMAT_BEGIN
 90
        0
 91
        0
 92
      512
 93
        0
300

 40
0.0
140
1.0
 94
        5
 62
     0
340
10
144
4.5
309
CONTENTFORMAT_END
171
     1
301
MARGIN
  1
CELLMARGIN_BEGIN
 40
1.5
 40
1.5
 40
1.5
 40
1.5
 40
4.5
 40
4.5
309
CELLMARGIN_END
 94
        6
 95
        1
302
GRIDFORMAT
  1
GRIDFORMAT_BEGIN
 90
        0
 91
        1
 62
     0
 92
       -2
340
0
 93
        0
 40
1.125
309
GRIDFORMAT_END
 95
        2
302
GRIDFORMAT
  1
GRIDFORMAT_BEGIN
 90
        0
 91
        1
 62
     0
 92
       -2
340
0
 93
        0
 40
1.125
309
GRIDFORMAT_END
 95
        4
302
GRIDFORMAT
  1
GRIDFORMAT_BEGIN
 90
        0
 91
        1
 62
     0
 92
       -2
340
0
 93
        0
 40
1.125
309
GRIDFORMAT_END
 95
        8
302
GRIDFORMAT
  1
GRIDFORMAT_BEGIN
 90
        0
 91
        1
 62
     0
 92
       -2
340
0
 93
        0
 40
1.125
309
GRIDFORMAT_END
 95
       16
302
GRIDFORMAT
  1
GRIDFORMAT_BEGIN
 90
        0
 91
        1
 62
     0
 92
       -2
340
0
 93
        0
 40
1.125
309
GRIDFORMAT_END
 95
       32
302
GRIDFORMAT
  1
GRIDFORMAT_BEGIN
 90
        0
 91
        1
 62
     0
 92
       -2
340
0
 93
        0
 40
1.125
309
GRIDFORMAT_END
309
TABLEFORMAT_END
  1
CELLSTYLE_BEGIN
 90
        2
 91
        1
300
_HEADER
309
CELLSTYLE_END
300
CELLSTYLE
  1
TABLEFORMAT_BEGIN
 90
        5
170
     1
 91
        0
 92
        0
 62
   257
 93
        1
300
CONTENTFORMAT
  1
CONTENTFORMAT_BEGIN
 90
        0
 91
        0
 92
      512
 93
        0
300

 40
0.0
140
1.0
 94
        2
 62
     0
340
10
144
4.5
309
CONTENTFORMAT_END
171
     1
301
MARGIN
  1
CELLMARGIN_BEGIN
 40
1.5
 40
1.5
 40
1.5
 40
1.5
 40
4.5
 40
4.5
309
CELLMARGIN_END
 94
        6
 95
        1
302
GRIDFORMAT
  1
GRIDFORMAT_BEGIN
 90
        0
 91
        1
 62
     0
 92
       -2
340
0
 93
        0
 40
1.125
309
GRIDFORMAT_END
 95
        2
302
GRIDFORMAT
  1
GRIDFORMAT_BEGIN
 90
        0
 91
        1
 62
     0
 92
       -2
340
0
 93
        0
 40
1.125
309
GRIDFORMAT_END
 95
        4
302
GRIDFORMAT
  1
GRIDFORMAT_BEGIN
 90
        0
 91
        1
 62
     0
 92
       -2
340
0
 93
        0
 40
1.125
309
GRIDFORMAT_END
 95
        8
302
GRIDFORMAT
  1
GRIDFORMAT_BEGIN
 90
        0
 91
        1
 62
     0
 92
       -2
340
0
 93
        0
 40
1.125
309
GRIDFORMAT_END
 95
       16
302
GRIDFORMAT
  1
GRIDFORMAT_BEGIN
 90
        0
 91
        1
 62
     0
 92
       -2
340
0
 93
        0
 40
1.125
309
GRIDFORMAT_END
 95
       32
302
GRIDFORMAT
  1
GRIDFORMAT_BEGIN
 90
        0
 91
        1
 62
     0
 92
       -2
340
0
 93
        0
 40
1.125
309
GRIDFORMAT_END
309
TABLEFORMAT_END
  1
CELLSTYLE_BEGIN
 90
        3
 91
        2
300
_DATA
309
CELLSTYLE_END
  0
XRECORD
  5
A846
102
{ACAD_REACTORS
330
A803
102
}
330
A803
100
AcDbXrecord
280
     1
102
ACAD_ROUNDTRIP_PRE2007_TABLESTYLE
 90
      512
 91
        0
  1

 92
      512
 93
        0
  2

 94
      512
 95
        0
  3

  0
XRECORD
  5
A821
102
{ACAD_REACTORS
330
A820
102
}
330
A820
100
AcDbXrecord
280
     1
102
RTVSPost2010Prop28
280
     1
102
RTVSPost2010PropOp28
 70
     1
102
RTVSPost2010Prop29
280
     1
102
RTVSPost2010PropOp29
 70
     1
102
RTVSPost2010Prop30
280
     0
102
RTVSPost2010PropOp30
 70
     1
102
RTVSPost2010Prop31
280
     0
102
RTVSPost2010PropOp31
 70
     1
102
RTVSPost2010Prop32
280
     0
102
RTVSPost2010PropOp32
 70
     1
102
RTVSPost2010Prop33
280
     0
102
RTVSPost2010PropOp33
 70
     1
102
RTVSPost2010Prop34
280
     0
102
RTVSPost2010PropOp34
 70
     1
102
RTVSPost2010Prop35
280
     0
102
RTVSPost2010PropOp35
 70
     1
102
RTVSPost2010Prop36
280
     0
102
RTVSPost2010PropOp36
 70
     1
102
RTVSPost2010Prop37
 90
       50
102
RTVSPost2010PropOp37
 70
     1
102
RTVSPost2010Prop38
140
0.0
102
RTVSPost2010PropOp38
 70
     1
102
RTVSPost2010Prop39
140
1.0
102
RTVSPost2010PropOp39
 70
     1
102
RTVSPost2010Prop40
 90
        0
102
RTVSPost2010PropOp40
 70
     1
102
RTVSPost2010Prop41ColorIndex
 90
       18
102
RTVSPost2010Prop41ColorRGB
 90
        0
102
RTVSPost2010PropOp41
 70
     1
102
RTVSPost2010Prop42
 90
       50
102
RTVSPost2010PropOp42
 70
     1
102
RTVSPost2010Prop43
 90
        3
102
RTVSPost2010PropOp43
 70
     1
102
RTVSPost2010Prop44ColorIndex
 90
        5
102
RTVSPost2010Prop44ColorRGB
 90
      255
102
RTVSPost2010PropOp44
 70
     1
102
RTVSPost2010Prop45
280
     0
102
RTVSPost2010PropOp45
 70
     1
102
RTVSPost2010Prop46
 90
       50
102
RTVSPost2010PropOp46
 70
     1
102
RTVSPost2010Prop47
 90
       50
102
RTVSPost2010PropOp47
 70
     1
102
RTVSPost2010Prop48
 90
       50
102
RTVSPost2010PropOp48
 70
     1
102
RTVSPost2010Prop49
280
     0
102
RTVSPost2010PropOp49
 70
     1
102
RTVSPost2010Prop50
 90
       50
102
RTVSPost2010PropOp50
 70
     1
102
RTVSPost2010Prop51ColorIndex
 90
      256
102
RTVSPost2010Prop51ColorRGB
 90
-16777216
102
RTVSPost2010PropOp51
 70
     0
102
RTVSPost2010Prop52
140
1.0
102
RTVSPost2010PropOp52
 70
     0
102
RTVSPost2010Prop53
 90
        2
102
RTVSPost2010PropOp53
 70
     1
102
RTVSPost2010Prop54
  1
strokes_ogs.tif
102
RTVSPost2010PropOp54
 70
     1
102
RTVSPost2010Prop55
280
     0
102
RTVSPost2010PropOp55
 70
     1
102
RTVSPost2010Prop56
140
1.0
102
RTVSPost2010PropOp56
 70
     1
102
RTVSPost2010Prop57
140
1.0
102
RTVSPost2010PropOp57
 70
     1
102
RTVSPropertyOp0
 70
     1
102
RTVSPropertyOp1
 70
     1
102
RTVSPropertyOp2
 70
     1
102
RTVSPropertyOp3
 70
     1
102
RTVSPropertyOp4
 70
     1
102
RTVSPropertyOp5
 70
     1
102
RTVSPropertyOp6
 70
     1
102
RTVSPropertyOp7
 70
     1
102
RTVSPropertyOp8
 70
     1
102
RTVSPropertyOp9
 70
     1
102
RTVSPropertyOp10
 70
     1
102
RTVSPropertyOp11
 70
     1
102
RTVSPropertyOp12
 70
     1
102
RTVSPropertyOp13
 70
     1
102
RTVSPropertyOp14
 70
     1
102
RTVSPropertyOp15
 70
     1
102
RTVSPropertyOp16
 70
     1
102
RTVSPropertyOp17
 70
     1
102
RTVSPropertyOp18
 70
     1
102
RTVSPropertyOp19
 70
     1
102
RTVSPropertyOp20
 70
     1
102
RTVSPropertyOp21
 70
     1
102
RTVSPropertyOp22
 70
     1
102
RTVSPropertyOp23
 70
     1
102
RTVSPropertyOp24
 70
     1
102
RTVSPropertyOp25
 70
     1
102
RTVSPropertyOp26
 70
     1
102
RTVSPropertyOp27
 70
     1
102
RTVSPropertyOp28
 70
     1
102
RTVSPropertyOp29
 70
     1
102
RTVSPropertyOp30
 70
     1
102
RTVSPropertyOp31
 70
     1
102
RTVSPropertyOp32
 70
     1
102
RTVSPropertyOp33
 70
     1
102
RTVSPropertyOp34
 70
     1
102
RTVSPropertyOp35
 70
     1
102
RTVSPropertyOp36
 70
     1
102
RTVSPropertyOp37
 70
     1
102
RTVSPropertyOp38
 70
     1
102
RTVSPropertyOp39
 70
     1
102
RTVSPropertyOp40
 70
     1
102
RTVSPropertyOp41
 70
     1
102
RTVSPropertyOp42
 70
     1
102
RTVSPropertyOp43
 70
     1
102
RTVSPropertyOp44
 70
     1
102
RTVSPropertyOp45
 70
     1
102
RTVSPropertyOp46
 70
     1
102
RTVSPropertyOp47
 70
     1
102
RTVSPropertyOp48
 70
     1
102
RTVSPropertyOp49
 70
     1
102
RTVSPropertyOp50
 70
     1
102
RTVSPropertyOp51
 70
     0
102
RTVSPropertyOp52
 70
     0
102
RTVSPropertyOp53
 70
     1
102
RTVSPropertyOp54
 70
     1
102
RTVSPropertyOp55
 70
     1
102
RTVSPropertyOp56
 70
     1
102
RTVSPropertyOp57
 70
     1
102
RTVSPropertyOp58
 70
     1
102
RTVSPropertyOp59
 70
     1
102
RTVSPropertyOp60
 70
     1
102
RTVSPropertyOp61
 70
     1
102
RTVSPropertyOp62
 70
     1
  0
XRECORD
  5
A81F
102
{ACAD_REACTORS
330
A81E
102
}
330
A81E
100
AcDbXrecord
280
     1
102
RTVSPost2010Prop28
280
     0
102
RTVSPost2010PropOp28
 70
     1
102
RTVSPost2010Prop29
280
     1
102
RTVSPost2010PropOp29
 70
     1
102
RTVSPost2010Prop30
280
     1
102
RTVSPost2010PropOp30
 70
     1
102
RTVSPost2010Prop31
280
     0
102
RTVSPost2010PropOp31
 70
     1
102
RTVSPost2010Prop32
280
     0
102
RTVSPost2010PropOp32
 70
     1
102
RTVSPost2010Prop33
280
     0
102
RTVSPost2010PropOp33
 70
     1
102
RTVSPost2010Prop34
280
     0
102
RTVSPost2010PropOp34
 70
     1
102
RTVSPost2010Prop35
280
     0
102
RTVSPost2010PropOp35
 70
     1
102
RTVSPost2010Prop36
280
     0
102
RTVSPost2010PropOp36
 70
     1
102
RTVSPost2010Prop37
 90
       50
102
RTVSPost2010PropOp37
 70
     1
102
RTVSPost2010Prop38
140
0.0
102
RTVSPost2010PropOp38
 70
     1
102
RTVSPost2010Prop39
140
1.0
102
RTVSPost2010PropOp39
 70
     1
102
RTVSPost2010Prop40
 90
        0
102
RTVSPost2010PropOp40
 70
     1
102
RTVSPost2010Prop41ColorIndex
 90
       18
102
RTVSPost2010Prop41ColorRGB
 90
        0
102
RTVSPost2010PropOp41
 70
     1
102
RTVSPost2010Prop42
 90
       50
102
RTVSPost2010PropOp42
 70
     1
102
RTVSPost2010Prop43
 90
        3
102
RTVSPost2010PropOp43
 70
     1
102
RTVSPost2010Prop44ColorIndex
 90
        5
102
RTVSPost2010Prop44ColorRGB
 90
      255
102
RTVSPost2010PropOp44
 70
     1
102
RTVSPost2010Prop45
280
     0
102
RTVSPost2010PropOp45
 70
     1
102
RTVSPost2010Prop46
 90
       50
102
RTVSPost2010PropOp46
 70
     1
102
RTVSPost2010Prop47
 90
       50
102
RTVSPost2010PropOp47
 70
     1
102
RTVSPost2010Prop48
 90
       50
102
RTVSPost2010PropOp48
 70
     1
102
RTVSPost2010Prop49
280
     0
102
RTVSPost2010PropOp49
 70
     1
102
RTVSPost2010Prop50
 90
       50
102
RTVSPost2010PropOp50
 70
     1
102
RTVSPost2010Prop51ColorIndex
 90
      256
102
RTVSPost2010Prop51ColorRGB
 90
-16777216
102
RTVSPost2010PropOp51
 70
     0
102
RTVSPost2010Prop52
140
1.0
102
RTVSPost2010PropOp52
 70
     0
102
RTVSPost2010Prop53
 90
        2
102
RTVSPost2010PropOp53
 70
     1
102
RTVSPost2010Prop54
  1
strokes_ogs.tif
102
RTVSPost2010PropOp54
 70
     1
102
RTVSPost2010Prop55
280
     0
102
RTVSPost2010PropOp55
 70
     1
102
RTVSPost2010Prop56
140
1.0
102
RTVSPost2010PropOp56
 70
     1
102
RTVSPost2010Prop57
140
1.0
102
RTVSPost2010PropOp57
 70
     1
102
RTVSPropertyOp0
 70
     1
102
RTVSPropertyOp1
 70
     1
102
RTVSPropertyOp2
 70
     1
102
RTVSPropertyOp3
 70
     1
102
RTVSPropertyOp4
 70
     1
102
RTVSPropertyOp5
 70
     1
102
RTVSPropertyOp6
 70
     1
102
RTVSPropertyOp7
 70
     1
102
RTVSPropertyOp8
 70
     1
102
RTVSPropertyOp9
 70
     1
102
RTVSPropertyOp10
 70
     1
102
RTVSPropertyOp11
 70
     1
102
RTVSPropertyOp12
 70
     1
102
RTVSPropertyOp13
 70
     1
102
RTVSPropertyOp14
 70
     1
102
RTVSPropertyOp15
 70
     1
102
RTVSPropertyOp16
 70
     1
102
RTVSPropertyOp17
 70
     1
102
RTVSPropertyOp18
 70
     1
102
RTVSPropertyOp19
 70
     1
102
RTVSPropertyOp20
 70
     1
102
RTVSPropertyOp21
 70
     1
102
RTVSPropertyOp22
 70
     1
102
RTVSPropertyOp23
 70
     1
102
RTVSPropertyOp24
 70
     1
102
RTVSPropertyOp25
 70
     1
102
RTVSPropertyOp26
 70
     1
102
RTVSPropertyOp27
 70
     1
102
RTVSPropertyOp28
 70
     1
102
RTVSPropertyOp29
 70
     1
102
RTVSPropertyOp30
 70
     1
102
RTVSPropertyOp31
 70
     1
102
RTVSPropertyOp32
 70
     1
102
RTVSPropertyOp33
 70
     1
102
RTVSPropertyOp34
 70
     1
102
RTVSPropertyOp35
 70
     1
102
RTVSPropertyOp36
 70
     1
102
RTVSPropertyOp37
 70
     1
102
RTVSPropertyOp38
 70
     1
102
RTVSPropertyOp39
 70
     1
102
RTVSPropertyOp40
 70
     1
102
RTVSPropertyOp41
 70
     1
102
RTVSPropertyOp42
 70
     1
102
RTVSPropertyOp43
 70
     1
102
RTVSPropertyOp44
 70
     1
102
RTVSPropertyOp45
 70
     1
102
RTVSPropertyOp46
 70
     1
102
RTVSPropertyOp47
 70
     1
102
RTVSPropertyOp48
 70
     1
102
RTVSPropertyOp49
 70
     1
102
RTVSPropertyOp50
 70
     1
102
RTVSPropertyOp51
 70
     0
102
RTVSPropertyOp52
 70
     0
102
RTVSPropertyOp53
 70
     1
102
RTVSPropertyOp54
 70
     1
102
RTVSPropertyOp55
 70
     1
102
RTVSPropertyOp56
 70
     1
102
RTVSPropertyOp57
 70
     1
102
RTVSPropertyOp58
 70
     1
102
RTVSPropertyOp59
 70
     1
102
RTVSPropertyOp60
 70
     1
102
RTVSPropertyOp61
 70
     1
102
RTVSPropertyOp62
 70
     1
  0
XRECORD
  5
A82D
102
{ACAD_REACTORS
330
A82C
102
}
330
A82C
100
AcDbXrecord
280
     1
102
RTVSPost2010Prop28
280
     0
102
RTVSPost2010PropOp28
 70
     1
102
RTVSPost2010Prop29
280
     1
102
RTVSPost2010PropOp29
 70
     1
102
RTVSPost2010Prop30
280
     1
102
RTVSPost2010PropOp30
 70
     1
102
RTVSPost2010Prop31
280
     0
102
RTVSPost2010PropOp31
 70
     1
102
RTVSPost2010Prop32
280
     0
102
RTVSPost2010PropOp32
 70
     1
102
RTVSPost2010Prop33
280
     0
102
RTVSPost2010PropOp33
 70
     1
102
RTVSPost2010Prop34
280
     0
102
RTVSPost2010PropOp34
 70
     1
102
RTVSPost2010Prop35
280
     0
102
RTVSPost2010PropOp35
 70
     1
102
RTVSPost2010Prop36
280
     0
102
RTVSPost2010PropOp36
 70
     1
102
RTVSPost2010Prop37
 90
       50
102
RTVSPost2010PropOp37
 70
     1
102
RTVSPost2010Prop38
140
0.0
102
RTVSPost2010PropOp38
 70
     1
102
RTVSPost2010Prop39
140
1.0
102
RTVSPost2010PropOp39
 70
     1
102
RTVSPost2010Prop40
 90
        0
102
RTVSPost2010PropOp40
 70
     1
102
RTVSPost2010Prop41ColorIndex
 90
       18
102
RTVSPost2010Prop41ColorRGB
 90
        0
102
RTVSPost2010PropOp41
 70
     1
102
RTVSPost2010Prop42
 90
       50
102
RTVSPost2010PropOp42
 70
     1
102
RTVSPost2010Prop43
 90
        3
102
RTVSPost2010PropOp43
 70
     1
102
RTVSPost2010Prop44ColorIndex
 90
        5
102
RTVSPost2010Prop44ColorRGB
 90
      255
102
RTVSPost2010PropOp44
 70
     1
102
RTVSPost2010Prop45
280
     0
102
RTVSPost2010PropOp45
 70
     1
102
RTVSPost2010Prop46
 90
       50
102
RTVSPost2010PropOp46
 70
     1
102
RTVSPost2010Prop47
 90
       50
102
RTVSPost2010PropOp47
 70
     1
102
RTVSPost2010Prop48
 90
       50
102
RTVSPost2010PropOp48
 70
     1
102
RTVSPost2010Prop49
280
     0
102
RTVSPost2010PropOp49
 70
     1
102
RTVSPost2010Prop50
 90
       50
102
RTVSPost2010PropOp50
 70
     1
102
RTVSPost2010Prop51ColorIndex
 90
      256
102
RTVSPost2010Prop51ColorRGB
 90
-16777216
102
RTVSPost2010PropOp51
 70
     0
102
RTVSPost2010Prop52
140
1.0
102
RTVSPost2010PropOp52
 70
     0
102
RTVSPost2010Prop53
 90
        2
102
RTVSPost2010PropOp53
 70
     1
102
RTVSPost2010Prop54
  1
strokes_ogs.tif
102
RTVSPost2010PropOp54
 70
     1
102
RTVSPost2010Prop55
280
     0
102
RTVSPost2010PropOp55
 70
     1
102
RTVSPost2010Prop56
140
1.0
102
RTVSPost2010PropOp56
 70
     1
102
RTVSPost2010Prop57
140
1.0
102
RTVSPost2010PropOp57
 70
     1
102
RTVSPropertyOp0
 70
     1
102
RTVSPropertyOp1
 70
     1
102
RTVSPropertyOp2
 70
     1
102
RTVSPropertyOp3
 70
     1
102
RTVSPropertyOp4
 70
     1
102
RTVSPropertyOp5
 70
     1
102
RTVSPropertyOp6
 70
     1
102
RTVSPropertyOp7
 70
     1
102
RTVSPropertyOp8
 70
     1
102
RTVSPropertyOp9
 70
     1
102
RTVSPropertyOp10
 70
     1
102
RTVSPropertyOp11
 70
     1
102
RTVSPropertyOp12
 70
     1
102
RTVSPropertyOp13
 70
     1
102
RTVSPropertyOp14
 70
     1
102
RTVSPropertyOp15
 70
     1
102
RTVSPropertyOp16
 70
     1
102
RTVSPropertyOp17
 70
     1
102
RTVSPropertyOp18
 70
     1
102
RTVSPropertyOp19
 70
     1
102
RTVSPropertyOp20
 70
     1
102
RTVSPropertyOp21
 70
     1
102
RTVSPropertyOp22
 70
     1
102
RTVSPropertyOp23
 70
     1
102
RTVSPropertyOp24
 70
     1
102
RTVSPropertyOp25
 70
     1
102
RTVSPropertyOp26
 70
     1
102
RTVSPropertyOp27
 70
     1
102
RTVSPropertyOp28
 70
     1
102
RTVSPropertyOp29
 70
     1
102
RTVSPropertyOp30
 70
     1
102
RTVSPropertyOp31
 70
     1
102
RTVSPropertyOp32
 70
     1
102
RTVSPropertyOp33
 70
     1
102
RTVSPropertyOp34
 70
     1
102
RTVSPropertyOp35
 70
     1
102
RTVSPropertyOp36
 70
     1
102
RTVSPropertyOp37
 70
     1
102
RTVSPropertyOp38
 70
     1
102
RTVSPropertyOp39
 70
     1
102
RTVSPropertyOp40
 70
     1
102
RTVSPropertyOp41
 70
     1
102
RTVSPropertyOp42
 70
     1
102
RTVSPropertyOp43
 70
     1
102
RTVSPropertyOp44
 70
     1
102
RTVSPropertyOp45
 70
     1
102
RTVSPropertyOp46
 70
     1
102
RTVSPropertyOp47
 70
     1
102
RTVSPropertyOp48
 70
     1
102
RTVSPropertyOp49
 70
     1
102
RTVSPropertyOp50
 70
     1
102
RTVSPropertyOp51
 70
     0
102
RTVSPropertyOp52
 70
     0
102
RTVSPropertyOp53
 70
     1
102
RTVSPropertyOp54
 70
     1
102
RTVSPropertyOp55
 70
     1
102
RTVSPropertyOp56
 70
     1
102
RTVSPropertyOp57
 70
     1
102
RTVSPropertyOp58
 70
     1
102
RTVSPropertyOp59
 70
     1
102
RTVSPropertyOp60
 70
     1
102
RTVSPropertyOp61
 70
     1
102
RTVSPropertyOp62
 70
     1
  0
XRECORD
  5
A835
102
{ACAD_REACTORS
330
A834
102
}
330
A834
100
AcDbXrecord
280
     1
102
RTVSPost2010Prop28
280
     0
102
RTVSPost2010PropOp28
 70
     1
102
RTVSPost2010Prop29
280
     1
102
RTVSPost2010PropOp29
 70
     1
102
RTVSPost2010Prop30
280
     1
102
RTVSPost2010PropOp30
 70
     1
102
RTVSPost2010Prop31
280
     0
102
RTVSPost2010PropOp31
 70
     1
102
RTVSPost2010Prop32
280
     0
102
RTVSPost2010PropOp32
 70
     1
102
RTVSPost2010Prop33
280
     0
102
RTVSPost2010PropOp33
 70
     1
102
RTVSPost2010Prop34
280
     0
102
RTVSPost2010PropOp34
 70
     1
102
RTVSPost2010Prop35
280
     0
102
RTVSPost2010PropOp35
 70
     1
102
RTVSPost2010Prop36
280
     0
102
RTVSPost2010PropOp36
 70
     1
102
RTVSPost2010Prop37
 90
       50
102
RTVSPost2010PropOp37
 70
     1
102
RTVSPost2010Prop38
140
0.0
102
RTVSPost2010PropOp38
 70
     1
102
RTVSPost2010Prop39
140
1.0
102
RTVSPost2010PropOp39
 70
     1
102
RTVSPost2010Prop40
 90
        0
102
RTVSPost2010PropOp40
 70
     1
102
RTVSPost2010Prop41ColorIndex
 90
       18
102
RTVSPost2010Prop41ColorRGB
 90
        0
102
RTVSPost2010PropOp41
 70
     1
102
RTVSPost2010Prop42
 90
       50
102
RTVSPost2010PropOp42
 70
     1
102
RTVSPost2010Prop43
 90
        3
102
RTVSPost2010PropOp43
 70
     1
102
RTVSPost2010Prop44ColorIndex
 90
        5
102
RTVSPost2010Prop44ColorRGB
 90
      255
102
RTVSPost2010PropOp44
 70
     1
102
RTVSPost2010Prop45
280
     0
102
RTVSPost2010PropOp45
 70
     1
102
RTVSPost2010Prop46
 90
       50
102
RTVSPost2010PropOp46
 70
     1
102
RTVSPost2010Prop47
 90
       50
102
RTVSPost2010PropOp47
 70
     1
102
RTVSPost2010Prop48
 90
       50
102
RTVSPost2010PropOp48
 70
     1
102
RTVSPost2010Prop49
280
     0
102
RTVSPost2010PropOp49
 70
     1
102
RTVSPost2010Prop50
 90
       50
102
RTVSPost2010PropOp50
 70
     1
102
RTVSPost2010Prop51ColorIndex
 90
      256
102
RTVSPost2010Prop51ColorRGB
 90
-16777216
102
RTVSPost2010PropOp51
 70
     0
102
RTVSPost2010Prop52
140
1.0
102
RTVSPost2010PropOp52
 70
     0
102
RTVSPost2010Prop53
 90
        2
102
RTVSPost2010PropOp53
 70
     1
102
RTVSPost2010Prop54
  1
strokes_ogs.tif
102
RTVSPost2010PropOp54
 70
     1
102
RTVSPost2010Prop55
280
     0
102
RTVSPost2010PropOp55
 70
     1
102
RTVSPost2010Prop56
140
1.0
102
RTVSPost2010PropOp56
 70
     1
102
RTVSPost2010Prop57
140
1.0
102
RTVSPost2010PropOp57
 70
     1
102
RTVSPropertyOp0
 70
     1
102
RTVSPropertyOp1
 70
     1
102
RTVSPropertyOp2
 70
     1
102
RTVSPropertyOp3
 70
     1
102
RTVSPropertyOp4
 70
     1
102
RTVSPropertyOp5
 70
     1
102
RTVSPropertyOp6
 70
     1
102
RTVSPropertyOp7
 70
     1
102
RTVSPropertyOp8
 70
     1
102
RTVSPropertyOp9
 70
     1
102
RTVSPropertyOp10
 70
     1
102
RTVSPropertyOp11
 70
     1
102
RTVSPropertyOp12
 70
     1
102
RTVSPropertyOp13
 70
     1
102
RTVSPropertyOp14
 70
     1
102
RTVSPropertyOp15
 70
     1
102
RTVSPropertyOp16
 70
     1
102
RTVSPropertyOp17
 70
     1
102
RTVSPropertyOp18
 70
     1
102
RTVSPropertyOp19
 70
     1
102
RTVSPropertyOp20
 70
     1
102
RTVSPropertyOp21
 70
     1
102
RTVSPropertyOp22
 70
     1
102
RTVSPropertyOp23
 70
     1
102
RTVSPropertyOp24
 70
     1
102
RTVSPropertyOp25
 70
     1
102
RTVSPropertyOp26
 70
     1
102
RTVSPropertyOp27
 70
     1
102
RTVSPropertyOp28
 70
     1
102
RTVSPropertyOp29
 70
     1
102
RTVSPropertyOp30
 70
     1
102
RTVSPropertyOp31
 70
     1
102
RTVSPropertyOp32
 70
     1
102
RTVSPropertyOp33
 70
     1
102
RTVSPropertyOp34
 70
     1
102
RTVSPropertyOp35
 70
     1
102
RTVSPropertyOp36
 70
     1
102
RTVSPropertyOp37
 70
     1
102
RTVSPropertyOp38
 70
     1
102
RTVSPropertyOp39
 70
     1
102
RTVSPropertyOp40
 70
     1
102
RTVSPropertyOp41
 70
     1
102
RTVSPropertyOp42
 70
     1
102
RTVSPropertyOp43
 70
     1
102
RTVSPropertyOp44
 70
     1
102
RTVSPropertyOp45
 70
     1
102
RTVSPropertyOp46
 70
     1
102
RTVSPropertyOp47
 70
     1
102
RTVSPropertyOp48
 70
     1
102
RTVSPropertyOp49
 70
     1
102
RTVSPropertyOp50
 70
     1
102
RTVSPropertyOp51
 70
     0
102
RTVSPropertyOp52
 70
     0
102
RTVSPropertyOp53
 70
     1
102
RTVSPropertyOp54
 70
     1
102
RTVSPropertyOp55
 70
     1
102
RTVSPropertyOp56
 70
     1
102
RTVSPropertyOp57
 70
     1
102
RTVSPropertyOp58
 70
     1
102
RTVSPropertyOp59
 70
     1
102
RTVSPropertyOp60
 70
     1
102
RTVSPropertyOp61
 70
     1
102
RTVSPropertyOp62
 70
     1
  0
XRECORD
  5
A827
102
{ACAD_REACTORS
330
A826
102
}
330
A826
100
AcDbXrecord
280
     1
102
RTVSPost2010Prop28
280
     0
102
RTVSPost2010PropOp28
 70
     1
102
RTVSPost2010Prop29
280
     1
102
RTVSPost2010PropOp29
 70
     1
102
RTVSPost2010Prop30
280
     1
102
RTVSPost2010PropOp30
 70
     1
102
RTVSPost2010Prop31
280
     0
102
RTVSPost2010PropOp31
 70
     1
102
RTVSPost2010Prop32
280
     0
102
RTVSPost2010PropOp32
 70
     1
102
RTVSPost2010Prop33
280
     0
102
RTVSPost2010PropOp33
 70
     1
102
RTVSPost2010Prop34
280
     0
102
RTVSPost2010PropOp34
 70
     1
102
RTVSPost2010Prop35
280
     0
102
RTVSPost2010PropOp35
 70
     1
102
RTVSPost2010Prop36
280
     0
102
RTVSPost2010PropOp36
 70
     1
102
RTVSPost2010Prop37
 90
       50
102
RTVSPost2010PropOp37
 70
     1
102
RTVSPost2010Prop38
140
0.0
102
RTVSPost2010PropOp38
 70
     1
102
RTVSPost2010Prop39
140
1.0
102
RTVSPost2010PropOp39
 70
     1
102
RTVSPost2010Prop40
 90
        0
102
RTVSPost2010PropOp40
 70
     1
102
RTVSPost2010Prop41ColorIndex
 90
       18
102
RTVSPost2010Prop41ColorRGB
 90
        0
102
RTVSPost2010PropOp41
 70
     1
102
RTVSPost2010Prop42
 90
       50
102
RTVSPost2010PropOp42
 70
     1
102
RTVSPost2010Prop43
 90
        3
102
RTVSPost2010PropOp43
 70
     1
102
RTVSPost2010Prop44ColorIndex
 90
        5
102
RTVSPost2010Prop44ColorRGB
 90
      255
102
RTVSPost2010PropOp44
 70
     1
102
RTVSPost2010Prop45
280
     0
102
RTVSPost2010PropOp45
 70
     1
102
RTVSPost2010Prop46
 90
       50
102
RTVSPost2010PropOp46
 70
     1
102
RTVSPost2010Prop47
 90
       50
102
RTVSPost2010PropOp47
 70
     1
102
RTVSPost2010Prop48
 90
       50
102
RTVSPost2010PropOp48
 70
     1
102
RTVSPost2010Prop49
280
     0
102
RTVSPost2010PropOp49
 70
     1
102
RTVSPost2010Prop50
 90
       50
102
RTVSPost2010PropOp50
 70
     1
102
RTVSPost2010Prop51ColorIndex
 90
      256
102
RTVSPost2010Prop51ColorRGB
 90
-16777216
102
RTVSPost2010PropOp51
 70
     0
102
RTVSPost2010Prop52
140
1.0
102
RTVSPost2010PropOp52
 70
     0
102
RTVSPost2010Prop53
 90
        2
102
RTVSPost2010PropOp53
 70
     1
102
RTVSPost2010Prop54
  1
strokes_ogs.tif
102
RTVSPost2010PropOp54
 70
     1
102
RTVSPost2010Prop55
280
     0
102
RTVSPost2010PropOp55
 70
     1
102
RTVSPost2010Prop56
140
1.0
102
RTVSPost2010PropOp56
 70
     1
102
RTVSPost2010Prop57
140
1.0
102
RTVSPost2010PropOp57
 70
     1
102
RTVSPropertyOp0
 70
     1
102
RTVSPropertyOp1
 70
     1
102
RTVSPropertyOp2
 70
     1
102
RTVSPropertyOp3
 70
     1
102
RTVSPropertyOp4
 70
     1
102
RTVSPropertyOp5
 70
     1
102
RTVSPropertyOp6
 70
     1
102
RTVSPropertyOp7
 70
     1
102
RTVSPropertyOp8
 70
     1
102
RTVSPropertyOp9
 70
     1
102
RTVSPropertyOp10
 70
     1
102
RTVSPropertyOp11
 70
     1
102
RTVSPropertyOp12
 70
     1
102
RTVSPropertyOp13
 70
     1
102
RTVSPropertyOp14
 70
     1
102
RTVSPropertyOp15
 70
     1
102
RTVSPropertyOp16
 70
     1
102
RTVSPropertyOp17
 70
     1
102
RTVSPropertyOp18
 70
     1
102
RTVSPropertyOp19
 70
     1
102
RTVSPropertyOp20
 70
     1
102
RTVSPropertyOp21
 70
     1
102
RTVSPropertyOp22
 70
     1
102
RTVSPropertyOp23
 70
     1
102
RTVSPropertyOp24
 70
     1
102
RTVSPropertyOp25
 70
     1
102
RTVSPropertyOp26
 70
     1
102
RTVSPropertyOp27
 70
     1
102
RTVSPropertyOp28
 70
     1
102
RTVSPropertyOp29
 70
     1
102
RTVSPropertyOp30
 70
     1
102
RTVSPropertyOp31
 70
     1
102
RTVSPropertyOp32
 70
     1
102
RTVSPropertyOp33
 70
     1
102
RTVSPropertyOp34
 70
     1
102
RTVSPropertyOp35
 70
     1
102
RTVSPropertyOp36
 70
     1
102
RTVSPropertyOp37
 70
     1
102
RTVSPropertyOp38
 70
     1
102
RTVSPropertyOp39
 70
     1
102
RTVSPropertyOp40
 70
     1
102
RTVSPropertyOp41
 70
     1
102
RTVSPropertyOp42
 70
     1
102
RTVSPropertyOp43
 70
     1
102
RTVSPropertyOp44
 70
     1
102
RTVSPropertyOp45
 70
     1
102
RTVSPropertyOp46
 70
     1
102
RTVSPropertyOp47
 70
     1
102
RTVSPropertyOp48
 70
     1
102
RTVSPropertyOp49
 70
     1
102
RTVSPropertyOp50
 70
     1
102
RTVSPropertyOp51
 70
     0
102
RTVSPropertyOp52
 70
     0
102
RTVSPropertyOp53
 70
     1
102
RTVSPropertyOp54
 70
     1
102
RTVSPropertyOp55
 70
     1
102
RTVSPropertyOp56
 70
     1
102
RTVSPropertyOp57
 70
     1
102
RTVSPropertyOp58
 70
     1
102
RTVSPropertyOp59
 70
     1
102
RTVSPropertyOp60
 70
     1
102
RTVSPropertyOp61
 70
     1
102
RTVSPropertyOp62
 70
     1
  0
XRECORD
  5
A82B
102
{ACAD_REACTORS
330
A82A
102
}
330
A82A
100
AcDbXrecord
280
     1
102
RTVSPost2010Prop28
280
     0
102
RTVSPost2010PropOp28
 70
     1
102
RTVSPost2010Prop29
280
     1
102
RTVSPost2010PropOp29
 70
     1
102
RTVSPost2010Prop30
280
     1
102
RTVSPost2010PropOp30
 70
     1
102
RTVSPost2010Prop31
280
     0
102
RTVSPost2010PropOp31
 70
     1
102
RTVSPost2010Prop32
280
     0
102
RTVSPost2010PropOp32
 70
     1
102
RTVSPost2010Prop33
280
     0
102
RTVSPost2010PropOp33
 70
     1
102
RTVSPost2010Prop34
280
     0
102
RTVSPost2010PropOp34
 70
     1
102
RTVSPost2010Prop35
280
     0
102
RTVSPost2010PropOp35
 70
     1
102
RTVSPost2010Prop36
280
     0
102
RTVSPost2010PropOp36
 70
     1
102
RTVSPost2010Prop37
 90
       50
102
RTVSPost2010PropOp37
 70
     1
102
RTVSPost2010Prop38
140
0.0
102
RTVSPost2010PropOp38
 70
     1
102
RTVSPost2010Prop39
140
1.0
102
RTVSPost2010PropOp39
 70
     1
102
RTVSPost2010Prop40
 90
        0
102
RTVSPost2010PropOp40
 70
     1
102
RTVSPost2010Prop41ColorIndex
 90
       18
102
RTVSPost2010Prop41ColorRGB
 90
        0
102
RTVSPost2010PropOp41
 70
     1
102
RTVSPost2010Prop42
 90
       50
102
RTVSPost2010PropOp42
 70
     1
102
RTVSPost2010Prop43
 90
        3
102
RTVSPost2010PropOp43
 70
     1
102
RTVSPost2010Prop44ColorIndex
 90
        5
102
RTVSPost2010Prop44ColorRGB
 90
      255
102
RTVSPost2010PropOp44
 70
     1
102
RTVSPost2010Prop45
280
     0
102
RTVSPost2010PropOp45
 70
     1
102
RTVSPost2010Prop46
 90
       50
102
RTVSPost2010PropOp46
 70
     1
102
RTVSPost2010Prop47
 90
       50
102
RTVSPost2010PropOp47
 70
     1
102
RTVSPost2010Prop48
 90
       50
102
RTVSPost2010PropOp48
 70
     1
102
RTVSPost2010Prop49
280
     0
102
RTVSPost2010PropOp49
 70
     1
102
RTVSPost2010Prop50
 90
       50
102
RTVSPost2010PropOp50
 70
     1
102
RTVSPost2010Prop51ColorIndex
 90
      256
102
RTVSPost2010Prop51ColorRGB
 90
-16777216
102
RTVSPost2010PropOp51
 70
     0
102
RTVSPost2010Prop52
140
1.0
102
RTVSPost2010PropOp52
 70
     0
102
RTVSPost2010Prop53
 90
        2
102
RTVSPost2010PropOp53
 70
     1
102
RTVSPost2010Prop54
  1
strokes_ogs.tif
102
RTVSPost2010PropOp54
 70
     1
102
RTVSPost2010Prop55
280
     0
102
RTVSPost2010PropOp55
 70
     1
102
RTVSPost2010Prop56
140
1.0
102
RTVSPost2010PropOp56
 70
     1
102
RTVSPost2010Prop57
140
1.0
102
RTVSPost2010PropOp57
 70
     1
102
RTVSPropertyOp0
 70
     1
102
RTVSPropertyOp1
 70
     1
102
RTVSPropertyOp2
 70
     1
102
RTVSPropertyOp3
 70
     1
102
RTVSPropertyOp4
 70
     1
102
RTVSPropertyOp5
 70
     1
102
RTVSPropertyOp6
 70
     1
102
RTVSPropertyOp7
 70
     1
102
RTVSPropertyOp8
 70
     1
102
RTVSPropertyOp9
 70
     1
102
RTVSPropertyOp10
 70
     1
102
RTVSPropertyOp11
 70
     1
102
RTVSPropertyOp12
 70
     1
102
RTVSPropertyOp13
 70
     1
102
RTVSPropertyOp14
 70
     1
102
RTVSPropertyOp15
 70
     1
102
RTVSPropertyOp16
 70
     1
102
RTVSPropertyOp17
 70
     1
102
RTVSPropertyOp18
 70
     1
102
RTVSPropertyOp19
 70
     1
102
RTVSPropertyOp20
 70
     1
102
RTVSPropertyOp21
 70
     1
102
RTVSPropertyOp22
 70
     1
102
RTVSPropertyOp23
 70
     1
102
RTVSPropertyOp24
 70
     1
102
RTVSPropertyOp25
 70
     1
102
RTVSPropertyOp26
 70
     1
102
RTVSPropertyOp27
 70
     1
102
RTVSPropertyOp28
 70
     1
102
RTVSPropertyOp29
 70
     1
102
RTVSPropertyOp30
 70
     1
102
RTVSPropertyOp31
 70
     1
102
RTVSPropertyOp32
 70
     1
102
RTVSPropertyOp33
 70
     1
102
RTVSPropertyOp34
 70
     1
102
RTVSPropertyOp35
 70
     1
102
RTVSPropertyOp36
 70
     1
102
RTVSPropertyOp37
 70
     1
102
RTVSPropertyOp38
 70
     1
102
RTVSPropertyOp39
 70
     1
102
RTVSPropertyOp40
 70
     1
102
RTVSPropertyOp41
 70
     1
102
RTVSPropertyOp42
 70
     1
102
RTVSPropertyOp43
 70
     1
102
RTVSPropertyOp44
 70
     1
102
RTVSPropertyOp45
 70
     1
102
RTVSPropertyOp46
 70
     1
102
RTVSPropertyOp47
 70
     1
102
RTVSPropertyOp48
 70
     1
102
RTVSPropertyOp49
 70
     1
102
RTVSPropertyOp50
 70
     1
102
RTVSPropertyOp51
 70
     0
102
RTVSPropertyOp52
 70
     0
102
RTVSPropertyOp53
 70
     1
102
RTVSPropertyOp54
 70
     1
102
RTVSPropertyOp55
 70
     1
102
RTVSPropertyOp56
 70
     1
102
RTVSPropertyOp57
 70
     1
102
RTVSPropertyOp58
 70
     1
102
RTVSPropertyOp59
 70
     1
102
RTVSPropertyOp60
 70
     1
102
RTVSPropertyOp61
 70
     1
102
RTVSPropertyOp62
 70
     1
  0
XRECORD
  5
A845
102
{ACAD_REACTORS
330
A844
102
}
330
A844
100
AcDbXrecord
280
     1
102
RTVSPost2010Prop28
280
     0
102
RTVSPost2010PropOp28
 70
     0
102
RTVSPost2010Prop29
280
     1
102
RTVSPost2010PropOp29
 70
     0
102
RTVSPost2010Prop30
280
     1
102
RTVSPost2010PropOp30
 70
     0
102
RTVSPost2010Prop31
280
     0
102
RTVSPost2010PropOp31
 70
     0
102
RTVSPost2010Prop32
280
     0
102
RTVSPost2010PropOp32
 70
     0
102
RTVSPost2010Prop33
280
     0
102
RTVSPost2010PropOp33
 70
     0
102
RTVSPost2010Prop34
280
     0
102
RTVSPost2010PropOp34
 70
     0
102
RTVSPost2010Prop35
280
     0
102
RTVSPost2010PropOp35
 70
     0
102
RTVSPost2010Prop36
280
     0
102
RTVSPost2010PropOp36
 70
     0
102
RTVSPost2010Prop37
 90
       50
102
RTVSPost2010PropOp37
 70
     0
102
RTVSPost2010Prop38
140
0.0
102
RTVSPost2010PropOp38
 70
     0
102
RTVSPost2010Prop39
140
1.0
102
RTVSPost2010PropOp39
 70
     0
102
RTVSPost2010Prop40
 90
        0
102
RTVSPost2010PropOp40
 70
     0
102
RTVSPost2010Prop41ColorIndex
 90
       18
102
RTVSPost2010Prop41ColorRGB
 90
        0
102
RTVSPost2010PropOp41
 70
     0
102
RTVSPost2010Prop42
 90
       50
102
RTVSPost2010PropOp42
 70
     0
102
RTVSPost2010Prop43
 90
        3
102
RTVSPost2010PropOp43
 70
     0
102
RTVSPost2010Prop44ColorIndex
 90
        5
102
RTVSPost2010Prop44ColorRGB
 90
      255
102
RTVSPost2010PropOp44
 70
     0
102
RTVSPost2010Prop45
280
     0
102
RTVSPost2010PropOp45
 70
     0
102
RTVSPost2010Prop46
 90
       50
102
RTVSPost2010PropOp46
 70
     0
102
RTVSPost2010Prop47
 90
       50
102
RTVSPost2010PropOp47
 70
     0
102
RTVSPost2010Prop48
 90
       50
102
RTVSPost2010PropOp48
 70
     0
102
RTVSPost2010Prop49
280
     0
102
RTVSPost2010PropOp49
 70
     0
102
RTVSPost2010Prop50
 90
       50
102
RTVSPost2010PropOp50
 70
     0
102
RTVSPost2010Prop51ColorIndex
 90
      256
102
RTVSPost2010Prop51ColorRGB
 90
-16777216
102
RTVSPost2010PropOp51
 70
     0
102
RTVSPost2010Prop52
140
1.0
102
RTVSPost2010PropOp52
 70
     0
102
RTVSPost2010Prop53
 90
        2
102
RTVSPost2010PropOp53
 70
     0
102
RTVSPost2010Prop54
  1
strokes_ogs.tif
102
RTVSPost2010PropOp54
 70
     0
102
RTVSPost2010Prop55
280
     0
102
RTVSPost2010PropOp55
 70
     0
102
RTVSPost2010Prop56
140
1.0
102
RTVSPost2010PropOp56
 70
     0
102
RTVSPost2010Prop57
140
1.0
102
RTVSPost2010PropOp57
 70
     0
102
RTVSPropertyOp0
 70
     0
102
RTVSPropertyOp1
 70
     0
102
RTVSPropertyOp2
 70
     0
102
RTVSPropertyOp3
 70
     0
102
RTVSPropertyOp4
 70
     0
102
RTVSPropertyOp5
 70
     0
102
RTVSPropertyOp6
 70
     0
102
RTVSPropertyOp7
 70
     0
102
RTVSPropertyOp8
 70
     0
102
RTVSPropertyOp9
 70
     0
102
RTVSPropertyOp10
 70
     0
102
RTVSPropertyOp11
 70
     0
102
RTVSPropertyOp12
 70
     0
102
RTVSPropertyOp13
 70
     0
102
RTVSPropertyOp14
 70
     2
102
RTVSPropertyOp15
 70
     0
102
RTVSPropertyOp16
 70
     0
102
RTVSPropertyOp17
 70
     0
102
RTVSPropertyOp18
 70
     0
102
RTVSPropertyOp19
 70
     0
102
RTVSPropertyOp20
 70
     0
102
RTVSPropertyOp21
 70
     0
102
RTVSPropertyOp22
 70
     0
102
RTVSPropertyOp23
 70
     0
102
RTVSPropertyOp24
 70
     0
102
RTVSPropertyOp25
 70
     0
102
RTVSPropertyOp26
 70
     0
102
RTVSPropertyOp27
 70
     0
102
RTVSPropertyOp28
 70
     0
102
RTVSPropertyOp29
 70
     0
102
RTVSPropertyOp30
 70
     0
102
RTVSPropertyOp31
 70
     0
102
RTVSPropertyOp32
 70
     0
102
RTVSPropertyOp33
 70
     0
102
RTVSPropertyOp34
 70
     0
102
RTVSPropertyOp35
 70
     0
102
RTVSPropertyOp36
 70
     0
102
RTVSPropertyOp37
 70
     0
102
RTVSPropertyOp38
 70
     0
102
RTVSPropertyOp39
 70
     0
102
RTVSPropertyOp40
 70
     0
102
RTVSPropertyOp41
 70
     0
102
RTVSPropertyOp42
 70
     0
102
RTVSPropertyOp43
 70
     0
102
RTVSPropertyOp44
 70
     0
102
RTVSPropertyOp45
 70
     0
102
RTVSPropertyOp46
 70
     0
102
RTVSPropertyOp47
 70
     0
102
RTVSPropertyOp48
 70
     0
102
RTVSPropertyOp49
 70
     0
102
RTVSPropertyOp50
 70
     0
102
RTVSPropertyOp51
 70
     0
102
RTVSPropertyOp52
 70
     0
102
RTVSPropertyOp53
 70
     0
102
RTVSPropertyOp54
 70
     0
102
RTVSPropertyOp55
 70
     0
102
RTVSPropertyOp56
 70
     0
102
RTVSPropertyOp57
 70
     0
102
RTVSPropertyOp58
 70
     1
102
RTVSPropertyOp59
 70
     1
102
RTVSPropertyOp60
 70
     1
102
RTVSPropertyOp61
 70
     1
102
RTVSPropertyOp62
 70
     1
  0
XRECORD
  5
A833
102
{ACAD_REACTORS
330
A832
102
}
330
A832
100
AcDbXrecord
280
     1
102
RTVSPost2010Prop28
280
     0
102
RTVSPost2010PropOp28
 70
     1
102
RTVSPost2010Prop29
280
     1
102
RTVSPost2010PropOp29
 70
     1
102
RTVSPost2010Prop30
280
     1
102
RTVSPost2010PropOp30
 70
     1
102
RTVSPost2010Prop31
280
     0
102
RTVSPost2010PropOp31
 70
     1
102
RTVSPost2010Prop32
280
     0
102
RTVSPost2010PropOp32
 70
     1
102
RTVSPost2010Prop33
280
     0
102
RTVSPost2010PropOp33
 70
     1
102
RTVSPost2010Prop34
280
     0
102
RTVSPost2010PropOp34
 70
     1
102
RTVSPost2010Prop35
280
     0
102
RTVSPost2010PropOp35
 70
     1
102
RTVSPost2010Prop36
280
     0
102
RTVSPost2010PropOp36
 70
     1
102
RTVSPost2010Prop37
 90
       50
102
RTVSPost2010PropOp37
 70
     1
102
RTVSPost2010Prop38
140
0.0
102
RTVSPost2010PropOp38
 70
     1
102
RTVSPost2010Prop39
140
1.0
102
RTVSPost2010PropOp39
 70
     1
102
RTVSPost2010Prop40
 90
        0
102
RTVSPost2010PropOp40
 70
     1
102
RTVSPost2010Prop41ColorIndex
 90
       18
102
RTVSPost2010Prop41ColorRGB
 90
        0
102
RTVSPost2010PropOp41
 70
     1
102
RTVSPost2010Prop42
 90
       50
102
RTVSPost2010PropOp42
 70
     1
102
RTVSPost2010Prop43
 90
        3
102
RTVSPost2010PropOp43
 70
     1
102
RTVSPost2010Prop44ColorIndex
 90
        5
102
RTVSPost2010Prop44ColorRGB
 90
      255
102
RTVSPost2010PropOp44
 70
     1
102
RTVSPost2010Prop45
280
     0
102
RTVSPost2010PropOp45
 70
     1
102
RTVSPost2010Prop46
 90
       50
102
RTVSPost2010PropOp46
 70
     1
102
RTVSPost2010Prop47
 90
       50
102
RTVSPost2010PropOp47
 70
     1
102
RTVSPost2010Prop48
 90
       50
102
RTVSPost2010PropOp48
 70
     1
102
RTVSPost2010Prop49
280
     0
102
RTVSPost2010PropOp49
 70
     1
102
RTVSPost2010Prop50
 90
       50
102
RTVSPost2010PropOp50
 70
     1
102
RTVSPost2010Prop51ColorIndex
 90
      256
102
RTVSPost2010Prop51ColorRGB
 90
-16777216
102
RTVSPost2010PropOp51
 70
     0
102
RTVSPost2010Prop52
140
1.0
102
RTVSPost2010PropOp52
 70
     0
102
RTVSPost2010Prop53
 90
        2
102
RTVSPost2010PropOp53
 70
     1
102
RTVSPost2010Prop54
  1
strokes_ogs.tif
102
RTVSPost2010PropOp54
 70
     1
102
RTVSPost2010Prop55
280
     0
102
RTVSPost2010PropOp55
 70
     1
102
RTVSPost2010Prop56
140
1.0
102
RTVSPost2010PropOp56
 70
     1
102
RTVSPost2010Prop57
140
1.0
102
RTVSPost2010PropOp57
 70
     1
102
RTVSPropertyOp0
 70
     1
102
RTVSPropertyOp1
 70
     1
102
RTVSPropertyOp2
 70
     1
102
RTVSPropertyOp3
 70
     1
102
RTVSPropertyOp4
 70
     1
102
RTVSPropertyOp5
 70
     1
102
RTVSPropertyOp6
 70
     1
102
RTVSPropertyOp7
 70
     1
102
RTVSPropertyOp8
 70
     1
102
RTVSPropertyOp9
 70
     1
102
RTVSPropertyOp10
 70
     1
102
RTVSPropertyOp11
 70
     1
102
RTVSPropertyOp12
 70
     1
102
RTVSPropertyOp13
 70
     1
102
RTVSPropertyOp14
 70
     1
102
RTVSPropertyOp15
 70
     1
102
RTVSPropertyOp16
 70
     1
102
RTVSPropertyOp17
 70
     1
102
RTVSPropertyOp18
 70
     1
102
RTVSPropertyOp19
 70
     1
102
RTVSPropertyOp20
 70
     1
102
RTVSPropertyOp21
 70
     1
102
RTVSPropertyOp22
 70
     1
102
RTVSPropertyOp23
 70
     1
102
RTVSPropertyOp24
 70
     1
102
RTVSPropertyOp25
 70
     1
102
RTVSPropertyOp26
 70
     1
102
RTVSPropertyOp27
 70
     1
102
RTVSPropertyOp28
 70
     1
102
RTVSPropertyOp29
 70
     1
102
RTVSPropertyOp30
 70
     1
102
RTVSPropertyOp31
 70
     1
102
RTVSPropertyOp32
 70
     1
102
RTVSPropertyOp33
 70
     1
102
RTVSPropertyOp34
 70
     1
102
RTVSPropertyOp35
 70
     1
102
RTVSPropertyOp36
 70
     1
102
RTVSPropertyOp37
 70
     1
102
RTVSPropertyOp38
 70
     1
102
RTVSPropertyOp39
 70
     1
102
RTVSPropertyOp40
 70
     1
102
RTVSPropertyOp41
 70
     1
102
RTVSPropertyOp42
 70
     1
102
RTVSPropertyOp43
 70
     1
102
RTVSPropertyOp44
 70
     1
102
RTVSPropertyOp45
 70
     1
102
RTVSPropertyOp46
 70
     1
102
RTVSPropertyOp47
 70
     1
102
RTVSPropertyOp48
 70
     1
102
RTVSPropertyOp49
 70
     1
102
RTVSPropertyOp50
 70
     1
102
RTVSPropertyOp51
 70
     0
102
RTVSPropertyOp52
 70
     0
102
RTVSPropertyOp53
 70
     1
102
RTVSPropertyOp54
 70
     1
102
RTVSPropertyOp55
 70
     1
102
RTVSPropertyOp56
 70
     1
102
RTVSPropertyOp57
 70
     1
102
RTVSPropertyOp58
 70
     1
102
RTVSPropertyOp59
 70
     1
102
RTVSPropertyOp60
 70
     1
102
RTVSPropertyOp61
 70
     1
102
RTVSPropertyOp62
 70
     1
  0
XRECORD
  5
A817
102
{ACAD_REACTORS
330
A816
102
}
330
A816
100
AcDbXrecord
280
     1
102
RTVSPost2010Prop28
280
     0
102
RTVSPost2010PropOp28
 70
     1
102
RTVSPost2010Prop29
280
     1
102
RTVSPost2010PropOp29
 70
     1
102
RTVSPost2010Prop30
280
     1
102
RTVSPost2010PropOp30
 70
     1
102
RTVSPost2010Prop31
280
     0
102
RTVSPost2010PropOp31
 70
     1
102
RTVSPost2010Prop32
280
     0
102
RTVSPost2010PropOp32
 70
     1
102
RTVSPost2010Prop33
280
     0
102
RTVSPost2010PropOp33
 70
     1
102
RTVSPost2010Prop34
280
     0
102
RTVSPost2010PropOp34
 70
     1
102
RTVSPost2010Prop35
280
     0
102
RTVSPost2010PropOp35
 70
     1
102
RTVSPost2010Prop36
280
     0
102
RTVSPost2010PropOp36
 70
     1
102
RTVSPost2010Prop37
 90
       50
102
RTVSPost2010PropOp37
 70
     1
102
RTVSPost2010Prop38
140
0.0
102
RTVSPost2010PropOp38
 70
     1
102
RTVSPost2010Prop39
140
1.0
102
RTVSPost2010PropOp39
 70
     1
102
RTVSPost2010Prop40
 90
        0
102
RTVSPost2010PropOp40
 70
     1
102
RTVSPost2010Prop41ColorIndex
 90
       18
102
RTVSPost2010Prop41ColorRGB
 90
        0
102
RTVSPost2010PropOp41
 70
     1
102
RTVSPost2010Prop42
 90
       50
102
RTVSPost2010PropOp42
 70
     1
102
RTVSPost2010Prop43
 90
        3
102
RTVSPost2010PropOp43
 70
     1
102
RTVSPost2010Prop44ColorIndex
 90
        5
102
RTVSPost2010Prop44ColorRGB
 90
      255
102
RTVSPost2010PropOp44
 70
     1
102
RTVSPost2010Prop45
280
     0
102
RTVSPost2010PropOp45
 70
     1
102
RTVSPost2010Prop46
 90
       50
102
RTVSPost2010PropOp46
 70
     1
102
RTVSPost2010Prop47
 90
       50
102
RTVSPost2010PropOp47
 70
     1
102
RTVSPost2010Prop48
 90
       50
102
RTVSPost2010PropOp48
 70
     1
102
RTVSPost2010Prop49
280
     0
102
RTVSPost2010PropOp49
 70
     1
102
RTVSPost2010Prop50
 90
       50
102
RTVSPost2010PropOp50
 70
     1
102
RTVSPost2010Prop51ColorIndex
 90
      256
102
RTVSPost2010Prop51ColorRGB
 90
-16777216
102
RTVSPost2010PropOp51
 70
     0
102
RTVSPost2010Prop52
140
1.0
102
RTVSPost2010PropOp52
 70
     0
102
RTVSPost2010Prop53
 90
        2
102
RTVSPost2010PropOp53
 70
     1
102
RTVSPost2010Prop54
  1
strokes_ogs.tif
102
RTVSPost2010PropOp54
 70
     1
102
RTVSPost2010Prop55
280
     0
102
RTVSPost2010PropOp55
 70
     1
102
RTVSPost2010Prop56
140
1.0
102
RTVSPost2010PropOp56
 70
     1
102
RTVSPost2010Prop57
140
1.0
102
RTVSPost2010PropOp57
 70
     1
102
RTVSPropertyOp0
 70
     1
102
RTVSPropertyOp1
 70
     1
102
RTVSPropertyOp2
 70
     1
102
RTVSPropertyOp3
 70
     1
102
RTVSPropertyOp4
 70
     1
102
RTVSPropertyOp5
 70
     1
102
RTVSPropertyOp6
 70
     1
102
RTVSPropertyOp7
 70
     1
102
RTVSPropertyOp8
 70
     1
102
RTVSPropertyOp9
 70
     1
102
RTVSPropertyOp10
 70
     1
102
RTVSPropertyOp11
 70
     1
102
RTVSPropertyOp12
 70
     1
102
RTVSPropertyOp13
 70
     1
102
RTVSPropertyOp14
 70
     1
102
RTVSPropertyOp15
 70
     1
102
RTVSPropertyOp16
 70
     1
102
RTVSPropertyOp17
 70
     1
102
RTVSPropertyOp18
 70
     1
102
RTVSPropertyOp19
 70
     1
102
RTVSPropertyOp20
 70
     1
102
RTVSPropertyOp21
 70
     1
102
RTVSPropertyOp22
 70
     1
102
RTVSPropertyOp23
 70
     1
102
RTVSPropertyOp24
 70
     1
102
RTVSPropertyOp25
 70
     1
102
RTVSPropertyOp26
 70
     1
102
RTVSPropertyOp27
 70
     1
102
RTVSPropertyOp28
 70
     1
102
RTVSPropertyOp29
 70
     1
102
RTVSPropertyOp30
 70
     1
102
RTVSPropertyOp31
 70
     1
102
RTVSPropertyOp32
 70
     1
102
RTVSPropertyOp33
 70
     1
102
RTVSPropertyOp34
 70
     1
102
RTVSPropertyOp35
 70
     1
102
RTVSPropertyOp36
 70
     1
102
RTVSPropertyOp37
 70
     1
102
RTVSPropertyOp38
 70
     1
102
RTVSPropertyOp39
 70
     1
102
RTVSPropertyOp40
 70
     1
102
RTVSPropertyOp41
 70
     1
102
RTVSPropertyOp42
 70
     1
102
RTVSPropertyOp43
 70
     1
102
RTVSPropertyOp44
 70
     1
102
RTVSPropertyOp45
 70
     1
102
RTVSPropertyOp46
 70
     1
102
RTVSPropertyOp47
 70
     1
102
RTVSPropertyOp48
 70
     1
102
RTVSPropertyOp49
 70
     1
102
RTVSPropertyOp50
 70
     1
102
RTVSPropertyOp51
 70
     0
102
RTVSPropertyOp52
 70
     0
102
RTVSPropertyOp53
 70
     1
102
RTVSPropertyOp54
 70
     1
102
RTVSPropertyOp55
 70
     1
102
RTVSPropertyOp56
 70
     1
102
RTVSPropertyOp57
 70
     1
102
RTVSPropertyOp58
 70
     1
102
RTVSPropertyOp59
 70
     1
102
RTVSPropertyOp60
 70
     1
102
RTVSPropertyOp61
 70
     1
102
RTVSPropertyOp62
 70
     1
  0
XRECORD
  5
A819
102
{ACAD_REACTORS
330
A818
102
}
330
A818
100
AcDbXrecord
280
     1
102
RTVSPost2010Prop28
280
     0
102
RTVSPost2010PropOp28
 70
     1
102
RTVSPost2010Prop29
280
     1
102
RTVSPost2010PropOp29
 70
     1
102
RTVSPost2010Prop30
280
     1
102
RTVSPost2010PropOp30
 70
     1
102
RTVSPost2010Prop31
280
     0
102
RTVSPost2010PropOp31
 70
     1
102
RTVSPost2010Prop32
280
     0
102
RTVSPost2010PropOp32
 70
     1
102
RTVSPost2010Prop33
280
     0
102
RTVSPost2010PropOp33
 70
     1
102
RTVSPost2010Prop34
280
     0
102
RTVSPost2010PropOp34
 70
     1
102
RTVSPost2010Prop35
280
     0
102
RTVSPost2010PropOp35
 70
     1
102
RTVSPost2010Prop36
280
     0
102
RTVSPost2010PropOp36
 70
     1
102
RTVSPost2010Prop37
 90
       50
102
RTVSPost2010PropOp37
 70
     1
102
RTVSPost2010Prop38
140
0.0
102
RTVSPost2010PropOp38
 70
     1
102
RTVSPost2010Prop39
140
1.0
102
RTVSPost2010PropOp39
 70
     1
102
RTVSPost2010Prop40
 90
        0
102
RTVSPost2010PropOp40
 70
     1
102
RTVSPost2010Prop41ColorIndex
 90
       18
102
RTVSPost2010Prop41ColorRGB
 90
        0
102
RTVSPost2010PropOp41
 70
     1
102
RTVSPost2010Prop42
 90
       50
102
RTVSPost2010PropOp42
 70
     1
102
RTVSPost2010Prop43
 90
        3
102
RTVSPost2010PropOp43
 70
     1
102
RTVSPost2010Prop44ColorIndex
 90
        5
102
RTVSPost2010Prop44ColorRGB
 90
      255
102
RTVSPost2010PropOp44
 70
     1
102
RTVSPost2010Prop45
280
     0
102
RTVSPost2010PropOp45
 70
     1
102
RTVSPost2010Prop46
 90
       50
102
RTVSPost2010PropOp46
 70
     1
102
RTVSPost2010Prop47
 90
       50
102
RTVSPost2010PropOp47
 70
     1
102
RTVSPost2010Prop48
 90
       50
102
RTVSPost2010PropOp48
 70
     1
102
RTVSPost2010Prop49
280
     0
102
RTVSPost2010PropOp49
 70
     1
102
RTVSPost2010Prop50
 90
       50
102
RTVSPost2010PropOp50
 70
     1
102
RTVSPost2010Prop51ColorIndex
 90
      256
102
RTVSPost2010Prop51ColorRGB
 90
-16777216
102
RTVSPost2010PropOp51
 70
     0
102
RTVSPost2010Prop52
140
1.0
102
RTVSPost2010PropOp52
 70
     0
102
RTVSPost2010Prop53
 90
        2
102
RTVSPost2010PropOp53
 70
     1
102
RTVSPost2010Prop54
  1
strokes_ogs.tif
102
RTVSPost2010PropOp54
 70
     1
102
RTVSPost2010Prop55
280
     0
102
RTVSPost2010PropOp55
 70
     1
102
RTVSPost2010Prop56
140
1.0
102
RTVSPost2010PropOp56
 70
     1
102
RTVSPost2010Prop57
140
1.0
102
RTVSPost2010PropOp57
 70
     1
102
RTVSPropertyOp0
 70
     1
102
RTVSPropertyOp1
 70
     1
102
RTVSPropertyOp2
 70
     1
102
RTVSPropertyOp3
 70
     1
102
RTVSPropertyOp4
 70
     1
102
RTVSPropertyOp5
 70
     1
102
RTVSPropertyOp6
 70
     1
102
RTVSPropertyOp7
 70
     1
102
RTVSPropertyOp8
 70
     1
102
RTVSPropertyOp9
 70
     1
102
RTVSPropertyOp10
 70
     1
102
RTVSPropertyOp11
 70
     1
102
RTVSPropertyOp12
 70
     1
102
RTVSPropertyOp13
 70
     1
102
RTVSPropertyOp14
 70
     1
102
RTVSPropertyOp15
 70
     1
102
RTVSPropertyOp16
 70
     1
102
RTVSPropertyOp17
 70
     1
102
RTVSPropertyOp18
 70
     1
102
RTVSPropertyOp19
 70
     1
102
RTVSPropertyOp20
 70
     1
102
RTVSPropertyOp21
 70
     1
102
RTVSPropertyOp22
 70
     1
102
RTVSPropertyOp23
 70
     1
102
RTVSPropertyOp24
 70
     1
102
RTVSPropertyOp25
 70
     1
102
RTVSPropertyOp26
 70
     1
102
RTVSPropertyOp27
 70
     1
102
RTVSPropertyOp28
 70
     1
102
RTVSPropertyOp29
 70
     1
102
RTVSPropertyOp30
 70
     1
102
RTVSPropertyOp31
 70
     1
102
RTVSPropertyOp32
 70
     1
102
RTVSPropertyOp33
 70
     1
102
RTVSPropertyOp34
 70
     1
102
RTVSPropertyOp35
 70
     1
102
RTVSPropertyOp36
 70
     1
102
RTVSPropertyOp37
 70
     1
102
RTVSPropertyOp38
 70
     1
102
RTVSPropertyOp39
 70
     1
102
RTVSPropertyOp40
 70
     1
102
RTVSPropertyOp41
 70
     1
102
RTVSPropertyOp42
 70
     1
102
RTVSPropertyOp43
 70
     1
102
RTVSPropertyOp44
 70
     1
102
RTVSPropertyOp45
 70
     1
102
RTVSPropertyOp46
 70
     1
102
RTVSPropertyOp47
 70
     1
102
RTVSPropertyOp48
 70
     1
102
RTVSPropertyOp49
 70
     1
102
RTVSPropertyOp50
 70
     1
102
RTVSPropertyOp51
 70
     0
102
RTVSPropertyOp52
 70
     0
102
RTVSPropertyOp53
 70
     1
102
RTVSPropertyOp54
 70
     1
102
RTVSPropertyOp55
 70
     1
102
RTVSPropertyOp56
 70
     1
102
RTVSPropertyOp57
 70
     1
102
RTVSPropertyOp58
 70
     1
102
RTVSPropertyOp59
 70
     1
102
RTVSPropertyOp60
 70
     1
102
RTVSPropertyOp61
 70
     1
102
RTVSPropertyOp62
 70
     1
  0
XRECORD
  5
A81B
102
{ACAD_REACTORS
330
A81A
102
}
330
A81A
100
AcDbXrecord
280
     1
102
RTVSPost2010Prop28
280
     0
102
RTVSPost2010PropOp28
 70
     1
102
RTVSPost2010Prop29
280
     1
102
RTVSPost2010PropOp29
 70
     1
102
RTVSPost2010Prop30
280
     1
102
RTVSPost2010PropOp30
 70
     1
102
RTVSPost2010Prop31
280
     0
102
RTVSPost2010PropOp31
 70
     1
102
RTVSPost2010Prop32
280
     0
102
RTVSPost2010PropOp32
 70
     1
102
RTVSPost2010Prop33
280
     0
102
RTVSPost2010PropOp33
 70
     1
102
RTVSPost2010Prop34
280
     0
102
RTVSPost2010PropOp34
 70
     1
102
RTVSPost2010Prop35
280
     0
102
RTVSPost2010PropOp35
 70
     1
102
RTVSPost2010Prop36
280
     0
102
RTVSPost2010PropOp36
 70
     1
102
RTVSPost2010Prop37
 90
       50
102
RTVSPost2010PropOp37
 70
     1
102
RTVSPost2010Prop38
140
0.0
102
RTVSPost2010PropOp38
 70
     1
102
RTVSPost2010Prop39
140
1.0
102
RTVSPost2010PropOp39
 70
     1
102
RTVSPost2010Prop40
 90
        0
102
RTVSPost2010PropOp40
 70
     1
102
RTVSPost2010Prop41ColorIndex
 90
       18
102
RTVSPost2010Prop41ColorRGB
 90
        0
102
RTVSPost2010PropOp41
 70
     1
102
RTVSPost2010Prop42
 90
       50
102
RTVSPost2010PropOp42
 70
     1
102
RTVSPost2010Prop43
 90
        3
102
RTVSPost2010PropOp43
 70
     1
102
RTVSPost2010Prop44ColorIndex
 90
        5
102
RTVSPost2010Prop44ColorRGB
 90
      255
102
RTVSPost2010PropOp44
 70
     1
102
RTVSPost2010Prop45
280
     0
102
RTVSPost2010PropOp45
 70
     1
102
RTVSPost2010Prop46
 90
       50
102
RTVSPost2010PropOp46
 70
     1
102
RTVSPost2010Prop47
 90
       50
102
RTVSPost2010PropOp47
 70
     1
102
RTVSPost2010Prop48
 90
       50
102
RTVSPost2010PropOp48
 70
     1
102
RTVSPost2010Prop49
280
     0
102
RTVSPost2010PropOp49
 70
     1
102
RTVSPost2010Prop50
 90
       50
102
RTVSPost2010PropOp50
 70
     1
102
RTVSPost2010Prop51ColorIndex
 90
      256
102
RTVSPost2010Prop51ColorRGB
 90
-16777216
102
RTVSPost2010PropOp51
 70
     0
102
RTVSPost2010Prop52
140
1.0
102
RTVSPost2010PropOp52
 70
     0
102
RTVSPost2010Prop53
 90
        2
102
RTVSPost2010PropOp53
 70
     1
102
RTVSPost2010Prop54
  1
strokes_ogs.tif
102
RTVSPost2010PropOp54
 70
     1
102
RTVSPost2010Prop55
280
     0
102
RTVSPost2010PropOp55
 70
     1
102
RTVSPost2010Prop56
140
1.0
102
RTVSPost2010PropOp56
 70
     1
102
RTVSPost2010Prop57
140
1.0
102
RTVSPost2010PropOp57
 70
     1
102
RTVSPropertyOp0
 70
     1
102
RTVSPropertyOp1
 70
     1
102
RTVSPropertyOp2
 70
     1
102
RTVSPropertyOp3
 70
     1
102
RTVSPropertyOp4
 70
     1
102
RTVSPropertyOp5
 70
     1
102
RTVSPropertyOp6
 70
     1
102
RTVSPropertyOp7
 70
     1
102
RTVSPropertyOp8
 70
     1
102
RTVSPropertyOp9
 70
     1
102
RTVSPropertyOp10
 70
     1
102
RTVSPropertyOp11
 70
     1
102
RTVSPropertyOp12
 70
     1
102
RTVSPropertyOp13
 70
     1
102
RTVSPropertyOp14
 70
     1
102
RTVSPropertyOp15
 70
     1
102
RTVSPropertyOp16
 70
     1
102
RTVSPropertyOp17
 70
     1
102
RTVSPropertyOp18
 70
     1
102
RTVSPropertyOp19
 70
     1
102
RTVSPropertyOp20
 70
     1
102
RTVSPropertyOp21
 70
     1
102
RTVSPropertyOp22
 70
     1
102
RTVSPropertyOp23
 70
     1
102
RTVSPropertyOp24
 70
     1
102
RTVSPropertyOp25
 70
     1
102
RTVSPropertyOp26
 70
     1
102
RTVSPropertyOp27
 70
     1
102
RTVSPropertyOp28
 70
     1
102
RTVSPropertyOp29
 70
     1
102
RTVSPropertyOp30
 70
     1
102
RTVSPropertyOp31
 70
     1
102
RTVSPropertyOp32
 70
     1
102
RTVSPropertyOp33
 70
     1
102
RTVSPropertyOp34
 70
     1
102
RTVSPropertyOp35
 70
     1
102
RTVSPropertyOp36
 70
     1
102
RTVSPropertyOp37
 70
     1
102
RTVSPropertyOp38
 70
     1
102
RTVSPropertyOp39
 70
     1
102
RTVSPropertyOp40
 70
     1
102
RTVSPropertyOp41
 70
     1
102
RTVSPropertyOp42
 70
     1
102
RTVSPropertyOp43
 70
     1
102
RTVSPropertyOp44
 70
     1
102
RTVSPropertyOp45
 70
     1
102
RTVSPropertyOp46
 70
     1
102
RTVSPropertyOp47
 70
     1
102
RTVSPropertyOp48
 70
     1
102
RTVSPropertyOp49
 70
     1
102
RTVSPropertyOp50
 70
     1
102
RTVSPropertyOp51
 70
     0
102
RTVSPropertyOp52
 70
     0
102
RTVSPropertyOp53
 70
     1
102
RTVSPropertyOp54
 70
     1
102
RTVSPropertyOp55
 70
     1
102
RTVSPropertyOp56
 70
     1
102
RTVSPropertyOp57
 70
     1
102
RTVSPropertyOp58
 70
     1
102
RTVSPropertyOp59
 70
     1
102
RTVSPropertyOp60
 70
     1
102
RTVSPropertyOp61
 70
     1
102
RTVSPropertyOp62
 70
     1
  0
XRECORD
  5
A81D
102
{ACAD_REACTORS
330
A81C
102
}
330
A81C
100
AcDbXrecord
280
     1
102
RTVSPost2010Prop28
280
     0
102
RTVSPost2010PropOp28
 70
     1
102
RTVSPost2010Prop29
280
     1
102
RTVSPost2010PropOp29
 70
     1
102
RTVSPost2010Prop30
280
     1
102
RTVSPost2010PropOp30
 70
     1
102
RTVSPost2010Prop31
280
     0
102
RTVSPost2010PropOp31
 70
     1
102
RTVSPost2010Prop32
280
     0
102
RTVSPost2010PropOp32
 70
     1
102
RTVSPost2010Prop33
280
     0
102
RTVSPost2010PropOp33
 70
     1
102
RTVSPost2010Prop34
280
     0
102
RTVSPost2010PropOp34
 70
     1
102
RTVSPost2010Prop35
280
     0
102
RTVSPost2010PropOp35
 70
     1
102
RTVSPost2010Prop36
280
     0
102
RTVSPost2010PropOp36
 70
     1
102
RTVSPost2010Prop37
 90
       50
102
RTVSPost2010PropOp37
 70
     1
102
RTVSPost2010Prop38
140
0.0
102
RTVSPost2010PropOp38
 70
     1
102
RTVSPost2010Prop39
140
1.0
102
RTVSPost2010PropOp39
 70
     1
102
RTVSPost2010Prop40
 90
        0
102
RTVSPost2010PropOp40
 70
     1
102
RTVSPost2010Prop41ColorIndex
 90
       18
102
RTVSPost2010Prop41ColorRGB
 90
        0
102
RTVSPost2010PropOp41
 70
     1
102
RTVSPost2010Prop42
 90
       50
102
RTVSPost2010PropOp42
 70
     1
102
RTVSPost2010Prop43
 90
        3
102
RTVSPost2010PropOp43
 70
     1
102
RTVSPost2010Prop44ColorIndex
 90
        5
102
RTVSPost2010Prop44ColorRGB
 90
      255
102
RTVSPost2010PropOp44
 70
     1
102
RTVSPost2010Prop45
280
     0
102
RTVSPost2010PropOp45
 70
     1
102
RTVSPost2010Prop46
 90
       50
102
RTVSPost2010PropOp46
 70
     1
102
RTVSPost2010Prop47
 90
       50
102
RTVSPost2010PropOp47
 70
     1
102
RTVSPost2010Prop48
 90
       50
102
RTVSPost2010PropOp48
 70
     1
102
RTVSPost2010Prop49
280
     0
102
RTVSPost2010PropOp49
 70
     1
102
RTVSPost2010Prop50
 90
       50
102
RTVSPost2010PropOp50
 70
     1
102
RTVSPost2010Prop51ColorIndex
 90
      256
102
RTVSPost2010Prop51ColorRGB
 90
-16777216
102
RTVSPost2010PropOp51
 70
     0
102
RTVSPost2010Prop52
140
1.0
102
RTVSPost2010PropOp52
 70
     0
102
RTVSPost2010Prop53
 90
        2
102
RTVSPost2010PropOp53
 70
     1
102
RTVSPost2010Prop54
  1
strokes_ogs.tif
102
RTVSPost2010PropOp54
 70
     1
102
RTVSPost2010Prop55
280
     0
102
RTVSPost2010PropOp55
 70
     1
102
RTVSPost2010Prop56
140
1.0
102
RTVSPost2010PropOp56
 70
     1
102
RTVSPost2010Prop57
140
1.0
102
RTVSPost2010PropOp57
 70
     1
102
RTVSPropertyOp0
 70
     1
102
RTVSPropertyOp1
 70
     1
102
RTVSPropertyOp2
 70
     1
102
RTVSPropertyOp3
 70
     1
102
RTVSPropertyOp4
 70
     1
102
RTVSPropertyOp5
 70
     1
102
RTVSPropertyOp6
 70
     1
102
RTVSPropertyOp7
 70
     1
102
RTVSPropertyOp8
 70
     1
102
RTVSPropertyOp9
 70
     1
102
RTVSPropertyOp10
 70
     1
102
RTVSPropertyOp11
 70
     1
102
RTVSPropertyOp12
 70
     1
102
RTVSPropertyOp13
 70
     1
102
RTVSPropertyOp14
 70
     1
102
RTVSPropertyOp15
 70
     1
102
RTVSPropertyOp16
 70
     1
102
RTVSPropertyOp17
 70
     1
102
RTVSPropertyOp18
 70
     1
102
RTVSPropertyOp19
 70
     1
102
RTVSPropertyOp20
 70
     1
102
RTVSPropertyOp21
 70
     1
102
RTVSPropertyOp22
 70
     1
102
RTVSPropertyOp23
 70
     1
102
RTVSPropertyOp24
 70
     1
102
RTVSPropertyOp25
 70
     1
102
RTVSPropertyOp26
 70
     1
102
RTVSPropertyOp27
 70
     1
102
RTVSPropertyOp28
 70
     1
102
RTVSPropertyOp29
 70
     1
102
RTVSPropertyOp30
 70
     1
102
RTVSPropertyOp31
 70
     1
102
RTVSPropertyOp32
 70
     1
102
RTVSPropertyOp33
 70
     1
102
RTVSPropertyOp34
 70
     1
102
RTVSPropertyOp35
 70
     1
102
RTVSPropertyOp36
 70
     1
102
RTVSPropertyOp37
 70
     1
102
RTVSPropertyOp38
 70
     1
102
RTVSPropertyOp39
 70
     1
102
RTVSPropertyOp40
 70
     1
102
RTVSPropertyOp41
 70
     1
102
RTVSPropertyOp42
 70
     1
102
RTVSPropertyOp43
 70
     1
102
RTVSPropertyOp44
 70
     1
102
RTVSPropertyOp45
 70
     1
102
RTVSPropertyOp46
 70
     1
102
RTVSPropertyOp47
 70
     1
102
RTVSPropertyOp48
 70
     1
102
RTVSPropertyOp49
 70
     1
102
RTVSPropertyOp50
 70
     1
102
RTVSPropertyOp51
 70
     0
102
RTVSPropertyOp52
 70
     0
102
RTVSPropertyOp53
 70
     1
102
RTVSPropertyOp54
 70
     1
102
RTVSPropertyOp55
 70
     1
102
RTVSPropertyOp56
 70
     1
102
RTVSPropertyOp57
 70
     1
102
RTVSPropertyOp58
 70
     1
102
RTVSPropertyOp59
 70
     1
102
RTVSPropertyOp60
 70
     1
102
RTVSPropertyOp61
 70
     1
102
RTVSPropertyOp62
 70
     1
  0
XRECORD
  5
A825
102
{ACAD_REACTORS
330
A824
102
}
330
A824
100
AcDbXrecord
280
     1
102
RTVSPost2010Prop28
280
     0
102
RTVSPost2010PropOp28
 70
     1
102
RTVSPost2010Prop29
280
     1
102
RTVSPost2010PropOp29
 70
     1
102
RTVSPost2010Prop30
280
     1
102
RTVSPost2010PropOp30
 70
     1
102
RTVSPost2010Prop31
280
     0
102
RTVSPost2010PropOp31
 70
     1
102
RTVSPost2010Prop32
280
     0
102
RTVSPost2010PropOp32
 70
     1
102
RTVSPost2010Prop33
280
     0
102
RTVSPost2010PropOp33
 70
     1
102
RTVSPost2010Prop34
280
     0
102
RTVSPost2010PropOp34
 70
     1
102
RTVSPost2010Prop35
280
     0
102
RTVSPost2010PropOp35
 70
     1
102
RTVSPost2010Prop36
280
     0
102
RTVSPost2010PropOp36
 70
     1
102
RTVSPost2010Prop37
 90
       50
102
RTVSPost2010PropOp37
 70
     1
102
RTVSPost2010Prop38
140
0.0
102
RTVSPost2010PropOp38
 70
     1
102
RTVSPost2010Prop39
140
1.0
102
RTVSPost2010PropOp39
 70
     1
102
RTVSPost2010Prop40
 90
        0
102
RTVSPost2010PropOp40
 70
     1
102
RTVSPost2010Prop41ColorIndex
 90
       18
102
RTVSPost2010Prop41ColorRGB
 90
        0
102
RTVSPost2010PropOp41
 70
     1
102
RTVSPost2010Prop42
 90
       50
102
RTVSPost2010PropOp42
 70
     1
102
RTVSPost2010Prop43
 90
        3
102
RTVSPost2010PropOp43
 70
     1
102
RTVSPost2010Prop44ColorIndex
 90
        5
102
RTVSPost2010Prop44ColorRGB
 90
      255
102
RTVSPost2010PropOp44
 70
     1
102
RTVSPost2010Prop45
280
     0
102
RTVSPost2010PropOp45
 70
     1
102
RTVSPost2010Prop46
 90
       50
102
RTVSPost2010PropOp46
 70
     1
102
RTVSPost2010Prop47
 90
       50
102
RTVSPost2010PropOp47
 70
     1
102
RTVSPost2010Prop48
 90
       50
102
RTVSPost2010PropOp48
 70
     1
102
RTVSPost2010Prop49
280
     0
102
RTVSPost2010PropOp49
 70
     1
102
RTVSPost2010Prop50
 90
       50
102
RTVSPost2010PropOp50
 70
     1
102
RTVSPost2010Prop51ColorIndex
 90
      256
102
RTVSPost2010Prop51ColorRGB
 90
-16777216
102
RTVSPost2010PropOp51
 70
     0
102
RTVSPost2010Prop52
140
1.0
102
RTVSPost2010PropOp52
 70
     0
102
RTVSPost2010Prop53
 90
        2
102
RTVSPost2010PropOp53
 70
     1
102
RTVSPost2010Prop54
  1
strokes_ogs.tif
102
RTVSPost2010PropOp54
 70
     1
102
RTVSPost2010Prop55
280
     0
102
RTVSPost2010PropOp55
 70
     1
102
RTVSPost2010Prop56
140
1.0
102
RTVSPost2010PropOp56
 70
     1
102
RTVSPost2010Prop57
140
1.0
102
RTVSPost2010PropOp57
 70
     1
102
RTVSPropertyOp0
 70
     1
102
RTVSPropertyOp1
 70
     1
102
RTVSPropertyOp2
 70
     1
102
RTVSPropertyOp3
 70
     1
102
RTVSPropertyOp4
 70
     1
102
RTVSPropertyOp5
 70
     1
102
RTVSPropertyOp6
 70
     1
102
RTVSPropertyOp7
 70
     1
102
RTVSPropertyOp8
 70
     1
102
RTVSPropertyOp9
 70
     1
102
RTVSPropertyOp10
 70
     1
102
RTVSPropertyOp11
 70
     1
102
RTVSPropertyOp12
 70
     1
102
RTVSPropertyOp13
 70
     1
102
RTVSPropertyOp14
 70
     1
102
RTVSPropertyOp15
 70
     1
102
RTVSPropertyOp16
 70
     1
102
RTVSPropertyOp17
 70
     1
102
RTVSPropertyOp18
 70
     1
102
RTVSPropertyOp19
 70
     1
102
RTVSPropertyOp20
 70
     1
102
RTVSPropertyOp21
 70
     1
102
RTVSPropertyOp22
 70
     1
102
RTVSPropertyOp23
 70
     1
102
RTVSPropertyOp24
 70
     1
102
RTVSPropertyOp25
 70
     1
102
RTVSPropertyOp26
 70
     1
102
RTVSPropertyOp27
 70
     1
102
RTVSPropertyOp28
 70
     1
102
RTVSPropertyOp29
 70
     1
102
RTVSPropertyOp30
 70
     1
102
RTVSPropertyOp31
 70
     1
102
RTVSPropertyOp32
 70
     1
102
RTVSPropertyOp33
 70
     1
102
RTVSPropertyOp34
 70
     1
102
RTVSPropertyOp35
 70
     1
102
RTVSPropertyOp36
 70
     1
102
RTVSPropertyOp37
 70
     1
102
RTVSPropertyOp38
 70
     1
102
RTVSPropertyOp39
 70
     1
102
RTVSPropertyOp40
 70
     1
102
RTVSPropertyOp41
 70
     1
102
RTVSPropertyOp42
 70
     1
102
RTVSPropertyOp43
 70
     1
102
RTVSPropertyOp44
 70
     1
102
RTVSPropertyOp45
 70
     1
102
RTVSPropertyOp46
 70
     1
102
RTVSPropertyOp47
 70
     1
102
RTVSPropertyOp48
 70
     1
102
RTVSPropertyOp49
 70
     1
102
RTVSPropertyOp50
 70
     1
102
RTVSPropertyOp51
 70
     0
102
RTVSPropertyOp52
 70
     0
102
RTVSPropertyOp53
 70
     1
102
RTVSPropertyOp54
 70
     1
102
RTVSPropertyOp55
 70
     1
102
RTVSPropertyOp56
 70
     1
102
RTVSPropertyOp57
 70
     1
102
RTVSPropertyOp58
 70
     1
102
RTVSPropertyOp59
 70
     1
102
RTVSPropertyOp60
 70
     1
102
RTVSPropertyOp61
 70
     1
102
RTVSPropertyOp62
 70
     1
  0
XRECORD
  5
A841
102
{ACAD_REACTORS
330
A840
102
}
330
A840
100
AcDbXrecord
280
     1
102
RTVSPost2010Prop28
280
     0
102
RTVSPost2010PropOp28
 70
     0
102
RTVSPost2010Prop29
280
     1
102
RTVSPost2010PropOp29
 70
     0
102
RTVSPost2010Prop30
280
     1
102
RTVSPost2010PropOp30
 70
     0
102
RTVSPost2010Prop31
280
     0
102
RTVSPost2010PropOp31
 70
     0
102
RTVSPost2010Prop32
280
     0
102
RTVSPost2010PropOp32
 70
     0
102
RTVSPost2010Prop33
280
     0
102
RTVSPost2010PropOp33
 70
     0
102
RTVSPost2010Prop34
280
     0
102
RTVSPost2010PropOp34
 70
     0
102
RTVSPost2010Prop35
280
     0
102
RTVSPost2010PropOp35
 70
     0
102
RTVSPost2010Prop36
280
     0
102
RTVSPost2010PropOp36
 70
     0
102
RTVSPost2010Prop37
 90
       50
102
RTVSPost2010PropOp37
 70
     0
102
RTVSPost2010Prop38
140
0.0
102
RTVSPost2010PropOp38
 70
     0
102
RTVSPost2010Prop39
140
1.0
102
RTVSPost2010PropOp39
 70
     0
102
RTVSPost2010Prop40
 90
        0
102
RTVSPost2010PropOp40
 70
     0
102
RTVSPost2010Prop41ColorIndex
 90
       18
102
RTVSPost2010Prop41ColorRGB
 90
        0
102
RTVSPost2010PropOp41
 70
     0
102
RTVSPost2010Prop42
 90
       50
102
RTVSPost2010PropOp42
 70
     0
102
RTVSPost2010Prop43
 90
        3
102
RTVSPost2010PropOp43
 70
     0
102
RTVSPost2010Prop44ColorIndex
 90
        5
102
RTVSPost2010Prop44ColorRGB
 90
      255
102
RTVSPost2010PropOp44
 70
     0
102
RTVSPost2010Prop45
280
     0
102
RTVSPost2010PropOp45
 70
     0
102
RTVSPost2010Prop46
 90
       50
102
RTVSPost2010PropOp46
 70
     0
102
RTVSPost2010Prop47
 90
       50
102
RTVSPost2010PropOp47
 70
     0
102
RTVSPost2010Prop48
 90
       50
102
RTVSPost2010PropOp48
 70
     0
102
RTVSPost2010Prop49
280
     0
102
RTVSPost2010PropOp49
 70
     0
102
RTVSPost2010Prop50
 90
       50
102
RTVSPost2010PropOp50
 70
     0
102
RTVSPost2010Prop51ColorIndex
 90
      256
102
RTVSPost2010Prop51ColorRGB
 90
-16777216
102
RTVSPost2010PropOp51
 70
     0
102
RTVSPost2010Prop52
140
1.0
102
RTVSPost2010PropOp52
 70
     0
102
RTVSPost2010Prop53
 90
        2
102
RTVSPost2010PropOp53
 70
     0
102
RTVSPost2010Prop54
  1
strokes_ogs.tif
102
RTVSPost2010PropOp54
 70
     0
102
RTVSPost2010Prop55
280
     0
102
RTVSPost2010PropOp55
 70
     0
102
RTVSPost2010Prop56
140
1.0
102
RTVSPost2010PropOp56
 70
     0
102
RTVSPost2010Prop57
140
1.0
102
RTVSPost2010PropOp57
 70
     0
102
RTVSPropertyOp0
 70
     0
102
RTVSPropertyOp1
 70
     0
102
RTVSPropertyOp2
 70
     0
102
RTVSPropertyOp3
 70
     0
102
RTVSPropertyOp4
 70
     0
102
RTVSPropertyOp5
 70
     0
102
RTVSPropertyOp6
 70
     0
102
RTVSPropertyOp7
 70
     0
102
RTVSPropertyOp8
 70
     0
102
RTVSPropertyOp9
 70
     0
102
RTVSPropertyOp10
 70
     0
102
RTVSPropertyOp11
 70
     0
102
RTVSPropertyOp12
 70
     0
102
RTVSPropertyOp13
 70
     0
102
RTVSPropertyOp14
 70
     2
102
RTVSPropertyOp15
 70
     0
102
RTVSPropertyOp16
 70
     0
102
RTVSPropertyOp17
 70
     0
102
RTVSPropertyOp18
 70
     0
102
RTVSPropertyOp19
 70
     0
102
RTVSPropertyOp20
 70
     0
102
RTVSPropertyOp21
 70
     0
102
RTVSPropertyOp22
 70
     0
102
RTVSPropertyOp23
 70
     0
102
RTVSPropertyOp24
 70
     0
102
RTVSPropertyOp25
 70
     0
102
RTVSPropertyOp26
 70
     0
102
RTVSPropertyOp27
 70
     0
102
RTVSPropertyOp28
 70
     0
102
RTVSPropertyOp29
 70
     0
102
RTVSPropertyOp30
 70
     0
102
RTVSPropertyOp31
 70
     0
102
RTVSPropertyOp32
 70
     0
102
RTVSPropertyOp33
 70
     0
102
RTVSPropertyOp34
 70
     0
102
RTVSPropertyOp35
 70
     0
102
RTVSPropertyOp36
 70
     0
102
RTVSPropertyOp37
 70
     0
102
RTVSPropertyOp38
 70
     0
102
RTVSPropertyOp39
 70
     0
102
RTVSPropertyOp40
 70
     0
102
RTVSPropertyOp41
 70
     0
102
RTVSPropertyOp42
 70
     0
102
RTVSPropertyOp43
 70
     0
102
RTVSPropertyOp44
 70
     0
102
RTVSPropertyOp45
 70
     0
102
RTVSPropertyOp46
 70
     0
102
RTVSPropertyOp47
 70
     0
102
RTVSPropertyOp48
 70
     0
102
RTVSPropertyOp49
 70
     0
102
RTVSPropertyOp50
 70
     0
102
RTVSPropertyOp51
 70
     0
102
RTVSPropertyOp52
 70
     0
102
RTVSPropertyOp53
 70
     0
102
RTVSPropertyOp54
 70
     0
102
RTVSPropertyOp55
 70
     0
102
RTVSPropertyOp56
 70
     0
102
RTVSPropertyOp57
 70
     0
102
RTVSPropertyOp58
 70
     1
102
RTVSPropertyOp59
 70
     1
102
RTVSPropertyOp60
 70
     1
102
RTVSPropertyOp61
 70
     1
102
RTVSPropertyOp62
 70
     1
  0
XRECORD
  5
A831
102
{ACAD_REACTORS
330
A830
102
}
330
A830
100
AcDbXrecord
280
     1
102
RTVSPost2010Prop28
280
     0
102
RTVSPost2010PropOp28
 70
     1
102
RTVSPost2010Prop29
280
     1
102
RTVSPost2010PropOp29
 70
     1
102
RTVSPost2010Prop30
280
     1
102
RTVSPost2010PropOp30
 70
     1
102
RTVSPost2010Prop31
280
     0
102
RTVSPost2010PropOp31
 70
     1
102
RTVSPost2010Prop32
280
     0
102
RTVSPost2010PropOp32
 70
     1
102
RTVSPost2010Prop33
280
     0
102
RTVSPost2010PropOp33
 70
     1
102
RTVSPost2010Prop34
280
     0
102
RTVSPost2010PropOp34
 70
     1
102
RTVSPost2010Prop35
280
     0
102
RTVSPost2010PropOp35
 70
     1
102
RTVSPost2010Prop36
280
     0
102
RTVSPost2010PropOp36
 70
     1
102
RTVSPost2010Prop37
 90
       50
102
RTVSPost2010PropOp37
 70
     1
102
RTVSPost2010Prop38
140
0.0
102
RTVSPost2010PropOp38
 70
     1
102
RTVSPost2010Prop39
140
1.0
102
RTVSPost2010PropOp39
 70
     1
102
RTVSPost2010Prop40
 90
        0
102
RTVSPost2010PropOp40
 70
     1
102
RTVSPost2010Prop41ColorIndex
 90
       18
102
RTVSPost2010Prop41ColorRGB
 90
        0
102
RTVSPost2010PropOp41
 70
     1
102
RTVSPost2010Prop42
 90
       50
102
RTVSPost2010PropOp42
 70
     1
102
RTVSPost2010Prop43
 90
        3
102
RTVSPost2010PropOp43
 70
     1
102
RTVSPost2010Prop44ColorIndex
 90
        5
102
RTVSPost2010Prop44ColorRGB
 90
      255
102
RTVSPost2010PropOp44
 70
     1
102
RTVSPost2010Prop45
280
     0
102
RTVSPost2010PropOp45
 70
     1
102
RTVSPost2010Prop46
 90
       50
102
RTVSPost2010PropOp46
 70
     1
102
RTVSPost2010Prop47
 90
       50
102
RTVSPost2010PropOp47
 70
     1
102
RTVSPost2010Prop48
 90
       50
102
RTVSPost2010PropOp48
 70
     1
102
RTVSPost2010Prop49
280
     0
102
RTVSPost2010PropOp49
 70
     1
102
RTVSPost2010Prop50
 90
       50
102
RTVSPost2010PropOp50
 70
     1
102
RTVSPost2010Prop51ColorIndex
 90
      256
102
RTVSPost2010Prop51ColorRGB
 90
-16777216
102
RTVSPost2010PropOp51
 70
     0
102
RTVSPost2010Prop52
140
1.0
102
RTVSPost2010PropOp52
 70
     0
102
RTVSPost2010Prop53
 90
        2
102
RTVSPost2010PropOp53
 70
     1
102
RTVSPost2010Prop54
  1
strokes_ogs.tif
102
RTVSPost2010PropOp54
 70
     1
102
RTVSPost2010Prop55
280
     0
102
RTVSPost2010PropOp55
 70
     1
102
RTVSPost2010Prop56
140
1.0
102
RTVSPost2010PropOp56
 70
     1
102
RTVSPost2010Prop57
140
1.0
102
RTVSPost2010PropOp57
 70
     1
102
RTVSPropertyOp0
 70
     1
102
RTVSPropertyOp1
 70
     1
102
RTVSPropertyOp2
 70
     1
102
RTVSPropertyOp3
 70
     1
102
RTVSPropertyOp4
 70
     1
102
RTVSPropertyOp5
 70
     1
102
RTVSPropertyOp6
 70
     1
102
RTVSPropertyOp7
 70
     1
102
RTVSPropertyOp8
 70
     1
102
RTVSPropertyOp9
 70
     1
102
RTVSPropertyOp10
 70
     1
102
RTVSPropertyOp11
 70
     1
102
RTVSPropertyOp12
 70
     1
102
RTVSPropertyOp13
 70
     1
102
RTVSPropertyOp14
 70
     1
102
RTVSPropertyOp15
 70
     1
102
RTVSPropertyOp16
 70
     1
102
RTVSPropertyOp17
 70
     1
102
RTVSPropertyOp18
 70
     1
102
RTVSPropertyOp19
 70
     1
102
RTVSPropertyOp20
 70
     1
102
RTVSPropertyOp21
 70
     1
102
RTVSPropertyOp22
 70
     1
102
RTVSPropertyOp23
 70
     1
102
RTVSPropertyOp24
 70
     1
102
RTVSPropertyOp25
 70
     1
102
RTVSPropertyOp26
 70
     1
102
RTVSPropertyOp27
 70
     1
102
RTVSPropertyOp28
 70
     1
102
RTVSPropertyOp29
 70
     1
102
RTVSPropertyOp30
 70
     1
102
RTVSPropertyOp31
 70
     1
102
RTVSPropertyOp32
 70
     1
102
RTVSPropertyOp33
 70
     1
102
RTVSPropertyOp34
 70
     1
102
RTVSPropertyOp35
 70
     1
102
RTVSPropertyOp36
 70
     1
102
RTVSPropertyOp37
 70
     1
102
RTVSPropertyOp38
 70
     1
102
RTVSPropertyOp39
 70
     1
102
RTVSPropertyOp40
 70
     1
102
RTVSPropertyOp41
 70
     1
102
RTVSPropertyOp42
 70
     1
102
RTVSPropertyOp43
 70
     1
102
RTVSPropertyOp44
 70
     1
102
RTVSPropertyOp45
 70
     1
102
RTVSPropertyOp46
 70
     1
102
RTVSPropertyOp47
 70
     1
102
RTVSPropertyOp48
 70
     1
102
RTVSPropertyOp49
 70
     1
102
RTVSPropertyOp50
 70
     1
102
RTVSPropertyOp51
 70
     0
102
RTVSPropertyOp52
 70
     0
102
RTVSPropertyOp53
 70
     1
102
RTVSPropertyOp54
 70
     1
102
RTVSPropertyOp55
 70
     1
102
RTVSPropertyOp56
 70
     1
102
RTVSPropertyOp57
 70
     1
102
RTVSPropertyOp58
 70
     1
102
RTVSPropertyOp59
 70
     1
102
RTVSPropertyOp60
 70
     1
102
RTVSPropertyOp61
 70
     1
102
RTVSPropertyOp62
 70
     1
  0
XRECORD
  5
A843
102
{ACAD_REACTORS
330
A842
102
}
330
A842
100
AcDbXrecord
280
     1
102
RTVSPost2010Prop28
280
     0
102
RTVSPost2010PropOp28
 70
     0
102
RTVSPost2010Prop29
280
     1
102
RTVSPost2010PropOp29
 70
     0
102
RTVSPost2010Prop30
280
     1
102
RTVSPost2010PropOp30
 70
     0
102
RTVSPost2010Prop31
280
     0
102
RTVSPost2010PropOp31
 70
     0
102
RTVSPost2010Prop32
280
     0
102
RTVSPost2010PropOp32
 70
     0
102
RTVSPost2010Prop33
280
     0
102
RTVSPost2010PropOp33
 70
     0
102
RTVSPost2010Prop34
280
     0
102
RTVSPost2010PropOp34
 70
     0
102
RTVSPost2010Prop35
280
     0
102
RTVSPost2010PropOp35
 70
     0
102
RTVSPost2010Prop36
280
     0
102
RTVSPost2010PropOp36
 70
     0
102
RTVSPost2010Prop37
 90
       50
102
RTVSPost2010PropOp37
 70
     0
102
RTVSPost2010Prop38
140
0.0
102
RTVSPost2010PropOp38
 70
     0
102
RTVSPost2010Prop39
140
1.0
102
RTVSPost2010PropOp39
 70
     0
102
RTVSPost2010Prop40
 90
        0
102
RTVSPost2010PropOp40
 70
     0
102
RTVSPost2010Prop41ColorIndex
 90
       18
102
RTVSPost2010Prop41ColorRGB
 90
        0
102
RTVSPost2010PropOp41
 70
     0
102
RTVSPost2010Prop42
 90
       50
102
RTVSPost2010PropOp42
 70
     0
102
RTVSPost2010Prop43
 90
        3
102
RTVSPost2010PropOp43
 70
     0
102
RTVSPost2010Prop44ColorIndex
 90
        5
102
RTVSPost2010Prop44ColorRGB
 90
      255
102
RTVSPost2010PropOp44
 70
     0
102
RTVSPost2010Prop45
280
     0
102
RTVSPost2010PropOp45
 70
     0
102
RTVSPost2010Prop46
 90
       50
102
RTVSPost2010PropOp46
 70
     0
102
RTVSPost2010Prop47
 90
       50
102
RTVSPost2010PropOp47
 70
     0
102
RTVSPost2010Prop48
 90
       50
102
RTVSPost2010PropOp48
 70
     0
102
RTVSPost2010Prop49
280
     0
102
RTVSPost2010PropOp49
 70
     0
102
RTVSPost2010Prop50
 90
       50
102
RTVSPost2010PropOp50
 70
     0
102
RTVSPost2010Prop51ColorIndex
 90
      256
102
RTVSPost2010Prop51ColorRGB
 90
-16777216
102
RTVSPost2010PropOp51
 70
     0
102
RTVSPost2010Prop52
140
1.0
102
RTVSPost2010PropOp52
 70
     0
102
RTVSPost2010Prop53
 90
        2
102
RTVSPost2010PropOp53
 70
     0
102
RTVSPost2010Prop54
  1
strokes_ogs.tif
102
RTVSPost2010PropOp54
 70
     0
102
RTVSPost2010Prop55
280
     0
102
RTVSPost2010PropOp55
 70
     0
102
RTVSPost2010Prop56
140
1.0
102
RTVSPost2010PropOp56
 70
     0
102
RTVSPost2010Prop57
140
1.0
102
RTVSPost2010PropOp57
 70
     0
102
RTVSPropertyOp0
 70
     0
102
RTVSPropertyOp1
 70
     0
102
RTVSPropertyOp2
 70
     0
102
RTVSPropertyOp3
 70
     0
102
RTVSPropertyOp4
 70
     0
102
RTVSPropertyOp5
 70
     0
102
RTVSPropertyOp6
 70
     0
102
RTVSPropertyOp7
 70
     0
102
RTVSPropertyOp8
 70
     0
102
RTVSPropertyOp9
 70
     0
102
RTVSPropertyOp10
 70
     0
102
RTVSPropertyOp11
 70
     0
102
RTVSPropertyOp12
 70
     0
102
RTVSPropertyOp13
 70
     0
102
RTVSPropertyOp14
 70
     2
102
RTVSPropertyOp15
 70
     0
102
RTVSPropertyOp16
 70
     0
102
RTVSPropertyOp17
 70
     0
102
RTVSPropertyOp18
 70
     0
102
RTVSPropertyOp19
 70
     0
102
RTVSPropertyOp20
 70
     0
102
RTVSPropertyOp21
 70
     0
102
RTVSPropertyOp22
 70
     0
102
RTVSPropertyOp23
 70
     0
102
RTVSPropertyOp24
 70
     0
102
RTVSPropertyOp25
 70
     0
102
RTVSPropertyOp26
 70
     0
102
RTVSPropertyOp27
 70
     0
102
RTVSPropertyOp28
 70
     0
102
RTVSPropertyOp29
 70
     0
102
RTVSPropertyOp30
 70
     0
102
RTVSPropertyOp31
 70
     0
102
RTVSPropertyOp32
 70
     0
102
RTVSPropertyOp33
 70
     0
102
RTVSPropertyOp34
 70
     0
102
RTVSPropertyOp35
 70
     0
102
RTVSPropertyOp36
 70
     0
102
RTVSPropertyOp37
 70
     0
102
RTVSPropertyOp38
 70
     0
102
RTVSPropertyOp39
 70
     0
102
RTVSPropertyOp40
 70
     0
102
RTVSPropertyOp41
 70
     0
102
RTVSPropertyOp42
 70
     0
102
RTVSPropertyOp43
 70
     0
102
RTVSPropertyOp44
 70
     0
102
RTVSPropertyOp45
 70
     0
102
RTVSPropertyOp46
 70
     0
102
RTVSPropertyOp47
 70
     0
102
RTVSPropertyOp48
 70
     0
102
RTVSPropertyOp49
 70
     0
102
RTVSPropertyOp50
 70
     0
102
RTVSPropertyOp51
 70
     0
102
RTVSPropertyOp52
 70
     0
102
RTVSPropertyOp53
 70
     0
102
RTVSPropertyOp54
 70
     0
102
RTVSPropertyOp55
 70
     0
102
RTVSPropertyOp56
 70
     0
102
RTVSPropertyOp57
 70
     0
102
RTVSPropertyOp58
 70
     1
102
RTVSPropertyOp59
 70
     1
102
RTVSPropertyOp60
 70
     1
102
RTVSPropertyOp61
 70
     1
102
RTVSPropertyOp62
 70
     1
  0
XRECORD
  5
A829
102
{ACAD_REACTORS
330
A828
102
}
330
A828
100
AcDbXrecord
280
     1
102
RTVSPost2010Prop28
280
     0
102
RTVSPost2010PropOp28
 70
     1
102
RTVSPost2010Prop29
280
     1
102
RTVSPost2010PropOp29
 70
     1
102
RTVSPost2010Prop30
280
     1
102
RTVSPost2010PropOp30
 70
     1
102
RTVSPost2010Prop31
280
     0
102
RTVSPost2010PropOp31
 70
     1
102
RTVSPost2010Prop32
280
     0
102
RTVSPost2010PropOp32
 70
     1
102
RTVSPost2010Prop33
280
     0
102
RTVSPost2010PropOp33
 70
     1
102
RTVSPost2010Prop34
280
     0
102
RTVSPost2010PropOp34
 70
     1
102
RTVSPost2010Prop35
280
     0
102
RTVSPost2010PropOp35
 70
     1
102
RTVSPost2010Prop36
280
     0
102
RTVSPost2010PropOp36
 70
     1
102
RTVSPost2010Prop37
 90
       50
102
RTVSPost2010PropOp37
 70
     1
102
RTVSPost2010Prop38
140
0.0
102
RTVSPost2010PropOp38
 70
     1
102
RTVSPost2010Prop39
140
1.0
102
RTVSPost2010PropOp39
 70
     1
102
RTVSPost2010Prop40
 90
        0
102
RTVSPost2010PropOp40
 70
     1
102
RTVSPost2010Prop41ColorIndex
 90
       18
102
RTVSPost2010Prop41ColorRGB
 90
        0
102
RTVSPost2010PropOp41
 70
     1
102
RTVSPost2010Prop42
 90
       50
102
RTVSPost2010PropOp42
 70
     1
102
RTVSPost2010Prop43
 90
        3
102
RTVSPost2010PropOp43
 70
     1
102
RTVSPost2010Prop44ColorIndex
 90
        5
102
RTVSPost2010Prop44ColorRGB
 90
      255
102
RTVSPost2010PropOp44
 70
     1
102
RTVSPost2010Prop45
280
     0
102
RTVSPost2010PropOp45
 70
     1
102
RTVSPost2010Prop46
 90
       50
102
RTVSPost2010PropOp46
 70
     1
102
RTVSPost2010Prop47
 90
       50
102
RTVSPost2010PropOp47
 70
     1
102
RTVSPost2010Prop48
 90
       50
102
RTVSPost2010PropOp48
 70
     1
102
RTVSPost2010Prop49
280
     0
102
RTVSPost2010PropOp49
 70
     1
102
RTVSPost2010Prop50
 90
       50
102
RTVSPost2010PropOp50
 70
     1
102
RTVSPost2010Prop51ColorIndex
 90
      256
102
RTVSPost2010Prop51ColorRGB
 90
-16777216
102
RTVSPost2010PropOp51
 70
     0
102
RTVSPost2010Prop52
140
1.0
102
RTVSPost2010PropOp52
 70
     0
102
RTVSPost2010Prop53
 90
        2
102
RTVSPost2010PropOp53
 70
     1
102
RTVSPost2010Prop54
  1
strokes_ogs.tif
102
RTVSPost2010PropOp54
 70
     1
102
RTVSPost2010Prop55
280
     0
102
RTVSPost2010PropOp55
 70
     1
102
RTVSPost2010Prop56
140
1.0
102
RTVSPost2010PropOp56
 70
     1
102
RTVSPost2010Prop57
140
1.0
102
RTVSPost2010PropOp57
 70
     1
102
RTVSPropertyOp0
 70
     1
102
RTVSPropertyOp1
 70
     1
102
RTVSPropertyOp2
 70
     1
102
RTVSPropertyOp3
 70
     1
102
RTVSPropertyOp4
 70
     1
102
RTVSPropertyOp5
 70
     1
102
RTVSPropertyOp6
 70
     1
102
RTVSPropertyOp7
 70
     1
102
RTVSPropertyOp8
 70
     1
102
RTVSPropertyOp9
 70
     1
102
RTVSPropertyOp10
 70
     1
102
RTVSPropertyOp11
 70
     1
102
RTVSPropertyOp12
 70
     1
102
RTVSPropertyOp13
 70
     1
102
RTVSPropertyOp14
 70
     1
102
RTVSPropertyOp15
 70
     1
102
RTVSPropertyOp16
 70
     1
102
RTVSPropertyOp17
 70
     1
102
RTVSPropertyOp18
 70
     1
102
RTVSPropertyOp19
 70
     1
102
RTVSPropertyOp20
 70
     1
102
RTVSPropertyOp21
 70
     1
102
RTVSPropertyOp22
 70
     1
102
RTVSPropertyOp23
 70
     1
102
RTVSPropertyOp24
 70
     1
102
RTVSPropertyOp25
 70
     1
102
RTVSPropertyOp26
 70
     1
102
RTVSPropertyOp27
 70
     1
102
RTVSPropertyOp28
 70
     1
102
RTVSPropertyOp29
 70
     1
102
RTVSPropertyOp30
 70
     1
102
RTVSPropertyOp31
 70
     1
102
RTVSPropertyOp32
 70
     1
102
RTVSPropertyOp33
 70
     1
102
RTVSPropertyOp34
 70
     1
102
RTVSPropertyOp35
 70
     1
102
RTVSPropertyOp36
 70
     1
102
RTVSPropertyOp37
 70
     1
102
RTVSPropertyOp38
 70
     1
102
RTVSPropertyOp39
 70
     1
102
RTVSPropertyOp40
 70
     1
102
RTVSPropertyOp41
 70
     1
102
RTVSPropertyOp42
 70
     1
102
RTVSPropertyOp43
 70
     1
102
RTVSPropertyOp44
 70
     1
102
RTVSPropertyOp45
 70
     1
102
RTVSPropertyOp46
 70
     1
102
RTVSPropertyOp47
 70
     1
102
RTVSPropertyOp48
 70
     1
102
RTVSPropertyOp49
 70
     1
102
RTVSPropertyOp50
 70
     1
102
RTVSPropertyOp51
 70
     0
102
RTVSPropertyOp52
 70
     0
102
RTVSPropertyOp53
 70
     1
102
RTVSPropertyOp54
 70
     1
102
RTVSPropertyOp55
 70
     1
102
RTVSPropertyOp56
 70
     1
102
RTVSPropertyOp57
 70
     1
102
RTVSPropertyOp58
 70
     1
102
RTVSPropertyOp59
 70
     1
102
RTVSPropertyOp60
 70
     1
102
RTVSPropertyOp61
 70
     1
102
RTVSPropertyOp62
 70
     1
  0
XRECORD
  5
A83F
102
{ACAD_REACTORS
330
A83E
102
}
330
A83E
100
AcDbXrecord
280
     1
102
RTVSPost2010Prop28
280
     0
102
RTVSPost2010PropOp28
 70
     1
102
RTVSPost2010Prop29
280
     1
102
RTVSPost2010PropOp29
 70
     1
102
RTVSPost2010Prop30
280
     1
102
RTVSPost2010PropOp30
 70
     1
102
RTVSPost2010Prop31
280
     0
102
RTVSPost2010PropOp31
 70
     1
102
RTVSPost2010Prop32
280
     0
102
RTVSPost2010PropOp32
 70
     1
102
RTVSPost2010Prop33
280
     0
102
RTVSPost2010PropOp33
 70
     1
102
RTVSPost2010Prop34
280
     0
102
RTVSPost2010PropOp34
 70
     1
102
RTVSPost2010Prop35
280
     0
102
RTVSPost2010PropOp35
 70
     1
102
RTVSPost2010Prop36
280
     0
102
RTVSPost2010PropOp36
 70
     1
102
RTVSPost2010Prop37
 90
       50
102
RTVSPost2010PropOp37
 70
     1
102
RTVSPost2010Prop38
140
0.0
102
RTVSPost2010PropOp38
 70
     1
102
RTVSPost2010Prop39
140
1.0
102
RTVSPost2010PropOp39
 70
     1
102
RTVSPost2010Prop40
 90
        0
102
RTVSPost2010PropOp40
 70
     1
102
RTVSPost2010Prop41ColorIndex
 90
       18
102
RTVSPost2010Prop41ColorRGB
 90
        0
102
RTVSPost2010PropOp41
 70
     1
102
RTVSPost2010Prop42
 90
       50
102
RTVSPost2010PropOp42
 70
     1
102
RTVSPost2010Prop43
 90
        3
102
RTVSPost2010PropOp43
 70
     1
102
RTVSPost2010Prop44ColorIndex
 90
        5
102
RTVSPost2010Prop44ColorRGB
 90
      255
102
RTVSPost2010PropOp44
 70
     1
102
RTVSPost2010Prop45
280
     0
102
RTVSPost2010PropOp45
 70
     1
102
RTVSPost2010Prop46
 90
       50
102
RTVSPost2010PropOp46
 70
     1
102
RTVSPost2010Prop47
 90
       50
102
RTVSPost2010PropOp47
 70
     1
102
RTVSPost2010Prop48
 90
       50
102
RTVSPost2010PropOp48
 70
     1
102
RTVSPost2010Prop49
280
     0
102
RTVSPost2010PropOp49
 70
     1
102
RTVSPost2010Prop50
 90
       50
102
RTVSPost2010PropOp50
 70
     1
102
RTVSPost2010Prop51ColorIndex
 90
      256
102
RTVSPost2010Prop51ColorRGB
 90
-16777216
102
RTVSPost2010PropOp51
 70
     0
102
RTVSPost2010Prop52
140
1.0
102
RTVSPost2010PropOp52
 70
     0
102
RTVSPost2010Prop53
 90
        2
102
RTVSPost2010PropOp53
 70
     1
102
RTVSPost2010Prop54
  1
strokes_ogs.tif
102
RTVSPost2010PropOp54
 70
     1
102
RTVSPost2010Prop55
280
     0
102
RTVSPost2010PropOp55
 70
     1
102
RTVSPost2010Prop56
140
1.0
102
RTVSPost2010PropOp56
 70
     1
102
RTVSPost2010Prop57
140
1.0
102
RTVSPost2010PropOp57
 70
     1
102
RTVSPropertyOp0
 70
     1
102
RTVSPropertyOp1
 70
     1
102
RTVSPropertyOp2
 70
     1
102
RTVSPropertyOp3
 70
     1
102
RTVSPropertyOp4
 70
     1
102
RTVSPropertyOp5
 70
     1
102
RTVSPropertyOp6
 70
     1
102
RTVSPropertyOp7
 70
     1
102
RTVSPropertyOp8
 70
     1
102
RTVSPropertyOp9
 70
     1
102
RTVSPropertyOp10
 70
     1
102
RTVSPropertyOp11
 70
     1
102
RTVSPropertyOp12
 70
     1
102
RTVSPropertyOp13
 70
     1
102
RTVSPropertyOp14
 70
     1
102
RTVSPropertyOp15
 70
     1
102
RTVSPropertyOp16
 70
     1
102
RTVSPropertyOp17
 70
     1
102
RTVSPropertyOp18
 70
     1
102
RTVSPropertyOp19
 70
     1
102
RTVSPropertyOp20
 70
     1
102
RTVSPropertyOp21
 70
     1
102
RTVSPropertyOp22
 70
     1
102
RTVSPropertyOp23
 70
     1
102
RTVSPropertyOp24
 70
     1
102
RTVSPropertyOp25
 70
     1
102
RTVSPropertyOp26
 70
     1
102
RTVSPropertyOp27
 70
     1
102
RTVSPropertyOp28
 70
     1
102
RTVSPropertyOp29
 70
     1
102
RTVSPropertyOp30
 70
     1
102
RTVSPropertyOp31
 70
     1
102
RTVSPropertyOp32
 70
     1
102
RTVSPropertyOp33
 70
     1
102
RTVSPropertyOp34
 70
     1
102
RTVSPropertyOp35
 70
     1
102
RTVSPropertyOp36
 70
     1
102
RTVSPropertyOp37
 70
     1
102
RTVSPropertyOp38
 70
     1
102
RTVSPropertyOp39
 70
     1
102
RTVSPropertyOp40
 70
     1
102
RTVSPropertyOp41
 70
     1
102
RTVSPropertyOp42
 70
     1
102
RTVSPropertyOp43
 70
     1
102
RTVSPropertyOp44
 70
     1
102
RTVSPropertyOp45
 70
     1
102
RTVSPropertyOp46
 70
     1
102
RTVSPropertyOp47
 70
     1
102
RTVSPropertyOp48
 70
     1
102
RTVSPropertyOp49
 70
     1
102
RTVSPropertyOp50
 70
     1
102
RTVSPropertyOp51
 70
     0
102
RTVSPropertyOp52
 70
     0
102
RTVSPropertyOp53
 70
     1
102
RTVSPropertyOp54
 70
     1
102
RTVSPropertyOp55
 70
     1
102
RTVSPropertyOp56
 70
     1
102
RTVSPropertyOp57
 70
     1
102
RTVSPropertyOp58
 70
     1
102
RTVSPropertyOp59
 70
     1
102
RTVSPropertyOp60
 70
     1
102
RTVSPropertyOp61
 70
     1
102
RTVSPropertyOp62
 70
     1
  0
XRECORD
  5
A83D
102
{ACAD_REACTORS
330
A83C
102
}
330
A83C
100
AcDbXrecord
280
     1
102
RTVSPost2010Prop28
280
     0
102
RTVSPost2010PropOp28
 70
     1
102
RTVSPost2010Prop29
280
     1
102
RTVSPost2010PropOp29
 70
     1
102
RTVSPost2010Prop30
280
     1
102
RTVSPost2010PropOp30
 70
     1
102
RTVSPost2010Prop31
280
     0
102
RTVSPost2010PropOp31
 70
     1
102
RTVSPost2010Prop32
280
     0
102
RTVSPost2010PropOp32
 70
     1
102
RTVSPost2010Prop33
280
     0
102
RTVSPost2010PropOp33
 70
     1
102
RTVSPost2010Prop34
280
     0
102
RTVSPost2010PropOp34
 70
     1
102
RTVSPost2010Prop35
280
     0
102
RTVSPost2010PropOp35
 70
     1
102
RTVSPost2010Prop36
280
     0
102
RTVSPost2010PropOp36
 70
     1
102
RTVSPost2010Prop37
 90
       50
102
RTVSPost2010PropOp37
 70
     1
102
RTVSPost2010Prop38
140
0.0
102
RTVSPost2010PropOp38
 70
     1
102
RTVSPost2010Prop39
140
1.0
102
RTVSPost2010PropOp39
 70
     1
102
RTVSPost2010Prop40
 90
        0
102
RTVSPost2010PropOp40
 70
     1
102
RTVSPost2010Prop41ColorIndex
 90
       18
102
RTVSPost2010Prop41ColorRGB
 90
        0
102
RTVSPost2010PropOp41
 70
     1
102
RTVSPost2010Prop42
 90
       50
102
RTVSPost2010PropOp42
 70
     1
102
RTVSPost2010Prop43
 90
        3
102
RTVSPost2010PropOp43
 70
     1
102
RTVSPost2010Prop44ColorIndex
 90
        5
102
RTVSPost2010Prop44ColorRGB
 90
      255
102
RTVSPost2010PropOp44
 70
     1
102
RTVSPost2010Prop45
280
     0
102
RTVSPost2010PropOp45
 70
     1
102
RTVSPost2010Prop46
 90
       50
102
RTVSPost2010PropOp46
 70
     1
102
RTVSPost2010Prop47
 90
       50
102
RTVSPost2010PropOp47
 70
     1
102
RTVSPost2010Prop48
 90
       50
102
RTVSPost2010PropOp48
 70
     1
102
RTVSPost2010Prop49
280
     0
102
RTVSPost2010PropOp49
 70
     1
102
RTVSPost2010Prop50
 90
       50
102
RTVSPost2010PropOp50
 70
     1
102
RTVSPost2010Prop51ColorIndex
 90
      256
102
RTVSPost2010Prop51ColorRGB
 90
-16777216
102
RTVSPost2010PropOp51
 70
     0
102
RTVSPost2010Prop52
140
1.0
102
RTVSPost2010PropOp52
 70
     0
102
RTVSPost2010Prop53
 90
        2
102
RTVSPost2010PropOp53
 70
     1
102
RTVSPost2010Prop54
  1
strokes_ogs.tif
102
RTVSPost2010PropOp54
 70
     1
102
RTVSPost2010Prop55
280
     0
102
RTVSPost2010PropOp55
 70
     1
102
RTVSPost2010Prop56
140
1.0
102
RTVSPost2010PropOp56
 70
     1
102
RTVSPost2010Prop57
140
1.0
102
RTVSPost2010PropOp57
 70
     1
102
RTVSPropertyOp0
 70
     1
102
RTVSPropertyOp1
 70
     1
102
RTVSPropertyOp2
 70
     1
102
RTVSPropertyOp3
 70
     1
102
RTVSPropertyOp4
 70
     1
102
RTVSPropertyOp5
 70
     1
102
RTVSPropertyOp6
 70
     1
102
RTVSPropertyOp7
 70
     1
102
RTVSPropertyOp8
 70
     1
102
RTVSPropertyOp9
 70
     1
102
RTVSPropertyOp10
 70
     1
102
RTVSPropertyOp11
 70
     1
102
RTVSPropertyOp12
 70
     1
102
RTVSPropertyOp13
 70
     1
102
RTVSPropertyOp14
 70
     1
102
RTVSPropertyOp15
 70
     1
102
RTVSPropertyOp16
 70
     1
102
RTVSPropertyOp17
 70
     1
102
RTVSPropertyOp18
 70
     1
102
RTVSPropertyOp19
 70
     1
102
RTVSPropertyOp20
 70
     1
102
RTVSPropertyOp21
 70
     1
102
RTVSPropertyOp22
 70
     1
102
RTVSPropertyOp23
 70
     1
102
RTVSPropertyOp24
 70
     1
102
RTVSPropertyOp25
 70
     1
102
RTVSPropertyOp26
 70
     1
102
RTVSPropertyOp27
 70
     1
102
RTVSPropertyOp28
 70
     1
102
RTVSPropertyOp29
 70
     1
102
RTVSPropertyOp30
 70
     1
102
RTVSPropertyOp31
 70
     1
102
RTVSPropertyOp32
 70
     1
102
RTVSPropertyOp33
 70
     1
102
RTVSPropertyOp34
 70
     1
102
RTVSPropertyOp35
 70
     1
102
RTVSPropertyOp36
 70
     1
102
RTVSPropertyOp37
 70
     1
102
RTVSPropertyOp38
 70
     1
102
RTVSPropertyOp39
 70
     1
102
RTVSPropertyOp40
 70
     1
102
RTVSPropertyOp41
 70
     1
102
RTVSPropertyOp42
 70
     1
102
RTVSPropertyOp43
 70
     1
102
RTVSPropertyOp44
 70
     1
102
RTVSPropertyOp45
 70
     1
102
RTVSPropertyOp46
 70
     1
102
RTVSPropertyOp47
 70
     1
102
RTVSPropertyOp48
 70
     1
102
RTVSPropertyOp49
 70
     1
102
RTVSPropertyOp50
 70
     1
102
RTVSPropertyOp51
 70
     0
102
RTVSPropertyOp52
 70
     0
102
RTVSPropertyOp53
 70
     1
102
RTVSPropertyOp54
 70
     1
102
RTVSPropertyOp55
 70
     1
102
RTVSPropertyOp56
 70
     1
102
RTVSPropertyOp57
 70
     1
102
RTVSPropertyOp58
 70
     1
102
RTVSPropertyOp59
 70
     1
102
RTVSPropertyOp60
 70
     1
102
RTVSPropertyOp61
 70
     1
102
RTVSPropertyOp62
 70
     1
  0
XRECORD
  5
A837
102
{ACAD_REACTORS
330
A836
102
}
330
A836
100
AcDbXrecord
280
     1
102
RTVSPost2010Prop28
280
     0
102
RTVSPost2010PropOp28
 70
     1
102
RTVSPost2010Prop29
280
     1
102
RTVSPost2010PropOp29
 70
     1
102
RTVSPost2010Prop30
280
     1
102
RTVSPost2010PropOp30
 70
     1
102
RTVSPost2010Prop31
280
     0
102
RTVSPost2010PropOp31
 70
     1
102
RTVSPost2010Prop32
280
     0
102
RTVSPost2010PropOp32
 70
     1
102
RTVSPost2010Prop33
280
     0
102
RTVSPost2010PropOp33
 70
     1
102
RTVSPost2010Prop34
280
     0
102
RTVSPost2010PropOp34
 70
     1
102
RTVSPost2010Prop35
280
     0
102
RTVSPost2010PropOp35
 70
     1
102
RTVSPost2010Prop36
280
     0
102
RTVSPost2010PropOp36
 70
     1
102
RTVSPost2010Prop37
 90
       50
102
RTVSPost2010PropOp37
 70
     1
102
RTVSPost2010Prop38
140
0.0
102
RTVSPost2010PropOp38
 70
     1
102
RTVSPost2010Prop39
140
1.0
102
RTVSPost2010PropOp39
 70
     1
102
RTVSPost2010Prop40
 90
        0
102
RTVSPost2010PropOp40
 70
     1
102
RTVSPost2010Prop41ColorIndex
 90
       18
102
RTVSPost2010Prop41ColorRGB
 90
        0
102
RTVSPost2010PropOp41
 70
     1
102
RTVSPost2010Prop42
 90
       50
102
RTVSPost2010PropOp42
 70
     1
102
RTVSPost2010Prop43
 90
        3
102
RTVSPost2010PropOp43
 70
     1
102
RTVSPost2010Prop44ColorIndex
 90
        5
102
RTVSPost2010Prop44ColorRGB
 90
      255
102
RTVSPost2010PropOp44
 70
     1
102
RTVSPost2010Prop45
280
     0
102
RTVSPost2010PropOp45
 70
     1
102
RTVSPost2010Prop46
 90
       50
102
RTVSPost2010PropOp46
 70
     1
102
RTVSPost2010Prop47
 90
       50
102
RTVSPost2010PropOp47
 70
     1
102
RTVSPost2010Prop48
 90
       50
102
RTVSPost2010PropOp48
 70
     1
102
RTVSPost2010Prop49
280
     0
102
RTVSPost2010PropOp49
 70
     1
102
RTVSPost2010Prop50
 90
       50
102
RTVSPost2010PropOp50
 70
     1
102
RTVSPost2010Prop51ColorIndex
 90
      256
102
RTVSPost2010Prop51ColorRGB
 90
-16777216
102
RTVSPost2010PropOp51
 70
     0
102
RTVSPost2010Prop52
140
1.0
102
RTVSPost2010PropOp52
 70
     0
102
RTVSPost2010Prop53
 90
        2
102
RTVSPost2010PropOp53
 70
     1
102
RTVSPost2010Prop54
  1
strokes_ogs.tif
102
RTVSPost2010PropOp54
 70
     1
102
RTVSPost2010Prop55
280
     0
102
RTVSPost2010PropOp55
 70
     1
102
RTVSPost2010Prop56
140
1.0
102
RTVSPost2010PropOp56
 70
     1
102
RTVSPost2010Prop57
140
1.0
102
RTVSPost2010PropOp57
 70
     1
102
RTVSPropertyOp0
 70
     1
102
RTVSPropertyOp1
 70
     1
102
RTVSPropertyOp2
 70
     1
102
RTVSPropertyOp3
 70
     1
102
RTVSPropertyOp4
 70
     1
102
RTVSPropertyOp5
 70
     1
102
RTVSPropertyOp6
 70
     1
102
RTVSPropertyOp7
 70
     1
102
RTVSPropertyOp8
 70
     1
102
RTVSPropertyOp9
 70
     1
102
RTVSPropertyOp10
 70
     1
102
RTVSPropertyOp11
 70
     1
102
RTVSPropertyOp12
 70
     1
102
RTVSPropertyOp13
 70
     1
102
RTVSPropertyOp14
 70
     1
102
RTVSPropertyOp15
 70
     1
102
RTVSPropertyOp16
 70
     1
102
RTVSPropertyOp17
 70
     1
102
RTVSPropertyOp18
 70
     1
102
RTVSPropertyOp19
 70
     1
102
RTVSPropertyOp20
 70
     1
102
RTVSPropertyOp21
 70
     1
102
RTVSPropertyOp22
 70
     1
102
RTVSPropertyOp23
 70
     1
102
RTVSPropertyOp24
 70
     1
102
RTVSPropertyOp25
 70
     1
102
RTVSPropertyOp26
 70
     1
102
RTVSPropertyOp27
 70
     1
102
RTVSPropertyOp28
 70
     1
102
RTVSPropertyOp29
 70
     1
102
RTVSPropertyOp30
 70
     1
102
RTVSPropertyOp31
 70
     1
102
RTVSPropertyOp32
 70
     1
102
RTVSPropertyOp33
 70
     1
102
RTVSPropertyOp34
 70
     1
102
RTVSPropertyOp35
 70
     1
102
RTVSPropertyOp36
 70
     1
102
RTVSPropertyOp37
 70
     1
102
RTVSPropertyOp38
 70
     1
102
RTVSPropertyOp39
 70
     1
102
RTVSPropertyOp40
 70
     1
102
RTVSPropertyOp41
 70
     1
102
RTVSPropertyOp42
 70
     1
102
RTVSPropertyOp43
 70
     1
102
RTVSPropertyOp44
 70
     1
102
RTVSPropertyOp45
 70
     1
102
RTVSPropertyOp46
 70
     1
102
RTVSPropertyOp47
 70
     1
102
RTVSPropertyOp48
 70
     1
102
RTVSPropertyOp49
 70
     1
102
RTVSPropertyOp50
 70
     1
102
RTVSPropertyOp51
 70
     0
102
RTVSPropertyOp52
 70
     0
102
RTVSPropertyOp53
 70
     1
102
RTVSPropertyOp54
 70
     1
102
RTVSPropertyOp55
 70
     1
102
RTVSPropertyOp56
 70
     1
102
RTVSPropertyOp57
 70
     1
102
RTVSPropertyOp58
 70
     1
102
RTVSPropertyOp59
 70
     1
102
RTVSPropertyOp60
 70
     1
102
RTVSPropertyOp61
 70
     1
102
RTVSPropertyOp62
 70
     1
  0
XRECORD
  5
A839
102
{ACAD_REACTORS
330
A838
102
}
330
A838
100
AcDbXrecord
280
     1
102
RTVSPost2010Prop28
280
     0
102
RTVSPost2010PropOp28
 70
     1
102
RTVSPost2010Prop29
280
     1
102
RTVSPost2010PropOp29
 70
     1
102
RTVSPost2010Prop30
280
     1
102
RTVSPost2010PropOp30
 70
     1
102
RTVSPost2010Prop31
280
     0
102
RTVSPost2010PropOp31
 70
     1
102
RTVSPost2010Prop32
280
     0
102
RTVSPost2010PropOp32
 70
     1
102
RTVSPost2010Prop33
280
     0
102
RTVSPost2010PropOp33
 70
     1
102
RTVSPost2010Prop34
280
     0
102
RTVSPost2010PropOp34
 70
     1
102
RTVSPost2010Prop35
280
     0
102
RTVSPost2010PropOp35
 70
     1
102
RTVSPost2010Prop36
280
     0
102
RTVSPost2010PropOp36
 70
     1
102
RTVSPost2010Prop37
 90
       50
102
RTVSPost2010PropOp37
 70
     1
102
RTVSPost2010Prop38
140
0.0
102
RTVSPost2010PropOp38
 70
     1
102
RTVSPost2010Prop39
140
1.0
102
RTVSPost2010PropOp39
 70
     1
102
RTVSPost2010Prop40
 90
        0
102
RTVSPost2010PropOp40
 70
     1
102
RTVSPost2010Prop41ColorIndex
 90
       18
102
RTVSPost2010Prop41ColorRGB
 90
        0
102
RTVSPost2010PropOp41
 70
     1
102
RTVSPost2010Prop42
 90
       50
102
RTVSPost2010PropOp42
 70
     1
102
RTVSPost2010Prop43
 90
        3
102
RTVSPost2010PropOp43
 70
     1
102
RTVSPost2010Prop44ColorIndex
 90
        5
102
RTVSPost2010Prop44ColorRGB
 90
      255
102
RTVSPost2010PropOp44
 70
     1
102
RTVSPost2010Prop45
280
     0
102
RTVSPost2010PropOp45
 70
     1
102
RTVSPost2010Prop46
 90
       50
102
RTVSPost2010PropOp46
 70
     1
102
RTVSPost2010Prop47
 90
       50
102
RTVSPost2010PropOp47
 70
     1
102
RTVSPost2010Prop48
 90
       50
102
RTVSPost2010PropOp48
 70
     1
102
RTVSPost2010Prop49
280
     0
102
RTVSPost2010PropOp49
 70
     1
102
RTVSPost2010Prop50
 90
       50
102
RTVSPost2010PropOp50
 70
     1
102
RTVSPost2010Prop51ColorIndex
 90
      256
102
RTVSPost2010Prop51ColorRGB
 90
-16777216
102
RTVSPost2010PropOp51
 70
     0
102
RTVSPost2010Prop52
140
1.0
102
RTVSPost2010PropOp52
 70
     0
102
RTVSPost2010Prop53
 90
        2
102
RTVSPost2010PropOp53
 70
     1
102
RTVSPost2010Prop54
  1
strokes_ogs.tif
102
RTVSPost2010PropOp54
 70
     1
102
RTVSPost2010Prop55
280
     0
102
RTVSPost2010PropOp55
 70
     1
102
RTVSPost2010Prop56
140
1.0
102
RTVSPost2010PropOp56
 70
     1
102
RTVSPost2010Prop57
140
1.0
102
RTVSPost2010PropOp57
 70
     1
102
RTVSPropertyOp0
 70
     1
102
RTVSPropertyOp1
 70
     1
102
RTVSPropertyOp2
 70
     1
102
RTVSPropertyOp3
 70
     1
102
RTVSPropertyOp4
 70
     1
102
RTVSPropertyOp5
 70
     1
102
RTVSPropertyOp6
 70
     1
102
RTVSPropertyOp7
 70
     1
102
RTVSPropertyOp8
 70
     1
102
RTVSPropertyOp9
 70
     1
102
RTVSPropertyOp10
 70
     1
102
RTVSPropertyOp11
 70
     1
102
RTVSPropertyOp12
 70
     1
102
RTVSPropertyOp13
 70
     1
102
RTVSPropertyOp14
 70
     1
102
RTVSPropertyOp15
 70
     1
102
RTVSPropertyOp16
 70
     1
102
RTVSPropertyOp17
 70
     1
102
RTVSPropertyOp18
 70
     1
102
RTVSPropertyOp19
 70
     1
102
RTVSPropertyOp20
 70
     1
102
RTVSPropertyOp21
 70
     1
102
RTVSPropertyOp22
 70
     1
102
RTVSPropertyOp23
 70
     1
102
RTVSPropertyOp24
 70
     1
102
RTVSPropertyOp25
 70
     1
102
RTVSPropertyOp26
 70
     1
102
RTVSPropertyOp27
 70
     1
102
RTVSPropertyOp28
 70
     1
102
RTVSPropertyOp29
 70
     1
102
RTVSPropertyOp30
 70
     1
102
RTVSPropertyOp31
 70
     1
102
RTVSPropertyOp32
 70
     1
102
RTVSPropertyOp33
 70
     1
102
RTVSPropertyOp34
 70
     1
102
RTVSPropertyOp35
 70
     1
102
RTVSPropertyOp36
 70
     1
102
RTVSPropertyOp37
 70
     1
102
RTVSPropertyOp38
 70
     1
102
RTVSPropertyOp39
 70
     1
102
RTVSPropertyOp40
 70
     1
102
RTVSPropertyOp41
 70
     1
102
RTVSPropertyOp42
 70
     1
102
RTVSPropertyOp43
 70
     1
102
RTVSPropertyOp44
 70
     1
102
RTVSPropertyOp45
 70
     1
102
RTVSPropertyOp46
 70
     1
102
RTVSPropertyOp47
 70
     1
102
RTVSPropertyOp48
 70
     1
102
RTVSPropertyOp49
 70
     1
102
RTVSPropertyOp50
 70
     1
102
RTVSPropertyOp51
 70
     0
102
RTVSPropertyOp52
 70
     0
102
RTVSPropertyOp53
 70
     1
102
RTVSPropertyOp54
 70
     1
102
RTVSPropertyOp55
 70
     1
102
RTVSPropertyOp56
 70
     1
102
RTVSPropertyOp57
 70
     1
102
RTVSPropertyOp58
 70
     1
102
RTVSPropertyOp59
 70
     1
102
RTVSPropertyOp60
 70
     1
102
RTVSPropertyOp61
 70
     1
102
RTVSPropertyOp62
 70
     1
  0
XRECORD
  5
A82F
102
{ACAD_REACTORS
330
A82E
102
}
330
A82E
100
AcDbXrecord
280
     1
102
RTVSPost2010Prop28
280
     0
102
RTVSPost2010PropOp28
 70
     1
102
RTVSPost2010Prop29
280
     1
102
RTVSPost2010PropOp29
 70
     1
102
RTVSPost2010Prop30
280
     1
102
RTVSPost2010PropOp30
 70
     1
102
RTVSPost2010Prop31
280
     0
102
RTVSPost2010PropOp31
 70
     1
102
RTVSPost2010Prop32
280
     0
102
RTVSPost2010PropOp32
 70
     1
102
RTVSPost2010Prop33
280
     0
102
RTVSPost2010PropOp33
 70
     1
102
RTVSPost2010Prop34
280
     0
102
RTVSPost2010PropOp34
 70
     1
102
RTVSPost2010Prop35
280
     0
102
RTVSPost2010PropOp35
 70
     1
102
RTVSPost2010Prop36
280
     0
102
RTVSPost2010PropOp36
 70
     1
102
RTVSPost2010Prop37
 90
       50
102
RTVSPost2010PropOp37
 70
     1
102
RTVSPost2010Prop38
140
0.0
102
RTVSPost2010PropOp38
 70
     1
102
RTVSPost2010Prop39
140
1.0
102
RTVSPost2010PropOp39
 70
     1
102
RTVSPost2010Prop40
 90
        0
102
RTVSPost2010PropOp40
 70
     1
102
RTVSPost2010Prop41ColorIndex
 90
       18
102
RTVSPost2010Prop41ColorRGB
 90
        0
102
RTVSPost2010PropOp41
 70
     1
102
RTVSPost2010Prop42
 90
       50
102
RTVSPost2010PropOp42
 70
     1
102
RTVSPost2010Prop43
 90
        3
102
RTVSPost2010PropOp43
 70
     1
102
RTVSPost2010Prop44ColorIndex
 90
        5
102
RTVSPost2010Prop44ColorRGB
 90
      255
102
RTVSPost2010PropOp44
 70
     1
102
RTVSPost2010Prop45
280
     0
102
RTVSPost2010PropOp45
 70
     1
102
RTVSPost2010Prop46
 90
       50
102
RTVSPost2010PropOp46
 70
     1
102
RTVSPost2010Prop47
 90
       50
102
RTVSPost2010PropOp47
 70
     1
102
RTVSPost2010Prop48
 90
       50
102
RTVSPost2010PropOp48
 70
     1
102
RTVSPost2010Prop49
280
     0
102
RTVSPost2010PropOp49
 70
     1
102
RTVSPost2010Prop50
 90
       50
102
RTVSPost2010PropOp50
 70
     1
102
RTVSPost2010Prop51ColorIndex
 90
      256
102
RTVSPost2010Prop51ColorRGB
 90
-16777216
102
RTVSPost2010PropOp51
 70
     0
102
RTVSPost2010Prop52
140
1.0
102
RTVSPost2010PropOp52
 70
     0
102
RTVSPost2010Prop53
 90
        2
102
RTVSPost2010PropOp53
 70
     1
102
RTVSPost2010Prop54
  1
strokes_ogs.tif
102
RTVSPost2010PropOp54
 70
     1
102
RTVSPost2010Prop55
280
     0
102
RTVSPost2010PropOp55
 70
     1
102
RTVSPost2010Prop56
140
1.0
102
RTVSPost2010PropOp56
 70
     1
102
RTVSPost2010Prop57
140
1.0
102
RTVSPost2010PropOp57
 70
     1
102
RTVSPropertyOp0
 70
     1
102
RTVSPropertyOp1
 70
     1
102
RTVSPropertyOp2
 70
     1
102
RTVSPropertyOp3
 70
     1
102
RTVSPropertyOp4
 70
     1
102
RTVSPropertyOp5
 70
     1
102
RTVSPropertyOp6
 70
     1
102
RTVSPropertyOp7
 70
     1
102
RTVSPropertyOp8
 70
     1
102
RTVSPropertyOp9
 70
     1
102
RTVSPropertyOp10
 70
     1
102
RTVSPropertyOp11
 70
     1
102
RTVSPropertyOp12
 70
     1
102
RTVSPropertyOp13
 70
     1
102
RTVSPropertyOp14
 70
     1
102
RTVSPropertyOp15
 70
     1
102
RTVSPropertyOp16
 70
     1
102
RTVSPropertyOp17
 70
     1
102
RTVSPropertyOp18
 70
     1
102
RTVSPropertyOp19
 70
     1
102
RTVSPropertyOp20
 70
     1
102
RTVSPropertyOp21
 70
     1
102
RTVSPropertyOp22
 70
     1
102
RTVSPropertyOp23
 70
     1
102
RTVSPropertyOp24
 70
     1
102
RTVSPropertyOp25
 70
     1
102
RTVSPropertyOp26
 70
     1
102
RTVSPropertyOp27
 70
     1
102
RTVSPropertyOp28
 70
     1
102
RTVSPropertyOp29
 70
     1
102
RTVSPropertyOp30
 70
     1
102
RTVSPropertyOp31
 70
     1
102
RTVSPropertyOp32
 70
     1
102
RTVSPropertyOp33
 70
     1
102
RTVSPropertyOp34
 70
     1
102
RTVSPropertyOp35
 70
     1
102
RTVSPropertyOp36
 70
     1
102
RTVSPropertyOp37
 70
     1
102
RTVSPropertyOp38
 70
     1
102
RTVSPropertyOp39
 70
     1
102
RTVSPropertyOp40
 70
     1
102
RTVSPropertyOp41
 70
     1
102
RTVSPropertyOp42
 70
     1
102
RTVSPropertyOp43
 70
     1
102
RTVSPropertyOp44
 70
     1
102
RTVSPropertyOp45
 70
     1
102
RTVSPropertyOp46
 70
     1
102
RTVSPropertyOp47
 70
     1
102
RTVSPropertyOp48
 70
     1
102
RTVSPropertyOp49
 70
     1
102
RTVSPropertyOp50
 70
     1
102
RTVSPropertyOp51
 70
     0
102
RTVSPropertyOp52
 70
     0
102
RTVSPropertyOp53
 70
     1
102
RTVSPropertyOp54
 70
     1
102
RTVSPropertyOp55
 70
     1
102
RTVSPropertyOp56
 70
     1
102
RTVSPropertyOp57
 70
     1
102
RTVSPropertyOp58
 70
     1
102
RTVSPropertyOp59
 70
     1
102
RTVSPropertyOp60
 70
     1
102
RTVSPropertyOp61
 70
     1
102
RTVSPropertyOp62
 70
     1
  0
XRECORD
  5
A823
102
{ACAD_REACTORS
330
A822
102
}
330
A822
100
AcDbXrecord
280
     1
102
RTVSPost2010Prop28
280
     0
102
RTVSPost2010PropOp28
 70
     1
102
RTVSPost2010Prop29
280
     1
102
RTVSPost2010PropOp29
 70
     1
102
RTVSPost2010Prop30
280
     1
102
RTVSPost2010PropOp30
 70
     1
102
RTVSPost2010Prop31
280
     0
102
RTVSPost2010PropOp31
 70
     1
102
RTVSPost2010Prop32
280
     0
102
RTVSPost2010PropOp32
 70
     1
102
RTVSPost2010Prop33
280
     0
102
RTVSPost2010PropOp33
 70
     1
102
RTVSPost2010Prop34
280
     0
102
RTVSPost2010PropOp34
 70
     1
102
RTVSPost2010Prop35
280
     0
102
RTVSPost2010PropOp35
 70
     1
102
RTVSPost2010Prop36
280
     0
102
RTVSPost2010PropOp36
 70
     1
102
RTVSPost2010Prop37
 90
       50
102
RTVSPost2010PropOp37
 70
     1
102
RTVSPost2010Prop38
140
0.0
102
RTVSPost2010PropOp38
 70
     1
102
RTVSPost2010Prop39
140
1.0
102
RTVSPost2010PropOp39
 70
     1
102
RTVSPost2010Prop40
 90
        0
102
RTVSPost2010PropOp40
 70
     1
102
RTVSPost2010Prop41ColorIndex
 90
       18
102
RTVSPost2010Prop41ColorRGB
 90
        0
102
RTVSPost2010PropOp41
 70
     1
102
RTVSPost2010Prop42
 90
       50
102
RTVSPost2010PropOp42
 70
     1
102
RTVSPost2010Prop43
 90
        3
102
RTVSPost2010PropOp43
 70
     1
102
RTVSPost2010Prop44ColorIndex
 90
        5
102
RTVSPost2010Prop44ColorRGB
 90
      255
102
RTVSPost2010PropOp44
 70
     1
102
RTVSPost2010Prop45
280
     0
102
RTVSPost2010PropOp45
 70
     1
102
RTVSPost2010Prop46
 90
       50
102
RTVSPost2010PropOp46
 70
     1
102
RTVSPost2010Prop47
 90
       50
102
RTVSPost2010PropOp47
 70
     1
102
RTVSPost2010Prop48
 90
       50
102
RTVSPost2010PropOp48
 70
     1
102
RTVSPost2010Prop49
280
     0
102
RTVSPost2010PropOp49
 70
     1
102
RTVSPost2010Prop50
 90
       50
102
RTVSPost2010PropOp50
 70
     1
102
RTVSPost2010Prop51ColorIndex
 90
      256
102
RTVSPost2010Prop51ColorRGB
 90
-16777216
102
RTVSPost2010PropOp51
 70
     0
102
RTVSPost2010Prop52
140
1.0
102
RTVSPost2010PropOp52
 70
     0
102
RTVSPost2010Prop53
 90
        2
102
RTVSPost2010PropOp53
 70
     1
102
RTVSPost2010Prop54
  1
strokes_ogs.tif
102
RTVSPost2010PropOp54
 70
     1
102
RTVSPost2010Prop55
280
     0
102
RTVSPost2010PropOp55
 70
     1
102
RTVSPost2010Prop56
140
1.0
102
RTVSPost2010PropOp56
 70
     1
102
RTVSPost2010Prop57
140
1.0
102
RTVSPost2010PropOp57
 70
     1
102
RTVSPropertyOp0
 70
     1
102
RTVSPropertyOp1
 70
     1
102
RTVSPropertyOp2
 70
     1
102
RTVSPropertyOp3
 70
     1
102
RTVSPropertyOp4
 70
     1
102
RTVSPropertyOp5
 70
     1
102
RTVSPropertyOp6
 70
     1
102
RTVSPropertyOp7
 70
     1
102
RTVSPropertyOp8
 70
     1
102
RTVSPropertyOp9
 70
     1
102
RTVSPropertyOp10
 70
     1
102
RTVSPropertyOp11
 70
     1
102
RTVSPropertyOp12
 70
     1
102
RTVSPropertyOp13
 70
     1
102
RTVSPropertyOp14
 70
     1
102
RTVSPropertyOp15
 70
     1
102
RTVSPropertyOp16
 70
     1
102
RTVSPropertyOp17
 70
     1
102
RTVSPropertyOp18
 70
     1
102
RTVSPropertyOp19
 70
     1
102
RTVSPropertyOp20
 70
     1
102
RTVSPropertyOp21
 70
     1
102
RTVSPropertyOp22
 70
     1
102
RTVSPropertyOp23
 70
     1
102
RTVSPropertyOp24
 70
     1
102
RTVSPropertyOp25
 70
     1
102
RTVSPropertyOp26
 70
     1
102
RTVSPropertyOp27
 70
     1
102
RTVSPropertyOp28
 70
     1
102
RTVSPropertyOp29
 70
     1
102
RTVSPropertyOp30
 70
     1
102
RTVSPropertyOp31
 70
     1
102
RTVSPropertyOp32
 70
     1
102
RTVSPropertyOp33
 70
     1
102
RTVSPropertyOp34
 70
     1
102
RTVSPropertyOp35
 70
     1
102
RTVSPropertyOp36
 70
     1
102
RTVSPropertyOp37
 70
     1
102
RTVSPropertyOp38
 70
     1
102
RTVSPropertyOp39
 70
     1
102
RTVSPropertyOp40
 70
     1
102
RTVSPropertyOp41
 70
     1
102
RTVSPropertyOp42
 70
     1
102
RTVSPropertyOp43
 70
     1
102
RTVSPropertyOp44
 70
     1
102
RTVSPropertyOp45
 70
     1
102
RTVSPropertyOp46
 70
     1
102
RTVSPropertyOp47
 70
     1
102
RTVSPropertyOp48
 70
     1
102
RTVSPropertyOp49
 70
     1
102
RTVSPropertyOp50
 70
     1
102
RTVSPropertyOp51
 70
     0
102
RTVSPropertyOp52
 70
     0
102
RTVSPropertyOp53
 70
     1
102
RTVSPropertyOp54
 70
     1
102
RTVSPropertyOp55
 70
     1
102
RTVSPropertyOp56
 70
     1
102
RTVSPropertyOp57
 70
     1
102
RTVSPropertyOp58
 70
     1
102
RTVSPropertyOp59
 70
     1
102
RTVSPropertyOp60
 70
     1
102
RTVSPropertyOp61
 70
     1
102
RTVSPropertyOp62
 70
     1
  0
XRECORD
  5
A83B
102
{ACAD_REACTORS
330
A83A
102
}
330
A83A
100
AcDbXrecord
280
     1
102
RTVSPost2010Prop28
280
     0
102
RTVSPost2010PropOp28
 70
     1
102
RTVSPost2010Prop29
280
     1
102
RTVSPost2010PropOp29
 70
     1
102
RTVSPost2010Prop30
280
     1
102
RTVSPost2010PropOp30
 70
     1
102
RTVSPost2010Prop31
280
     0
102
RTVSPost2010PropOp31
 70
     1
102
RTVSPost2010Prop32
280
     0
102
RTVSPost2010PropOp32
 70
     1
102
RTVSPost2010Prop33
280
     0
102
RTVSPost2010PropOp33
 70
     1
102
RTVSPost2010Prop34
280
     0
102
RTVSPost2010PropOp34
 70
     1
102
RTVSPost2010Prop35
280
     0
102
RTVSPost2010PropOp35
 70
     1
102
RTVSPost2010Prop36
280
     0
102
RTVSPost2010PropOp36
 70
     1
102
RTVSPost2010Prop37
 90
       50
102
RTVSPost2010PropOp37
 70
     1
102
RTVSPost2010Prop38
140
0.0
102
RTVSPost2010PropOp38
 70
     1
102
RTVSPost2010Prop39
140
1.0
102
RTVSPost2010PropOp39
 70
     1
102
RTVSPost2010Prop40
 90
        0
102
RTVSPost2010PropOp40
 70
     1
102
RTVSPost2010Prop41ColorIndex
 90
       18
102
RTVSPost2010Prop41ColorRGB
 90
        0
102
RTVSPost2010PropOp41
 70
     1
102
RTVSPost2010Prop42
 90
       50
102
RTVSPost2010PropOp42
 70
     1
102
RTVSPost2010Prop43
 90
        3
102
RTVSPost2010PropOp43
 70
     1
102
RTVSPost2010Prop44ColorIndex
 90
        5
102
RTVSPost2010Prop44ColorRGB
 90
      255
102
RTVSPost2010PropOp44
 70
     1
102
RTVSPost2010Prop45
280
     0
102
RTVSPost2010PropOp45
 70
     1
102
RTVSPost2010Prop46
 90
       50
102
RTVSPost2010PropOp46
 70
     1
102
RTVSPost2010Prop47
 90
       50
102
RTVSPost2010PropOp47
 70
     1
102
RTVSPost2010Prop48
 90
       50
102
RTVSPost2010PropOp48
 70
     1
102
RTVSPost2010Prop49
280
     0
102
RTVSPost2010PropOp49
 70
     1
102
RTVSPost2010Prop50
 90
       50
102
RTVSPost2010PropOp50
 70
     1
102
RTVSPost2010Prop51ColorIndex
 90
      256
102
RTVSPost2010Prop51ColorRGB
 90
-16777216
102
RTVSPost2010PropOp51
 70
     0
102
RTVSPost2010Prop52
140
1.0
102
RTVSPost2010PropOp52
 70
     0
102
RTVSPost2010Prop53
 90
        2
102
RTVSPost2010PropOp53
 70
     1
102
RTVSPost2010Prop54
  1
strokes_ogs.tif
102
RTVSPost2010PropOp54
 70
     1
102
RTVSPost2010Prop55
280
     0
102
RTVSPost2010PropOp55
 70
     1
102
RTVSPost2010Prop56
140
1.0
102
RTVSPost2010PropOp56
 70
     1
102
RTVSPost2010Prop57
140
1.0
102
RTVSPost2010PropOp57
 70
     1
102
RTVSPropertyOp0
 70
     1
102
RTVSPropertyOp1
 70
     1
102
RTVSPropertyOp2
 70
     1
102
RTVSPropertyOp3
 70
     1
102
RTVSPropertyOp4
 70
     1
102
RTVSPropertyOp5
 70
     1
102
RTVSPropertyOp6
 70
     1
102
RTVSPropertyOp7
 70
     1
102
RTVSPropertyOp8
 70
     1
102
RTVSPropertyOp9
 70
     1
102
RTVSPropertyOp10
 70
     1
102
RTVSPropertyOp11
 70
     1
102
RTVSPropertyOp12
 70
     1
102
RTVSPropertyOp13
 70
     1
102
RTVSPropertyOp14
 70
     1
102
RTVSPropertyOp15
 70
     1
102
RTVSPropertyOp16
 70
     1
102
RTVSPropertyOp17
 70
     1
102
RTVSPropertyOp18
 70
     1
102
RTVSPropertyOp19
 70
     1
102
RTVSPropertyOp20
 70
     1
102
RTVSPropertyOp21
 70
     1
102
RTVSPropertyOp22
 70
     1
102
RTVSPropertyOp23
 70
     1
102
RTVSPropertyOp24
 70
     1
102
RTVSPropertyOp25
 70
     1
102
RTVSPropertyOp26
 70
     1
102
RTVSPropertyOp27
 70
     1
102
RTVSPropertyOp28
 70
     1
102
RTVSPropertyOp29
 70
     1
102
RTVSPropertyOp30
 70
     1
102
RTVSPropertyOp31
 70
     1
102
RTVSPropertyOp32
 70
     1
102
RTVSPropertyOp33
 70
     1
102
RTVSPropertyOp34
 70
     1
102
RTVSPropertyOp35
 70
     1
102
RTVSPropertyOp36
 70
     1
102
RTVSPropertyOp37
 70
     1
102
RTVSPropertyOp38
 70
     1
102
RTVSPropertyOp39
 70
     1
102
RTVSPropertyOp40
 70
     1
102
RTVSPropertyOp41
 70
     1
102
RTVSPropertyOp42
 70
     1
102
RTVSPropertyOp43
 70
     1
102
RTVSPropertyOp44
 70
     1
102
RTVSPropertyOp45
 70
     1
102
RTVSPropertyOp46
 70
     1
102
RTVSPropertyOp47
 70
     1
102
RTVSPropertyOp48
 70
     1
102
RTVSPropertyOp49
 70
     1
102
RTVSPropertyOp50
 70
     1
102
RTVSPropertyOp51
 70
     0
102
RTVSPropertyOp52
 70
     0
102
RTVSPropertyOp53
 70
     1
102
RTVSPropertyOp54
 70
     1
102
RTVSPropertyOp55
 70
     1
102
RTVSPropertyOp56
 70
     1
102
RTVSPropertyOp57
 70
     1
102
RTVSPropertyOp58
 70
     1
102
RTVSPropertyOp59
 70
     1
102
RTVSPropertyOp60
 70
     1
102
RTVSPropertyOp61
 70
     1
102
RTVSPropertyOp62
 70
     1
  0
ENDSEC
  0
EOF
