  0
SECTION
  2
HEADER
  9
$ACADVER
  1
AC1015
  9
$ACADMAINTVER
 70
    20
  9
$DWGCODEPAGE
  3
ANSI_932
  9
$INSBASE
 10
0.0
 20
0.0
 30
0.0
  9
$EXTMIN
 10
-0.2078303808466444
 20
-0.1750887031739694
 30
-0.0000000000000053
  9
$EXTMAX
 10
3150.202343767453
 20
4425.234372390998
 30
0.0000000000000099
  9
$LIMMIN
 10
0.0
 20
0.0
  9
$LIMMAX
 10
297.0
 20
210.0
  9
$ORTHOMODE
 70
     1
  9
$REGENMODE
 70
     1
  9
$FILLMODE
 70
     0
  9
$QTEXTMODE
 70
     0
  9
$MIRRTEXT
 70
     1
  9
$LTSCALE
 40
100.0
  9
$ATTMODE
 70
     1
  9
$TEXTSIZE
 40
180.0
  9
$TRACEWID
 40
0.05
  9
$TEXTSTYLE
  7
STANDARD
  9
$CLAYER
  8
3
  9
$CELTYPE
  6
BYLAYER
  9
$CECOLOR
 62
   256
  9
$CELTSCALE
 40
1.0
  9
$DISPSILH
 70
     0
  9
$DIMSCALE
 40
15.0
  9
$DIMASZ
 40
2.0
  9
$DIMEXO
 40
0.5
  9
$DIMDLI
 40
10.0
  9
$DIMRND
 40
0.0
  9
$DIMDLE
 40
0.0
  9
$DIMEXE
 40
1.0
  9
$DIMTP
 40
1.0
  9
$DIMTM
 40
1.0
  9
$DIMTXT
 40
3.0
  9
$DIMCEN
 40
0.0
  9
$DIMTSZ
 40
0.0
  9
$DIMTOL
 70
     0
  9
$DIMLIM
 70
     0
  9
$DIMTIH
 70
     0
  9
$DIMTOH
 70
     0
  9
$DIMSE1
 70
     0
  9
$DIMSE2
 70
     0
  9
$DIMTAD
 70
     1
  9
$DIMZIN
 70
     8
  9
$DIMBLK
  1

  9
$DIMASO
 70
     1
  9
$DIMSHO
 70
     1
  9
$DIMPOST
  1

  9
$DIMAPOST
  1

  9
$DIMALT
 70
     0
  9
$DIMALTD
 70
     2
  9
$DIMALTF
 40
0.039
  9
$DIMLFAC
 40
1.0
  9
$DIMTOFL
 70
     1
  9
$DIMTVP
 40
0.0
  9
$DIMTIX
 70
     0
  9
$DIMSOXD
 70
     0
  9
$DIMSAH
 70
     1
  9
$DIMBLK1
  1
OPEN
  9
$DIMBLK2
  1
OPEN
  9
$DIMSTYLE
  2
IGA
  9
$DIMCLRD
 70
     0
  9
$DIMCLRE
 70
     0
  9
$DIMCLRT
 70
     0
  9
$DIMTFAC
 40
10.0
  9
$DIMGAP
 40
1.0
  9
$DIMJUST
 70
     0
  9
$DIMSD1
 70
     0
  9
$DIMSD2
 70
     0
  9
$DIMTOLJ
 70
     1
  9
$DIMTZIN
 70
     8
  9
$DIMALTZ
 70
     0
  9
$DIMALTTZ
 70
     0
  9
$DIMUPT
 70
     1
  9
$DIMDEC
 70
     0
  9
$DIMTDEC
 70
     0
  9
$DIMALTU
 70
     2
  9
$DIMALTTD
 70
     2
  9
$DIMTXSTY
  7
STANDARD
  9
$DIMAUNIT
 70
     0
  9
$DIMADEC
 70
     0
  9
$DIMALTRND
 40
0.0
  9
$DIMAZIN
 70
     0
  9
$DIMDSEP
 70
    46
  9
$DIMATFIT
 70
     3
  9
$DIMFRAC
 70
     0
  9
$DIMLDRBLK
  1
OPEN
  9
$DIMLUNIT
 70
     2
  9
$DIMLWD
 70
    -2
  9
$DIMLWE
 70
    -2
  9
$DIMTMOVE
 70
     0
  9
$LUNITS
 70
     2
  9
$LUPREC
 70
     3
  9
$SKETCHINC
 40
0.1
  9
$FILLETRAD
 40
50.0
  9
$AUNITS
 70
     0
  9
$AUPREC
 70
     0
  9
$MENU
  1
acad
  9
$ELEVATION
 40
0.0
  9
$PELEVATION
 40
0.0
  9
$THICKNESS
 40
0.0
  9
$LIMCHECK
 70
     0
  9
$CHAMFERA
 40
0.5
  9
$CHAMFERB
 40
0.5
  9
$CHAMFERC
 40
20.0
  9
$CHAMFERD
 40
0.0
  9
$SKPOLY
 70
     0
  9
$TDCREATE
 40
2451019.556437153
  9
$TDUCREATE
 40
2451019.181437153
  9
$TDUPDATE
 40
2459605.794773114
  9
$TDUUPDATE
 40
2459605.419773113
  9
$TDINDWG
 40
0.2496388773
  9
$TDUSRTIMER
 40
0.2496388773
  9
$USRTIMER
 70
     1
  9
$ANGBASE
 50
0.0
  9
$ANGDIR
 70
     0
  9
$PDMODE
 70
     0
  9
$PDSIZE
 40
0.0
  9
$PLINEWID
 40
0.0
  9
$SPLFRAME
 70
     0
  9
$SPLINETYPE
 70
     6
  9
$SPLINESEGS
 70
     8
  9
$HANDSEED
  5
B5A9
  9
$SURFTAB1
 70
     6
  9
$SURFTAB2
 70
     6
  9
$SURFTYPE
 70
     6
  9
$SURFU
 70
     6
  9
$SURFV
 70
     6
  9
$UCSBASE
  2

  9
$UCSNAME
  2

  9
$UCSORG
 10
0.0
 20
0.0
 30
0.0
  9
$UCSXDIR
 10
1.0
 20
0.0
 30
0.0
  9
$UCSYDIR
 10
0.0
 20
1.0
 30
0.0
  9
$UCSORTHOREF
  2

  9
$UCSORTHOVIEW
 70
     0
  9
$UCSORGTOP
 10
0.0
 20
0.0
 30
0.0
  9
$UCSORGBOTTOM
 10
0.0
 20
0.0
 30
0.0
  9
$UCSORGLEFT
 10
0.0
 20
0.0
 30
0.0
  9
$UCSORGRIGHT
 10
0.0
 20
0.0
 30
0.0
  9
$UCSORGFRONT
 10
0.0
 20
0.0
 30
0.0
  9
$UCSORGBACK
 10
0.0
 20
0.0
 30
0.0
  9
$PUCSBASE
  2

  9
$PUCSNAME
  2

  9
$PUCSORG
 10
0.0
 20
0.0
 30
0.0
  9
$PUCSXDIR
 10
1.0
 20
0.0
 30
0.0
  9
$PUCSYDIR
 10
0.0
 20
1.0
 30
0.0
  9
$PUCSORTHOREF
  2

  9
$PUCSORTHOVIEW
 70
     0
  9
$PUCSORGTOP
 10
0.0
 20
0.0
 30
0.0
  9
$PUCSORGBOTTOM
 10
0.0
 20
0.0
 30
0.0
  9
$PUCSORGLEFT
 10
0.0
 20
0.0
 30
0.0
  9
$PUCSORGRIGHT
 10
0.0
 20
0.0
 30
0.0
  9
$PUCSORGFRONT
 10
0.0
 20
0.0
 30
0.0
  9
$PUCSORGBACK
 10
0.0
 20
0.0
 30
0.0
  9
$USERI1
 70
     0
  9
$USERI2
 70
     0
  9
$USERI3
 70
     0
  9
$USERI4
 70
     0
  9
$USERI5
 70
     0
  9
$USERR1
 40
0.0
  9
$USERR2
 40
0.0
  9
$USERR3
 40
0.0
  9
$USERR4
 40
0.0
  9
$USERR5
 40
0.0
  9
$WORLDVIEW
 70
     1
  9
$SHADEDGE
 70
     3
  9
$SHADEDIF
 70
    70
  9
$TILEMODE
 70
     1
  9
$MAXACTVP
 70
    16
  9
$PINSBASE
 10
0.0
 20
0.0
 30
0.0
  9
$PLIMCHECK
 70
     0
  9
$PEXTMIN
 10
1.000000000000000E+20
 20
1.000000000000000E+20
 30
1.000000000000000E+20
  9
$PEXTMAX
 10
-1.000000000000000E+20
 20
-1.000000000000000E+20
 30
-1.000000000000000E+20
  9
$PLIMMIN
 10
0.0
 20
0.0
  9
$PLIMMAX
 10
12.0
 20
9.0
  9
$UNITMODE
 70
     0
  9
$VISRETAIN
 70
     0
  9
$PLINEGEN
 70
     0
  9
$PSLTSCALE
 70
     1
  9
$TREEDEPTH
 70
  3020
  9
$CMLSTYLE
  2
STANDARD
  9
$CMLJUST
 70
     0
  9
$CMLSCALE
 40
20.0
  9
$PROXYGRAPHICS
 70
     1
  9
$MEASUREMENT
 70
     1
  9
$CELWEIGHT
370
    -1
  9
$ENDCAPS
280
     0
  9
$JOINSTYLE
280
     0
  9
$LWDISPLAY
290
     0
  9
$INSUNITS
 70
     0
  9
$HYPERLINKBASE
  1

  9
$STYLESHEET
  1
monochrome.ctb
  9
$XEDIT
290
     1
  9
$CEPSNTYPE
380
     0
  9
$PSTYLEMODE
290
     1
  9
$FINGERPRINTGUID
  2
{A376781E-EA13-4BD5-8F93-AB11E8DEBECD}
  9
$VERSIONGUID
  2
{F27186AC-332F-4B94-89E1-414883542777}
  9
$EXTNAMES
290
     1
  9
$PSVPSCALE
 40
0.0
  9
$OLESTARTUP
290
     0
  0
ENDSEC
  0
SECTION
  2
CLASSES
  0
CLASS
  1
ACDBDICTIONARYWDFLT
  2
AcDbDictionaryWithDefault
  3
ObjectDBX Classes
 90
        0
280
     0
281
     0
  0
CLASS
  1
ACDBPLACEHOLDER
  2
AcDbPlaceHolder
  3
ObjectDBX Classes
 90
        0
280
     0
281
     0
  0
CLASS
  1
LAYOUT
  2
AcDbLayout
  3
ObjectDBX Classes
 90
        0
280
     0
281
     0
  0
CLASS
  1
MATERIAL
  2
AcDbMaterial
  3
ObjectDBX Classes
 90
     1153
280
     0
281
     0
  0
CLASS
  1
VISUALSTYLE
  2
AcDbVisualStyle
  3
ObjectDBX Classes
 90
     4095
280
     0
281
     0
  0
CLASS
  1
TABLESTYLE
  2
AcDbTableStyle
  3
ObjectDBX Classes
 90
     4095
280
     0
281
     0
  0
CLASS
  1
SCALE
  2
AcDbScale
  3
ObjectDBX Classes
 90
     1153
280
     0
281
     0
  0
CLASS
  1
MLEADERSTYLE
  2
AcDbMLeaderStyle
  3
ACDB_MLEADERSTYLE_CLASS
 90
     4095
280
     0
281
     0
  0
CLASS
  1
ACDBSECTIONVIEWSTYLE
  2
AcDbSectionViewStyle
  3
ObjectDBX Classes
 90
     1025
280
     0
281
     0
  0
CLASS
  1
ACDBDETAILVIEWSTYLE
  2
AcDbDetailViewStyle
  3
ObjectDBX Classes
 90
     1025
280
     0
281
     0
  0
CLASS
  1
DICTIONARYVAR
  2
AcDbDictionaryVar
  3
ObjectDBX Classes
 90
        0
280
     0
281
     0
  0
CLASS
  1
MULTILEADER
  2
AcDbMLeader
  3
ACDB_MLEADER_CLASS
 90
     1025
280
     0
281
     1
  0
CLASS
  1
SORTENTSTABLE
  2
AcDbSortentsTable
  3
ObjectDBX Classes
 90
        0
280
     0
281
     0
  0
CLASS
  1
CELLSTYLEMAP
  2
AcDbCellStyleMap
  3
ObjectDBX Classes
 90
     1152
280
     0
281
     0
  0
ENDSEC
  0
SECTION
  2
TABLES
  0
TABLE
  2
VPORT
  5
8
330
0
100
AcDbSymbolTable
 70
     1
  0
VPORT
  5
843B
330
8
100
AcDbSymbolTableRecord
100
AcDbViewportTableRecord
  2
*Active
 70
     0
 10
0.0
 20
0.0
 11
1.0
 21
1.0
 12
2156.271640517169
 22
2212.529631540831
 13
0.0
 23
0.0
 14
10.0
 24
10.0
 15
10.0
 25
10.0
 16
0.0
 26
0.0
 36
1.0
 17
0.0
 27
0.0
 37
0.0
 40
4320.161726605614
 41
1.727564102564102
 42
50.0
 43
0.0
 44
0.0
 50
0.0
 51
0.0
 71
     0
 72
   100
 73
     1
 74
     0
 75
     0
 76
     0
 77
     0
 78
     0
281
     0
 65
     1
110
0.0
120
0.0
130
0.0
111
1.0
121
0.0
131
0.0
112
0.0
122
1.0
132
0.0
 79
     0
146
0.0
1001
ACAD_NAV_VCDISPLAY
1070
     3
  0
ENDTAB
  0
TABLE
  2
LTYPE
  5
5
330
0
100
AcDbSymbolTable
 70
     2
  0
LTYPE
  5
13
330
5
100
AcDbSymbolTableRecord
100
AcDbLinetypeTableRecord
  2
BYBLOCK
 70
     0
  3

 72
    65
 73
     0
 40
0.0
  0
LTYPE
  5
14
330
5
100
AcDbSymbolTableRecord
100
AcDbLinetypeTableRecord
  2
BYLAYER
 70
     0
  3

 72
    65
 73
     0
 40
0.0
  0
LTYPE
  5
15
330
5
100
AcDbSymbolTableRecord
100
AcDbLinetypeTableRecord
  2
CONTINUOUS
 70
     0
  3
Solid line
 72
    65
 73
     0
 40
0.0
  0
LTYPE
  5
1F
330
5
100
AcDbSymbolTableRecord
100
AcDbLinetypeTableRecord
  2
CENTER
 70
     0
  3
____ _ ____ _ ____ _ ____ _ ____ _ ____ _ ____ 
 72
    65
 73
     4
 40
2.0
 49
1.25
 74
     0
 49
-0.25
 74
     0
 49
0.25
 74
     0
 49
-0.25
 74
     0
  0
ENDTAB
  0
TABLE
  2
LAYER
  5
2
102
{ACAD_XDICTIONARY
360
859F
102
}
330
0
100
AcDbSymbolTable
 70
     6
  0
LAYER
  5
F
102
{ACAD_XDICTIONARY
360
848D
102
}
330
2
100
AcDbSymbolTableRecord
100
AcDbLayerTableRecord
  2
0
 70
     0
 62
     7
  6
CONTINUOUS
370
    -3
390
842E
  0
LAYER
  5
31
102
{ACAD_XDICTIONARY
360
848F
102
}
330
2
100
AcDbSymbolTableRecord
100
AcDbLayerTableRecord
  2
3
 70
     0
 62
     2
  6
CONTINUOUS
370
    -3
390
842E
  0
LAYER
  5
76D0
102
{ACAD_XDICTIONARY
360
8491
102
}
330
2
100
AcDbSymbolTableRecord
100
AcDbLayerTableRecord
  2
2
 70
     0
 62
     3
  6
CENTER
370
    -3
390
842E
  0
LAYER
  5
76D1
102
{ACAD_XDICTIONARY
360
8493
102
}
330
2
100
AcDbSymbolTableRecord
100
AcDbLayerTableRecord
  2
1
 70
     0
 62
     4
  6
CONTINUOUS
370
    -3
390
842E
  0
LAYER
  5
76D2
102
{ACAD_XDICTIONARY
360
8495
102
}
330
2
100
AcDbSymbolTableRecord
100
AcDbLayerTableRecord
  2
4
 70
     0
 62
     7
  6
CONTINUOUS
370
    -3
390
842E
  0
LAYER
  5
7B21
330
2
100
AcDbSymbolTableRecord
100
AcDbLayerTableRecord
  2
DEFPOINTS
 70
     0
 62
     7
  6
CONTINUOUS
290
     0
370
    -3
390
842E
  0
ENDTAB
  0
TABLE
  2
STYLE
  5
3
330
0
100
AcDbSymbolTable
 70
     3
  0
STYLE
  5
10
330
3
100
AcDbSymbolTableRecord
100
AcDbTextStyleTableRecord
  2
STANDARD
 70
     0
 40
0.0
 41
1.0
 50
0.0
 71
     0
 42
180.0
  3
simplex.shx
  4
extfont.shx
  0
ENDTAB
  0
TABLE
  2
VIEW
  5
6
330
0
100
AcDbSymbolTable
 70
     0
  0
ENDTAB
  0
TABLE
  2
UCS
  5
7
330
0
100
AcDbSymbolTable
 70
     0
  0
ENDTAB
  0
TABLE
  2
APPID
  5
9
330
0
100
AcDbSymbolTable
 70
     6
  0
APPID
  5
11
330
9
100
AcDbSymbolTableRecord
100
AcDbRegAppTableRecord
  2
ACAD
 70
     0
  0
APPID
  5
8497
330
9
100
AcDbSymbolTableRecord
100
AcDbRegAppTableRecord
  2
ACAD_NAV_VCDISPLAY
 70
     0
  0
APPID
  5
8858
330
9
100
AcDbSymbolTableRecord
100
AcDbRegAppTableRecord
  2
ACAD_EXEMPT_FROM_CAD_STANDARDS
 70
     0
  0
APPID
  5
8868
330
9
100
AcDbSymbolTableRecord
100
AcDbRegAppTableRecord
  2
ACAD_PSEXT
 70
     0
  0
APPID
  5
88EF
330
9
100
AcDbSymbolTableRecord
100
AcDbRegAppTableRecord
  2
AcadAnnoMonitorAlertIconDisabled
 70
     0
  0
APPID
  5
B5A0
330
9
100
AcDbSymbolTableRecord
100
AcDbRegAppTableRecord
  2
ACAD_MLEADERVER
 70
     0
  0
ENDTAB
  0
TABLE
  2
DIMSTYLE
  5
A
330
0
100
AcDbSymbolTable
 70
     4
100
AcDbDimStyleTable
 71
     1
340
1D
  0
DIMSTYLE
105
1D
102
{ACAD_REACTORS
330
7CC2
330
7CC3
330
7CF3
330
7CF4
330
7CFA
330
7D00
330
7D1D
330
7D2A
330
7D2B
330
7E03
330
7E4B
330
7E4C
330
8207
330
83FE
330
85C7
330
85C8
330
85C9
330
88B3
330
89B9
330
8E78
330
ABA7
330
B30A
102
}
330
A
100
AcDbSymbolTableRecord
100
AcDbDimStyleTableRecord
  2
IGA
 70
     0
 40
2.0
 41
2.0
 42
0.5
 43
10.0
 44
1.0
 47
1.0
 48
1.0
 73
     0
 74
     0
 77
     1
 78
     8
140
3.0
141
0.0
143
0.03937
146
10.0
147
1.0
173
     1
271
     1
272
     0
279
     2
284
     8
340
10
341
7A11
343
7A11
344
7A11
  0
DIMSTYLE
105
8AE1
330
A
100
AcDbSymbolTableRecord
100
AcDbDimStyleTableRecord
  2
Standard
 70
     0
 40
15.0
340
10
  0
ENDTAB
  0
TABLE
  2
BLOCK_RECORD
  5
1
330
0
100
AcDbSymbolTable
 70
    47
  0
BLOCK_RECORD
  5
19
102
{ACAD_XDICTIONARY
360
86D9
102
}
330
1
100
AcDbSymbolTableRecord
100
AcDbBlockTableRecord
  2
*MODEL_SPACE
340
8431
  0
BLOCK_RECORD
  5
16
330
1
100
AcDbSymbolTableRecord
100
AcDbBlockTableRecord
  2
*PAPER_SPACE
340
8432
  0
BLOCK_RECORD
  5
7A11
330
1
100
AcDbSymbolTableRecord
100
AcDbBlockTableRecord
  2
_OPEN
340
0
102
{BLKREFS
331
ABB7
331
ABB8
331
ABC0
331
ABC1
331
ABC9
331
ABCA
331
ABD2
331
ABD3
331
B261
331
B262
331
B26A
331
B26B
331
B273
331
B274
331
B27C
331
B27D
331
B285
331
B286
331
B291
331
B299
331
B29A
331
B2A2
331
B2A3
331
B2AB
331
B2AC
331
B2B4
331
B2B5
331
B2BE
331
B2BF
331
B2C6
331
B2C7
331
B2CF
331
B2D0
331
B2D8
331
B2E0
331
B2E1
331
B2E9
331
B2EA
331
84B0
331
84B1
331
84BC
331
84BD
331
84C8
331
84C9
331
84D4
331
84D5
331
84E0
331
84E1
331
84EE
331
84EF
331
84FC
331
84FD
331
8508
331
8509
331
8516
331
8517
331
8522
331
8523
331
852E
331
852F
331
853C
331
853D
331
8548
331
8549
331
8554
331
8555
331
8562
331
8563
331
8570
331
8571
331
857E
331
857F
331
858A
331
858B
331
8598
331
8599
331
B31A
331
B31B
331
B528
331
B529
102
}
  0
BLOCK_RECORD
  5
7E5D
330
1
100
AcDbSymbolTableRecord
100
AcDbBlockTableRecord
  2
*D1
340
0
  0
BLOCK_RECORD
  5
7E69
330
1
100
AcDbSymbolTableRecord
100
AcDbBlockTableRecord
  2
*D2
340
0
  0
BLOCK_RECORD
  5
7EA5
330
1
100
AcDbSymbolTableRecord
100
AcDbBlockTableRecord
  2
*D3
340
0
  0
BLOCK_RECORD
  5
7EB1
330
1
100
AcDbSymbolTableRecord
100
AcDbBlockTableRecord
  2
*D4
340
0
  0
BLOCK_RECORD
  5
7EBC
330
1
100
AcDbSymbolTableRecord
100
AcDbBlockTableRecord
  2
*D5
340
0
  0
BLOCK_RECORD
  5
7EE2
330
1
100
AcDbSymbolTableRecord
100
AcDbBlockTableRecord
  2
*D6
340
0
  0
BLOCK_RECORD
  5
7EFE
330
1
100
AcDbSymbolTableRecord
100
AcDbBlockTableRecord
  2
*D7
340
0
  0
BLOCK_RECORD
  5
7F0A
330
1
100
AcDbSymbolTableRecord
100
AcDbBlockTableRecord
  2
*D8
340
0
  0
BLOCK_RECORD
  5
7F16
330
1
100
AcDbSymbolTableRecord
100
AcDbBlockTableRecord
  2
*D9
340
0
  0
BLOCK_RECORD
  5
7F39
330
1
100
AcDbSymbolTableRecord
100
AcDbBlockTableRecord
  2
*D10
340
0
  0
BLOCK_RECORD
  5
7F53
330
1
100
AcDbSymbolTableRecord
100
AcDbBlockTableRecord
  2
*D11
340
0
  0
BLOCK_RECORD
  5
7F61
330
1
100
AcDbSymbolTableRecord
100
AcDbBlockTableRecord
  2
*D12
340
0
  0
BLOCK_RECORD
  5
8115
330
1
100
AcDbSymbolTableRecord
100
AcDbBlockTableRecord
  2
_DOT
340
0
102
{BLKREFS
331
B290
102
}
  0
BLOCK_RECORD
  5
81FB
330
1
100
AcDbSymbolTableRecord
100
AcDbBlockTableRecord
  2
*D14
340
0
  0
BLOCK_RECORD
  5
83F3
330
1
100
AcDbSymbolTableRecord
100
AcDbBlockTableRecord
  2
*D15
340
0
  0
BLOCK_RECORD
  5
84AB
330
1
100
AcDbSymbolTableRecord
100
AcDbBlockTableRecord
  2
*D16
340
0
  0
BLOCK_RECORD
  5
84B7
330
1
100
AcDbSymbolTableRecord
100
AcDbBlockTableRecord
  2
*D17
340
0
  0
BLOCK_RECORD
  5
84C3
330
1
100
AcDbSymbolTableRecord
100
AcDbBlockTableRecord
  2
*D18
340
0
  0
BLOCK_RECORD
  5
84CF
330
1
100
AcDbSymbolTableRecord
100
AcDbBlockTableRecord
  2
*D19
340
0
  0
BLOCK_RECORD
  5
84DB
330
1
100
AcDbSymbolTableRecord
100
AcDbBlockTableRecord
  2
*D20
340
0
  0
BLOCK_RECORD
  5
84E7
330
1
100
AcDbSymbolTableRecord
100
AcDbBlockTableRecord
  2
*D21
340
0
  0
BLOCK_RECORD
  5
84F5
330
1
100
AcDbSymbolTableRecord
100
AcDbBlockTableRecord
  2
*D22
340
0
  0
BLOCK_RECORD
  5
8503
330
1
100
AcDbSymbolTableRecord
100
AcDbBlockTableRecord
  2
*D23
340
0
  0
BLOCK_RECORD
  5
850F
330
1
100
AcDbSymbolTableRecord
100
AcDbBlockTableRecord
  2
*D24
340
0
  0
BLOCK_RECORD
  5
851D
330
1
100
AcDbSymbolTableRecord
100
AcDbBlockTableRecord
  2
*D25
340
0
  0
BLOCK_RECORD
  5
8529
330
1
100
AcDbSymbolTableRecord
100
AcDbBlockTableRecord
  2
*D26
340
0
  0
BLOCK_RECORD
  5
8535
330
1
100
AcDbSymbolTableRecord
100
AcDbBlockTableRecord
  2
*D27
340
0
  0
BLOCK_RECORD
  5
8543
330
1
100
AcDbSymbolTableRecord
100
AcDbBlockTableRecord
  2
*D28
340
0
  0
BLOCK_RECORD
  5
854F
330
1
100
AcDbSymbolTableRecord
100
AcDbBlockTableRecord
  2
*D29
340
0
  0
BLOCK_RECORD
  5
855B
330
1
100
AcDbSymbolTableRecord
100
AcDbBlockTableRecord
  2
*D30
340
0
  0
BLOCK_RECORD
  5
8569
330
1
100
AcDbSymbolTableRecord
100
AcDbBlockTableRecord
  2
*D31
340
0
  0
BLOCK_RECORD
  5
8577
330
1
100
AcDbSymbolTableRecord
100
AcDbBlockTableRecord
  2
*D32
340
0
  0
BLOCK_RECORD
  5
8585
330
1
100
AcDbSymbolTableRecord
100
AcDbBlockTableRecord
  2
*D33
340
0
  0
BLOCK_RECORD
  5
8591
330
1
100
AcDbSymbolTableRecord
100
AcDbBlockTableRecord
  2
*D34
340
0
  0
BLOCK_RECORD
  5
85A1
330
1
100
AcDbSymbolTableRecord
100
AcDbBlockTableRecord
  2
A$C5F035C4D
340
0
  0
BLOCK_RECORD
  5
85FD
330
1
100
AcDbSymbolTableRecord
100
AcDbBlockTableRecord
  2
*D36
340
0
  0
BLOCK_RECORD
  5
8609
330
1
100
AcDbSymbolTableRecord
100
AcDbBlockTableRecord
  2
*D37
340
0
  0
BLOCK_RECORD
  5
8615
330
1
100
AcDbSymbolTableRecord
100
AcDbBlockTableRecord
  2
*D38
340
0
  0
BLOCK_RECORD
  5
88B4
330
1
100
AcDbSymbolTableRecord
100
AcDbBlockTableRecord
  2
*D39
340
0
  0
BLOCK_RECORD
  5
89BA
330
1
100
AcDbSymbolTableRecord
100
AcDbBlockTableRecord
  2
*D40
340
0
  0
BLOCK_RECORD
  5
89DA
330
1
100
AcDbSymbolTableRecord
100
AcDbBlockTableRecord
  2
_DotSmall
340
0
102
{BLKREFS
331
B2D9
102
}
  0
BLOCK_RECORD
  5
8E79
330
1
100
AcDbSymbolTableRecord
100
AcDbBlockTableRecord
  2
*D42
340
0
  0
BLOCK_RECORD
  5
ABA8
330
1
100
AcDbSymbolTableRecord
100
AcDbBlockTableRecord
  2
*D43
340
0
  0
BLOCK_RECORD
  5
B30B
330
1
100
AcDbSymbolTableRecord
100
AcDbBlockTableRecord
  2
*D44
340
0
  0
ENDTAB
  0
ENDSEC
  0
SECTION
  2
BLOCKS
  0
BLOCK
  5
1A
330
19
100
AcDbEntity
  8
0
100
AcDbBlockBegin
  2
*MODEL_SPACE
 70
     0
 10
0.0
 20
0.0
 30
0.0
  3
*MODEL_SPACE
  1

  0
ENDBLK
  5
1B
330
19
100
AcDbEntity
  8
0
100
AcDbBlockEnd
  0
BLOCK
  5
17
330
16
100
AcDbEntity
 67
     1
  8
0
100
AcDbBlockBegin
  2
*PAPER_SPACE
 70
     0
 10
0.0
 20
0.0
 30
0.0
  3
*PAPER_SPACE
  1

  0
ENDBLK
  5
18
330
16
100
AcDbEntity
 67
     1
  8
0
100
AcDbBlockEnd
  0
BLOCK
  5
7A15
330
7A11
100
AcDbEntity
  8
0
100
AcDbBlockBegin
  2
_OPEN
 70
     0
 10
0.0
 20
0.0
 30
0.0
  3
_OPEN
  1

  0
LINE
  5
7A12
330
7A11
100
AcDbEntity
  8
0
  6
ByBlock
 62
     0
100
AcDbLine
 10
-1.0
 20
0.1666666666666666
 30
0.0
 11
0.0
 21
0.0
 31
0.0
  0
LINE
  5
7A13
330
7A11
100
AcDbEntity
  8
0
  6
ByBlock
 62
     0
100
AcDbLine
 10
0.0
 20
0.0
 30
0.0
 11
-1.0
 21
-0.1666666666666666
 31
0.0
  0
LINE
  5
7A14
330
7A11
100
AcDbEntity
  8
0
  6
ByBlock
 62
     0
100
AcDbLine
 10
0.0
 20
0.0
 30
0.0
 11
-1.0
 21
0.0
 31
0.0
  0
ENDBLK
  5
7A16
330
7A11
100
AcDbEntity
  8
0
100
AcDbBlockEnd
  0
BLOCK
  5
82FD
330
7E5D
100
AcDbEntity
  8
0
100
AcDbBlockBegin
  2
*D1
 70
     1
 10
0.0
 20
0.0
 30
0.0
  3
*D1
  1

  0
LINE
  5
B25E
330
7E5D
100
AcDbEntity
  8
3
 62
     0
370
    -2
100
AcDbLine
 10
2586.93139905458
 20
2045.360211222928
 30
0.0
 11
2586.93139905458
 21
2095.466099657306
 31
0.0
  0
LINE
  5
B25F
330
7E5D
100
AcDbEntity
  8
3
 62
     0
370
    -2
100
AcDbLine
 10
1878.931399054579
 20
1661.362935140263
 30
0.0
 11
1878.931399054579
 21
2095.466099657306
 31
0.0
  0
LINE
  5
B260
330
7E5D
100
AcDbEntity
  8
3
 62
     0
370
    -2
100
AcDbLine
 10
2556.93139905458
 20
2080.466099657305
 30
0.0
 11
1908.93139905458
 21
2080.466099657305
 31
0.0
  0
INSERT
  5
B261
330
7E5D
100
AcDbEntity
  8
3
 62
     0
370
    -2
100
AcDbBlockReference
  2
_OPEN
 10
2586.93139905458
 20
2080.466099657305
 30
0.0
 41
30.0
 42
30.0
 43
30.0
  0
INSERT
  5
B262
330
7E5D
100
AcDbEntity
  8
3
 62
     0
370
    -2
100
AcDbBlockReference
  2
_OPEN
 10
1878.931399054579
 20
2080.466099657305
 30
0.0
 41
30.0
 42
30.0
 43
30.0
 50
180.0
  0
MTEXT
  5
B263
330
7E5D
100
AcDbEntity
  8
3
 62
     0
100
AcDbMText
 10
2232.93139905458
 20
2155.466099657305
 30
0.0
 40
45.0
 41
0.0
 71
     5
 72
     1
  1
\A1;MAX\P760
 73
     1
 44
1.0
1001
ACAD
1000
MTEXTBEGIN
1070
    73
1070
     1
1070
    44
1040
1.0
1070
    74
1070
     0
1000
MTEXTEND
  0
POINT
  5
B264
330
7E5D
100
AcDbEntity
  8
DEFPOINTS
 62
     0
100
AcDbPoint
 10
2586.93139905458
 20
2037.860211222928
 30
0.0
  0
POINT
  5
B265
330
7E5D
100
AcDbEntity
  8
DEFPOINTS
 62
     0
100
AcDbPoint
 10
1878.931399054579
 20
1653.862935140263
 30
0.0
  0
POINT
  5
B266
330
7E5D
100
AcDbEntity
  8
DEFPOINTS
 62
     0
100
AcDbPoint
 10
1878.931399054579
 20
2080.466099657305
 30
0.0
  0
ENDBLK
  5
8307
330
7E5D
100
AcDbEntity
  8
0
100
AcDbBlockEnd
  0
BLOCK
  5
82F2
330
7E69
100
AcDbEntity
  8
0
100
AcDbBlockBegin
  2
*D2
 70
     1
 10
0.0
 20
0.0
 30
0.0
  3
*D2
  1

  0
LINE
  5
B267
330
7E69
100
AcDbEntity
  8
3
 62
     0
370
    -2
100
AcDbLine
 10
1971.931399054579
 20
1061.362935140263
 30
0.0
 11
1971.931399054579
 21
959.1124981267757
 31
0.0
  0
LINE
  5
B268
330
7E69
100
AcDbEntity
  8
3
 62
     0
370
    -2
100
AcDbLine
 10
2586.93139905458
 20
1035.861105869452
 30
0.0
 11
2586.93139905458
 21
959.1124981267757
 31
0.0
  0
LINE
  5
B269
330
7E69
100
AcDbEntity
  8
3
 62
     0
370
    -2
100
AcDbLine
 10
2001.93139905458
 20
974.1124981267757
 30
0.0
 11
2556.93139905458
 21
974.1124981267757
 31
0.0
  0
INSERT
  5
B26A
330
7E69
100
AcDbEntity
  8
3
 62
     0
370
    -2
100
AcDbBlockReference
  2
_OPEN
 10
1971.931399054579
 20
974.1124981267757
 30
0.0
 41
30.0
 42
30.0
 43
30.0
 50
180.0
  0
INSERT
  5
B26B
330
7E69
100
AcDbEntity
  8
3
 62
     0
370
    -2
100
AcDbBlockReference
  2
_OPEN
 10
2586.93139905458
 20
974.1124981267757
 30
0.0
 41
30.0
 42
30.0
 43
30.0
  0
MTEXT
  5
B26C
330
7E69
100
AcDbEntity
  8
3
 62
     0
100
AcDbMText
 10
2279.43139905458
 20
1011.612498126776
 30
0.0
 40
45.0
 41
0.0
 71
     5
 72
     1
  1
\A1;615
 73
     1
 44
1.0
1001
ACAD
1000
MTEXTBEGIN
1070
    73
1070
     1
1070
    44
1040
1.0
1070
    74
1070
     0
1000
MTEXTEND
  0
POINT
  5
B26D
330
7E69
100
AcDbEntity
  8
DEFPOINTS
 62
     0
100
AcDbPoint
 10
1971.931399054579
 20
1068.862935140263
 30
0.0
  0
POINT
  5
B26E
330
7E69
100
AcDbEntity
  8
DEFPOINTS
 62
     0
100
AcDbPoint
 10
2586.93139905458
 20
1043.361105869452
 30
0.0
  0
POINT
  5
B26F
330
7E69
100
AcDbEntity
  8
DEFPOINTS
 62
     0
100
AcDbPoint
 10
2586.93139905458
 20
974.1124981267757
 30
0.0
  0
ENDBLK
  5
82FC
330
7E69
100
AcDbEntity
  8
0
100
AcDbBlockEnd
  0
BLOCK
  5
82C6
330
7EA5
100
AcDbEntity
  8
0
100
AcDbBlockBegin
  2
*D3
 70
     1
 10
0.0
 20
0.0
 30
0.0
  3
*D3
  1

  0
LINE
  5
B270
330
7EA5
100
AcDbEntity
  8
3
 62
     0
370
    -2
100
AcDbLine
 10
1519.330891005992
 20
1061.362935140264
 30
0.0
 11
1519.330891005992
 21
957.5486898633798
 31
0.0
  0
LINE
  5
B271
330
7EA5
100
AcDbEntity
  8
3
 62
     0
370
    -2
100
AcDbLine
 10
899.3308910059914
 20
1035.861105869452
 30
0.0
 11
899.3308910059914
 21
957.5486898633798
 31
0.0
  0
LINE
  5
B272
330
7EA5
100
AcDbEntity
  8
3
 62
     0
370
    -2
100
AcDbLine
 10
1489.330891005992
 20
972.5486898633798
 30
0.0
 11
929.3308910059913
 21
972.5486898633798
 31
0.0
  0
INSERT
  5
B273
330
7EA5
100
AcDbEntity
  8
3
 62
     0
370
    -2
100
AcDbBlockReference
  2
_OPEN
 10
1519.330891005992
 20
972.5486898633798
 30
0.0
 41
30.0
 42
30.0
 43
30.0
  0
INSERT
  5
B274
330
7EA5
100
AcDbEntity
  8
3
 62
     0
370
    -2
100
AcDbBlockReference
  2
_OPEN
 10
899.3308910059914
 20
972.5486898633798
 30
0.0
 41
30.0
 42
30.0
 43
30.0
 50
180.0
  0
MTEXT
  5
B275
330
7EA5
100
AcDbEntity
  8
3
 62
     0
100
AcDbMText
 10
1209.330891005991
 20
1010.04868986338
 30
0.0
 40
45.0
 41
0.0
 71
     5
 72
     1
  1
\A1;620
 73
     1
 44
1.0
1001
ACAD
1000
MTEXTBEGIN
1070
    73
1070
     1
1070
    44
1040
1.0
1070
    74
1070
     0
1000
MTEXTEND
  0
POINT
  5
B276
330
7EA5
100
AcDbEntity
  8
DEFPOINTS
 62
     0
100
AcDbPoint
 10
1519.330891005992
 20
1068.862935140264
 30
0.0
  0
POINT
  5
B277
330
7EA5
100
AcDbEntity
  8
DEFPOINTS
 62
     0
100
AcDbPoint
 10
899.3308910059914
 20
1043.361105869452
 30
0.0
  0
POINT
  5
B278
330
7EA5
100
AcDbEntity
  8
DEFPOINTS
 62
     0
100
AcDbPoint
 10
899.3308910059914
 20
972.5486898633798
 30
0.0
  0
ENDBLK
  5
82D0
330
7EA5
100
AcDbEntity
  8
0
100
AcDbBlockEnd
  0
BLOCK
  5
82BB
330
7EB1
100
AcDbEntity
  8
0
100
AcDbBlockBegin
  2
*D4
 70
     1
 10
0.0
 20
0.0
 30
0.0
  3
*D4
  1

  0
LINE
  5
B279
330
7EB1
100
AcDbEntity
  8
3
 62
     0
370
    -2
100
AcDbLine
 10
899.3308910059914
 20
1945.447322256887
 30
0.0
 11
899.3308910059914
 21
2003.849061965471
 31
0.0
  0
LINE
  5
B27A
330
7EB1
100
AcDbEntity
  8
3
 62
     0
370
    -2
100
AcDbLine
 10
1172.895771886673
 20
1585.362935140263
 30
0.0
 11
1172.895771886673
 21
2003.849061965471
 31
0.0
  0
LINE
  5
B27B
330
7EB1
100
AcDbEntity
  8
3
 62
     0
370
    -2
100
AcDbLine
 10
929.3308910059913
 20
1988.849061965471
 30
0.0
 11
1142.895771886673
 21
1988.849061965471
 31
0.0
  0
INSERT
  5
B27C
330
7EB1
100
AcDbEntity
  8
3
 62
     0
370
    -2
100
AcDbBlockReference
  2
_OPEN
 10
899.3308910059914
 20
1988.849061965471
 30
0.0
 41
30.0
 42
30.0
 43
30.0
 50
180.0
  0
INSERT
  5
B27D
330
7EB1
100
AcDbEntity
  8
3
 62
     0
370
    -2
100
AcDbBlockReference
  2
_OPEN
 10
1172.895771886673
 20
1988.849061965471
 30
0.0
 41
30.0
 42
30.0
 43
30.0
  0
MTEXT
  5
B27E
330
7EB1
100
AcDbEntity
  8
3
 62
     0
100
AcDbMText
 10
1036.113331446332
 20
2026.349061965472
 30
0.0
 40
45.0
 41
0.0
 71
     5
 72
     1
  1
\A1;274
 73
     1
 44
1.0
1001
ACAD
1000
MTEXTBEGIN
1070
    73
1070
     1
1070
    44
1040
1.0
1070
    74
1070
     0
1000
MTEXTEND
  0
POINT
  5
B27F
330
7EB1
100
AcDbEntity
  8
DEFPOINTS
 62
     0
100
AcDbPoint
 10
899.3308910059914
 20
1937.947322256887
 30
0.0
  0
POINT
  5
B280
330
7EB1
100
AcDbEntity
  8
DEFPOINTS
 62
     0
100
AcDbPoint
 10
1172.895771886673
 20
1577.862935140263
 30
0.0
  0
POINT
  5
B281
330
7EB1
100
AcDbEntity
  8
DEFPOINTS
 62
     0
100
AcDbPoint
 10
1172.895771886673
 20
1988.849061965471
 30
0.0
  0
ENDBLK
  5
82C5
330
7EB1
100
AcDbEntity
  8
0
100
AcDbBlockEnd
  0
BLOCK
  5
82B0
330
7EBC
100
AcDbEntity
  8
0
100
AcDbBlockBegin
  2
*D5
 70
     1
 10
0.0
 20
0.0
 30
0.0
  3
*D5
  1

  0
LINE
  5
B282
330
7EBC
100
AcDbEntity
  8
3
 62
     0
370
    -2
100
AcDbLine
 10
635.3707646555058
 20
1553.862935140263
 30
0.0
 11
426.7265239695935
 21
1553.862935140263
 31
0.0
  0
LINE
  5
B283
330
7EBC
100
AcDbEntity
  8
3
 62
     0
370
    -2
100
AcDbLine
 10
711.8308910059913
 20
1238.862935140263
 30
0.0
 11
426.7265239695935
 21
1238.862935140263
 31
0.0
  0
LINE
  5
B284
330
7EBC
100
AcDbEntity
  8
3
 62
     0
370
    -2
100
AcDbLine
 10
441.7265239695935
 20
1523.862935140263
 30
0.0
 11
441.7265239695934
 21
1268.862935140263
 31
0.0
  0
INSERT
  5
B285
330
7EBC
100
AcDbEntity
  8
3
 62
     0
370
    -2
100
AcDbBlockReference
  2
_OPEN
 10
441.7265239695935
 20
1553.862935140263
 30
0.0
 41
30.0
 42
30.0
 43
30.0
 50
90.0
  0
INSERT
  5
B286
330
7EBC
100
AcDbEntity
  8
3
 62
     0
370
    -2
100
AcDbBlockReference
  2
_OPEN
 10
441.7265239695934
 20
1238.862935140263
 30
0.0
 41
30.0
 42
30.0
 43
30.0
 50
270.0
  0
MTEXT
  5
B287
330
7EBC
100
AcDbEntity
  8
3
 62
     0
100
AcDbMText
 10
404.2265239695932
 20
1396.362935140263
 30
0.0
 40
45.0
 41
0.0
 71
     5
 72
     1
  1
\A1;315
 11
0.0000000000000001
 21
1.0
 31
0.0
 73
     1
 44
1.0
1001
ACAD
1000
MTEXTBEGIN
1070
    73
1070
     1
1070
    44
1040
1.0
1070
    74
1070
     0
1000
MTEXTEND
  0
POINT
  5
B288
330
7EBC
100
AcDbEntity
  8
DEFPOINTS
 62
     0
100
AcDbPoint
 10
642.8707646555058
 20
1553.862935140263
 30
0.0
  0
POINT
  5
B289
330
7EBC
100
AcDbEntity
  8
DEFPOINTS
 62
     0
100
AcDbPoint
 10
719.3308910059913
 20
1238.862935140263
 30
0.0
  0
POINT
  5
B28A
330
7EBC
100
AcDbEntity
  8
DEFPOINTS
 62
     0
100
AcDbPoint
 10
441.7265239695934
 20
1238.862935140263
 30
0.0
  0
ENDBLK
  5
82BA
330
7EBC
100
AcDbEntity
  8
0
100
AcDbBlockEnd
  0
BLOCK
  5
83D7
330
7EE2
100
AcDbEntity
  8
0
100
AcDbBlockBegin
  2
*D6
 70
     1
 10
0.0
 20
0.0
 30
0.0
  3
*D6
  1

  0
LINE
  5
B28B
330
7EE2
100
AcDbEntity
  8
3
 62
     0
370
    -2
100
AcDbLine
 10
711.8308910059917
 20
1143.862935140263
 30
0.0
 11
426.7265239695935
 21
1143.862935140263
 31
0.0
  0
LINE
  5
B28C
330
7EE2
100
AcDbEntity
  8
3
 62
     0
370
    -2
100
AcDbLine
 10
711.8308910059917
 20
1068.862935140263
 30
0.0
 11
426.7265239695935
 21
1068.862935140263
 31
0.0
  0
LINE
  5
B28D
330
7EE2
100
AcDbEntity
  8
3
 62
     0
370
    -2
100
AcDbLine
 10
441.7265239695935
 20
1173.862935140263
 30
0.0
 11
441.7265239695935
 21
1203.862935140263
 31
0.0
  0
LINE
  5
B28E
330
7EE2
100
AcDbEntity
  8
3
 62
     0
370
    -2
100
AcDbLine
 10
441.7265239695934
 20
1038.862935140263
 30
0.0
 11
441.7265239695934
 21
906.0057922831205
 31
0.0
  0
LINE
  5
B28F
330
7EE2
100
AcDbEntity
  8
3
 62
     0
370
    -2
100
AcDbLine
 10
441.7265239695934
 20
1143.862935140263
 30
0.0
 11
441.7265239695934
 21
1068.862935140263
 31
0.0
  0
INSERT
  5
B290
330
7EE2
100
AcDbEntity
  8
3
 62
     0
370
    -2
100
AcDbBlockReference
  2
_DOT
 10
441.7265239695934
 20
1143.862935140263
 30
0.0
 41
30.0
 42
30.0
 43
30.0
 50
270.0
  0
INSERT
  5
B291
330
7EE2
100
AcDbEntity
  8
3
 62
     0
370
    -2
100
AcDbBlockReference
  2
_OPEN
 10
441.7265239695934
 20
1068.862935140263
 30
0.0
 41
30.0
 42
30.0
 43
30.0
 50
90.0
  0
MTEXT
  5
B292
330
7EE2
100
AcDbEntity
  8
3
 62
     0
100
AcDbMText
 10
404.2265239695932
 20
957.4343637116921
 30
0.0
 40
45.0
 41
0.0
 71
     5
 72
     1
  1
\A1;75
 11
0.0000000000000001
 21
1.0
 31
0.0
 73
     1
 44
1.0
1001
ACAD
1000
MTEXTBEGIN
1070
    73
1070
     1
1070
    44
1040
1.0
1070
    74
1070
     0
1000
MTEXTEND
  0
POINT
  5
B293
330
7EE2
100
AcDbEntity
  8
DEFPOINTS
 62
     0
100
AcDbPoint
 10
719.3308910059918
 20
1143.862935140263
 30
0.0
  0
POINT
  5
B294
330
7EE2
100
AcDbEntity
  8
DEFPOINTS
 62
     0
100
AcDbPoint
 10
719.3308910059918
 20
1068.862935140263
 30
0.0
  0
POINT
  5
B295
330
7EE2
100
AcDbEntity
  8
DEFPOINTS
 62
     0
100
AcDbPoint
 10
441.7265239695934
 20
1068.862935140263
 30
0.0
  0
ENDBLK
  5
83E3
330
7EE2
100
AcDbEntity
  8
0
100
AcDbBlockEnd
  0
BLOCK
  5
8273
330
7EFE
100
AcDbEntity
  8
0
100
AcDbBlockBegin
  2
*D7
 70
     1
 10
0.0
 20
0.0
 30
0.0
  3
*D7
  1

  0
LINE
  5
B296
330
7EFE
100
AcDbEntity
  8
3
 62
     0
370
    -2
100
AcDbLine
 10
654.3308910059913
 20
1938.974104815308
 30
0.0
 11
654.3308910059913
 21
2003.849061965471
 31
0.0
  0
LINE
  5
B297
330
7EFE
100
AcDbEntity
  8
3
 62
     0
370
    -2
100
AcDbLine
 10
899.3308910059914
 20
1945.447322256887
 30
0.0
 11
899.3308910059914
 21
2003.849061965471
 31
0.0
  0
LINE
  5
B298
330
7EFE
100
AcDbEntity
  8
3
 62
     0
370
    -2
100
AcDbLine
 10
684.3308910059914
 20
1988.849061965471
 30
0.0
 11
869.3308910059913
 21
1988.849061965471
 31
0.0
  0
INSERT
  5
B299
330
7EFE
100
AcDbEntity
  8
3
 62
     0
370
    -2
100
AcDbBlockReference
  2
_OPEN
 10
654.3308910059913
 20
1988.849061965471
 30
0.0
 41
30.0
 42
30.0
 43
30.0
 50
180.0
  0
INSERT
  5
B29A
330
7EFE
100
AcDbEntity
  8
3
 62
     0
370
    -2
100
AcDbBlockReference
  2
_OPEN
 10
899.3308910059914
 20
1988.849061965471
 30
0.0
 41
30.0
 42
30.0
 43
30.0
  0
MTEXT
  5
B29B
330
7EFE
100
AcDbEntity
  8
3
 62
     0
100
AcDbMText
 10
776.8308910059913
 20
2026.349061965472
 30
0.0
 40
45.0
 41
0.0
 71
     5
 72
     1
  1
\A1;245
 73
     1
 44
1.0
1001
ACAD
1000
MTEXTBEGIN
1070
    73
1070
     1
1070
    44
1040
1.0
1070
    74
1070
     0
1000
MTEXTEND
  0
POINT
  5
B29C
330
7EFE
100
AcDbEntity
  8
DEFPOINTS
 62
     0
100
AcDbPoint
 10
654.3308910059913
 20
1931.474104815308
 30
0.0
  0
POINT
  5
B29D
330
7EFE
100
AcDbEntity
  8
DEFPOINTS
 62
     0
100
AcDbPoint
 10
899.3308910059914
 20
1937.947322256887
 30
0.0
  0
POINT
  5
B29E
330
7EFE
100
AcDbEntity
  8
DEFPOINTS
 62
     0
100
AcDbPoint
 10
899.3308910059914
 20
1988.849061965471
 30
0.0
  0
ENDBLK
  5
827D
330
7EFE
100
AcDbEntity
  8
0
100
AcDbBlockEnd
  0
BLOCK
  5
8268
330
7F0A
100
AcDbEntity
  8
0
100
AcDbBlockBegin
  2
*D8
 70
     1
 10
0.0
 20
0.0
 30
0.0
  3
*D8
  1

  0
LINE
  5
B29F
330
7F0A
100
AcDbEntity
  8
3
 62
     0
370
    -2
100
AcDbLine
 10
646.8308910059914
 20
1904.862935140263
 30
0.0
 11
426.7265239695935
 21
1904.862935140263
 31
0.0
  0
LINE
  5
B2A0
330
7F0A
100
AcDbEntity
  8
3
 62
     0
370
    -2
100
AcDbLine
 10
635.3707646555058
 20
1553.862935140263
 30
0.0
 11
426.7265239695935
 21
1553.862935140263
 31
0.0
  0
LINE
  5
B2A1
330
7F0A
100
AcDbEntity
  8
3
 62
     0
370
    -2
100
AcDbLine
 10
441.7265239695935
 20
1874.862935140263
 30
0.0
 11
441.7265239695934
 21
1583.862935140263
 31
0.0
  0
INSERT
  5
B2A2
330
7F0A
100
AcDbEntity
  8
3
 62
     0
370
    -2
100
AcDbBlockReference
  2
_OPEN
 10
441.7265239695935
 20
1904.862935140263
 30
0.0
 41
30.0
 42
30.0
 43
30.0
 50
90.0
  0
INSERT
  5
B2A3
330
7F0A
100
AcDbEntity
  8
3
 62
     0
370
    -2
100
AcDbBlockReference
  2
_OPEN
 10
441.7265239695934
 20
1553.862935140263
 30
0.0
 41
30.0
 42
30.0
 43
30.0
 50
270.0
  0
MTEXT
  5
B2A4
330
7F0A
100
AcDbEntity
  8
3
 62
     0
100
AcDbMText
 10
404.2265239695932
 20
1729.362935140263
 30
0.0
 40
45.0
 41
0.0
 71
     5
 72
     1
  1
\A1;351
 11
0.0000000000000001
 21
1.0
 31
0.0
 73
     1
 44
1.0
1001
ACAD
1000
MTEXTBEGIN
1070
    73
1070
     1
1070
    44
1040
1.0
1070
    74
1070
     0
1000
MTEXTEND
  0
POINT
  5
B2A5
330
7F0A
100
AcDbEntity
  8
DEFPOINTS
 62
     0
100
AcDbPoint
 10
654.3308910059913
 20
1904.862935140263
 30
0.0
  0
POINT
  5
B2A6
330
7F0A
100
AcDbEntity
  8
DEFPOINTS
 62
     0
100
AcDbPoint
 10
642.8707646555058
 20
1553.862935140263
 30
0.0
  0
POINT
  5
B2A7
330
7F0A
100
AcDbEntity
  8
DEFPOINTS
 62
     0
100
AcDbPoint
 10
441.7265239695934
 20
1553.862935140263
 30
0.0
  0
ENDBLK
  5
8272
330
7F0A
100
AcDbEntity
  8
0
100
AcDbBlockEnd
  0
BLOCK
  5
825D
330
7F16
100
AcDbEntity
  8
0
100
AcDbBlockBegin
  2
*D9
 70
     1
 10
0.0
 20
0.0
 30
0.0
  3
*D9
  1

  0
LINE
  5
B2A8
330
7F16
100
AcDbEntity
  8
3
 62
     0
370
    -2
100
AcDbLine
 10
646.8308910059914
 20
1904.862935140263
 30
0.0
 11
527.2360541018807
 21
1904.862935140263
 31
0.0
  0
LINE
  5
B2A9
330
7F16
100
AcDbEntity
  8
3
 62
     0
370
    -2
100
AcDbLine
 10
646.8308910059914
 20
1579.862935140263
 30
0.0
 11
527.2360541018806
 21
1579.862935140263
 31
0.0
  0
LINE
  5
B2AA
330
7F16
100
AcDbEntity
  8
3
 62
     0
370
    -2
100
AcDbLine
 10
542.2360541018807
 20
1874.862935140263
 30
0.0
 11
542.2360541018806
 21
1609.862935140263
 31
0.0
  0
INSERT
  5
B2AB
330
7F16
100
AcDbEntity
  8
3
 62
     0
370
    -2
100
AcDbBlockReference
  2
_OPEN
 10
542.2360541018807
 20
1904.862935140263
 30
0.0
 41
30.0
 42
30.0
 43
30.0
 50
90.0
  0
INSERT
  5
B2AC
330
7F16
100
AcDbEntity
  8
3
 62
     0
370
    -2
100
AcDbBlockReference
  2
_OPEN
 10
542.2360541018806
 20
1579.862935140263
 30
0.0
 41
30.0
 42
30.0
 43
30.0
 50
270.0
  0
MTEXT
  5
B2AD
330
7F16
100
AcDbEntity
  8
3
 62
     0
100
AcDbMText
 10
504.7360541018804
 20
1742.362935140263
 30
0.0
 40
45.0
 41
0.0
 71
     5
 72
     1
  1
\A1;325
 11
0.0000000000000001
 21
1.0
 31
0.0
 73
     1
 44
1.0
1001
ACAD
1000
MTEXTBEGIN
1070
    73
1070
     1
1070
    44
1040
1.0
1070
    74
1070
     0
1000
MTEXTEND
  0
POINT
  5
B2AE
330
7F16
100
AcDbEntity
  8
DEFPOINTS
 62
     0
100
AcDbPoint
 10
654.3308910059913
 20
1904.862935140263
 30
0.0
  0
POINT
  5
B2AF
330
7F16
100
AcDbEntity
  8
DEFPOINTS
 62
     0
100
AcDbPoint
 10
654.3308910059913
 20
1579.862935140263
 30
0.0
  0
POINT
  5
B2B0
330
7F16
100
AcDbEntity
  8
DEFPOINTS
 62
     0
100
AcDbPoint
 10
542.2360541018806
 20
1579.862935140263
 30
0.0
  0
ENDBLK
  5
8267
330
7F16
100
AcDbEntity
  8
0
100
AcDbBlockEnd
  0
BLOCK
  5
8359
330
7F39
100
AcDbEntity
  8
0
100
AcDbBlockBegin
  2
*D10
 70
     1
 10
0.0
 20
0.0
 30
0.0
  3
*D10
  1

  0
LINE
  5
B2B1
330
7F39
100
AcDbEntity
  8
3
 62
     0
370
    -2
100
AcDbLine
 10
2740.43139905458
 20
1711.362935140263
 30
0.0
 11
2875.111370597068
 21
1711.362935140263
 31
0.0
  0
LINE
  5
B2B2
330
7F39
100
AcDbEntity
  8
3
 62
     0
370
    -2
100
AcDbLine
 10
2740.43139905458
 20
1396.362935140263
 30
0.0
 11
2875.111370597068
 21
1396.362935140263
 31
0.0
  0
LINE
  5
B2B3
330
7F39
100
AcDbEntity
  8
3
 62
     0
370
    -2
100
AcDbLine
 10
2860.111370597067
 20
1681.362935140263
 30
0.0
 11
2860.111370597067
 21
1426.362935140263
 31
0.0
  0
INSERT
  5
B2B4
330
7F39
100
AcDbEntity
  8
3
 62
     0
370
    -2
100
AcDbBlockReference
  2
_OPEN
 10
2860.111370597067
 20
1711.362935140263
 30
0.0
 41
30.0
 42
30.0
 43
30.0
 50
90.0
  0
INSERT
  5
B2B5
330
7F39
100
AcDbEntity
  8
3
 62
     0
370
    -2
100
AcDbBlockReference
  2
_OPEN
 10
2860.111370597067
 20
1396.362935140263
 30
0.0
 41
30.0
 42
30.0
 43
30.0
 50
270.0
  0
MTEXT
  5
B2B6
330
7F39
100
AcDbEntity
  8
3
 62
     0
100
AcDbMText
 10
2822.611370597067
 20
1553.862935140263
 30
0.0
 40
45.0
 41
0.0
 71
     5
 72
     1
  1
\A1;\U+03C6315
 11
0.0000000000000001
 21
1.0
 31
0.0
 73
     1
 44
1.0
1001
ACAD
1000
MTEXTBEGIN
1070
    73
1070
     1
1070
    44
1040
1.0
1070
    74
1070
     0
1000
MTEXTEND
  0
POINT
  5
B2B7
330
7F39
100
AcDbEntity
  8
DEFPOINTS
 62
     0
100
AcDbPoint
 10
2732.93139905458
 20
1711.362935140263
 30
0.0
  0
POINT
  5
B2B8
330
7F39
100
AcDbEntity
  8
DEFPOINTS
 62
     0
100
AcDbPoint
 10
2732.93139905458
 20
1396.362935140263
 30
0.0
  0
POINT
  5
B2B9
330
7F39
100
AcDbEntity
  8
DEFPOINTS
 62
     0
100
AcDbPoint
 10
2860.111370597067
 20
1396.362935140263
 30
0.0
  0
ENDBLK
  5
8363
330
7F39
100
AcDbEntity
  8
0
100
AcDbBlockEnd
  0
BLOCK
  5
8364
330
7F53
100
AcDbEntity
  8
0
100
AcDbBlockBegin
  2
*D11
 70
     1
 10
0.0
 20
0.0
 30
0.0
  3
*D11
  1

  0
LINE
  5
B2BA
330
7F53
100
AcDbEntity
  8
3
 62
     0
370
    -2
100
AcDbLine
 10
2586.93139905458
 20
2045.360211222928
 30
0.0
 11
2586.93139905458
 21
2095.472829381916
 31
0.0
  0
LINE
  5
B2BB
330
7F53
100
AcDbEntity
  8
3
 62
     0
370
    -2
100
AcDbLine
 10
2707.93139905458
 20
1558.974104815307
 30
0.0
 11
2707.93139905458
 21
2095.472829381916
 31
0.0
  0
LINE
  5
B2BC
330
7F53
100
AcDbEntity
  8
3
 62
     0
370
    -2
100
AcDbLine
 10
2616.93139905458
 20
2080.472829381916
 30
0.0
 11
2677.93139905458
 21
2080.472829381916
 31
0.0
  0
MTEXT
  5
B2BD
330
7F53
100
AcDbEntity
  8
3
 62
     0
100
AcDbMText
 10
2647.43139905458
 20
2121.266571123874
 30
0.0
 40
45.0
 41
0.0
 71
     5
 72
     1
  1
\A1;121
 73
     1
 44
1.0
1001
ACAD
1000
MTEXTBEGIN
1070
    73
1070
     1
1070
    44
1040
1.0
1070
    74
1070
     0
1000
MTEXTEND
  0
INSERT
  5
B2BE
330
7F53
100
AcDbEntity
  8
3
 62
     0
370
    -2
100
AcDbBlockReference
  2
_OPEN
 10
2586.93139905458
 20
2080.472829381916
 30
0.0
 41
30.0
 42
30.0
 43
30.0
 50
180.0
  0
INSERT
  5
B2BF
330
7F53
100
AcDbEntity
  8
3
 62
     0
370
    -2
100
AcDbBlockReference
  2
_OPEN
 10
2707.93139905458
 20
2080.472829381916
 30
0.0
 41
30.0
 42
30.0
 43
30.0
  0
POINT
  5
B2C0
330
7F53
100
AcDbEntity
  8
DEFPOINTS
 62
     0
100
AcDbPoint
 10
2586.93139905458
 20
2037.860211222928
 30
0.0
  0
POINT
  5
B2C1
330
7F53
100
AcDbEntity
  8
DEFPOINTS
 62
     0
100
AcDbPoint
 10
2707.93139905458
 20
1551.474104815307
 30
0.0
  0
POINT
  5
B2C2
330
7F53
100
AcDbEntity
  8
DEFPOINTS
 62
     0
100
AcDbPoint
 10
2707.93139905458
 20
2080.472829381916
 30
0.0
  0
ENDBLK
  5
836E
330
7F53
100
AcDbEntity
  8
0
100
AcDbBlockEnd
  0
BLOCK
  5
8217
330
7F61
100
AcDbEntity
  8
0
100
AcDbBlockBegin
  2
*D12
 70
     1
 10
0.0
 20
0.0
 30
0.0
  3
*D12
  1

  0
LINE
  5
B2C3
330
7F61
100
AcDbEntity
  8
3
 62
     0
370
    -2
100
AcDbLine
 10
2468.93139905458
 20
1913.974104815308
 30
0.0
 11
2468.93139905458
 21
1986.950080773375
 31
0.0
  0
LINE
  5
B2C4
330
7F61
100
AcDbEntity
  8
3
 62
     0
370
    -2
100
AcDbLine
 10
2704.93139905458
 20
1913.974104815308
 30
0.0
 11
2704.93139905458
 21
1986.950080773375
 31
0.0
  0
LINE
  5
B2C5
330
7F61
100
AcDbEntity
  8
3
 62
     0
370
    -2
100
AcDbLine
 10
2498.93139905458
 20
1971.950080773375
 30
0.0
 11
2674.93139905458
 21
1971.950080773375
 31
0.0
  0
INSERT
  5
B2C6
330
7F61
100
AcDbEntity
  8
3
 62
     0
370
    -2
100
AcDbBlockReference
  2
_OPEN
 10
2468.93139905458
 20
1971.950080773375
 30
0.0
 41
30.0
 42
30.0
 43
30.0
 50
180.0
  0
INSERT
  5
B2C7
330
7F61
100
AcDbEntity
  8
3
 62
     0
370
    -2
100
AcDbBlockReference
  2
_OPEN
 10
2704.93139905458
 20
1971.950080773375
 30
0.0
 41
30.0
 42
30.0
 43
30.0
  0
MTEXT
  5
B2C8
330
7F61
100
AcDbEntity
  8
3
 62
     0
100
AcDbMText
 10
2586.93139905458
 20
2009.450080773375
 30
0.0
 40
45.0
 41
0.0
 71
     5
 72
     1
  1
\A1;236
 73
     1
 44
1.0
1001
ACAD
1000
MTEXTBEGIN
1070
    73
1070
     1
1070
    44
1040
1.0
1070
    74
1070
     0
1000
MTEXTEND
  0
POINT
  5
B2C9
330
7F61
100
AcDbEntity
  8
DEFPOINTS
 62
     0
100
AcDbPoint
 10
2468.93139905458
 20
1906.474104815307
 30
0.0
  0
POINT
  5
B2CA
330
7F61
100
AcDbEntity
  8
DEFPOINTS
 62
     0
100
AcDbPoint
 10
2704.93139905458
 20
1906.474104815307
 30
0.0
  0
POINT
  5
B2CB
330
7F61
100
AcDbEntity
  8
DEFPOINTS
 62
     0
100
AcDbPoint
 10
2704.93139905458
 20
1971.950080773375
 30
0.0
  0
ENDBLK
  5
8221
330
7F61
100
AcDbEntity
  8
0
100
AcDbBlockEnd
  0
BLOCK
  5
8116
330
8115
100
AcDbEntity
  8
0
100
AcDbBlockBegin
  2
_DOT
 70
     0
 10
0.0
 20
0.0
 30
0.0
  3
_DOT
  1

  0
LINE
  5
812A
330
8115
100
AcDbEntity
  8
0
  6
ByBlock
 62
     0
100
AcDbLine
 10
0.0
 20
0.0
 30
0.0
 11
-1.0
 21
-0.0000000000000284
 31
0.0
  0
LWPOLYLINE
  5
812B
330
8115
100
AcDbEntity
  8
0
  6
ByBlock
 62
     0
100
AcDbPolyline
 90
        2
 70
     1
 43
0.1666666666666666
 10
-0.0833333333333286
 20
-0.0000000000000284
 42
1.0
 10
0.0833333333333286
 20
-0.0000000000000284
 42
1.0
  0
ENDBLK
  5
811C
330
8115
100
AcDbEntity
  8
0
100
AcDbBlockEnd
  0
BLOCK
  5
820C
330
81FB
100
AcDbEntity
  8
0
100
AcDbBlockBegin
  2
*D14
 70
     1
 10
0.0
 20
0.0
 30
0.0
  3
*D14
  1

  0
LINE
  5
B2CC
330
81FB
100
AcDbEntity
  8
3
 62
     0
370
    -2
100
AcDbLine
 10
654.3308910059913
 20
1938.974104815308
 30
0.0
 11
654.3308910059913
 21
2095.466099657306
 31
0.0
  0
LINE
  5
B2CD
330
81FB
100
AcDbEntity
  8
3
 62
     0
370
    -2
100
AcDbLine
 10
1519.330891005991
 20
1321.362935140263
 30
0.0
 11
1519.330891005991
 21
2095.466099657306
 31
0.0
  0
LINE
  5
B2CE
330
81FB
100
AcDbEntity
  8
3
 62
     0
370
    -2
100
AcDbLine
 10
684.3308910059914
 20
2080.466099657305
 30
0.0
 11
1489.330891005991
 21
2080.466099657305
 31
0.0
  0
INSERT
  5
B2CF
330
81FB
100
AcDbEntity
  8
3
 62
     0
370
    -2
100
AcDbBlockReference
  2
_OPEN
 10
654.3308910059913
 20
2080.466099657305
 30
0.0
 41
30.0
 42
30.0
 43
30.0
 50
180.0
  0
INSERT
  5
B2D0
330
81FB
100
AcDbEntity
  8
3
 62
     0
370
    -2
100
AcDbBlockReference
  2
_OPEN
 10
1519.330891005991
 20
2080.466099657305
 30
0.0
 41
30.0
 42
30.0
 43
30.0
  0
MTEXT
  5
B2D1
330
81FB
100
AcDbEntity
  8
3
 62
     0
100
AcDbMText
 10
1107.367493623549
 20
2117.966099657305
 30
0.0
 40
45.0
 41
0.0
 71
     5
 72
     1
  1
\A1;865
 73
     1
 44
1.0
1001
ACAD
1000
MTEXTBEGIN
1070
    73
1070
     1
1070
    44
1040
1.0
1070
    74
1070
     0
1000
MTEXTEND
  0
POINT
  5
B2D2
330
81FB
100
AcDbEntity
  8
DEFPOINTS
 62
     0
100
AcDbPoint
 10
654.3308910059913
 20
1931.474104815308
 30
0.0
  0
POINT
  5
B2D3
330
81FB
100
AcDbEntity
  8
DEFPOINTS
 62
     0
100
AcDbPoint
 10
1519.330891005991
 20
1313.862935140263
 30
0.0
  0
POINT
  5
B2D4
330
81FB
100
AcDbEntity
  8
DEFPOINTS
 62
     0
100
AcDbPoint
 10
1519.330891005991
 20
2080.466099657305
 30
0.0
  0
ENDBLK
  5
8216
330
81FB
100
AcDbEntity
  8
0
100
AcDbBlockEnd
  0
BLOCK
  5
840F
330
83F3
100
AcDbEntity
  8
0
100
AcDbBlockBegin
  2
*D15
 70
     1
 10
0.0
 20
0.0
 30
0.0
  3
*D15
  1

  0
LINE
  5
B2D5
330
83F3
100
AcDbEntity
  8
3
 62
     0
370
    -2
100
AcDbLine
 10
711.8308910059917
 20
1143.862935140263
 30
0.0
 11
426.7265239695935
 21
1143.862935140263
 31
0.0
  0
LINE
  5
B2D6
330
83F3
100
AcDbEntity
  8
3
 62
     0
370
    -2
100
AcDbLine
 10
441.7265239695935
 20
1208.862935140263
 30
0.0
 11
441.7265239695934
 21
1143.862935140263
 31
0.0
  0
MTEXT
  5
B2D7
330
83F3
100
AcDbEntity
  8
3
 62
     0
100
AcDbMText
 10
382.9969694824176
 20
1176.362935140263
 30
0.0
 40
45.0
 41
0.0
 71
     5
 72
     1
  1
\A1;(95)
 11
0.0000000000000001
 21
1.0
 31
0.0
 73
     1
 44
1.0
1001
ACAD
1000
MTEXTBEGIN
1070
    73
1070
     1
1070
    44
1040
1.0
1070
    74
1070
     0
1000
MTEXTEND
  0
INSERT
  5
B2D8
330
83F3
100
AcDbEntity
  8
3
 62
     0
370
    -2
100
AcDbBlockReference
  2
_OPEN
 10
441.7265239695935
 20
1238.862935140263
 30
0.0
 41
30.0
 42
30.0
 43
30.0
 50
90.0
  0
INSERT
  5
B2D9
330
83F3
100
AcDbEntity
  8
3
 62
     0
370
    -2
100
AcDbBlockReference
  2
_DotSmall
 10
441.7265239695934
 20
1143.862935140263
 30
0.0
 41
30.0
 42
30.0
 43
30.0
 50
270.0
  0
POINT
  5
B2DA
330
83F3
100
AcDbEntity
  8
DEFPOINTS
 62
     0
100
AcDbPoint
 10
719.3308910059913
 20
1238.862935140263
 30
0.0
  0
POINT
  5
B2DB
330
83F3
100
AcDbEntity
  8
DEFPOINTS
 62
     0
100
AcDbPoint
 10
719.3308910059918
 20
1143.862935140263
 30
0.0
  0
POINT
  5
B2DC
330
83F3
100
AcDbEntity
  8
DEFPOINTS
 62
     0
100
AcDbPoint
 10
441.7265239695934
 20
1143.862935140263
 30
0.0
  0
ENDBLK
  5
8416
330
83F3
100
AcDbEntity
  8
0
100
AcDbBlockEnd
  0
BLOCK
  5
84AC
330
84AB
100
AcDbEntity
  8
0
100
AcDbBlockBegin
  2
*D16
 70
     1
 10
0.0
 20
0.0
 30
0.0
  3
*D16
  1

  0
LINE
  5
84AD
330
84AB
100
AcDbEntity
  8
3
 62
     0
370
    -2
100
AcDbLine
 10
1361.902951880732
 20
2456.088071393662
 30
0.0
 11
1361.902951880732
 21
2194.402468367165
 31
0.0
  0
LINE
  5
84AE
330
84AB
100
AcDbEntity
  8
3
 62
     0
370
    -2
100
AcDbLine
 10
561.9029518807321
 20
2475.088071393663
 30
0.0
 11
561.9029518807321
 21
2194.402468367165
 31
0.0
  0
LINE
  5
84AF
330
84AB
100
AcDbEntity
  8
3
 62
     0
370
    -2
100
AcDbLine
 10
1331.902951880732
 20
2209.402468367165
 30
0.0
 11
591.9029518807321
 21
2209.402468367165
 31
0.0
  0
INSERT
  5
84B0
330
84AB
100
AcDbEntity
  8
3
 62
     0
370
    -2
100
AcDbBlockReference
  2
_OPEN
 10
1361.902951880732
 20
2209.402468367165
 30
0.0
 41
30.0
 42
30.0
 43
30.0
  0
INSERT
  5
84B1
330
84AB
100
AcDbEntity
  8
3
 62
     0
370
    -2
100
AcDbBlockReference
  2
_OPEN
 10
561.9029518807321
 20
2209.402468367165
 30
0.0
 41
30.0
 42
30.0
 43
30.0
 50
180.0
  0
MTEXT
  5
84B2
330
84AB
100
AcDbEntity
  8
3
 62
     0
100
AcDbMText
 10
961.9029518807321
 20
2246.902468367165
 30
0.0
 40
45.0
 41
0.0
 71
     5
 72
     1
  1
\A1;800
 73
     1
 44
1.0
1001
ACAD
1000
MTEXTBEGIN
1070
    73
1070
     1
1070
    44
1040
1.0
1070
    74
1070
     0
1000
MTEXTEND
  0
POINT
  5
84B3
330
84AB
100
AcDbEntity
  8
DEFPOINTS
 62
     0
100
AcDbPoint
 10
1361.902951880732
 20
2463.588071393662
 30
0.0
  0
POINT
  5
84B4
330
84AB
100
AcDbEntity
  8
DEFPOINTS
 62
     0
100
AcDbPoint
 10
561.9029518807321
 20
2482.588071393663
 30
0.0
  0
POINT
  5
84B5
330
84AB
100
AcDbEntity
  8
DEFPOINTS
 62
     0
100
AcDbPoint
 10
561.9029518807321
 20
2209.402468367165
 30
0.0
  0
ENDBLK
  5
84B6
330
84AB
100
AcDbEntity
  8
0
100
AcDbBlockEnd
  0
BLOCK
  5
84B8
330
84B7
100
AcDbEntity
  8
0
100
AcDbBlockBegin
  2
*D17
 70
     1
 10
0.0
 20
0.0
 30
0.0
  3
*D17
  1

  0
LINE
  5
84B9
330
84B7
100
AcDbEntity
  8
3
 62
     0
370
    -2
100
AcDbLine
 10
1369.402951880732
 20
2463.588071393662
 30
0.0
 11
1739.348134099724
 21
2463.588071393662
 31
0.0
  0
LINE
  5
84BA
330
84B7
100
AcDbEntity
  8
3
 62
     0
370
    -2
100
AcDbLine
 10
1369.402951880733
 20
3243.588071393663
 30
0.0
 11
1739.348134099724
 21
3243.588071393663
 31
0.0
  0
LINE
  5
84BB
330
84B7
100
AcDbEntity
  8
3
 62
     0
370
    -2
100
AcDbLine
 10
1724.348134099724
 20
2493.588071393662
 30
0.0
 11
1724.348134099724
 21
3213.588071393663
 31
0.0
  0
INSERT
  5
84BC
330
84B7
100
AcDbEntity
  8
3
 62
     0
370
    -2
100
AcDbBlockReference
  2
_OPEN
 10
1724.348134099724
 20
2463.588071393662
 30
0.0
 41
30.0
 42
30.0
 43
30.0
 50
270.0
  0
INSERT
  5
84BD
330
84B7
100
AcDbEntity
  8
3
 62
     0
370
    -2
100
AcDbBlockReference
  2
_OPEN
 10
1724.348134099724
 20
3243.588071393663
 30
0.0
 41
30.0
 42
30.0
 43
30.0
 50
90.0
  0
MTEXT
  5
84BE
330
84B7
100
AcDbEntity
  8
3
 62
     0
100
AcDbMText
 10
1686.848134099724
 20
2853.588071393663
 30
0.0
 40
45.0
 41
0.0
 71
     5
 72
     1
  1
\A1;780
 11
0.0000000000000001
 21
1.0
 31
0.0
 73
     1
 44
1.0
1001
ACAD
1000
MTEXTBEGIN
1070
    73
1070
     1
1070
    44
1040
1.0
1070
    74
1070
     0
1000
MTEXTEND
  0
POINT
  5
84BF
330
84B7
100
AcDbEntity
  8
DEFPOINTS
 62
     0
100
AcDbPoint
 10
1361.902951880732
 20
2463.588071393662
 30
0.0
  0
POINT
  5
84C0
330
84B7
100
AcDbEntity
  8
DEFPOINTS
 62
     0
100
AcDbPoint
 10
1361.902951880733
 20
3243.588071393663
 30
0.0
  0
POINT
  5
84C1
330
84B7
100
AcDbEntity
  8
DEFPOINTS
 62
     0
100
AcDbPoint
 10
1724.348134099724
 20
3243.588071393663
 30
0.0
  0
ENDBLK
  5
84C2
330
84B7
100
AcDbEntity
  8
0
100
AcDbBlockEnd
  0
BLOCK
  5
84C4
330
84C3
100
AcDbEntity
  8
0
100
AcDbBlockBegin
  2
*D18
 70
     1
 10
0.0
 20
0.0
 30
0.0
  3
*D18
  1

  0
LINE
  5
84C5
330
84C3
100
AcDbEntity
  8
3
 62
     0
370
    -2
100
AcDbLine
 10
554.4029518807328
 20
2463.588071393662
 30
0.0
 11
248.0712777469852
 21
2463.588071393662
 31
0.0
  0
LINE
  5
84C6
330
84C3
100
AcDbEntity
  8
3
 62
     0
370
    -2
100
AcDbLine
 10
554.402951880731
 20
2843.588071393663
 30
0.0
 11
248.0712777469853
 21
2843.588071393663
 31
0.0
  0
LINE
  5
84C7
330
84C3
100
AcDbEntity
  8
3
 62
     0
370
    -2
100
AcDbLine
 10
263.0712777469852
 20
2493.588071393662
 30
0.0
 11
263.0712777469853
 21
2813.588071393663
 31
0.0
  0
INSERT
  5
84C8
330
84C3
100
AcDbEntity
  8
3
 62
     0
370
    -2
100
AcDbBlockReference
  2
_OPEN
 10
263.0712777469852
 20
2463.588071393662
 30
0.0
 41
30.0
 42
30.0
 43
30.0
 50
270.0
  0
INSERT
  5
84C9
330
84C3
100
AcDbEntity
  8
3
 62
     0
370
    -2
100
AcDbBlockReference
  2
_OPEN
 10
263.0712777469853
 20
2843.588071393663
 30
0.0
 41
30.0
 42
30.0
 43
30.0
 50
90.0
  0
MTEXT
  5
84CA
330
84C3
100
AcDbEntity
  8
3
 62
     0
100
AcDbMText
 10
225.5712777469848
 20
2653.588071393662
 30
0.0
 40
45.0
 41
0.0
 71
     5
 72
     1
  1
\A1;380
 11
0.0000000000000001
 21
1.0
 31
0.0
 73
     1
 44
1.0
1001
ACAD
1000
MTEXTBEGIN
1070
    73
1070
     1
1070
    44
1040
1.0
1070
    74
1070
     0
1000
MTEXTEND
  0
POINT
  5
84CB
330
84C3
100
AcDbEntity
  8
DEFPOINTS
 62
     0
100
AcDbPoint
 10
561.9029518807328
 20
2463.588071393662
 30
0.0
  0
POINT
  5
84CC
330
84C3
100
AcDbEntity
  8
DEFPOINTS
 62
     0
100
AcDbPoint
 10
561.902951880731
 20
2843.588071393663
 30
0.0
  0
POINT
  5
84CD
330
84C3
100
AcDbEntity
  8
DEFPOINTS
 62
     0
100
AcDbPoint
 10
263.0712777469853
 20
2843.588071393663
 30
0.0
  0
ENDBLK
  5
84CE
330
84C3
100
AcDbEntity
  8
0
100
AcDbBlockEnd
  0
BLOCK
  5
84D0
330
84CF
100
AcDbEntity
  8
0
100
AcDbBlockBegin
  2
*D19
 70
     1
 10
0.0
 20
0.0
 30
0.0
  3
*D19
  1

  0
LINE
  5
84D1
330
84CF
100
AcDbEntity
  8
3
 62
     0
370
    -2
100
AcDbLine
 10
1361.902951880733
 20
3251.088071393663
 30
0.0
 11
1361.902951880733
 21
3458.524805396722
 31
0.0
  0
LINE
  5
84D2
330
84CF
100
AcDbEntity
  8
3
 62
     0
370
    -2
100
AcDbLine
 10
1001.902951880733
 20
3251.088071393663
 30
0.0
 11
1001.902951880733
 21
3458.524805396722
 31
0.0
  0
LINE
  5
84D3
330
84CF
100
AcDbEntity
  8
3
 62
     0
370
    -2
100
AcDbLine
 10
1331.902951880733
 20
3443.524805396722
 30
0.0
 11
1031.902951880732
 21
3443.524805396722
 31
0.0
  0
INSERT
  5
84D4
330
84CF
100
AcDbEntity
  8
3
 62
     0
370
    -2
100
AcDbBlockReference
  2
_OPEN
 10
1361.902951880733
 20
3443.524805396722
 30
0.0
 41
30.0
 42
30.0
 43
30.0
  0
INSERT
  5
84D5
330
84CF
100
AcDbEntity
  8
3
 62
     0
370
    -2
100
AcDbBlockReference
  2
_OPEN
 10
1001.902951880733
 20
3443.524805396722
 30
0.0
 41
30.0
 42
30.0
 43
30.0
 50
180.0
  0
MTEXT
  5
84D6
330
84CF
100
AcDbEntity
  8
3
 62
     0
100
AcDbMText
 10
1181.902951880733
 20
3481.024805396721
 30
0.0
 40
45.0
 41
0.0
 71
     5
 72
     1
  1
\A1;360
 73
     1
 44
1.0
1001
ACAD
1000
MTEXTBEGIN
1070
    73
1070
     1
1070
    44
1040
1.0
1070
    74
1070
     0
1000
MTEXTEND
  0
POINT
  5
84D7
330
84CF
100
AcDbEntity
  8
DEFPOINTS
 62
     0
100
AcDbPoint
 10
1361.902951880733
 20
3243.588071393663
 30
0.0
  0
POINT
  5
84D8
330
84CF
100
AcDbEntity
  8
DEFPOINTS
 62
     0
100
AcDbPoint
 10
1001.902951880733
 20
3243.588071393663
 30
0.0
  0
POINT
  5
84D9
330
84CF
100
AcDbEntity
  8
DEFPOINTS
 62
     0
100
AcDbPoint
 10
1001.902951880733
 20
3443.524805396722
 30
0.0
  0
ENDBLK
  5
84DA
330
84CF
100
AcDbEntity
  8
0
100
AcDbBlockEnd
  0
BLOCK
  5
84DC
330
84DB
100
AcDbEntity
  8
0
100
AcDbBlockBegin
  2
*D20
 70
     1
 10
0.0
 20
0.0
 30
0.0
  3
*D20
  1

  0
LINE
  5
84DD
330
84DB
100
AcDbEntity
  8
3
 62
     0
370
    -2
100
AcDbLine
 10
1001.902951880733
 20
3251.088071393663
 30
0.0
 11
1001.902951880733
 21
3458.524805396722
 31
0.0
  0
LINE
  5
84DE
330
84DB
100
AcDbEntity
  8
3
 62
     0
370
    -2
100
AcDbLine
 10
561.902951880731
 20
2851.088071393663
 30
0.0
 11
561.902951880731
 21
3458.524805396722
 31
0.0
  0
LINE
  5
84DF
330
84DB
100
AcDbEntity
  8
3
 62
     0
370
    -2
100
AcDbLine
 10
971.9029518807328
 20
3443.524805396722
 30
0.0
 11
591.902951880731
 21
3443.524805396722
 31
0.0
  0
INSERT
  5
84E0
330
84DB
100
AcDbEntity
  8
3
 62
     0
370
    -2
100
AcDbBlockReference
  2
_OPEN
 10
1001.902951880733
 20
3443.524805396722
 30
0.0
 41
30.0
 42
30.0
 43
30.0
  0
INSERT
  5
84E1
330
84DB
100
AcDbEntity
  8
3
 62
     0
370
    -2
100
AcDbBlockReference
  2
_OPEN
 10
561.902951880731
 20
3443.524805396722
 30
0.0
 41
30.0
 42
30.0
 43
30.0
 50
180.0
  0
MTEXT
  5
84E2
330
84DB
100
AcDbEntity
  8
3
 62
     0
100
AcDbMText
 10
781.902951880732
 20
3481.024805396721
 30
0.0
 40
45.0
 41
0.0
 71
     5
 72
     1
  1
\A1;440
 73
     1
 44
1.0
1001
ACAD
1000
MTEXTBEGIN
1070
    73
1070
     1
1070
    44
1040
1.0
1070
    74
1070
     0
1000
MTEXTEND
  0
POINT
  5
84E3
330
84DB
100
AcDbEntity
  8
DEFPOINTS
 62
     0
100
AcDbPoint
 10
1001.902951880733
 20
3243.588071393663
 30
0.0
  0
POINT
  5
84E4
330
84DB
100
AcDbEntity
  8
DEFPOINTS
 62
     0
100
AcDbPoint
 10
561.902951880731
 20
2843.588071393663
 30
0.0
  0
POINT
  5
84E5
330
84DB
100
AcDbEntity
  8
DEFPOINTS
 62
     0
100
AcDbPoint
 10
561.902951880731
 20
3443.524805396722
 30
0.0
  0
ENDBLK
  5
84E6
330
84DB
100
AcDbEntity
  8
0
100
AcDbBlockEnd
  0
BLOCK
  5
84E8
330
84E7
100
AcDbEntity
  8
0
100
AcDbBlockBegin
  2
*D21
 70
     1
 10
0.0
 20
0.0
 30
0.0
  3
*D21
  1

  0
LINE
  5
84E9
330
84E7
100
AcDbEntity
  8
3
 62
     0
370
    -2
100
AcDbLine
 10
561.902951880731
 20
2851.088071393663
 30
0.0
 11
561.902951880731
 21
3025.447254894428
 31
0.0
  0
LINE
  5
84EA
330
84E7
100
AcDbEntity
  8
3
 62
     0
370
    -2
100
AcDbLine
 10
631.902951880731
 20
2851.088071393663
 30
0.0
 11
631.902951880731
 21
3025.447254894428
 31
0.0
  0
LINE
  5
84EB
330
84E7
100
AcDbEntity
  8
3
 62
     0
370
    -2
100
AcDbLine
 10
661.902951880731
 20
3010.447254894428
 30
0.0
 11
691.902951880731
 21
3010.447254894428
 31
0.0
  0
LINE
  5
84EC
330
84E7
100
AcDbEntity
  8
3
 62
     0
370
    -2
100
AcDbLine
 10
531.902951880731
 20
3010.447254894428
 30
0.0
 11
396.7320072133032
 21
3010.447254894428
 31
0.0
  0
LINE
  5
84ED
330
84E7
100
AcDbEntity
  8
3
 62
     0
370
    -2
100
AcDbLine
 10
631.902951880731
 20
3010.447254894428
 30
0.0
 11
561.902951880731
 21
3010.447254894428
 31
0.0
  0
INSERT
  5
84EE
330
84E7
100
AcDbEntity
  8
3
 62
     0
370
    -2
100
AcDbBlockReference
  2
_OPEN
 10
631.902951880731
 20
3010.447254894428
 30
0.0
 41
30.0
 42
30.0
 43
30.0
 50
180.0
  0
INSERT
  5
84EF
330
84E7
100
AcDbEntity
  8
3
 62
     0
370
    -2
100
AcDbBlockReference
  2
_OPEN
 10
561.902951880731
 20
3010.447254894428
 30
0.0
 41
30.0
 42
30.0
 43
30.0
  0
MTEXT
  5
84F0
330
84E7
100
AcDbEntity
  8
3
 62
     0
100
AcDbMText
 10
448.1605786418746
 20
3047.947254894428
 30
0.0
 40
45.0
 41
0.0
 71
     5
 72
     1
  1
\A1;70
 73
     1
 44
1.0
1001
ACAD
1000
MTEXTBEGIN
1070
    73
1070
     1
1070
    44
1040
1.0
1070
    74
1070
     0
1000
MTEXTEND
  0
POINT
  5
84F1
330
84E7
100
AcDbEntity
  8
DEFPOINTS
 62
     0
100
AcDbPoint
 10
561.902951880731
 20
2843.588071393663
 30
0.0
  0
POINT
  5
84F2
330
84E7
100
AcDbEntity
  8
DEFPOINTS
 62
     0
100
AcDbPoint
 10
631.902951880731
 20
2843.588071393663
 30
0.0
  0
POINT
  5
84F3
330
84E7
100
AcDbEntity
  8
DEFPOINTS
 62
     0
100
AcDbPoint
 10
631.902951880731
 20
3010.447254894428
 30
0.0
  0
ENDBLK
  5
84F4
330
84E7
100
AcDbEntity
  8
0
100
AcDbBlockEnd
  0
BLOCK
  5
84F6
330
84F5
100
AcDbEntity
  8
0
100
AcDbBlockBegin
  2
*D22
 70
     1
 10
0.0
 20
0.0
 30
0.0
  3
*D22
  1

  0
LINE
  5
84F7
330
84F5
100
AcDbEntity
  8
3
 62
     0
370
    -2
100
AcDbLine
 10
1001.902951880733
 20
3251.088071393663
 30
0.0
 11
1001.902951880733
 21
3359.763001973043
 31
0.0
  0
LINE
  5
84F8
330
84F5
100
AcDbEntity
  8
3
 62
     0
370
    -2
100
AcDbLine
 10
1019.902951880733
 20
3198.46467238436
 30
0.0
 11
1019.902951880733
 21
3359.763001973043
 31
0.0
  0
LINE
  5
84F9
330
84F5
100
AcDbEntity
  8
3
 62
     0
370
    -2
100
AcDbLine
 10
1049.902951880733
 20
3344.763001973042
 30
0.0
 11
1079.902951880733
 21
3344.763001973042
 31
0.0
  0
LINE
  5
84FA
330
84F5
100
AcDbEntity
  8
3
 62
     0
370
    -2
100
AcDbLine
 10
971.9029518807328
 20
3344.763001973042
 30
0.0
 11
847.6172375950186
 21
3344.763001973042
 31
0.0
  0
LINE
  5
84FB
330
84F5
100
AcDbEntity
  8
3
 62
     0
370
    -2
100
AcDbLine
 10
1019.902951880733
 20
3344.763001973042
 30
0.0
 11
1001.902951880733
 21
3344.763001973042
 31
0.0
  0
INSERT
  5
84FC
330
84F5
100
AcDbEntity
  8
3
 62
     0
370
    -2
100
AcDbBlockReference
  2
_OPEN
 10
1019.902951880733
 20
3344.763001973042
 30
0.0
 41
30.0
 42
30.0
 43
30.0
 50
180.0
  0
INSERT
  5
84FD
330
84F5
100
AcDbEntity
  8
3
 62
     0
370
    -2
100
AcDbBlockReference
  2
_OPEN
 10
1001.902951880733
 20
3344.763001973042
 30
0.0
 41
30.0
 42
30.0
 43
30.0
  0
MTEXT
  5
84FE
330
84F5
100
AcDbEntity
  8
3
 62
     0
100
AcDbMText
 10
894.7600947378758
 20
3382.263001973043
 30
0.0
 40
45.0
 41
0.0
 71
     5
 72
     1
  1
\A1;18
 73
     1
 44
1.0
1001
ACAD
1000
MTEXTBEGIN
1070
    73
1070
     1
1070
    44
1040
1.0
1070
    74
1070
     0
1000
MTEXTEND
  0
POINT
  5
84FF
330
84F5
100
AcDbEntity
  8
DEFPOINTS
 62
     0
100
AcDbPoint
 10
1001.902951880733
 20
3243.588071393663
 30
0.0
  0
POINT
  5
8500
330
84F5
100
AcDbEntity
  8
DEFPOINTS
 62
     0
100
AcDbPoint
 10
1019.902951880733
 20
3190.96467238436
 30
0.0
  0
POINT
  5
8501
330
84F5
100
AcDbEntity
  8
DEFPOINTS
 62
     0
100
AcDbPoint
 10
1019.902951880733
 20
3344.763001973042
 30
0.0
  0
ENDBLK
  5
8502
330
84F5
100
AcDbEntity
  8
0
100
AcDbBlockEnd
  0
BLOCK
  5
8504
330
8503
100
AcDbEntity
  8
0
100
AcDbBlockBegin
  2
*D23
 70
     1
 10
0.0
 20
0.0
 30
0.0
  3
*D23
  1

  0
LINE
  5
8505
330
8503
100
AcDbEntity
  8
3
 62
     0
370
    -2
100
AcDbLine
 10
1019.902951880733
 20
3198.46467238436
 30
0.0
 11
1019.902951880733
 21
3359.763001973043
 31
0.0
  0
LINE
  5
8506
330
8503
100
AcDbEntity
  8
3
 62
     0
370
    -2
100
AcDbLine
 10
1343.902951880733
 20
3198.46467238436
 30
0.0
 11
1343.902951880733
 21
3359.763001973043
 31
0.0
  0
LINE
  5
8507
330
8503
100
AcDbEntity
  8
3
 62
     0
370
    -2
100
AcDbLine
 10
1049.902951880733
 20
3344.763001973042
 30
0.0
 11
1313.902951880733
 21
3344.763001973042
 31
0.0
  0
INSERT
  5
8508
330
8503
100
AcDbEntity
  8
3
 62
     0
370
    -2
100
AcDbBlockReference
  2
_OPEN
 10
1019.902951880733
 20
3344.763001973042
 30
0.0
 41
30.0
 42
30.0
 43
30.0
 50
180.0
  0
INSERT
  5
8509
330
8503
100
AcDbEntity
  8
3
 62
     0
370
    -2
100
AcDbBlockReference
  2
_OPEN
 10
1343.902951880733
 20
3344.763001973042
 30
0.0
 41
30.0
 42
30.0
 43
30.0
  0
MTEXT
  5
850A
330
8503
100
AcDbEntity
  8
3
 62
     0
100
AcDbMText
 10
1181.902951880733
 20
3382.263001973043
 30
0.0
 40
45.0
 41
0.0
 71
     5
 72
     1
  1
\A1;324
 73
     1
 44
1.0
1001
ACAD
1000
MTEXTBEGIN
1070
    73
1070
     1
1070
    44
1040
1.0
1070
    74
1070
     0
1000
MTEXTEND
  0
POINT
  5
850B
330
8503
100
AcDbEntity
  8
DEFPOINTS
 62
     0
100
AcDbPoint
 10
1019.902951880733
 20
3190.96467238436
 30
0.0
  0
POINT
  5
850C
330
8503
100
AcDbEntity
  8
DEFPOINTS
 62
     0
100
AcDbPoint
 10
1343.902951880733
 20
3190.96467238436
 30
0.0
  0
POINT
  5
850D
330
8503
100
AcDbEntity
  8
DEFPOINTS
 62
     0
100
AcDbPoint
 10
1343.902951880733
 20
3344.763001973042
 30
0.0
  0
ENDBLK
  5
850E
330
8503
100
AcDbEntity
  8
0
100
AcDbBlockEnd
  0
BLOCK
  5
8510
330
850F
100
AcDbEntity
  8
0
100
AcDbBlockBegin
  2
*D24
 70
     1
 10
0.0
 20
0.0
 30
0.0
  3
*D24
  1

  0
LINE
  5
8511
330
850F
100
AcDbEntity
  8
3
 62
     0
370
    -2
100
AcDbLine
 10
1361.902951880733
 20
3251.088071393663
 30
0.0
 11
1361.902951880733
 21
3359.763001973043
 31
0.0
  0
LINE
  5
8512
330
850F
100
AcDbEntity
  8
3
 62
     0
370
    -2
100
AcDbLine
 10
1343.902951880733
 20
3198.46467238436
 30
0.0
 11
1343.902951880733
 21
3359.763001973043
 31
0.0
  0
LINE
  5
8513
330
850F
100
AcDbEntity
  8
3
 62
     0
370
    -2
100
AcDbLine
 10
1313.902951880733
 20
3344.763001973042
 30
0.0
 11
1283.902951880733
 21
3344.763001973042
 31
0.0
  0
LINE
  5
8514
330
850F
100
AcDbEntity
  8
3
 62
     0
370
    -2
100
AcDbLine
 10
1391.902951880733
 20
3344.763001973042
 30
0.0
 11
1516.188666166447
 21
3344.763001973042
 31
0.0
  0
LINE
  5
8515
330
850F
100
AcDbEntity
  8
3
 62
     0
370
    -2
100
AcDbLine
 10
1343.902951880733
 20
3344.763001973042
 30
0.0
 11
1361.902951880733
 21
3344.763001973042
 31
0.0
  0
INSERT
  5
8516
330
850F
100
AcDbEntity
  8
3
 62
     0
370
    -2
100
AcDbBlockReference
  2
_OPEN
 10
1343.902951880733
 20
3344.763001973042
 30
0.0
 41
30.0
 42
30.0
 43
30.0
  0
INSERT
  5
8517
330
850F
100
AcDbEntity
  8
3
 62
     0
370
    -2
100
AcDbBlockReference
  2
_OPEN
 10
1361.902951880733
 20
3344.763001973042
 30
0.0
 41
30.0
 42
30.0
 43
30.0
 50
180.0
  0
MTEXT
  5
8518
330
850F
100
AcDbEntity
  8
3
 62
     0
100
AcDbMText
 10
1469.04580902359
 20
3382.263001973043
 30
0.0
 40
45.0
 41
0.0
 71
     5
 72
     1
  1
\A1;18
 73
     1
 44
1.0
1001
ACAD
1000
MTEXTBEGIN
1070
    73
1070
     1
1070
    44
1040
1.0
1070
    74
1070
     0
1000
MTEXTEND
  0
POINT
  5
8519
330
850F
100
AcDbEntity
  8
DEFPOINTS
 62
     0
100
AcDbPoint
 10
1361.902951880733
 20
3243.588071393663
 30
0.0
  0
POINT
  5
851A
330
850F
100
AcDbEntity
  8
DEFPOINTS
 62
     0
100
AcDbPoint
 10
1343.902951880733
 20
3190.96467238436
 30
0.0
  0
POINT
  5
851B
330
850F
100
AcDbEntity
  8
DEFPOINTS
 62
     0
100
AcDbPoint
 10
1343.902951880733
 20
3344.763001973042
 30
0.0
  0
ENDBLK
  5
851C
330
850F
100
AcDbEntity
  8
0
100
AcDbBlockEnd
  0
BLOCK
  5
851E
330
851D
100
AcDbEntity
  8
0
100
AcDbBlockBegin
  2
*D25
 70
     1
 10
0.0
 20
0.0
 30
0.0
  3
*D25
  1

  0
LINE
  5
851F
330
851D
100
AcDbEntity
  8
3
 62
     0
370
    -2
100
AcDbLine
 10
1369.402951880732
 20
2463.588071393663
 30
0.0
 11
1633.001294706843
 21
2463.588071393663
 31
0.0
  0
LINE
  5
8520
330
851D
100
AcDbEntity
  8
3
 62
     0
370
    -2
100
AcDbLine
 10
1368.144190272336
 20
2853.96467238436
 30
0.0
 11
1633.001294706843
 21
2853.96467238436
 31
0.0
  0
LINE
  5
8521
330
851D
100
AcDbEntity
  8
3
 62
     0
370
    -2
100
AcDbLine
 10
1618.001294706842
 20
2493.588071393663
 30
0.0
 11
1618.001294706843
 21
2823.96467238436
 31
0.0
  0
INSERT
  5
8522
330
851D
100
AcDbEntity
  8
3
 62
     0
370
    -2
100
AcDbBlockReference
  2
_OPEN
 10
1618.001294706842
 20
2463.588071393663
 30
0.0
 41
30.0
 42
30.0
 43
30.0
 50
270.0
  0
INSERT
  5
8523
330
851D
100
AcDbEntity
  8
3
 62
     0
370
    -2
100
AcDbBlockReference
  2
_OPEN
 10
1618.001294706843
 20
2853.96467238436
 30
0.0
 41
30.0
 42
30.0
 43
30.0
 50
90.0
  0
MTEXT
  5
8524
330
851D
100
AcDbEntity
  8
3
 62
     0
100
AcDbMText
 10
1580.501294706843
 20
2658.776371889012
 30
0.0
 40
45.0
 41
0.0
 71
     5
 72
     1
  1
\A1;390
 11
0.0000000000000001
 21
1.0
 31
0.0
 73
     1
 44
1.0
1001
ACAD
1000
MTEXTBEGIN
1070
    73
1070
     1
1070
    44
1040
1.0
1070
    74
1070
     0
1000
MTEXTEND
  0
POINT
  5
8525
330
851D
100
AcDbEntity
  8
DEFPOINTS
 62
     0
100
AcDbPoint
 10
1361.902951880732
 20
2463.588071393663
 30
0.0
  0
POINT
  5
8526
330
851D
100
AcDbEntity
  8
DEFPOINTS
 62
     0
100
AcDbPoint
 10
1360.644190272336
 20
2853.96467238436
 30
0.0
  0
POINT
  5
8527
330
851D
100
AcDbEntity
  8
DEFPOINTS
 62
     0
100
AcDbPoint
 10
1618.001294706843
 20
2853.96467238436
 30
0.0
  0
ENDBLK
  5
8528
330
851D
100
AcDbEntity
  8
0
100
AcDbBlockEnd
  0
BLOCK
  5
852A
330
8529
100
AcDbEntity
  8
0
100
AcDbBlockBegin
  2
*D26
 70
     1
 10
0.0
 20
0.0
 30
0.0
  3
*D26
  1

  0
LINE
  5
852B
330
8529
100
AcDbEntity
  8
3
 62
     0
370
    -2
100
AcDbLine
 10
1368.144190272336
 20
2853.96467238436
 30
0.0
 11
1633.001294706843
 21
2853.96467238436
 31
0.0
  0
LINE
  5
852C
330
8529
100
AcDbEntity
  8
3
 62
     0
370
    -2
100
AcDbLine
 10
1368.144190272336
 20
3173.96467238436
 30
0.0
 11
1633.001294706843
 21
3173.96467238436
 31
0.0
  0
LINE
  5
852D
330
8529
100
AcDbEntity
  8
3
 62
     0
370
    -2
100
AcDbLine
 10
1618.001294706843
 20
2883.96467238436
 30
0.0
 11
1618.001294706843
 21
3143.96467238436
 31
0.0
  0
INSERT
  5
852E
330
8529
100
AcDbEntity
  8
3
 62
     0
370
    -2
100
AcDbBlockReference
  2
_OPEN
 10
1618.001294706843
 20
2853.96467238436
 30
0.0
 41
30.0
 42
30.0
 43
30.0
 50
270.0
  0
INSERT
  5
852F
330
8529
100
AcDbEntity
  8
3
 62
     0
370
    -2
100
AcDbBlockReference
  2
_OPEN
 10
1618.001294706843
 20
3173.96467238436
 30
0.0
 41
30.0
 42
30.0
 43
30.0
 50
90.0
  0
MTEXT
  5
8530
330
8529
100
AcDbEntity
  8
3
 62
     0
100
AcDbMText
 10
1580.501294706843
 20
3013.964672384361
 30
0.0
 40
45.0
 41
0.0
 71
     5
 72
     1
  1
\A1;320
 11
0.0000000000000001
 21
1.0
 31
0.0
 73
     1
 44
1.0
1001
ACAD
1000
MTEXTBEGIN
1070
    73
1070
     1
1070
    44
1040
1.0
1070
    74
1070
     0
1000
MTEXTEND
  0
POINT
  5
8531
330
8529
100
AcDbEntity
  8
DEFPOINTS
 62
     0
100
AcDbPoint
 10
1360.644190272336
 20
2853.96467238436
 30
0.0
  0
POINT
  5
8532
330
8529
100
AcDbEntity
  8
DEFPOINTS
 62
     0
100
AcDbPoint
 10
1360.644190272336
 20
3173.96467238436
 30
0.0
  0
POINT
  5
8533
330
8529
100
AcDbEntity
  8
DEFPOINTS
 62
     0
100
AcDbPoint
 10
1618.001294706843
 20
3173.96467238436
 30
0.0
  0
ENDBLK
  5
8534
330
8529
100
AcDbEntity
  8
0
100
AcDbBlockEnd
  0
BLOCK
  5
8536
330
8535
100
AcDbEntity
  8
0
100
AcDbBlockBegin
  2
*D27
 70
     1
 10
0.0
 20
0.0
 30
0.0
  3
*D27
  1

  0
LINE
  5
8537
330
8535
100
AcDbEntity
  8
3
 62
     0
370
    -2
100
AcDbLine
 10
561.9029518807321
 20
2475.088071393663
 30
0.0
 11
561.9029518807321
 21
2270.955760804493
 31
0.0
  0
LINE
  5
8538
330
8535
100
AcDbEntity
  8
3
 62
     0
370
    -2
100
AcDbLine
 10
631.902951880731
 20
2456.088071393662
 30
0.0
 11
631.902951880731
 21
2270.955760804493
 31
0.0
  0
LINE
  5
8539
330
8535
100
AcDbEntity
  8
3
 62
     0
370
    -2
100
AcDbLine
 10
661.902951880731
 20
2285.955760804492
 30
0.0
 11
691.902951880731
 21
2285.955760804492
 31
0.0
  0
LINE
  5
853A
330
8535
100
AcDbEntity
  8
3
 62
     0
370
    -2
100
AcDbLine
 10
531.9029518807321
 20
2285.955760804492
 30
0.0
 11
399.0458090235893
 21
2285.955760804492
 31
0.0
  0
LINE
  5
853B
330
8535
100
AcDbEntity
  8
3
 62
     0
370
    -2
100
AcDbLine
 10
631.902951880731
 20
2285.955760804492
 30
0.0
 11
561.9029518807321
 21
2285.955760804492
 31
0.0
  0
INSERT
  5
853C
330
8535
100
AcDbEntity
  8
3
 62
     0
370
    -2
100
AcDbBlockReference
  2
_OPEN
 10
631.902951880731
 20
2285.955760804492
 30
0.0
 41
30.0
 42
30.0
 43
30.0
 50
180.0
  0
INSERT
  5
853D
330
8535
100
AcDbEntity
  8
3
 62
     0
370
    -2
100
AcDbBlockReference
  2
_OPEN
 10
561.9029518807321
 20
2285.955760804492
 30
0.0
 41
30.0
 42
30.0
 43
30.0
  0
MTEXT
  5
853E
330
8535
100
AcDbEntity
  8
3
 62
     0
100
AcDbMText
 10
450.4743804521607
 20
2323.455760804492
 30
0.0
 40
45.0
 41
0.0
 71
     5
 72
     1
  1
\A1;70
 73
     1
 44
1.0
1001
ACAD
1000
MTEXTBEGIN
1070
    73
1070
     1
1070
    44
1040
1.0
1070
    74
1070
     0
1000
MTEXTEND
  0
POINT
  5
853F
330
8535
100
AcDbEntity
  8
DEFPOINTS
 62
     0
100
AcDbPoint
 10
561.9029518807321
 20
2482.588071393663
 30
0.0
  0
POINT
  5
8540
330
8535
100
AcDbEntity
  8
DEFPOINTS
 62
     0
100
AcDbPoint
 10
631.902951880731
 20
2463.588071393662
 30
0.0
  0
POINT
  5
8541
330
8535
100
AcDbEntity
  8
DEFPOINTS
 62
     0
100
AcDbPoint
 10
631.902951880731
 20
2285.955760804492
 30
0.0
  0
ENDBLK
  5
8542
330
8535
100
AcDbEntity
  8
0
100
AcDbBlockEnd
  0
BLOCK
  5
8544
330
8543
100
AcDbEntity
  8
0
100
AcDbBlockBegin
  2
*D28
 70
     1
 10
0.0
 20
0.0
 30
0.0
  3
*D28
  1

  0
LINE
  5
8545
330
8543
100
AcDbEntity
  8
3
 62
     0
370
    -2
100
AcDbLine
 10
631.902951880731
 20
2456.088071393662
 30
0.0
 11
631.902951880731
 21
2270.955760804493
 31
0.0
  0
LINE
  5
8546
330
8543
100
AcDbEntity
  8
3
 62
     0
370
    -2
100
AcDbLine
 10
961.9029518807311
 20
2456.088071393662
 30
0.0
 11
961.9029518807311
 21
2270.955760804493
 31
0.0
  0
LINE
  5
8547
330
8543
100
AcDbEntity
  8
3
 62
     0
370
    -2
100
AcDbLine
 10
661.902951880731
 20
2285.955760804492
 30
0.0
 11
931.902951880731
 21
2285.955760804492
 31
0.0
  0
INSERT
  5
8548
330
8543
100
AcDbEntity
  8
3
 62
     0
370
    -2
100
AcDbBlockReference
  2
_OPEN
 10
631.902951880731
 20
2285.955760804492
 30
0.0
 41
30.0
 42
30.0
 43
30.0
 50
180.0
  0
INSERT
  5
8549
330
8543
100
AcDbEntity
  8
3
 62
     0
370
    -2
100
AcDbBlockReference
  2
_OPEN
 10
961.9029518807311
 20
2285.955760804492
 30
0.0
 41
30.0
 42
30.0
 43
30.0
  0
MTEXT
  5
854A
330
8543
100
AcDbEntity
  8
3
 62
     0
100
AcDbMText
 10
796.902951880731
 20
2323.455760804492
 30
0.0
 40
45.0
 41
0.0
 71
     5
 72
     1
  1
\A1;330
 73
     1
 44
1.0
1001
ACAD
1000
MTEXTBEGIN
1070
    73
1070
     1
1070
    44
1040
1.0
1070
    74
1070
     0
1000
MTEXTEND
  0
POINT
  5
854B
330
8543
100
AcDbEntity
  8
DEFPOINTS
 62
     0
100
AcDbPoint
 10
631.902951880731
 20
2463.588071393662
 30
0.0
  0
POINT
  5
854C
330
8543
100
AcDbEntity
  8
DEFPOINTS
 62
     0
100
AcDbPoint
 10
961.9029518807311
 20
2463.588071393662
 30
0.0
  0
POINT
  5
854D
330
8543
100
AcDbEntity
  8
DEFPOINTS
 62
     0
100
AcDbPoint
 10
961.9029518807311
 20
2285.955760804492
 30
0.0
  0
ENDBLK
  5
854E
330
8543
100
AcDbEntity
  8
0
100
AcDbBlockEnd
  0
BLOCK
  5
8550
330
854F
100
AcDbEntity
  8
0
100
AcDbBlockBegin
  2
*D29
 70
     1
 10
0.0
 20
0.0
 30
0.0
  3
*D29
  1

  0
LINE
  5
8551
330
854F
100
AcDbEntity
  8
3
 62
     0
370
    -2
100
AcDbLine
 10
961.9029518807311
 20
2456.088071393662
 30
0.0
 11
961.9029518807311
 21
2270.955760804493
 31
0.0
  0
LINE
  5
8552
330
854F
100
AcDbEntity
  8
3
 62
     0
370
    -2
100
AcDbLine
 10
1291.902951880733
 20
2456.088071393662
 30
0.0
 11
1291.902951880733
 21
2270.955760804493
 31
0.0
  0
LINE
  5
8553
330
854F
100
AcDbEntity
  8
3
 62
     0
370
    -2
100
AcDbLine
 10
991.902951880731
 20
2285.955760804492
 30
0.0
 11
1261.902951880733
 21
2285.955760804492
 31
0.0
  0
INSERT
  5
8554
330
854F
100
AcDbEntity
  8
3
 62
     0
370
    -2
100
AcDbBlockReference
  2
_OPEN
 10
961.9029518807311
 20
2285.955760804492
 30
0.0
 41
30.0
 42
30.0
 43
30.0
 50
180.0
  0
INSERT
  5
8555
330
854F
100
AcDbEntity
  8
3
 62
     0
370
    -2
100
AcDbBlockReference
  2
_OPEN
 10
1291.902951880733
 20
2285.955760804492
 30
0.0
 41
30.0
 42
30.0
 43
30.0
  0
MTEXT
  5
8556
330
854F
100
AcDbEntity
  8
3
 62
     0
100
AcDbMText
 10
1126.902951880732
 20
2323.455760804492
 30
0.0
 40
45.0
 41
0.0
 71
     5
 72
     1
  1
\A1;330
 73
     1
 44
1.0
1001
ACAD
1000
MTEXTBEGIN
1070
    73
1070
     1
1070
    44
1040
1.0
1070
    74
1070
     0
1000
MTEXTEND
  0
POINT
  5
8557
330
854F
100
AcDbEntity
  8
DEFPOINTS
 62
     0
100
AcDbPoint
 10
961.9029518807311
 20
2463.588071393662
 30
0.0
  0
POINT
  5
8558
330
854F
100
AcDbEntity
  8
DEFPOINTS
 62
     0
100
AcDbPoint
 10
1291.902951880733
 20
2463.588071393662
 30
0.0
  0
POINT
  5
8559
330
854F
100
AcDbEntity
  8
DEFPOINTS
 62
     0
100
AcDbPoint
 10
1291.902951880733
 20
2285.955760804492
 30
0.0
  0
ENDBLK
  5
855A
330
854F
100
AcDbEntity
  8
0
100
AcDbBlockEnd
  0
BLOCK
  5
855C
330
855B
100
AcDbEntity
  8
0
100
AcDbBlockBegin
  2
*D30
 70
     1
 10
0.0
 20
0.0
 30
0.0
  3
*D30
  1

  0
LINE
  5
855D
330
855B
100
AcDbEntity
  8
3
 62
     0
370
    -2
100
AcDbLine
 10
1361.902951880732
 20
2456.088071393663
 30
0.0
 11
1361.902951880732
 21
2270.955760804493
 31
0.0
  0
LINE
  5
855E
330
855B
100
AcDbEntity
  8
3
 62
     0
370
    -2
100
AcDbLine
 10
1291.902951880733
 20
2456.088071393662
 30
0.0
 11
1291.902951880733
 21
2270.955760804493
 31
0.0
  0
LINE
  5
855F
330
855B
100
AcDbEntity
  8
3
 62
     0
370
    -2
100
AcDbLine
 10
1261.902951880733
 20
2285.955760804492
 30
0.0
 11
1231.902951880733
 21
2285.955760804492
 31
0.0
  0
LINE
  5
8560
330
855B
100
AcDbEntity
  8
3
 62
     0
370
    -2
100
AcDbLine
 10
1391.902951880732
 20
2285.955760804492
 30
0.0
 11
1524.760094737875
 21
2285.955760804492
 31
0.0
  0
LINE
  5
8561
330
855B
100
AcDbEntity
  8
3
 62
     0
370
    -2
100
AcDbLine
 10
1291.902951880733
 20
2285.955760804492
 30
0.0
 11
1361.902951880732
 21
2285.955760804492
 31
0.0
  0
INSERT
  5
8562
330
855B
100
AcDbEntity
  8
3
 62
     0
370
    -2
100
AcDbBlockReference
  2
_OPEN
 10
1291.902951880733
 20
2285.955760804492
 30
0.0
 41
30.0
 42
30.0
 43
30.0
  0
INSERT
  5
8563
330
855B
100
AcDbEntity
  8
3
 62
     0
370
    -2
100
AcDbBlockReference
  2
_OPEN
 10
1361.902951880732
 20
2285.955760804492
 30
0.0
 41
30.0
 42
30.0
 43
30.0
 50
180.0
  0
MTEXT
  5
8564
330
855B
100
AcDbEntity
  8
3
 62
     0
100
AcDbMText
 10
1473.331523309303
 20
2323.455760804492
 30
0.0
 40
45.0
 41
0.0
 71
     5
 72
     1
  1
\A1;70
 73
     1
 44
1.0
1001
ACAD
1000
MTEXTBEGIN
1070
    73
1070
     1
1070
    44
1040
1.0
1070
    74
1070
     0
1000
MTEXTEND
  0
POINT
  5
8565
330
855B
100
AcDbEntity
  8
DEFPOINTS
 62
     0
100
AcDbPoint
 10
1361.902951880732
 20
2463.588071393663
 30
0.0
  0
POINT
  5
8566
330
855B
100
AcDbEntity
  8
DEFPOINTS
 62
     0
100
AcDbPoint
 10
1291.902951880733
 20
2463.588071393662
 30
0.0
  0
POINT
  5
8567
330
855B
100
AcDbEntity
  8
DEFPOINTS
 62
     0
100
AcDbPoint
 10
1291.902951880733
 20
2285.955760804492
 30
0.0
  0
ENDBLK
  5
8568
330
855B
100
AcDbEntity
  8
0
100
AcDbBlockEnd
  0
BLOCK
  5
856A
330
8569
100
AcDbEntity
  8
0
100
AcDbBlockBegin
  2
*D31
 70
     1
 10
0.0
 20
0.0
 30
0.0
  3
*D31
  1

  0
LINE
  5
856B
330
8569
100
AcDbEntity
  8
3
 62
     0
370
    -2
100
AcDbLine
 10
1368.144190272336
 20
3173.96467238436
 30
0.0
 11
1633.001294706843
 21
3173.96467238436
 31
0.0
  0
LINE
  5
856C
330
8569
100
AcDbEntity
  8
3
 62
     0
370
    -2
100
AcDbLine
 10
1369.402951880733
 20
3243.588071393663
 30
0.0
 11
1633.001294706843
 21
3243.588071393663
 31
0.0
  0
LINE
  5
856D
330
8569
100
AcDbEntity
  8
3
 62
     0
370
    -2
100
AcDbLine
 10
1618.001294706843
 20
3143.96467238436
 30
0.0
 11
1618.001294706843
 21
3113.96467238436
 31
0.0
  0
LINE
  5
856E
330
8569
100
AcDbEntity
  8
3
 62
     0
370
    -2
100
AcDbLine
 10
1618.001294706843
 20
3273.588071393663
 30
0.0
 11
1618.001294706843
 21
3406.445214250805
 31
0.0
  0
LINE
  5
856F
330
8569
100
AcDbEntity
  8
3
 62
     0
370
    -2
100
AcDbLine
 10
1618.001294706843
 20
3173.96467238436
 30
0.0
 11
1618.001294706843
 21
3243.588071393663
 31
0.0
  0
INSERT
  5
8570
330
8569
100
AcDbEntity
  8
3
 62
     0
370
    -2
100
AcDbBlockReference
  2
_OPEN
 10
1618.001294706843
 20
3173.96467238436
 30
0.0
 41
30.0
 42
30.0
 43
30.0
 50
90.0
  0
INSERT
  5
8571
330
8569
100
AcDbEntity
  8
3
 62
     0
370
    -2
100
AcDbBlockReference
  2
_OPEN
 10
1618.001294706843
 20
3243.588071393663
 30
0.0
 41
30.0
 42
30.0
 43
30.0
 50
270.0
  0
MTEXT
  5
8572
330
8569
100
AcDbEntity
  8
3
 62
     0
100
AcDbMText
 10
1580.501294706843
 20
3355.016642822235
 30
0.0
 40
45.0
 41
0.0
 71
     5
 72
     1
  1
\A1;70
 11
0.0000000000000001
 21
1.0
 31
0.0
 73
     1
 44
1.0
1001
ACAD
1000
MTEXTBEGIN
1070
    73
1070
     1
1070
    44
1040
1.0
1070
    74
1070
     0
1000
MTEXTEND
  0
POINT
  5
8573
330
8569
100
AcDbEntity
  8
DEFPOINTS
 62
     0
100
AcDbPoint
 10
1360.644190272336
 20
3173.96467238436
 30
0.0
  0
POINT
  5
8574
330
8569
100
AcDbEntity
  8
DEFPOINTS
 62
     0
100
AcDbPoint
 10
1361.902951880733
 20
3243.588071393663
 30
0.0
  0
POINT
  5
8575
330
8569
100
AcDbEntity
  8
DEFPOINTS
 62
     0
100
AcDbPoint
 10
1618.001294706843
 20
3243.588071393663
 30
0.0
  0
ENDBLK
  5
8576
330
8569
100
AcDbEntity
  8
0
100
AcDbBlockEnd
  0
BLOCK
  5
8578
330
8577
100
AcDbEntity
  8
0
100
AcDbBlockBegin
  2
*D32
 70
     1
 10
0.0
 20
0.0
 30
0.0
  3
*D32
  1

  0
LINE
  5
8579
330
8577
100
AcDbEntity
  8
3
 62
     0
370
    -2
100
AcDbLine
 10
554.4029518807328
 20
2843.588071393663
 30
0.0
 11
348.775445302701
 21
2843.588071393663
 31
0.0
  0
LINE
  5
857A
330
8577
100
AcDbEntity
  8
3
 62
     0
370
    -2
100
AcDbLine
 10
607.6617134891275
 20
2825.588071393663
 30
0.0
 11
348.775445302701
 21
2825.588071393663
 31
0.0
  0
LINE
  5
857B
330
8577
100
AcDbEntity
  8
3
 62
     0
370
    -2
100
AcDbLine
 10
363.775445302701
 20
2795.588071393663
 30
0.0
 11
363.775445302701
 21
2765.588071393663
 31
0.0
  0
LINE
  5
857C
330
8577
100
AcDbEntity
  8
3
 62
     0
370
    -2
100
AcDbLine
 10
363.775445302701
 20
2873.588071393663
 30
0.0
 11
363.775445302701
 21
2997.873785679377
 31
0.0
  0
LINE
  5
857D
330
8577
100
AcDbEntity
  8
3
 62
     0
370
    -2
100
AcDbLine
 10
363.775445302701
 20
2825.588071393663
 30
0.0
 11
363.775445302701
 21
2843.588071393663
 31
0.0
  0
INSERT
  5
857E
330
8577
100
AcDbEntity
  8
3
 62
     0
370
    -2
100
AcDbBlockReference
  2
_OPEN
 10
363.775445302701
 20
2825.588071393663
 30
0.0
 41
30.0
 42
30.0
 43
30.0
 50
90.0
  0
INSERT
  5
857F
330
8577
100
AcDbEntity
  8
3
 62
     0
370
    -2
100
AcDbBlockReference
  2
_OPEN
 10
363.775445302701
 20
2843.588071393663
 30
0.0
 41
30.0
 42
30.0
 43
30.0
 50
270.0
  0
MTEXT
  5
8580
330
8577
100
AcDbEntity
  8
3
 62
     0
100
AcDbMText
 10
326.2754453027005
 20
2950.73092853652
 30
0.0
 40
45.0
 41
0.0
 71
     5
 72
     1
  1
\A1;18
 11
0.0000000000000001
 21
1.0
 31
0.0
 73
     1
 44
1.0
1001
ACAD
1000
MTEXTBEGIN
1070
    73
1070
     1
1070
    44
1040
1.0
1070
    74
1070
     0
1000
MTEXTEND
  0
POINT
  5
8581
330
8577
100
AcDbEntity
  8
DEFPOINTS
 62
     0
100
AcDbPoint
 10
561.9029518807328
 20
2843.588071393663
 30
0.0
  0
POINT
  5
8582
330
8577
100
AcDbEntity
  8
DEFPOINTS
 62
     0
100
AcDbPoint
 10
615.1617134891275
 20
2825.588071393663
 30
0.0
  0
POINT
  5
8583
330
8577
100
AcDbEntity
  8
DEFPOINTS
 62
     0
100
AcDbPoint
 10
363.775445302701
 20
2825.588071393663
 30
0.0
  0
ENDBLK
  5
8584
330
8577
100
AcDbEntity
  8
0
100
AcDbBlockEnd
  0
BLOCK
  5
8586
330
8585
100
AcDbEntity
  8
0
100
AcDbBlockBegin
  2
*D33
 70
     1
 10
0.0
 20
0.0
 30
0.0
  3
*D33
  1

  0
LINE
  5
8587
330
8585
100
AcDbEntity
  8
3
 62
     0
370
    -2
100
AcDbLine
 10
607.6617134891275
 20
2825.588071393663
 30
0.0
 11
348.775445302701
 21
2825.588071393663
 31
0.0
  0
LINE
  5
8588
330
8585
100
AcDbEntity
  8
3
 62
     0
370
    -2
100
AcDbLine
 10
607.6617134891275
 20
2481.588071393662
 30
0.0
 11
348.7754453027009
 21
2481.588071393662
 31
0.0
  0
LINE
  5
8589
330
8585
100
AcDbEntity
  8
3
 62
     0
370
    -2
100
AcDbLine
 10
363.775445302701
 20
2795.588071393663
 30
0.0
 11
363.7754453027009
 21
2511.588071393662
 31
0.0
  0
INSERT
  5
858A
330
8585
100
AcDbEntity
  8
3
 62
     0
370
    -2
100
AcDbBlockReference
  2
_OPEN
 10
363.775445302701
 20
2825.588071393663
 30
0.0
 41
30.0
 42
30.0
 43
30.0
 50
90.0
  0
INSERT
  5
858B
330
8585
100
AcDbEntity
  8
3
 62
     0
370
    -2
100
AcDbBlockReference
  2
_OPEN
 10
363.7754453027009
 20
2481.588071393662
 30
0.0
 41
30.0
 42
30.0
 43
30.0
 50
270.0
  0
MTEXT
  5
858C
330
8585
100
AcDbEntity
  8
3
 62
     0
100
AcDbMText
 10
326.2754453027005
 20
2653.588071393662
 30
0.0
 40
45.0
 41
0.0
 71
     5
 72
     1
  1
\A1;344
 11
0.0000000000000001
 21
1.0
 31
0.0
 73
     1
 44
1.0
1001
ACAD
1000
MTEXTBEGIN
1070
    73
1070
     1
1070
    44
1040
1.0
1070
    74
1070
     0
1000
MTEXTEND
  0
POINT
  5
858D
330
8585
100
AcDbEntity
  8
DEFPOINTS
 62
     0
100
AcDbPoint
 10
615.1617134891275
 20
2825.588071393663
 30
0.0
  0
POINT
  5
858E
330
8585
100
AcDbEntity
  8
DEFPOINTS
 62
     0
100
AcDbPoint
 10
615.1617134891275
 20
2481.588071393662
 30
0.0
  0
POINT
  5
858F
330
8585
100
AcDbEntity
  8
DEFPOINTS
 62
     0
100
AcDbPoint
 10
363.7754453027009
 20
2481.588071393662
 30
0.0
  0
ENDBLK
  5
8590
330
8585
100
AcDbEntity
  8
0
100
AcDbBlockEnd
  0
BLOCK
  5
8592
330
8591
100
AcDbEntity
  8
0
100
AcDbBlockBegin
  2
*D34
 70
     1
 10
0.0
 20
0.0
 30
0.0
  3
*D34
  1

  0
LINE
  5
8593
330
8591
100
AcDbEntity
  8
3
 62
     0
370
    -2
100
AcDbLine
 10
554.4029518807328
 20
2463.588071393662
 30
0.0
 11
348.7754453027009
 21
2463.588071393662
 31
0.0
  0
LINE
  5
8594
330
8591
100
AcDbEntity
  8
3
 62
     0
370
    -2
100
AcDbLine
 10
607.6617134891275
 20
2481.588071393662
 30
0.0
 11
348.7754453027009
 21
2481.588071393662
 31
0.0
  0
LINE
  5
8595
330
8591
100
AcDbEntity
  8
3
 62
     0
370
    -2
100
AcDbLine
 10
363.7754453027009
 20
2511.588071393662
 30
0.0
 11
363.7754453027009
 21
2541.588071393662
 31
0.0
  0
LINE
  5
8596
330
8591
100
AcDbEntity
  8
3
 62
     0
370
    -2
100
AcDbLine
 10
363.7754453027009
 20
2433.588071393662
 30
0.0
 11
363.7754453027008
 21
2309.302357107947
 31
0.0
  0
LINE
  5
8597
330
8591
100
AcDbEntity
  8
3
 62
     0
370
    -2
100
AcDbLine
 10
363.7754453027009
 20
2481.588071393662
 30
0.0
 11
363.7754453027009
 21
2463.588071393662
 31
0.0
  0
INSERT
  5
8598
330
8591
100
AcDbEntity
  8
3
 62
     0
370
    -2
100
AcDbBlockReference
  2
_OPEN
 10
363.7754453027009
 20
2481.588071393662
 30
0.0
 41
30.0
 42
30.0
 43
30.0
 50
270.0
  0
INSERT
  5
8599
330
8591
100
AcDbEntity
  8
3
 62
     0
370
    -2
100
AcDbBlockReference
  2
_OPEN
 10
363.7754453027009
 20
2463.588071393662
 30
0.0
 41
30.0
 42
30.0
 43
30.0
 50
90.0
  0
MTEXT
  5
859A
330
8591
100
AcDbEntity
  8
3
 62
     0
100
AcDbMText
 10
326.2754453027005
 20
2356.445214250804
 30
0.0
 40
45.0
 41
0.0
 71
     5
 72
     1
  1
\A1;18
 11
0.0000000000000001
 21
1.0
 31
0.0
 73
     1
 44
1.0
1001
ACAD
1000
MTEXTBEGIN
1070
    73
1070
     1
1070
    44
1040
1.0
1070
    74
1070
     0
1000
MTEXTEND
  0
POINT
  5
859B
330
8591
100
AcDbEntity
  8
DEFPOINTS
 62
     0
100
AcDbPoint
 10
561.9029518807328
 20
2463.588071393662
 30
0.0
  0
POINT
  5
859C
330
8591
100
AcDbEntity
  8
DEFPOINTS
 62
     0
100
AcDbPoint
 10
615.1617134891275
 20
2481.588071393662
 30
0.0
  0
POINT
  5
859D
330
8591
100
AcDbEntity
  8
DEFPOINTS
 62
     0
100
AcDbPoint
 10
363.7754453027009
 20
2481.588071393662
 30
0.0
  0
ENDBLK
  5
859E
330
8591
100
AcDbEntity
  8
0
100
AcDbBlockEnd
  0
BLOCK
  5
85C2
330
85A1
100
AcDbEntity
  8
0
100
AcDbBlockBegin
  2
A$C5F035C4D
 70
     0
 10
0.0
 20
0.0
 30
0.0
  3
A$C5F035C4D
  1

  0
DIMENSION
  5
85A2
330
85A1
100
AcDbEntity
  8
3
100
AcDbDimension
  2
*D16
 10
-799.9999999999998
 20
-254.1856030264976
 30
0.0
 11
-399.9999999999999
 21
-216.6856030264976
 31
0.0
 12
-1361.902951880732
 22
-2463.588071393663
 32
0.0
 71
     5
 42
799.9999999999998
  3
IGA
100
AcDbAlignedDimension
 13
0.0
 23
-0.0000000000004547
 33
0.0
 14
-799.9999999999998
 24
19.0
 34
0.0
100
AcDbRotatedDimension
1001
ACAD
1000
DSTYLE
1002
{
1070
    40
1040
15.0
1070
   143
1040
0.039
1070
   172
1070
     1
1070
   271
1070
     0
1070
   279
1070
     0
1070
   288
1070
     1
1002
}
  0
DIMENSION
  5
85A3
330
85A1
100
AcDbEntity
  8
3
100
AcDbDimension
  2
*D17
 10
362.4451822189922
 20
780.0
 30
0.0
 11
324.9451822189917
 21
390.0000000000005
 31
0.0
 12
-1361.902951880732
 22
-2463.588071393663
 32
0.0
 71
     5
 42
780.0000000000005
  3
IGA
100
AcDbAlignedDimension
 13
0.0
 23
-0.0000000000004547
 33
0.0
 14
0.0000000000009095
 24
780.0
 34
0.0
 50
270.0
100
AcDbRotatedDimension
1001
ACAD
1000
DSTYLE
1002
{
1070
    40
1040
15.0
1070
   143
1040
0.039
1070
   172
1070
     1
1070
   271
1070
     0
1070
   279
1070
     0
1070
   288
1070
     1
1002
}
  0
DIMENSION
  5
85A4
330
85A1
100
AcDbEntity
  8
3
100
AcDbDimension
  2
*D18
 10
-1098.831674133746
 20
380.0
 30
0.0
 11
-1136.331674133747
 21
189.9999999999995
 31
0.0
 12
-1361.902951880732
 22
-2463.588071393663
 32
0.0
 71
     5
 42
380.0000000000005
  3
IGA
100
AcDbAlignedDimension
 13
-799.9999999999991
 23
-0.0000000000004547
 33
0.0
 14
-800.0000000000008
 24
380.0
 34
0.0
 50
270.0
100
AcDbRotatedDimension
1001
ACAD
1000
DSTYLE
1002
{
1070
    40
1040
15.0
1070
   143
1040
0.039
1070
   172
1070
     1
1070
   271
1070
     0
1070
   279
1070
     0
1070
   288
1070
     1
1002
}
  0
DIMENSION
  5
85A5
330
85A1
100
AcDbEntity
  8
3
100
AcDbDimension
  2
*D19
 10
-359.9999999999991
 20
979.936734003059
 30
0.0
 11
-179.9999999999991
 21
1017.436734003059
 31
0.0
 12
-1361.902951880732
 22
-2463.588071393663
 32
0.0
 71
     5
 42
360.0
  3
IGA
100
AcDbAlignedDimension
 13
0.0000000000009095
 23
780.0
 33
0.0
 14
-359.9999999999991
 24
780.0
 34
0.0
100
AcDbRotatedDimension
1001
ACAD
1000
DSTYLE
1002
{
1070
    40
1040
15.0
1070
   143
1040
0.039
1070
   172
1070
     1
1070
   271
1070
     0
1070
   279
1070
     0
1070
   288
1070
     1
1002
}
  0
DIMENSION
  5
85A6
330
85A1
100
AcDbEntity
  8
3
100
AcDbDimension
  2
*D20
 10
-800.0000000000008
 20
979.936734003059
 30
0.0
 11
-580.0
 21
1017.436734003059
 31
0.0
 12
-1361.902951880732
 22
-2463.588071393663
 32
0.0
 71
     5
 42
440.0000000000018
  3
IGA
100
AcDbAlignedDimension
 13
-359.9999999999991
 23
780.0
 33
0.0
 14
-800.0000000000008
 24
380.0
 34
0.0
100
AcDbRotatedDimension
1001
ACAD
1000
DSTYLE
1002
{
1070
    40
1040
15.0
1070
   143
1040
0.039
1070
   172
1070
     1
1070
   271
1070
     0
1070
   279
1070
     0
1070
   288
1070
     1
1002
}
  0
LINE
  5
85A7
330
85A1
100
AcDbEntity
  8
2
100
AcDbLine
 10
-730.0000000000009
 20
380.0
 30
0.0
 11
-730.0000000000009
 21
345.2467980186061
 31
0.0
  0
LINE
  5
85A8
330
85A1
100
AcDbEntity
  8
2
100
AcDbLine
 10
-746.7412383916044
 20
362.0
 30
0.0
 11
-713.4972759668117
 21
362.0
 31
0.0
  0
LINE
  5
85A9
330
85A1
100
AcDbEntity
  8
2
100
AcDbLine
 10
-341.9999999999991
 20
728.3766009906972
 30
0.0
 11
-341.9999999999991
 21
693.6233990093032
 31
0.0
  0
LINE
  5
85AA
330
85A1
100
AcDbEntity
  8
2
100
AcDbLine
 10
-358.7412383916026
 20
710.3766009906971
 30
0.0
 11
-325.4972759668099
 21
710.3766009906971
 31
0.0
  0
LINE
  5
85AB
330
85A1
100
AcDbEntity
  8
2
100
AcDbLine
 10
-17.99999999999909
 20
728.3766009906972
 30
0.0
 11
-17.99999999999909
 21
693.6233990093032
 31
0.0
  0
LINE
  5
85AC
330
85A1
100
AcDbEntity
  8
2
100
AcDbLine
 10
-1.258761608395616
 20
710.3766009906971
 30
0.0
 11
-34.50272403318832
 21
710.3766009906971
 31
0.0
  0
LINE
  5
85AD
330
85A1
100
AcDbEntity
  8
2
100
AcDbLine
 10
-730.0000000000009
 20
-0.0000000000009095
 30
0.0
 11
-730.0000000000009
 21
34.75320198139298
 31
0.0
  0
LINE
  5
85AE
330
85A1
100
AcDbEntity
  8
2
100
AcDbLine
 10
-746.7412383916044
 20
17.99999999999909
 30
0.0
 11
-713.4972759668117
 21
17.99999999999909
 31
0.0
  0
LINE
  5
85AF
330
85A1
100
AcDbEntity
  8
2
100
AcDbLine
 10
-400.0000000000008
 20
-0.0000000000009095
 30
0.0
 11
-400.0000000000008
 21
34.75320198139298
 31
0.0
  0
LINE
  5
85B0
330
85A1
100
AcDbEntity
  8
2
100
AcDbLine
 10
-416.7412383916043
 20
17.99999999999909
 30
0.0
 11
-383.4972759668117
 21
17.99999999999909
 31
0.0
  0
LINE
  5
85B1
330
85A1
100
AcDbEntity
  8
2
100
AcDbLine
 10
-69.99999999999886
 20
-0.0000000000009095
 30
0.0
 11
-69.99999999999886
 21
34.75320198139298
 31
0.0
  0
LINE
  5
85B2
330
85A1
100
AcDbEntity
  8
2
100
AcDbLine
 10
-53.25876160839539
 20
17.99999999999909
 30
0.0
 11
-86.50272403318808
 21
17.99999999999909
 31
0.0
  0
DIMENSION
  5
85B3
330
85A1
100
AcDbEntity
  8
3
100
AcDbDimension
  2
*D21
 10
-730.0000000000009
 20
546.859183500765
 30
0.0
 11
-913.7423732388574
 21
546.859183500765
 31
0.0
 12
-1361.902951880732
 22
-2463.588071393663
 32
0.0
 70
   128
 71
     5
 42
70.0
  3
IGA
100
AcDbAlignedDimension
 13
-800.0000000000008
 23
380.0
 33
0.0
 14
-730.0000000000009
 24
380.0
 34
0.0
100
AcDbRotatedDimension
1001
ACAD
1000
DSTYLE
1002
{
1070
    40
1040
15.0
1070
   143
1040
0.039
1070
   172
1070
     1
1070
   271
1070
     0
1070
   279
1070
     0
1070
   288
1070
     1
1002
}
  0
DIMENSION
  5
85B4
330
85A1
100
AcDbEntity
  8
3
100
AcDbDimension
  2
*D22
 10
-341.9999999999991
 20
881.1749305793796
 30
0.0
 11
-467.1428571428561
 21
881.1749305793796
 31
0.0
 12
-1361.902951880732
 22
-2463.588071393663
 32
0.0
 70
   128
 71
     5
 42
18.0
  3
IGA
100
AcDbAlignedDimension
 13
-359.9999999999991
 23
780.0
 33
0.0
 14
-341.9999999999991
 24
727.3766009906971
 34
0.0
100
AcDbRotatedDimension
1001
ACAD
1000
DSTYLE
1002
{
1070
    40
1040
15.0
1070
   143
1040
0.039
1070
   172
1070
     1
1070
   271
1070
     0
1070
   279
1070
     0
1070
   288
1070
     1
1002
}
  0
DIMENSION
  5
85B5
330
85A1
100
AcDbEntity
  8
3
100
AcDbDimension
  2
*D23
 10
-17.99999999999909
 20
881.1749305793796
 30
0.0
 11
-179.9999999999991
 21
918.6749305793796
 31
0.0
 12
-1361.902951880732
 22
-2463.588071393663
 32
0.0
 71
     5
 42
324.0
  3
IGA
100
AcDbAlignedDimension
 13
-341.9999999999991
 23
727.3766009906971
 33
0.0
 14
-17.99999999999909
 24
727.3766009906971
 34
0.0
100
AcDbRotatedDimension
1001
ACAD
1000
DSTYLE
1002
{
1070
    40
1040
15.0
1070
   143
1040
0.039
1070
   172
1070
     1
1070
   271
1070
     0
1070
   279
1070
     1
1070
   288
1070
     1
1002
}
  0
DIMENSION
  5
85B6
330
85A1
100
AcDbEntity
  8
3
100
AcDbDimension
  2
*D24
 10
-17.99999999999909
 20
881.1749305793796
 30
0.0
 11
107.142857142858
 21
881.1749305793796
 31
0.0
 12
-1361.902951880732
 22
-2463.588071393663
 32
0.0
 70
   128
 71
     5
 42
18.0
  3
IGA
100
AcDbAlignedDimension
 13
0.0000000000009095
 23
780.0
 33
0.0
 14
-17.99999999999909
 24
727.3766009906971
 34
0.0
 50
180.0
100
AcDbRotatedDimension
1001
ACAD
1000
DSTYLE
1002
{
1070
    40
1040
15.0
1070
   143
1040
0.039
1070
   172
1070
     1
1070
   271
1070
     0
1070
   279
1070
     0
1070
   288
1070
     1
1002
}
  0
DIMENSION
  5
85B7
330
85A1
100
AcDbEntity
  8
3
100
AcDbDimension
  2
*D25
 10
256.0983428261111
 20
390.3766009906972
 30
0.0
 11
218.5983428261106
 21
195.1883004953493
 31
0.0
 12
-1361.902951880732
 22
-2463.588071393663
 32
0.0
 71
     5
 42
390.3766009906972
  3
IGA
100
AcDbAlignedDimension
 13
0.0
 23
0.0
 33
0.0
 14
-1.258761608395616
 24
390.3766009906972
 34
0.0
 50
90.0
100
AcDbRotatedDimension
1001
ACAD
1000
DSTYLE
1002
{
1070
    40
1040
15.0
1070
   143
1040
0.039
1070
   172
1070
     1
1070
   271
1070
     0
1070
   279
1070
     1
1070
   288
1070
     1
1002
}
  0
DIMENSION
  5
85B8
330
85A1
100
AcDbEntity
  8
3
100
AcDbDimension
  2
*D26
 10
256.0983428261111
 20
710.3766009906971
 30
0.0
 11
218.5983428261106
 21
550.3766009906976
 31
0.0
 12
-1361.902951880732
 22
-2463.588071393663
 32
0.0
 71
     5
 42
320.0
  3
IGA
100
AcDbAlignedDimension
 13
-1.258761608395616
 23
390.3766009906972
 33
0.0
 14
-1.258761608395616
 24
710.3766009906971
 34
0.0
 50
90.0
100
AcDbRotatedDimension
1001
ACAD
1000
DSTYLE
1002
{
1070
    40
1040
15.0
1070
   143
1040
0.039
1070
   172
1070
     1
1070
   271
1070
     0
1070
   279
1070
     1
1070
   288
1070
     1
1002
}
  0
DIMENSION
  5
85B9
330
85A1
100
AcDbEntity
  8
3
100
AcDbDimension
  2
*D27
 10
-730.0000000000009
 20
-177.6323105891701
 30
0.0
 11
-911.4285714285712
 21
-177.6323105891701
 31
0.0
 12
-1361.902951880732
 22
-2463.588071393663
 32
0.0
 70
   128
 71
     5
 42
69.99999999999886
  3
IGA
100
AcDbAlignedDimension
 13
-799.9999999999998
 23
19.0
 33
0.0
 14
-730.0000000000009
 24
-0.0000000000009095
 34
0.0
100
AcDbRotatedDimension
1001
ACAD
1000
DSTYLE
1002
{
1070
    40
1040
15.0
1070
   143
1040
0.039
1070
   172
1070
     1
1070
   271
1070
     0
1070
   279
1070
     0
1070
   288
1070
     1
1002
}
  0
DIMENSION
  5
85BA
330
85A1
100
AcDbEntity
  8
3
100
AcDbDimension
  2
*D28
 10
-400.0000000000008
 20
-177.6323105891701
 30
0.0
 11
-565.0000000000009
 21
-140.1323105891701
 31
0.0
 12
-1361.902951880732
 22
-2463.588071393663
 32
0.0
 71
     5
 42
330.0
  3
IGA
100
AcDbAlignedDimension
 13
-730.0000000000009
 23
-0.0000000000009095
 33
0.0
 14
-400.0000000000008
 24
-0.0000000000009095
 34
0.0
100
AcDbRotatedDimension
1001
ACAD
1000
DSTYLE
1002
{
1070
    40
1040
15.0
1070
   143
1040
0.039
1070
   172
1070
     1
1070
   271
1070
     0
1070
   279
1070
     1
1070
   288
1070
     1
1002
}
  0
DIMENSION
  5
85BB
330
85A1
100
AcDbEntity
  8
3
100
AcDbDimension
  2
*D29
 10
-69.99999999999886
 20
-177.6323105891701
 30
0.0
 11
-235.0
 21
-140.1323105891701
 31
0.0
 12
-1361.902951880732
 22
-2463.588071393663
 32
0.0
 71
     5
 42
330.0000000000021
  3
IGA
100
AcDbAlignedDimension
 13
-400.0000000000008
 23
-0.0000000000009095
 33
0.0
 14
-69.99999999999886
 24
-0.0000000000009095
 34
0.0
100
AcDbRotatedDimension
1001
ACAD
1000
DSTYLE
1002
{
1070
    40
1040
15.0
1070
   143
1040
0.039
1070
   172
1070
     1
1070
   271
1070
     0
1070
   279
1070
     1
1070
   288
1070
     1
1002
}
  0
DIMENSION
  5
85BC
330
85A1
100
AcDbEntity
  8
3
100
AcDbDimension
  2
*D30
 10
-69.99999999999886
 20
-177.6323105891701
 30
0.0
 11
111.4285714285715
 21
-177.6323105891701
 31
0.0
 12
-1361.902951880732
 22
-2463.588071393663
 32
0.0
 70
   128
 71
     5
 42
69.99999999999886
  3
IGA
100
AcDbAlignedDimension
 13
0.0
 23
0.0
 33
0.0
 14
-69.99999999999886
 24
-0.0000000000009095
 34
0.0
 50
180.0
100
AcDbRotatedDimension
1001
ACAD
1000
DSTYLE
1002
{
1070
    40
1040
15.0
1070
   143
1040
0.039
1070
   172
1070
     1
1070
   271
1070
     0
1070
   279
1070
     0
1070
   288
1070
     1
1002
}
  0
DIMENSION
  5
85BD
330
85A1
100
AcDbEntity
  8
3
100
AcDbDimension
  2
*D31
 10
256.0983428261116
 20
780.0
 30
0.0
 11
256.0983428261111
 21
891.4285714285719
 31
0.0
 12
-1361.902951880732
 22
-2463.588071393663
 32
0.0
 70
   128
 71
     5
 42
69.62339900930283
  3
IGA
100
AcDbAlignedDimension
 13
-1.258761608395616
 23
710.3766009906971
 33
0.0
 14
0.0000000000009095
 24
780.0
 34
0.0
 50
90.0
100
AcDbRotatedDimension
1001
ACAD
1000
DSTYLE
1002
{
1070
    40
1040
15.0
1070
   143
1040
0.039
1070
   172
1070
     1
1070
   271
1070
     0
1070
   279
1070
     0
1070
   288
1070
     1
1002
}
  0
DIMENSION
  5
85BE
330
85A1
100
AcDbEntity
  8
3
100
AcDbDimension
  2
*D32
 10
-998.1275065780309
 20
362.0
 30
0.0
 11
-998.1275065780314
 21
487.1428571428573
 31
0.0
 12
-1361.902951880732
 22
-2463.588071393663
 32
0.0
 70
   128
 71
     5
 42
18.0
  3
IGA
100
AcDbAlignedDimension
 13
-799.9999999999991
 23
380.0
 33
0.0
 14
-746.7412383916044
 24
362.0
 34
0.0
 50
90.0
100
AcDbRotatedDimension
1001
ACAD
1000
DSTYLE
1002
{
1070
    40
1040
15.0
1070
   143
1040
0.039
1070
   172
1070
     1
1070
   271
1070
     0
1070
   279
1070
     0
1070
   288
1070
     1
1002
}
  0
DIMENSION
  5
85BF
330
85A1
100
AcDbEntity
  8
3
100
AcDbDimension
  2
*D33
 10
-998.1275065780309
 20
17.99999999999909
 30
0.0
 11
-1035.627506578031
 21
189.9999999999995
 31
0.0
 12
-1361.902951880732
 22
-2463.588071393663
 32
0.0
 71
     5
 42
344.0000000000009
  3
IGA
100
AcDbAlignedDimension
 13
-746.7412383916044
 23
362.0
 33
0.0
 14
-746.7412383916044
 24
17.99999999999909
 34
0.0
 50
90.0
100
AcDbRotatedDimension
1001
ACAD
1000
DSTYLE
1002
{
1070
    40
1040
15.0
1070
   143
1040
0.039
1070
   172
1070
     1
1070
   271
1070
     0
1070
   279
1070
     1
1070
   288
1070
     1
1002
}
  0
DIMENSION
  5
85C0
330
85A1
100
AcDbEntity
  8
3
100
AcDbDimension
  2
*D34
 10
-998.1275065780309
 20
17.99999999999909
 30
0.0
 11
-998.1275065780314
 21
-107.1428571428582
 31
0.0
 12
-1361.902951880732
 22
-2463.588071393663
 32
0.0
 70
   128
 71
     5
 42
18.0
  3
IGA
100
AcDbAlignedDimension
 13
-799.9999999999991
 23
-0.0000000000009095
 33
0.0
 14
-746.7412383916044
 24
17.99999999999909
 34
0.0
 50
270.0
100
AcDbRotatedDimension
1001
ACAD
1000
DSTYLE
1002
{
1070
    40
1040
15.0
1070
   143
1040
0.039
1070
   172
1070
     1
1070
   271
1070
     0
1070
   279
1070
     0
1070
   288
1070
     1
1002
}
  0
MULTILEADER
  5
85C1
102
{ACAD_XDICTIONARY
360
B5A5
102
}
330
85A1
100
AcDbEntity
  8
3
 92
     1268
310
F4040000250000000C00000016000000000000C00C00000033000000000000000C00000013000000993A0000AC0000000B000000D09F1F0E5D9D764020AEB11F1A9553C0000000000000000000000000000000000000000000000000000000000000F03F000000000000F03F0000000000000000000000000000000037817E
310
31328C8A0007000000010000000000000000804640000000000000F03F0000000000000000000000000000F03F000000000000000000000000000000000000000073696D706C65782E73687800657874666F6E742E73687800BC0000000B000000D09F1F0E5D9D764010D7D80F8D2A63C00000000000000000000000000000
310
00000000000000000000000000000000F03F000000000000F03F000000000000000000000000000000003735817E3430817E35288FE389BA8378815B83588BA4290017000000010000000000000000804640000000000000F03F0000000000000000000000000000F03F000000000000000000000000000000000000000073
310
696D706C65782E73687800657874666F6E742E736878000C00000033000000000000000C00000010000000010000000C00000016000000000000C00C00000012000000FF7F00000C0000001300000001000000880000001D0000006E4B4A2F2B263BC06813E9424E8729C0000000000000000030DF22175E7851C06813E942
310
4E8729406E4B4A2F2B263BC0000000000000000000FFFFFFFFFF3140000000000000000000000000000000000000000000003E400000000000000000000000000000000000000000000000000000000000000000000000000000F03F0C00000016000000020000C30C00000017000000FDFFFFFF5400000020000000020000
310
00000000000000F0BF555555555555C53F000000000000000000000000000000000000000000000000000000000000000000000000000000000000000000000000000000000000F03F0C00000016000000020000C30C00000017000000FDFFFFFF540000002000000002000000000000000000000000000000000000000000
310
000000000000000000000000F0BF555555555555C5BF000000000000000000000000000000000000000000000000000000000000F03F0C00000016000000020000C30C00000017000000FDFFFFFF540000002000000002000000000000000000000000000000000000000000000000000000000000000000F0BF0000000000
310
000000000000000000000000000000000000000000000000000000000000000000F03F080000001F0000000C00000016000000000000C00C00000012000000FF7F00000C00000033000000000000000C00000013000000891300003C0000000600000002000000AA98A096A65D45C032D52D7A63F114400000000000000000
310
6839B9A7F666744010D7D80F8D0A65C000000000000000000C00000013000000112700003C00000006000000020000006839B9A7F666744010D7D80F8D0A65C00000000000000000CE9F1F0E5DBD744010D7D80F8D0A65C000000000000000000C00000016000000000000C00C00000012000000FF7F00000C000000170000
310
00000000000C000000130000009A3A00003C0000000600000002000000CE9F1F0E5DBD744010D7D80F8D0A65C00000000000000000860CD1D57B74904010D7D80F8D0A65C000000000000000000C00000016000000000000C00C00000012000000FF7F00000C00000017000000FFFFFFFF0C0000003300000000000000
100
AcDbMLeader
300
CONTEXT_DATA{
 40
15.0
 10
331.8352185473749
 20
-168.329719470516
 30
0.0
 41
45.0
140
30.0
145
30.0
174
     5
175
     5
176
     0
177
     0
290
     1
304
7\U+00D712穴\P75\U+00D740\U+00D75(上下ベース共)
 11
0.0
 21
0.0
 31
1.0
340
10
 12
361.835218547375
 22
-33.32971947051601
 32
0.0
 13
1.0
 23
0.0
 33
0.0
 42
0.0
 43
0.0
 44
0.0
 45
1.0
170
     2
 90
-1073741824
171
     1
172
     5
 91
-1073741824
141
0.0
 92
        0
291
     0
292
     0
173
     0
293
     0
142
0.0
143
0.0
294
     0
295
     0
296
     0
110
-69.88074282079174
120
17.99999999999909
130
0.0
111
1.0
121
0.0
131
0.0
112
0.0
122
1.0
132
0.0
297
     0
302
LEADER{
290
     1
291
     1
 10
326.4352185473749
 20
-168.329719470516
 30
0.0
 11
1.0
 21
0.0
 31
0.0
 90
        0
 40
5.399999999999999
304
LEADER_LINE{
 10
-69.88074282079174
 20
17.99999999999909
 30
0.0
 91
        0
305
}
303
}
301
}
340
8485
 90
 50681600
170
     1
 91
-1056964608
341
13
171
    -2
290
     1
291
     1
 41
0.36
342
7A11
 42
2.0
172
     2
343
10
173
     5
 95
        5
174
     1
175
     0
 92
-1056964608
292
     0
 93
-1056964608
 10
1.0
 20
1.0
 30
1.0
 43
0.0
176
     0
293
     0
294
     0
178
     0
179
     1
 45
15.0
1001
ACAD_MLEADERVER
1070
     2
  0
ENDBLK
  5
85C3
330
85A1
100
AcDbEntity
  8
0
100
AcDbBlockEnd
  0
BLOCK
  5
85FE
330
85FD
100
AcDbEntity
  8
0
100
AcDbBlockBegin
  2
*D36
 70
     1
 10
0.0
 20
0.0
 30
0.0
  3
*D36
  1

  0
LINE
  5
ABBD
330
85FD
100
AcDbEntity
  8
3
 62
     0
370
    -2
100
AcDbLine
 10
1526.83089100599
 20
2458.723325655792
 30
0.0
 11
1688.667406820587
 21
2458.723325655792
 31
0.0
  0
LINE
  5
ABBE
330
85FD
100
AcDbEntity
  8
3
 62
     0
370
    -2
100
AcDbLine
 10
1526.830891005992
 20
2838.723325655792
 30
0.0
 11
1688.667406820587
 21
2838.723325655792
 31
0.0
  0
LINE
  5
ABBF
330
85FD
100
AcDbEntity
  8
3
 62
     0
370
    -2
100
AcDbLine
 10
1673.667406820587
 20
2488.723325655792
 30
0.0
 11
1673.667406820587
 21
2808.723325655792
 31
0.0
  0
INSERT
  5
ABC0
330
85FD
100
AcDbEntity
  8
3
 62
     0
370
    -2
100
AcDbBlockReference
  2
_OPEN
 10
1673.667406820587
 20
2458.723325655792
 30
0.0
 41
30.0
 42
30.0
 43
30.0
 50
270.0
  0
INSERT
  5
ABC1
330
85FD
100
AcDbEntity
  8
3
 62
     0
370
    -2
100
AcDbBlockReference
  2
_OPEN
 10
1673.667406820587
 20
2838.723325655792
 30
0.0
 41
30.0
 42
30.0
 43
30.0
 50
90.0
  0
MTEXT
  5
ABC2
330
85FD
100
AcDbEntity
  8
3
 62
     0
100
AcDbMText
 10
1636.167406820586
 20
2648.723325655792
 30
0.0
 40
45.0
 41
0.0
 71
     5
 72
     1
  1
\A1;380
 11
0.0000000000000001
 21
1.0
 31
0.0
 73
     1
 44
1.0
1001
ACAD
1000
MTEXTBEGIN
1070
    73
1070
     1
1070
    44
1040
1.0
1070
    74
1070
     0
1000
MTEXTEND
  0
POINT
  5
ABC3
330
85FD
100
AcDbEntity
  8
DEFPOINTS
 62
     0
100
AcDbPoint
 10
1519.33089100599
 20
2458.723325655792
 30
0.0
  0
POINT
  5
ABC4
330
85FD
100
AcDbEntity
  8
DEFPOINTS
 62
     0
100
AcDbPoint
 10
1519.330891005992
 20
2838.723325655792
 30
0.0
  0
POINT
  5
ABC5
330
85FD
100
AcDbEntity
  8
DEFPOINTS
 62
     0
100
AcDbPoint
 10
1673.667406820587
 20
2838.723325655792
 30
0.0
  0
ENDBLK
  5
85FF
330
85FD
100
AcDbEntity
  8
0
100
AcDbBlockEnd
  0
BLOCK
  5
860A
330
8609
100
AcDbEntity
  8
0
100
AcDbBlockBegin
  2
*D37
 70
     1
 10
0.0
 20
0.0
 30
0.0
  3
*D37
  1

  0
LINE
  5
ABC6
330
8609
100
AcDbEntity
  8
3
 62
     0
370
    -2
100
AcDbLine
 10
719.3308910059904
 20
3246.223325655793
 30
0.0
 11
719.3308910059904
 21
3398.791711240138
 31
0.0
  0
LINE
  5
ABC7
330
8609
100
AcDbEntity
  8
3
 62
     0
370
    -2
100
AcDbLine
 10
1079.33089100599
 20
3246.223325655793
 30
0.0
 11
1079.33089100599
 21
3398.791711240138
 31
0.0
  0
LINE
  5
ABC8
330
8609
100
AcDbEntity
  8
3
 62
     0
370
    -2
100
AcDbLine
 10
749.3308910059904
 20
3383.791711240137
 30
0.0
 11
1049.33089100599
 21
3383.791711240137
 31
0.0
  0
INSERT
  5
ABC9
330
8609
100
AcDbEntity
  8
3
 62
     0
370
    -2
100
AcDbBlockReference
  2
_OPEN
 10
719.3308910059904
 20
3383.791711240137
 30
0.0
 41
30.0
 42
30.0
 43
30.0
 50
180.0
  0
INSERT
  5
ABCA
330
8609
100
AcDbEntity
  8
3
 62
     0
370
    -2
100
AcDbBlockReference
  2
_OPEN
 10
1079.33089100599
 20
3383.791711240137
 30
0.0
 41
30.0
 42
30.0
 43
30.0
  0
MTEXT
  5
ABCB
330
8609
100
AcDbEntity
  8
3
 62
     0
100
AcDbMText
 10
899.3308910059905
 20
3421.291711240138
 30
0.0
 40
45.0
 41
0.0
 71
     5
 72
     1
  1
\A1;360
 73
     1
 44
1.0
1001
ACAD
1000
MTEXTBEGIN
1070
    73
1070
     1
1070
    44
1040
1.0
1070
    74
1070
     0
1000
MTEXTEND
  0
POINT
  5
ABCC
330
8609
100
AcDbEntity
  8
DEFPOINTS
 62
     0
100
AcDbPoint
 10
719.3308910059904
 20
3238.723325655792
 30
0.0
  0
POINT
  5
ABCD
330
8609
100
AcDbEntity
  8
DEFPOINTS
 62
     0
100
AcDbPoint
 10
1079.33089100599
 20
3238.723325655792
 30
0.0
  0
POINT
  5
ABCE
330
8609
100
AcDbEntity
  8
DEFPOINTS
 62
     0
100
AcDbPoint
 10
1079.33089100599
 20
3383.791711240137
 30
0.0
  0
ENDBLK
  5
860B
330
8609
100
AcDbEntity
  8
0
100
AcDbBlockEnd
  0
BLOCK
  5
8616
330
8615
100
AcDbEntity
  8
0
100
AcDbBlockBegin
  2
*D38
 70
     1
 10
0.0
 20
0.0
 30
0.0
  3
*D38
  1

  0
LINE
  5
ABCF
330
8615
100
AcDbEntity
  8
3
 62
     0
370
    -2
100
AcDbLine
 10
1079.33089100599
 20
3246.223325655793
 30
0.0
 11
1079.33089100599
 21
3398.791711240138
 31
0.0
  0
LINE
  5
ABD0
330
8615
100
AcDbEntity
  8
3
 62
     0
370
    -2
100
AcDbLine
 10
1519.330891005992
 20
2846.223325655792
 30
0.0
 11
1519.330891005992
 21
3398.791711240138
 31
0.0
  0
LINE
  5
ABD1
330
8615
100
AcDbEntity
  8
3
 62
     0
370
    -2
100
AcDbLine
 10
1109.33089100599
 20
3383.791711240137
 30
0.0
 11
1489.330891005992
 21
3383.791711240137
 31
0.0
  0
INSERT
  5
ABD2
330
8615
100
AcDbEntity
  8
3
 62
     0
370
    -2
100
AcDbBlockReference
  2
_OPEN
 10
1079.33089100599
 20
3383.791711240137
 30
0.0
 41
30.0
 42
30.0
 43
30.0
 50
180.0
  0
INSERT
  5
ABD3
330
8615
100
AcDbEntity
  8
3
 62
     0
370
    -2
100
AcDbBlockReference
  2
_OPEN
 10
1519.330891005992
 20
3383.791711240137
 30
0.0
 41
30.0
 42
30.0
 43
30.0
  0
MTEXT
  5
ABD4
330
8615
100
AcDbEntity
  8
3
 62
     0
100
AcDbMText
 10
1299.330891005991
 20
3421.291711240138
 30
0.0
 40
45.0
 41
0.0
 71
     5
 72
     1
  1
\A1;440
 73
     1
 44
1.0
1001
ACAD
1000
MTEXTBEGIN
1070
    73
1070
     1
1070
    44
1040
1.0
1070
    74
1070
     0
1000
MTEXTEND
  0
POINT
  5
ABD5
330
8615
100
AcDbEntity
  8
DEFPOINTS
 62
     0
100
AcDbPoint
 10
1079.33089100599
 20
3238.723325655792
 30
0.0
  0
POINT
  5
ABD6
330
8615
100
AcDbEntity
  8
DEFPOINTS
 62
     0
100
AcDbPoint
 10
1519.330891005992
 20
2838.723325655792
 30
0.0
  0
POINT
  5
ABD7
330
8615
100
AcDbEntity
  8
DEFPOINTS
 62
     0
100
AcDbPoint
 10
1519.330891005992
 20
3383.791711240137
 30
0.0
  0
ENDBLK
  5
8617
330
8615
100
AcDbEntity
  8
0
100
AcDbBlockEnd
  0
BLOCK
  5
88B5
330
88B4
100
AcDbEntity
  8
0
100
AcDbBlockBegin
  2
*D39
 70
     1
 10
0.0
 20
0.0
 30
0.0
  3
*D39
  1

  0
LINE
  5
B2DD
330
88B4
100
AcDbEntity
  8
3
 62
     0
370
    -2
100
AcDbLine
 10
2586.93139905458
 20
1035.861105869452
 30
0.0
 11
2586.93139905458
 21
959.1124981267757
 31
0.0
  0
LINE
  5
B2DE
330
88B4
100
AcDbEntity
  8
3
 62
     0
370
    -2
100
AcDbLine
 10
2751.931399054579
 20
1061.362935140263
 30
0.0
 11
2751.931399054579
 21
959.1124981267757
 31
0.0
  0
LINE
  5
B2DF
330
88B4
100
AcDbEntity
  8
3
 62
     0
370
    -2
100
AcDbLine
 10
2616.93139905458
 20
974.1124981267757
 30
0.0
 11
2721.931399054579
 21
974.1124981267757
 31
0.0
  0
INSERT
  5
B2E0
330
88B4
100
AcDbEntity
  8
3
 62
     0
370
    -2
100
AcDbBlockReference
  2
_OPEN
 10
2586.93139905458
 20
974.1124981267757
 30
0.0
 41
30.0
 42
30.0
 43
30.0
 50
180.0
  0
INSERT
  5
B2E1
330
88B4
100
AcDbEntity
  8
3
 62
     0
370
    -2
100
AcDbBlockReference
  2
_OPEN
 10
2751.931399054579
 20
974.1124981267757
 30
0.0
 41
30.0
 42
30.0
 43
30.0
  0
MTEXT
  5
B2E2
330
88B4
100
AcDbEntity
  8
3
 62
     0
100
AcDbMText
 10
2669.431399054579
 20
1011.612498126776
 30
0.0
 40
45.0
 41
0.0
 71
     5
 72
     1
  1
\A1;165
 73
     1
 44
1.0
1001
ACAD
1000
MTEXTBEGIN
1070
    73
1070
     1
1070
    44
1040
1.0
1070
    74
1070
     0
1000
MTEXTEND
  0
POINT
  5
B2E3
330
88B4
100
AcDbEntity
  8
DEFPOINTS
 62
     0
100
AcDbPoint
 10
2586.93139905458
 20
1043.361105869452
 30
0.0
  0
POINT
  5
B2E4
330
88B4
100
AcDbEntity
  8
DEFPOINTS
 62
     0
100
AcDbPoint
 10
2751.931399054579
 20
1068.862935140263
 30
0.0
  0
POINT
  5
B2E5
330
88B4
100
AcDbEntity
  8
DEFPOINTS
 62
     0
100
AcDbPoint
 10
2751.931399054579
 20
974.1124981267757
 30
0.0
  0
ENDBLK
  5
88B6
330
88B4
100
AcDbEntity
  8
0
100
AcDbBlockEnd
  0
BLOCK
  5
89BB
330
89BA
100
AcDbEntity
  8
0
100
AcDbBlockBegin
  2
*D40
 70
     1
 10
0.0
 20
0.0
 30
0.0
  3
*D40
  1

  0
LINE
  5
B2E6
330
89BA
100
AcDbEntity
  8
3
 62
     0
370
    -2
100
AcDbLine
 10
719.3308910059918
 20
1061.362935140263
 30
0.0
 11
719.3308910059918
 21
957.5486898633798
 31
0.0
  0
LINE
  5
B2E7
330
89BA
100
AcDbEntity
  8
3
 62
     0
370
    -2
100
AcDbLine
 10
899.3308910059914
 20
1035.861105869452
 30
0.0
 11
899.3308910059914
 21
957.5486898633798
 31
0.0
  0
LINE
  5
B2E8
330
89BA
100
AcDbEntity
  8
3
 62
     0
370
    -2
100
AcDbLine
 10
749.3308910059917
 20
972.5486898633798
 30
0.0
 11
869.3308910059913
 21
972.5486898633798
 31
0.0
  0
INSERT
  5
B2E9
330
89BA
100
AcDbEntity
  8
3
 62
     0
370
    -2
100
AcDbBlockReference
  2
_OPEN
 10
719.3308910059918
 20
972.5486898633798
 30
0.0
 41
30.0
 42
30.0
 43
30.0
 50
180.0
  0
INSERT
  5
B2EA
330
89BA
100
AcDbEntity
  8
3
 62
     0
370
    -2
100
AcDbBlockReference
  2
_OPEN
 10
899.3308910059914
 20
972.5486898633798
 30
0.0
 41
30.0
 42
30.0
 43
30.0
  0
MTEXT
  5
B2EB
330
89BA
100
AcDbEntity
  8
3
 62
     0
100
AcDbMText
 10
809.3308910059915
 20
1010.04868986338
 30
0.0
 40
45.0
 41
0.0
 71
     5
 72
     1
  1
\A1;180
 73
     1
 44
1.0
1001
ACAD
1000
MTEXTBEGIN
1070
    73
1070
     1
1070
    44
1040
1.0
1070
    74
1070
     0
1000
MTEXTEND
  0
POINT
  5
B2EC
330
89BA
100
AcDbEntity
  8
DEFPOINTS
 62
     0
100
AcDbPoint
 10
719.3308910059918
 20
1068.862935140263
 30
0.0
  0
POINT
  5
B2ED
330
89BA
100
AcDbEntity
  8
DEFPOINTS
 62
     0
100
AcDbPoint
 10
899.3308910059914
 20
1043.361105869452
 30
0.0
  0
POINT
  5
B2EE
330
89BA
100
AcDbEntity
  8
DEFPOINTS
 62
     0
100
AcDbPoint
 10
899.3308910059914
 20
972.5486898633798
 30
0.0
  0
ENDBLK
  5
89BC
330
89BA
100
AcDbEntity
  8
0
100
AcDbBlockEnd
  0
BLOCK
  5
89DC
330
89DA
100
AcDbEntity
  8
0
100
AcDbBlockBegin
  2
_DotSmall
 70
     0
 10
0.0
 20
0.0
 30
0.0
  3
_DotSmall
  1

  0
LWPOLYLINE
  5
89DB
330
89DA
100
AcDbEntity
  8
0
  6
ByBlock
 62
     0
100
AcDbPolyline
 90
        2
 70
     1
 43
0.5
 10
-0.0625
 20
0.0
 42
1.0
 10
0.0625
 20
0.0
 42
1.0
  0
ENDBLK
  5
89DD
330
89DA
100
AcDbEntity
  8
0
100
AcDbBlockEnd
  0
BLOCK
  5
8E7A
330
8E79
100
AcDbEntity
  8
0
100
AcDbBlockBegin
  2
*D42
 70
     1
 10
0.0
 20
0.0
 30
0.0
  3
*D42
  1

  0
LINE
  5
B525
330
8E79
100
AcDbEntity
  8
3
 62
     0
370
    -2
100
AcDbLine
 10
641.4960910833433
 20
1932.362935140263
 30
0.0
 11
291.0291596384853
 21
1932.362935140264
 31
0.0
  0
LINE
  5
B526
330
8E79
100
AcDbEntity
  8
3
 62
     0
370
    -2
100
AcDbLine
 10
711.8308910059917
 20
1068.862935140263
 30
0.0
 11
291.0291596384851
 21
1068.862935140263
 31
0.0
  0
LINE
  5
B527
330
8E79
100
AcDbEntity
  8
3
 62
     0
370
    -2
100
AcDbLine
 10
306.0291596384853
 20
1902.362935140263
 30
0.0
 11
306.0291596384851
 21
1098.862935140263
 31
0.0
  0
INSERT
  5
B528
330
8E79
100
AcDbEntity
  8
3
 62
     0
370
    -2
100
AcDbBlockReference
  2
_OPEN
 10
306.0291596384853
 20
1932.362935140264
 30
0.0
 41
30.0
 42
30.0
 43
30.0
 50
90.0
  0
INSERT
  5
B529
330
8E79
100
AcDbEntity
  8
3
 62
     0
370
    -2
100
AcDbBlockReference
  2
_OPEN
 10
306.0291596384851
 20
1068.862935140263
 30
0.0
 41
30.0
 42
30.0
 43
30.0
 50
270.0
  0
MTEXT
  5
B52A
330
8E79
100
AcDbEntity
  8
3
 62
     0
100
AcDbMText
 10
268.529159638485
 20
1525.339850451491
 30
0.0
 40
45.0
 41
0.0
 71
     5
 72
     1
  1
\A1;864
 11
0.0000000000000001
 21
1.0
 31
0.0
 73
     1
 44
1.0
1001
ACAD
1000
MTEXTBEGIN
1070
    73
1070
     1
1070
    44
1040
1.0
1070
    74
1070
     0
1000
MTEXTEND
  0
POINT
  5
B52B
330
8E79
100
AcDbEntity
  8
DEFPOINTS
 62
     0
100
AcDbPoint
 10
648.9960910833433
 20
1932.362935140263
 30
0.0
  0
POINT
  5
B52C
330
8E79
100
AcDbEntity
  8
DEFPOINTS
 62
     0
100
AcDbPoint
 10
719.3308910059918
 20
1068.862935140263
 30
0.0
  0
POINT
  5
B52D
330
8E79
100
AcDbEntity
  8
DEFPOINTS
 62
     0
100
AcDbPoint
 10
306.0291596384851
 20
1068.862935140263
 30
0.0
  0
ENDBLK
  5
8E7B
330
8E79
100
AcDbEntity
  8
0
100
AcDbBlockEnd
  0
BLOCK
  5
ABA9
330
ABA8
100
AcDbEntity
  8
0
100
AcDbBlockBegin
  2
*D43
 70
     1
 10
0.0
 20
0.0
 30
0.0
  3
*D43
  1

  0
LINE
  5
ABB4
330
ABA8
100
AcDbEntity
  8
3
 62
     0
370
    -2
100
AcDbLine
 10
711.8308910059913
 20
3238.723325655793
 30
0.0
 11
533.9307431850584
 21
3238.723325655793
 31
0.0
  0
LINE
  5
ABB5
330
ABA8
100
AcDbEntity
  8
3
 62
     0
370
    -2
100
AcDbLine
 10
711.8308910059923
 20
2458.723325655793
 30
0.0
 11
533.9307431850583
 21
2458.723325655793
 31
0.0
  0
LINE
  5
ABB6
330
ABA8
100
AcDbEntity
  8
3
 62
     0
370
    -2
100
AcDbLine
 10
548.9307431850583
 20
3208.723325655792
 30
0.0
 11
548.9307431850583
 21
2488.723325655792
 31
0.0
  0
INSERT
  5
ABB7
330
ABA8
100
AcDbEntity
  8
3
 62
     0
370
    -2
100
AcDbBlockReference
  2
_OPEN
 10
548.9307431850583
 20
3238.723325655793
 30
0.0
 41
30.0
 42
30.0
 43
30.0
 50
90.0
  0
INSERT
  5
ABB8
330
ABA8
100
AcDbEntity
  8
3
 62
     0
370
    -2
100
AcDbBlockReference
  2
_OPEN
 10
548.9307431850583
 20
2458.723325655793
 30
0.0
 41
30.0
 42
30.0
 43
30.0
 50
270.0
  0
MTEXT
  5
ABB9
330
ABA8
100
AcDbEntity
  8
3
 62
     0
100
AcDbMText
 10
511.4307431850579
 20
2848.723325655793
 30
0.0
 40
45.0
 41
0.0
 71
     5
 72
     1
  1
\A1;780
 11
0.0000000000000001
 21
1.0
 31
0.0
 73
     1
 44
1.0
1001
ACAD
1000
MTEXTBEGIN
1070
    73
1070
     1
1070
    44
1040
1.0
1070
    74
1070
     0
1000
MTEXTEND
  0
POINT
  5
ABBA
330
ABA8
100
AcDbEntity
  8
DEFPOINTS
 62
     0
100
AcDbPoint
 10
719.3308910059913
 20
3238.723325655793
 30
0.0
  0
POINT
  5
ABBB
330
ABA8
100
AcDbEntity
  8
DEFPOINTS
 62
     0
100
AcDbPoint
 10
719.3308910059922
 20
2458.723325655793
 30
0.0
  0
POINT
  5
ABBC
330
ABA8
100
AcDbEntity
  8
DEFPOINTS
 62
     0
100
AcDbPoint
 10
548.9307431850583
 20
2458.723325655793
 30
0.0
  0
ENDBLK
  5
ABAA
330
ABA8
100
AcDbEntity
  8
0
100
AcDbBlockEnd
  0
BLOCK
  5
B30C
330
B30B
100
AcDbEntity
  8
0
100
AcDbBlockBegin
  2
*D44
 70
     1
 10
0.0
 20
0.0
 30
0.0
  3
*D44
  1

  0
LINE
  5
B317
330
B30B
100
AcDbEntity
  8
3
 62
     0
370
    -2
100
AcDbLine
 10
719.3308910059922
 20
2451.223325655793
 30
0.0
 11
719.3308910059922
 21
2230.197485728941
 31
0.0
  0
LINE
  5
B318
330
B30B
100
AcDbEntity
  8
3
 62
     0
370
    -2
100
AcDbLine
 10
1519.330891005991
 20
2451.22332565577
 30
0.0
 11
1519.330891005991
 21
2230.197485728941
 31
0.0
  0
LINE
  5
B319
330
B30B
100
AcDbEntity
  8
3
 62
     0
370
    -2
100
AcDbLine
 10
749.3308910059923
 20
2245.197485728941
 30
0.0
 11
1489.330891005991
 21
2245.197485728941
 31
0.0
  0
INSERT
  5
B31A
330
B30B
100
AcDbEntity
  8
3
 62
     0
370
    -2
100
AcDbBlockReference
  2
_OPEN
 10
719.3308910059922
 20
2245.197485728941
 30
0.0
 41
30.0
 42
30.0
 43
30.0
 50
180.0
  0
INSERT
  5
B31B
330
B30B
100
AcDbEntity
  8
3
 62
     0
370
    -2
100
AcDbBlockReference
  2
_OPEN
 10
1519.330891005991
 20
2245.197485728941
 30
0.0
 41
30.0
 42
30.0
 43
30.0
  0
MTEXT
  5
B31C
330
B30B
100
AcDbEntity
  8
3
 62
     0
100
AcDbMText
 10
1119.330891005992
 20
2282.697485728941
 30
0.0
 40
45.0
 41
0.0
 71
     5
 72
     1
  1
\A1;800
 73
     1
 44
1.0
1001
ACAD
1000
MTEXTBEGIN
1070
    73
1070
     1
1070
    44
1040
1.0
1070
    74
1070
     0
1000
MTEXTEND
  0
POINT
  5
B31D
330
B30B
100
AcDbEntity
  8
DEFPOINTS
 62
     0
100
AcDbPoint
 10
719.3308910059922
 20
2458.723325655793
 30
0.0
  0
POINT
  5
B31E
330
B30B
100
AcDbEntity
  8
DEFPOINTS
 62
     0
100
AcDbPoint
 10
1519.330891005991
 20
2458.72332565577
 30
0.0
  0
POINT
  5
B31F
330
B30B
100
AcDbEntity
  8
DEFPOINTS
 62
     0
100
AcDbPoint
 10
1519.330891005991
 20
2245.197485728941
 30
0.0
  0
ENDBLK
  5
B30D
330
B30B
100
AcDbEntity
  8
0
100
AcDbBlockEnd
  0
ENDSEC
  0
SECTION
  2
ENTITIES
  0
DIMENSION
  5
7CC2
330
19
100
AcDbEntity
  8
3
100
AcDbDimension
  2
*D1
 10
1878.931399054579
 20
2080.466099657305
 30
0.0
 11
2232.93139905458
 21
2155.466099657305
 31
0.0
 70
    32
  1
MAX\P760
 71
     5
 42
708.0
  3
IGA
100
AcDbAlignedDimension
 13
2586.93139905458
 23
2037.860211222928
 33
0.0
 14
1878.931399054579
 24
1653.862935140263
 34
0.0
100
AcDbRotatedDimension
1001
ACAD
1000
DSTYLE
1002
{
1070
     3
1000
MAX<>
1070
    40
1040
15.0
1070
   143
1040
0.039
1070
   172
1070
     1
1070
   271
1070
     0
1070
   279
1070
     0
1070
   288
1070
     1
1002
}
  0
DIMENSION
  5
7CC3
330
19
100
AcDbEntity
  8
3
100
AcDbDimension
  2
*D2
 10
2586.93139905458
 20
974.1124981267757
 30
0.0
 11
2279.43139905458
 21
1011.612498126776
 31
0.0
 70
    32
 71
     5
 42
615.0
  3
IGA
100
AcDbAlignedDimension
 13
1971.931399054579
 23
1068.862935140263
 33
0.0
 14
2586.93139905458
 24
1043.361105869452
 34
0.0
100
AcDbRotatedDimension
1001
ACAD
1000
DSTYLE
1002
{
1070
    40
1040
15.0
1070
   143
1040
0.039
1070
   172
1070
     1
1070
   271
1070
     0
1070
   279
1070
     0
1070
   288
1070
     1
1002
}
  0
LINE
  5
7CCD
330
19
100
AcDbEntity
  8
1
100
AcDbLine
 10
2751.931399054579
 20
1068.862935140263
 30
0.0
 11
1971.931399054579
 21
1068.862935140263
 31
0.0
  0
LINE
  5
7CCE
330
19
100
AcDbEntity
  8
1
100
AcDbLine
 10
2751.931399054579
 20
1143.862935140263
 30
0.0
 11
1971.931399054579
 21
1143.862935140263
 31
0.0
  0
LINE
  5
7CCF
330
19
100
AcDbEntity
  8
2
100
AcDbLine
 10
2769.036621695916
 20
1553.862935140263
 30
0.0
 11
1877.145768649703
 21
1553.862935140263
 31
0.0
  0
LINE
  5
7CD9
330
19
100
AcDbEntity
  8
1
100
AcDbLine
 10
2751.931399054579
 20
1238.862935140263
 30
0.0
 11
1971.931399054579
 21
1238.862935140263
 31
0.0
  0
LINE
  5
7CDA
330
19
100
AcDbEntity
  8
2
100
AcDbLine
 10
899.3308910059914
 20
3225.904705664464
 30
0.0
 11
899.3308910059914
 21
2376.557022379886
 31
0.0
  0
LINE
  5
7CDB
330
19
100
AcDbEntity
  8
2
100
AcDbLine
 10
1379.330891005992
 20
2746.660325655793
 30
0.0
 11
1379.330891005992
 21
2410.688725655793
 31
0.0
  0
LINE
  5
7CE2
330
19
100
AcDbEntity
  8
1
100
AcDbLine
 10
916.8308910059913
 20
2955.723325655794
 30
0.0
 11
916.8308910059913
 21
2455.723325655794
 31
0.0
  0
LINE
  5
7CE3
330
19
100
AcDbEntity
  8
1
100
AcDbLine
 10
881.8308910059915
 20
2955.723325655793
 30
0.0
 11
881.8308910059913
 21
2455.723325655794
 31
0.0
  0
LINE
  5
7CE5
330
19
100
AcDbEntity
  8
1
100
AcDbLine
 10
719.3308910059918
 20
2955.723325655793
 30
0.0
 11
719.3308910059922
 21
2458.723325655793
 31
0.0
  0
LINE
  5
7CE9
330
19
100
AcDbEntity
  8
1
100
AcDbLine
 10
1519.330891005992
 20
1068.862935140264
 30
0.0
 11
719.3308910059913
 21
1068.862935140263
 31
0.0
  0
LINE
  5
7CEA
330
19
100
AcDbEntity
  8
1
100
AcDbLine
 10
1519.330891005992
 20
1143.862935140264
 30
0.0
 11
719.3308910059913
 21
1143.862935140263
 31
0.0
  0
LINE
  5
7CEC
330
19
100
AcDbEntity
  8
1
100
AcDbLine
 10
1519.330891005992
 20
1238.862935140264
 30
0.0
 11
719.3308910059913
 21
1238.862935140263
 31
0.0
  0
DIMENSION
  5
7CF3
330
19
100
AcDbEntity
  8
3
100
AcDbDimension
  2
*D3
 10
899.3308910059914
 20
972.5486898633798
 30
0.0
 11
1209.330891005991
 21
1010.04868986338
 31
0.0
 70
    32
 71
     5
 42
620.0000000000004
  3
IGA
100
AcDbAlignedDimension
 13
1519.330891005992
 23
1068.862935140264
 33
0.0
 14
899.3308910059914
 24
1043.361105869452
 34
0.0
100
AcDbRotatedDimension
1001
ACAD
1000
DSTYLE
1002
{
1070
    40
1040
15.0
1070
   143
1040
0.039
1070
   172
1070
     1
1070
   271
1070
     0
1070
   279
1070
     0
1070
   288
1070
     1
1002
}
  0
DIMENSION
  5
7CF4
330
19
100
AcDbEntity
  8
3
100
AcDbDimension
  2
*D4
 10
1172.895771886673
 20
1988.849061965471
 30
0.0
 11
1036.113331446332
 21
2026.349061965472
 31
0.0
 70
    32
 71
     5
 42
273.5648808806818
  3
IGA
100
AcDbAlignedDimension
 13
899.3308910059914
 23
1937.947322256887
 33
0.0
 14
1172.895771886673
 24
1577.862935140263
 34
0.0
100
AcDbRotatedDimension
1001
ACAD
1000
DSTYLE
1002
{
1070
    40
1040
15.0
1070
   143
1040
0.039
1070
   172
1070
     1
1070
   271
1070
     0
1070
   279
1070
     0
1070
   288
1070
     1
1002
}
  0
LINE
  5
7CF9
330
19
100
AcDbEntity
  8
2
100
AcDbLine
 10
899.3308910059914
 20
1937.678619149328
 30
0.0
 11
899.3308910059914
 21
1043.361105869452
 31
0.0
  0
DIMENSION
  5
7CFA
330
19
100
AcDbEntity
  8
3
100
AcDbDimension
  2
*D5
 10
441.7265239695934
 20
1238.862935140263
 30
0.0
 11
404.2265239695932
 21
1396.362935140263
 31
0.0
 70
    32
 71
     5
 42
315.0
  3
IGA
100
AcDbAlignedDimension
 13
642.8707646555058
 23
1553.862935140263
 33
0.0
 14
719.3308910059913
 24
1238.862935140263
 34
0.0
 50
270.0
100
AcDbRotatedDimension
1001
ACAD
1000
DSTYLE
1002
{
1070
    40
1040
15.0
1070
   143
1040
0.039
1070
   172
1070
     1
1070
   271
1070
     0
1070
   279
1070
     0
1070
   288
1070
     1
1002
}
  0
DIMENSION
  5
7D00
330
19
100
AcDbEntity
  8
3
100
AcDbDimension
  2
*D6
 10
441.7265239695934
 20
1068.862935140263
 30
0.0
 11
404.2265239695932
 21
957.4343637116921
 31
0.0
 70
    32
 71
     5
 42
75.0
  3
IGA
100
AcDbAlignedDimension
 13
719.3308910059918
 23
1143.862935140263
 33
0.0
 14
719.3308910059918
 24
1068.862935140263
 34
0.0
 50
270.0
100
AcDbRotatedDimension
1001
ACAD
1000
DSTYLE
1002
{
1070
    40
1040
15.0
1070
   143
1040
0.039
1070
   172
1070
     1
1070
   271
1070
     0
1070
   279
1070
     0
1070
   288
1070
     1
1070
   343
1005
8115
1002
}
  0
LINE
  5
7D04
330
19
100
AcDbEntity
  8
1
100
AcDbLine
 10
719.3308910059918
 20
1143.862935140264
 30
0.0
 11
719.3308910059918
 21
1068.862935140264
 31
0.0
  0
DIMENSION
  5
7D1D
330
19
100
AcDbEntity
  8
3
100
AcDbDimension
  2
*D7
 10
899.3308910059914
 20
1988.849061965471
 30
0.0
 11
776.8308910059913
 21
2026.349061965472
 31
0.0
 70
    32
 71
     5
 42
245.0
  3
IGA
100
AcDbAlignedDimension
 13
654.3308910059913
 23
1931.474104815308
 33
0.0
 14
899.3308910059914
 24
1937.947322256887
 34
0.0
100
AcDbRotatedDimension
1001
ACAD
1000
DSTYLE
1002
{
1070
    40
1040
15.0
1070
   143
1040
0.039
1070
   172
1070
     1
1070
   271
1070
     0
1070
   279
1070
     0
1070
   288
1070
     1
1002
}
  0
DIMENSION
  5
7D2A
330
19
100
AcDbEntity
  8
3
100
AcDbDimension
  2
*D8
 10
441.7265239695934
 20
1553.862935140263
 30
0.0
 11
404.2265239695932
 21
1729.362935140263
 31
0.0
 70
    32
 71
     5
 42
351.0
  3
IGA
100
AcDbAlignedDimension
 13
654.3308910059913
 23
1904.862935140263
 33
0.0
 14
642.8707646555058
 24
1553.862935140263
 34
0.0
 50
270.0
100
AcDbRotatedDimension
1001
ACAD
1000
DSTYLE
1002
{
1070
    40
1040
15.0
1070
   143
1040
0.039
1070
   172
1070
     1
1070
   271
1070
     0
1070
   279
1070
     0
1070
   288
1070
     1
1002
}
  0
DIMENSION
  5
7D2B
330
19
100
AcDbEntity
  8
3
100
AcDbDimension
  2
*D9
 10
542.2360541018806
 20
1579.862935140263
 30
0.0
 11
504.7360541018804
 21
1742.362935140263
 31
0.0
 70
    32
 71
     5
 42
325.0
  3
IGA
100
AcDbAlignedDimension
 13
654.3308910059913
 23
1904.862935140263
 33
0.0
 14
654.3308910059913
 24
1579.862935140263
 34
0.0
 50
270.0
100
AcDbRotatedDimension
1001
ACAD
1000
DSTYLE
1002
{
1070
    40
1040
15.0
1070
   143
1040
0.039
1070
   172
1070
     1
1070
   271
1070
     0
1070
   279
1070
     0
1070
   288
1070
     1
1002
}
  0
LINE
  5
7D44
330
19
100
AcDbEntity
  8
1
100
AcDbLine
 10
719.3308910059913
 20
2458.723325655792
 30
0.0
 11
1519.330891005991
 21
2458.723325655792
 31
0.0
  0
POINT
  5
7D45
330
19
100
AcDbEntity
  8
1
100
AcDbPoint
 10
719.3308910059922
 20
2458.723325655792
 30
0.0
  0
LINE
  5
7D72
330
19
100
AcDbEntity
  8
1
100
AcDbLine
 10
1519.330891005992
 20
1143.862935140264
 30
0.0
 11
1519.330891005992
 21
1068.862935140264
 31
0.0
  0
LINE
  5
7D81
330
19
100
AcDbEntity
  8
1
100
AcDbLine
 10
1971.931399054579
 20
1143.862935140263
 30
0.0
 11
1971.931399054579
 21
1068.862935140263
 31
0.0
  0
LINE
  5
7DBC
330
19
100
AcDbEntity
  8
1
100
AcDbLine
 10
1039.330891005989
 20
3233.723325655792
 30
0.0
 11
759.3308910059914
 21
3233.723325655792
 31
0.0
  0
LINE
  5
7DBD
330
19
100
AcDbEntity
  8
1
100
AcDbLine
 10
1173.330891005991
 20
2955.723325655794
 30
0.0
 11
658.3308910059923
 21
2955.723325655793
 31
0.0
  0
LINE
  5
7DBE
330
19
100
AcDbEntity
  8
1
100
AcDbLine
 10
1173.330891005991
 20
3191.723325655793
 30
0.0
 11
658.3308910059923
 21
3191.723325655792
 31
0.0
  0
LINE
  5
7DBF
330
19
100
AcDbEntity
  8
1
100
AcDbLine
 10
1039.33089100599
 20
3193.723325655792
 30
0.0
 11
759.3308910059914
 21
3193.723325655792
 31
0.0
  0
LINE
  5
7DC0
330
19
100
AcDbEntity
  8
2
100
AcDbLine
 10
1199.362152553356
 20
3073.723325655793
 30
0.0
 11
623.1560550297946
 21
3073.723325655793
 31
0.0
  0
LINE
  5
7DC4
330
19
100
AcDbEntity
  8
1
100
AcDbLine
 10
654.3308910059913
 20
2928.723325655792
 30
0.0
 11
654.3308910059913
 21
3218.723325655793
 31
0.0
  0
LINE
  5
7DC5
330
19
100
AcDbEntity
  8
1
100
AcDbLine
 10
657.3308910059913
 20
2928.723325655792
 30
0.0
 11
657.3308910059913
 21
3218.723325655793
 31
0.0
  0
LINE
  5
7DC7
330
19
100
AcDbEntity
  8
1
100
AcDbLine
 10
657.3308910059913
 20
2928.723325655792
 30
0.0
 11
654.3308910059913
 21
2928.723325655792
 31
0.0
  0
LINE
  5
7DD0
330
19
100
AcDbEntity
  8
1
100
AcDbLine
 10
719.3308910059922
 20
2498.723325655793
 30
0.0
 11
749.3308910059913
 21
2498.723325655793
 31
0.0
  0
LINE
  5
7DE2
330
19
100
AcDbEntity
  8
1
100
AcDbLine
 10
657.3308910059913
 20
3218.723325655793
 30
0.0
 11
654.3308910059913
 21
3218.723325655792
 31
0.0
  0
LINE
  5
7DE3
330
19
100
AcDbEntity
  8
1
100
AcDbLine
 10
759.3308910059914
 20
3238.723325655793
 30
0.0
 11
719.3308910059913
 21
3238.723325655793
 31
0.0
  0
LINE
  5
7DE4
330
19
100
AcDbEntity
  8
1
100
AcDbLine
 10
719.3308910059913
 20
3238.723325655793
 30
0.0
 11
719.3308910059913
 21
3191.723325655793
 31
0.0
  0
POINT
  5
7DE5
330
19
100
AcDbEntity
  8
1
100
AcDbPoint
 10
719.3308910059913
 20
3238.723325655793
 30
0.0
  0
POINT
  5
7DE6
330
19
100
AcDbEntity
  8
1
100
AcDbPoint
 10
719.3308910059913
 20
3238.723325655793
 30
0.0
  0
LINE
  5
7DE7
330
19
100
AcDbEntity
  8
1
100
AcDbLine
 10
759.3308910059914
 20
3238.723325655793
 30
0.0
 11
759.3308910059914
 21
3191.723325655793
 31
0.0
  0
LINE
  5
7DEA
330
19
100
AcDbEntity
  8
1
100
AcDbLine
 10
1079.33089100599
 20
2498.723325655792
 30
0.0
 11
1079.330891005991
 21
2955.723325655793
 31
0.0
  0
LINE
  5
7DEF
330
19
100
AcDbEntity
  8
1
100
AcDbLine
 10
1079.330891005991
 20
2798.723325655793
 30
0.0
 11
1519.330891005991
 21
2798.723325655793
 31
0.0
  0
LINE
  5
7DF0
330
19
100
AcDbEntity
  8
1
100
AcDbLine
 10
1079.330891005991
 20
2838.723325655792
 30
0.0
 11
1519.330891005991
 21
2838.723325655792
 31
0.0
  0
LINE
  5
7DF3
330
19
100
AcDbEntity
  8
1
100
AcDbLine
 10
1049.330891005991
 20
2498.723325655792
 30
0.0
 11
1339.64839836828
 21
2498.723325655793
 31
0.0
  0
LINE
  5
7DF9
330
19
100
AcDbEntity
  8
1
100
AcDbLine
 10
1519.330891005991
 20
2458.723325655792
 30
0.0
 11
1519.330891005992
 21
2498.723325655792
 31
0.0
  0
LINE
  5
7DFA
330
19
100
AcDbEntity
  8
1
100
AcDbLine
 10
1419.648398368279
 20
2498.723325655792
 30
0.0
 11
1519.330891005991
 21
2498.723325655792
 31
0.0
  0
LINE
  5
7DFB
330
19
100
AcDbEntity
  8
1
100
AcDbLine
 10
1519.330891005993
 20
2798.723325655793
 30
0.0
 11
1519.330891005993
 21
2838.723325655792
 31
0.0
  0
POINT
  5
7DFC
330
19
100
AcDbEntity
  8
1
100
AcDbPoint
 10
1519.330891005993
 20
2838.723325655792
 30
0.0
  0
LINE
  5
7DFD
330
19
100
AcDbEntity
  8
1
100
AcDbLine
 10
1173.330891005991
 20
2955.723325655793
 30
0.0
 11
1173.330891005991
 21
3191.723325655793
 31
0.0
  0
LINE
  5
7DFE
330
19
100
AcDbEntity
  8
1
100
AcDbLine
 10
1039.33089100599
 20
3191.723325655793
 30
0.0
 11
1039.330891005989
 21
3238.723325655792
 31
0.0
  0
LINE
  5
7DFF
330
19
100
AcDbEntity
  8
1
100
AcDbLine
 10
1079.330891005991
 20
3191.723325655793
 30
0.0
 11
1079.330891005991
 21
3238.723325655793
 31
0.0
  0
LINE
  5
7E00
330
19
100
AcDbEntity
  8
1
100
AcDbLine
 10
1079.330891005991
 20
3238.723325655793
 30
0.0
 11
1039.330891005989
 21
3238.723325655793
 31
0.0
  0
POINT
  5
7E01
330
19
100
AcDbEntity
  8
1
100
AcDbPoint
 10
1079.330891005991
 20
3238.723325655793
 30
0.0
  0
DIMENSION
  5
7E03
330
19
100
AcDbEntity
  8
3
100
AcDbDimension
  2
*D10
 10
2860.111370597067
 20
1396.362935140263
 30
0.0
 11
2822.611370597067
 21
1553.862935140263
 31
0.0
 70
    32
 71
     5
 42
315.0
  3
IGA
100
AcDbAlignedDimension
 13
2732.93139905458
 23
1711.362935140263
 33
0.0
 14
2732.93139905458
 24
1396.362935140263
 34
0.0
 50
90.0
100
AcDbRotatedDimension
1001
ACAD
1000
DSTYLE
1002
{
1070
     3
1000
\U+03C6<>
1070
    40
1040
15.0
1070
   143
1040
0.039
1070
   172
1070
     1
1070
   271
1070
     0
1070
   279
1070
     0
1070
   288
1070
     1
1002
}
  0
LINE
  5
7E0B
330
19
100
AcDbEntity
  8
2
100
AcDbLine
 10
2586.93139905458
 20
1986.507296475666
 30
0.0
 11
2586.93139905458
 21
1043.361105869452
 31
0.0
  0
LINE
  5
7E48
330
19
100
AcDbEntity
  8
1
100
AcDbLine
 10
2751.931399054579
 20
1143.862935140263
 30
0.0
 11
2751.931399054579
 21
1068.862935140263
 31
0.0
  0
DIMENSION
  5
7E4B
330
19
100
AcDbEntity
  8
3
100
AcDbDimension
  2
*D11
 10
2707.93139905458
 20
2080.472829381916
 30
0.0
 11
2647.43139905458
 21
2121.266571123874
 31
0.0
 70
   160
 71
     5
 42
121.0
  3
IGA
100
AcDbAlignedDimension
 13
2586.93139905458
 23
2037.860211222928
 33
0.0
 14
2707.93139905458
 24
1551.474104815307
 34
0.0
100
AcDbRotatedDimension
1001
ACAD
1000
DSTYLE
1002
{
1070
   288
1070
     1
1070
   172
1070
     1
1070
    40
1040
15.0
1070
   271
1070
     0
1070
   143
1040
0.039
1002
}
  0
DIMENSION
  5
7E4C
330
19
100
AcDbEntity
  8
3
100
AcDbDimension
  2
*D12
 10
2704.93139905458
 20
1971.950080773375
 30
0.0
 11
2586.93139905458
 21
2009.450080773375
 31
0.0
 70
    32
 71
     5
 42
236.0
  3
IGA
100
AcDbAlignedDimension
 13
2468.93139905458
 23
1906.474104815307
 33
0.0
 14
2704.93139905458
 24
1906.474104815307
 34
0.0
100
AcDbRotatedDimension
1001
ACAD
1000
DSTYLE
1002
{
1070
    40
1040
15.0
1070
   143
1040
0.039
1070
   172
1070
     1
1070
   271
1070
     0
1070
   279
1070
     0
1070
   288
1070
     1
1002
}
  0
LINE
  5
8097
330
19
100
AcDbEntity
  8
4
100
AcDbLine
 10
2775.0
 20
750.0
 30
0.0
 11
2775.0
 21
450.0
 31
0.0
  0
LINE
  5
8098
330
19
100
AcDbEntity
  8
4
100
AcDbLine
 10
1725.0
 20
750.0
 30
0.0
 11
1725.0
 21
450.0
 31
0.0
  0
LINE
  5
8099
330
19
100
AcDbEntity
  8
4
100
AcDbLine
 10
975.0
 20
750.0
 30
0.0
 11
975.0
 21
450.0
 31
0.0
  0
LINE
  5
809C
330
19
100
AcDbEntity
  8
4
100
AcDbLine
 10
975.0
 20
450.0
 30
0.0
 11
2775.0
 21
450.0
 31
0.0
  0
LINE
  5
809D
330
19
100
AcDbEntity
  8
4
100
AcDbLine
 10
975.0
 20
600.0
 30
0.0
 11
2775.0
 21
600.0
 31
0.0
  0
TEXT
  5
809E
330
19
100
AcDbEntity
  8
4
100
AcDbText
 10
1032.753121270352
 20
647.3145387999193
 30
0.0
 40
75.0
  1
機器名称
100
AcDbText
  0
TEXT
  5
809F
330
19
100
AcDbEntity
  8
4
100
AcDbText
 10
1029.387159037196
 20
482.4677350980164
 30
0.0
 40
75.0
  1
機器型番
100
AcDbText
  0
TEXT
  5
80A0
330
19
100
AcDbEntity
  8
4
100
AcDbText
 10
1732.189592551566
 20
633.2809535354206
 30
0.0
 40
67.5
  1
ミツヤ多翼送風機
100
AcDbText
  0
TEXT
  5
80A1
330
19
100
AcDbEntity
  8
4
100
AcDbText
 10
1779.981743378221
 20
475.739376419915
 30
0.0
 40
75.0
  1
MF#2-1
100
AcDbText
  0
TEXT
  5
80A3
330
19
100
AcDbEntity
  8
4
100
AcDbText
 10
1178.76769840455
 20
3575.143261998774
 30
0.0
 40
80.99999999999999
  1
床置防振ベット
100
AcDbText
  0
TEXT
  5
80A4
330
19
100
AcDbEntity
  8
4
100
AcDbText
 10
474.2513899941696
 20
3800.821464298947
 30
0.0
 40
108.0
  1
遠心式片吸込片持多翼ファン
100
AcDbText
  0
LINE
  5
80A5
330
19
100
AcDbEntity
  8
4
100
AcDbLine
 10
375.0
 20
3704.113131397207
 30
0.0
 11
2775.0
 21
3704.113131397207
 31
0.0
  0
LINE
  5
80A6
330
19
100
AcDbEntity
  8
4
100
AcDbLine
 10
375.0
 20
4004.113131397207
 30
0.0
 11
2775.0
 21
4004.113131397207
 31
0.0
  0
LINE
  5
80A7
330
19
100
AcDbEntity
  8
4
100
AcDbLine
 10
975.0
 20
750.0
 30
0.0
 11
2775.0
 21
750.0
 31
0.0
  0
LINE
  5
80A8
330
19
100
AcDbEntity
  8
4
100
AcDbLine
 10
375.0
 20
4004.113131397207
 30
0.0
 11
375.0
 21
3704.113131397207
 31
0.0
  0
TEXT
  5
80A9
330
19
100
AcDbEntity
  8
4
100
AcDbText
 10
524.9794500404968
 20
3573.479216319515
 30
0.0
 40
80.99999999999999
  1
左回転左横向
100
AcDbText
  0
TEXT
  5
80AA
330
19
100
AcDbEntity
  8
4
100
AcDbText
 10
2203.454338873935
 20
4059.091622242963
 30
0.0
 40
84.00000000000002
  1
No.
100
AcDbText
  0
TEXT
  5
80AB
330
19
100
AcDbEntity
  8
4
100
AcDbText
 10
1966.94409390002
 20
3575.143261998774
 30
0.0
 40
80.99999999999999
  1
縮尺：1/15
100
AcDbText
  0
LINE
  5
80AC
330
19
100
AcDbEntity
  8
4
100
AcDbLine
 10
2775.0
 20
4004.113131397207
 30
0.0
 11
2775.0
 21
3704.113131397207
 31
0.0
  0
LINE
  5
80AD
330
19
100
AcDbEntity
  8
4
100
AcDbLine
 10
3150.0
 20
4425.0
 30
0.0
 11
3150.0
 21
4425.0
 31
0.0
  0
LINE
  5
80AE
330
19
100
AcDbEntity
  8
4
100
AcDbLine
 10
2160.926133539797
 20
4021.895374688102
 30
0.0
 11
2160.926133539797
 21
4179.978392324628
 31
0.0
  0
LINE
  5
80AF
330
19
100
AcDbEntity
  8
4
100
AcDbLine
 10
2160.926133539797
 20
4179.978392324628
 30
0.0
 11
2775.0
 21
4179.978392324628
 31
0.0
  0
LINE
  5
80B0
330
19
100
AcDbEntity
  8
4
100
AcDbLine
 10
2775.0
 20
4179.978392324628
 30
0.0
 11
2775.0
 21
4021.895374688102
 31
0.0
  0
LINE
  5
80B1
330
19
100
AcDbEntity
  8
4
100
AcDbLine
 10
2775.0
 20
4021.895374688102
 30
0.0
 11
2160.926133539797
 21
4021.895374688102
 31
0.0
  0
LINE
  5
80B2
330
19
100
AcDbEntity
  8
4
100
AcDbLine
 10
0.0
 20
0.0
 30
0.0
 11
0.0
 21
4425.0
 31
0.0
  0
LINE
  5
80B3
330
19
100
AcDbEntity
  8
4
100
AcDbLine
 10
0.0
 20
4425.0
 30
0.0
 11
3150.0
 21
4425.0
 31
0.0
  0
LINE
  5
80B4
330
19
100
AcDbEntity
  8
4
100
AcDbLine
 10
3150.0
 20
4425.0
 30
0.0
 11
3150.0
 21
0.0
 31
0.0
  0
LINE
  5
80B5
330
19
100
AcDbEntity
  8
4
100
AcDbLine
 10
3150.0
 20
0.0
 30
0.0
 11
0.0
 21
0.0
 31
0.0
  0
DIMENSION
  5
8207
330
19
100
AcDbEntity
  8
3
100
AcDbDimension
  2
*D14
 10
1519.330891005991
 20
2080.466099657305
 30
0.0
 11
1107.367493623549
 21
2080.466099657305
 31
0.0
 70
   160
 71
     5
 42
865.0
  3
IGA
100
AcDbAlignedDimension
 13
654.3308910059913
 23
1931.474104815308
 33
0.0
 14
1519.330891005991
 24
1313.862935140263
 34
0.0
100
AcDbRotatedDimension
1001
ACAD
1000
DSTYLE
1002
{
1070
    40
1040
15.0
1070
   143
1040
0.039
1070
   172
1070
     1
1070
   271
1070
     0
1070
   279
1070
     0
1070
   288
1070
     1
1002
}
  0
DIMENSION
  5
83FE
330
19
100
AcDbEntity
  8
3
100
AcDbDimension
  2
*D15
 10
441.7265239695934
 20
1143.862935140263
 30
0.0
 11
382.9969694824176
 21
1176.362935140263
 31
0.0
 70
   160
  1
(<>)
 71
     5
 42
95.0
  3
IGA
100
AcDbAlignedDimension
 13
719.3308910059913
 23
1238.862935140263
 33
0.0
 14
719.3308910059918
 24
1143.862935140263
 34
0.0
 50
90.0
100
AcDbRotatedDimension
1001
ACAD
1000
DSTYLE
1002
{
1070
    40
1040
15.0
1070
    75
1070
     1
1070
   143
1040
0.039
1070
   172
1070
     1
1070
   271
1070
     0
1070
   288
1070
     1
1070
   343
1005
7A11
1070
   344
1005
89DA
1002
}
  0
DIMENSION
  5
85C7
330
19
100
AcDbEntity
  8
3
100
AcDbDimension
  2
*D36
 10
1673.667406820587
 20
2838.723325655792
 30
0.0
 11
1673.667406820586
 21
2648.723325655792
 31
0.0
 70
   160
 71
     5
 42
380.0000000000005
  3
IGA
100
AcDbAlignedDimension
 13
1519.33089100599
 23
2458.723325655792
 33
0.0
 14
1519.330891005992
 24
2838.723325655792
 34
0.0
 50
270.0
100
AcDbRotatedDimension
1001
ACAD
1000
DSTYLE
1002
{
1070
    40
1040
15.0
1070
   143
1040
0.039
1070
   172
1070
     1
1070
   271
1070
     0
1070
   279
1070
     0
1070
   288
1070
     1
1002
}
  0
DIMENSION
  5
85C8
330
19
100
AcDbEntity
  8
3
100
AcDbDimension
  2
*D37
 10
1079.33089100599
 20
3383.791711240137
 30
0.0
 11
899.3308910059905
 21
3421.291711240138
 31
0.0
 70
    32
 71
     5
 42
360.0
  3
IGA
100
AcDbAlignedDimension
 13
719.3308910059904
 23
3238.723325655792
 33
0.0
 14
1079.33089100599
 24
3238.723325655792
 34
0.0
 50
180.0
100
AcDbRotatedDimension
1001
ACAD
1000
DSTYLE
1002
{
1070
    40
1040
15.0
1070
   143
1040
0.039
1070
   172
1070
     1
1070
   271
1070
     0
1070
   279
1070
     0
1070
   288
1070
     1
1002
}
  0
DIMENSION
  5
85C9
330
19
100
AcDbEntity
  8
3
100
AcDbDimension
  2
*D38
 10
1519.330891005992
 20
3383.791711240137
 30
0.0
 11
1299.330891005991
 21
3421.291711240138
 31
0.0
 70
    32
 71
     5
 42
440.0000000000018
  3
IGA
100
AcDbAlignedDimension
 13
1079.33089100599
 23
3238.723325655792
 33
0.0
 14
1519.330891005992
 24
2838.723325655792
 34
0.0
 50
180.0
100
AcDbRotatedDimension
1001
ACAD
1000
DSTYLE
1002
{
1070
    40
1040
15.0
1070
   143
1040
0.039
1070
   172
1070
     1
1070
   271
1070
     0
1070
   279
1070
     0
1070
   288
1070
     1
1002
}
  0
DIMENSION
  5
88B3
330
19
100
AcDbEntity
  8
3
100
AcDbDimension
  2
*D39
 10
2751.931399054579
 20
974.1124981267757
 30
0.0
 11
2669.431399054579
 21
974.1124981267757
 31
0.0
 70
   160
 71
     5
 42
164.9999999999991
  3
IGA
100
AcDbAlignedDimension
 13
2586.93139905458
 23
1043.361105869452
 33
0.0
 14
2751.931399054579
 24
1068.862935140263
 34
0.0
100
AcDbRotatedDimension
1001
ACAD
1000
DSTYLE
1002
{
1070
    40
1040
15.0
1070
   143
1040
0.039
1070
   172
1070
     1
1070
   271
1070
     0
1070
   279
1070
     0
1070
   288
1070
     1
1002
}
  0
DIMENSION
  5
89B9
330
19
100
AcDbEntity
  8
3
100
AcDbDimension
  2
*D40
 10
899.3308910059914
 20
972.5486898633798
 30
0.0
 11
809.3308910059915
 21
1010.04868986338
 31
0.0
 70
    32
 71
     5
 42
179.9999999999995
  3
IGA
100
AcDbAlignedDimension
 13
719.3308910059918
 23
1068.862935140263
 33
0.0
 14
899.3308910059914
 24
1043.361105869452
 34
0.0
100
AcDbRotatedDimension
1001
ACAD
1000
DSTYLE
1002
{
1070
    40
1040
15.0
1070
   143
1040
0.039
1070
   172
1070
     1
1070
   271
1070
     0
1070
   288
1070
     1
1002
}
  0
LINE
  5
8E4A
330
19
100
AcDbEntity
  8
2
100
AcDbLine
 10
1379.330891005991
 20
1283.188794863103
 30
0.0
 11
1379.330891005991
 21
1605.208608180715
 31
0.0
  0
ARC
  5
8E4B
330
19
100
AcDbEntity
  8
1
100
AcDbCircle
 10
917.8308910059913
 20
1535.362935140265
 30
0.0
 40
207.5
100
AcDbArc
 50
180.0
 51
264.8849097005109
  0
LINE
  5
8E4C
330
19
100
AcDbEntity
  8
1
100
AcDbLine
 10
749.3308910059913
 20
1500.262935140265
 30
0.0
 11
749.3308910059913
 21
1313.862935140263
 31
0.0
  0
LINE
  5
8E4D
330
19
100
AcDbEntity
  8
1
100
AcDbLine
 10
1049.330891005991
 20
1500.262935140265
 30
0.0
 11
1049.330891005991
 21
1313.862935140263
 31
0.0
  0
ARC
  5
8E4E
330
19
100
AcDbEntity
  8
1
100
AcDbCircle
 10
923.3308910059914
 20
1577.862935140263
 30
0.0
 40
250.0
100
AcDbArc
 50
264.4911213288229
 51
0.0
  0
CIRCLE
  5
8E4F
330
19
100
AcDbEntity
  8
1
100
AcDbCircle
 10
1379.330891005991
 20
1453.862935140263
 30
0.0
 40
90.0
  0
ARC
  5
8E50
330
19
100
AcDbEntity
  8
1
100
AcDbCircle
 10
1379.330891005991
 20
1453.862935140263
 30
0.0
 40
101.0
100
AcDbArc
 50
293.7728167999814
 51
246.2271832000185
  0
LINE
  5
8E51
330
19
100
AcDbEntity
  8
1
100
AcDbLine
 10
1354.02484923229
 20
1367.493934626494
 30
0.0
 11
884.9908006675596
 21
1504.920501515791
 31
0.0
  0
LINE
  5
8E52
330
19
100
AcDbEntity
  8
1
100
AcDbLine
 10
1519.330891005991
 20
1313.862935140263
 30
0.0
 11
719.3308910059913
 21
1313.862935140263
 31
0.0
  0
LINE
  5
8E53
330
19
100
AcDbEntity
  8
1
100
AcDbLine
 10
1519.330891005991
 20
1313.862935140263
 30
0.0
 11
1519.330891005991
 21
1238.862935140263
 31
0.0
  0
LINE
  5
8E54
330
19
100
AcDbEntity
  8
1
100
AcDbLine
 10
1279.330891005991
 20
1353.862935140265
 30
0.0
 11
1319.330891005991
 21
1353.862935140265
 31
0.0
  0
LINE
  5
8E55
330
19
100
AcDbEntity
  8
1
100
AcDbLine
 10
1291.330891005991
 20
1353.862935140265
 30
0.0
 11
1319.330891005991
 21
1353.862935140265
 31
0.0
  0
LINE
  5
8E56
330
19
100
AcDbEntity
  8
2
100
AcDbLine
 10
1544.605146052219
 20
1453.862935140263
 30
0.0
 11
1251.030891005992
 21
1453.862935140263
 31
0.0
  0
LWPOLYLINE
  5
8E57
330
19
100
AcDbEntity
  8
1
100
AcDbPolyline
 90
        4
 70
     1
 43
0.0
 10
1514.330891005991
 20
1313.862935140263
 10
1244.330891005991
 20
1313.862935140263
 10
1254.330891005991
 20
1353.862935140265
 10
1504.330891005991
 20
1353.862935140265
  0
LINE
  5
8E58
330
19
100
AcDbEntity
  8
1
100
AcDbLine
 10
1479.330891005991
 20
1353.862935140265
 30
0.0
 11
1479.330891005991
 21
1365.862935140263
 31
0.0
  0
LINE
  5
8E59
330
19
100
AcDbEntity
  8
1
100
AcDbLine
 10
1479.330891005991
 20
1365.862935140263
 30
0.0
 11
1459.86539950784
 21
1392.910552575129
 31
0.0
  0
LINE
  5
8E5A
330
19
100
AcDbEntity
  8
1
100
AcDbLine
 10
1479.330891005991
 20
1353.862935140265
 30
0.0
 11
1439.330891005991
 21
1353.862935140265
 31
0.0
  0
LINE
  5
8E5B
330
19
100
AcDbEntity
  8
1
100
AcDbLine
 10
1420.0451182502
 20
1361.432681976554
 30
0.0
 11
1338.61666376179
 21
1361.432681976554
 31
0.0
  0
LINE
  5
8E5C
330
19
100
AcDbEntity
  8
1
100
AcDbLine
 10
1279.330891005991
 20
1353.862935140265
 30
0.0
 11
1279.330891005991
 21
1365.862935140263
 31
0.0
  0
LINE
  5
8E5D
330
19
100
AcDbEntity
  8
1
100
AcDbLine
 10
1279.330891005991
 20
1365.862935140263
 30
0.0
 11
1298.796382504151
 21
1392.910552575129
 31
0.0
  0
LINE
  5
8E5E
330
19
100
AcDbEntity
  8
1
100
AcDbLine
 10
719.3308910059913
 20
1313.862935140263
 30
0.0
 11
719.3308910059913
 21
1238.862935140263
 31
0.0
  0
POINT
  5
8E5F
330
19
100
AcDbEntity
  8
1
100
AcDbPoint
 10
719.3308910059913
 20
1238.862935140263
 30
0.0
  0
POINT
  5
8E60
330
19
100
AcDbEntity
  8
1
100
AcDbPoint
 10
719.3308910059913
 20
1238.862935140263
 30
0.0
  0
ARC
  5
8E62
330
19
100
AcDbEntity
  8
1
100
AcDbCircle
 10
875.3308910059914
 20
1577.862935140263
 30
0.0
 40
298.0
100
AcDbArc
 50
0.0
 51
82.35052166148498
  0
LINE
  5
8E63
330
19
100
AcDbEntity
  8
2
100
AcDbLine
 10
1200.528369829129
 20
1553.862935140263
 30
0.0
 11
698.7396102219681
 21
1553.862935140263
 31
0.0
  0
LINE
  5
8E64
330
19
100
AcDbEntity
  8
1
100
AcDbLine
 10
1390.620293844591
 20
1543.152068765514
 30
0.0
 11
905.7282192811999
 21
1604.46011086124
 31
0.0
  0
LINE
  5
8E65
330
19
100
AcDbEntity
  8
1
100
AcDbLine
 10
679.3308910059913
 20
1904.862935140263
 30
0.0
 11
914.9983608295897
 21
1873.211021028414
 31
0.0
  0
LINE
  5
8E68
330
19
100
AcDbEntity
  8
1
100
AcDbLine
 10
749.3308910059986
 20
1500.262935140265
 30
0.0
 11
1049.330891005999
 21
1500.262935140265
 31
0.0
  0
CIRCLE
  5
8E69
330
19
100
AcDbEntity
  8
1
100
AcDbCircle
 10
899.3308910059914
 20
1553.862935140263
 30
0.0
 40
51.0
  0
LINE
  5
8E6A
330
19
100
AcDbEntity
  8
1
100
AcDbLine
 10
654.3308910059913
 20
1579.862935140263
 30
0.0
 11
716.2404903138503
 21
1579.862935140263
 31
0.0
  0
ARC
  5
8E6B
330
19
100
AcDbEntity
  8
1
100
AcDbCircle
 10
880.8308910059913
 20
1535.362935140265
 30
0.0
 40
170.5
100
AcDbArc
 50
164.8707671830306
 51
180.0
  0
DIMENSION
  5
8E78
330
19
100
AcDbEntity
  8
3
100
AcDbDimension
  2
*D42
 10
306.0291596384851
 20
1068.862935140263
 30
0.0
 11
306.029159638485
 21
1525.339850451491
 31
0.0
 70
   160
  1
864
 71
     5
 42
863.4999999999999
  3
IGA
100
AcDbAlignedDimension
 13
648.9960910833433
 23
1932.362935140263
 33
0.0
 14
719.3308910059918
 24
1068.862935140263
 34
0.0
 50
90.0
100
AcDbRotatedDimension
1001
ACAD
1000
DSTYLE
1002
{
1070
    40
1040
15.0
1070
   143
1040
0.039
1070
   172
1070
     1
1070
   271
1070
     0
1070
   279
1070
     0
1070
   288
1070
     1
1002
}
  0
LINE
  5
8EAD
330
19
100
AcDbEntity
  8
1
100
AcDbLine
 10
2704.93139905458
 20
1313.862935140263
 30
0.0
 11
2704.93139905458
 21
1904.862935140263
 31
0.0
  0
LINE
  5
8EAE
330
19
100
AcDbEntity
  8
1
100
AcDbLine
 10
2468.93139905458
 20
1904.862935140263
 30
0.0
 11
2468.93139905458
 21
1313.862935140263
 31
0.0
  0
LINE
  5
8EAF
330
19
100
AcDbEntity
  8
1
100
AcDbLine
 10
1968.93139905458
 20
1604.862935140262
 30
0.0
 11
1968.93139905458
 21
1363.862935140263
 31
0.0
  0
LINE
  5
8EB0
330
19
100
AcDbEntity
  8
1
100
AcDbLine
 10
1918.93139905458
 20
1604.862935140262
 30
0.0
 11
1918.93139905458
 21
1363.862935140263
 31
0.0
  0
LINE
  5
8EB1
330
19
100
AcDbEntity
  8
1
100
AcDbLine
 10
2009.731399054579
 20
1500.262935140264
 30
0.0
 11
2009.731399054579
 21
1492.902395855742
 31
0.0
  0
LINE
  5
8EB2
330
19
100
AcDbEntity
  8
1
100
AcDbLine
 10
1878.931399054579
 20
1653.862935140263
 30
0.0
 11
1878.931399054579
 21
1313.862935140263
 31
0.0
  0
LINE
  5
8EB3
330
19
100
AcDbEntity
  8
1
100
AcDbLine
 10
2751.93139905458
 20
1313.862935140263
 30
0.0
 11
2011.93139905458
 21
1313.862935140263
 31
0.0
  0
LINE
  5
8EB4
330
19
100
AcDbEntity
  8
1
100
AcDbLine
 10
1971.931399054579
 20
1238.862935140263
 30
0.0
 11
1971.931399054579
 21
1313.862935140263
 31
0.0
  0
LINE
  5
8EB5
330
19
100
AcDbEntity
  8
1
100
AcDbLine
 10
1918.93139905458
 20
1363.862935140263
 30
0.0
 11
1968.93139905458
 21
1363.862935140263
 31
0.0
  0
LINE
  5
8EB6
330
19
100
AcDbEntity
  8
1
100
AcDbLine
 10
1971.931399054579
 20
1313.862935140263
 30
0.0
 11
2011.93139905458
 21
1313.862935140263
 31
0.0
  0
LINE
  5
8EB7
330
19
100
AcDbEntity
  8
1
100
AcDbLine
 10
2000.93139905458
 20
1362.098496150951
 30
0.0
 11
2000.93139905458
 21
1313.862935140263
 31
0.0
  0
LINE
  5
8EB8
330
19
100
AcDbEntity
  8
2
100
AcDbLine
 10
1862.370210592149
 20
1453.862935140263
 30
0.0
 11
2028.621812862808
 21
1453.862935140263
 31
0.0
  0
LINE
  5
8EB9
330
19
100
AcDbEntity
  8
1
100
AcDbLine
 10
1878.931399054579
 20
1313.862935140263
 30
0.0
 11
2000.93139905458
 21
1313.862935140263
 31
0.0
  0
LINE
  5
8EBA
330
19
100
AcDbEntity
  8
1
100
AcDbLine
 10
2751.93139905458
 20
1313.862935140263
 30
0.0
 11
2751.93139905458
 21
1238.862935140263
 31
0.0
  0
LINE
  5
8EBB
330
19
100
AcDbEntity
  8
1
100
AcDbLine
 10
2441.93139905458
 20
1932.362935140263
 30
0.0
 11
2441.93139905458
 21
1571.362935140263
 31
0.0
  0
LINE
  5
8EBC
330
19
100
AcDbEntity
  8
1
100
AcDbLine
 10
2731.93139905458
 20
1932.362935140263
 30
0.0
 11
2731.93139905458
 21
1714.362935140263
 31
0.0
  0
LINE
  5
8EBD
330
19
100
AcDbEntity
  8
1
100
AcDbLine
 10
2468.931399054569
 20
1500.262935140264
 30
0.0
 11
2309.93139905458
 21
1500.262935140264
 31
0.0
  0
LINE
  5
8EBE
330
19
100
AcDbEntity
  8
1
100
AcDbLine
 10
2468.93139905458
 20
1536.362935140263
 30
0.0
 11
2309.93139905458
 21
1536.362935140263
 31
0.0
  0
LINE
  5
8EBF
330
19
100
AcDbEntity
  8
1
100
AcDbLine
 10
2468.93139905458
 20
1571.362935140263
 30
0.0
 11
1998.93139905458
 21
1571.362935140263
 31
0.0
  0
LINE
  5
8EC0
330
19
100
AcDbEntity
  8
1
100
AcDbLine
 10
1918.93139905458
 20
1604.862935140262
 30
0.0
 11
1968.93139905458
 21
1604.862935140262
 31
0.0
  0
LINE
  5
8EC1
330
19
100
AcDbEntity
  8
1
100
AcDbLine
 10
2000.93139905458
 20
1653.862935140263
 30
0.0
 11
2000.93139905458
 21
1609.029428760246
 31
0.0
  0
LINE
  5
8EC2
330
19
100
AcDbEntity
  8
1
100
AcDbLine
 10
1998.93139905458
 20
1571.362935140263
 30
0.0
 11
1998.93139905458
 21
1536.362935140263
 31
0.0
  0
LINE
  5
8EC3
330
19
100
AcDbEntity
  8
1
100
AcDbLine
 10
1998.93139905458
 20
1569.862935140263
 30
0.0
 11
1968.93139905458
 21
1569.862935140263
 31
0.0
  0
LINE
  5
8EC4
330
19
100
AcDbEntity
  8
1
100
AcDbLine
 10
1998.93139905458
 20
1537.862935140263
 30
0.0
 11
1968.93139905458
 21
1537.862935140263
 31
0.0
  0
LINE
  5
8EC5
330
19
100
AcDbEntity
  8
1
100
AcDbLine
 10
1878.931399054579
 20
1653.862935140263
 30
0.0
 11
2000.93139905458
 21
1653.862935140263
 31
0.0
  0
LINE
  5
8EC6
330
19
100
AcDbEntity
  8
1
100
AcDbLine
 10
2441.93139905458
 20
1932.362935140263
 30
0.0
 11
2731.93139905458
 21
1932.362935140263
 31
0.0
  0
LINE
  5
8EC7
330
19
100
AcDbEntity
  8
1
100
AcDbLine
 10
2468.93139905458
 20
1904.862935140263
 30
0.0
 11
2704.93139905458
 21
1904.862935140263
 31
0.0
  0
LINE
  5
8EC8
330
19
100
AcDbEntity
  8
1
100
AcDbLine
 10
2707.93139905458
 20
1736.362935140264
 30
0.0
 11
2707.93139905458
 21
1371.362935140263
 31
0.0
  0
LINE
  5
8EC9
330
19
100
AcDbEntity
  8
1
100
AcDbLine
 10
2710.93139905458
 20
1711.362935140265
 30
0.0
 11
2710.93139905458
 21
1389.362935140263
 31
0.0
  0
LINE
  5
8ECA
330
19
100
AcDbEntity
  8
1
100
AcDbLine
 10
2732.93139905458
 20
1395.362935140263
 30
0.0
 11
2732.93139905458
 21
1711.362935140265
 31
0.0
  0
LINE
  5
8ECB
330
19
100
AcDbEntity
  8
1
100
AcDbLine
 10
2707.93139905458
 20
1371.362935140263
 30
0.0
 11
2704.93139905458
 21
1371.362935140263
 31
0.0
  0
LINE
  5
8ECC
330
19
100
AcDbEntity
  8
1
100
AcDbLine
 10
2732.93139905458
 20
1396.362935140263
 30
0.0
 11
2732.93139905458
 21
1395.362935140263
 31
0.0
  0
ARC
  5
8ECD
330
19
100
AcDbEntity
  8
1
100
AcDbCircle
 10
2730.93139905458
 20
1395.362935140263
 30
0.0
 40
2.0
100
AcDbArc
 50
270.0
 51
0.0
  0
LINE
  5
8ECE
330
19
100
AcDbEntity
  8
1
100
AcDbLine
 10
2710.93139905458
 20
1389.362935140263
 30
0.0
 11
2710.93139905458
 21
1373.362935140263
 31
0.0
  0
LINE
  5
8ECF
330
19
100
AcDbEntity
  8
1
100
AcDbLine
 10
2708.93139905458
 20
1371.362935140263
 30
0.0
 11
2707.93139905458
 21
1371.362935140263
 31
0.0
  0
ARC
  5
8ED0
330
19
100
AcDbEntity
  8
1
100
AcDbCircle
 10
2708.93139905458
 20
1373.362935140263
 30
0.0
 40
2.0
100
AcDbArc
 50
270.0
 51
0.0
  0
ARC
  5
8ED1
330
19
100
AcDbEntity
  8
1
100
AcDbCircle
 10
2714.93139905458
 20
1389.362935140263
 30
0.0
 40
4.0
100
AcDbArc
 50
90.0
 51
180.0
  0
LINE
  5
8ED2
330
19
100
AcDbEntity
  8
1
100
AcDbLine
 10
2707.93139905458
 20
1396.362935140263
 30
0.0
 11
2732.93139905458
 21
1396.362935140263
 31
0.0
  0
LINE
  5
8ED3
330
19
100
AcDbEntity
  8
1
100
AcDbLine
 10
2730.93139905458
 20
1393.362935140263
 30
0.0
 11
2714.93139905458
 21
1393.362935140263
 31
0.0
  0
LINE
  5
8ED4
330
19
100
AcDbEntity
  8
1
100
AcDbLine
 10
2732.93139905458
 20
1711.362935140265
 30
0.0
 11
2732.93139905458
 21
1712.362935140262
 31
0.0
  0
ARC
  5
8ED5
330
19
100
AcDbEntity
  8
1
100
AcDbCircle
 10
2730.93139905458
 20
1712.362935140262
 30
0.0
 40
2.0
100
AcDbArc
 50
0.0
 51
90.0
  0
LINE
  5
8ED6
330
19
100
AcDbEntity
  8
1
100
AcDbLine
 10
2710.93139905458
 20
1718.362935140263
 30
0.0
 11
2710.93139905458
 21
1734.362935140263
 31
0.0
  0
LINE
  5
8ED7
330
19
100
AcDbEntity
  8
1
100
AcDbLine
 10
2708.93139905458
 20
1736.362935140264
 30
0.0
 11
2707.93139905458
 21
1736.362935140264
 31
0.0
  0
ARC
  5
8ED8
330
19
100
AcDbEntity
  8
1
100
AcDbCircle
 10
2708.93139905458
 20
1734.362935140263
 30
0.0
 40
2.0
100
AcDbArc
 50
0.0
 51
90.0
  0
ARC
  5
8ED9
330
19
100
AcDbEntity
  8
1
100
AcDbCircle
 10
2714.93139905458
 20
1718.362935140263
 30
0.0
 40
4.0
100
AcDbArc
 50
180.0
 51
270.0
  0
LINE
  5
8EDA
330
19
100
AcDbEntity
  8
1
100
AcDbLine
 10
2707.93139905458
 20
1711.362935140265
 30
0.0
 11
2732.93139905458
 21
1711.362935140265
 31
0.0
  0
LINE
  5
8EDB
330
19
100
AcDbEntity
  8
1
100
AcDbLine
 10
2730.93139905458
 20
1714.362935140263
 30
0.0
 11
2714.93139905458
 21
1714.362935140263
 31
0.0
  0
LINE
  5
8EDC
330
19
100
AcDbEntity
  8
1
100
AcDbLine
 10
2707.93139905458
 20
1736.362935140264
 30
0.0
 11
2704.93139905458
 21
1736.362935140264
 31
0.0
  0
LINE
  5
8EDD
330
19
100
AcDbEntity
  8
1
100
AcDbLine
 10
1918.93139905458
 20
1502.862935140263
 30
0.0
 11
1968.93139905458
 21
1502.862935140263
 31
0.0
  0
LINE
  5
8EDE
330
19
100
AcDbEntity
  8
1
100
AcDbLine
 10
1918.93139905458
 20
1543.152068765513
 30
0.0
 11
1968.93139905458
 21
1543.152068765513
 31
0.0
  0
LINE
  5
8EDF
330
19
100
AcDbEntity
  8
1
100
AcDbLine
 10
2309.93139905458
 20
1553.862935140261
 30
0.0
 11
2309.93139905458
 21
1313.862935140263
 31
0.0
  0
LINE
  5
8EE0
330
19
100
AcDbEntity
  8
1
100
AcDbLine
 10
2309.93139905458
 20
1353.062935140258
 30
0.0
 11
2014.93139905458
 21
1353.062935140258
 31
0.0
  0
LINE
  5
8EE1
330
19
100
AcDbEntity
  8
1
100
AcDbLine
 10
2309.93139905458
 20
1553.862935140261
 30
0.0
 11
2014.93139905458
 21
1553.862935140261
 31
0.0
  0
LINE
  5
8EE2
330
19
100
AcDbEntity
  8
1
100
AcDbLine
 10
2014.93139905458
 20
1313.862935140263
 30
0.0
 11
2014.93139905458
 21
1553.862935140261
 31
0.0
  0
LINE
  5
8EE3
330
19
100
AcDbEntity
  8
1
100
AcDbLine
 10
2008.93139905458
 20
1490.862935140263
 30
0.0
 11
2008.93139905458
 21
1416.862935140263
 31
0.0
  0
LINE
  5
8EE4
330
19
100
AcDbEntity
  8
1
100
AcDbLine
 10
2008.93139905458
 20
1468.462835140258
 30
0.0
 11
2003.93139905458
 21
1468.462835140258
 31
0.0
  0
LINE
  5
8EE5
330
19
100
AcDbEntity
  8
1
100
AcDbLine
 10
2014.93139905458
 20
1413.862935140263
 30
0.0
 11
2011.93139905458
 21
1413.862935140263
 31
0.0
  0
LINE
  5
8EE6
330
19
100
AcDbEntity
  8
1
100
AcDbLine
 10
2008.93139905458
 20
1439.262935140257
 30
0.0
 11
2003.93139905458
 21
1439.262935140257
 31
0.0
  0
ARC
  5
8EE7
330
19
100
AcDbEntity
  8
1
100
AcDbCircle
 10
2011.93139905458
 20
1416.86283514026
 30
0.0
 40
2.999899999999998
100
AcDbArc
 50
179.9988000000876
 51
270.0012000000167
  0
LINE
  5
8EE8
330
19
100
AcDbEntity
  8
1
100
AcDbLine
 10
2003.93139905458
 20
1439.262935140257
 30
0.0
 11
2003.93139905458
 21
1468.462835140258
 31
0.0
  0
LINE
  5
8EE9
330
19
100
AcDbEntity
  8
1
100
AcDbLine
 10
2014.93139905458
 20
1493.862935140263
 30
0.0
 11
2011.93139905458
 21
1493.862935140263
 31
0.0
  0
ARC
  5
8EEA
330
19
100
AcDbEntity
  8
1
100
AcDbCircle
 10
2011.93139905458
 20
1490.862935140263
 30
0.0
 40
2.999899999999998
100
AcDbArc
 50
89.99879999998336
 51
180.0011999999124
  0
LINE
  5
8EEB
330
19
100
AcDbEntity
  8
1
100
AcDbLine
 10
2003.93139905458
 20
1467.862935140263
 30
0.0
 11
1968.93139905458
 21
1467.862935140263
 31
0.0
  0
LINE
  5
8EEC
330
19
100
AcDbEntity
  8
1
100
AcDbLine
 10
2003.93139905458
 20
1439.862935140263
 30
0.0
 11
1968.93139905458
 21
1439.862935140263
 31
0.0
  0
LINE
  5
8EED
330
19
100
AcDbEntity
  8
1
100
AcDbLine
 10
2014.93139905458
 20
1536.362935140263
 30
0.0
 11
1998.93139905458
 21
1536.362935140263
 31
0.0
  0
LINE
  5
8EEE
330
19
100
AcDbEntity
  8
1
100
AcDbLine
 10
2014.93139905458
 20
1500.26293514026
 30
0.0
 11
2009.731399054579
 21
1500.26293514026
 31
0.0
  0
LINE
  5
8EEF
330
19
100
AcDbEntity
  8
1
100
AcDbLine
 10
2009.731399054568
 20
1414.823374424786
 30
0.0
 11
2009.731399054579
 21
1313.862935140263
 31
0.0
  0
LINE
  5
9D43
330
19
100
AcDbEntity
  8
1
100
AcDbLine
 10
679.3308910059913
 20
1907.362935140263
 30
0.0
 11
654.3308910059913
 21
1907.362935140263
 31
0.0
  0
LINE
  5
9D44
330
19
100
AcDbEntity
  8
1
100
AcDbLine
 10
661.3308910059913
 20
1910.362935140263
 30
0.0
 11
677.3308910059913
 21
1910.362935140263
 31
0.0
  0
LINE
  5
9D45
330
19
100
AcDbEntity
  8
1
100
AcDbLine
 10
661.3308910059913
 20
1579.362935140263
 30
0.0
 11
677.3308910059913
 21
1579.362935140263
 31
0.0
  0
LINE
  5
9D46
330
19
100
AcDbEntity
  8
1
100
AcDbLine
 10
654.3308910059913
 20
1582.362935140263
 30
0.0
 11
654.3308910059913
 21
1907.362935140263
 31
0.0
  0
LINE
  5
9D47
330
19
100
AcDbEntity
  8
1
100
AcDbLine
 10
657.3308910059913
 20
1582.362935140263
 30
0.0
 11
657.3308910059913
 21
1907.362935140263
 31
0.0
  0
LINE
  5
9D48
330
19
100
AcDbEntity
  8
1
100
AcDbLine
 10
654.3308910059913
 20
1582.362935140263
 30
0.0
 11
654.3308910059913
 21
1557.362935140263
 31
0.0
  0
LINE
  5
9D49
330
19
100
AcDbEntity
  8
1
100
AcDbLine
 10
657.3308910059913
 20
1559.362935140263
 30
0.0
 11
657.3308910059913
 21
1575.362935140263
 31
0.0
  0
ARC
  5
9D4A
330
19
100
AcDbEntity
  8
1
100
AcDbCircle
 10
655.3308910059914
 20
1559.362935140263
 30
0.0
 40
2.0
100
AcDbArc
 50
270.0
 51
0.0
  0
LINE
  5
9D4B
330
19
100
AcDbEntity
  8
1
100
AcDbLine
 10
654.3308910059913
 20
1557.362935140263
 30
0.0
 11
655.3308910059914
 21
1557.362935140263
 31
0.0
  0
ARC
  5
9D4C
330
19
100
AcDbEntity
  8
1
100
AcDbCircle
 10
661.3308910059913
 20
1575.362935140263
 30
0.0
 40
4.0
100
AcDbArc
 50
90.0
 51
180.0
  0
LINE
  5
9D4D
330
19
100
AcDbEntity
  8
1
100
AcDbLine
 10
654.3308910059913
 20
1907.362935140263
 30
0.0
 11
654.3308910059913
 21
1932.362935140263
 31
0.0
  0
LINE
  5
9D4E
330
19
100
AcDbEntity
  8
1
100
AcDbLine
 10
657.3308910059913
 20
1930.362935140263
 30
0.0
 11
657.3308910059913
 21
1914.362935140263
 31
0.0
  0
ARC
  5
9D4F
330
19
100
AcDbEntity
  8
1
100
AcDbCircle
 10
661.3308910059913
 20
1914.362935140263
 30
0.0
 40
4.0
100
AcDbArc
 50
180.0
 51
270.0
  0
LINE
  5
9D50
330
19
100
AcDbEntity
  8
1
100
AcDbLine
 10
654.3308910059913
 20
1907.362935140263
 30
0.0
 11
661.9612026802897
 21
1907.362935140263
 31
0.0
  0
LINE
  5
9D51
330
19
100
AcDbEntity
  8
1
100
AcDbLine
 10
654.3308910059913
 20
1932.362935140263
 30
0.0
 11
655.3308910059914
 21
1932.362935140263
 31
0.0
  0
ARC
  5
9D52
330
19
100
AcDbEntity
  8
1
100
AcDbCircle
 10
655.3308910059914
 20
1930.362935140263
 30
0.0
 40
2.0
100
AcDbArc
 50
0.0
 51
90.0
  0
LINE
  5
9D53
330
19
100
AcDbEntity
  8
1
100
AcDbLine
 10
679.3308910059913
 20
1907.362935140263
 30
0.0
 11
679.3308910059913
 21
1582.362935140263
 31
0.0
  0
LINE
  5
9D54
330
19
100
AcDbEntity
  8
1
100
AcDbLine
 10
679.3308910059913
 20
1581.362935140263
 30
0.0
 11
679.3308910059913
 21
1582.362935140263
 31
0.0
  0
ARC
  5
9D55
330
19
100
AcDbEntity
  8
1
100
AcDbCircle
 10
677.3308910059913
 20
1581.362935140263
 30
0.0
 40
2.0
100
AcDbArc
 50
270.0
 51
0.0
  0
LINE
  5
9D56
330
19
100
AcDbEntity
  8
1
100
AcDbLine
 10
679.3308910059904
 20
1903.792581791749
 30
0.0
 11
679.3308910059904
 21
1902.792581791749
 31
0.0
  0
LINE
  5
9D57
330
19
100
AcDbEntity
  8
1
100
AcDbLine
 10
679.3308910059913
 20
1908.362935140263
 30
0.0
 11
679.3308910059913
 21
1907.362935140263
 31
0.0
  0
ARC
  5
9D58
330
19
100
AcDbEntity
  8
1
100
AcDbCircle
 10
677.3308910059913
 20
1908.362935140263
 30
0.0
 40
2.0
100
AcDbArc
 50
0.0
 51
90.0
  0
LINE
  5
9DA0
330
19
100
AcDbEntity
  8
1
100
AcDbLine
 10
1049.330891005991
 20
2496.523325655793
 30
0.0
 11
1049.330891005991
 21
2955.723325655794
 31
0.0
  0
LINE
  5
9DA1
330
19
100
AcDbEntity
  8
1
100
AcDbLine
 10
749.3308910059913
 20
2496.523325655793
 30
0.0
 11
749.3308910059913
 21
2955.723325655794
 31
0.0
  0
LINE
  5
9DA2
330
19
100
AcDbEntity
  8
1
100
AcDbLine
 10
749.3308910059913
 20
2496.523325655793
 30
0.0
 11
881.8308910059913
 21
2496.523325655793
 31
0.0
  0
LINE
  5
9DA3
330
19
100
AcDbEntity
  8
1
100
AcDbLine
 10
916.8308910059913
 20
2496.523325655793
 30
0.0
 11
1049.330891005991
 21
2496.523325655793
 31
0.0
  0
LINE
  5
9DA4
330
19
100
AcDbEntity
  8
1
100
AcDbLine
 10
848.3308910059914
 20
2405.723325655793
 30
0.0
 11
848.3308910059914
 21
2455.723325655793
 31
0.0
  0
LINE
  5
9DA5
330
19
100
AcDbEntity
  8
1
100
AcDbLine
 10
950.3308910059914
 20
2455.723325655793
 30
0.0
 11
950.3308910059914
 21
2405.723325655796
 31
0.0
  0
LINE
  5
9DA6
330
19
100
AcDbEntity
  8
1
100
AcDbLine
 10
848.3308910059914
 20
2455.723325655793
 30
0.0
 11
950.3308910059914
 21
2455.723325655795
 31
0.0
  0
LINE
  5
9DA7
330
19
100
AcDbEntity
  8
1
100
AcDbLine
 10
848.3308910059914
 20
2405.723325655793
 30
0.0
 11
950.3308910059914
 21
2405.723325655796
 31
0.0
  0
LINE
  5
9DAA
330
19
100
AcDbEntity
  8
1
100
AcDbLine
 10
1479.648398368279
 20
2501.723325655793
 30
0.0
 11
1479.648398368279
 21
2796.723325655796
 31
0.0
  0
LINE
  5
9DAB
330
19
100
AcDbEntity
  8
1
100
AcDbLine
 10
1278.84839836828
 20
2796.723325655794
 30
0.0
 11
1278.84839836828
 21
2501.723325655793
 31
0.0
  0
LINE
  5
9DAC
330
19
100
AcDbEntity
  8
1
100
AcDbLine
 10
1289.648398368279
 20
2405.723325655796
 30
0.0
 11
1469.648398368279
 21
2405.723325655796
 31
0.0
  0
LINE
  5
9DAD
330
19
100
AcDbEntity
  8
1
100
AcDbLine
 10
1289.648398368279
 20
2455.723325655793
 30
0.0
 11
1469.648398368279
 21
2455.723325655793
 31
0.0
  0
LINE
  5
9DAE
330
19
100
AcDbEntity
  8
1
100
AcDbLine
 10
1278.84839836828
 20
2501.723325655793
 30
0.0
 11
1479.648398368279
 21
2501.723325655793
 31
0.0
  0
ARC
  5
9DAF
330
19
100
AcDbEntity
  8
1
100
AcDbCircle
 10
1342.64829836828
 20
2498.723325655793
 30
0.0
 40
2.999899999999998
100
AcDbArc
 50
179.9987999999833
 51
270.0011999999124
  0
LINE
  5
9DB0
330
19
100
AcDbEntity
  8
1
100
AcDbLine
 10
1416.648398368279
 20
2495.723325655792
 30
0.0
 11
1342.648398368279
 21
2495.723325655792
 31
0.0
  0
ARC
  5
9DB1
330
19
100
AcDbEntity
  8
1
100
AcDbCircle
 10
1416.648398368279
 20
2498.723325655793
 30
0.0
 40
2.999899999999998
100
AcDbArc
 50
269.9988000000876
 51
0.0012000000166388
  0
LINE
  5
9DB2
330
19
100
AcDbEntity
  8
1
100
AcDbLine
 10
1419.648398368279
 20
2501.723325655793
 30
0.0
 11
1419.648398368279
 21
2498.723325655793
 31
0.0
  0
LINE
  5
9DB3
330
19
100
AcDbEntity
  8
1
100
AcDbLine
 10
1365.048398368279
 20
2490.723325655795
 30
0.0
 11
1394.24829836828
 21
2490.723325655795
 31
0.0
  0
LINE
  5
9DB4
330
19
100
AcDbEntity
  8
1
100
AcDbLine
 10
1394.24829836828
 20
2495.723325655792
 30
0.0
 11
1394.24829836828
 21
2490.723325655795
 31
0.0
  0
LINE
  5
9DB5
330
19
100
AcDbEntity
  8
1
100
AcDbLine
 10
1393.648398368279
 20
2490.723325655795
 30
0.0
 11
1393.648398368279
 21
2455.723325655795
 31
0.0
  0
LINE
  5
9DB6
330
19
100
AcDbEntity
  8
1
100
AcDbLine
 10
1365.048398368279
 20
2495.723325655792
 30
0.0
 11
1365.048398368279
 21
2490.723325655795
 31
0.0
  0
LINE
  5
9DB7
330
19
100
AcDbEntity
  8
1
100
AcDbLine
 10
1365.648398368279
 20
2490.723325655795
 30
0.0
 11
1365.648398368279
 21
2455.723325655795
 31
0.0
  0
LINE
  5
9DB8
330
19
100
AcDbEntity
  8
1
100
AcDbLine
 10
1339.648398368279
 20
2501.723325655793
 30
0.0
 11
1339.648398368279
 21
2498.723325655793
 31
0.0
  0
LINE
  5
9DB9
330
19
100
AcDbEntity
  8
1
100
AcDbLine
 10
1469.648398368279
 20
2405.723325655796
 30
0.0
 11
1469.648398368279
 21
2455.723325655793
 31
0.0
  0
LINE
  5
9DBA
330
19
100
AcDbEntity
  8
1
100
AcDbLine
 10
1289.648398368279
 20
2405.723325655796
 30
0.0
 11
1289.648398368279
 21
2455.723325655793
 31
0.0
  0
LINE
  5
9DBB
330
19
100
AcDbEntity
  8
1
100
AcDbLine
 10
1479.648398368279
 20
2796.723325655794
 30
0.0
 11
1278.84839836828
 21
2796.723325655794
 31
0.0
  0
LINE
  5
9DBC
330
19
100
AcDbEntity
  8
1
100
AcDbLine
 10
799.3308910059913
 20
2365.723325655793
 30
0.0
 11
1504.041034312569
 21
2365.723325655794
 31
0.0
  0
LINE
  5
9DBD
330
19
100
AcDbEntity
  8
1
100
AcDbLine
 10
799.3308910059913
 20
2487.723325655792
 30
0.0
 11
1504.041034312569
 21
2487.723325655792
 31
0.0
  0
LINE
  5
9DBE
330
19
100
AcDbEntity
  8
1
100
AcDbLine
 10
1504.041034312569
 20
2365.723325655794
 30
0.0
 11
1504.041034312569
 21
2487.723325655795
 31
0.0
  0
LINE
  5
9DBF
330
19
100
AcDbEntity
  8
1
100
AcDbLine
 10
799.3308910059913
 20
2365.723325655793
 30
0.0
 11
799.3308910059913
 21
2487.723325655792
 31
0.0
  0
DIMENSION
  5
ABA7
330
19
100
AcDbEntity
  8
3
100
AcDbDimension
  2
*D43
 10
548.9307431850583
 20
2458.723325655793
 30
0.0
 11
548.9307431850579
 21
2848.723325655793
 31
0.0
 70
   160
 71
     5
 42
780.0
  3
IGA
100
AcDbAlignedDimension
 13
719.3308910059913
 23
3238.723325655793
 33
0.0
 14
719.3308910059922
 24
2458.723325655793
 34
0.0
 50
90.0
100
AcDbRotatedDimension
1001
ACAD
1000
DSTYLE
1002
{
1070
    40
1040
15.0
1070
   143
1040
0.039
1070
   172
1070
     1
1070
   271
1070
     0
1070
   279
1070
     0
1070
   288
1070
     1
1002
}
  0
DIMENSION
  5
B30A
330
19
100
AcDbEntity
  8
3
100
AcDbDimension
  2
*D44
 10
1519.330891005991
 20
2245.197485728941
 30
0.0
 11
1119.330891005992
 21
2245.197485728941
 31
0.0
 70
   160
 71
     5
 42
799.9999999999988
  3
IGA
100
AcDbAlignedDimension
 13
719.3308910059922
 23
2458.723325655793
 33
0.0
 14
1519.330891005991
 24
2458.72332565577
 34
0.0
100
AcDbRotatedDimension
1001
ACAD
1000
DSTYLE
1002
{
1070
    40
1040
15.0
1070
   143
1040
0.039
1070
   172
1070
     1
1070
   271
1070
     0
1070
   279
1070
     0
1070
   288
1070
     1
1002
}
  0
LINE
  5
B511
330
19
100
AcDbEntity
  8
1
100
AcDbLine
 10
1391.734569047103
 20
1613.349218026193
 30
0.0
 11
907.600009700066
 21
1653.520457064217
 31
0.0
  0
LINE
  5
B512
330
19
100
AcDbEntity
  8
1
100
AcDbLine
 10
1336.738533719596
 20
1320.037029612823
 30
0.0
 11
870.9359861483944
 21
1457.978998121969
 31
0.0
  0
ARC
  5
B513
330
19
100
AcDbEntity
  8
1
100
AcDbCircle
 10
899.3308910059914
 20
1553.862935140263
 30
0.0
 40
100.0
100
AcDbArc
 50
85.25672785897883
 51
253.5039615886935
  0
ARC
  5
B514
330
19
100
AcDbEntity
  8
1
100
AcDbCircle
 10
1379.330891005992
 20
1463.862935140263
 30
0.0
 40
150.0
100
AcDbArc
 50
253.5039615886935
 51
85.25672785897883
  0
ENDSEC
  0
SECTION
  2
OBJECTS
  0
DICTIONARY
  5
C
330
0
100
AcDbDictionary
281
     1
  3
ACAD_CIP_PREVIOUS_PRODUCT_INFO
350
848C
  3
ACAD_COLOR
350
846F
  3
ACAD_DETAILVIEWSTYLE
350
8488
  3
ACAD_GROUP
350
D
  3
ACAD_LAYOUT
350
842F
  3
ACAD_MATERIAL
350
843D
  3
ACAD_MLEADERSTYLE
350
8484
  3
ACAD_MLINESTYLE
350
E
  3
ACAD_PLOTSETTINGS
350
8430
  3
ACAD_PLOTSTYLENAME
350
842D
  3
ACAD_SCALELIST
350
8472
  3
ACAD_SECTIONVIEWSTYLE
350
8486
  3
ACAD_TABLESTYLE
350
8470
  3
ACAD_VISUALSTYLE
350
8456
  3
ACDB_RECOMPOSE_DATA
350
B55E
  3
AcDbVariableDictionary
350
849D
  3
AcDsDecomposeData
350
B565
  3
DWGPROPS
350
B55F
  0
DICTIONARY
  5
859F
330
2
100
AcDbDictionary
280
     1
281
     1
  3
ACAD_LAYERSTATES
360
85A0
  0
DICTIONARY
  5
848D
330
F
100
AcDbDictionary
280
     1
281
     1
  3
ADSK_XREC_LAYER_RECONCILED
360
848E
  0
DICTIONARY
  5
848F
330
31
100
AcDbDictionary
280
     1
281
     1
  3
ADSK_XREC_LAYER_RECONCILED
360
8490
  0
DICTIONARY
  5
8491
330
76D0
100
AcDbDictionary
280
     1
281
     1
  3
ADSK_XREC_LAYER_RECONCILED
360
8492
  0
DICTIONARY
  5
8493
330
76D1
100
AcDbDictionary
280
     1
281
     1
  3
ADSK_XREC_LAYER_RECONCILED
360
8494
  0
DICTIONARY
  5
8495
330
76D2
100
AcDbDictionary
280
     1
281
     1
  3
ADSK_XREC_LAYER_RECONCILED
360
8496
  0
DICTIONARY
  5
86D9
330
19
100
AcDbDictionary
280
     1
281
     1
  3
ACAD_SORTENTS
360
86DA
  0
DICTIONARY
  5
B5A5
330
85C1
100
AcDbDictionary
280
     1
281
     1
  3
ACAD_XREC_ROUNDTRIP
360
B5A6
  0
XRECORD
  5
848C
102
{ACAD_REACTORS
330
C
102
}
330
C
100
AcDbXrecord
280
     1
300
ACDLT
300
2015
300
INVLTS_F_S
  0
DICTIONARY
  5
846F
102
{ACAD_REACTORS
330
C
102
}
330
C
100
AcDbDictionary
281
     1
  0
DICTIONARY
  5
8488
102
{ACAD_REACTORS
330
C
102
}
330
C
100
AcDbDictionary
281
     1
  3
Imperial24
350
A756
  3
Metric50
350
8489
  0
DICTIONARY
  5
D
102
{ACAD_REACTORS
330
C
102
}
330
C
100
AcDbDictionary
281
     1
  0
DICTIONARY
  5
842F
102
{ACAD_REACTORS
330
C
102
}
330
C
100
AcDbDictionary
281
     1
  3
Model
350
8431
  3
ﾚｲｱｳﾄ1
350
8432
  0
DICTIONARY
  5
843D
102
{ACAD_REACTORS
330
C
102
}
330
C
100
AcDbDictionary
281
     1
  3
ByBlock
350
8446
  3
ByLayer
350
843E
  3
Global
350
844E
  0
DICTIONARY
  5
8484
102
{ACAD_REACTORS
330
C
102
}
330
C
100
AcDbDictionary
281
     1
  3
Standard
350
8485
  0
DICTIONARY
  5
E
102
{ACAD_REACTORS
330
C
102
}
330
C
100
AcDbDictionary
281
     1
  3
STANDARD
350
1C
  0
DICTIONARY
  5
8430
102
{ACAD_REACTORS
330
C
102
}
330
C
100
AcDbDictionary
281
     1
  0
ACDBDICTIONARYWDFLT
  5
842D
102
{ACAD_REACTORS
330
C
102
}
330
C
100
AcDbDictionary
281
     1
  3
Normal
350
842E
100
AcDbDictionaryWithDefault
340
842E
  0
DICTIONARY
  5
8472
102
{ACAD_REACTORS
330
C
102
}
330
C
100
AcDbDictionary
281
     1
  3
A0
350
8473
  3
A1
350
8474
  3
A2
350
8475
  3
A3
350
8476
  3
A4
350
8477
  3
A5
350
8478
  3
A6
350
8479
  3
A7
350
847A
  3
A8
350
847B
  3
A9
350
847C
  3
B0
350
847D
  3
B1
350
847E
  3
B2
350
847F
  3
B3
350
8480
  3
B4
350
8481
  3
B5
350
8482
  3
B6
350
8483
  0
DICTIONARY
  5
8486
102
{ACAD_REACTORS
330
C
102
}
330
C
100
AcDbDictionary
281
     1
  3
Imperial24
350
A755
  3
Metric50
350
8487
  0
DICTIONARY
  5
8470
102
{ACAD_REACTORS
330
C
102
}
330
C
100
AcDbDictionary
281
     1
  3
Standard
350
8471
  0
DICTIONARY
  5
8456
102
{ACAD_REACTORS
330
C
102
}
330
C
100
AcDbDictionary
281
     1
  3
2dWireframe
350
845C
  3
Basic
350
845B
  3
Brighten
350
8462
  3
ColorChange
350
8466
  3
Conceptual
350
845F
  3
Dim
350
8461
  3
EdgeColorOff
350
846E
  3
Facepattern
350
8465
  3
Flat
350
8457
  3
FlatWithEdges
350
8458
  3
Gouraud
350
8459
  3
GouraudWithEdges
350
845A
  3
Hidden
350
845E
  3
JitterOff
350
846C
  3
Linepattern
350
8464
  3
OverhangOff
350
846D
  3
Realistic
350
8460
  3
Shaded
350
846B
  3
Shaded with edges
350
846A
  3
Shades of Gray
350
8467
  3
Sketchy
350
8468
  3
Thicken
350
8463
  3
Wireframe
350
845D
  3
X-Ray
350
8469
  0
XRECORD
  5
B55E
102
{ACAD_REACTORS
330
C
102
}
330
C
100
AcDbXrecord
280
     1
 90
        1
330
8471
  0
DICTIONARY
  5
849D
102
{ACAD_REACTORS
330
C
102
}
330
C
100
AcDbDictionary
281
     1
  3
CANNOSCALE
350
84A3
  3
CMLEADERSTYLE
350
849F
  3
CTABLESTYLE
350
849E
  3
CVIEWDETAILSTYLE
350
84A0
  3
CVIEWSECTIONSTYLE
350
84A1
  3
DIMASSOC
350
B55A
  3
INDEXCTL
350
B559
  3
LAYEREVAL
350
84A5
  3
LAYERNOTIFY
350
84A6
  3
LIGHTINGUNITS
350
84A4
  3
MSLTSCALE
350
84A2
  3
SORTENTS
350
B558
  3
XCLIPFRAME
350
B55B
  0
DICTIONARY
  5
B565
102
{ACAD_REACTORS
330
C
102
}
330
C
100
AcDbDictionary
281
     1
  3
AcDsRecords
350
B567
  3
AcDsSchemas
350
B566
1001
ACAD
1070
     2
  0
XRECORD
  5
B55F
102
{ACAD_REACTORS
330
C
102
}
330
C
100
AcDbXrecord
280
     1
  1
DWGPROPS COOKIE
  2

  3

  4

  6

  7

  8
miho.otawara
  9

300
=
301
=
302
=
303
=
304
=
305
=
306
=
307
=
308
=
309
=
 40
0.2496379398148148
 41
2451019.556437153
 42
2459605.794773114
  1

 90
        0
  0
DICTIONARY
  5
85A0
102
{ACAD_REACTORS
330
859F
102
}
330
859F
100
AcDbDictionary
281
     1
  0
XRECORD
  5
848E
102
{ACAD_REACTORS
330
848D
102
}
330
848D
100
AcDbXrecord
280
     1
290
     1
  0
XRECORD
  5
8490
102
{ACAD_REACTORS
330
848F
102
}
330
848F
100
AcDbXrecord
280
     1
290
     1
  0
XRECORD
  5
8492
102
{ACAD_REACTORS
330
8491
102
}
330
8491
100
AcDbXrecord
280
     1
290
     1
  0
XRECORD
  5
8494
102
{ACAD_REACTORS
330
8493
102
}
330
8493
100
AcDbXrecord
280
     1
290
     1
  0
XRECORD
  5
8496
102
{ACAD_REACTORS
330
8495
102
}
330
8495
100
AcDbXrecord
280
     1
290
     1
  0
SORTENTSTABLE
  5
86DA
102
{ACAD_REACTORS
330
86D9
102
}
330
86D9
100
AcDbSortentsTable
330
19
331
8ED7
  5
8F17
331
7D45
  5
809E
331
8ED3
  5
8F13
331
7DF0
  5
85C9
331
8ECF
  5
8F0F
331
8E68
  5
8EDF
331
8ECB
  5
8F0B
331
8E64
  5
8EDD
331
8E60
  5
8ED9
331
80B4
  5
8BD8
331
80B0
  5
8BD4
331
8EC7
  5
8F07
331
9D56
  5
9D8D
331
7D1D
  5
7E4E
331
7DE4
  5
80B3
331
8EC3
  5
8F03
331
8E5C
  5
8ED5
331
9D52
  5
9D89
331
8EBF
  5
8EFF
331
8E58
  5
8ED1
331
9D4E
  5
9D85
331
7E4B
  5
85DE
331
9D4A
  5
9D81
331
8EBB
  5
8EFB
331
8E54
  5
8ECD
331
7DD0
  5
80B0
331
8E50
  5
8EC9
331
80AC
  5
8BD0
331
80A8
  5
8919
331
80A4
  5
8857
331
80A0
  5
8854
331
7DC4
  5
80AC
331
9D46
  5
7DF1
331
809D
  5
85E4
331
7DC0
  5
80AA
331
8E4C
  5
8EC6
331
8099
  5
85E2
331
7E0B
  5
85DC
331
7DBC
  5
80A6
331
8EEE
  5
8F2E
331
8EB7
  5
8EEE
331
8EEA
  5
8F2A
331
8207
  5
8BDA
331
8EB3
  5
8EEA
331
7E03
  5
85DB
331
8EE6
  5
8F26
331
8EAF
  5
8EE6
331
7DFF
  5
85D8
331
8EE2
  5
8F22
331
7DFB
  5
85D4
331
8EDE
  5
8F1E
331
8EDA
  5
8F1A
331
7CF3
  5
7E03
331
7DF3
  5
85CC
331
7D44
  5
809D
331
8ED6
  5
8F16
331
7DEF
  5
85C8
331
8ED2
  5
8F12
331
8E6B
  5
8EE2
331
8ECE
  5
8F0E
331
8ECA
  5
8F0A
331
8E63
  5
8EDC
331
80B3
  5
8BD7
331
7CE3
  5
7DFD
331
7CDB
  5
7DF9
331
7DE7
  5
8207
331
85C9
  5
8BE1
331
7DE3
  5
80B2
331
8EC6
  5
8F06
331
8E5F
  5
8ED8
331
9D55
  5
9D8C
331
8EC2
  5
8F02
331
8E5B
  5
8ED4
331
9D51
  5
9D88
331
7D04
  5
7E4D
331
8EBE
  5
8EFE
331
8E57
  5
8ED0
331
9D4D
  5
9D84
331
7D00
  5
7E4A
331
9D49
  5
9D80
331
8EBA
  5
8EFA
331
80AF
  5
8BD3
331
8E53
  5
8ECC
331
80AB
  5
89B9
331
80A7
  5
88B3
331
80A3
  5
8856
331
7CCF
  5
7DF6
331
7CC3
  5
7DF3
331
7DC7
  5
80AE
331
9D45
  5
9D7D
331
8E4F
  5
8EC8
331
809C
  5
85E3
331
7DBF
  5
80A9
331
8E4B
  5
8EC5
331
8098
  5
85E1
331
8EED
  5
8F2D
331
8EB6
  5
8EED
331
8EE9
  5
8F29
331
8EB2
  5
8EE9
331
7CFA
  5
7E16
331
8EE5
  5
8F25
331
8EAE
  5
8EE5
331
7DFE
  5
85D7
331
8EE1
  5
8F21
331
7DFA
  5
85D3
331
8EDD
  5
8F1D
331
8ED9
  5
8F19
331
7CEA
  5
7E00
331
8ED5
  5
8F15
331
8E6A
  5
8EE1
331
8ED1
  5
8F11
331
7DEA
  5
83AE
331
7D2B
  5
809C
331
8ECD
  5
8F0D
331
9D58
  5
9D8F
331
88B3
  5
8C0A
331
8E62
  5
8EDB
331
8EC9
  5
8F09
331
80B2
  5
8BD6
331
7CE2
  5
7DFC
331
7CDA
  5
7DF8
331
7DE6
  5
80B5
331
7DE2
  5
80B1
331
8E5E
  5
8ED7
331
8EC5
  5
8F05
331
9D54
  5
9D8B
331
85C8
  5
8BE0
331
8E5A
  5
8ED3
331
8EC1
  5
8F01
331
9D50
  5
9D87
331
9D4C
  5
9D83
331
8E56
  5
8ECF
331
8EBD
  5
8EFD
331
9D48
  5
9D7F
331
80AE
  5
8BD2
331
8E52
  5
8ECB
331
8EB9
  5
8EF9
331
80AA
  5
8933
331
80A6
  5
8888
331
7CCE
  5
7DF5
331
7CC2
  5
7DF2
331
809F
  5
8853
331
8E4E
  5
8EC7
331
9D44
  5
9D7C
331
7DBE
  5
80A8
331
8E4A
  5
8EC4
331
8EEC
  5
8F2C
331
8EB5
  5
8EEC
331
8EE8
  5
8F28
331
8EB1
  5
8EE8
331
83FE
  5
8BDC
331
7CF9
  5
7E07
331
8097
  5
85E0
331
7E01
  5
85DA
331
8EE4
  5
8F24
331
8EAD
  5
8EE4
331
7DFD
  5
85D6
331
8EE0
  5
8F20
331
7DF9
  5
85D2
331
7D72
  5
809F
331
8EDC
  5
8F1C
331
8ED8
  5
8F18
331
7CE9
  5
7DFF
331
8ED4
  5
8F14
331
8E69
  5
8EE0
331
8ED0
  5
8F10
331
7D2A
  5
8099
331
8E65
  5
8EDE
331
8ECC
  5
8F0C
331
8EC8
  5
8F08
331
80B5
  5
8BD9
331
80B1
  5
8BD5
331
7CE5
  5
7DFE
331
7CD9
  5
7DF7
331
7DE5
  5
80B4
331
9D57
  5
9D8E
331
8E5D
  5
8ED6
331
8EC4
  5
8F04
331
9D53
  5
9D8A
331
85C7
  5
8BDF
331
7E4C
  5
85DF
331
9D4F
  5
9D86
331
8E59
  5
8ED2
331
8EC0
  5
8F00
331
7E48
  5
85DD
331
9D4B
  5
9D82
331
8E55
  5
8ECE
331
8EBC
  5
8EFC
331
80AD
  5
8BD1
331
8E51
  5
8ECA
331
8EB8
  5
8EEF
331
80A9
  5
891A
331
80A5
  5
8887
331
80A1
  5
8855
331
7CCD
  5
7DF4
331
9D47
  5
9D7E
331
7DC5
  5
80AD
331
8E4D
  5
7CC2
331
9D43
  5
9D7B
331
809E
  5
8852
331
8EEF
  5
8F2F
331
7DBD
  5
80A7
331
8EEB
  5
8F2B
331
8EB4
  5
8EEB
331
8EB0
  5
8EE7
331
8EE7
  5
8F27
331
7E00
  5
85D9
331
8EE3
  5
8F23
331
7D81
  5
80A0
331
8EDF
  5
8F1F
331
7DFC
  5
85D5
331
8EDB
  5
8F1B
331
8E78
  5
8EE3
331
89B9
  5
8C0D
331
7CF4
  5
7E06
331
7CEC
  5
7E01
  0
XRECORD
  5
B5A6
102
{ACAD_REACTORS
330
B5A5
102
}
330
B5A5
100
AcDbXrecord
280
     1
102
ACAD_ROUNDTRIP_2012_MLEADER
295
     1
  0
ACDBDETAILVIEWSTYLE
  5
A756
102
{ACAD_XDICTIONARY
360
B303
102
}
102
{ACAD_REACTORS
330
8488
102
}
330
8488
100
AcDbModelDocViewStyle
 70
     0
  3
Imperial24
290
     0
100
AcDbDetailViewStyle
 70
     0
 71
     0
 90
        3
 71
     1
340
10
 40
0.24
340
0
 40
0.24
300

 40
0.36
280
     3
 71
     2
340
15
 90
       25
 71
     3
340
10
 40
0.24
 90
        1
 40
0.75
 90
        1
300
%<\AcVar ViewType \f "%tc1">% %<\AcVar ViewDetailId>%\PSCALE %<\AcVar ViewScale \f "%sn">%
 71
     4
340
15
 90
       25
340
15
 90
       25
280
     0
  0
ACDBDETAILVIEWSTYLE
  5
8489
102
{ACAD_XDICTIONARY
360
849A
102
}
102
{ACAD_REACTORS
330
8488
102
}
330
8488
100
AcDbModelDocViewStyle
 70
     0
  3
Metric50
290
     0
100
AcDbDetailViewStyle
 70
     0
 71
     0
 90
        3
 71
     1
340
10
 40
5.0
340
0
 40
5.0
300

 40
0.0
280
     1
 71
     2
340
15
 90
       25
 71
     3
340
10
 40
5.0
 90
        0
 40
15.0
 90
        1
300
%<\AcVar ViewDetailId>% (%<\AcVar ViewScale \f "%sn">%)
 71
     4
340
15
 90
       25
340
15
 90
       25
280
     0
  0
LAYOUT
  5
8431
102
{ACAD_XDICTIONARY
360
B568
102
}
102
{ACAD_REACTORS
330
842F
102
}
330
842F
100
AcDbPlotSettings
  1

  2
RICOH MP 7503 JPN RPCS
  4
A4
  6

 40
5.873749732971191
 41
5.873748779296875
 42
5.873733520507812
 43
5.873748779296875
 44
209.9733276367187
 45
296.9259948730469
 46
-5.899895582363058
 47
-4.928757263368424
 48
0.0
 49
0.0
140
0.0
141
0.0
142
1.0
143
15.0
 70
 11940
 72
     1
 73
     0
 74
     1
  7
monochrome.ctb
 75
     0
147
0.0264374506397495
148
0.1922519409645247
149
0.2700682027843868
100
AcDbLayout
  1
Model
 70
     1
 71
     0
 10
0.0
 20
0.0
 11
12.0
 21
9.0
 12
0.0
 22
0.0
 32
0.0
 14
0.0
 24
0.0
 34
0.0
 15
0.0
 25
0.0
 35
0.0
146
0.0
 13
0.0
 23
0.0
 33
0.0
 16
1.0
 26
0.0
 36
0.0
 17
0.0
 27
1.0
 37
0.0
 76
     0
330
19
331
843B
1001
ACAD_PSEXT
1000
RICOH MP 7503 JPN RPCS
1000
RICOH MP 7503 JPN RPCS
1000
IP_192.168.7.16
1000
RPCS Driver (For Windows)
1070
     0
  0
LAYOUT
  5
8432
102
{ACAD_XDICTIONARY
360
B56A
102
}
102
{ACAD_REACTORS
330
842F
102
}
330
842F
100
AcDbPlotSettings
  1

  2
EPSON LP-9300
  4

  6

 40
0.0
 41
0.0
 42
0.0
 43
0.0
 44
0.0
 45
0.0
 46
0.0
 47
0.0
 48
0.0
 49
0.0
140
0.0
141
0.0
142
1.0
143
1.0
 70
   688
 72
     0
 73
     0
 74
     5
  7
monochrome.ctb
 75
    16
147
1.0
148
0.0
149
0.0
100
AcDbLayout
  1
ﾚｲｱｳﾄ1
 70
     1
 71
     1
 10
0.0
 20
0.0
 11
12.0
 21
9.0
 12
0.0
 22
0.0
 32
0.0
 14
1.000000000000000E+20
 24
1.000000000000000E+20
 34
1.000000000000000E+20
 15
-1.000000000000000E+20
 25
-1.000000000000000E+20
 35
-1.000000000000000E+20
146
0.0
 13
0.0
 23
0.0
 33
0.0
 16
1.0
 26
0.0
 36
0.0
 17
0.0
 27
1.0
 37
0.0
 76
     0
330
16
  0
MATERIAL
  5
8446
102
{ACAD_XDICTIONARY
360
8447
102
}
102
{ACAD_REACTORS
330
843D
102
}
330
843D
100
AcDbMaterial
  1
ByBlock
 72
     0
 43
0.0208333333333333
 43
0.0
 43
0.0
 43
0.0
 43
0.0
 43
0.0208333333333333
 43
0.0
 43
0.0
 43
0.0
 43
0.0
 43
1.0
 43
0.0
 43
0.0
 43
0.0
 43
0.0
 43
1.0
 77
     0
 47
0.0208333333333333
 47
0.0
 47
0.0
 47
0.0
 47
0.0
 47
0.0208333333333333
 47
0.0
 47
0.0
 47
0.0
 47
0.0
 47
1.0
 47
0.0
 47
0.0
 47
0.0
 47
0.0
 47
1.0
171
     0
 49
0.0208333333333333
 49
0.0
 49
0.0
 49
0.0
 49
0.0
 49
0.0208333333333333
 49
0.0
 49
0.0
 49
0.0
 49
0.0
 49
1.0
 49
0.0
 49
0.0
 49
0.0
 49
0.0
 49
1.0
175
     0
142
0.0208333333333333
142
0.0
142
0.0
142
0.0
142
0.0
142
0.0208333333333333
142
0.0
142
0.0
142
0.0
142
0.0
142
1.0
142
0.0
142
0.0
142
0.0
142
0.0
142
1.0
179
     0
144
0.0208333333333333
144
0.0
144
0.0
144
0.0
144
0.0
144
0.0208333333333333
144
0.0
144
0.0
144
0.0
144
0.0
144
1.0
144
0.0
144
0.0
144
0.0
144
0.0
144
1.0
147
0.0208333333333333
147
0.0
147
0.0
147
0.0
147
0.0
147
0.0208333333333333
147
0.0
147
0.0
147
0.0
147
0.0
147
1.0
147
0.0
147
0.0
147
0.0
147
0.0
147
1.0
  0
MATERIAL
  5
843E
102
{ACAD_XDICTIONARY
360
843F
102
}
102
{ACAD_REACTORS
330
843D
102
}
330
843D
100
AcDbMaterial
  1
ByLayer
 72
     0
 43
0.0208333333333333
 43
0.0
 43
0.0
 43
0.0
 43
0.0
 43
0.0208333333333333
 43
0.0
 43
0.0
 43
0.0
 43
0.0
 43
1.0
 43
0.0
 43
0.0
 43
0.0
 43
0.0
 43
1.0
 77
     0
 47
0.0208333333333333
 47
0.0
 47
0.0
 47
0.0
 47
0.0
 47
0.0208333333333333
 47
0.0
 47
0.0
 47
0.0
 47
0.0
 47
1.0
 47
0.0
 47
0.0
 47
0.0
 47
0.0
 47
1.0
171
     0
 49
0.0208333333333333
 49
0.0
 49
0.0
 49
0.0
 49
0.0
 49
0.0208333333333333
 49
0.0
 49
0.0
 49
0.0
 49
0.0
 49
1.0
 49
0.0
 49
0.0
 49
0.0
 49
0.0
 49
1.0
175
     0
142
0.0208333333333333
142
0.0
142
0.0
142
0.0
142
0.0
142
0.0208333333333333
142
0.0
142
0.0
142
0.0
142
0.0
142
1.0
142
0.0
142
0.0
142
0.0
142
0.0
142
1.0
179
     0
144
0.0208333333333333
144
0.0
144
0.0
144
0.0
144
0.0
144
0.0208333333333333
144
0.0
144
0.0
144
0.0
144
0.0
144
1.0
144
0.0
144
0.0
144
0.0
144
0.0
144
1.0
147
0.0208333333333333
147
0.0
147
0.0
147
0.0
147
0.0
147
0.0208333333333333
147
0.0
147
0.0
147
0.0
147
0.0
147
1.0
147
0.0
147
0.0
147
0.0
147
0.0
147
1.0
  0
MATERIAL
  5
844E
102
{ACAD_XDICTIONARY
360
844F
102
}
102
{ACAD_REACTORS
330
843D
102
}
330
843D
100
AcDbMaterial
  1
Global
 72
     0
 43
0.0208333333333333
 43
0.0
 43
0.0
 43
0.0
 43
0.0
 43
0.0208333333333333
 43
0.0
 43
0.0
 43
0.0
 43
0.0
 43
1.0
 43
0.0
 43
0.0
 43
0.0
 43
0.0
 43
1.0
 77
     0
 47
0.0208333333333333
 47
0.0
 47
0.0
 47
0.0
 47
0.0
 47
0.0208333333333333
 47
0.0
 47
0.0
 47
0.0
 47
0.0
 47
1.0
 47
0.0
 47
0.0
 47
0.0
 47
0.0
 47
1.0
171
     0
 49
0.0208333333333333
 49
0.0
 49
0.0
 49
0.0
 49
0.0
 49
0.0208333333333333
 49
0.0
 49
0.0
 49
0.0
 49
0.0
 49
1.0
 49
0.0
 49
0.0
 49
0.0
 49
0.0
 49
1.0
175
     0
142
0.0208333333333333
142
0.0
142
0.0
142
0.0
142
0.0
142
0.0208333333333333
142
0.0
142
0.0
142
0.0
142
0.0
142
1.0
142
0.0
142
0.0
142
0.0
142
0.0
142
1.0
179
     0
144
0.0208333333333333
144
0.0
144
0.0
144
0.0
144
0.0
144
0.0208333333333333
144
0.0
144
0.0
144
0.0
144
0.0
144
1.0
144
0.0
144
0.0
144
0.0
144
0.0
144
1.0
147
0.0208333333333333
147
0.0
147
0.0
147
0.0
147
0.0
147
0.0208333333333333
147
0.0
147
0.0
147
0.0
147
0.0
147
1.0
147
0.0
147
0.0
147
0.0
147
0.0
147
1.0
  0
MLEADERSTYLE
  5
8485
102
{ACAD_XDICTIONARY
360
B5A1
102
}
102
{ACAD_REACTORS
330
8484
330
85C1
102
}
330
8484
100
AcDbMLeaderStyle
170
     2
171
     1
172
     0
 90
        2
 40
0.0
 41
0.0
173
     1
 91
-1056964608
340
13
 92
       -2
290
     1
 42
2.0
291
     1
 43
0.36
  3
Standard
 44
4.0
300

342
10
174
     1
178
     6
175
     1
176
     0
 93
-1056964608
 45
4.0
292
     0
297
     0
 46
4.0
 94
-1056964608
 47
1.0
 49
1.0
140
1.0
293
     1
141
0.0
294
     1
177
     0
142
1.0
295
     0
296
     0
143
0.125
1001
ACAD_MLEADERVER
1070
     2
  0
MLINESTYLE
  5
1C
102
{ACAD_REACTORS
330
E
102
}
330
E
100
AcDbMlineStyle
  2
STANDARD
 70
     0
  3

 62
     0
 51
90.0
 52
90.0
 71
     2
 49
0.5
 62
   256
  6
BYLAYER
 49
-0.5
 62
   256
  6
BYLAYER
  0
ACDBPLACEHOLDER
  5
842E
102
{ACAD_REACTORS
330
842D
102
}
330
842D
  0
SCALE
  5
8473
102
{ACAD_REACTORS
330
8472
102
}
330
8472
100
AcDbScale
 70
     0
300
1:1
140
1.0
141
1.0
290
     1
  0
SCALE
  5
8474
102
{ACAD_REACTORS
330
8472
102
}
330
8472
100
AcDbScale
 70
     0
300
1:2
140
1.0
141
2.0
290
     0
  0
SCALE
  5
8475
102
{ACAD_REACTORS
330
8472
102
}
330
8472
100
AcDbScale
 70
     0
300
1:4
140
1.0
141
4.0
290
     0
  0
SCALE
  5
8476
102
{ACAD_REACTORS
330
8472
102
}
330
8472
100
AcDbScale
 70
     0
300
1:5
140
1.0
141
5.0
290
     0
  0
SCALE
  5
8477
102
{ACAD_REACTORS
330
8472
102
}
330
8472
100
AcDbScale
 70
     0
300
1:8
140
1.0
141
8.0
290
     0
  0
SCALE
  5
8478
102
{ACAD_REACTORS
330
8472
102
}
330
8472
100
AcDbScale
 70
     0
300
1:10
140
1.0
141
10.0
290
     0
  0
SCALE
  5
8479
102
{ACAD_REACTORS
330
8472
102
}
330
8472
100
AcDbScale
 70
     0
300
1:16
140
1.0
141
16.0
290
     0
  0
SCALE
  5
847A
102
{ACAD_REACTORS
330
8472
102
}
330
8472
100
AcDbScale
 70
     0
300
1:20
140
1.0
141
20.0
290
     0
  0
SCALE
  5
847B
102
{ACAD_REACTORS
330
8472
102
}
330
8472
100
AcDbScale
 70
     0
300
1:30
140
1.0
141
30.0
290
     0
  0
SCALE
  5
847C
102
{ACAD_REACTORS
330
8472
102
}
330
8472
100
AcDbScale
 70
     0
300
1:40
140
1.0
141
40.0
290
     0
  0
SCALE
  5
847D
102
{ACAD_REACTORS
330
8472
102
}
330
8472
100
AcDbScale
 70
     0
300
1:50
140
1.0
141
50.0
290
     0
  0
SCALE
  5
847E
102
{ACAD_REACTORS
330
8472
102
}
330
8472
100
AcDbScale
 70
     0
300
1:100
140
1.0
141
100.0
290
     0
  0
SCALE
  5
847F
102
{ACAD_REACTORS
330
8472
102
}
330
8472
100
AcDbScale
 70
     0
300
2:1
140
2.0
141
1.0
290
     0
  0
SCALE
  5
8480
102
{ACAD_REACTORS
330
8472
102
}
330
8472
100
AcDbScale
 70
     0
300
4:1
140
4.0
141
1.0
290
     0
  0
SCALE
  5
8481
102
{ACAD_REACTORS
330
8472
102
}
330
8472
100
AcDbScale
 70
     0
300
8:1
140
8.0
141
1.0
290
     0
  0
SCALE
  5
8482
102
{ACAD_REACTORS
330
8472
102
}
330
8472
100
AcDbScale
 70
     0
300
10:1
140
10.0
141
1.0
290
     0
  0
SCALE
  5
8483
102
{ACAD_REACTORS
330
8472
102
}
330
8472
100
AcDbScale
 70
     0
300
100:1
140
100.0
141
1.0
290
     0
  0
ACDBSECTIONVIEWSTYLE
  5
A755
102
{ACAD_XDICTIONARY
360
B301
102
}
102
{ACAD_REACTORS
330
8486
102
}
330
8486
100
AcDbModelDocViewStyle
 70
     0
  3
Imperial24
290
     0
100
AcDbSectionViewStyle
 70
     0
 71
     0
 90
       78
 71
     1
340
10
 40
0.24
340
0
340
0
 40
0.24
300
I, O, Q, S, X, Z
 40
0.48
 90
        3
 40
0.18
 90
        1
 71
     2
340
15
 90
       25
340
15
 90
       50
 40
0.24
 40
0.0
 40
0.24
 71
     3
340
10
 40
0.24
 90
        1
 40
0.75
 90
        1
300
%<\AcVar ViewType \f "%tc1">% %<\AcVar ViewSectionStartId>%-%<\AcVar ViewSectionEndId>%\PSCALE %<\AcVar ViewScale \f "%sn">%
 71
     4
300
ANSI31
 40
1.0
 90
        0
290
     0
290
     0
 90
        6
 40
0.0
 40
1.570796326794896
 40
0.2617993877991494
 40
1.308996938995747
 40
-0.2617993877991494
 40
1.832595714594046
  0
ACDBSECTIONVIEWSTYLE
  5
8487
102
{ACAD_XDICTIONARY
360
8498
102
}
102
{ACAD_REACTORS
330
8486
102
}
330
8486
100
AcDbModelDocViewStyle
 70
     0
  3
Metric50
290
     0
100
AcDbSectionViewStyle
 70
     0
 71
     0
 90
      102
 71
     1
340
10
 40
5.0
340
0
340
0
 40
5.0
300
I, O, Q, S, X, Z
 40
10.0
 90
        0
 40
2.5
 90
        0
 71
     2
340
15
 90
       25
340
15
 90
       50
 40
5.0
 40
2.5
 40
5.0
 71
     3
340
10
 40
5.0
 90
        0
 40
15.0
 90
        1
300
%<\AcVar ViewSectionStartId>%-%<\AcVar ViewSectionEndId>% (%<\AcVar ViewScale \f "%sn">%)
 71
     4
300
ANSI31
 40
1.0
 90
        0
290
     0
290
     0
 90
        6
 40
0.0
 40
1.570796326794896
 40
0.2617993877991494
 40
1.308996938995747
 40
-0.2617993877991494
 40
1.832595714594046
  0
TABLESTYLE
  5
8471
102
{ACAD_XDICTIONARY
360
B55C
102
}
102
{ACAD_REACTORS
330
8470
102
}
330
8470
100
AcDbTableStyle
  3
Standard
 70
     0
 71
     0
 40
1.5
 41
1.5
280
     0
281
     0
  7
STANDARD
140
4.5
170
     2
 62
     0
 63
     7
283
     0
274
    -2
284
     1
 64
     0
275
    -2
285
     1
 65
     0
276
    -2
286
     1
 66
     0
277
    -2
287
     1
 67
     0
278
    -2
288
     1
 68
     0
279
    -2
289
     1
 69
     0
  7
STANDARD
140
6.0
170
     5
 62
     0
 63
     7
283
     0
274
    -2
284
     1
 64
     0
275
    -2
285
     1
 65
     0
276
    -2
286
     1
 66
     0
277
    -2
287
     1
 67
     0
278
    -2
288
     1
 68
     0
279
    -2
289
     1
 69
     0
  7
STANDARD
140
4.5
170
     5
 62
     0
 63
     7
283
     0
274
    -2
284
     1
 64
     0
275
    -2
285
     1
 65
     0
276
    -2
286
     1
 66
     0
277
    -2
287
     1
 67
     0
278
    -2
288
     1
 68
     0
279
    -2
289
     1
 69
     0
  0
VISUALSTYLE
  5
845C
102
{ACAD_XDICTIONARY
360
B579
102
}
102
{ACAD_REACTORS
330
8456
102
}
330
8456
100
AcDbVisualStyle
  2
2dWireframe
 70
     4
 71
     0
 72
     2
 73
     0
 90
        0
 40
-0.6
 41
-30.0
 62
     5
 63
     7
 74
     1
 91
        4
 64
     7
 65
   257
 75
     1
175
     1
 42
1.0
 92
        0
 66
   257
 43
1.0
 76
     1
 77
     6
 78
     2
 67
     7
 79
     5
170
     0
171
     0
290
     0
174
     0
 93
        1
 44
0.0
173
     0
291
     0
 45
0.0
1001
ACAD
1000
AcDbSavedByObjectVersion
1070
     0
  0
VISUALSTYLE
  5
845B
102
{ACAD_XDICTIONARY
360
B577
102
}
102
{ACAD_REACTORS
330
8456
102
}
330
8456
100
AcDbVisualStyle
  2
Basic
 70
     7
 71
     1
 72
     0
 73
     1
 90
        0
 40
-0.6
 41
-30.0
 62
     5
 63
     7
 74
     0
 91
        4
 64
     7
 65
   257
 75
     1
175
     1
 42
1.0
 92
        8
 66
     7
 43
1.0
 76
     1
 77
     6
 78
     2
 67
     7
 79
     5
170
     0
171
     0
290
     0
174
     0
 93
        1
 44
0.0
173
     0
291
     1
 45
0.0
1001
ACAD
1000
AcDbSavedByObjectVersion
1070
     0
  0
VISUALSTYLE
  5
8462
102
{ACAD_XDICTIONARY
360
B585
102
}
102
{ACAD_REACTORS
330
8456
102
}
330
8456
100
AcDbVisualStyle
  2
Brighten
 70
    12
 71
     2
 72
     2
 73
     0
 90
        0
 40
-0.6
 41
-30.0
 62
     5
 63
     7
 74
     1
 91
        4
 64
     7
 65
   257
 75
     1
175
     1
 42
1.0
 92
        8
 66
     7
 43
1.0
 76
     1
 77
     6
 78
     2
 67
     7
 79
     5
170
     0
171
     0
290
     0
174
     0
 93
        1
 44
50.0
173
     0
291
     1
 45
0.0
1001
ACAD
1000
AcDbSavedByObjectVersion
1070
     0
  0
VISUALSTYLE
  5
8466
102
{ACAD_XDICTIONARY
360
B58D
102
}
102
{ACAD_REACTORS
330
8456
102
}
330
8456
100
AcDbVisualStyle
  2
ColorChange
 70
    16
 71
     2
 72
     2
 73
     3
 90
        0
 40
-0.6
 41
-30.0
 62
     5
 63
     8
 74
     1
 91
        4
 64
     7
 65
   257
 75
     1
175
     1
 42
1.0
 92
        8
 66
     8
 43
1.0
 76
     1
 77
     6
 78
     2
 67
     7
 79
     5
170
     0
171
     0
290
     0
174
     0
 93
        1
 44
0.0
173
     0
291
     1
 45
0.0
1001
ACAD
1000
AcDbSavedByObjectVersion
1070
     0
  0
VISUALSTYLE
  5
845F
102
{ACAD_XDICTIONARY
360
B57F
102
}
102
{ACAD_REACTORS
330
8456
102
}
330
8456
100
AcDbVisualStyle
  2
Conceptual
 70
     9
 71
     3
 72
     2
 73
     0
 90
        0
 40
-0.6
 41
-30.0
 62
     5
 63
     7
 74
     2
 91
        2
 64
     7
 65
   257
 75
     1
175
     1
 42
179.0
 92
        8
 66
     7
 43
1.0
 76
     1
 77
     6
 78
     2
 67
     7
 79
     3
170
     0
171
     0
290
     0
174
     0
 93
        1
 44
0.0
173
     0
291
     0
 45
0.0
1001
ACAD
1000
AcDbSavedByObjectVersion
1070
     0
  0
VISUALSTYLE
  5
8461
102
{ACAD_XDICTIONARY
360
B583
102
}
102
{ACAD_REACTORS
330
8456
102
}
330
8456
100
AcDbVisualStyle
  2
Dim
 70
    11
 71
     2
 72
     2
 73
     0
 90
        0
 40
-0.6
 41
-30.0
 62
     5
 63
     7
 74
     1
 91
        4
 64
     7
 65
   257
 75
     1
175
     1
 42
1.0
 92
        8
 66
     7
 43
1.0
 76
     1
 77
     6
 78
     2
 67
     7
 79
     5
170
     0
171
     0
290
     0
174
     0
 93
        1
 44
-50.0
173
     0
291
     1
 45
0.0
1001
ACAD
1000
AcDbSavedByObjectVersion
1070
     0
  0
VISUALSTYLE
  5
846E
102
{ACAD_XDICTIONARY
360
B59D
102
}
102
{ACAD_REACTORS
330
8456
102
}
330
8456
100
AcDbVisualStyle
  2
EdgeColorOff
 70
    22
 71
     2
 72
     2
 73
     0
 90
        0
 40
-0.6
 41
-30.0
 62
     5
 63
     7
 74
     1
 91
        4
 64
     7
 65
   257
 75
     1
175
     1
 42
1.0
 92
        8
 66
     7
 43
1.0
 76
     1
 77
     6
 78
     2
 67
     7
 79
     5
170
     0
171
     0
290
     0
174
     0
 93
        1
 44
0.0
173
     0
291
     1
 45
0.0
1001
ACAD
1000
AcDbSavedByObjectVersion
1070
     0
  0
VISUALSTYLE
  5
8465
102
{ACAD_XDICTIONARY
360
B58B
102
}
102
{ACAD_REACTORS
330
8456
102
}
330
8456
100
AcDbVisualStyle
  2
Facepattern
 70
    15
 71
     2
 72
     2
 73
     0
 90
        0
 40
-0.6
 41
-30.0
 62
     5
 63
     7
 74
     1
 91
        4
 64
     7
 65
   257
 75
     1
175
     1
 42
1.0
 92
        8
 66
     7
 43
1.0
 76
     1
 77
     6
 78
     2
 67
     7
 79
     5
170
     0
171
     0
290
     0
174
     0
 93
        1
 44
0.0
173
     0
291
     1
 45
0.0
1001
ACAD
1000
AcDbSavedByObjectVersion
1070
     0
  0
VISUALSTYLE
  5
8457
102
{ACAD_XDICTIONARY
360
B56F
102
}
102
{ACAD_REACTORS
330
8456
102
}
330
8456
100
AcDbVisualStyle
  2
Flat
 70
     0
 71
     2
 72
     1
 73
     1
 90
        2
 40
-0.6
 41
30.0
 62
     5
 63
     7
 74
     0
 91
        0
 64
     7
 65
   257
 75
     1
175
     1
 42
1.0
 92
        8
 66
     7
 43
1.0
 76
     1
 77
     6
 78
     2
 67
     7
 79
     5
170
     0
171
     0
290
     0
174
     0
 93
       13
 44
0.0
173
     0
291
     1
 45
0.0
1001
ACAD
1000
AcDbSavedByObjectVersion
1070
     0
  0
VISUALSTYLE
  5
8458
102
{ACAD_XDICTIONARY
360
B571
102
}
102
{ACAD_REACTORS
330
8456
102
}
330
8456
100
AcDbVisualStyle
  2
FlatWithEdges
 70
     1
 71
     2
 72
     1
 73
     1
 90
        2
 40
-0.6
 41
30.0
 62
     5
 63
     7
 74
     1
 91
        0
 64
     7
 65
   257
 75
     1
175
     1
 42
1.0
 92
        0
 66
   257
 43
1.0
 76
     1
 77
     6
 78
     2
 67
     7
 79
     5
170
     0
171
     0
290
     0
174
     0
 93
       13
 44
0.0
173
     0
291
     1
 45
0.0
1001
ACAD
1000
AcDbSavedByObjectVersion
1070
     0
  0
VISUALSTYLE
  5
8459
102
{ACAD_XDICTIONARY
360
B573
102
}
102
{ACAD_REACTORS
330
8456
102
}
330
8456
100
AcDbVisualStyle
  2
Gouraud
 70
     2
 71
     2
 72
     2
 73
     1
 90
        2
 40
-0.6
 41
30.0
 62
     5
 63
     7
 74
     0
 91
        0
 64
     7
 65
   257
 75
     1
175
     1
 42
1.0
 92
        0
 66
     7
 43
1.0
 76
     1
 77
     6
 78
     2
 67
     7
 79
     5
170
     0
171
     0
290
     0
174
     0
 93
       13
 44
0.0
173
     0
291
     1
 45
0.0
1001
ACAD
1000
AcDbSavedByObjectVersion
1070
     0
  0
VISUALSTYLE
  5
845A
102
{ACAD_XDICTIONARY
360
B575
102
}
102
{ACAD_REACTORS
330
8456
102
}
330
8456
100
AcDbVisualStyle
  2
GouraudWithEdges
 70
     3
 71
     2
 72
     2
 73
     1
 90
        2
 40
-0.6
 41
30.0
 62
     5
 63
     7
 74
     1
 91
        0
 64
     7
 65
   257
 75
     1
175
     1
 42
1.0
 92
        0
 66
   257
 43
1.0
 76
     1
 77
     6
 78
     2
 67
     7
 79
     5
170
     0
171
     0
290
     0
174
     0
 93
       13
 44
0.0
173
     0
291
     1
 45
0.0
1001
ACAD
1000
AcDbSavedByObjectVersion
1070
     0
  0
VISUALSTYLE
  5
845E
102
{ACAD_XDICTIONARY
360
B57D
102
}
102
{ACAD_REACTORS
330
8456
102
}
330
8456
100
AcDbVisualStyle
  2
Hidden
 70
     6
 71
     1
 72
     2
 73
     2
 90
        0
 40
-0.6
 41
-30.0
 62
     5
 63
     7
 74
     2
 91
        2
 64
     7
 65
   257
 75
     2
175
     1
 42
40.0
 92
        0
 66
   257
 43
1.0
 76
     1
 77
     6
 78
     2
 67
     7
 79
     3
170
     0
171
     0
290
     0
174
     0
 93
        1
 44
0.0
173
     0
291
     0
 45
0.0
1001
ACAD
1000
AcDbSavedByObjectVersion
1070
     0
  0
VISUALSTYLE
  5
846C
102
{ACAD_XDICTIONARY
360
B599
102
}
102
{ACAD_REACTORS
330
8456
102
}
330
8456
100
AcDbVisualStyle
  2
JitterOff
 70
    20
 71
     2
 72
     2
 73
     0
 90
        0
 40
-0.6
 41
-30.0
 62
     5
 63
     7
 74
     1
 91
        4
 64
     7
 65
   257
 75
     1
175
     1
 42
1.0
 92
       10
 66
     7
 43
1.0
 76
     1
 77
     6
 78
     2
 67
     7
 79
     5
170
     0
171
     0
290
     0
174
     0
 93
        1
 44
0.0
173
     0
291
     1
 45
0.0
1001
ACAD
1000
AcDbSavedByObjectVersion
1070
     0
  0
VISUALSTYLE
  5
8464
102
{ACAD_XDICTIONARY
360
B589
102
}
102
{ACAD_REACTORS
330
8456
102
}
330
8456
100
AcDbVisualStyle
  2
Linepattern
 70
    14
 71
     2
 72
     2
 73
     0
 90
        0
 40
-0.6
 41
-30.0
 62
     5
 63
     7
 74
     1
 91
        4
 64
     7
 65
   257
 75
     7
175
     7
 42
1.0
 92
        8
 66
     7
 43
1.0
 76
     1
 77
     6
 78
     2
 67
     7
 79
     5
170
     0
171
     0
290
     0
174
     0
 93
        1
 44
0.0
173
     0
291
     1
 45
0.0
1001
ACAD
1000
AcDbSavedByObjectVersion
1070
     0
  0
VISUALSTYLE
  5
846D
102
{ACAD_XDICTIONARY
360
B59B
102
}
102
{ACAD_REACTORS
330
8456
102
}
330
8456
100
AcDbVisualStyle
  2
OverhangOff
 70
    21
 71
     2
 72
     2
 73
     0
 90
        0
 40
-0.6
 41
-30.0
 62
     5
 63
     7
 74
     1
 91
        4
 64
     7
 65
   257
 75
     1
175
     1
 42
1.0
 92
        9
 66
     7
 43
1.0
 76
     1
 77
     6
 78
     2
 67
     7
 79
     5
170
     0
171
     0
290
     0
174
     0
 93
        1
 44
0.0
173
     0
291
     1
 45
0.0
1001
ACAD
1000
AcDbSavedByObjectVersion
1070
     0
  0
VISUALSTYLE
  5
8460
102
{ACAD_XDICTIONARY
360
B581
102
}
102
{ACAD_REACTORS
330
8456
102
}
330
8456
100
AcDbVisualStyle
  2
Realistic
 70
     8
 71
     2
 72
     3
 73
     0
 90
        2
 40
-0.6
 41
30.0
 62
     5
 63
     7
 74
     0
 91
        0
 64
     7
 65
   257
 75
     1
175
     1
 42
1.0
 92
        8
 66
   257
 43
1.0
 76
     1
 77
     6
 78
     2
 67
     7
 79
     3
170
     0
171
     0
290
     0
174
     0
 93
       13
 44
0.0
173
     0
291
     0
 45
0.0
1001
ACAD
1000
AcDbSavedByObjectVersion
1070
     0
  0
VISUALSTYLE
  5
846B
102
{ACAD_XDICTIONARY
360
B597
102
}
102
{ACAD_REACTORS
330
8456
102
}
330
8456
100
AcDbVisualStyle
  2
Shaded
 70
    27
 71
     2
 72
     2
 73
     1
 90
        2
 40
-0.6
 41
30.0
 62
     5
 63
     7
 74
     0
 91
        4
 64
     7
 65
   257
 75
     1
175
     1
 42
1.0
 92
        8
 66
   257
 43
1.0
 76
     1
 77
     6
 78
     2
 67
     8
 79
     3
170
     0
171
     0
290
     0
174
     0
 93
        5
 44
0.0
173
     0
291
     0
 45
0.0
1001
ACAD
1000
AcDbSavedByObjectVersion
1070
     0
  0
VISUALSTYLE
  5
846A
102
{ACAD_XDICTIONARY
360
B595
102
}
102
{ACAD_REACTORS
330
8456
102
}
330
8456
100
AcDbVisualStyle
  2
Shaded with edges
 70
    26
 71
     2
 72
     2
 73
     1
 90
        2
 40
-0.6
 41
30.0
 62
     5
 63
     7
 74
     1
 91
       10
 64
     7
 65
   257
 75
     2
175
     1
 42
1.0
 92
        8
 66
   257
 43
1.0
 76
     1
 77
     6
 78
     2
 67
     7
 79
     3
170
     0
171
     0
290
     0
174
     0
 93
        5
 44
0.0
173
     0
291
     0
 45
0.0
1001
ACAD
1000
AcDbSavedByObjectVersion
1070
     0
  0
VISUALSTYLE
  5
8467
102
{ACAD_XDICTIONARY
360
B58F
102
}
102
{ACAD_REACTORS
330
8456
102
}
330
8456
100
AcDbVisualStyle
  2
Shades of Gray
 70
    23
 71
     2
 72
     2
 73
     3
 90
        0
 40
-0.6
 41
-30.0
 62
     5
 63
     7
 74
     2
 91
        2
 64
     7
 65
     7
 75
     1
175
     1
 42
40.0
 92
        8
 66
     7
 43
1.0
 76
     1
 77
     6
 78
     2
 67
     7
 79
     3
170
     0
171
     0
290
     0
174
     0
 93
        1
 44
0.0
173
     0
291
     0
 45
0.0
1001
ACAD
1000
AcDbSavedByObjectVersion
1070
     0
  0
VISUALSTYLE
  5
8468
102
{ACAD_XDICTIONARY
360
B591
102
}
102
{ACAD_REACTORS
330
8456
102
}
330
8456
100
AcDbVisualStyle
  2
Sketchy
 70
    24
 71
     1
 72
     2
 73
     2
 90
        0
 40
-0.6
 41
-30.0
 62
     5
 63
     7
 74
     2
 91
        2
 64
     7
 65
     7
 75
     1
175
     1
 42
40.0
 92
       11
 66
     7
 43
1.0
 76
     1
 77
     6
 78
     2
 67
     7
 79
     6
170
     0
171
     0
290
     0
174
     0
 93
        1
 44
0.0
173
     0
291
     0
 45
0.0
1001
ACAD
1000
AcDbSavedByObjectVersion
1070
     0
  0
VISUALSTYLE
  5
8463
102
{ACAD_XDICTIONARY
360
B587
102
}
102
{ACAD_REACTORS
330
8456
102
}
330
8456
100
AcDbVisualStyle
  2
Thicken
 70
    13
 71
     2
 72
     2
 73
     0
 90
        0
 40
-0.6
 41
-30.0
 62
     5
 63
     7
 74
     1
 91
        4
 64
     7
 65
   257
 75
     1
175
     1
 42
1.0
 92
       12
 66
     7
 43
1.0
 76
     1
 77
     6
 78
     2
 67
     7
 79
     5
170
     0
171
     0
290
     0
174
     0
 93
        1
 44
0.0
173
     0
291
     1
 45
0.0
1001
ACAD
1000
AcDbSavedByObjectVersion
1070
     0
  0
VISUALSTYLE
  5
845D
102
{ACAD_XDICTIONARY
360
B57B
102
}
102
{ACAD_REACTORS
330
8456
102
}
330
8456
100
AcDbVisualStyle
  2
Wireframe
 70
     5
 71
     0
 72
     2
 73
     0
 90
        0
 40
-0.6
 41
-30.0
 62
     5
 63
     7
 74
     1
 91
        4
 64
     7
 65
   257
 75
     1
175
     1
 42
1.0
 92
        0
 66
   257
 43
1.0
 76
     1
 77
     6
 78
     2
 67
     7
 79
     3
170
     0
171
     0
290
     0
174
     0
 93
        1
 44
0.0
173
     0
291
     0
 45
0.0
1001
ACAD
1000
AcDbSavedByObjectVersion
1070
     0
  0
VISUALSTYLE
  5
8469
102
{ACAD_XDICTIONARY
360
B593
102
}
102
{ACAD_REACTORS
330
8456
102
}
330
8456
100
AcDbVisualStyle
  2
X-Ray
 70
    25
 71
     2
 72
     2
 73
     1
 90
        1
 40
0.5
 41
-30.0
 62
     5
 63
     7
 74
     1
 91
        0
 64
     7
 65
   257
 75
     1
175
     1
 42
1.0
 92
        8
 66
     7
 43
1.0
 76
     1
 77
     6
 78
     2
 67
     7
 79
     3
170
     0
171
     0
290
     0
174
     0
 93
       13
 44
0.0
173
     0
291
     0
 45
0.0
1001
ACAD
1000
AcDbSavedByObjectVersion
1070
     0
  0
DICTIONARYVAR
  5
84A3
102
{ACAD_REACTORS
330
849D
102
}
330
849D
100
DictionaryVariables
280
     0
  1
1:1
  0
DICTIONARYVAR
  5
849F
102
{ACAD_REACTORS
330
849D
102
}
330
849D
100
DictionaryVariables
280
     0
  1
STANDARD
  0
DICTIONARYVAR
  5
849E
102
{ACAD_REACTORS
330
849D
102
}
330
849D
100
DictionaryVariables
280
     0
  1
STANDARD
  0
DICTIONARYVAR
  5
84A0
102
{ACAD_REACTORS
330
849D
102
}
330
849D
100
DictionaryVariables
280
     0
  1
Metric50
  0
DICTIONARYVAR
  5
84A1
102
{ACAD_REACTORS
330
849D
102
}
330
849D
100
DictionaryVariables
280
     0
  1
Metric50
  0
DICTIONARYVAR
  5
B55A
102
{ACAD_REACTORS
330
849D
102
}
330
849D
100
DictionaryVariables
280
     0
  1
1
  0
DICTIONARYVAR
  5
B559
102
{ACAD_REACTORS
330
849D
102
}
330
849D
100
DictionaryVariables
280
     0
  1
0
  0
DICTIONARYVAR
  5
84A5
102
{ACAD_REACTORS
330
849D
102
}
330
849D
100
DictionaryVariables
280
     0
  1
1
  0
DICTIONARYVAR
  5
84A6
102
{ACAD_REACTORS
330
849D
102
}
330
849D
100
DictionaryVariables
280
     0
  1
15
  0
DICTIONARYVAR
  5
84A4
102
{ACAD_REACTORS
330
849D
102
}
330
849D
100
DictionaryVariables
280
     0
  1
0
  0
DICTIONARYVAR
  5
84A2
102
{ACAD_REACTORS
330
849D
102
}
330
849D
100
DictionaryVariables
280
     0
  1
0
  0
DICTIONARYVAR
  5
B558
102
{ACAD_REACTORS
330
849D
102
}
330
849D
100
DictionaryVariables
280
     0
  1
127
  0
DICTIONARYVAR
  5
B55B
102
{ACAD_REACTORS
330
849D
102
}
330
849D
100
DictionaryVariables
280
     0
  1
2
  0
DICTIONARY
  5
B567
102
{ACAD_REACTORS
330
B565
102
}
330
B565
100
AcDbDictionary
281
     1
  0
DICTIONARY
  5
B566
102
{ACAD_REACTORS
330
B565
102
}
330
B565
100
AcDbDictionary
281
     1
  3
140686696903808
350
B560
  3
140686696903824
350
B561
  3
140686696903840
350
B562
  3
140686696903856
350
B563
  3
140686696903872
350
B564
  0
DICTIONARY
  5
B303
330
A756
100
AcDbDictionary
280
     1
281
     1
  3
ACAD_XREC_ROUNDTRIP
360
B5A8
  0
DICTIONARY
  5
849A
330
8489
100
AcDbDictionary
280
     1
281
     1
  3
ACAD_XREC_ROUNDTRIP
360
B5A4
  0
DICTIONARY
  5
B568
330
8431
100
AcDbDictionary
280
     1
281
     1
  3
ACAD_XREC_ROUNDTRIP
360
B569
  0
DICTIONARY
  5
B56A
330
8432
100
AcDbDictionary
280
     1
281
     1
  3
ACAD_XREC_ROUNDTRIP
360
B56B
  0
DICTIONARY
  5
8447
330
8446
100
AcDbDictionary
280
     1
281
     1
  3
ACAD_XREC_ROUNDTRIP
360
B56D
  3
BUMPTILE
360
8449
  3
DIFFUSETILE
360
8448
  3
OPACITYTILE
360
844C
  3
REFLECTIONTILE
360
844B
  3
REFRACTIONTILE
360
844D
  3
SPECULARTILE
360
844A
  0
DICTIONARY
  5
843F
330
843E
100
AcDbDictionary
280
     1
281
     1
  3
ACAD_XREC_ROUNDTRIP
360
B56C
  3
BUMPTILE
360
8441
  3
DIFFUSETILE
360
8440
  3
OPACITYTILE
360
8444
  3
REFLECTIONTILE
360
8443
  3
REFRACTIONTILE
360
8445
  3
SPECULARTILE
360
8442
  0
DICTIONARY
  5
844F
330
844E
100
AcDbDictionary
280
     1
281
     1
  3
ACAD_XREC_ROUNDTRIP
360
B56E
  3
BUMPTILE
360
8451
  3
DIFFUSETILE
360
8450
  3
FBXASSET
360
8872
  3
OPACITYTILE
360
8454
  3
REFLECTIONTILE
360
8453
  3
REFRACTIONTILE
360
8455
  3
SPECULARTILE
360
8452
  0
DICTIONARY
  5
B5A1
330
8485
100
AcDbDictionary
280
     1
281
     1
  3
ACAD_XREC_ROUNDTRIP
360
B5A2
  0
DICTIONARY
  5
B301
330
A755
100
AcDbDictionary
280
     1
281
     1
  3
ACAD_XREC_ROUNDTRIP
360
B5A7
  0
DICTIONARY
  5
8498
330
8487
100
AcDbDictionary
280
     1
281
     1
  3
ACAD_XREC_ROUNDTRIP
360
B5A3
  0
DICTIONARY
  5
B55C
330
8471
100
AcDbDictionary
280
     1
281
     1
  3
ACAD_ROUNDTRIP_2008_TABLESTYLE_CELLSTYLEMAP
360
B55D
  3
ACAD_XREC_ROUNDTRIP
360
B59F
  0
DICTIONARY
  5
B579
330
845C
100
AcDbDictionary
280
     1
281
     1
  3
ACAD_XREC_ROUNDTRIP
360
B57A
  0
DICTIONARY
  5
B577
330
845B
100
AcDbDictionary
280
     1
281
     1
  3
ACAD_XREC_ROUNDTRIP
360
B578
  0
DICTIONARY
  5
B585
330
8462
100
AcDbDictionary
280
     1
281
     1
  3
ACAD_XREC_ROUNDTRIP
360
B586
  0
DICTIONARY
  5
B58D
330
8466
100
AcDbDictionary
280
     1
281
     1
  3
ACAD_XREC_ROUNDTRIP
360
B58E
  0
DICTIONARY
  5
B57F
330
845F
100
AcDbDictionary
280
     1
281
     1
  3
ACAD_XREC_ROUNDTRIP
360
B580
  0
DICTIONARY
  5
B583
330
8461
100
AcDbDictionary
280
     1
281
     1
  3
ACAD_XREC_ROUNDTRIP
360
B584
  0
DICTIONARY
  5
B59D
330
846E
100
AcDbDictionary
280
     1
281
     1
  3
ACAD_XREC_ROUNDTRIP
360
B59E
  0
DICTIONARY
  5
B58B
330
8465
100
AcDbDictionary
280
     1
281
     1
  3
ACAD_XREC_ROUNDTRIP
360
B58C
  0
DICTIONARY
  5
B56F
330
8457
100
AcDbDictionary
280
     1
281
     1
  3
ACAD_XREC_ROUNDTRIP
360
B570
  0
DICTIONARY
  5
B571
330
8458
100
AcDbDictionary
280
     1
281
     1
  3
ACAD_XREC_ROUNDTRIP
360
B572
  0
DICTIONARY
  5
B573
330
8459
100
AcDbDictionary
280
     1
281
     1
  3
ACAD_XREC_ROUNDTRIP
360
B574
  0
DICTIONARY
  5
B575
330
845A
100
AcDbDictionary
280
     1
281
     1
  3
ACAD_XREC_ROUNDTRIP
360
B576
  0
DICTIONARY
  5
B57D
330
845E
100
AcDbDictionary
280
     1
281
     1
  3
ACAD_XREC_ROUNDTRIP
360
B57E
  0
DICTIONARY
  5
B599
330
846C
100
AcDbDictionary
280
     1
281
     1
  3
ACAD_XREC_ROUNDTRIP
360
B59A
  0
DICTIONARY
  5
B589
330
8464
100
AcDbDictionary
280
     1
281
     1
  3
ACAD_XREC_ROUNDTRIP
360
B58A
  0
DICTIONARY
  5
B59B
330
846D
100
AcDbDictionary
280
     1
281
     1
  3
ACAD_XREC_ROUNDTRIP
360
B59C
  0
DICTIONARY
  5
B581
330
8460
100
AcDbDictionary
280
     1
281
     1
  3
ACAD_XREC_ROUNDTRIP
360
B582
  0
DICTIONARY
  5
B597
330
846B
100
AcDbDictionary
280
     1
281
     1
  3
ACAD_XREC_ROUNDTRIP
360
B598
  0
DICTIONARY
  5
B595
330
846A
100
AcDbDictionary
280
     1
281
     1
  3
ACAD_XREC_ROUNDTRIP
360
B596
  0
DICTIONARY
  5
B58F
330
8467
100
AcDbDictionary
280
     1
281
     1
  3
ACAD_XREC_ROUNDTRIP
360
B590
  0
DICTIONARY
  5
B591
330
8468
100
AcDbDictionary
280
     1
281
     1
  3
ACAD_XREC_ROUNDTRIP
360
B592
  0
DICTIONARY
  5
B587
330
8463
100
AcDbDictionary
280
     1
281
     1
  3
ACAD_XREC_ROUNDTRIP
360
B588
  0
DICTIONARY
  5
B57B
330
845D
100
AcDbDictionary
280
     1
281
     1
  3
ACAD_XREC_ROUNDTRIP
360
B57C
  0
DICTIONARY
  5
B593
330
8469
100
AcDbDictionary
280
     1
281
     1
  3
ACAD_XREC_ROUNDTRIP
360
B594
  0
XRECORD
  5
B560
102
{ACAD_REACTORS
330
B566
102
}
330
B566
100
AcDbXrecord
280
     1
  1
AcDb_Thumbnail_Schema
102
{ATTRRECORD
341
B561
  2
AcDbDs::TreatedAsObjectData
280
     1
291
     1
102
ATTRRECORD}
102
{ATTRRECORD
341
B562
  2
AcDbDs::Legacy
280
     1
291
     1
102
ATTRRECORD}
  2
AcDbDs::ID
280
    10
 91
        8
102
{ATTRRECORD
341
B563
  2
AcDs:Indexable
280
     1
291
     1
102
ATTRRECORD}
102
{ATTRRECORD
341
B564
  2
AcDbDs::HandleAttribute
280
     7
282
     1
102
ATTRRECORD}
  2
Thumbnail_Data
280
    15
 91
        0
  0
XRECORD
  5
B561
102
{ACAD_REACTORS
330
B566
102
}
330
B566
100
AcDbXrecord
280
     1
  1
AcDbDs::TreatedAsObjectDataSchema
  2
AcDbDs::TreatedAsObjectData
280
     1
 91
        0
  0
XRECORD
  5
B562
102
{ACAD_REACTORS
330
B566
102
}
330
B566
100
AcDbXrecord
280
     1
  1
AcDbDs::LegacySchema
  2
AcDbDs::Legacy
280
     1
 91
        0
  0
XRECORD
  5
B563
102
{ACAD_REACTORS
330
B566
102
}
330
B566
100
AcDbXrecord
280
     1
  1
AcDbDs::IndexedPropertySchema
  2
AcDs:Indexable
280
     1
 91
        0
  0
XRECORD
  5
B564
102
{ACAD_REACTORS
330
B566
102
}
330
B566
100
AcDbXrecord
280
     1
  1
AcDbDs::HandleAttributeSchema
  2
AcDbDs::HandleAttribute
280
     7
 91
        1
284
     1
  0
XRECORD
  5
B5A8
102
{ACAD_REACTORS
330
B303
102
}
330
B303
100
AcDbXrecord
280
     1
102
DISPLAYNAME
  1
Imperial24
102
FLAGS
 90
        0
  0
XRECORD
  5
B5A4
102
{ACAD_REACTORS
330
849A
102
}
330
849A
100
AcDbXrecord
280
     1
102
DISPLAYNAME
  1
Metric50
102
FLAGS
 90
        0
  0
XRECORD
  5
B569
102
{ACAD_REACTORS
330
B568
102
}
330
B568
100
AcDbXrecord
280
     1
102
SHADEPLOT
 70
     0
102
SHADEPLOTRESLEVEL
 70
     2
102
SHADEPLOTCUSTOMDPI
 70
   300
  0
XRECORD
  5
B56B
102
{ACAD_REACTORS
330
B56A
102
}
330
B56A
100
AcDbXrecord
280
     1
102
SHADEPLOT
 70
     0
102
SHADEPLOTRESLEVEL
 70
     2
102
SHADEPLOTCUSTOMDPI
 70
   300
  0
XRECORD
  5
B56D
102
{ACAD_REACTORS
330
8447
102
}
330
8447
100
AcDbXrecord
280
     1
102
MATERIAL
148
0.0
149
0.0
149
0.0
 93
        0
 94
      127
282
     0
 72
     0
 77
     0
171
     0
175
     0
179
     0
273
     0
  0
XRECORD
  5
8449
102
{ACAD_REACTORS
330
8447
102
}
330
8447
100
AcDbXrecord
280
     1
270
     1
271
     1
  0
XRECORD
  5
8448
102
{ACAD_REACTORS
330
8447
102
}
330
8447
100
AcDbXrecord
280
     1
270
     1
271
     1
  0
XRECORD
  5
844C
102
{ACAD_REACTORS
330
8447
102
}
330
8447
100
AcDbXrecord
280
     1
270
     1
271
     1
  0
XRECORD
  5
844B
102
{ACAD_REACTORS
330
8447
102
}
330
8447
100
AcDbXrecord
280
     1
270
     1
271
     1
  0
XRECORD
  5
844D
102
{ACAD_REACTORS
330
8447
102
}
330
8447
100
AcDbXrecord
280
     1
270
     1
271
     1
  0
XRECORD
  5
844A
102
{ACAD_REACTORS
330
8447
102
}
330
8447
100
AcDbXrecord
280
     1
270
     1
271
     1
  0
XRECORD
  5
B56C
102
{ACAD_REACTORS
330
843F
102
}
330
843F
100
AcDbXrecord
280
     1
102
MATERIAL
148
0.0
149
0.0
149
0.0
 93
        0
 94
      127
282
     0
 72
     0
 77
     0
171
     0
175
     0
179
     0
273
     0
  0
XRECORD
  5
8441
102
{ACAD_REACTORS
330
843F
102
}
330
843F
100
AcDbXrecord
280
     1
270
     1
271
     1
  0
XRECORD
  5
8440
102
{ACAD_REACTORS
330
843F
102
}
330
843F
100
AcDbXrecord
280
     1
270
     1
271
     1
  0
XRECORD
  5
8444
102
{ACAD_REACTORS
330
843F
102
}
330
843F
100
AcDbXrecord
280
     1
270
     1
271
     1
  0
XRECORD
  5
8443
102
{ACAD_REACTORS
330
843F
102
}
330
843F
100
AcDbXrecord
280
     1
270
     1
271
     1
  0
XRECORD
  5
8445
102
{ACAD_REACTORS
330
843F
102
}
330
843F
100
AcDbXrecord
280
     1
270
     1
271
     1
  0
XRECORD
  5
8442
102
{ACAD_REACTORS
330
843F
102
}
330
843F
100
AcDbXrecord
280
     1
270
     1
271
     1
  0
XRECORD
  5
B56E
102
{ACAD_REACTORS
330
844F
102
}
330
844F
100
AcDbXrecord
280
     1
102
MATERIAL
148
0.0
149
0.0
149
0.0
 93
        0
 94
      127
282
     0
 72
     0
 77
     0
171
     0
175
     0
179
     0
273
     0
  0
XRECORD
  5
8451
102
{ACAD_REACTORS
330
844F
102
}
330
844F
100
AcDbXrecord
280
     1
270
     1
271
     1
  0
XRECORD
  5
8450
102
{ACAD_REACTORS
330
844F
102
}
330
844F
100
AcDbXrecord
280
     1
270
     1
271
     1
  0
XRECORD
  5
8872
102
{ACAD_REACTORS
330
844F
102
}
330
844F
100
AcDbXrecord
280
     1
 70
     1
 90
1959938040
 71
     1
  1
9D52B7FC-C945-4090-93E0-7111907926B5
311
504B0304140006080800BA59F84A1A32A63DDB000000200100004F00000041333537344635422D374643442D344236322D413142452D3638454634434337374334342F4173736574446174612F446566696E6974696F6E4974657261746F7250726F706572746965732E62696E454E4D4F023110AD1E301E3CF80F08F7D28F
311
65D9650318C4EA492F72F2424A19964DBA5DD276138F1EFDD73A8D182679F3E6F3CD7C13427ECE8621B9427CA1BF437E0107BE31EFE608AD268354B1DD4EDB9B4BEF1AC3943EC141F736A6ADD72618B0563BE8FA707F191DB63AA29CB6E3B4748BF82F84A450FF1D4BF7DF10E9A5C47A7FAA1E74081017ECB0FB648A3F66AB
311
A99851552841277999D3526453BA2E945C3FAB992AF98A79085DEF0D042619DF9E95B72757C362643CE01FFBD1527251505E5039D9085189ACCAE5C79CC5A685E53C44DFB87AE874FB0B504B0304140006080800BA59F84A9F885CFE08010000300200004500000041333537344635422D374643442D344236322D41314245
311
2D3638454634434337374334342F4173736574446174612F496E7374616E636550726F706572746965732E62696EEB606060F80F0540260323103700495E20ED9E9A975A94991C9C9C919A9BA80214B074313572327773D675B63431D53531B034D0B5347635D035373434B43430B734327332654768046931363471713532
311
B5D435353131D635313332D475727372D13534373670367376B67474B5042A03DBCBA019D37FE8ABC6157B20CD04146B0062181F4C03F940F0C11EA29A8141C08141002C0426541C106CAC2CA046088033B02A030AC2157C6006F21A8018AAF50194E6010A610250382264E08660284CD9E98021862280A91564B406929A0F
311
F62C401E28B6F88038B83CB1243943D7A928312F2535052403033A4086231047B1AB3164B0CF8509A3D020B36102C8EA9FB1BAC284E13400504B0304140006080800BA59F84A28BB58AF800100009E0500003D00000041333537344635422D374643442D344236322D413142452D3638454634434337374334342F53636865
311
6D61732F436F6D6D6F6E536368656D612E786D6CBD544D4FC23018BEFB2B96DE15493C78601010A34B880709DEDFB52FD0D8B54BD70DF6EFED3AC0B12E6442E2716BFB3CEFF3D18E26FB440405EA8C2B1992E1C323095052C5B8DC842437EBFB673219DF8DA659866649B798C078B48AE6410122242F2A4994AC7F93815DF8
311
5C049C8564CA0A901499DD886B2EB9B1E02448F358701A9235880C49A0119892A20C89D1B9FD768815CAD268CB5E0355B40B1E47F3E37A2020464BED06AA57CE8FCC20C3C3446D46761A2632A8C1283D07031EFF2AE7CCB1BFEEE916E406DFAC8E36FFD99A9D60A6944090EEDC3B670C7DC13DE86B6B2C5C240D6E503BB85A
311
CD579D513F1B9F9A69DC9CC22AFA80C426D40AF0B21EA168559156B6276F0F726A6BFF04DCD513A87A62CAD41FB24FCB2858B3952E3D852084DA25B9303C15687973CC8E8AAE11DF2836C38C6A9E765E8C1BA1BFB1DC29CDFE518C8B5A7655A4ED7E77291ABEB80DBD82EC866ADE1B8D05AF9E35CF09D7A061F38A986D9EC4
311
12B8F0F65E5D81534D9B231D1E5A8FE577A241F3A5FD01504B0304140006080800BA59F84A2CCEBD668A040000E01200003E00000041333537344635422D374643442D344236322D413142452D3638454634434337374334342F536368656D61732F47656E65726963536368656D612E786D6CD5586D6FDB380CFE7EBF42F0
311
F7A649B70E1B90744856B4970F450FCD7A5F05459613EDE4174872DADCAF3F522F8ED3B88D2F1D06AC4050DBA2493EE4438AF2F8EB73AEC8466823CB62928C06C384888297A92C5693A4B6D9D9E7E4EBD51FE3A931C22EF85AE4EC6AFC38BF261BA626C9AD288496DC3F4FCEAFC63366845F7A10452AF41DB320C0D44EC26E
311
AB20918735565582695670811A6A49643A49A6E9069FA4604A64B29016DC4B48552F95E4932463CA888468C1D2B250DB4962750DF7CE273069CE8363F1FF4EDB00E0A21999574AE4A2B00C353B93F3BD4777B8A61ED8F604ABFEDD79CE56A2B7BDFBDBC50996E0ADDE16FED26223C5D30956C29BDF4A55EA686E5E58B112DA
311
45CE67F76F4FA27EFA3FB672FD7372FC388FAECDCA5209E693CAD167BADCD272F943701B3812F8A3D852008B1D2E32DB927B2F833C6EA95879925356D254582695095A3CE982924720BE5774A3CB9CDCDB350427D2DF20DA1B5532EBE2D5D6288D75D4F7E4FD9890A0EF8E3D93EBB8F8BA4758158EF6FB90A6F9520281C93D
311
E7AAC6D24607DA296BB96018123F821A7D6A5C5884050C475DA4865442732C8B95684A50165CBB3A32F25F783A4A480ED59AD7F924B968AEA50131F46303223E6A397B0E52976030DC1DCA81D7E7C1EDEEA42C19FF27635C505E2BD5198A599020DF50A2330FCB3AAF28CB0124108429553EF1B228802E2265D8F7CC240104
311
2B155BCC7070F1E5C55F13B4A9577362CCCE46C32174E010C3C378C44841A4BDA00FE3A12006CE11EE6AEC59894D3526DDE1CD59D503ECC324017F8061B7F162162FA62EDD81AE3308617770796DCBDAD2B2625C5AE8A63DE20B2C8AA5E95E76E5730823955956E33E705425A2187C185D36489A1B44D3DCEC2172F6BA2105
311
C3546287A7194B2331768EBBE64F6E70A9930ABE0ADEA89E9E2C38523B810287AD67A54A039C1606EAFE68F8304610BB9093DBDDABC0B2AE4E290DCDA15376D7E39F72B556F0B32EAB5D3D498B4C41ABADEC3A1434C422D87E8025A84BDCB2B1417ED750FAE4DA8976863974C577C7F902D3F156AD354DEA3540DE6BEAE2BE
311
A52F7A2EB4CA43802ECE5BF2CE2EDC9347179FFB023CE412E60BE16DA0BE29B374988A553F561DC04615DD35F7D2C8979F60E5955CE93DF29DED8AFA1EE6642D53418086C03C47C377910F75F7E8F5EF665F70B60FFB22AEDF897D119E8423C773E819A3C1E55E550599EE6EDCA34D0C86FD72057DF2CD46F16A470682471C
311
164E4346D5306BF12D7D12D82CFF673D41636C347443FEB51B50D72EA171A8E4A58623A4A16E0FA2B8B10A0D23268D87C33896EE8FB73305A74BF224EDBADFA0BD674AB354D63DB7BD5D83426761C077DE767728235446A552754EB93B755891C3C4CC6CADE37CF0E912A7BB38DBA010F9DE1282EDF470CA69A9CDA482E334
311
C4A6EA4107987980B17E72F31730EBF88BBD39E7C629F56797A3C0009C2C5AE7951D9A05A02773440F02EEB4DE396A3B6A570C72CCFBCD823B0B8ED3F1D5CEDDFED772FA70236C83FB7D86C385D570B87107535572A60A96035F8F7C6A7192F13007246BBE0521855E6AC46F3E27689CEE7D186A6FD679D98CDCAD13333E04
311
EBE7ED6F55FF01504B0304140006080800BA59F84A6180134D5F0100006B0300004500000041333537344635422D374643442D344236322D413142452D3638454634434337374334342F536368656D61732F52656E6465724D6174657269616C536368656D612E786D6CA5934D6FC2300C86EFFB1551EEE343DBA41D1A1030
311
09551ADAD40EAE28A4A68D9426284961FCFBE5A340113B2071746D3F765EBF4DC6BFB5407BD0862B49F0B037C0082453059725C18DDD3EBFE3F1E829991803366715D474942CD30FB4A782E00C64017A412D684E454CE3FE28995203B162A6EA5AC94B66997D225E109CD63B0135484BAD1B3C07E9080CA35DB3119C11BCA5
311
C200461A68A1A438126C75E3E230D40FF81FB3F03C91D1E3A3A0AF79FE28E25BC39EC3E17E4C2A2D94A0833A51AF55BCCA7D88572FCBAC529C4140B020FC3AAFA886621DCED7EAD7664CC86024E806DC297DA1BB393E4156543457A4537DB8817349A70F8ACBF09B3EEE2CB2F33E91B65D60786E4E3B39B77E3FEEEF565042
311
4525DA657FB8B46BE6BF064646F0A0F7327C0BC1BC1B4CBBC1C419FA3CCB23500007872A2580CAAE5461865565294E4EDB4617B62FF579DF9A5B2F54E834076A597573A020912FED777F9B3F504B0304140006080800BA59F84AC879D29351000000570000004700000041333537344635422D374643442D344236322D4131
311
42452D3638454634434337374334342F4173736574446174612F41737365745461626C654F66436F6E74656E74732E62696E53616060B074313572327773D675B63431D53531B034D0B5347635D035373434B43430B7343273321502AACB4D2C492DCA4CCC492C28484D2C4ACC4B4E050A82012F90744FCD03CA26072767A4
311
E6260200504B0304140006080800BA59F84AF865834058000000680000004500000041333537344635422D374643442D344236322D413142452D3638454634434337374334342F4173736574446174612F53747265616D56657273696F6E5461626C652E696E66558CBD0A80300C06F73E4B117FB66E451741D041DC5BF984
311
80A492E4FDD18EAEC7DD4555D89EF28DF51A0B1BD8340C4DE7DD848B988C0ACF0649566493F2408C508DDEBB99D5129FF8F1AF8CF5B9503E20FAE5A16B5AF702504B0304140006080800BA59F84AC73AE0F2350100009A0400003600000041333537344635422D374643442D344236322D413142452D363845463443433737
311
4334342F4173736574446174612F636E782E786D6CCD94314FC3301085FF4AE43D7612404595E30AC1D209242A06B6AB7369AD3A76645F10FC7BEC3603A888A943D7F3BBF3F327BF93ABCFC1161F18A2F1AE6535AF58814EFBCEB85DCB26EACB7B56AC940CDED30F192B1C0CD8B25C664AEE829FC6B9D4610F93CD556BDC61
311
2E3EC488B481ADC5E7FED13B42479115DA428C2D8B7A8F037098C877180FBC03025EF380D14F41639A4466C079920E08841D534D552FCA6A5136B79BBA5ED637CBBBE65D8AAC5472EBBD9DF5265D16FC58E8D3AD4C5552E46325A760664D7E0B537F79E45BE3A4484A252385C464EEA0AF3175C0385AA381123AE135219549
311
84304871122B2932835F249EB037CEE496753206E4C34BB287810C5E1D91FFBC5E9ECCDA4502A7F17A799C3BBC3C85D7E30F7A3B05F298986BCBC9B9436E5C7F819488E31A49A1C95B457D03504B0304140006080800BA59F84A03AC0D2D090100004F0300003400000041333537344635422D374643442D344236322D4131
311
42452D3638454634434337374334342F536368656D61732F636E782E786D6CCD93BD4E042114855F65423FCC306AD66C18B6B0B0B2512B3B84BBBB64813BE1C7E8DB0B23C56E62A7C57670F842CE395CF8EED3D9EE034234E867C2E8483AF00AB5F18799E4B4EFEF49B7133C20A6338C745E3A98499589E0878079699286BD
311
CCB6AAD6F853131FD039F42FEA084E924E5919E34CE2BAA53227D4104F54CB2429A30122E6A0A0DC908C8376830A20136822A6916DFA71D34FB7AF8C6DD9CDF66E7AE34325057F47B48D373E41C0A5535816BED819F9508F05CFC134A66620E2DC1B2D6DF0A11082C7144A078D4C5F4B21E5B258A3642A550D2BF8C3083ED4
311
A817811FC14330EA3A135F98FBB7C8CFE03584A7F24AC1487B9DC97FF3F8B7028675F6CB08D4AF20BE01504B0304140006080800BA59F84A410A3D5871000000A40000002C00000041333537344635422D374643442D344236322D413142452D3638454634434337374334342F636E782E786D6C55CC4D0E82301086E1AB34
311
B31774E7A22D31F1069E60020334B633A63FC6E34B0909B07DDE2F9FEE7EC1AB2FC5E4840DDC9A2B28E25E06C7938192C7CB1D54677514C9871928C640062A83D55394F2D968A0118BAFEA1DBF377CA444F98919176EAB9FEAAB9F2960DA5BBB1E2ED3FA6FFF504B0304140006080800BA59F84A110D1C8B7E000000A30000
311
0007000000636E782E786D6C4D8CD10E822018465F85FDF754168A17801392F770898E89D0485A8F1F342FBAFAB6B3EF1CD67D3687DE26BE6CF01CAAD30590F18F3059BF7048FB8C5B409D603184FDEF06C88F9BE1503008B6C4909E079ACC3C2657A8B37E3D607FAB29D1B5C454AB3B26B2B9E2BE92036EDA4113A5285584
311
64E35C943CBF5EDE92175F504B0304140006080800BA59F84A16E99B5DA600000035010000130000005B436F6E74656E745F54797065735D2E786D6C9590410E82301045AFD2740F4517C6180A0BF5065E60AC53688469D30E066F6F91AD9AB89CF9FFFD3F99BA9DC7413C3026E749CB4D59498164FCCD51A7E5C4B6D84BD1
311
36F5E5193089ECA5A465CF1C0E4A25D3E308A9F401292BD6C711388FB15301CC1D3A54DBAADA29E38991B8E0254336F5092D4C038BF39CD76B6FC6A538AEBEA54A4B08617006389FA516557DE4AE8E7E70DE30729138228C5F021CD93F02D4FB0DCD0B504B0304140006080800BA59F84A3DEE336E64000000790000001B00
311
00006175746F6465736B2D64657369676E2D7061636B6167652E786D6C35CBC10E83200C00D05F21DCA56CA76D41FC96062B120735B69A7DBE268BB7777961F8D5AF396893C2ADB70FE7ADA196782C2DF776D7A97B5933C430F15651E5469C55D70F80A4992A3ADC954792C525AE70A1E4D6AD9816CC044FEFDF01FE3FDE90
311
7802504B0304140006080800BA59F84ACA44E8A0F9000000960100003700000041333537344635422D374643442D344236322D413142452D3638454634434337374334342F4173736574446174612F636F72652E786D6C8550CB6E833010FC15B47703269090C8384250BEA0A7DE2CDB2156828DFCA8FAF9B50395DA534FBB
311
9A9D99DD1D72FD5A9ED9A7B44E19DD01CE4BC8A4E646283D7710FC0DB5905D29B1C6F85F34C8345B640709064A666BC2BA43DC682F7542B51172079973D243C69FB1E9C0F1BB5C58CE828F0CF7C857C61F6C9639CE371E252128B14B95886EEAA6A4053A8CC76168FB1A9D8F4D8BEA11F7A8C54D839A1A9FA77A9ADEA66A22
311
451253E2D5F2B39D5BC9BC1440AB129F50794255FD8EF1051F2E4DF5418AC4A4C4791B7FDE97A6EF80F6E9EA9179468A6DFAC735ACE27FD7A0B43F54BBEBA67040713CF235A0A44829C5F28A30D69428FD06504B0304140006080800BA59F84A507016AFF8000000940100003500000041333537344635422D374643442D34
311
4236322D413142452D3638454634434337374334342F536368656D61732F636F72652E786D6C8550CB6E833010FC15B47703269090C8388A48F981F6D49B653BD44AB0911F553E3F3650A93DF5B4ABD999D9DD21E7E7F4C8BEA575CAE80E705E4226353742E9B183E06FA885EC4C8935C6FFA241A6D9243B483050325A13E6
311
0DE2467BA913AA8D901BC89C931E32FE884D078E7FC989E52CF8C870F77C66FCCE4699E37CE5511282129B5489E8A66E4A5AA0FD75DFF7EDA546C77DD3A2FA8A2FA8C54D839A1A1F877A18DE866A20451253E2D5F4B39D5BC9BC1440AB121F50794055FD81F109EF4E4DF5498AC4A4C4791B7FDE96A6EF80BE2F773A52ACB3
311
3F9E6116FF7B06A5FDAEDA3C5785038AE389CB8092226514CB1260AC294FFA02504B0304140006080800BA59F84A4D333D8502010000D70100002D00000041333537344635422D374643442D344236322D413142452D3638454634434337374334342F636F72652E786D6C9591C172832010865FC5D93B1A1463268364A28D
311
4FD0536F543686490447B0D3C72F543B6D6FED09E6E7FB77F977F9E97D7C246F383B6D4D0D34DD4182A6B74A9BA186C55FC9019293E0B3B5FE0706899123D61065107C98ED326D526F8D47135563156EA2740E3D24FD235C6A70FD0D4799CAC507C2DDD349F67739604AD39513DCEBF1CBDACF283D2A10F98E566457919C3D
311
537AA4C5B1CC5F781649C1176D7C916FCD707C4595D8C98748204A9EADAF815AB4DA18ADC21FF555E30CE25C9415EBCA86545DFB4458B3CFC9993617B23F5C3AD6B655D532168A04B3E0CECF61325B913883BFDA57E3AF64CBA4FE996C753810F43B5416C72C78F6B98370C695880F504B0304140006080800BA59F84A3F67
311
94F608010000B201000008000000636F72652E786D6C8D50416EC32010FC0ADA3BB671ECC4893051E4D42FE8A9370AC445B1C13210B5BF2FC4AED4DE7A5A3433BB330C3D7F4E237AA8C5696B5A205901481961A536430BC1DF7003E8CCE862ADFF250364F8A45A4830303A2C36CC1B24ACF1CA24D458A936903BA73C2031C6
311
470B4E7CA889673CF8A870F76CE6E2CE0795916CD531EAF5F4B32A16C5BD92C0CA821C7071C065F54AC889EC4E75F946F3A46434042D372B2DA3BBBE69B500EBAEFBAE6B2E153EEEEB06575772C10DA96B5C57E4D8577DFFD2973DCDD332A3CE2FF1CFDB9198D323C71FC997E62BC5E8BBB5E32688A124B266FC0256D03C11
311
7F428759FE23B4367E576E07D70D078CC4404F221AA706E378D61B676A9B7D03504B01021400140006080800BA59F84A1A32A63DDB000000200100004F000000000000000000000000000000000041333537344635422D374643442D344236322D413142452D3638454634434337374334342F4173736574446174612F4465
311
66696E6974696F6E4974657261746F7250726F706572746965732E62696E504B01021400140006080800BA59F84A9F885CFE080100003002000045000000000000000000000000004801000041333537344635422D374643442D344236322D413142452D3638454634434337374334342F4173736574446174612F496E7374
311
616E636550726F706572746965732E62696E504B01021400140006080800BA59F84A28BB58AF800100009E0500003D00000000000000000000000000B302000041333537344635422D374643442D344236322D413142452D3638454634434337374334342F536368656D61732F436F6D6D6F6E536368656D612E786D6C504B
311
01021400140006080800BA59F84A2CCEBD668A040000E01200003E000000000000000000000000008E04000041333537344635422D374643442D344236322D413142452D3638454634434337374334342F536368656D61732F47656E65726963536368656D612E786D6C504B01021400140006080800BA59F84A6180134D5F
311
0100006B03000045000000000000000000000000007409000041333537344635422D374643442D344236322D413142452D3638454634434337374334342F536368656D61732F52656E6465724D6174657269616C536368656D612E786D6C504B01021400140006080800BA59F84AC879D29351000000570000004700000000
311
000000000000000000360B000041333537344635422D374643442D344236322D413142452D3638454634434337374334342F4173736574446174612F41737365745461626C654F66436F6E74656E74732E62696E504B01021400140006080800BA59F84AF865834058000000680000004500000000000000000000000000EC
311
0B000041333537344635422D374643442D344236322D413142452D3638454634434337374334342F4173736574446174612F53747265616D56657273696F6E5461626C652E696E66504B01021400140006080800BA59F84AC73AE0F2350100009A0400003600000000000000000000000000A70C000041333537344635422D
311
374643442D344236322D413142452D3638454634434337374334342F4173736574446174612F636E782E786D6C504B01021400140006080800BA59F84A03AC0D2D090100004F0300003400000000000000000000000000300E000041333537344635422D374643442D344236322D413142452D363845463443433737433434
311
2F536368656D61732F636E782E786D6C504B01021400140006080800BA59F84A410A3D5871000000A40000002C000000000000000000000000008B0F000041333537344635422D374643442D344236322D413142452D3638454634434337374334342F636E782E786D6C504B01021400140006080800BA59F84A110D1C8B7E
311
000000A3000000070000000000000000000000000046100000636E782E786D6C504B01021400140006080800BA59F84A16E99B5DA6000000350100001300000000000000000000000000E91000005B436F6E74656E745F54797065735D2E786D6C504B01021400140006080800BA59F84A3DEE336E64000000790000001B00
311
000000000000000000000000C01100006175746F6465736B2D64657369676E2D7061636B6167652E786D6C504B01021400140006080800BA59F84ACA44E8A0F90000009601000037000000000000000000000000005D12000041333537344635422D374643442D344236322D413142452D3638454634434337374334342F41
311
73736574446174612F636F72652E786D6C504B01021400140006080800BA59F84A507016AFF8000000940100003500000000000000000000000000AB13000041333537344635422D374643442D344236322D413142452D3638454634434337374334342F536368656D61732F636F72652E786D6C504B010214001400060808
311
00BA59F84A4D333D8502010000D70100002D00000000000000000000000000F614000041333537344635422D374643442D344236322D413142452D3638454634434337374334342F636F72652E786D6C504B01021400140006080800BA59F84A3F6794F608010000B201000008000000000000000000000000004316000063
311
6F72652E786D6C504B050600000000110011005A060000711700000000
310
504B0304140006080800BA59F84A000000000000000000000000370000006662782F46334535393039452D383933312D343442462D393638382D3536444438334146464639442F617474726962757465732E62696E504B0304140006080800BA59F84A000000000000000000000000350000006662782F4633453539303945
310
2D383933312D343442462D393638382D3536444438334146464639442F76657274696365732E62696E504B0304140006080800BA59F84AF270F1330600000004000000360000006662782F46334535393039452D383933312D343442462D393638382D3536444438334146464639442F747269616E676C65732E62696E6366
310
60600000504B0304140006080800BA59F84A51464CB48900000043010000360000006662782F46334535393039452D383933312D343442462D393638382D3536444438334146464639442F6469726563746F72792E786D6C9D8F310EC2300C45AF127987122606C71DD918B841D4B851A43646695A717C52A85029031293A5
310
A76FBF6FACEF7DA7264E43906840EF0FA03836E242F406C6DCEE4EA06AC22492573150D1F66C60C640E8938CB705396EEDD86DE9B5042FE27813D640EA63BB001C722AF6E55CB61E4863F58284D5D3F53DD715CE1C3985E63FD7F1B7EBDD617E9F1E504B0304140006080800BA59F84A47EF4960380700001A1C0000340000
310
006662782F46334535393039452D383933312D343442462D393638382D3536444438334146464639442F6F626A656374732E786D6CDD59596FDB3810FE2B84F65997AF4485E322B19DC058A42D6A74B16F022DD30E37D4014ACAB1BF7E8714298B8A6C2B3D806213C096296A38F3CD3D9A7E7C89197A223CA7697265F98E67
310
219244E99626FB2BAB2C76F6A5853ECED094A769D1D867A104C7E4CA12CBD66CBAE76999A9A52DD9E192B5576F6FFE4679441262A188E13CBFB2F2E881C4D8C165916E49FEE86C71819DFDEEC5F19D6AA34976CF71F6D03A2AC39C2405B00AEB0950511CF8E64F10C99D4D5DB1C1D836ECB76D70629B2B053719A5495EE024
310
7AC355EBB8C111AE5AC70DFDD162391807F678341ADAA3C9C0B76F6E6F16B67F31F4E693F93CB85E06169A4D3769CA6A056424D982165FAD993F75C59D5A7C854217DF519A24245268766DD812459792BC8D8901AC2F456B28A492B5B130EC29FC916DBD40315832D0D6C2E9EFA6F5A69B7F0084BC8F95F29C082BCF0B0EBA
310
56D857FEE04DDD6AD5D00BCD518C0BC2296688D10DC71C14045B2B05196484B70852486026B5A8E9357905C33EEF4B5D5CEE4AC684FF5A33E96921F8232972C919FD97F003F7CDD3802790B6A44971A9842D5E3320114C5DB958DD1B0ED4CD0A48B463780FD602628A4DC3410BAFB98805AB8535FBF376F3B216F1A1FBF08C
310
A719E185B03CE9CCCAEFB4061BA605C6D703940A5753770754BE02F49F00F99A173405CD71FA327A1969D9394EF25DCA63D00EF290EDC18787C4E59BABA95B3F3C43C88895C73005B7FD49981A62186737209D4D9FC0E8533E54C2AD23CCC0A6EF6922FC1C0C05B1149620DEEF362FD66C05C11416E129CC407AF89FBAE212
310
C1574507E24D4B435DE1B787A2B4C3B4FDECA0AB3BB0194EA35A55868CC7F01DFF147CAF17EB3FD725DFE188DC2BC75E901D4D6801C9B49B210374C3E5BFAD3E498FBC63E906B3C3D3C6A6088ED9A7226E74A865ADD482A45E801391862BCDC8957B0ADECE184E485AE66ABD2B4E45294B79B8790D2B17EE3CEB2F6D03D561
310
CA003A631924F788D34C6062CD94B6EA40E83404050BC35C59E0BED26AB829E32CC4715A2622D4BE35C5361F106784250255494D1BB6F65A4D764B77BB3287E0D549726E00A9FC5913AE2C7C0471AC8B5F4E761C43124D9390420E0667E93CC138A006EF34CF3961BB903256C6E18E32C823618CB323F47B4AD0CC5C8FE4F5
310
39E5DB4E82A665699FD436240057C06A9074B6AA62BED229274F549499329FE96C60EC5075A8351B1D491722537400AA8D519A79B0180F6E2E6EE7F63C188DED91177876305C7AF685EFFB8177110C2637E0FECA4A24028768D5CC77A04A51E618FE573C94F126C194C10D41016FB30F1F65F6BC722134BA4BEF66783DF103
310
7B79B1F4EDD1F8726C5FFAC3893DBF580EE6B7CB6079E95DBB9CE469C92392BB03D70BB54966C9FE1857752C15590BE4874F05299435E7939DD6575B98FF710C6DE7044389BF6B10AD63574741D837888A47DB2114478F22458511547D9DEED30AA26D3EBAE2DC3BE3B2E70C3DF9072E38F082C16530A98DFD64A096E7FC70
310
9CEB922082BEB32CC234C3112DBA136A0B979E71FA5DB9C519FA6304E8D49FF521A7F38C3A24A431DE9370874597D01118CF49D099C3F62CCD739A905C76796FAABF164DCF394453A5CA0E23A4791893027F8FFDC9B6A165D3109B5908FD6821260267AB82DAA05507728CA2E87E21714BF95FC31CC719AB3ADD7318F8036D
310
CDBAC7E9B238C1B438E209EC2DC445E86D891C5C9CA35EB3AFEB834EADB5A907DF4DFE083CBAAEF985F0E823FA974ECED80FC4DF250495C9D81F5E68459CC34A1F55883E8E95D07946AFE133A1FB875E85663F9D344AB6AAA82E480C6D2C2E4ADECB5F2763EFCD412A2EB41CA271D23B8B43D9BFE90E0ED0930DDCB1F2B671
310
0CD4A1348139572F41DE48D169C2521772A6274657EFF0EB93CA6E52FDE178F9CB2BE6A6F3C550E8F5C101AAE5AA9C55D1C7A8A93BAB6EA31ECA9F711141205DCB6FFB063C624BB687C6CC20D755A2EBFAF45CF5BC12013586892D1671F65E5CB0AF18540DDD73EEDE55459B5BADAF44627360387DE0C360DAA4F5F96EDDA2
310
022BBD9FFE223022CF2D0A6A752EBAE113A4BEAD0E3D7F8B8292E8DBEAC4E3BF4547A115D8E82C601A9CA78CC2509E6CD19EA490BD61ECD0A3DBE031C965563E7429FA8D408FA79FAA996A81374CF738D10386C13453BD5819C1501432E695A5D6D11F3006159348399C721EA10D5331CC4225A75716586C41A1DB723630CE
310
92C34349BD35AE04C7C6C95EE4FBEAA9FAF7E1B137DD57BDA70F2E4A32C399A0B0CDE47B02A8FAAA1BB3E9F78BAED941B880CB4D59D4C21C160ED22810F40B814A3898FA3D2A785FA0A0382D97EFC83D4643DA6B327FD20E2AAA7681F95E8ED71B3679BDF8E28AC9F8EA33CA58B917EA3CD5FD1A946CD175B3B29A424DC130
310
9498191635E4FC83FB85A7F08A2946B7148CC09DA7719C26EAC7B57A4585D60FF0C269EBEA611F34F09E3F7665FFAF06FAE106E7C4C1DBFC111640A99C8AA96805AEA1FA3A8E3654AF7521B4008F19FB570BA4AAA2C66CA419700530729A8FC085C45B1CE130CD0D8DD123780170256F1E2EF4C2D4E530FE9EFD07504B0304
310
140006080800BA59F84A385739413E01000046050000300000006662782F46334535393039452D383933312D343442462D393638382D3536444438334146464639442F636E782E786D6CCD94C14E032110865F65C37D61A99A9A86A589079FC083F1C6B2D315CBC2060663DF5EA8DBAA31351E9AD81B19FE49FE6FE6CF88F5
310
DB68AB5708D178D7124E1B5281D3BE376E6849C24D7D4BAAB514C17BFC2223955323B4A494891443F0699A4B3D6C54B2A56A8DDBCE4585184C971022A9B45531B624EA67181555097D0F714B7B858A721A20FA1434E47E3423CCFD3A8042E8895C347C5937CB7A71FDC0F98A5FAD6E164F8215A5149DF776D61B8710FC5469
310
9F1F2E9B69042BDF52A460664D2120F2D319ED8C132CFF4B11B35B37CC3ADC4D45374DD66885794CCC6B04ACB308D428D887580A5678BF51DFDF3D1E1C54BD09A0D187DD3F0D809F1AC0D118CD49F81BFF5EF83BB6EF5E32EE7F6DFB24EC6CEB6CA887B4C61CD79FFBCF29526EB09717FAA3B1F3673E9F1234FAF2900FBECE
310
44CCF6272F2FBD5C40F90E504B0304140006080800BA59F84ACB56229D7D000000A30000000B0000006662782F636E782E786D6C4D8CD10A832018465F45FE7B5B6185821A0BF33D6259C84CC3E5D8E34F4717BBFAE0F09DC387CFEED0DBC4970D5E4053D5808C7F84C5FA4D403A574C010D92C710CEBF1B203FEF4640C120
310
F916433A2EB498754EAE5067FDF3829A4C1DABD98429230D6EDB5163D6538ABB5E294AEE5A6BA6B2712B4A9E5F2F6FC9CB2F504B0304140006080800BA59F84AA6D797065F0000008200000007000000636E782E786D6C4DCB3B0E80201045D1AD90E9FD7516806B51190811670C8A61F982B1B0BAC9C97B72CA7B1037C6D3
310
332918DA1E04D2CAC69353902EDB8C20262D23F3F59B81A079470595414B17391D1F19B4730A5583A7ED43BBE4025D9592775E5ADFFA01504B0304140006080800BA59F84A4FEB6A7CA0000000F4000000130000005B436F6E74656E745F54797065735D2E786D6C7D8F4B0EC2300C44AF1279DFA6B0400835ED02B8011730
310
C16D239A8F121795DB93D02D6269CFBC19BBED573B8B17C564BC53B0AB1B10E4B47F18372A5878A88E20FAAEBDBD032591BD2E299898C349CAA427B2986A1FC86565F0D122E7318E32A07EE24872DF3407A9BD63725C71C980AEBDD080CBCCE2BAE6F5D69B7110E7CD57AA146008B3D1C8F92C5954F993BB1BF787F39A89AB
310
C491D09600F9FDA2FB00504B0304140006080800BA59F84A3DEE336E64000000790000001B0000006175746F6465736B2D64657369676E2D7061636B6167652E786D6C35CBC10E83200C00D05F21DCA56CA76D41FC96062B120735B69A7DBE268BB7777961F8D5AF396893C2ADB70FE7ADA196782C2DF776D7A97B5933C430
310
F15651E5469C55D70F80A4992A3ADC954792C525AE70A1E4D6AD9816CC044FEFDF01FE3FDE907802504B0304140006080800BA59F84A95CFEFCFF8000000960100003B0000006662782F46334535393039452D383933312D343442462D393638382D3536444438334146464639442F7265736F75726365732F636F72652E78
310
6D6C8550CB6EC32010FC156BEFB60163A589305194265FD0536F086F5C94182C1E553FBF10BB527BEA696176667677C4F16B7E549FE883717600DA10A8D06A371A3B0D90E2AD7E81EA2885772EFEA24165D58C031418A498BC4BCB06696723DA825A37E206AA103042A51FF93140D01F38AB46A59819E1DE2C4ADFD5840D6D
310
569E14299971939A31BB999B410F925C2F9CB13DA9D9E57CAA79DFF17AFF7ACADF3D3FF73D23D78E13D116B114D1CC3FD3B547157104C908DDD5645733FE46E98176879EBD8BB630A508D1E79BB7A1E53A901E834B5E6310EDDAFDE39A96F17FD7646CECD8E6BA2A02489A977C36A4684B4AB93C23CCB5242ABF01504B0304
310
140006080800BA59F84A9B3F5900F3000000B1010000310000006662782F46334535393039452D383933312D343442462D393638382D3536444438334146464639442F636F72652E786D6C8D50CB6EC32010FC156BEFD8C68FC48E30512BC75FD0536F0888831283C5A3EAE71762576A6F392D9A9D6166879CBF9747F625AD
310
53460F80F31232A9B9114ACF03047F451D64674AAC31FE0F0D32CD163940828192D99AB0EE1037DA4B9D506D84DC41E69CF490F1477C0CE0F84D2E2C67C14786BBE72BE37736CB1CE71B8F12AF965F29B79279298056253EA2F288AAE603E313AE4F6DF5498AC4A4240425762B25A2BBBA2A69814EF5A5EDCBFE82BABEC6A8
310
69DE27D41FBA0EB58771ECEAB7699AFA9114494C89F336DEBC7F92AE7B55BE09FF650EAB7821B3D2BEAE76C34DE180E298E7B9A0A44805C6F16C37CE5436FD01504B0304140006080800BA59F84AE8ECFF9253010000DD0200000C0000006662782F636F72652E786D6C8D52CB6E833010FC15E43B600C284D641C4569F205
310
3DF5E68043AD808D8C8DF2F95DF310E5D0B442027B76677667043D3EDB261884E9A556054A228C02A14A5D495517C8D97BF8868223A3466BFBA30D058AB7A2401E468CD646BB6E864AADAC501E55BA1233C8FB5E5814940D1C0AD4975FA2E51177163AFA47D4F1F2C16B1125D1D4C7A873B29AA9B202357997C22086AF978C
310
903D0EC9E57C0AB33CCDC2FDFB09AEFBEC9CE7045FD30CD3D89319B5B25DA69746702B2AC4084E7621DE8524FB489243921E72F24963DFC9686F0D789E877A7788DD6F4F1A4FF846CF75D5DF7A4E2A9B92596F62F48825B0DE586034F6F9C0670C6F9B210C86FC2CBF358B8507408328AD3619542AEDD6D2C01B27401A07E3
310
43E3A90ACAA3C06F3AE485CE6B0D088AAB1A56E3168E3767FDF4ED4E9D30E1609F81D2A6E5CDBADCB4E2FA5E076D2C2DF45237DAFC87BD585DC28CFD8FC9BE01504B0304140006080800BA59F84A4117437406010000B201000008000000636F72652E786D6C8D50416EC32010FC0AE28E0DD856EA08134569F2829E7AA340
310
1C141B2C0351FBFB424CA5F6D6D3C2CCECCEECB2C3E73C81875EBD717680A4C210682B9D32761C600C57F402C181B3D5B9F04B068115B31E60862167E3EAE25220E96CD036A3D6295D40E1BD0E10C8293D06E8E54DCFA212312485BF578B907731EA8A549B8EB360E69F56B96A11B4829C62B243788768FB46C89E34FB8EBE
310
B33A2B398BD1A8626554723757A357C8F1E5DC52DA6344CFA7236ABBA645FDEB317DFBF6D475145F9A16B33A3773E6C39A762E4352CE00BC78645F566F14671FCE4D45904229E0ECF4954C589D893FA1E3A2FE11DAD8D0D03270EBF0909314E84924E37CC1549EE74D355F9B7F03504B01021400140006080800BA59F84A00
310
00000000000000000000003700000000000000000000000000000000006662782F46334535393039452D383933312D343442462D393638382D3536444438334146464639442F617474726962757465732E62696E504B01021400140006080800BA59F84A000000000000000000000000350000000000000000000000000055
310
0000006662782F46334535393039452D383933312D343442462D393638382D3536444438334146464639442F76657274696365732E62696E504B01021400140006080800BA59F84AF270F13306000000040000003600000000000000000000000000A80000006662782F46334535393039452D383933312D343442462D3936
310
38382D3536444438334146464639442F747269616E676C65732E62696E504B01021400140006080800BA59F84A51464CB489000000430100003600000000000000000000000000020100006662782F46334535393039452D383933312D343442462D393638382D3536444438334146464639442F6469726563746F72792E78
310
6D6C504B01021400140006080800BA59F84A47EF4960380700001A1C00003400000000000000000000000000DF0100006662782F46334535393039452D383933312D343442462D393638382D3536444438334146464639442F6F626A656374732E786D6C504B01021400140006080800BA59F84A385739413E010000460500
310
003000000000000000000000000000690900006662782F46334535393039452D383933312D343442462D393638382D3536444438334146464639442F636E782E786D6C504B01021400140006080800BA59F84ACB56229D7D000000A30000000B00000000000000000000000000F50A00006662782F636E782E786D6C504B01
310
021400140006080800BA59F84AA6D797065F0000008200000007000000000000000000000000009B0B0000636E782E786D6C504B01021400140006080800BA59F84A4FEB6A7CA0000000F400000013000000000000000000000000001F0C00005B436F6E74656E745F54797065735D2E786D6C504B01021400140006080800
310
BA59F84A3DEE336E64000000790000001B00000000000000000000000000F00C00006175746F6465736B2D64657369676E2D7061636B6167652E786D6C504B01021400140006080800BA59F84A95CFEFCFF8000000960100003B000000000000000000000000008D0D00006662782F46334535393039452D383933312D3434
310
42462D393638382D3536444438334146464639442F7265736F75726365732F636F72652E786D6C504B01021400140006080800BA59F84A9B3F5900F3000000B10100003100000000000000000000000000DE0E00006662782F46334535393039452D383933312D343442462D393638382D3536444438334146464639442F63
310
6F72652E786D6C504B01021400140006080800BA59F84AE8ECFF9253010000DD0200000C00000000000000000000000000201000006662782F636F72652E786D6C504B01021400140006080800BA59F84A4117437406010000B201000008000000000000000000000000009D110000636F72652E786D6C504B050600000000
310
0E000E0080040000C91200000000
  0
XRECORD
  5
8454
102
{ACAD_REACTORS
330
844F
102
}
330
844F
100
AcDbXrecord
280
     1
270
     1
271
     1
  0
XRECORD
  5
8453
102
{ACAD_REACTORS
330
844F
102
}
330
844F
100
AcDbXrecord
280
     1
270
     1
271
     1
  0
XRECORD
  5
8455
102
{ACAD_REACTORS
330
844F
102
}
330
844F
100
AcDbXrecord
280
     1
270
     1
271
     1
  0
XRECORD
  5
8452
102
{ACAD_REACTORS
330
844F
102
}
330
844F
100
AcDbXrecord
280
     1
270
     1
271
     1
  0
XRECORD
  5
B5A2
102
{ACAD_REACTORS
330
B5A1
102
}
330
B5A1
100
AcDbXrecord
280
     1
102
ACAD_ROUNDTRIP_2012_MLEADER_STYLE
298
     1
  0
XRECORD
  5
B5A7
102
{ACAD_REACTORS
330
B301
102
}
330
B301
100
AcDbXrecord
280
     1
102
DISPLAYNAME
  1
Imperial24
102
FLAGS
 90
        0
  0
XRECORD
  5
B5A3
102
{ACAD_REACTORS
330
8498
102
}
330
8498
100
AcDbXrecord
280
     1
102
DISPLAYNAME
  1
Metric50
102
FLAGS
 90
        0
  0
CELLSTYLEMAP
  5
B55D
102
{ACAD_REACTORS
330
B55C
102
}
330
B55C
100
AcDbCellStyleMap
 90
        3
300
CELLSTYLE
  1
TABLEFORMAT_BEGIN
 90
        5
170
     1
 91
        0
 92
    32768
 62
   257
 93
        1
300
CONTENTFORMAT
  1
CONTENTFORMAT_BEGIN
 90
        0
 91
        0
 92
      512
 93
        0
300

 40
0.0
140
1.0
 94
        5
 62
     0
340
10
144
6.0
309
CONTENTFORMAT_END
171
     1
301
MARGIN
  1
CELLMARGIN_BEGIN
 40
1.5
 40
1.5
 40
1.5
 40
1.5
 40
4.5
 40
4.5
309
CELLMARGIN_END
 94
        6
 95
        1
302
GRIDFORMAT
  1
GRIDFORMAT_BEGIN
 90
        0
 91
        1
 62
     0
 92
       -2
340
0
 93
        0
 40
1.125
309
GRIDFORMAT_END
 95
        2
302
GRIDFORMAT
  1
GRIDFORMAT_BEGIN
 90
        0
 91
        1
 62
     0
 92
       -2
340
0
 93
        0
 40
1.125
309
GRIDFORMAT_END
 95
        4
302
GRIDFORMAT
  1
GRIDFORMAT_BEGIN
 90
        0
 91
        1
 62
     0
 92
       -2
340
0
 93
        0
 40
1.125
309
GRIDFORMAT_END
 95
        8
302
GRIDFORMAT
  1
GRIDFORMAT_BEGIN
 90
        0
 91
        1
 62
     0
 92
       -2
340
0
 93
        0
 40
1.125
309
GRIDFORMAT_END
 95
       16
302
GRIDFORMAT
  1
GRIDFORMAT_BEGIN
 90
        0
 91
        1
 62
     0
 92
       -2
340
0
 93
        0
 40
1.125
309
GRIDFORMAT_END
 95
       32
302
GRIDFORMAT
  1
GRIDFORMAT_BEGIN
 90
        0
 91
        1
 62
     0
 92
       -2
340
0
 93
        0
 40
1.125
309
GRIDFORMAT_END
309
TABLEFORMAT_END
  1
CELLSTYLE_BEGIN
 90
        1
 91
        1
300
_TITLE
309
CELLSTYLE_END
300
CELLSTYLE
  1
TABLEFORMAT_BEGIN
 90
        5
170
     1
 91
        0
 92
        0
 62
   257
 93
        1
300
CONTENTFORMAT
  1
CONTENTFORMAT_BEGIN
 90
        0
 91
        0
 92
      512
 93
        0
300

 40
0.0
140
1.0
 94
        5
 62
     0
340
10
144
4.5
309
CONTENTFORMAT_END
171
     1
301
MARGIN
  1
CELLMARGIN_BEGIN
 40
1.5
 40
1.5
 40
1.5
 40
1.5
 40
4.5
 40
4.5
309
CELLMARGIN_END
 94
        6
 95
        1
302
GRIDFORMAT
  1
GRIDFORMAT_BEGIN
 90
        0
 91
        1
 62
     0
 92
       -2
340
0
 93
        0
 40
1.125
309
GRIDFORMAT_END
 95
        2
302
GRIDFORMAT
  1
GRIDFORMAT_BEGIN
 90
        0
 91
        1
 62
     0
 92
       -2
340
0
 93
        0
 40
1.125
309
GRIDFORMAT_END
 95
        4
302
GRIDFORMAT
  1
GRIDFORMAT_BEGIN
 90
        0
 91
        1
 62
     0
 92
       -2
340
0
 93
        0
 40
1.125
309
GRIDFORMAT_END
 95
        8
302
GRIDFORMAT
  1
GRIDFORMAT_BEGIN
 90
        0
 91
        1
 62
     0
 92
       -2
340
0
 93
        0
 40
1.125
309
GRIDFORMAT_END
 95
       16
302
GRIDFORMAT
  1
GRIDFORMAT_BEGIN
 90
        0
 91
        1
 62
     0
 92
       -2
340
0
 93
        0
 40
1.125
309
GRIDFORMAT_END
 95
       32
302
GRIDFORMAT
  1
GRIDFORMAT_BEGIN
 90
        0
 91
        1
 62
     0
 92
       -2
340
0
 93
        0
 40
1.125
309
GRIDFORMAT_END
309
TABLEFORMAT_END
  1
CELLSTYLE_BEGIN
 90
        2
 91
        1
300
_HEADER
309
CELLSTYLE_END
300
CELLSTYLE
  1
TABLEFORMAT_BEGIN
 90
        5
170
     1
 91
        0
 92
        0
 62
   257
 93
        1
300
CONTENTFORMAT
  1
CONTENTFORMAT_BEGIN
 90
        0
 91
        0
 92
      512
 93
        0
300

 40
0.0
140
1.0
 94
        2
 62
     0
340
10
144
4.5
309
CONTENTFORMAT_END
171
     1
301
MARGIN
  1
CELLMARGIN_BEGIN
 40
1.5
 40
1.5
 40
1.5
 40
1.5
 40
4.5
 40
4.5
309
CELLMARGIN_END
 94
        6
 95
        1
302
GRIDFORMAT
  1
GRIDFORMAT_BEGIN
 90
        0
 91
        1
 62
     0
 92
       -2
340
0
 93
        0
 40
1.125
309
GRIDFORMAT_END
 95
        2
302
GRIDFORMAT
  1
GRIDFORMAT_BEGIN
 90
        0
 91
        1
 62
     0
 92
       -2
340
0
 93
        0
 40
1.125
309
GRIDFORMAT_END
 95
        4
302
GRIDFORMAT
  1
GRIDFORMAT_BEGIN
 90
        0
 91
        1
 62
     0
 92
       -2
340
0
 93
        0
 40
1.125
309
GRIDFORMAT_END
 95
        8
302
GRIDFORMAT
  1
GRIDFORMAT_BEGIN
 90
        0
 91
        1
 62
     0
 92
       -2
340
0
 93
        0
 40
1.125
309
GRIDFORMAT_END
 95
       16
302
GRIDFORMAT
  1
GRIDFORMAT_BEGIN
 90
        0
 91
        1
 62
     0
 92
       -2
340
0
 93
        0
 40
1.125
309
GRIDFORMAT_END
 95
       32
302
GRIDFORMAT
  1
GRIDFORMAT_BEGIN
 90
        0
 91
        1
 62
     0
 92
       -2
340
0
 93
        0
 40
1.125
309
GRIDFORMAT_END
309
TABLEFORMAT_END
  1
CELLSTYLE_BEGIN
 90
        3
 91
        2
300
_DATA
309
CELLSTYLE_END
  0
XRECORD
  5
B59F
102
{ACAD_REACTORS
330
B55C
102
}
330
B55C
100
AcDbXrecord
280
     1
102
ACAD_ROUNDTRIP_PRE2007_TABLESTYLE
 90
      512
 91
        0
  1

 92
      512
 93
        0
  2

 94
      512
 95
        0
  3

  0
XRECORD
  5
B57A
102
{ACAD_REACTORS
330
B579
102
}
330
B579
100
AcDbXrecord
280
     1
102
RTVSPost2010Prop28
280
     1
102
RTVSPost2010PropOp28
 70
     1
102
RTVSPost2010Prop29
280
     1
102
RTVSPost2010PropOp29
 70
     1
102
RTVSPost2010Prop30
280
     0
102
RTVSPost2010PropOp30
 70
     1
102
RTVSPost2010Prop31
280
     0
102
RTVSPost2010PropOp31
 70
     1
102
RTVSPost2010Prop32
280
     0
102
RTVSPost2010PropOp32
 70
     1
102
RTVSPost2010Prop33
280
     0
102
RTVSPost2010PropOp33
 70
     1
102
RTVSPost2010Prop34
280
     0
102
RTVSPost2010PropOp34
 70
     1
102
RTVSPost2010Prop35
280
     0
102
RTVSPost2010PropOp35
 70
     1
102
RTVSPost2010Prop36
280
     0
102
RTVSPost2010PropOp36
 70
     1
102
RTVSPost2010Prop37
 90
       50
102
RTVSPost2010PropOp37
 70
     1
102
RTVSPost2010Prop38
140
0.0
102
RTVSPost2010PropOp38
 70
     1
102
RTVSPost2010Prop39
140
1.0
102
RTVSPost2010PropOp39
 70
     1
102
RTVSPost2010Prop40
 90
        0
102
RTVSPost2010PropOp40
 70
     1
102
RTVSPost2010Prop41ColorIndex
 90
       18
102
RTVSPost2010Prop41ColorRGB
 90
        0
102
RTVSPost2010PropOp41
 70
     1
102
RTVSPost2010Prop42
 90
       50
102
RTVSPost2010PropOp42
 70
     1
102
RTVSPost2010Prop43
 90
        3
102
RTVSPost2010PropOp43
 70
     1
102
RTVSPost2010Prop44ColorIndex
 90
        5
102
RTVSPost2010Prop44ColorRGB
 90
      255
102
RTVSPost2010PropOp44
 70
     1
102
RTVSPost2010Prop45
280
     0
102
RTVSPost2010PropOp45
 70
     1
102
RTVSPost2010Prop46
 90
       50
102
RTVSPost2010PropOp46
 70
     1
102
RTVSPost2010Prop47
 90
       50
102
RTVSPost2010PropOp47
 70
     1
102
RTVSPost2010Prop48
 90
       50
102
RTVSPost2010PropOp48
 70
     1
102
RTVSPost2010Prop49
280
     0
102
RTVSPost2010PropOp49
 70
     1
102
RTVSPost2010Prop50
 90
       50
102
RTVSPost2010PropOp50
 70
     1
102
RTVSPost2010Prop51ColorIndex
 90
      256
102
RTVSPost2010Prop51ColorRGB
 90
-16777216
102
RTVSPost2010PropOp51
 70
     0
102
RTVSPost2010Prop52
140
1.0
102
RTVSPost2010PropOp52
 70
     0
102
RTVSPost2010Prop53
 90
        2
102
RTVSPost2010PropOp53
 70
     1
102
RTVSPost2010Prop54
  1
strokes_ogs.tif
102
RTVSPost2010PropOp54
 70
     1
102
RTVSPost2010Prop55
280
     0
102
RTVSPost2010PropOp55
 70
     1
102
RTVSPost2010Prop56
140
1.0
102
RTVSPost2010PropOp56
 70
     1
102
RTVSPost2010Prop57
140
1.0
102
RTVSPost2010PropOp57
 70
     1
102
RTVSPropertyOp0
 70
     1
102
RTVSPropertyOp1
 70
     1
102
RTVSPropertyOp2
 70
     1
102
RTVSPropertyOp3
 70
     1
102
RTVSPropertyOp4
 70
     1
102
RTVSPropertyOp5
 70
     1
102
RTVSPropertyOp6
 70
     1
102
RTVSPropertyOp7
 70
     1
102
RTVSPropertyOp8
 70
     1
102
RTVSPropertyOp9
 70
     1
102
RTVSPropertyOp10
 70
     1
102
RTVSPropertyOp11
 70
     1
102
RTVSPropertyOp12
 70
     1
102
RTVSPropertyOp13
 70
     1
102
RTVSPropertyOp14
 70
     1
102
RTVSPropertyOp15
 70
     1
102
RTVSPropertyOp16
 70
     1
102
RTVSPropertyOp17
 70
     1
102
RTVSPropertyOp18
 70
     1
102
RTVSPropertyOp19
 70
     1
102
RTVSPropertyOp20
 70
     1
102
RTVSPropertyOp21
 70
     1
102
RTVSPropertyOp22
 70
     1
102
RTVSPropertyOp23
 70
     1
102
RTVSPropertyOp24
 70
     1
102
RTVSPropertyOp25
 70
     1
102
RTVSPropertyOp26
 70
     1
102
RTVSPropertyOp27
 70
     1
102
RTVSPropertyOp28
 70
     1
102
RTVSPropertyOp29
 70
     1
102
RTVSPropertyOp30
 70
     1
102
RTVSPropertyOp31
 70
     1
102
RTVSPropertyOp32
 70
     1
102
RTVSPropertyOp33
 70
     1
102
RTVSPropertyOp34
 70
     1
102
RTVSPropertyOp35
 70
     1
102
RTVSPropertyOp36
 70
     1
102
RTVSPropertyOp37
 70
     1
102
RTVSPropertyOp38
 70
     1
102
RTVSPropertyOp39
 70
     1
102
RTVSPropertyOp40
 70
     1
102
RTVSPropertyOp41
 70
     1
102
RTVSPropertyOp42
 70
     1
102
RTVSPropertyOp43
 70
     1
102
RTVSPropertyOp44
 70
     1
102
RTVSPropertyOp45
 70
     1
102
RTVSPropertyOp46
 70
     1
102
RTVSPropertyOp47
 70
     1
102
RTVSPropertyOp48
 70
     1
102
RTVSPropertyOp49
 70
     1
102
RTVSPropertyOp50
 70
     1
102
RTVSPropertyOp51
 70
     0
102
RTVSPropertyOp52
 70
     0
102
RTVSPropertyOp53
 70
     1
102
RTVSPropertyOp54
 70
     1
102
RTVSPropertyOp55
 70
     1
102
RTVSPropertyOp56
 70
     1
102
RTVSPropertyOp57
 70
     1
102
RTVSPropertyOp58
 70
     1
102
RTVSPropertyOp59
 70
     1
102
RTVSPropertyOp60
 70
     1
102
RTVSPropertyOp61
 70
     1
102
RTVSPropertyOp62
 70
     1
  0
XRECORD
  5
B578
102
{ACAD_REACTORS
330
B577
102
}
330
B577
100
AcDbXrecord
280
     1
102
RTVSPost2010Prop28
280
     0
102
RTVSPost2010PropOp28
 70
     1
102
RTVSPost2010Prop29
280
     1
102
RTVSPost2010PropOp29
 70
     1
102
RTVSPost2010Prop30
280
     1
102
RTVSPost2010PropOp30
 70
     1
102
RTVSPost2010Prop31
280
     0
102
RTVSPost2010PropOp31
 70
     1
102
RTVSPost2010Prop32
280
     0
102
RTVSPost2010PropOp32
 70
     1
102
RTVSPost2010Prop33
280
     0
102
RTVSPost2010PropOp33
 70
     1
102
RTVSPost2010Prop34
280
     0
102
RTVSPost2010PropOp34
 70
     1
102
RTVSPost2010Prop35
280
     0
102
RTVSPost2010PropOp35
 70
     1
102
RTVSPost2010Prop36
280
     0
102
RTVSPost2010PropOp36
 70
     1
102
RTVSPost2010Prop37
 90
       50
102
RTVSPost2010PropOp37
 70
     1
102
RTVSPost2010Prop38
140
0.0
102
RTVSPost2010PropOp38
 70
     1
102
RTVSPost2010Prop39
140
1.0
102
RTVSPost2010PropOp39
 70
     1
102
RTVSPost2010Prop40
 90
        0
102
RTVSPost2010PropOp40
 70
     1
102
RTVSPost2010Prop41ColorIndex
 90
       18
102
RTVSPost2010Prop41ColorRGB
 90
        0
102
RTVSPost2010PropOp41
 70
     1
102
RTVSPost2010Prop42
 90
       50
102
RTVSPost2010PropOp42
 70
     1
102
RTVSPost2010Prop43
 90
        3
102
RTVSPost2010PropOp43
 70
     1
102
RTVSPost2010Prop44ColorIndex
 90
        5
102
RTVSPost2010Prop44ColorRGB
 90
      255
102
RTVSPost2010PropOp44
 70
     1
102
RTVSPost2010Prop45
280
     0
102
RTVSPost2010PropOp45
 70
     1
102
RTVSPost2010Prop46
 90
       50
102
RTVSPost2010PropOp46
 70
     1
102
RTVSPost2010Prop47
 90
       50
102
RTVSPost2010PropOp47
 70
     1
102
RTVSPost2010Prop48
 90
       50
102
RTVSPost2010PropOp48
 70
     1
102
RTVSPost2010Prop49
280
     0
102
RTVSPost2010PropOp49
 70
     1
102
RTVSPost2010Prop50
 90
       50
102
RTVSPost2010PropOp50
 70
     1
102
RTVSPost2010Prop51ColorIndex
 90
      256
102
RTVSPost2010Prop51ColorRGB
 90
-16777216
102
RTVSPost2010PropOp51
 70
     0
102
RTVSPost2010Prop52
140
1.0
102
RTVSPost2010PropOp52
 70
     0
102
RTVSPost2010Prop53
 90
        2
102
RTVSPost2010PropOp53
 70
     1
102
RTVSPost2010Prop54
  1
strokes_ogs.tif
102
RTVSPost2010PropOp54
 70
     1
102
RTVSPost2010Prop55
280
     0
102
RTVSPost2010PropOp55
 70
     1
102
RTVSPost2010Prop56
140
1.0
102
RTVSPost2010PropOp56
 70
     1
102
RTVSPost2010Prop57
140
1.0
102
RTVSPost2010PropOp57
 70
     1
102
RTVSPropertyOp0
 70
     1
102
RTVSPropertyOp1
 70
     1
102
RTVSPropertyOp2
 70
     1
102
RTVSPropertyOp3
 70
     1
102
RTVSPropertyOp4
 70
     1
102
RTVSPropertyOp5
 70
     1
102
RTVSPropertyOp6
 70
     1
102
RTVSPropertyOp7
 70
     1
102
RTVSPropertyOp8
 70
     1
102
RTVSPropertyOp9
 70
     1
102
RTVSPropertyOp10
 70
     1
102
RTVSPropertyOp11
 70
     1
102
RTVSPropertyOp12
 70
     1
102
RTVSPropertyOp13
 70
     1
102
RTVSPropertyOp14
 70
     1
102
RTVSPropertyOp15
 70
     1
102
RTVSPropertyOp16
 70
     1
102
RTVSPropertyOp17
 70
     1
102
RTVSPropertyOp18
 70
     1
102
RTVSPropertyOp19
 70
     1
102
RTVSPropertyOp20
 70
     1
102
RTVSPropertyOp21
 70
     1
102
RTVSPropertyOp22
 70
     1
102
RTVSPropertyOp23
 70
     1
102
RTVSPropertyOp24
 70
     1
102
RTVSPropertyOp25
 70
     1
102
RTVSPropertyOp26
 70
     1
102
RTVSPropertyOp27
 70
     1
102
RTVSPropertyOp28
 70
     1
102
RTVSPropertyOp29
 70
     1
102
RTVSPropertyOp30
 70
     1
102
RTVSPropertyOp31
 70
     1
102
RTVSPropertyOp32
 70
     1
102
RTVSPropertyOp33
 70
     1
102
RTVSPropertyOp34
 70
     1
102
RTVSPropertyOp35
 70
     1
102
RTVSPropertyOp36
 70
     1
102
RTVSPropertyOp37
 70
     1
102
RTVSPropertyOp38
 70
     1
102
RTVSPropertyOp39
 70
     1
102
RTVSPropertyOp40
 70
     1
102
RTVSPropertyOp41
 70
     1
102
RTVSPropertyOp42
 70
     1
102
RTVSPropertyOp43
 70
     1
102
RTVSPropertyOp44
 70
     1
102
RTVSPropertyOp45
 70
     1
102
RTVSPropertyOp46
 70
     1
102
RTVSPropertyOp47
 70
     1
102
RTVSPropertyOp48
 70
     1
102
RTVSPropertyOp49
 70
     1
102
RTVSPropertyOp50
 70
     1
102
RTVSPropertyOp51
 70
     0
102
RTVSPropertyOp52
 70
     0
102
RTVSPropertyOp53
 70
     1
102
RTVSPropertyOp54
 70
     1
102
RTVSPropertyOp55
 70
     1
102
RTVSPropertyOp56
 70
     1
102
RTVSPropertyOp57
 70
     1
102
RTVSPropertyOp58
 70
     1
102
RTVSPropertyOp59
 70
     1
102
RTVSPropertyOp60
 70
     1
102
RTVSPropertyOp61
 70
     1
102
RTVSPropertyOp62
 70
     1
  0
XRECORD
  5
B586
102
{ACAD_REACTORS
330
B585
102
}
330
B585
100
AcDbXrecord
280
     1
102
RTVSPost2010Prop28
280
     0
102
RTVSPost2010PropOp28
 70
     1
102
RTVSPost2010Prop29
280
     1
102
RTVSPost2010PropOp29
 70
     1
102
RTVSPost2010Prop30
280
     1
102
RTVSPost2010PropOp30
 70
     1
102
RTVSPost2010Prop31
280
     0
102
RTVSPost2010PropOp31
 70
     1
102
RTVSPost2010Prop32
280
     0
102
RTVSPost2010PropOp32
 70
     1
102
RTVSPost2010Prop33
280
     0
102
RTVSPost2010PropOp33
 70
     1
102
RTVSPost2010Prop34
280
     0
102
RTVSPost2010PropOp34
 70
     1
102
RTVSPost2010Prop35
280
     0
102
RTVSPost2010PropOp35
 70
     1
102
RTVSPost2010Prop36
280
     0
102
RTVSPost2010PropOp36
 70
     1
102
RTVSPost2010Prop37
 90
       50
102
RTVSPost2010PropOp37
 70
     1
102
RTVSPost2010Prop38
140
0.0
102
RTVSPost2010PropOp38
 70
     1
102
RTVSPost2010Prop39
140
1.0
102
RTVSPost2010PropOp39
 70
     1
102
RTVSPost2010Prop40
 90
        0
102
RTVSPost2010PropOp40
 70
     1
102
RTVSPost2010Prop41ColorIndex
 90
       18
102
RTVSPost2010Prop41ColorRGB
 90
        0
102
RTVSPost2010PropOp41
 70
     1
102
RTVSPost2010Prop42
 90
       50
102
RTVSPost2010PropOp42
 70
     1
102
RTVSPost2010Prop43
 90
        3
102
RTVSPost2010PropOp43
 70
     1
102
RTVSPost2010Prop44ColorIndex
 90
        5
102
RTVSPost2010Prop44ColorRGB
 90
      255
102
RTVSPost2010PropOp44
 70
     1
102
RTVSPost2010Prop45
280
     0
102
RTVSPost2010PropOp45
 70
     1
102
RTVSPost2010Prop46
 90
       50
102
RTVSPost2010PropOp46
 70
     1
102
RTVSPost2010Prop47
 90
       50
102
RTVSPost2010PropOp47
 70
     1
102
RTVSPost2010Prop48
 90
       50
102
RTVSPost2010PropOp48
 70
     1
102
RTVSPost2010Prop49
280
     0
102
RTVSPost2010PropOp49
 70
     1
102
RTVSPost2010Prop50
 90
       50
102
RTVSPost2010PropOp50
 70
     1
102
RTVSPost2010Prop51ColorIndex
 90
      256
102
RTVSPost2010Prop51ColorRGB
 90
-16777216
102
RTVSPost2010PropOp51
 70
     0
102
RTVSPost2010Prop52
140
1.0
102
RTVSPost2010PropOp52
 70
     0
102
RTVSPost2010Prop53
 90
        2
102
RTVSPost2010PropOp53
 70
     1
102
RTVSPost2010Prop54
  1
strokes_ogs.tif
102
RTVSPost2010PropOp54
 70
     1
102
RTVSPost2010Prop55
280
     0
102
RTVSPost2010PropOp55
 70
     1
102
RTVSPost2010Prop56
140
1.0
102
RTVSPost2010PropOp56
 70
     1
102
RTVSPost2010Prop57
140
1.0
102
RTVSPost2010PropOp57
 70
     1
102
RTVSPropertyOp0
 70
     1
102
RTVSPropertyOp1
 70
     1
102
RTVSPropertyOp2
 70
     1
102
RTVSPropertyOp3
 70
     1
102
RTVSPropertyOp4
 70
     1
102
RTVSPropertyOp5
 70
     1
102
RTVSPropertyOp6
 70
     1
102
RTVSPropertyOp7
 70
     1
102
RTVSPropertyOp8
 70
     1
102
RTVSPropertyOp9
 70
     1
102
RTVSPropertyOp10
 70
     1
102
RTVSPropertyOp11
 70
     1
102
RTVSPropertyOp12
 70
     1
102
RTVSPropertyOp13
 70
     1
102
RTVSPropertyOp14
 70
     1
102
RTVSPropertyOp15
 70
     1
102
RTVSPropertyOp16
 70
     1
102
RTVSPropertyOp17
 70
     1
102
RTVSPropertyOp18
 70
     1
102
RTVSPropertyOp19
 70
     1
102
RTVSPropertyOp20
 70
     1
102
RTVSPropertyOp21
 70
     1
102
RTVSPropertyOp22
 70
     1
102
RTVSPropertyOp23
 70
     1
102
RTVSPropertyOp24
 70
     1
102
RTVSPropertyOp25
 70
     1
102
RTVSPropertyOp26
 70
     1
102
RTVSPropertyOp27
 70
     1
102
RTVSPropertyOp28
 70
     1
102
RTVSPropertyOp29
 70
     1
102
RTVSPropertyOp30
 70
     1
102
RTVSPropertyOp31
 70
     1
102
RTVSPropertyOp32
 70
     1
102
RTVSPropertyOp33
 70
     1
102
RTVSPropertyOp34
 70
     1
102
RTVSPropertyOp35
 70
     1
102
RTVSPropertyOp36
 70
     1
102
RTVSPropertyOp37
 70
     1
102
RTVSPropertyOp38
 70
     1
102
RTVSPropertyOp39
 70
     1
102
RTVSPropertyOp40
 70
     1
102
RTVSPropertyOp41
 70
     1
102
RTVSPropertyOp42
 70
     1
102
RTVSPropertyOp43
 70
     1
102
RTVSPropertyOp44
 70
     1
102
RTVSPropertyOp45
 70
     1
102
RTVSPropertyOp46
 70
     1
102
RTVSPropertyOp47
 70
     1
102
RTVSPropertyOp48
 70
     1
102
RTVSPropertyOp49
 70
     1
102
RTVSPropertyOp50
 70
     1
102
RTVSPropertyOp51
 70
     0
102
RTVSPropertyOp52
 70
     0
102
RTVSPropertyOp53
 70
     1
102
RTVSPropertyOp54
 70
     1
102
RTVSPropertyOp55
 70
     1
102
RTVSPropertyOp56
 70
     1
102
RTVSPropertyOp57
 70
     1
102
RTVSPropertyOp58
 70
     1
102
RTVSPropertyOp59
 70
     1
102
RTVSPropertyOp60
 70
     1
102
RTVSPropertyOp61
 70
     1
102
RTVSPropertyOp62
 70
     1
  0
XRECORD
  5
B58E
102
{ACAD_REACTORS
330
B58D
102
}
330
B58D
100
AcDbXrecord
280
     1
102
RTVSPost2010Prop28
280
     0
102
RTVSPost2010PropOp28
 70
     1
102
RTVSPost2010Prop29
280
     1
102
RTVSPost2010PropOp29
 70
     1
102
RTVSPost2010Prop30
280
     1
102
RTVSPost2010PropOp30
 70
     1
102
RTVSPost2010Prop31
280
     0
102
RTVSPost2010PropOp31
 70
     1
102
RTVSPost2010Prop32
280
     0
102
RTVSPost2010PropOp32
 70
     1
102
RTVSPost2010Prop33
280
     0
102
RTVSPost2010PropOp33
 70
     1
102
RTVSPost2010Prop34
280
     0
102
RTVSPost2010PropOp34
 70
     1
102
RTVSPost2010Prop35
280
     0
102
RTVSPost2010PropOp35
 70
     1
102
RTVSPost2010Prop36
280
     0
102
RTVSPost2010PropOp36
 70
     1
102
RTVSPost2010Prop37
 90
       50
102
RTVSPost2010PropOp37
 70
     1
102
RTVSPost2010Prop38
140
0.0
102
RTVSPost2010PropOp38
 70
     1
102
RTVSPost2010Prop39
140
1.0
102
RTVSPost2010PropOp39
 70
     1
102
RTVSPost2010Prop40
 90
        0
102
RTVSPost2010PropOp40
 70
     1
102
RTVSPost2010Prop41ColorIndex
 90
       18
102
RTVSPost2010Prop41ColorRGB
 90
        0
102
RTVSPost2010PropOp41
 70
     1
102
RTVSPost2010Prop42
 90
       50
102
RTVSPost2010PropOp42
 70
     1
102
RTVSPost2010Prop43
 90
        3
102
RTVSPost2010PropOp43
 70
     1
102
RTVSPost2010Prop44ColorIndex
 90
        5
102
RTVSPost2010Prop44ColorRGB
 90
      255
102
RTVSPost2010PropOp44
 70
     1
102
RTVSPost2010Prop45
280
     0
102
RTVSPost2010PropOp45
 70
     1
102
RTVSPost2010Prop46
 90
       50
102
RTVSPost2010PropOp46
 70
     1
102
RTVSPost2010Prop47
 90
       50
102
RTVSPost2010PropOp47
 70
     1
102
RTVSPost2010Prop48
 90
       50
102
RTVSPost2010PropOp48
 70
     1
102
RTVSPost2010Prop49
280
     0
102
RTVSPost2010PropOp49
 70
     1
102
RTVSPost2010Prop50
 90
       50
102
RTVSPost2010PropOp50
 70
     1
102
RTVSPost2010Prop51ColorIndex
 90
      256
102
RTVSPost2010Prop51ColorRGB
 90
-16777216
102
RTVSPost2010PropOp51
 70
     0
102
RTVSPost2010Prop52
140
1.0
102
RTVSPost2010PropOp52
 70
     0
102
RTVSPost2010Prop53
 90
        2
102
RTVSPost2010PropOp53
 70
     1
102
RTVSPost2010Prop54
  1
strokes_ogs.tif
102
RTVSPost2010PropOp54
 70
     1
102
RTVSPost2010Prop55
280
     0
102
RTVSPost2010PropOp55
 70
     1
102
RTVSPost2010Prop56
140
1.0
102
RTVSPost2010PropOp56
 70
     1
102
RTVSPost2010Prop57
140
1.0
102
RTVSPost2010PropOp57
 70
     1
102
RTVSPropertyOp0
 70
     1
102
RTVSPropertyOp1
 70
     1
102
RTVSPropertyOp2
 70
     1
102
RTVSPropertyOp3
 70
     1
102
RTVSPropertyOp4
 70
     1
102
RTVSPropertyOp5
 70
     1
102
RTVSPropertyOp6
 70
     1
102
RTVSPropertyOp7
 70
     1
102
RTVSPropertyOp8
 70
     1
102
RTVSPropertyOp9
 70
     1
102
RTVSPropertyOp10
 70
     1
102
RTVSPropertyOp11
 70
     1
102
RTVSPropertyOp12
 70
     1
102
RTVSPropertyOp13
 70
     1
102
RTVSPropertyOp14
 70
     1
102
RTVSPropertyOp15
 70
     1
102
RTVSPropertyOp16
 70
     1
102
RTVSPropertyOp17
 70
     1
102
RTVSPropertyOp18
 70
     1
102
RTVSPropertyOp19
 70
     1
102
RTVSPropertyOp20
 70
     1
102
RTVSPropertyOp21
 70
     1
102
RTVSPropertyOp22
 70
     1
102
RTVSPropertyOp23
 70
     1
102
RTVSPropertyOp24
 70
     1
102
RTVSPropertyOp25
 70
     1
102
RTVSPropertyOp26
 70
     1
102
RTVSPropertyOp27
 70
     1
102
RTVSPropertyOp28
 70
     1
102
RTVSPropertyOp29
 70
     1
102
RTVSPropertyOp30
 70
     1
102
RTVSPropertyOp31
 70
     1
102
RTVSPropertyOp32
 70
     1
102
RTVSPropertyOp33
 70
     1
102
RTVSPropertyOp34
 70
     1
102
RTVSPropertyOp35
 70
     1
102
RTVSPropertyOp36
 70
     1
102
RTVSPropertyOp37
 70
     1
102
RTVSPropertyOp38
 70
     1
102
RTVSPropertyOp39
 70
     1
102
RTVSPropertyOp40
 70
     1
102
RTVSPropertyOp41
 70
     1
102
RTVSPropertyOp42
 70
     1
102
RTVSPropertyOp43
 70
     1
102
RTVSPropertyOp44
 70
     1
102
RTVSPropertyOp45
 70
     1
102
RTVSPropertyOp46
 70
     1
102
RTVSPropertyOp47
 70
     1
102
RTVSPropertyOp48
 70
     1
102
RTVSPropertyOp49
 70
     1
102
RTVSPropertyOp50
 70
     1
102
RTVSPropertyOp51
 70
     0
102
RTVSPropertyOp52
 70
     0
102
RTVSPropertyOp53
 70
     1
102
RTVSPropertyOp54
 70
     1
102
RTVSPropertyOp55
 70
     1
102
RTVSPropertyOp56
 70
     1
102
RTVSPropertyOp57
 70
     1
102
RTVSPropertyOp58
 70
     1
102
RTVSPropertyOp59
 70
     1
102
RTVSPropertyOp60
 70
     1
102
RTVSPropertyOp61
 70
     1
102
RTVSPropertyOp62
 70
     1
  0
XRECORD
  5
B580
102
{ACAD_REACTORS
330
B57F
102
}
330
B57F
100
AcDbXrecord
280
     1
102
RTVSPost2010Prop28
280
     0
102
RTVSPost2010PropOp28
 70
     1
102
RTVSPost2010Prop29
280
     1
102
RTVSPost2010PropOp29
 70
     1
102
RTVSPost2010Prop30
280
     1
102
RTVSPost2010PropOp30
 70
     1
102
RTVSPost2010Prop31
280
     0
102
RTVSPost2010PropOp31
 70
     1
102
RTVSPost2010Prop32
280
     0
102
RTVSPost2010PropOp32
 70
     1
102
RTVSPost2010Prop33
280
     0
102
RTVSPost2010PropOp33
 70
     1
102
RTVSPost2010Prop34
280
     0
102
RTVSPost2010PropOp34
 70
     1
102
RTVSPost2010Prop35
280
     0
102
RTVSPost2010PropOp35
 70
     1
102
RTVSPost2010Prop36
280
     0
102
RTVSPost2010PropOp36
 70
     1
102
RTVSPost2010Prop37
 90
       50
102
RTVSPost2010PropOp37
 70
     1
102
RTVSPost2010Prop38
140
0.0
102
RTVSPost2010PropOp38
 70
     1
102
RTVSPost2010Prop39
140
1.0
102
RTVSPost2010PropOp39
 70
     1
102
RTVSPost2010Prop40
 90
        0
102
RTVSPost2010PropOp40
 70
     1
102
RTVSPost2010Prop41ColorIndex
 90
       18
102
RTVSPost2010Prop41ColorRGB
 90
        0
102
RTVSPost2010PropOp41
 70
     1
102
RTVSPost2010Prop42
 90
       50
102
RTVSPost2010PropOp42
 70
     1
102
RTVSPost2010Prop43
 90
        3
102
RTVSPost2010PropOp43
 70
     1
102
RTVSPost2010Prop44ColorIndex
 90
        5
102
RTVSPost2010Prop44ColorRGB
 90
      255
102
RTVSPost2010PropOp44
 70
     1
102
RTVSPost2010Prop45
280
     0
102
RTVSPost2010PropOp45
 70
     1
102
RTVSPost2010Prop46
 90
       50
102
RTVSPost2010PropOp46
 70
     1
102
RTVSPost2010Prop47
 90
       50
102
RTVSPost2010PropOp47
 70
     1
102
RTVSPost2010Prop48
 90
       50
102
RTVSPost2010PropOp48
 70
     1
102
RTVSPost2010Prop49
280
     0
102
RTVSPost2010PropOp49
 70
     1
102
RTVSPost2010Prop50
 90
       50
102
RTVSPost2010PropOp50
 70
     1
102
RTVSPost2010Prop51ColorIndex
 90
      256
102
RTVSPost2010Prop51ColorRGB
 90
-16777216
102
RTVSPost2010PropOp51
 70
     0
102
RTVSPost2010Prop52
140
1.0
102
RTVSPost2010PropOp52
 70
     0
102
RTVSPost2010Prop53
 90
        2
102
RTVSPost2010PropOp53
 70
     1
102
RTVSPost2010Prop54
  1
strokes_ogs.tif
102
RTVSPost2010PropOp54
 70
     1
102
RTVSPost2010Prop55
280
     0
102
RTVSPost2010PropOp55
 70
     1
102
RTVSPost2010Prop56
140
1.0
102
RTVSPost2010PropOp56
 70
     1
102
RTVSPost2010Prop57
140
1.0
102
RTVSPost2010PropOp57
 70
     1
102
RTVSPropertyOp0
 70
     1
102
RTVSPropertyOp1
 70
     1
102
RTVSPropertyOp2
 70
     1
102
RTVSPropertyOp3
 70
     1
102
RTVSPropertyOp4
 70
     1
102
RTVSPropertyOp5
 70
     1
102
RTVSPropertyOp6
 70
     1
102
RTVSPropertyOp7
 70
     1
102
RTVSPropertyOp8
 70
     1
102
RTVSPropertyOp9
 70
     1
102
RTVSPropertyOp10
 70
     1
102
RTVSPropertyOp11
 70
     1
102
RTVSPropertyOp12
 70
     1
102
RTVSPropertyOp13
 70
     1
102
RTVSPropertyOp14
 70
     1
102
RTVSPropertyOp15
 70
     1
102
RTVSPropertyOp16
 70
     1
102
RTVSPropertyOp17
 70
     1
102
RTVSPropertyOp18
 70
     1
102
RTVSPropertyOp19
 70
     1
102
RTVSPropertyOp20
 70
     1
102
RTVSPropertyOp21
 70
     1
102
RTVSPropertyOp22
 70
     1
102
RTVSPropertyOp23
 70
     1
102
RTVSPropertyOp24
 70
     1
102
RTVSPropertyOp25
 70
     1
102
RTVSPropertyOp26
 70
     1
102
RTVSPropertyOp27
 70
     1
102
RTVSPropertyOp28
 70
     1
102
RTVSPropertyOp29
 70
     1
102
RTVSPropertyOp30
 70
     1
102
RTVSPropertyOp31
 70
     1
102
RTVSPropertyOp32
 70
     1
102
RTVSPropertyOp33
 70
     1
102
RTVSPropertyOp34
 70
     1
102
RTVSPropertyOp35
 70
     1
102
RTVSPropertyOp36
 70
     1
102
RTVSPropertyOp37
 70
     1
102
RTVSPropertyOp38
 70
     1
102
RTVSPropertyOp39
 70
     1
102
RTVSPropertyOp40
 70
     1
102
RTVSPropertyOp41
 70
     1
102
RTVSPropertyOp42
 70
     1
102
RTVSPropertyOp43
 70
     1
102
RTVSPropertyOp44
 70
     1
102
RTVSPropertyOp45
 70
     1
102
RTVSPropertyOp46
 70
     1
102
RTVSPropertyOp47
 70
     1
102
RTVSPropertyOp48
 70
     1
102
RTVSPropertyOp49
 70
     1
102
RTVSPropertyOp50
 70
     1
102
RTVSPropertyOp51
 70
     0
102
RTVSPropertyOp52
 70
     0
102
RTVSPropertyOp53
 70
     1
102
RTVSPropertyOp54
 70
     1
102
RTVSPropertyOp55
 70
     1
102
RTVSPropertyOp56
 70
     1
102
RTVSPropertyOp57
 70
     1
102
RTVSPropertyOp58
 70
     1
102
RTVSPropertyOp59
 70
     1
102
RTVSPropertyOp60
 70
     1
102
RTVSPropertyOp61
 70
     1
102
RTVSPropertyOp62
 70
     1
  0
XRECORD
  5
B584
102
{ACAD_REACTORS
330
B583
102
}
330
B583
100
AcDbXrecord
280
     1
102
RTVSPost2010Prop28
280
     0
102
RTVSPost2010PropOp28
 70
     1
102
RTVSPost2010Prop29
280
     1
102
RTVSPost2010PropOp29
 70
     1
102
RTVSPost2010Prop30
280
     1
102
RTVSPost2010PropOp30
 70
     1
102
RTVSPost2010Prop31
280
     0
102
RTVSPost2010PropOp31
 70
     1
102
RTVSPost2010Prop32
280
     0
102
RTVSPost2010PropOp32
 70
     1
102
RTVSPost2010Prop33
280
     0
102
RTVSPost2010PropOp33
 70
     1
102
RTVSPost2010Prop34
280
     0
102
RTVSPost2010PropOp34
 70
     1
102
RTVSPost2010Prop35
280
     0
102
RTVSPost2010PropOp35
 70
     1
102
RTVSPost2010Prop36
280
     0
102
RTVSPost2010PropOp36
 70
     1
102
RTVSPost2010Prop37
 90
       50
102
RTVSPost2010PropOp37
 70
     1
102
RTVSPost2010Prop38
140
0.0
102
RTVSPost2010PropOp38
 70
     1
102
RTVSPost2010Prop39
140
1.0
102
RTVSPost2010PropOp39
 70
     1
102
RTVSPost2010Prop40
 90
        0
102
RTVSPost2010PropOp40
 70
     1
102
RTVSPost2010Prop41ColorIndex
 90
       18
102
RTVSPost2010Prop41ColorRGB
 90
        0
102
RTVSPost2010PropOp41
 70
     1
102
RTVSPost2010Prop42
 90
       50
102
RTVSPost2010PropOp42
 70
     1
102
RTVSPost2010Prop43
 90
        3
102
RTVSPost2010PropOp43
 70
     1
102
RTVSPost2010Prop44ColorIndex
 90
        5
102
RTVSPost2010Prop44ColorRGB
 90
      255
102
RTVSPost2010PropOp44
 70
     1
102
RTVSPost2010Prop45
280
     0
102
RTVSPost2010PropOp45
 70
     1
102
RTVSPost2010Prop46
 90
       50
102
RTVSPost2010PropOp46
 70
     1
102
RTVSPost2010Prop47
 90
       50
102
RTVSPost2010PropOp47
 70
     1
102
RTVSPost2010Prop48
 90
       50
102
RTVSPost2010PropOp48
 70
     1
102
RTVSPost2010Prop49
280
     0
102
RTVSPost2010PropOp49
 70
     1
102
RTVSPost2010Prop50
 90
       50
102
RTVSPost2010PropOp50
 70
     1
102
RTVSPost2010Prop51ColorIndex
 90
      256
102
RTVSPost2010Prop51ColorRGB
 90
-16777216
102
RTVSPost2010PropOp51
 70
     0
102
RTVSPost2010Prop52
140
1.0
102
RTVSPost2010PropOp52
 70
     0
102
RTVSPost2010Prop53
 90
        2
102
RTVSPost2010PropOp53
 70
     1
102
RTVSPost2010Prop54
  1
strokes_ogs.tif
102
RTVSPost2010PropOp54
 70
     1
102
RTVSPost2010Prop55
280
     0
102
RTVSPost2010PropOp55
 70
     1
102
RTVSPost2010Prop56
140
1.0
102
RTVSPost2010PropOp56
 70
     1
102
RTVSPost2010Prop57
140
1.0
102
RTVSPost2010PropOp57
 70
     1
102
RTVSPropertyOp0
 70
     1
102
RTVSPropertyOp1
 70
     1
102
RTVSPropertyOp2
 70
     1
102
RTVSPropertyOp3
 70
     1
102
RTVSPropertyOp4
 70
     1
102
RTVSPropertyOp5
 70
     1
102
RTVSPropertyOp6
 70
     1
102
RTVSPropertyOp7
 70
     1
102
RTVSPropertyOp8
 70
     1
102
RTVSPropertyOp9
 70
     1
102
RTVSPropertyOp10
 70
     1
102
RTVSPropertyOp11
 70
     1
102
RTVSPropertyOp12
 70
     1
102
RTVSPropertyOp13
 70
     1
102
RTVSPropertyOp14
 70
     1
102
RTVSPropertyOp15
 70
     1
102
RTVSPropertyOp16
 70
     1
102
RTVSPropertyOp17
 70
     1
102
RTVSPropertyOp18
 70
     1
102
RTVSPropertyOp19
 70
     1
102
RTVSPropertyOp20
 70
     1
102
RTVSPropertyOp21
 70
     1
102
RTVSPropertyOp22
 70
     1
102
RTVSPropertyOp23
 70
     1
102
RTVSPropertyOp24
 70
     1
102
RTVSPropertyOp25
 70
     1
102
RTVSPropertyOp26
 70
     1
102
RTVSPropertyOp27
 70
     1
102
RTVSPropertyOp28
 70
     1
102
RTVSPropertyOp29
 70
     1
102
RTVSPropertyOp30
 70
     1
102
RTVSPropertyOp31
 70
     1
102
RTVSPropertyOp32
 70
     1
102
RTVSPropertyOp33
 70
     1
102
RTVSPropertyOp34
 70
     1
102
RTVSPropertyOp35
 70
     1
102
RTVSPropertyOp36
 70
     1
102
RTVSPropertyOp37
 70
     1
102
RTVSPropertyOp38
 70
     1
102
RTVSPropertyOp39
 70
     1
102
RTVSPropertyOp40
 70
     1
102
RTVSPropertyOp41
 70
     1
102
RTVSPropertyOp42
 70
     1
102
RTVSPropertyOp43
 70
     1
102
RTVSPropertyOp44
 70
     1
102
RTVSPropertyOp45
 70
     1
102
RTVSPropertyOp46
 70
     1
102
RTVSPropertyOp47
 70
     1
102
RTVSPropertyOp48
 70
     1
102
RTVSPropertyOp49
 70
     1
102
RTVSPropertyOp50
 70
     1
102
RTVSPropertyOp51
 70
     0
102
RTVSPropertyOp52
 70
     0
102
RTVSPropertyOp53
 70
     1
102
RTVSPropertyOp54
 70
     1
102
RTVSPropertyOp55
 70
     1
102
RTVSPropertyOp56
 70
     1
102
RTVSPropertyOp57
 70
     1
102
RTVSPropertyOp58
 70
     1
102
RTVSPropertyOp59
 70
     1
102
RTVSPropertyOp60
 70
     1
102
RTVSPropertyOp61
 70
     1
102
RTVSPropertyOp62
 70
     1
  0
XRECORD
  5
B59E
102
{ACAD_REACTORS
330
B59D
102
}
330
B59D
100
AcDbXrecord
280
     1
102
RTVSPost2010Prop28
280
     0
102
RTVSPost2010PropOp28
 70
     0
102
RTVSPost2010Prop29
280
     1
102
RTVSPost2010PropOp29
 70
     0
102
RTVSPost2010Prop30
280
     1
102
RTVSPost2010PropOp30
 70
     0
102
RTVSPost2010Prop31
280
     0
102
RTVSPost2010PropOp31
 70
     0
102
RTVSPost2010Prop32
280
     0
102
RTVSPost2010PropOp32
 70
     0
102
RTVSPost2010Prop33
280
     0
102
RTVSPost2010PropOp33
 70
     0
102
RTVSPost2010Prop34
280
     0
102
RTVSPost2010PropOp34
 70
     0
102
RTVSPost2010Prop35
280
     0
102
RTVSPost2010PropOp35
 70
     0
102
RTVSPost2010Prop36
280
     0
102
RTVSPost2010PropOp36
 70
     0
102
RTVSPost2010Prop37
 90
       50
102
RTVSPost2010PropOp37
 70
     0
102
RTVSPost2010Prop38
140
0.0
102
RTVSPost2010PropOp38
 70
     0
102
RTVSPost2010Prop39
140
1.0
102
RTVSPost2010PropOp39
 70
     0
102
RTVSPost2010Prop40
 90
        0
102
RTVSPost2010PropOp40
 70
     0
102
RTVSPost2010Prop41ColorIndex
 90
       18
102
RTVSPost2010Prop41ColorRGB
 90
        0
102
RTVSPost2010PropOp41
 70
     0
102
RTVSPost2010Prop42
 90
       50
102
RTVSPost2010PropOp42
 70
     0
102
RTVSPost2010Prop43
 90
        3
102
RTVSPost2010PropOp43
 70
     0
102
RTVSPost2010Prop44ColorIndex
 90
        5
102
RTVSPost2010Prop44ColorRGB
 90
      255
102
RTVSPost2010PropOp44
 70
     0
102
RTVSPost2010Prop45
280
     0
102
RTVSPost2010PropOp45
 70
     0
102
RTVSPost2010Prop46
 90
       50
102
RTVSPost2010PropOp46
 70
     0
102
RTVSPost2010Prop47
 90
       50
102
RTVSPost2010PropOp47
 70
     0
102
RTVSPost2010Prop48
 90
       50
102
RTVSPost2010PropOp48
 70
     0
102
RTVSPost2010Prop49
280
     0
102
RTVSPost2010PropOp49
 70
     0
102
RTVSPost2010Prop50
 90
       50
102
RTVSPost2010PropOp50
 70
     0
102
RTVSPost2010Prop51ColorIndex
 90
      256
102
RTVSPost2010Prop51ColorRGB
 90
-16777216
102
RTVSPost2010PropOp51
 70
     0
102
RTVSPost2010Prop52
140
1.0
102
RTVSPost2010PropOp52
 70
     0
102
RTVSPost2010Prop53
 90
        2
102
RTVSPost2010PropOp53
 70
     0
102
RTVSPost2010Prop54
  1
strokes_ogs.tif
102
RTVSPost2010PropOp54
 70
     0
102
RTVSPost2010Prop55
280
     0
102
RTVSPost2010PropOp55
 70
     0
102
RTVSPost2010Prop56
140
1.0
102
RTVSPost2010PropOp56
 70
     0
102
RTVSPost2010Prop57
140
1.0
102
RTVSPost2010PropOp57
 70
     0
102
RTVSPropertyOp0
 70
     0
102
RTVSPropertyOp1
 70
     0
102
RTVSPropertyOp2
 70
     0
102
RTVSPropertyOp3
 70
     0
102
RTVSPropertyOp4
 70
     0
102
RTVSPropertyOp5
 70
     0
102
RTVSPropertyOp6
 70
     0
102
RTVSPropertyOp7
 70
     0
102
RTVSPropertyOp8
 70
     0
102
RTVSPropertyOp9
 70
     0
102
RTVSPropertyOp10
 70
     0
102
RTVSPropertyOp11
 70
     0
102
RTVSPropertyOp12
 70
     0
102
RTVSPropertyOp13
 70
     0
102
RTVSPropertyOp14
 70
     2
102
RTVSPropertyOp15
 70
     0
102
RTVSPropertyOp16
 70
     0
102
RTVSPropertyOp17
 70
     0
102
RTVSPropertyOp18
 70
     0
102
RTVSPropertyOp19
 70
     0
102
RTVSPropertyOp20
 70
     0
102
RTVSPropertyOp21
 70
     0
102
RTVSPropertyOp22
 70
     0
102
RTVSPropertyOp23
 70
     0
102
RTVSPropertyOp24
 70
     0
102
RTVSPropertyOp25
 70
     0
102
RTVSPropertyOp26
 70
     0
102
RTVSPropertyOp27
 70
     0
102
RTVSPropertyOp28
 70
     0
102
RTVSPropertyOp29
 70
     0
102
RTVSPropertyOp30
 70
     0
102
RTVSPropertyOp31
 70
     0
102
RTVSPropertyOp32
 70
     0
102
RTVSPropertyOp33
 70
     0
102
RTVSPropertyOp34
 70
     0
102
RTVSPropertyOp35
 70
     0
102
RTVSPropertyOp36
 70
     0
102
RTVSPropertyOp37
 70
     0
102
RTVSPropertyOp38
 70
     0
102
RTVSPropertyOp39
 70
     0
102
RTVSPropertyOp40
 70
     0
102
RTVSPropertyOp41
 70
     0
102
RTVSPropertyOp42
 70
     0
102
RTVSPropertyOp43
 70
     0
102
RTVSPropertyOp44
 70
     0
102
RTVSPropertyOp45
 70
     0
102
RTVSPropertyOp46
 70
     0
102
RTVSPropertyOp47
 70
     0
102
RTVSPropertyOp48
 70
     0
102
RTVSPropertyOp49
 70
     0
102
RTVSPropertyOp50
 70
     0
102
RTVSPropertyOp51
 70
     0
102
RTVSPropertyOp52
 70
     0
102
RTVSPropertyOp53
 70
     0
102
RTVSPropertyOp54
 70
     0
102
RTVSPropertyOp55
 70
     0
102
RTVSPropertyOp56
 70
     0
102
RTVSPropertyOp57
 70
     0
102
RTVSPropertyOp58
 70
     1
102
RTVSPropertyOp59
 70
     1
102
RTVSPropertyOp60
 70
     1
102
RTVSPropertyOp61
 70
     1
102
RTVSPropertyOp62
 70
     1
  0
XRECORD
  5
B58C
102
{ACAD_REACTORS
330
B58B
102
}
330
B58B
100
AcDbXrecord
280
     1
102
RTVSPost2010Prop28
280
     0
102
RTVSPost2010PropOp28
 70
     1
102
RTVSPost2010Prop29
280
     1
102
RTVSPost2010PropOp29
 70
     1
102
RTVSPost2010Prop30
280
     1
102
RTVSPost2010PropOp30
 70
     1
102
RTVSPost2010Prop31
280
     0
102
RTVSPost2010PropOp31
 70
     1
102
RTVSPost2010Prop32
280
     0
102
RTVSPost2010PropOp32
 70
     1
102
RTVSPost2010Prop33
280
     0
102
RTVSPost2010PropOp33
 70
     1
102
RTVSPost2010Prop34
280
     0
102
RTVSPost2010PropOp34
 70
     1
102
RTVSPost2010Prop35
280
     0
102
RTVSPost2010PropOp35
 70
     1
102
RTVSPost2010Prop36
280
     0
102
RTVSPost2010PropOp36
 70
     1
102
RTVSPost2010Prop37
 90
       50
102
RTVSPost2010PropOp37
 70
     1
102
RTVSPost2010Prop38
140
0.0
102
RTVSPost2010PropOp38
 70
     1
102
RTVSPost2010Prop39
140
1.0
102
RTVSPost2010PropOp39
 70
     1
102
RTVSPost2010Prop40
 90
        0
102
RTVSPost2010PropOp40
 70
     1
102
RTVSPost2010Prop41ColorIndex
 90
       18
102
RTVSPost2010Prop41ColorRGB
 90
        0
102
RTVSPost2010PropOp41
 70
     1
102
RTVSPost2010Prop42
 90
       50
102
RTVSPost2010PropOp42
 70
     1
102
RTVSPost2010Prop43
 90
        3
102
RTVSPost2010PropOp43
 70
     1
102
RTVSPost2010Prop44ColorIndex
 90
        5
102
RTVSPost2010Prop44ColorRGB
 90
      255
102
RTVSPost2010PropOp44
 70
     1
102
RTVSPost2010Prop45
280
     0
102
RTVSPost2010PropOp45
 70
     1
102
RTVSPost2010Prop46
 90
       50
102
RTVSPost2010PropOp46
 70
     1
102
RTVSPost2010Prop47
 90
       50
102
RTVSPost2010PropOp47
 70
     1
102
RTVSPost2010Prop48
 90
       50
102
RTVSPost2010PropOp48
 70
     1
102
RTVSPost2010Prop49
280
     0
102
RTVSPost2010PropOp49
 70
     1
102
RTVSPost2010Prop50
 90
       50
102
RTVSPost2010PropOp50
 70
     1
102
RTVSPost2010Prop51ColorIndex
 90
      256
102
RTVSPost2010Prop51ColorRGB
 90
-16777216
102
RTVSPost2010PropOp51
 70
     0
102
RTVSPost2010Prop52
140
1.0
102
RTVSPost2010PropOp52
 70
     0
102
RTVSPost2010Prop53
 90
        2
102
RTVSPost2010PropOp53
 70
     1
102
RTVSPost2010Prop54
  1
strokes_ogs.tif
102
RTVSPost2010PropOp54
 70
     1
102
RTVSPost2010Prop55
280
     0
102
RTVSPost2010PropOp55
 70
     1
102
RTVSPost2010Prop56
140
1.0
102
RTVSPost2010PropOp56
 70
     1
102
RTVSPost2010Prop57
140
1.0
102
RTVSPost2010PropOp57
 70
     1
102
RTVSPropertyOp0
 70
     1
102
RTVSPropertyOp1
 70
     1
102
RTVSPropertyOp2
 70
     1
102
RTVSPropertyOp3
 70
     1
102
RTVSPropertyOp4
 70
     1
102
RTVSPropertyOp5
 70
     1
102
RTVSPropertyOp6
 70
     1
102
RTVSPropertyOp7
 70
     1
102
RTVSPropertyOp8
 70
     1
102
RTVSPropertyOp9
 70
     1
102
RTVSPropertyOp10
 70
     1
102
RTVSPropertyOp11
 70
     1
102
RTVSPropertyOp12
 70
     1
102
RTVSPropertyOp13
 70
     1
102
RTVSPropertyOp14
 70
     1
102
RTVSPropertyOp15
 70
     1
102
RTVSPropertyOp16
 70
     1
102
RTVSPropertyOp17
 70
     1
102
RTVSPropertyOp18
 70
     1
102
RTVSPropertyOp19
 70
     1
102
RTVSPropertyOp20
 70
     1
102
RTVSPropertyOp21
 70
     1
102
RTVSPropertyOp22
 70
     1
102
RTVSPropertyOp23
 70
     1
102
RTVSPropertyOp24
 70
     1
102
RTVSPropertyOp25
 70
     1
102
RTVSPropertyOp26
 70
     1
102
RTVSPropertyOp27
 70
     1
102
RTVSPropertyOp28
 70
     1
102
RTVSPropertyOp29
 70
     1
102
RTVSPropertyOp30
 70
     1
102
RTVSPropertyOp31
 70
     1
102
RTVSPropertyOp32
 70
     1
102
RTVSPropertyOp33
 70
     1
102
RTVSPropertyOp34
 70
     1
102
RTVSPropertyOp35
 70
     1
102
RTVSPropertyOp36
 70
     1
102
RTVSPropertyOp37
 70
     1
102
RTVSPropertyOp38
 70
     1
102
RTVSPropertyOp39
 70
     1
102
RTVSPropertyOp40
 70
     1
102
RTVSPropertyOp41
 70
     1
102
RTVSPropertyOp42
 70
     1
102
RTVSPropertyOp43
 70
     1
102
RTVSPropertyOp44
 70
     1
102
RTVSPropertyOp45
 70
     1
102
RTVSPropertyOp46
 70
     1
102
RTVSPropertyOp47
 70
     1
102
RTVSPropertyOp48
 70
     1
102
RTVSPropertyOp49
 70
     1
102
RTVSPropertyOp50
 70
     1
102
RTVSPropertyOp51
 70
     0
102
RTVSPropertyOp52
 70
     0
102
RTVSPropertyOp53
 70
     1
102
RTVSPropertyOp54
 70
     1
102
RTVSPropertyOp55
 70
     1
102
RTVSPropertyOp56
 70
     1
102
RTVSPropertyOp57
 70
     1
102
RTVSPropertyOp58
 70
     1
102
RTVSPropertyOp59
 70
     1
102
RTVSPropertyOp60
 70
     1
102
RTVSPropertyOp61
 70
     1
102
RTVSPropertyOp62
 70
     1
  0
XRECORD
  5
B570
102
{ACAD_REACTORS
330
B56F
102
}
330
B56F
100
AcDbXrecord
280
     1
102
RTVSPost2010Prop28
280
     0
102
RTVSPost2010PropOp28
 70
     1
102
RTVSPost2010Prop29
280
     1
102
RTVSPost2010PropOp29
 70
     1
102
RTVSPost2010Prop30
280
     1
102
RTVSPost2010PropOp30
 70
     1
102
RTVSPost2010Prop31
280
     0
102
RTVSPost2010PropOp31
 70
     1
102
RTVSPost2010Prop32
280
     0
102
RTVSPost2010PropOp32
 70
     1
102
RTVSPost2010Prop33
280
     0
102
RTVSPost2010PropOp33
 70
     1
102
RTVSPost2010Prop34
280
     0
102
RTVSPost2010PropOp34
 70
     1
102
RTVSPost2010Prop35
280
     0
102
RTVSPost2010PropOp35
 70
     1
102
RTVSPost2010Prop36
280
     0
102
RTVSPost2010PropOp36
 70
     1
102
RTVSPost2010Prop37
 90
       50
102
RTVSPost2010PropOp37
 70
     1
102
RTVSPost2010Prop38
140
0.0
102
RTVSPost2010PropOp38
 70
     1
102
RTVSPost2010Prop39
140
1.0
102
RTVSPost2010PropOp39
 70
     1
102
RTVSPost2010Prop40
 90
        0
102
RTVSPost2010PropOp40
 70
     1
102
RTVSPost2010Prop41ColorIndex
 90
       18
102
RTVSPost2010Prop41ColorRGB
 90
        0
102
RTVSPost2010PropOp41
 70
     1
102
RTVSPost2010Prop42
 90
       50
102
RTVSPost2010PropOp42
 70
     1
102
RTVSPost2010Prop43
 90
        3
102
RTVSPost2010PropOp43
 70
     1
102
RTVSPost2010Prop44ColorIndex
 90
        5
102
RTVSPost2010Prop44ColorRGB
 90
      255
102
RTVSPost2010PropOp44
 70
     1
102
RTVSPost2010Prop45
280
     0
102
RTVSPost2010PropOp45
 70
     1
102
RTVSPost2010Prop46
 90
       50
102
RTVSPost2010PropOp46
 70
     1
102
RTVSPost2010Prop47
 90
       50
102
RTVSPost2010PropOp47
 70
     1
102
RTVSPost2010Prop48
 90
       50
102
RTVSPost2010PropOp48
 70
     1
102
RTVSPost2010Prop49
280
     0
102
RTVSPost2010PropOp49
 70
     1
102
RTVSPost2010Prop50
 90
       50
102
RTVSPost2010PropOp50
 70
     1
102
RTVSPost2010Prop51ColorIndex
 90
      256
102
RTVSPost2010Prop51ColorRGB
 90
-16777216
102
RTVSPost2010PropOp51
 70
     0
102
RTVSPost2010Prop52
140
1.0
102
RTVSPost2010PropOp52
 70
     0
102
RTVSPost2010Prop53
 90
        2
102
RTVSPost2010PropOp53
 70
     1
102
RTVSPost2010Prop54
  1
strokes_ogs.tif
102
RTVSPost2010PropOp54
 70
     1
102
RTVSPost2010Prop55
280
     0
102
RTVSPost2010PropOp55
 70
     1
102
RTVSPost2010Prop56
140
1.0
102
RTVSPost2010PropOp56
 70
     1
102
RTVSPost2010Prop57
140
1.0
102
RTVSPost2010PropOp57
 70
     1
102
RTVSPropertyOp0
 70
     1
102
RTVSPropertyOp1
 70
     1
102
RTVSPropertyOp2
 70
     1
102
RTVSPropertyOp3
 70
     1
102
RTVSPropertyOp4
 70
     1
102
RTVSPropertyOp5
 70
     1
102
RTVSPropertyOp6
 70
     1
102
RTVSPropertyOp7
 70
     1
102
RTVSPropertyOp8
 70
     1
102
RTVSPropertyOp9
 70
     1
102
RTVSPropertyOp10
 70
     1
102
RTVSPropertyOp11
 70
     1
102
RTVSPropertyOp12
 70
     1
102
RTVSPropertyOp13
 70
     1
102
RTVSPropertyOp14
 70
     1
102
RTVSPropertyOp15
 70
     1
102
RTVSPropertyOp16
 70
     1
102
RTVSPropertyOp17
 70
     1
102
RTVSPropertyOp18
 70
     1
102
RTVSPropertyOp19
 70
     1
102
RTVSPropertyOp20
 70
     1
102
RTVSPropertyOp21
 70
     1
102
RTVSPropertyOp22
 70
     1
102
RTVSPropertyOp23
 70
     1
102
RTVSPropertyOp24
 70
     1
102
RTVSPropertyOp25
 70
     1
102
RTVSPropertyOp26
 70
     1
102
RTVSPropertyOp27
 70
     1
102
RTVSPropertyOp28
 70
     1
102
RTVSPropertyOp29
 70
     1
102
RTVSPropertyOp30
 70
     1
102
RTVSPropertyOp31
 70
     1
102
RTVSPropertyOp32
 70
     1
102
RTVSPropertyOp33
 70
     1
102
RTVSPropertyOp34
 70
     1
102
RTVSPropertyOp35
 70
     1
102
RTVSPropertyOp36
 70
     1
102
RTVSPropertyOp37
 70
     1
102
RTVSPropertyOp38
 70
     1
102
RTVSPropertyOp39
 70
     1
102
RTVSPropertyOp40
 70
     1
102
RTVSPropertyOp41
 70
     1
102
RTVSPropertyOp42
 70
     1
102
RTVSPropertyOp43
 70
     1
102
RTVSPropertyOp44
 70
     1
102
RTVSPropertyOp45
 70
     1
102
RTVSPropertyOp46
 70
     1
102
RTVSPropertyOp47
 70
     1
102
RTVSPropertyOp48
 70
     1
102
RTVSPropertyOp49
 70
     1
102
RTVSPropertyOp50
 70
     1
102
RTVSPropertyOp51
 70
     0
102
RTVSPropertyOp52
 70
     0
102
RTVSPropertyOp53
 70
     1
102
RTVSPropertyOp54
 70
     1
102
RTVSPropertyOp55
 70
     1
102
RTVSPropertyOp56
 70
     1
102
RTVSPropertyOp57
 70
     1
102
RTVSPropertyOp58
 70
     1
102
RTVSPropertyOp59
 70
     1
102
RTVSPropertyOp60
 70
     1
102
RTVSPropertyOp61
 70
     1
102
RTVSPropertyOp62
 70
     1
  0
XRECORD
  5
B572
102
{ACAD_REACTORS
330
B571
102
}
330
B571
100
AcDbXrecord
280
     1
102
RTVSPost2010Prop28
280
     0
102
RTVSPost2010PropOp28
 70
     1
102
RTVSPost2010Prop29
280
     1
102
RTVSPost2010PropOp29
 70
     1
102
RTVSPost2010Prop30
280
     1
102
RTVSPost2010PropOp30
 70
     1
102
RTVSPost2010Prop31
280
     0
102
RTVSPost2010PropOp31
 70
     1
102
RTVSPost2010Prop32
280
     0
102
RTVSPost2010PropOp32
 70
     1
102
RTVSPost2010Prop33
280
     0
102
RTVSPost2010PropOp33
 70
     1
102
RTVSPost2010Prop34
280
     0
102
RTVSPost2010PropOp34
 70
     1
102
RTVSPost2010Prop35
280
     0
102
RTVSPost2010PropOp35
 70
     1
102
RTVSPost2010Prop36
280
     0
102
RTVSPost2010PropOp36
 70
     1
102
RTVSPost2010Prop37
 90
       50
102
RTVSPost2010PropOp37
 70
     1
102
RTVSPost2010Prop38
140
0.0
102
RTVSPost2010PropOp38
 70
     1
102
RTVSPost2010Prop39
140
1.0
102
RTVSPost2010PropOp39
 70
     1
102
RTVSPost2010Prop40
 90
        0
102
RTVSPost2010PropOp40
 70
     1
102
RTVSPost2010Prop41ColorIndex
 90
       18
102
RTVSPost2010Prop41ColorRGB
 90
        0
102
RTVSPost2010PropOp41
 70
     1
102
RTVSPost2010Prop42
 90
       50
102
RTVSPost2010PropOp42
 70
     1
102
RTVSPost2010Prop43
 90
        3
102
RTVSPost2010PropOp43
 70
     1
102
RTVSPost2010Prop44ColorIndex
 90
        5
102
RTVSPost2010Prop44ColorRGB
 90
      255
102
RTVSPost2010PropOp44
 70
     1
102
RTVSPost2010Prop45
280
     0
102
RTVSPost2010PropOp45
 70
     1
102
RTVSPost2010Prop46
 90
       50
102
RTVSPost2010PropOp46
 70
     1
102
RTVSPost2010Prop47
 90
       50
102
RTVSPost2010PropOp47
 70
     1
102
RTVSPost2010Prop48
 90
       50
102
RTVSPost2010PropOp48
 70
     1
102
RTVSPost2010Prop49
280
     0
102
RTVSPost2010PropOp49
 70
     1
102
RTVSPost2010Prop50
 90
       50
102
RTVSPost2010PropOp50
 70
     1
102
RTVSPost2010Prop51ColorIndex
 90
      256
102
RTVSPost2010Prop51ColorRGB
 90
-16777216
102
RTVSPost2010PropOp51
 70
     0
102
RTVSPost2010Prop52
140
1.0
102
RTVSPost2010PropOp52
 70
     0
102
RTVSPost2010Prop53
 90
        2
102
RTVSPost2010PropOp53
 70
     1
102
RTVSPost2010Prop54
  1
strokes_ogs.tif
102
RTVSPost2010PropOp54
 70
     1
102
RTVSPost2010Prop55
280
     0
102
RTVSPost2010PropOp55
 70
     1
102
RTVSPost2010Prop56
140
1.0
102
RTVSPost2010PropOp56
 70
     1
102
RTVSPost2010Prop57
140
1.0
102
RTVSPost2010PropOp57
 70
     1
102
RTVSPropertyOp0
 70
     1
102
RTVSPropertyOp1
 70
     1
102
RTVSPropertyOp2
 70
     1
102
RTVSPropertyOp3
 70
     1
102
RTVSPropertyOp4
 70
     1
102
RTVSPropertyOp5
 70
     1
102
RTVSPropertyOp6
 70
     1
102
RTVSPropertyOp7
 70
     1
102
RTVSPropertyOp8
 70
     1
102
RTVSPropertyOp9
 70
     1
102
RTVSPropertyOp10
 70
     1
102
RTVSPropertyOp11
 70
     1
102
RTVSPropertyOp12
 70
     1
102
RTVSPropertyOp13
 70
     1
102
RTVSPropertyOp14
 70
     1
102
RTVSPropertyOp15
 70
     1
102
RTVSPropertyOp16
 70
     1
102
RTVSPropertyOp17
 70
     1
102
RTVSPropertyOp18
 70
     1
102
RTVSPropertyOp19
 70
     1
102
RTVSPropertyOp20
 70
     1
102
RTVSPropertyOp21
 70
     1
102
RTVSPropertyOp22
 70
     1
102
RTVSPropertyOp23
 70
     1
102
RTVSPropertyOp24
 70
     1
102
RTVSPropertyOp25
 70
     1
102
RTVSPropertyOp26
 70
     1
102
RTVSPropertyOp27
 70
     1
102
RTVSPropertyOp28
 70
     1
102
RTVSPropertyOp29
 70
     1
102
RTVSPropertyOp30
 70
     1
102
RTVSPropertyOp31
 70
     1
102
RTVSPropertyOp32
 70
     1
102
RTVSPropertyOp33
 70
     1
102
RTVSPropertyOp34
 70
     1
102
RTVSPropertyOp35
 70
     1
102
RTVSPropertyOp36
 70
     1
102
RTVSPropertyOp37
 70
     1
102
RTVSPropertyOp38
 70
     1
102
RTVSPropertyOp39
 70
     1
102
RTVSPropertyOp40
 70
     1
102
RTVSPropertyOp41
 70
     1
102
RTVSPropertyOp42
 70
     1
102
RTVSPropertyOp43
 70
     1
102
RTVSPropertyOp44
 70
     1
102
RTVSPropertyOp45
 70
     1
102
RTVSPropertyOp46
 70
     1
102
RTVSPropertyOp47
 70
     1
102
RTVSPropertyOp48
 70
     1
102
RTVSPropertyOp49
 70
     1
102
RTVSPropertyOp50
 70
     1
102
RTVSPropertyOp51
 70
     0
102
RTVSPropertyOp52
 70
     0
102
RTVSPropertyOp53
 70
     1
102
RTVSPropertyOp54
 70
     1
102
RTVSPropertyOp55
 70
     1
102
RTVSPropertyOp56
 70
     1
102
RTVSPropertyOp57
 70
     1
102
RTVSPropertyOp58
 70
     1
102
RTVSPropertyOp59
 70
     1
102
RTVSPropertyOp60
 70
     1
102
RTVSPropertyOp61
 70
     1
102
RTVSPropertyOp62
 70
     1
  0
XRECORD
  5
B574
102
{ACAD_REACTORS
330
B573
102
}
330
B573
100
AcDbXrecord
280
     1
102
RTVSPost2010Prop28
280
     0
102
RTVSPost2010PropOp28
 70
     1
102
RTVSPost2010Prop29
280
     1
102
RTVSPost2010PropOp29
 70
     1
102
RTVSPost2010Prop30
280
     1
102
RTVSPost2010PropOp30
 70
     1
102
RTVSPost2010Prop31
280
     0
102
RTVSPost2010PropOp31
 70
     1
102
RTVSPost2010Prop32
280
     0
102
RTVSPost2010PropOp32
 70
     1
102
RTVSPost2010Prop33
280
     0
102
RTVSPost2010PropOp33
 70
     1
102
RTVSPost2010Prop34
280
     0
102
RTVSPost2010PropOp34
 70
     1
102
RTVSPost2010Prop35
280
     0
102
RTVSPost2010PropOp35
 70
     1
102
RTVSPost2010Prop36
280
     0
102
RTVSPost2010PropOp36
 70
     1
102
RTVSPost2010Prop37
 90
       50
102
RTVSPost2010PropOp37
 70
     1
102
RTVSPost2010Prop38
140
0.0
102
RTVSPost2010PropOp38
 70
     1
102
RTVSPost2010Prop39
140
1.0
102
RTVSPost2010PropOp39
 70
     1
102
RTVSPost2010Prop40
 90
        0
102
RTVSPost2010PropOp40
 70
     1
102
RTVSPost2010Prop41ColorIndex
 90
       18
102
RTVSPost2010Prop41ColorRGB
 90
        0
102
RTVSPost2010PropOp41
 70
     1
102
RTVSPost2010Prop42
 90
       50
102
RTVSPost2010PropOp42
 70
     1
102
RTVSPost2010Prop43
 90
        3
102
RTVSPost2010PropOp43
 70
     1
102
RTVSPost2010Prop44ColorIndex
 90
        5
102
RTVSPost2010Prop44ColorRGB
 90
      255
102
RTVSPost2010PropOp44
 70
     1
102
RTVSPost2010Prop45
280
     0
102
RTVSPost2010PropOp45
 70
     1
102
RTVSPost2010Prop46
 90
       50
102
RTVSPost2010PropOp46
 70
     1
102
RTVSPost2010Prop47
 90
       50
102
RTVSPost2010PropOp47
 70
     1
102
RTVSPost2010Prop48
 90
       50
102
RTVSPost2010PropOp48
 70
     1
102
RTVSPost2010Prop49
280
     0
102
RTVSPost2010PropOp49
 70
     1
102
RTVSPost2010Prop50
 90
       50
102
RTVSPost2010PropOp50
 70
     1
102
RTVSPost2010Prop51ColorIndex
 90
      256
102
RTVSPost2010Prop51ColorRGB
 90
-16777216
102
RTVSPost2010PropOp51
 70
     0
102
RTVSPost2010Prop52
140
1.0
102
RTVSPost2010PropOp52
 70
     0
102
RTVSPost2010Prop53
 90
        2
102
RTVSPost2010PropOp53
 70
     1
102
RTVSPost2010Prop54
  1
strokes_ogs.tif
102
RTVSPost2010PropOp54
 70
     1
102
RTVSPost2010Prop55
280
     0
102
RTVSPost2010PropOp55
 70
     1
102
RTVSPost2010Prop56
140
1.0
102
RTVSPost2010PropOp56
 70
     1
102
RTVSPost2010Prop57
140
1.0
102
RTVSPost2010PropOp57
 70
     1
102
RTVSPropertyOp0
 70
     1
102
RTVSPropertyOp1
 70
     1
102
RTVSPropertyOp2
 70
     1
102
RTVSPropertyOp3
 70
     1
102
RTVSPropertyOp4
 70
     1
102
RTVSPropertyOp5
 70
     1
102
RTVSPropertyOp6
 70
     1
102
RTVSPropertyOp7
 70
     1
102
RTVSPropertyOp8
 70
     1
102
RTVSPropertyOp9
 70
     1
102
RTVSPropertyOp10
 70
     1
102
RTVSPropertyOp11
 70
     1
102
RTVSPropertyOp12
 70
     1
102
RTVSPropertyOp13
 70
     1
102
RTVSPropertyOp14
 70
     1
102
RTVSPropertyOp15
 70
     1
102
RTVSPropertyOp16
 70
     1
102
RTVSPropertyOp17
 70
     1
102
RTVSPropertyOp18
 70
     1
102
RTVSPropertyOp19
 70
     1
102
RTVSPropertyOp20
 70
     1
102
RTVSPropertyOp21
 70
     1
102
RTVSPropertyOp22
 70
     1
102
RTVSPropertyOp23
 70
     1
102
RTVSPropertyOp24
 70
     1
102
RTVSPropertyOp25
 70
     1
102
RTVSPropertyOp26
 70
     1
102
RTVSPropertyOp27
 70
     1
102
RTVSPropertyOp28
 70
     1
102
RTVSPropertyOp29
 70
     1
102
RTVSPropertyOp30
 70
     1
102
RTVSPropertyOp31
 70
     1
102
RTVSPropertyOp32
 70
     1
102
RTVSPropertyOp33
 70
     1
102
RTVSPropertyOp34
 70
     1
102
RTVSPropertyOp35
 70
     1
102
RTVSPropertyOp36
 70
     1
102
RTVSPropertyOp37
 70
     1
102
RTVSPropertyOp38
 70
     1
102
RTVSPropertyOp39
 70
     1
102
RTVSPropertyOp40
 70
     1
102
RTVSPropertyOp41
 70
     1
102
RTVSPropertyOp42
 70
     1
102
RTVSPropertyOp43
 70
     1
102
RTVSPropertyOp44
 70
     1
102
RTVSPropertyOp45
 70
     1
102
RTVSPropertyOp46
 70
     1
102
RTVSPropertyOp47
 70
     1
102
RTVSPropertyOp48
 70
     1
102
RTVSPropertyOp49
 70
     1
102
RTVSPropertyOp50
 70
     1
102
RTVSPropertyOp51
 70
     0
102
RTVSPropertyOp52
 70
     0
102
RTVSPropertyOp53
 70
     1
102
RTVSPropertyOp54
 70
     1
102
RTVSPropertyOp55
 70
     1
102
RTVSPropertyOp56
 70
     1
102
RTVSPropertyOp57
 70
     1
102
RTVSPropertyOp58
 70
     1
102
RTVSPropertyOp59
 70
     1
102
RTVSPropertyOp60
 70
     1
102
RTVSPropertyOp61
 70
     1
102
RTVSPropertyOp62
 70
     1
  0
XRECORD
  5
B576
102
{ACAD_REACTORS
330
B575
102
}
330
B575
100
AcDbXrecord
280
     1
102
RTVSPost2010Prop28
280
     0
102
RTVSPost2010PropOp28
 70
     1
102
RTVSPost2010Prop29
280
     1
102
RTVSPost2010PropOp29
 70
     1
102
RTVSPost2010Prop30
280
     1
102
RTVSPost2010PropOp30
 70
     1
102
RTVSPost2010Prop31
280
     0
102
RTVSPost2010PropOp31
 70
     1
102
RTVSPost2010Prop32
280
     0
102
RTVSPost2010PropOp32
 70
     1
102
RTVSPost2010Prop33
280
     0
102
RTVSPost2010PropOp33
 70
     1
102
RTVSPost2010Prop34
280
     0
102
RTVSPost2010PropOp34
 70
     1
102
RTVSPost2010Prop35
280
     0
102
RTVSPost2010PropOp35
 70
     1
102
RTVSPost2010Prop36
280
     0
102
RTVSPost2010PropOp36
 70
     1
102
RTVSPost2010Prop37
 90
       50
102
RTVSPost2010PropOp37
 70
     1
102
RTVSPost2010Prop38
140
0.0
102
RTVSPost2010PropOp38
 70
     1
102
RTVSPost2010Prop39
140
1.0
102
RTVSPost2010PropOp39
 70
     1
102
RTVSPost2010Prop40
 90
        0
102
RTVSPost2010PropOp40
 70
     1
102
RTVSPost2010Prop41ColorIndex
 90
       18
102
RTVSPost2010Prop41ColorRGB
 90
        0
102
RTVSPost2010PropOp41
 70
     1
102
RTVSPost2010Prop42
 90
       50
102
RTVSPost2010PropOp42
 70
     1
102
RTVSPost2010Prop43
 90
        3
102
RTVSPost2010PropOp43
 70
     1
102
RTVSPost2010Prop44ColorIndex
 90
        5
102
RTVSPost2010Prop44ColorRGB
 90
      255
102
RTVSPost2010PropOp44
 70
     1
102
RTVSPost2010Prop45
280
     0
102
RTVSPost2010PropOp45
 70
     1
102
RTVSPost2010Prop46
 90
       50
102
RTVSPost2010PropOp46
 70
     1
102
RTVSPost2010Prop47
 90
       50
102
RTVSPost2010PropOp47
 70
     1
102
RTVSPost2010Prop48
 90
       50
102
RTVSPost2010PropOp48
 70
     1
102
RTVSPost2010Prop49
280
     0
102
RTVSPost2010PropOp49
 70
     1
102
RTVSPost2010Prop50
 90
       50
102
RTVSPost2010PropOp50
 70
     1
102
RTVSPost2010Prop51ColorIndex
 90
      256
102
RTVSPost2010Prop51ColorRGB
 90
-16777216
102
RTVSPost2010PropOp51
 70
     0
102
RTVSPost2010Prop52
140
1.0
102
RTVSPost2010PropOp52
 70
     0
102
RTVSPost2010Prop53
 90
        2
102
RTVSPost2010PropOp53
 70
     1
102
RTVSPost2010Prop54
  1
strokes_ogs.tif
102
RTVSPost2010PropOp54
 70
     1
102
RTVSPost2010Prop55
280
     0
102
RTVSPost2010PropOp55
 70
     1
102
RTVSPost2010Prop56
140
1.0
102
RTVSPost2010PropOp56
 70
     1
102
RTVSPost2010Prop57
140
1.0
102
RTVSPost2010PropOp57
 70
     1
102
RTVSPropertyOp0
 70
     1
102
RTVSPropertyOp1
 70
     1
102
RTVSPropertyOp2
 70
     1
102
RTVSPropertyOp3
 70
     1
102
RTVSPropertyOp4
 70
     1
102
RTVSPropertyOp5
 70
     1
102
RTVSPropertyOp6
 70
     1
102
RTVSPropertyOp7
 70
     1
102
RTVSPropertyOp8
 70
     1
102
RTVSPropertyOp9
 70
     1
102
RTVSPropertyOp10
 70
     1
102
RTVSPropertyOp11
 70
     1
102
RTVSPropertyOp12
 70
     1
102
RTVSPropertyOp13
 70
     1
102
RTVSPropertyOp14
 70
     1
102
RTVSPropertyOp15
 70
     1
102
RTVSPropertyOp16
 70
     1
102
RTVSPropertyOp17
 70
     1
102
RTVSPropertyOp18
 70
     1
102
RTVSPropertyOp19
 70
     1
102
RTVSPropertyOp20
 70
     1
102
RTVSPropertyOp21
 70
     1
102
RTVSPropertyOp22
 70
     1
102
RTVSPropertyOp23
 70
     1
102
RTVSPropertyOp24
 70
     1
102
RTVSPropertyOp25
 70
     1
102
RTVSPropertyOp26
 70
     1
102
RTVSPropertyOp27
 70
     1
102
RTVSPropertyOp28
 70
     1
102
RTVSPropertyOp29
 70
     1
102
RTVSPropertyOp30
 70
     1
102
RTVSPropertyOp31
 70
     1
102
RTVSPropertyOp32
 70
     1
102
RTVSPropertyOp33
 70
     1
102
RTVSPropertyOp34
 70
     1
102
RTVSPropertyOp35
 70
     1
102
RTVSPropertyOp36
 70
     1
102
RTVSPropertyOp37
 70
     1
102
RTVSPropertyOp38
 70
     1
102
RTVSPropertyOp39
 70
     1
102
RTVSPropertyOp40
 70
     1
102
RTVSPropertyOp41
 70
     1
102
RTVSPropertyOp42
 70
     1
102
RTVSPropertyOp43
 70
     1
102
RTVSPropertyOp44
 70
     1
102
RTVSPropertyOp45
 70
     1
102
RTVSPropertyOp46
 70
     1
102
RTVSPropertyOp47
 70
     1
102
RTVSPropertyOp48
 70
     1
102
RTVSPropertyOp49
 70
     1
102
RTVSPropertyOp50
 70
     1
102
RTVSPropertyOp51
 70
     0
102
RTVSPropertyOp52
 70
     0
102
RTVSPropertyOp53
 70
     1
102
RTVSPropertyOp54
 70
     1
102
RTVSPropertyOp55
 70
     1
102
RTVSPropertyOp56
 70
     1
102
RTVSPropertyOp57
 70
     1
102
RTVSPropertyOp58
 70
     1
102
RTVSPropertyOp59
 70
     1
102
RTVSPropertyOp60
 70
     1
102
RTVSPropertyOp61
 70
     1
102
RTVSPropertyOp62
 70
     1
  0
XRECORD
  5
B57E
102
{ACAD_REACTORS
330
B57D
102
}
330
B57D
100
AcDbXrecord
280
     1
102
RTVSPost2010Prop28
280
     0
102
RTVSPost2010PropOp28
 70
     1
102
RTVSPost2010Prop29
280
     1
102
RTVSPost2010PropOp29
 70
     1
102
RTVSPost2010Prop30
280
     1
102
RTVSPost2010PropOp30
 70
     1
102
RTVSPost2010Prop31
280
     0
102
RTVSPost2010PropOp31
 70
     1
102
RTVSPost2010Prop32
280
     0
102
RTVSPost2010PropOp32
 70
     1
102
RTVSPost2010Prop33
280
     0
102
RTVSPost2010PropOp33
 70
     1
102
RTVSPost2010Prop34
280
     0
102
RTVSPost2010PropOp34
 70
     1
102
RTVSPost2010Prop35
280
     0
102
RTVSPost2010PropOp35
 70
     1
102
RTVSPost2010Prop36
280
     0
102
RTVSPost2010PropOp36
 70
     1
102
RTVSPost2010Prop37
 90
       50
102
RTVSPost2010PropOp37
 70
     1
102
RTVSPost2010Prop38
140
0.0
102
RTVSPost2010PropOp38
 70
     1
102
RTVSPost2010Prop39
140
1.0
102
RTVSPost2010PropOp39
 70
     1
102
RTVSPost2010Prop40
 90
        0
102
RTVSPost2010PropOp40
 70
     1
102
RTVSPost2010Prop41ColorIndex
 90
       18
102
RTVSPost2010Prop41ColorRGB
 90
        0
102
RTVSPost2010PropOp41
 70
     1
102
RTVSPost2010Prop42
 90
       50
102
RTVSPost2010PropOp42
 70
     1
102
RTVSPost2010Prop43
 90
        3
102
RTVSPost2010PropOp43
 70
     1
102
RTVSPost2010Prop44ColorIndex
 90
        5
102
RTVSPost2010Prop44ColorRGB
 90
      255
102
RTVSPost2010PropOp44
 70
     1
102
RTVSPost2010Prop45
280
     0
102
RTVSPost2010PropOp45
 70
     1
102
RTVSPost2010Prop46
 90
       50
102
RTVSPost2010PropOp46
 70
     1
102
RTVSPost2010Prop47
 90
       50
102
RTVSPost2010PropOp47
 70
     1
102
RTVSPost2010Prop48
 90
       50
102
RTVSPost2010PropOp48
 70
     1
102
RTVSPost2010Prop49
280
     0
102
RTVSPost2010PropOp49
 70
     1
102
RTVSPost2010Prop50
 90
       50
102
RTVSPost2010PropOp50
 70
     1
102
RTVSPost2010Prop51ColorIndex
 90
      256
102
RTVSPost2010Prop51ColorRGB
 90
-16777216
102
RTVSPost2010PropOp51
 70
     0
102
RTVSPost2010Prop52
140
1.0
102
RTVSPost2010PropOp52
 70
     0
102
RTVSPost2010Prop53
 90
        2
102
RTVSPost2010PropOp53
 70
     1
102
RTVSPost2010Prop54
  1
strokes_ogs.tif
102
RTVSPost2010PropOp54
 70
     1
102
RTVSPost2010Prop55
280
     0
102
RTVSPost2010PropOp55
 70
     1
102
RTVSPost2010Prop56
140
1.0
102
RTVSPost2010PropOp56
 70
     1
102
RTVSPost2010Prop57
140
1.0
102
RTVSPost2010PropOp57
 70
     1
102
RTVSPropertyOp0
 70
     1
102
RTVSPropertyOp1
 70
     1
102
RTVSPropertyOp2
 70
     1
102
RTVSPropertyOp3
 70
     1
102
RTVSPropertyOp4
 70
     1
102
RTVSPropertyOp5
 70
     1
102
RTVSPropertyOp6
 70
     1
102
RTVSPropertyOp7
 70
     1
102
RTVSPropertyOp8
 70
     1
102
RTVSPropertyOp9
 70
     1
102
RTVSPropertyOp10
 70
     1
102
RTVSPropertyOp11
 70
     1
102
RTVSPropertyOp12
 70
     1
102
RTVSPropertyOp13
 70
     1
102
RTVSPropertyOp14
 70
     1
102
RTVSPropertyOp15
 70
     1
102
RTVSPropertyOp16
 70
     1
102
RTVSPropertyOp17
 70
     1
102
RTVSPropertyOp18
 70
     1
102
RTVSPropertyOp19
 70
     1
102
RTVSPropertyOp20
 70
     1
102
RTVSPropertyOp21
 70
     1
102
RTVSPropertyOp22
 70
     1
102
RTVSPropertyOp23
 70
     1
102
RTVSPropertyOp24
 70
     1
102
RTVSPropertyOp25
 70
     1
102
RTVSPropertyOp26
 70
     1
102
RTVSPropertyOp27
 70
     1
102
RTVSPropertyOp28
 70
     1
102
RTVSPropertyOp29
 70
     1
102
RTVSPropertyOp30
 70
     1
102
RTVSPropertyOp31
 70
     1
102
RTVSPropertyOp32
 70
     1
102
RTVSPropertyOp33
 70
     1
102
RTVSPropertyOp34
 70
     1
102
RTVSPropertyOp35
 70
     1
102
RTVSPropertyOp36
 70
     1
102
RTVSPropertyOp37
 70
     1
102
RTVSPropertyOp38
 70
     1
102
RTVSPropertyOp39
 70
     1
102
RTVSPropertyOp40
 70
     1
102
RTVSPropertyOp41
 70
     1
102
RTVSPropertyOp42
 70
     1
102
RTVSPropertyOp43
 70
     1
102
RTVSPropertyOp44
 70
     1
102
RTVSPropertyOp45
 70
     1
102
RTVSPropertyOp46
 70
     1
102
RTVSPropertyOp47
 70
     1
102
RTVSPropertyOp48
 70
     1
102
RTVSPropertyOp49
 70
     1
102
RTVSPropertyOp50
 70
     1
102
RTVSPropertyOp51
 70
     0
102
RTVSPropertyOp52
 70
     0
102
RTVSPropertyOp53
 70
     1
102
RTVSPropertyOp54
 70
     1
102
RTVSPropertyOp55
 70
     1
102
RTVSPropertyOp56
 70
     1
102
RTVSPropertyOp57
 70
     1
102
RTVSPropertyOp58
 70
     1
102
RTVSPropertyOp59
 70
     1
102
RTVSPropertyOp60
 70
     1
102
RTVSPropertyOp61
 70
     1
102
RTVSPropertyOp62
 70
     1
  0
XRECORD
  5
B59A
102
{ACAD_REACTORS
330
B599
102
}
330
B599
100
AcDbXrecord
280
     1
102
RTVSPost2010Prop28
280
     0
102
RTVSPost2010PropOp28
 70
     0
102
RTVSPost2010Prop29
280
     1
102
RTVSPost2010PropOp29
 70
     0
102
RTVSPost2010Prop30
280
     1
102
RTVSPost2010PropOp30
 70
     0
102
RTVSPost2010Prop31
280
     0
102
RTVSPost2010PropOp31
 70
     0
102
RTVSPost2010Prop32
280
     0
102
RTVSPost2010PropOp32
 70
     0
102
RTVSPost2010Prop33
280
     0
102
RTVSPost2010PropOp33
 70
     0
102
RTVSPost2010Prop34
280
     0
102
RTVSPost2010PropOp34
 70
     0
102
RTVSPost2010Prop35
280
     0
102
RTVSPost2010PropOp35
 70
     0
102
RTVSPost2010Prop36
280
     0
102
RTVSPost2010PropOp36
 70
     0
102
RTVSPost2010Prop37
 90
       50
102
RTVSPost2010PropOp37
 70
     0
102
RTVSPost2010Prop38
140
0.0
102
RTVSPost2010PropOp38
 70
     0
102
RTVSPost2010Prop39
140
1.0
102
RTVSPost2010PropOp39
 70
     0
102
RTVSPost2010Prop40
 90
        0
102
RTVSPost2010PropOp40
 70
     0
102
RTVSPost2010Prop41ColorIndex
 90
       18
102
RTVSPost2010Prop41ColorRGB
 90
        0
102
RTVSPost2010PropOp41
 70
     0
102
RTVSPost2010Prop42
 90
       50
102
RTVSPost2010PropOp42
 70
     0
102
RTVSPost2010Prop43
 90
        3
102
RTVSPost2010PropOp43
 70
     0
102
RTVSPost2010Prop44ColorIndex
 90
        5
102
RTVSPost2010Prop44ColorRGB
 90
      255
102
RTVSPost2010PropOp44
 70
     0
102
RTVSPost2010Prop45
280
     0
102
RTVSPost2010PropOp45
 70
     0
102
RTVSPost2010Prop46
 90
       50
102
RTVSPost2010PropOp46
 70
     0
102
RTVSPost2010Prop47
 90
       50
102
RTVSPost2010PropOp47
 70
     0
102
RTVSPost2010Prop48
 90
       50
102
RTVSPost2010PropOp48
 70
     0
102
RTVSPost2010Prop49
280
     0
102
RTVSPost2010PropOp49
 70
     0
102
RTVSPost2010Prop50
 90
       50
102
RTVSPost2010PropOp50
 70
     0
102
RTVSPost2010Prop51ColorIndex
 90
      256
102
RTVSPost2010Prop51ColorRGB
 90
-16777216
102
RTVSPost2010PropOp51
 70
     0
102
RTVSPost2010Prop52
140
1.0
102
RTVSPost2010PropOp52
 70
     0
102
RTVSPost2010Prop53
 90
        2
102
RTVSPost2010PropOp53
 70
     0
102
RTVSPost2010Prop54
  1
strokes_ogs.tif
102
RTVSPost2010PropOp54
 70
     0
102
RTVSPost2010Prop55
280
     0
102
RTVSPost2010PropOp55
 70
     0
102
RTVSPost2010Prop56
140
1.0
102
RTVSPost2010PropOp56
 70
     0
102
RTVSPost2010Prop57
140
1.0
102
RTVSPost2010PropOp57
 70
     0
102
RTVSPropertyOp0
 70
     0
102
RTVSPropertyOp1
 70
     0
102
RTVSPropertyOp2
 70
     0
102
RTVSPropertyOp3
 70
     0
102
RTVSPropertyOp4
 70
     0
102
RTVSPropertyOp5
 70
     0
102
RTVSPropertyOp6
 70
     0
102
RTVSPropertyOp7
 70
     0
102
RTVSPropertyOp8
 70
     0
102
RTVSPropertyOp9
 70
     0
102
RTVSPropertyOp10
 70
     0
102
RTVSPropertyOp11
 70
     0
102
RTVSPropertyOp12
 70
     0
102
RTVSPropertyOp13
 70
     0
102
RTVSPropertyOp14
 70
     2
102
RTVSPropertyOp15
 70
     0
102
RTVSPropertyOp16
 70
     0
102
RTVSPropertyOp17
 70
     0
102
RTVSPropertyOp18
 70
     0
102
RTVSPropertyOp19
 70
     0
102
RTVSPropertyOp20
 70
     0
102
RTVSPropertyOp21
 70
     0
102
RTVSPropertyOp22
 70
     0
102
RTVSPropertyOp23
 70
     0
102
RTVSPropertyOp24
 70
     0
102
RTVSPropertyOp25
 70
     0
102
RTVSPropertyOp26
 70
     0
102
RTVSPropertyOp27
 70
     0
102
RTVSPropertyOp28
 70
     0
102
RTVSPropertyOp29
 70
     0
102
RTVSPropertyOp30
 70
     0
102
RTVSPropertyOp31
 70
     0
102
RTVSPropertyOp32
 70
     0
102
RTVSPropertyOp33
 70
     0
102
RTVSPropertyOp34
 70
     0
102
RTVSPropertyOp35
 70
     0
102
RTVSPropertyOp36
 70
     0
102
RTVSPropertyOp37
 70
     0
102
RTVSPropertyOp38
 70
     0
102
RTVSPropertyOp39
 70
     0
102
RTVSPropertyOp40
 70
     0
102
RTVSPropertyOp41
 70
     0
102
RTVSPropertyOp42
 70
     0
102
RTVSPropertyOp43
 70
     0
102
RTVSPropertyOp44
 70
     0
102
RTVSPropertyOp45
 70
     0
102
RTVSPropertyOp46
 70
     0
102
RTVSPropertyOp47
 70
     0
102
RTVSPropertyOp48
 70
     0
102
RTVSPropertyOp49
 70
     0
102
RTVSPropertyOp50
 70
     0
102
RTVSPropertyOp51
 70
     0
102
RTVSPropertyOp52
 70
     0
102
RTVSPropertyOp53
 70
     0
102
RTVSPropertyOp54
 70
     0
102
RTVSPropertyOp55
 70
     0
102
RTVSPropertyOp56
 70
     0
102
RTVSPropertyOp57
 70
     0
102
RTVSPropertyOp58
 70
     1
102
RTVSPropertyOp59
 70
     1
102
RTVSPropertyOp60
 70
     1
102
RTVSPropertyOp61
 70
     1
102
RTVSPropertyOp62
 70
     1
  0
XRECORD
  5
B58A
102
{ACAD_REACTORS
330
B589
102
}
330
B589
100
AcDbXrecord
280
     1
102
RTVSPost2010Prop28
280
     0
102
RTVSPost2010PropOp28
 70
     1
102
RTVSPost2010Prop29
280
     1
102
RTVSPost2010PropOp29
 70
     1
102
RTVSPost2010Prop30
280
     1
102
RTVSPost2010PropOp30
 70
     1
102
RTVSPost2010Prop31
280
     0
102
RTVSPost2010PropOp31
 70
     1
102
RTVSPost2010Prop32
280
     0
102
RTVSPost2010PropOp32
 70
     1
102
RTVSPost2010Prop33
280
     0
102
RTVSPost2010PropOp33
 70
     1
102
RTVSPost2010Prop34
280
     0
102
RTVSPost2010PropOp34
 70
     1
102
RTVSPost2010Prop35
280
     0
102
RTVSPost2010PropOp35
 70
     1
102
RTVSPost2010Prop36
280
     0
102
RTVSPost2010PropOp36
 70
     1
102
RTVSPost2010Prop37
 90
       50
102
RTVSPost2010PropOp37
 70
     1
102
RTVSPost2010Prop38
140
0.0
102
RTVSPost2010PropOp38
 70
     1
102
RTVSPost2010Prop39
140
1.0
102
RTVSPost2010PropOp39
 70
     1
102
RTVSPost2010Prop40
 90
        0
102
RTVSPost2010PropOp40
 70
     1
102
RTVSPost2010Prop41ColorIndex
 90
       18
102
RTVSPost2010Prop41ColorRGB
 90
        0
102
RTVSPost2010PropOp41
 70
     1
102
RTVSPost2010Prop42
 90
       50
102
RTVSPost2010PropOp42
 70
     1
102
RTVSPost2010Prop43
 90
        3
102
RTVSPost2010PropOp43
 70
     1
102
RTVSPost2010Prop44ColorIndex
 90
        5
102
RTVSPost2010Prop44ColorRGB
 90
      255
102
RTVSPost2010PropOp44
 70
     1
102
RTVSPost2010Prop45
280
     0
102
RTVSPost2010PropOp45
 70
     1
102
RTVSPost2010Prop46
 90
       50
102
RTVSPost2010PropOp46
 70
     1
102
RTVSPost2010Prop47
 90
       50
102
RTVSPost2010PropOp47
 70
     1
102
RTVSPost2010Prop48
 90
       50
102
RTVSPost2010PropOp48
 70
     1
102
RTVSPost2010Prop49
280
     0
102
RTVSPost2010PropOp49
 70
     1
102
RTVSPost2010Prop50
 90
       50
102
RTVSPost2010PropOp50
 70
     1
102
RTVSPost2010Prop51ColorIndex
 90
      256
102
RTVSPost2010Prop51ColorRGB
 90
-16777216
102
RTVSPost2010PropOp51
 70
     0
102
RTVSPost2010Prop52
140
1.0
102
RTVSPost2010PropOp52
 70
     0
102
RTVSPost2010Prop53
 90
        2
102
RTVSPost2010PropOp53
 70
     1
102
RTVSPost2010Prop54
  1
strokes_ogs.tif
102
RTVSPost2010PropOp54
 70
     1
102
RTVSPost2010Prop55
280
     0
102
RTVSPost2010PropOp55
 70
     1
102
RTVSPost2010Prop56
140
1.0
102
RTVSPost2010PropOp56
 70
     1
102
RTVSPost2010Prop57
140
1.0
102
RTVSPost2010PropOp57
 70
     1
102
RTVSPropertyOp0
 70
     1
102
RTVSPropertyOp1
 70
     1
102
RTVSPropertyOp2
 70
     1
102
RTVSPropertyOp3
 70
     1
102
RTVSPropertyOp4
 70
     1
102
RTVSPropertyOp5
 70
     1
102
RTVSPropertyOp6
 70
     1
102
RTVSPropertyOp7
 70
     1
102
RTVSPropertyOp8
 70
     1
102
RTVSPropertyOp9
 70
     1
102
RTVSPropertyOp10
 70
     1
102
RTVSPropertyOp11
 70
     1
102
RTVSPropertyOp12
 70
     1
102
RTVSPropertyOp13
 70
     1
102
RTVSPropertyOp14
 70
     1
102
RTVSPropertyOp15
 70
     1
102
RTVSPropertyOp16
 70
     1
102
RTVSPropertyOp17
 70
     1
102
RTVSPropertyOp18
 70
     1
102
RTVSPropertyOp19
 70
     1
102
RTVSPropertyOp20
 70
     1
102
RTVSPropertyOp21
 70
     1
102
RTVSPropertyOp22
 70
     1
102
RTVSPropertyOp23
 70
     1
102
RTVSPropertyOp24
 70
     1
102
RTVSPropertyOp25
 70
     1
102
RTVSPropertyOp26
 70
     1
102
RTVSPropertyOp27
 70
     1
102
RTVSPropertyOp28
 70
     1
102
RTVSPropertyOp29
 70
     1
102
RTVSPropertyOp30
 70
     1
102
RTVSPropertyOp31
 70
     1
102
RTVSPropertyOp32
 70
     1
102
RTVSPropertyOp33
 70
     1
102
RTVSPropertyOp34
 70
     1
102
RTVSPropertyOp35
 70
     1
102
RTVSPropertyOp36
 70
     1
102
RTVSPropertyOp37
 70
     1
102
RTVSPropertyOp38
 70
     1
102
RTVSPropertyOp39
 70
     1
102
RTVSPropertyOp40
 70
     1
102
RTVSPropertyOp41
 70
     1
102
RTVSPropertyOp42
 70
     1
102
RTVSPropertyOp43
 70
     1
102
RTVSPropertyOp44
 70
     1
102
RTVSPropertyOp45
 70
     1
102
RTVSPropertyOp46
 70
     1
102
RTVSPropertyOp47
 70
     1
102
RTVSPropertyOp48
 70
     1
102
RTVSPropertyOp49
 70
     1
102
RTVSPropertyOp50
 70
     1
102
RTVSPropertyOp51
 70
     0
102
RTVSPropertyOp52
 70
     0
102
RTVSPropertyOp53
 70
     1
102
RTVSPropertyOp54
 70
     1
102
RTVSPropertyOp55
 70
     1
102
RTVSPropertyOp56
 70
     1
102
RTVSPropertyOp57
 70
     1
102
RTVSPropertyOp58
 70
     1
102
RTVSPropertyOp59
 70
     1
102
RTVSPropertyOp60
 70
     1
102
RTVSPropertyOp61
 70
     1
102
RTVSPropertyOp62
 70
     1
  0
XRECORD
  5
B59C
102
{ACAD_REACTORS
330
B59B
102
}
330
B59B
100
AcDbXrecord
280
     1
102
RTVSPost2010Prop28
280
     0
102
RTVSPost2010PropOp28
 70
     0
102
RTVSPost2010Prop29
280
     1
102
RTVSPost2010PropOp29
 70
     0
102
RTVSPost2010Prop30
280
     1
102
RTVSPost2010PropOp30
 70
     0
102
RTVSPost2010Prop31
280
     0
102
RTVSPost2010PropOp31
 70
     0
102
RTVSPost2010Prop32
280
     0
102
RTVSPost2010PropOp32
 70
     0
102
RTVSPost2010Prop33
280
     0
102
RTVSPost2010PropOp33
 70
     0
102
RTVSPost2010Prop34
280
     0
102
RTVSPost2010PropOp34
 70
     0
102
RTVSPost2010Prop35
280
     0
102
RTVSPost2010PropOp35
 70
     0
102
RTVSPost2010Prop36
280
     0
102
RTVSPost2010PropOp36
 70
     0
102
RTVSPost2010Prop37
 90
       50
102
RTVSPost2010PropOp37
 70
     0
102
RTVSPost2010Prop38
140
0.0
102
RTVSPost2010PropOp38
 70
     0
102
RTVSPost2010Prop39
140
1.0
102
RTVSPost2010PropOp39
 70
     0
102
RTVSPost2010Prop40
 90
        0
102
RTVSPost2010PropOp40
 70
     0
102
RTVSPost2010Prop41ColorIndex
 90
       18
102
RTVSPost2010Prop41ColorRGB
 90
        0
102
RTVSPost2010PropOp41
 70
     0
102
RTVSPost2010Prop42
 90
       50
102
RTVSPost2010PropOp42
 70
     0
102
RTVSPost2010Prop43
 90
        3
102
RTVSPost2010PropOp43
 70
     0
102
RTVSPost2010Prop44ColorIndex
 90
        5
102
RTVSPost2010Prop44ColorRGB
 90
      255
102
RTVSPost2010PropOp44
 70
     0
102
RTVSPost2010Prop45
280
     0
102
RTVSPost2010PropOp45
 70
     0
102
RTVSPost2010Prop46
 90
       50
102
RTVSPost2010PropOp46
 70
     0
102
RTVSPost2010Prop47
 90
       50
102
RTVSPost2010PropOp47
 70
     0
102
RTVSPost2010Prop48
 90
       50
102
RTVSPost2010PropOp48
 70
     0
102
RTVSPost2010Prop49
280
     0
102
RTVSPost2010PropOp49
 70
     0
102
RTVSPost2010Prop50
 90
       50
102
RTVSPost2010PropOp50
 70
     0
102
RTVSPost2010Prop51ColorIndex
 90
      256
102
RTVSPost2010Prop51ColorRGB
 90
-16777216
102
RTVSPost2010PropOp51
 70
     0
102
RTVSPost2010Prop52
140
1.0
102
RTVSPost2010PropOp52
 70
     0
102
RTVSPost2010Prop53
 90
        2
102
RTVSPost2010PropOp53
 70
     0
102
RTVSPost2010Prop54
  1
strokes_ogs.tif
102
RTVSPost2010PropOp54
 70
     0
102
RTVSPost2010Prop55
280
     0
102
RTVSPost2010PropOp55
 70
     0
102
RTVSPost2010Prop56
140
1.0
102
RTVSPost2010PropOp56
 70
     0
102
RTVSPost2010Prop57
140
1.0
102
RTVSPost2010PropOp57
 70
     0
102
RTVSPropertyOp0
 70
     0
102
RTVSPropertyOp1
 70
     0
102
RTVSPropertyOp2
 70
     0
102
RTVSPropertyOp3
 70
     0
102
RTVSPropertyOp4
 70
     0
102
RTVSPropertyOp5
 70
     0
102
RTVSPropertyOp6
 70
     0
102
RTVSPropertyOp7
 70
     0
102
RTVSPropertyOp8
 70
     0
102
RTVSPropertyOp9
 70
     0
102
RTVSPropertyOp10
 70
     0
102
RTVSPropertyOp11
 70
     0
102
RTVSPropertyOp12
 70
     0
102
RTVSPropertyOp13
 70
     0
102
RTVSPropertyOp14
 70
     2
102
RTVSPropertyOp15
 70
     0
102
RTVSPropertyOp16
 70
     0
102
RTVSPropertyOp17
 70
     0
102
RTVSPropertyOp18
 70
     0
102
RTVSPropertyOp19
 70
     0
102
RTVSPropertyOp20
 70
     0
102
RTVSPropertyOp21
 70
     0
102
RTVSPropertyOp22
 70
     0
102
RTVSPropertyOp23
 70
     0
102
RTVSPropertyOp24
 70
     0
102
RTVSPropertyOp25
 70
     0
102
RTVSPropertyOp26
 70
     0
102
RTVSPropertyOp27
 70
     0
102
RTVSPropertyOp28
 70
     0
102
RTVSPropertyOp29
 70
     0
102
RTVSPropertyOp30
 70
     0
102
RTVSPropertyOp31
 70
     0
102
RTVSPropertyOp32
 70
     0
102
RTVSPropertyOp33
 70
     0
102
RTVSPropertyOp34
 70
     0
102
RTVSPropertyOp35
 70
     0
102
RTVSPropertyOp36
 70
     0
102
RTVSPropertyOp37
 70
     0
102
RTVSPropertyOp38
 70
     0
102
RTVSPropertyOp39
 70
     0
102
RTVSPropertyOp40
 70
     0
102
RTVSPropertyOp41
 70
     0
102
RTVSPropertyOp42
 70
     0
102
RTVSPropertyOp43
 70
     0
102
RTVSPropertyOp44
 70
     0
102
RTVSPropertyOp45
 70
     0
102
RTVSPropertyOp46
 70
     0
102
RTVSPropertyOp47
 70
     0
102
RTVSPropertyOp48
 70
     0
102
RTVSPropertyOp49
 70
     0
102
RTVSPropertyOp50
 70
     0
102
RTVSPropertyOp51
 70
     0
102
RTVSPropertyOp52
 70
     0
102
RTVSPropertyOp53
 70
     0
102
RTVSPropertyOp54
 70
     0
102
RTVSPropertyOp55
 70
     0
102
RTVSPropertyOp56
 70
     0
102
RTVSPropertyOp57
 70
     0
102
RTVSPropertyOp58
 70
     1
102
RTVSPropertyOp59
 70
     1
102
RTVSPropertyOp60
 70
     1
102
RTVSPropertyOp61
 70
     1
102
RTVSPropertyOp62
 70
     1
  0
XRECORD
  5
B582
102
{ACAD_REACTORS
330
B581
102
}
330
B581
100
AcDbXrecord
280
     1
102
RTVSPost2010Prop28
280
     0
102
RTVSPost2010PropOp28
 70
     1
102
RTVSPost2010Prop29
280
     1
102
RTVSPost2010PropOp29
 70
     1
102
RTVSPost2010Prop30
280
     1
102
RTVSPost2010PropOp30
 70
     1
102
RTVSPost2010Prop31
280
     0
102
RTVSPost2010PropOp31
 70
     1
102
RTVSPost2010Prop32
280
     0
102
RTVSPost2010PropOp32
 70
     1
102
RTVSPost2010Prop33
280
     0
102
RTVSPost2010PropOp33
 70
     1
102
RTVSPost2010Prop34
280
     0
102
RTVSPost2010PropOp34
 70
     1
102
RTVSPost2010Prop35
280
     0
102
RTVSPost2010PropOp35
 70
     1
102
RTVSPost2010Prop36
280
     0
102
RTVSPost2010PropOp36
 70
     1
102
RTVSPost2010Prop37
 90
       50
102
RTVSPost2010PropOp37
 70
     1
102
RTVSPost2010Prop38
140
0.0
102
RTVSPost2010PropOp38
 70
     1
102
RTVSPost2010Prop39
140
1.0
102
RTVSPost2010PropOp39
 70
     1
102
RTVSPost2010Prop40
 90
        0
102
RTVSPost2010PropOp40
 70
     1
102
RTVSPost2010Prop41ColorIndex
 90
       18
102
RTVSPost2010Prop41ColorRGB
 90
        0
102
RTVSPost2010PropOp41
 70
     1
102
RTVSPost2010Prop42
 90
       50
102
RTVSPost2010PropOp42
 70
     1
102
RTVSPost2010Prop43
 90
        3
102
RTVSPost2010PropOp43
 70
     1
102
RTVSPost2010Prop44ColorIndex
 90
        5
102
RTVSPost2010Prop44ColorRGB
 90
      255
102
RTVSPost2010PropOp44
 70
     1
102
RTVSPost2010Prop45
280
     0
102
RTVSPost2010PropOp45
 70
     1
102
RTVSPost2010Prop46
 90
       50
102
RTVSPost2010PropOp46
 70
     1
102
RTVSPost2010Prop47
 90
       50
102
RTVSPost2010PropOp47
 70
     1
102
RTVSPost2010Prop48
 90
       50
102
RTVSPost2010PropOp48
 70
     1
102
RTVSPost2010Prop49
280
     0
102
RTVSPost2010PropOp49
 70
     1
102
RTVSPost2010Prop50
 90
       50
102
RTVSPost2010PropOp50
 70
     1
102
RTVSPost2010Prop51ColorIndex
 90
      256
102
RTVSPost2010Prop51ColorRGB
 90
-16777216
102
RTVSPost2010PropOp51
 70
     0
102
RTVSPost2010Prop52
140
1.0
102
RTVSPost2010PropOp52
 70
     0
102
RTVSPost2010Prop53
 90
        2
102
RTVSPost2010PropOp53
 70
     1
102
RTVSPost2010Prop54
  1
strokes_ogs.tif
102
RTVSPost2010PropOp54
 70
     1
102
RTVSPost2010Prop55
280
     0
102
RTVSPost2010PropOp55
 70
     1
102
RTVSPost2010Prop56
140
1.0
102
RTVSPost2010PropOp56
 70
     1
102
RTVSPost2010Prop57
140
1.0
102
RTVSPost2010PropOp57
 70
     1
102
RTVSPropertyOp0
 70
     1
102
RTVSPropertyOp1
 70
     1
102
RTVSPropertyOp2
 70
     1
102
RTVSPropertyOp3
 70
     1
102
RTVSPropertyOp4
 70
     1
102
RTVSPropertyOp5
 70
     1
102
RTVSPropertyOp6
 70
     1
102
RTVSPropertyOp7
 70
     1
102
RTVSPropertyOp8
 70
     1
102
RTVSPropertyOp9
 70
     1
102
RTVSPropertyOp10
 70
     1
102
RTVSPropertyOp11
 70
     1
102
RTVSPropertyOp12
 70
     1
102
RTVSPropertyOp13
 70
     1
102
RTVSPropertyOp14
 70
     1
102
RTVSPropertyOp15
 70
     1
102
RTVSPropertyOp16
 70
     1
102
RTVSPropertyOp17
 70
     1
102
RTVSPropertyOp18
 70
     1
102
RTVSPropertyOp19
 70
     1
102
RTVSPropertyOp20
 70
     1
102
RTVSPropertyOp21
 70
     1
102
RTVSPropertyOp22
 70
     1
102
RTVSPropertyOp23
 70
     1
102
RTVSPropertyOp24
 70
     1
102
RTVSPropertyOp25
 70
     1
102
RTVSPropertyOp26
 70
     1
102
RTVSPropertyOp27
 70
     1
102
RTVSPropertyOp28
 70
     1
102
RTVSPropertyOp29
 70
     1
102
RTVSPropertyOp30
 70
     1
102
RTVSPropertyOp31
 70
     1
102
RTVSPropertyOp32
 70
     1
102
RTVSPropertyOp33
 70
     1
102
RTVSPropertyOp34
 70
     1
102
RTVSPropertyOp35
 70
     1
102
RTVSPropertyOp36
 70
     1
102
RTVSPropertyOp37
 70
     1
102
RTVSPropertyOp38
 70
     1
102
RTVSPropertyOp39
 70
     1
102
RTVSPropertyOp40
 70
     1
102
RTVSPropertyOp41
 70
     1
102
RTVSPropertyOp42
 70
     1
102
RTVSPropertyOp43
 70
     1
102
RTVSPropertyOp44
 70
     1
102
RTVSPropertyOp45
 70
     1
102
RTVSPropertyOp46
 70
     1
102
RTVSPropertyOp47
 70
     1
102
RTVSPropertyOp48
 70
     1
102
RTVSPropertyOp49
 70
     1
102
RTVSPropertyOp50
 70
     1
102
RTVSPropertyOp51
 70
     0
102
RTVSPropertyOp52
 70
     0
102
RTVSPropertyOp53
 70
     1
102
RTVSPropertyOp54
 70
     1
102
RTVSPropertyOp55
 70
     1
102
RTVSPropertyOp56
 70
     1
102
RTVSPropertyOp57
 70
     1
102
RTVSPropertyOp58
 70
     1
102
RTVSPropertyOp59
 70
     1
102
RTVSPropertyOp60
 70
     1
102
RTVSPropertyOp61
 70
     1
102
RTVSPropertyOp62
 70
     1
  0
XRECORD
  5
B598
102
{ACAD_REACTORS
330
B597
102
}
330
B597
100
AcDbXrecord
280
     1
102
RTVSPost2010Prop28
280
     0
102
RTVSPost2010PropOp28
 70
     1
102
RTVSPost2010Prop29
280
     1
102
RTVSPost2010PropOp29
 70
     1
102
RTVSPost2010Prop30
280
     1
102
RTVSPost2010PropOp30
 70
     1
102
RTVSPost2010Prop31
280
     0
102
RTVSPost2010PropOp31
 70
     1
102
RTVSPost2010Prop32
280
     0
102
RTVSPost2010PropOp32
 70
     1
102
RTVSPost2010Prop33
280
     0
102
RTVSPost2010PropOp33
 70
     1
102
RTVSPost2010Prop34
280
     0
102
RTVSPost2010PropOp34
 70
     1
102
RTVSPost2010Prop35
280
     0
102
RTVSPost2010PropOp35
 70
     1
102
RTVSPost2010Prop36
280
     0
102
RTVSPost2010PropOp36
 70
     1
102
RTVSPost2010Prop37
 90
       50
102
RTVSPost2010PropOp37
 70
     1
102
RTVSPost2010Prop38
140
0.0
102
RTVSPost2010PropOp38
 70
     1
102
RTVSPost2010Prop39
140
1.0
102
RTVSPost2010PropOp39
 70
     1
102
RTVSPost2010Prop40
 90
        0
102
RTVSPost2010PropOp40
 70
     1
102
RTVSPost2010Prop41ColorIndex
 90
       18
102
RTVSPost2010Prop41ColorRGB
 90
        0
102
RTVSPost2010PropOp41
 70
     1
102
RTVSPost2010Prop42
 90
       50
102
RTVSPost2010PropOp42
 70
     1
102
RTVSPost2010Prop43
 90
        3
102
RTVSPost2010PropOp43
 70
     1
102
RTVSPost2010Prop44ColorIndex
 90
        5
102
RTVSPost2010Prop44ColorRGB
 90
      255
102
RTVSPost2010PropOp44
 70
     1
102
RTVSPost2010Prop45
280
     0
102
RTVSPost2010PropOp45
 70
     1
102
RTVSPost2010Prop46
 90
       50
102
RTVSPost2010PropOp46
 70
     1
102
RTVSPost2010Prop47
 90
       50
102
RTVSPost2010PropOp47
 70
     1
102
RTVSPost2010Prop48
 90
       50
102
RTVSPost2010PropOp48
 70
     1
102
RTVSPost2010Prop49
280
     0
102
RTVSPost2010PropOp49
 70
     1
102
RTVSPost2010Prop50
 90
       50
102
RTVSPost2010PropOp50
 70
     1
102
RTVSPost2010Prop51ColorIndex
 90
      256
102
RTVSPost2010Prop51ColorRGB
 90
-16777216
102
RTVSPost2010PropOp51
 70
     0
102
RTVSPost2010Prop52
140
1.0
102
RTVSPost2010PropOp52
 70
     0
102
RTVSPost2010Prop53
 90
        2
102
RTVSPost2010PropOp53
 70
     1
102
RTVSPost2010Prop54
  1
strokes_ogs.tif
102
RTVSPost2010PropOp54
 70
     1
102
RTVSPost2010Prop55
280
     0
102
RTVSPost2010PropOp55
 70
     1
102
RTVSPost2010Prop56
140
1.0
102
RTVSPost2010PropOp56
 70
     1
102
RTVSPost2010Prop57
140
1.0
102
RTVSPost2010PropOp57
 70
     1
102
RTVSPropertyOp0
 70
     1
102
RTVSPropertyOp1
 70
     1
102
RTVSPropertyOp2
 70
     1
102
RTVSPropertyOp3
 70
     1
102
RTVSPropertyOp4
 70
     1
102
RTVSPropertyOp5
 70
     1
102
RTVSPropertyOp6
 70
     1
102
RTVSPropertyOp7
 70
     1
102
RTVSPropertyOp8
 70
     1
102
RTVSPropertyOp9
 70
     1
102
RTVSPropertyOp10
 70
     1
102
RTVSPropertyOp11
 70
     1
102
RTVSPropertyOp12
 70
     1
102
RTVSPropertyOp13
 70
     1
102
RTVSPropertyOp14
 70
     1
102
RTVSPropertyOp15
 70
     1
102
RTVSPropertyOp16
 70
     1
102
RTVSPropertyOp17
 70
     1
102
RTVSPropertyOp18
 70
     1
102
RTVSPropertyOp19
 70
     1
102
RTVSPropertyOp20
 70
     1
102
RTVSPropertyOp21
 70
     1
102
RTVSPropertyOp22
 70
     1
102
RTVSPropertyOp23
 70
     1
102
RTVSPropertyOp24
 70
     1
102
RTVSPropertyOp25
 70
     1
102
RTVSPropertyOp26
 70
     1
102
RTVSPropertyOp27
 70
     1
102
RTVSPropertyOp28
 70
     1
102
RTVSPropertyOp29
 70
     1
102
RTVSPropertyOp30
 70
     1
102
RTVSPropertyOp31
 70
     1
102
RTVSPropertyOp32
 70
     1
102
RTVSPropertyOp33
 70
     1
102
RTVSPropertyOp34
 70
     1
102
RTVSPropertyOp35
 70
     1
102
RTVSPropertyOp36
 70
     1
102
RTVSPropertyOp37
 70
     1
102
RTVSPropertyOp38
 70
     1
102
RTVSPropertyOp39
 70
     1
102
RTVSPropertyOp40
 70
     1
102
RTVSPropertyOp41
 70
     1
102
RTVSPropertyOp42
 70
     1
102
RTVSPropertyOp43
 70
     1
102
RTVSPropertyOp44
 70
     1
102
RTVSPropertyOp45
 70
     1
102
RTVSPropertyOp46
 70
     1
102
RTVSPropertyOp47
 70
     1
102
RTVSPropertyOp48
 70
     1
102
RTVSPropertyOp49
 70
     1
102
RTVSPropertyOp50
 70
     1
102
RTVSPropertyOp51
 70
     0
102
RTVSPropertyOp52
 70
     0
102
RTVSPropertyOp53
 70
     1
102
RTVSPropertyOp54
 70
     1
102
RTVSPropertyOp55
 70
     1
102
RTVSPropertyOp56
 70
     1
102
RTVSPropertyOp57
 70
     1
102
RTVSPropertyOp58
 70
     1
102
RTVSPropertyOp59
 70
     1
102
RTVSPropertyOp60
 70
     1
102
RTVSPropertyOp61
 70
     1
102
RTVSPropertyOp62
 70
     1
  0
XRECORD
  5
B596
102
{ACAD_REACTORS
330
B595
102
}
330
B595
100
AcDbXrecord
280
     1
102
RTVSPost2010Prop28
280
     0
102
RTVSPost2010PropOp28
 70
     1
102
RTVSPost2010Prop29
280
     1
102
RTVSPost2010PropOp29
 70
     1
102
RTVSPost2010Prop30
280
     1
102
RTVSPost2010PropOp30
 70
     1
102
RTVSPost2010Prop31
280
     0
102
RTVSPost2010PropOp31
 70
     1
102
RTVSPost2010Prop32
280
     0
102
RTVSPost2010PropOp32
 70
     1
102
RTVSPost2010Prop33
280
     0
102
RTVSPost2010PropOp33
 70
     1
102
RTVSPost2010Prop34
280
     0
102
RTVSPost2010PropOp34
 70
     1
102
RTVSPost2010Prop35
280
     0
102
RTVSPost2010PropOp35
 70
     1
102
RTVSPost2010Prop36
280
     0
102
RTVSPost2010PropOp36
 70
     1
102
RTVSPost2010Prop37
 90
       50
102
RTVSPost2010PropOp37
 70
     1
102
RTVSPost2010Prop38
140
0.0
102
RTVSPost2010PropOp38
 70
     1
102
RTVSPost2010Prop39
140
1.0
102
RTVSPost2010PropOp39
 70
     1
102
RTVSPost2010Prop40
 90
        0
102
RTVSPost2010PropOp40
 70
     1
102
RTVSPost2010Prop41ColorIndex
 90
       18
102
RTVSPost2010Prop41ColorRGB
 90
        0
102
RTVSPost2010PropOp41
 70
     1
102
RTVSPost2010Prop42
 90
       50
102
RTVSPost2010PropOp42
 70
     1
102
RTVSPost2010Prop43
 90
        3
102
RTVSPost2010PropOp43
 70
     1
102
RTVSPost2010Prop44ColorIndex
 90
        5
102
RTVSPost2010Prop44ColorRGB
 90
      255
102
RTVSPost2010PropOp44
 70
     1
102
RTVSPost2010Prop45
280
     0
102
RTVSPost2010PropOp45
 70
     1
102
RTVSPost2010Prop46
 90
       50
102
RTVSPost2010PropOp46
 70
     1
102
RTVSPost2010Prop47
 90
       50
102
RTVSPost2010PropOp47
 70
     1
102
RTVSPost2010Prop48
 90
       50
102
RTVSPost2010PropOp48
 70
     1
102
RTVSPost2010Prop49
280
     0
102
RTVSPost2010PropOp49
 70
     1
102
RTVSPost2010Prop50
 90
       50
102
RTVSPost2010PropOp50
 70
     1
102
RTVSPost2010Prop51ColorIndex
 90
      256
102
RTVSPost2010Prop51ColorRGB
 90
-16777216
102
RTVSPost2010PropOp51
 70
     0
102
RTVSPost2010Prop52
140
1.0
102
RTVSPost2010PropOp52
 70
     0
102
RTVSPost2010Prop53
 90
        2
102
RTVSPost2010PropOp53
 70
     1
102
RTVSPost2010Prop54
  1
strokes_ogs.tif
102
RTVSPost2010PropOp54
 70
     1
102
RTVSPost2010Prop55
280
     0
102
RTVSPost2010PropOp55
 70
     1
102
RTVSPost2010Prop56
140
1.0
102
RTVSPost2010PropOp56
 70
     1
102
RTVSPost2010Prop57
140
1.0
102
RTVSPost2010PropOp57
 70
     1
102
RTVSPropertyOp0
 70
     1
102
RTVSPropertyOp1
 70
     1
102
RTVSPropertyOp2
 70
     1
102
RTVSPropertyOp3
 70
     1
102
RTVSPropertyOp4
 70
     1
102
RTVSPropertyOp5
 70
     1
102
RTVSPropertyOp6
 70
     1
102
RTVSPropertyOp7
 70
     1
102
RTVSPropertyOp8
 70
     1
102
RTVSPropertyOp9
 70
     1
102
RTVSPropertyOp10
 70
     1
102
RTVSPropertyOp11
 70
     1
102
RTVSPropertyOp12
 70
     1
102
RTVSPropertyOp13
 70
     1
102
RTVSPropertyOp14
 70
     1
102
RTVSPropertyOp15
 70
     1
102
RTVSPropertyOp16
 70
     1
102
RTVSPropertyOp17
 70
     1
102
RTVSPropertyOp18
 70
     1
102
RTVSPropertyOp19
 70
     1
102
RTVSPropertyOp20
 70
     1
102
RTVSPropertyOp21
 70
     1
102
RTVSPropertyOp22
 70
     1
102
RTVSPropertyOp23
 70
     1
102
RTVSPropertyOp24
 70
     1
102
RTVSPropertyOp25
 70
     1
102
RTVSPropertyOp26
 70
     1
102
RTVSPropertyOp27
 70
     1
102
RTVSPropertyOp28
 70
     1
102
RTVSPropertyOp29
 70
     1
102
RTVSPropertyOp30
 70
     1
102
RTVSPropertyOp31
 70
     1
102
RTVSPropertyOp32
 70
     1
102
RTVSPropertyOp33
 70
     1
102
RTVSPropertyOp34
 70
     1
102
RTVSPropertyOp35
 70
     1
102
RTVSPropertyOp36
 70
     1
102
RTVSPropertyOp37
 70
     1
102
RTVSPropertyOp38
 70
     1
102
RTVSPropertyOp39
 70
     1
102
RTVSPropertyOp40
 70
     1
102
RTVSPropertyOp41
 70
     1
102
RTVSPropertyOp42
 70
     1
102
RTVSPropertyOp43
 70
     1
102
RTVSPropertyOp44
 70
     1
102
RTVSPropertyOp45
 70
     1
102
RTVSPropertyOp46
 70
     1
102
RTVSPropertyOp47
 70
     1
102
RTVSPropertyOp48
 70
     1
102
RTVSPropertyOp49
 70
     1
102
RTVSPropertyOp50
 70
     1
102
RTVSPropertyOp51
 70
     0
102
RTVSPropertyOp52
 70
     0
102
RTVSPropertyOp53
 70
     1
102
RTVSPropertyOp54
 70
     1
102
RTVSPropertyOp55
 70
     1
102
RTVSPropertyOp56
 70
     1
102
RTVSPropertyOp57
 70
     1
102
RTVSPropertyOp58
 70
     1
102
RTVSPropertyOp59
 70
     1
102
RTVSPropertyOp60
 70
     1
102
RTVSPropertyOp61
 70
     1
102
RTVSPropertyOp62
 70
     1
  0
XRECORD
  5
B590
102
{ACAD_REACTORS
330
B58F
102
}
330
B58F
100
AcDbXrecord
280
     1
102
RTVSPost2010Prop28
280
     0
102
RTVSPost2010PropOp28
 70
     1
102
RTVSPost2010Prop29
280
     1
102
RTVSPost2010PropOp29
 70
     1
102
RTVSPost2010Prop30
280
     1
102
RTVSPost2010PropOp30
 70
     1
102
RTVSPost2010Prop31
280
     0
102
RTVSPost2010PropOp31
 70
     1
102
RTVSPost2010Prop32
280
     0
102
RTVSPost2010PropOp32
 70
     1
102
RTVSPost2010Prop33
280
     0
102
RTVSPost2010PropOp33
 70
     1
102
RTVSPost2010Prop34
280
     0
102
RTVSPost2010PropOp34
 70
     1
102
RTVSPost2010Prop35
280
     0
102
RTVSPost2010PropOp35
 70
     1
102
RTVSPost2010Prop36
280
     0
102
RTVSPost2010PropOp36
 70
     1
102
RTVSPost2010Prop37
 90
       50
102
RTVSPost2010PropOp37
 70
     1
102
RTVSPost2010Prop38
140
0.0
102
RTVSPost2010PropOp38
 70
     1
102
RTVSPost2010Prop39
140
1.0
102
RTVSPost2010PropOp39
 70
     1
102
RTVSPost2010Prop40
 90
        0
102
RTVSPost2010PropOp40
 70
     1
102
RTVSPost2010Prop41ColorIndex
 90
       18
102
RTVSPost2010Prop41ColorRGB
 90
        0
102
RTVSPost2010PropOp41
 70
     1
102
RTVSPost2010Prop42
 90
       50
102
RTVSPost2010PropOp42
 70
     1
102
RTVSPost2010Prop43
 90
        3
102
RTVSPost2010PropOp43
 70
     1
102
RTVSPost2010Prop44ColorIndex
 90
        5
102
RTVSPost2010Prop44ColorRGB
 90
      255
102
RTVSPost2010PropOp44
 70
     1
102
RTVSPost2010Prop45
280
     0
102
RTVSPost2010PropOp45
 70
     1
102
RTVSPost2010Prop46
 90
       50
102
RTVSPost2010PropOp46
 70
     1
102
RTVSPost2010Prop47
 90
       50
102
RTVSPost2010PropOp47
 70
     1
102
RTVSPost2010Prop48
 90
       50
102
RTVSPost2010PropOp48
 70
     1
102
RTVSPost2010Prop49
280
     0
102
RTVSPost2010PropOp49
 70
     1
102
RTVSPost2010Prop50
 90
       50
102
RTVSPost2010PropOp50
 70
     1
102
RTVSPost2010Prop51ColorIndex
 90
      256
102
RTVSPost2010Prop51ColorRGB
 90
-16777216
102
RTVSPost2010PropOp51
 70
     0
102
RTVSPost2010Prop52
140
1.0
102
RTVSPost2010PropOp52
 70
     0
102
RTVSPost2010Prop53
 90
        2
102
RTVSPost2010PropOp53
 70
     1
102
RTVSPost2010Prop54
  1
strokes_ogs.tif
102
RTVSPost2010PropOp54
 70
     1
102
RTVSPost2010Prop55
280
     0
102
RTVSPost2010PropOp55
 70
     1
102
RTVSPost2010Prop56
140
1.0
102
RTVSPost2010PropOp56
 70
     1
102
RTVSPost2010Prop57
140
1.0
102
RTVSPost2010PropOp57
 70
     1
102
RTVSPropertyOp0
 70
     1
102
RTVSPropertyOp1
 70
     1
102
RTVSPropertyOp2
 70
     1
102
RTVSPropertyOp3
 70
     1
102
RTVSPropertyOp4
 70
     1
102
RTVSPropertyOp5
 70
     1
102
RTVSPropertyOp6
 70
     1
102
RTVSPropertyOp7
 70
     1
102
RTVSPropertyOp8
 70
     1
102
RTVSPropertyOp9
 70
     1
102
RTVSPropertyOp10
 70
     1
102
RTVSPropertyOp11
 70
     1
102
RTVSPropertyOp12
 70
     1
102
RTVSPropertyOp13
 70
     1
102
RTVSPropertyOp14
 70
     1
102
RTVSPropertyOp15
 70
     1
102
RTVSPropertyOp16
 70
     1
102
RTVSPropertyOp17
 70
     1
102
RTVSPropertyOp18
 70
     1
102
RTVSPropertyOp19
 70
     1
102
RTVSPropertyOp20
 70
     1
102
RTVSPropertyOp21
 70
     1
102
RTVSPropertyOp22
 70
     1
102
RTVSPropertyOp23
 70
     1
102
RTVSPropertyOp24
 70
     1
102
RTVSPropertyOp25
 70
     1
102
RTVSPropertyOp26
 70
     1
102
RTVSPropertyOp27
 70
     1
102
RTVSPropertyOp28
 70
     1
102
RTVSPropertyOp29
 70
     1
102
RTVSPropertyOp30
 70
     1
102
RTVSPropertyOp31
 70
     1
102
RTVSPropertyOp32
 70
     1
102
RTVSPropertyOp33
 70
     1
102
RTVSPropertyOp34
 70
     1
102
RTVSPropertyOp35
 70
     1
102
RTVSPropertyOp36
 70
     1
102
RTVSPropertyOp37
 70
     1
102
RTVSPropertyOp38
 70
     1
102
RTVSPropertyOp39
 70
     1
102
RTVSPropertyOp40
 70
     1
102
RTVSPropertyOp41
 70
     1
102
RTVSPropertyOp42
 70
     1
102
RTVSPropertyOp43
 70
     1
102
RTVSPropertyOp44
 70
     1
102
RTVSPropertyOp45
 70
     1
102
RTVSPropertyOp46
 70
     1
102
RTVSPropertyOp47
 70
     1
102
RTVSPropertyOp48
 70
     1
102
RTVSPropertyOp49
 70
     1
102
RTVSPropertyOp50
 70
     1
102
RTVSPropertyOp51
 70
     0
102
RTVSPropertyOp52
 70
     0
102
RTVSPropertyOp53
 70
     1
102
RTVSPropertyOp54
 70
     1
102
RTVSPropertyOp55
 70
     1
102
RTVSPropertyOp56
 70
     1
102
RTVSPropertyOp57
 70
     1
102
RTVSPropertyOp58
 70
     1
102
RTVSPropertyOp59
 70
     1
102
RTVSPropertyOp60
 70
     1
102
RTVSPropertyOp61
 70
     1
102
RTVSPropertyOp62
 70
     1
  0
XRECORD
  5
B592
102
{ACAD_REACTORS
330
B591
102
}
330
B591
100
AcDbXrecord
280
     1
102
RTVSPost2010Prop28
280
     0
102
RTVSPost2010PropOp28
 70
     1
102
RTVSPost2010Prop29
280
     1
102
RTVSPost2010PropOp29
 70
     1
102
RTVSPost2010Prop30
280
     1
102
RTVSPost2010PropOp30
 70
     1
102
RTVSPost2010Prop31
280
     0
102
RTVSPost2010PropOp31
 70
     1
102
RTVSPost2010Prop32
280
     0
102
RTVSPost2010PropOp32
 70
     1
102
RTVSPost2010Prop33
280
     0
102
RTVSPost2010PropOp33
 70
     1
102
RTVSPost2010Prop34
280
     0
102
RTVSPost2010PropOp34
 70
     1
102
RTVSPost2010Prop35
280
     0
102
RTVSPost2010PropOp35
 70
     1
102
RTVSPost2010Prop36
280
     0
102
RTVSPost2010PropOp36
 70
     1
102
RTVSPost2010Prop37
 90
       50
102
RTVSPost2010PropOp37
 70
     1
102
RTVSPost2010Prop38
140
0.0
102
RTVSPost2010PropOp38
 70
     1
102
RTVSPost2010Prop39
140
1.0
102
RTVSPost2010PropOp39
 70
     1
102
RTVSPost2010Prop40
 90
        0
102
RTVSPost2010PropOp40
 70
     1
102
RTVSPost2010Prop41ColorIndex
 90
       18
102
RTVSPost2010Prop41ColorRGB
 90
        0
102
RTVSPost2010PropOp41
 70
     1
102
RTVSPost2010Prop42
 90
       50
102
RTVSPost2010PropOp42
 70
     1
102
RTVSPost2010Prop43
 90
        3
102
RTVSPost2010PropOp43
 70
     1
102
RTVSPost2010Prop44ColorIndex
 90
        5
102
RTVSPost2010Prop44ColorRGB
 90
      255
102
RTVSPost2010PropOp44
 70
     1
102
RTVSPost2010Prop45
280
     0
102
RTVSPost2010PropOp45
 70
     1
102
RTVSPost2010Prop46
 90
       50
102
RTVSPost2010PropOp46
 70
     1
102
RTVSPost2010Prop47
 90
       50
102
RTVSPost2010PropOp47
 70
     1
102
RTVSPost2010Prop48
 90
       50
102
RTVSPost2010PropOp48
 70
     1
102
RTVSPost2010Prop49
280
     0
102
RTVSPost2010PropOp49
 70
     1
102
RTVSPost2010Prop50
 90
       50
102
RTVSPost2010PropOp50
 70
     1
102
RTVSPost2010Prop51ColorIndex
 90
      256
102
RTVSPost2010Prop51ColorRGB
 90
-16777216
102
RTVSPost2010PropOp51
 70
     0
102
RTVSPost2010Prop52
140
1.0
102
RTVSPost2010PropOp52
 70
     0
102
RTVSPost2010Prop53
 90
        2
102
RTVSPost2010PropOp53
 70
     1
102
RTVSPost2010Prop54
  1
strokes_ogs.tif
102
RTVSPost2010PropOp54
 70
     1
102
RTVSPost2010Prop55
280
     0
102
RTVSPost2010PropOp55
 70
     1
102
RTVSPost2010Prop56
140
1.0
102
RTVSPost2010PropOp56
 70
     1
102
RTVSPost2010Prop57
140
1.0
102
RTVSPost2010PropOp57
 70
     1
102
RTVSPropertyOp0
 70
     1
102
RTVSPropertyOp1
 70
     1
102
RTVSPropertyOp2
 70
     1
102
RTVSPropertyOp3
 70
     1
102
RTVSPropertyOp4
 70
     1
102
RTVSPropertyOp5
 70
     1
102
RTVSPropertyOp6
 70
     1
102
RTVSPropertyOp7
 70
     1
102
RTVSPropertyOp8
 70
     1
102
RTVSPropertyOp9
 70
     1
102
RTVSPropertyOp10
 70
     1
102
RTVSPropertyOp11
 70
     1
102
RTVSPropertyOp12
 70
     1
102
RTVSPropertyOp13
 70
     1
102
RTVSPropertyOp14
 70
     1
102
RTVSPropertyOp15
 70
     1
102
RTVSPropertyOp16
 70
     1
102
RTVSPropertyOp17
 70
     1
102
RTVSPropertyOp18
 70
     1
102
RTVSPropertyOp19
 70
     1
102
RTVSPropertyOp20
 70
     1
102
RTVSPropertyOp21
 70
     1
102
RTVSPropertyOp22
 70
     1
102
RTVSPropertyOp23
 70
     1
102
RTVSPropertyOp24
 70
     1
102
RTVSPropertyOp25
 70
     1
102
RTVSPropertyOp26
 70
     1
102
RTVSPropertyOp27
 70
     1
102
RTVSPropertyOp28
 70
     1
102
RTVSPropertyOp29
 70
     1
102
RTVSPropertyOp30
 70
     1
102
RTVSPropertyOp31
 70
     1
102
RTVSPropertyOp32
 70
     1
102
RTVSPropertyOp33
 70
     1
102
RTVSPropertyOp34
 70
     1
102
RTVSPropertyOp35
 70
     1
102
RTVSPropertyOp36
 70
     1
102
RTVSPropertyOp37
 70
     1
102
RTVSPropertyOp38
 70
     1
102
RTVSPropertyOp39
 70
     1
102
RTVSPropertyOp40
 70
     1
102
RTVSPropertyOp41
 70
     1
102
RTVSPropertyOp42
 70
     1
102
RTVSPropertyOp43
 70
     1
102
RTVSPropertyOp44
 70
     1
102
RTVSPropertyOp45
 70
     1
102
RTVSPropertyOp46
 70
     1
102
RTVSPropertyOp47
 70
     1
102
RTVSPropertyOp48
 70
     1
102
RTVSPropertyOp49
 70
     1
102
RTVSPropertyOp50
 70
     1
102
RTVSPropertyOp51
 70
     0
102
RTVSPropertyOp52
 70
     0
102
RTVSPropertyOp53
 70
     1
102
RTVSPropertyOp54
 70
     1
102
RTVSPropertyOp55
 70
     1
102
RTVSPropertyOp56
 70
     1
102
RTVSPropertyOp57
 70
     1
102
RTVSPropertyOp58
 70
     1
102
RTVSPropertyOp59
 70
     1
102
RTVSPropertyOp60
 70
     1
102
RTVSPropertyOp61
 70
     1
102
RTVSPropertyOp62
 70
     1
  0
XRECORD
  5
B588
102
{ACAD_REACTORS
330
B587
102
}
330
B587
100
AcDbXrecord
280
     1
102
RTVSPost2010Prop28
280
     0
102
RTVSPost2010PropOp28
 70
     1
102
RTVSPost2010Prop29
280
     1
102
RTVSPost2010PropOp29
 70
     1
102
RTVSPost2010Prop30
280
     1
102
RTVSPost2010PropOp30
 70
     1
102
RTVSPost2010Prop31
280
     0
102
RTVSPost2010PropOp31
 70
     1
102
RTVSPost2010Prop32
280
     0
102
RTVSPost2010PropOp32
 70
     1
102
RTVSPost2010Prop33
280
     0
102
RTVSPost2010PropOp33
 70
     1
102
RTVSPost2010Prop34
280
     0
102
RTVSPost2010PropOp34
 70
     1
102
RTVSPost2010Prop35
280
     0
102
RTVSPost2010PropOp35
 70
     1
102
RTVSPost2010Prop36
280
     0
102
RTVSPost2010PropOp36
 70
     1
102
RTVSPost2010Prop37
 90
       50
102
RTVSPost2010PropOp37
 70
     1
102
RTVSPost2010Prop38
140
0.0
102
RTVSPost2010PropOp38
 70
     1
102
RTVSPost2010Prop39
140
1.0
102
RTVSPost2010PropOp39
 70
     1
102
RTVSPost2010Prop40
 90
        0
102
RTVSPost2010PropOp40
 70
     1
102
RTVSPost2010Prop41ColorIndex
 90
       18
102
RTVSPost2010Prop41ColorRGB
 90
        0
102
RTVSPost2010PropOp41
 70
     1
102
RTVSPost2010Prop42
 90
       50
102
RTVSPost2010PropOp42
 70
     1
102
RTVSPost2010Prop43
 90
        3
102
RTVSPost2010PropOp43
 70
     1
102
RTVSPost2010Prop44ColorIndex
 90
        5
102
RTVSPost2010Prop44ColorRGB
 90
      255
102
RTVSPost2010PropOp44
 70
     1
102
RTVSPost2010Prop45
280
     0
102
RTVSPost2010PropOp45
 70
     1
102
RTVSPost2010Prop46
 90
       50
102
RTVSPost2010PropOp46
 70
     1
102
RTVSPost2010Prop47
 90
       50
102
RTVSPost2010PropOp47
 70
     1
102
RTVSPost2010Prop48
 90
       50
102
RTVSPost2010PropOp48
 70
     1
102
RTVSPost2010Prop49
280
     0
102
RTVSPost2010PropOp49
 70
     1
102
RTVSPost2010Prop50
 90
       50
102
RTVSPost2010PropOp50
 70
     1
102
RTVSPost2010Prop51ColorIndex
 90
      256
102
RTVSPost2010Prop51ColorRGB
 90
-16777216
102
RTVSPost2010PropOp51
 70
     0
102
RTVSPost2010Prop52
140
1.0
102
RTVSPost2010PropOp52
 70
     0
102
RTVSPost2010Prop53
 90
        2
102
RTVSPost2010PropOp53
 70
     1
102
RTVSPost2010Prop54
  1
strokes_ogs.tif
102
RTVSPost2010PropOp54
 70
     1
102
RTVSPost2010Prop55
280
     0
102
RTVSPost2010PropOp55
 70
     1
102
RTVSPost2010Prop56
140
1.0
102
RTVSPost2010PropOp56
 70
     1
102
RTVSPost2010Prop57
140
1.0
102
RTVSPost2010PropOp57
 70
     1
102
RTVSPropertyOp0
 70
     1
102
RTVSPropertyOp1
 70
     1
102
RTVSPropertyOp2
 70
     1
102
RTVSPropertyOp3
 70
     1
102
RTVSPropertyOp4
 70
     1
102
RTVSPropertyOp5
 70
     1
102
RTVSPropertyOp6
 70
     1
102
RTVSPropertyOp7
 70
     1
102
RTVSPropertyOp8
 70
     1
102
RTVSPropertyOp9
 70
     1
102
RTVSPropertyOp10
 70
     1
102
RTVSPropertyOp11
 70
     1
102
RTVSPropertyOp12
 70
     1
102
RTVSPropertyOp13
 70
     1
102
RTVSPropertyOp14
 70
     1
102
RTVSPropertyOp15
 70
     1
102
RTVSPropertyOp16
 70
     1
102
RTVSPropertyOp17
 70
     1
102
RTVSPropertyOp18
 70
     1
102
RTVSPropertyOp19
 70
     1
102
RTVSPropertyOp20
 70
     1
102
RTVSPropertyOp21
 70
     1
102
RTVSPropertyOp22
 70
     1
102
RTVSPropertyOp23
 70
     1
102
RTVSPropertyOp24
 70
     1
102
RTVSPropertyOp25
 70
     1
102
RTVSPropertyOp26
 70
     1
102
RTVSPropertyOp27
 70
     1
102
RTVSPropertyOp28
 70
     1
102
RTVSPropertyOp29
 70
     1
102
RTVSPropertyOp30
 70
     1
102
RTVSPropertyOp31
 70
     1
102
RTVSPropertyOp32
 70
     1
102
RTVSPropertyOp33
 70
     1
102
RTVSPropertyOp34
 70
     1
102
RTVSPropertyOp35
 70
     1
102
RTVSPropertyOp36
 70
     1
102
RTVSPropertyOp37
 70
     1
102
RTVSPropertyOp38
 70
     1
102
RTVSPropertyOp39
 70
     1
102
RTVSPropertyOp40
 70
     1
102
RTVSPropertyOp41
 70
     1
102
RTVSPropertyOp42
 70
     1
102
RTVSPropertyOp43
 70
     1
102
RTVSPropertyOp44
 70
     1
102
RTVSPropertyOp45
 70
     1
102
RTVSPropertyOp46
 70
     1
102
RTVSPropertyOp47
 70
     1
102
RTVSPropertyOp48
 70
     1
102
RTVSPropertyOp49
 70
     1
102
RTVSPropertyOp50
 70
     1
102
RTVSPropertyOp51
 70
     0
102
RTVSPropertyOp52
 70
     0
102
RTVSPropertyOp53
 70
     1
102
RTVSPropertyOp54
 70
     1
102
RTVSPropertyOp55
 70
     1
102
RTVSPropertyOp56
 70
     1
102
RTVSPropertyOp57
 70
     1
102
RTVSPropertyOp58
 70
     1
102
RTVSPropertyOp59
 70
     1
102
RTVSPropertyOp60
 70
     1
102
RTVSPropertyOp61
 70
     1
102
RTVSPropertyOp62
 70
     1
  0
XRECORD
  5
B57C
102
{ACAD_REACTORS
330
B57B
102
}
330
B57B
100
AcDbXrecord
280
     1
102
RTVSPost2010Prop28
280
     0
102
RTVSPost2010PropOp28
 70
     1
102
RTVSPost2010Prop29
280
     1
102
RTVSPost2010PropOp29
 70
     1
102
RTVSPost2010Prop30
280
     1
102
RTVSPost2010PropOp30
 70
     1
102
RTVSPost2010Prop31
280
     0
102
RTVSPost2010PropOp31
 70
     1
102
RTVSPost2010Prop32
280
     0
102
RTVSPost2010PropOp32
 70
     1
102
RTVSPost2010Prop33
280
     0
102
RTVSPost2010PropOp33
 70
     1
102
RTVSPost2010Prop34
280
     0
102
RTVSPost2010PropOp34
 70
     1
102
RTVSPost2010Prop35
280
     0
102
RTVSPost2010PropOp35
 70
     1
102
RTVSPost2010Prop36
280
     0
102
RTVSPost2010PropOp36
 70
     1
102
RTVSPost2010Prop37
 90
       50
102
RTVSPost2010PropOp37
 70
     1
102
RTVSPost2010Prop38
140
0.0
102
RTVSPost2010PropOp38
 70
     1
102
RTVSPost2010Prop39
140
1.0
102
RTVSPost2010PropOp39
 70
     1
102
RTVSPost2010Prop40
 90
        0
102
RTVSPost2010PropOp40
 70
     1
102
RTVSPost2010Prop41ColorIndex
 90
       18
102
RTVSPost2010Prop41ColorRGB
 90
        0
102
RTVSPost2010PropOp41
 70
     1
102
RTVSPost2010Prop42
 90
       50
102
RTVSPost2010PropOp42
 70
     1
102
RTVSPost2010Prop43
 90
        3
102
RTVSPost2010PropOp43
 70
     1
102
RTVSPost2010Prop44ColorIndex
 90
        5
102
RTVSPost2010Prop44ColorRGB
 90
      255
102
RTVSPost2010PropOp44
 70
     1
102
RTVSPost2010Prop45
280
     0
102
RTVSPost2010PropOp45
 70
     1
102
RTVSPost2010Prop46
 90
       50
102
RTVSPost2010PropOp46
 70
     1
102
RTVSPost2010Prop47
 90
       50
102
RTVSPost2010PropOp47
 70
     1
102
RTVSPost2010Prop48
 90
       50
102
RTVSPost2010PropOp48
 70
     1
102
RTVSPost2010Prop49
280
     0
102
RTVSPost2010PropOp49
 70
     1
102
RTVSPost2010Prop50
 90
       50
102
RTVSPost2010PropOp50
 70
     1
102
RTVSPost2010Prop51ColorIndex
 90
      256
102
RTVSPost2010Prop51ColorRGB
 90
-16777216
102
RTVSPost2010PropOp51
 70
     0
102
RTVSPost2010Prop52
140
1.0
102
RTVSPost2010PropOp52
 70
     0
102
RTVSPost2010Prop53
 90
        2
102
RTVSPost2010PropOp53
 70
     1
102
RTVSPost2010Prop54
  1
strokes_ogs.tif
102
RTVSPost2010PropOp54
 70
     1
102
RTVSPost2010Prop55
280
     0
102
RTVSPost2010PropOp55
 70
     1
102
RTVSPost2010Prop56
140
1.0
102
RTVSPost2010PropOp56
 70
     1
102
RTVSPost2010Prop57
140
1.0
102
RTVSPost2010PropOp57
 70
     1
102
RTVSPropertyOp0
 70
     1
102
RTVSPropertyOp1
 70
     1
102
RTVSPropertyOp2
 70
     1
102
RTVSPropertyOp3
 70
     1
102
RTVSPropertyOp4
 70
     1
102
RTVSPropertyOp5
 70
     1
102
RTVSPropertyOp6
 70
     1
102
RTVSPropertyOp7
 70
     1
102
RTVSPropertyOp8
 70
     1
102
RTVSPropertyOp9
 70
     1
102
RTVSPropertyOp10
 70
     1
102
RTVSPropertyOp11
 70
     1
102
RTVSPropertyOp12
 70
     1
102
RTVSPropertyOp13
 70
     1
102
RTVSPropertyOp14
 70
     1
102
RTVSPropertyOp15
 70
     1
102
RTVSPropertyOp16
 70
     1
102
RTVSPropertyOp17
 70
     1
102
RTVSPropertyOp18
 70
     1
102
RTVSPropertyOp19
 70
     1
102
RTVSPropertyOp20
 70
     1
102
RTVSPropertyOp21
 70
     1
102
RTVSPropertyOp22
 70
     1
102
RTVSPropertyOp23
 70
     1
102
RTVSPropertyOp24
 70
     1
102
RTVSPropertyOp25
 70
     1
102
RTVSPropertyOp26
 70
     1
102
RTVSPropertyOp27
 70
     1
102
RTVSPropertyOp28
 70
     1
102
RTVSPropertyOp29
 70
     1
102
RTVSPropertyOp30
 70
     1
102
RTVSPropertyOp31
 70
     1
102
RTVSPropertyOp32
 70
     1
102
RTVSPropertyOp33
 70
     1
102
RTVSPropertyOp34
 70
     1
102
RTVSPropertyOp35
 70
     1
102
RTVSPropertyOp36
 70
     1
102
RTVSPropertyOp37
 70
     1
102
RTVSPropertyOp38
 70
     1
102
RTVSPropertyOp39
 70
     1
102
RTVSPropertyOp40
 70
     1
102
RTVSPropertyOp41
 70
     1
102
RTVSPropertyOp42
 70
     1
102
RTVSPropertyOp43
 70
     1
102
RTVSPropertyOp44
 70
     1
102
RTVSPropertyOp45
 70
     1
102
RTVSPropertyOp46
 70
     1
102
RTVSPropertyOp47
 70
     1
102
RTVSPropertyOp48
 70
     1
102
RTVSPropertyOp49
 70
     1
102
RTVSPropertyOp50
 70
     1
102
RTVSPropertyOp51
 70
     0
102
RTVSPropertyOp52
 70
     0
102
RTVSPropertyOp53
 70
     1
102
RTVSPropertyOp54
 70
     1
102
RTVSPropertyOp55
 70
     1
102
RTVSPropertyOp56
 70
     1
102
RTVSPropertyOp57
 70
     1
102
RTVSPropertyOp58
 70
     1
102
RTVSPropertyOp59
 70
     1
102
RTVSPropertyOp60
 70
     1
102
RTVSPropertyOp61
 70
     1
102
RTVSPropertyOp62
 70
     1
  0
XRECORD
  5
B594
102
{ACAD_REACTORS
330
B593
102
}
330
B593
100
AcDbXrecord
280
     1
102
RTVSPost2010Prop28
280
     0
102
RTVSPost2010PropOp28
 70
     1
102
RTVSPost2010Prop29
280
     1
102
RTVSPost2010PropOp29
 70
     1
102
RTVSPost2010Prop30
280
     1
102
RTVSPost2010PropOp30
 70
     1
102
RTVSPost2010Prop31
280
     0
102
RTVSPost2010PropOp31
 70
     1
102
RTVSPost2010Prop32
280
     0
102
RTVSPost2010PropOp32
 70
     1
102
RTVSPost2010Prop33
280
     0
102
RTVSPost2010PropOp33
 70
     1
102
RTVSPost2010Prop34
280
     0
102
RTVSPost2010PropOp34
 70
     1
102
RTVSPost2010Prop35
280
     0
102
RTVSPost2010PropOp35
 70
     1
102
RTVSPost2010Prop36
280
     0
102
RTVSPost2010PropOp36
 70
     1
102
RTVSPost2010Prop37
 90
       50
102
RTVSPost2010PropOp37
 70
     1
102
RTVSPost2010Prop38
140
0.0
102
RTVSPost2010PropOp38
 70
     1
102
RTVSPost2010Prop39
140
1.0
102
RTVSPost2010PropOp39
 70
     1
102
RTVSPost2010Prop40
 90
        0
102
RTVSPost2010PropOp40
 70
     1
102
RTVSPost2010Prop41ColorIndex
 90
       18
102
RTVSPost2010Prop41ColorRGB
 90
        0
102
RTVSPost2010PropOp41
 70
     1
102
RTVSPost2010Prop42
 90
       50
102
RTVSPost2010PropOp42
 70
     1
102
RTVSPost2010Prop43
 90
        3
102
RTVSPost2010PropOp43
 70
     1
102
RTVSPost2010Prop44ColorIndex
 90
        5
102
RTVSPost2010Prop44ColorRGB
 90
      255
102
RTVSPost2010PropOp44
 70
     1
102
RTVSPost2010Prop45
280
     0
102
RTVSPost2010PropOp45
 70
     1
102
RTVSPost2010Prop46
 90
       50
102
RTVSPost2010PropOp46
 70
     1
102
RTVSPost2010Prop47
 90
       50
102
RTVSPost2010PropOp47
 70
     1
102
RTVSPost2010Prop48
 90
       50
102
RTVSPost2010PropOp48
 70
     1
102
RTVSPost2010Prop49
280
     0
102
RTVSPost2010PropOp49
 70
     1
102
RTVSPost2010Prop50
 90
       50
102
RTVSPost2010PropOp50
 70
     1
102
RTVSPost2010Prop51ColorIndex
 90
      256
102
RTVSPost2010Prop51ColorRGB
 90
-16777216
102
RTVSPost2010PropOp51
 70
     0
102
RTVSPost2010Prop52
140
1.0
102
RTVSPost2010PropOp52
 70
     0
102
RTVSPost2010Prop53
 90
        2
102
RTVSPost2010PropOp53
 70
     1
102
RTVSPost2010Prop54
  1
strokes_ogs.tif
102
RTVSPost2010PropOp54
 70
     1
102
RTVSPost2010Prop55
280
     0
102
RTVSPost2010PropOp55
 70
     1
102
RTVSPost2010Prop56
140
1.0
102
RTVSPost2010PropOp56
 70
     1
102
RTVSPost2010Prop57
140
1.0
102
RTVSPost2010PropOp57
 70
     1
102
RTVSPropertyOp0
 70
     1
102
RTVSPropertyOp1
 70
     1
102
RTVSPropertyOp2
 70
     1
102
RTVSPropertyOp3
 70
     1
102
RTVSPropertyOp4
 70
     1
102
RTVSPropertyOp5
 70
     1
102
RTVSPropertyOp6
 70
     1
102
RTVSPropertyOp7
 70
     1
102
RTVSPropertyOp8
 70
     1
102
RTVSPropertyOp9
 70
     1
102
RTVSPropertyOp10
 70
     1
102
RTVSPropertyOp11
 70
     1
102
RTVSPropertyOp12
 70
     1
102
RTVSPropertyOp13
 70
     1
102
RTVSPropertyOp14
 70
     1
102
RTVSPropertyOp15
 70
     1
102
RTVSPropertyOp16
 70
     1
102
RTVSPropertyOp17
 70
     1
102
RTVSPropertyOp18
 70
     1
102
RTVSPropertyOp19
 70
     1
102
RTVSPropertyOp20
 70
     1
102
RTVSPropertyOp21
 70
     1
102
RTVSPropertyOp22
 70
     1
102
RTVSPropertyOp23
 70
     1
102
RTVSPropertyOp24
 70
     1
102
RTVSPropertyOp25
 70
     1
102
RTVSPropertyOp26
 70
     1
102
RTVSPropertyOp27
 70
     1
102
RTVSPropertyOp28
 70
     1
102
RTVSPropertyOp29
 70
     1
102
RTVSPropertyOp30
 70
     1
102
RTVSPropertyOp31
 70
     1
102
RTVSPropertyOp32
 70
     1
102
RTVSPropertyOp33
 70
     1
102
RTVSPropertyOp34
 70
     1
102
RTVSPropertyOp35
 70
     1
102
RTVSPropertyOp36
 70
     1
102
RTVSPropertyOp37
 70
     1
102
RTVSPropertyOp38
 70
     1
102
RTVSPropertyOp39
 70
     1
102
RTVSPropertyOp40
 70
     1
102
RTVSPropertyOp41
 70
     1
102
RTVSPropertyOp42
 70
     1
102
RTVSPropertyOp43
 70
     1
102
RTVSPropertyOp44
 70
     1
102
RTVSPropertyOp45
 70
     1
102
RTVSPropertyOp46
 70
     1
102
RTVSPropertyOp47
 70
     1
102
RTVSPropertyOp48
 70
     1
102
RTVSPropertyOp49
 70
     1
102
RTVSPropertyOp50
 70
     1
102
RTVSPropertyOp51
 70
     0
102
RTVSPropertyOp52
 70
     0
102
RTVSPropertyOp53
 70
     1
102
RTVSPropertyOp54
 70
     1
102
RTVSPropertyOp55
 70
     1
102
RTVSPropertyOp56
 70
     1
102
RTVSPropertyOp57
 70
     1
102
RTVSPropertyOp58
 70
     1
102
RTVSPropertyOp59
 70
     1
102
RTVSPropertyOp60
 70
     1
102
RTVSPropertyOp61
 70
     1
102
RTVSPropertyOp62
 70
     1
  0
ENDSEC
  0
EOF
