  0
SECTION
  2
HEADER
  9
$ACADVER
  1
AC1009
  9
$INSBASE
 10
0.0
 20
0.0
 30
0.0
  9
$EXTMIN
 10
0.0
 20
0.0
 30
0.0
  9
$EXTMAX
 10
3150.0
 20
4425.0
 30
0.0
  9
$LIMMIN
 10
0.0
 20
0.0
  9
$LIMMAX
 10
297.0
 20
210.0
  9
$ORTHOMODE
 70
     0
  9
$REGENMODE
 70
     1
  9
$FILLMODE
 70
     0
  9
$QTEXTMODE
 70
     0
  9
$MIRRTEXT
 70
     1
  9
$DRAGMODE
 70
     2
  9
$LTSCALE
 40
100.0
  9
$OSMODE
 70
    37
  9
$ATTMODE
 70
     1
  9
$TEXTSIZE
 40
180.0
  9
$TRACEWID
 40
0.05
  9
$TEXTSTYLE
  7
STANDARD
  9
$CLAYER
  8
3
  9
$CELTYPE
  6
BYLAYER
  9
$CECOLOR
 62
   256
  9
$DIMSCALE
 40
15.0
  9
$DIMASZ
 40
2.0
  9
$DIMEXO
 40
0.5
  9
$DIMDLI
 40
10.0
  9
$DIMRND
 40
0.0
  9
$DIMDLE
 40
0.0
  9
$DIMEXE
 40
1.0
  9
$DIMTP
 40
1.0
  9
$DIMTM
 40
1.0
  9
$DIMTXT
 40
3.0
  9
$DIMCEN
 40
0.0
  9
$DIMTSZ
 40
0.0
  9
$DIMTOL
 70
     0
  9
$DIMLIM
 70
     0
  9
$DIMTIH
 70
     0
  9
$DIMTOH
 70
     0
  9
$DIMSE1
 70
     0
  9
$DIMSE2
 70
     0
  9
$DIMTAD
 70
     1
  9
$DIMZIN
 70
     8
  9
$DIMBLK
  1

  9
$DIMASO
 70
     1
  9
$DIMSHO
 70
     1
  9
$DIMPOST
  1

  9
$DIMAPOST
  1

  9
$DIMALT
 70
     0
  9
$DIMALTD
 70
     2
  9
$DIMALTF
 40
0.039
  9
$DIMLFAC
 40
1.0
  9
$DIMTOFL
 70
     1
  9
$DIMTVP
 40
0.0
  9
$DIMTIX
 70
     0
  9
$DIMSOXD
 70
     0
  9
$DIMSAH
 70
     1
  9
$DIMBLK1
  1
OPEN
  9
$DIMBLK2
  1
OPEN
  9
$DIMSTYLE
  2
IGA
  9
$DIMCLRD
 70
     0
  9
$DIMCLRE
 70
     0
  9
$DIMCLRT
 70
     0
  9
$DIMTFAC
 40
10.0
  9
$DIMGAP
 40
1.0
  9
$LUNITS
 70
     2
  9
$LUPREC
 70
     3
  9
$SKETCHINC
 40
0.1
  9
$FILLETRAD
 40
50.0
  9
$AUNITS
 70
     0
  9
$AUPREC
 70
     0
  9
$MENU
  1
acad
  9
$ELEVATION
 40
0.0
  9
$PELEVATION
 40
0.0
  9
$THICKNESS
 40
0.0
  9
$LIMCHECK
 70
     0
  9
$BLIPMODE
 70
     0
  9
$CHAMFERA
 40
0.5
  9
$CHAMFERB
 40
0.5
  9
$SKPOLY
 70
     0
  9
$TDCREATE
 40
2451019.5485409722
  9
$TDUPDATE
 40
2454953.752672697
  9
$TDINDWG
 40
0.0276091898
  9
$TDUSRTIMER
 40
0.0276091898
  9
$USRTIMER
 70
     1
  9
$ANGBASE
 50
0.0
  9
$ANGDIR
 70
     0
  9
$PDMODE
 70
     0
  9
$PDSIZE
 40
0.0
  9
$PLINEWID
 40
0.0
  9
$COORDS
 70
     1
  9
$SPLFRAME
 70
     0
  9
$SPLINETYPE
 70
     6
  9
$SPLINESEGS
 70
     8
  9
$ATTDIA
 70
     0
  9
$ATTREQ
 70
     1
  9
$HANDLING
 70
 10241
  9
$HANDSEED
  5
90FE
  9
$SURFTAB1
 70
     6
  9
$SURFTAB2
 70
     6
  9
$SURFTYPE
 70
     6
  9
$SURFU
 70
     6
  9
$SURFV
 70
     6
  9
$UCSNAME
  2

  9
$UCSORG
 10
0.0
 20
0.0
 30
0.0
  9
$UCSXDIR
 10
1.0
 20
0.0
 30
0.0
  9
$UCSYDIR
 10
0.0
 20
1.0
 30
0.0
  9
$PUCSNAME
  2

  9
$PUCSORG
 10
0.0
 20
0.0
 30
0.0
  9
$PUCSXDIR
 10
1.0
 20
0.0
 30
0.0
  9
$PUCSYDIR
 10
0.0
 20
1.0
 30
0.0
  9
$USERI1
 70
     0
  9
$USERI2
 70
     0
  9
$USERI3
 70
     0
  9
$USERI4
 70
     0
  9
$USERI5
 70
     0
  9
$USERR1
 40
0.0
  9
$USERR2
 40
0.0
  9
$USERR3
 40
0.0
  9
$USERR4
 40
0.0
  9
$USERR5
 40
0.0
  9
$WORLDVIEW
 70
     1
  9
$SHADEDGE
 70
     3
  9
$SHADEDIF
 70
    70
  9
$TILEMODE
 70
     1
  9
$MAXACTVP
 70
    16
  9
$PLIMCHECK
 70
     0
  9
$PEXTMIN
 10
1.0000000000000000E+020
 20
1.0000000000000000E+020
 30
1.0000000000000000E+020
  9
$PEXTMAX
 10
-1.0000000000000000E+020
 20
-1.0000000000000000E+020
 30
-1.0000000000000000E+020
  9
$PLIMMIN
 10
0.0
 20
0.0
  9
$PLIMMAX
 10
12.0
 20
9.0
  9
$UNITMODE
 70
     0
  9
$VISRETAIN
 70
     0
  9
$PLINEGEN
 70
     0
  9
$PSLTSCALE
 70
     1
  0
ENDSEC
  0
SECTION
  2
TABLES
  0
TABLE
  2
VPORT
 70
     2
  0
VPORT
  2
*ACTIVE
 70
     0
 10
0.0
 20
0.0
 11
1.0
 21
1.0
 12
5304.9149382770529
 22
2212.5000103027569
 13
0.0
 23
0.0
 14
10.0
 24
10.0
 15
10.0
 25
10.0
 16
0.0
 26
0.0
 36
1.0
 17
0.0
 27
0.0
 37
0.0
 40
4458.9223245254034
 41
3.1666666666666661
 42
50.0
 43
0.0
 44
0.0
 50
0.0
 51
0.0
 71
     0
 72
   100
 73
     1
 74
     0
 75
     0
 76
     0
 77
     0
 78
     0
  0
ENDTAB
  0
TABLE
  2
LTYPE
 70
     2
  0
LTYPE
  2
CONTINUOUS
 70
     0
  3
Solid line
 72
    65
 73
     0
 40
0.0
  0
LTYPE
  2
CENTER
 70
     0
  3
____ _ ____ _ ____ _ ____ _ ____ _ ____ _ ____ 
 72
    65
 73
     4
 40
2.0
 49
1.25
 49
-0.25
 49
0.25
 49
-0.25
  0
ENDTAB
  0
TABLE
  2
LAYER
 70
     6
  0
LAYER
  2
0
 70
     0
 62
     7
  6
CONTINUOUS
  0
LAYER
  2
3
 70
     0
 62
     2
  6
CONTINUOUS
  0
LAYER
  2
2
 70
     0
 62
     3
  6
CENTER
  0
LAYER
  2
1
 70
     0
 62
     4
  6
CONTINUOUS
  0
LAYER
  2
4
 70
     0
 62
     7
  6
CONTINUOUS
  0
LAYER
  2
DEFPOINTS
 70
     0
 62
     7
  6
CONTINUOUS
  0
ENDTAB
  0
TABLE
  2
STYLE
 70
     1
  0
STYLE
  2
STANDARD
 70
     0
 40
0.0
 41
1.0
 50
0.0
 71
     0
 42
180.0
  3
simplex.shx
  4
extfont.shx
  0
ENDTAB
  0
TABLE
  2
VIEW
 70
     0
  0
ENDTAB
  0
TABLE
  2
UCS
 70
     0
  0
ENDTAB
  0
TABLE
  2
APPID
 70
     1
  0
APPID
  2
ACAD
 70
     0
  0
ENDTAB
  0
TABLE
  2
DIMSTYLE
 70
     1
  0
DIMSTYLE
  2
IGA
 70
     0
  3

  4

  5

  6
OPEN
  7
OPEN
 40
2.0
 41
2.0
 42
0.5
 43
10.0
 44
1.0
 45
0.0
 46
0.0
 47
1.0
 48
1.0
140
3.0
141
0.0
142
0.0
143
0.03937
144
1.0
145
0.0
146
10.0
147
1.0
 71
     0
 72
     0
 73
     0
 74
     0
 75
     0
 76
     0
 77
     1
 78
     8
170
     0
171
     2
172
     0
173
     1
174
     0
175
     0
176
     0
177
     0
178
     0
  0
ENDTAB
  0
ENDSEC
  0
SECTION
  2
BLOCKS
  0
BLOCK
  8
0
  2
$MODEL_SPACE
 70
     0
 10
0.0
 20
0.0
 30
0.0
  3
$MODEL_SPACE
  1

  0
ENDBLK
  5
1B
  8
0
  0
BLOCK
 67
     1
  8
0
  2
$PAPER_SPACE
 70
     0
 10
0.0
 20
0.0
 30
0.0
  3
$PAPER_SPACE
  1

  0
ENDBLK
  5
18
 67
     1
  8
0
  0
BLOCK
  8
0
  2
_OPEN
 70
     0
 10
0.0
 20
0.0
 30
0.0
  3
_OPEN
  1

  0
LINE
  5
7A12
  8
0
  6
BYBLOCK
 62
     0
 10
-1.0
 20
0.1666666666666666
 30
0.0
 11
0.0
 21
0.0
 31
0.0
  0
LINE
  5
7A13
  8
0
  6
BYBLOCK
 62
     0
 10
0.0
 20
0.0
 30
0.0
 11
-1.0
 21
-0.1666666666666666
 31
0.0
  0
LINE
  5
7A14
  8
0
  6
BYBLOCK
 62
     0
 10
0.0
 20
0.0
 30
0.0
 11
-1.0
 21
0.0
 31
0.0
  0
ENDBLK
  5
7A16
  8
0
  0
BLOCK
  8
0
  2
_DOT
 70
     0
 10
0.0
 20
0.0
 30
0.0
  3
_DOT
  1

  0
LINE
  5
83FA
  8
0
  6
BYBLOCK
 62
     0
 10
0.0
 20
0.0
 30
0.0
 11
-1.0
 21
-0.0000000000000284
 31
0.0
  0
POLYLINE
  5
83FB
  8
0
  6
BYBLOCK
 62
     0
 66
     1
 10
0.0
 20
0.0
 30
0.0
 70
     1
 40
0.1666666666666666
 41
0.1666666666666666
  0
VERTEX
  5
900A
  8
0
  6
BYBLOCK
 62
     0
 10
-0.0833333333333286
 20
-0.0000000000000284
 30
0.0
 42
1.0
  0
VERTEX
  5
900B
  8
0
  6
BYBLOCK
 62
     0
 10
0.0833333333333286
 20
-0.0000000000000284
 30
0.0
 42
1.0
  0
SEQEND
  5
900C
  8
0
  6
BYBLOCK
 62
     0
  0
ENDBLK
  5
8400
  8
0
  0
BLOCK
  8
0
  2
*D2
 70
     1
 10
0.0
 20
0.0
 30
0.0
  3
*D2
  1

  0
LINE
  5
900D
  8
3
 62
     0
 10
936.95090837813768
 20
1956.073820445112
 30
0.0
 11
936.95090837813768
 21
1992.2323121643681
 31
0.0
  0
LINE
  5
900E
  8
3
 62
     0
 10
1210.51578925882
 20
1671.470539764241
 30
0.0
 11
1210.51578925882
 21
1992.2323121643681
 31
0.0
  0
LINE
  5
900F
  8
3
 62
     0
 10
966.95090837813757
 20
1977.2323121643681
 30
0.0
 11
1180.51578925882
 21
1977.2323121643681
 31
0.0
  0
INSERT
  5
9010
  8
3
 62
     0
  2
_OPEN
 10
936.95090837813768
 20
1977.2323121643681
 30
0.0
 41
30.0
 42
30.0
 43
30.0
 50
180.0
  0
INSERT
  5
9011
  8
3
 62
     0
  2
_OPEN
 10
1210.51578925882
 20
1977.2323121643681
 30
0.0
 41
30.0
 42
30.0
 43
30.0
  0
TEXT
  8
3
  40
45
  5
90E8
  62
0
  72
0
  71
0
 10
983.733
 20
1935.08
 30
0.000000
  1
274
  0
POINT
  5
9013
  8
DEFPOINTS
 62
     0
 10
936.95090837813768
 20
1948.573820445112
 30
0.0
  0
POINT
  5
9014
  8
DEFPOINTS
 62
     0
 10
1210.51578925882
 20
1663.9705397642419
 30
0.0
  0
POINT
  5
9015
  8
DEFPOINTS
 62
     0
 10
1210.51578925882
 20
1977.2323121643681
 30
0.0
  0
ENDBLK
  5
8821
  8
0
  0
BLOCK
  8
0
  2
*D3
 70
     1
 10
0.0
 20
0.0
 30
0.0
  3
*D3
  1

  0
LINE
  5
9020
  8
3
 62
     0
 10
672.99078202765213
 20
1687.970539764241
 30
0.0
 11
425.96140895949429
 21
1687.9705397642419
 31
0.0
  0
LINE
  5
9021
  8
3
 62
     0
 10
749.45090837813768
 20
1237.970539764241
 30
0.0
 11
425.96140895949429
 21
1237.9705397642419
 31
0.0
  0
LINE
  5
9022
  8
3
 62
     0
 10
440.96140895949429
 20
1657.9705397642419
 30
0.0
 11
440.96140895949429
 21
1267.9705397642419
 31
0.0
  0
INSERT
  5
9023
  8
3
 62
     0
  2
_OPEN
 10
440.96140895949441
 20
1687.9705397642419
 30
0.0
 41
30.0
 42
30.0
 43
30.0
 50
90.0
  0
INSERT
  5
9024
  8
3
 62
     0
  2
_OPEN
 10
440.96140895949429
 20
1237.9705397642419
 30
0.0
 41
30.0
 42
30.0
 43
30.0
 50
270.0
  0
TEXT
  8
3
  40
45
  5
90E9
  62
0
  72
0
  71
0
 10
313.461
 20
1383.32
 30
0.000000
  1
450
  0
POINT
  5
9026
  8
DEFPOINTS
 62
     0
 10
680.49078202765213
 20
1687.970539764241
 30
0.0
  0
POINT
  5
9027
  8
DEFPOINTS
 62
     0
 10
756.95090837813757
 20
1237.970539764241
 30
0.0
  0
POINT
  5
9028
  8
DEFPOINTS
 62
     0
 10
440.96140895949429
 20
1237.9705397642419
 30
0.0
  0
ENDBLK
  5
882C
  8
0
  0
BLOCK
  8
0
  2
*D4
 70
     1
 10
0.0
 20
0.0
 30
0.0
  3
*D4
  1

  0
LINE
  5
9029
  8
3
 62
     0
 10
684.45090837813757
 20
1336.9705397642419
 30
0.0
 11
516.44221072330402
 21
1336.9705397642419
 31
0.0
  0
LINE
  5
902A
  8
3
 62
     0
 10
672.99078202765213
 20
1687.970539764241
 30
0.0
 11
516.44221072330402
 21
1687.970539764241
 31
0.0
  0
LINE
  5
902B
  8
3
 62
     0
 10
531.44221072330402
 20
1366.970539764241
 30
0.0
 11
531.44221072330402
 21
1657.9705397642419
 31
0.0
  0
INSERT
  5
902C
  8
3
 62
     0
  2
_OPEN
 10
531.44221072330402
 20
1336.9705397642419
 30
0.0
 41
30.0
 42
30.0
 43
30.0
 50
270.0
  0
INSERT
  5
902D
  8
3
 62
     0
  2
_OPEN
 10
531.44221072330402
 20
1687.970539764241
 30
0.0
 41
30.0
 42
30.0
 43
30.0
 50
90.0
  0
TEXT
  8
3
  40
45
  5
90EA
  62
0
  72
0
  71
0
 10
403.942
 20
1432.82
 30
0.000000
  1
351
  0
POINT
  5
902F
  8
DEFPOINTS
 62
     0
 10
691.95090837813768
 20
1336.9705397642419
 30
0.0
  0
POINT
  5
9030
  8
DEFPOINTS
 62
     0
 10
680.49078202765213
 20
1687.970539764241
 30
0.0
  0
POINT
  5
9031
  8
DEFPOINTS
 62
     0
 10
531.44221072330402
 20
1687.970539764241
 30
0.0
  0
ENDBLK
  5
8837
  8
0
  0
BLOCK
  8
0
  2
*D5
 70
     1
 10
0.0
 20
0.0
 30
0.0
  3
*D5
  1

  0
LINE
  5
9032
  8
3
 62
     0
 10
684.45090837813757
 20
1336.9705397642419
 30
0.0
 11
608.47537583975998
 21
1336.9705397642419
 31
0.0
  0
LINE
  5
9033
  8
3
 62
     0
 10
684.45090837813757
 20
1661.9705397642419
 30
0.0
 11
608.47537583975998
 21
1661.9705397642419
 31
0.0
  0
LINE
  5
9034
  8
3
 62
     0
 10
623.47537583976009
 20
1366.970539764241
 30
0.0
 11
623.47537583976009
 21
1631.9705397642419
 31
0.0
  0
INSERT
  5
9035
  8
3
 62
     0
  2
_OPEN
 10
623.47537583976009
 20
1336.9705397642419
 30
0.0
 41
30.0
 42
30.0
 43
30.0
 50
270.0
  0
INSERT
  5
9036
  8
3
 62
     0
  2
_OPEN
 10
623.47537583976009
 20
1661.9705397642419
 30
0.0
 41
30.0
 42
30.0
 43
30.0
 50
90.0
  0
TEXT
  8
3
  40
45
  5
90EB
  62
0
  72
0
  71
0
 10
495.975
 20
1419.82
 30
0.000000
  1
325
  0
POINT
  5
9038
  8
DEFPOINTS
 62
     0
 10
691.95090837813768
 20
1336.9705397642419
 30
0.0
  0
POINT
  5
9039
  8
DEFPOINTS
 62
     0
 10
691.95090837813768
 20
1661.9705397642419
 30
0.0
  0
POINT
  5
903A
  8
DEFPOINTS
 62
     0
 10
623.47537583976009
 20
1661.9705397642419
 30
0.0
  0
ENDBLK
  5
8842
  8
0
  0
BLOCK
  8
0
  2
*D6
 70
     1
 10
0.0
 20
0.0
 30
0.0
  3
*D6
  1

  0
LINE
  5
903E
  8
3
 62
     0
 10
691.95090837813768
 20
1697.8593700891979
 30
0.0
 11
691.95090837813768
 21
1992.2323121643681
 31
0.0
  0
LINE
  5
903F
  8
3
 62
     0
 10
936.95090837813768
 20
1956.073820445112
 30
0.0
 11
936.95090837813768
 21
1992.2323121643681
 31
0.0
  0
LINE
  5
9040
  8
3
 62
     0
 10
721.95090837813757
 20
1977.2323121643681
 30
0.0
 11
906.95090837813757
 21
1977.2323121643681
 31
0.0
  0
INSERT
  5
9041
  8
3
 62
     0
  2
_OPEN
 10
691.95090837813768
 20
1977.2323121643681
 30
0.0
 41
30.0
 42
30.0
 43
30.0
 50
180.0
  0
INSERT
  5
9042
  8
3
 62
     0
  2
_OPEN
 10
936.95090837813768
 20
1977.2323121643681
 30
0.0
 41
30.0
 42
30.0
 43
30.0
  0
TEXT
  8
3
  40
45
  5
90EC
  62
0
  72
0
  71
0
 10
724.451
 20
1935.08
 30
0.000000
  1
245
  0
POINT
  5
9044
  8
DEFPOINTS
 62
     0
 10
691.95090837813768
 20
1690.359370089197
 30
0.0
  0
POINT
  5
9045
  8
DEFPOINTS
 62
     0
 10
936.95090837813768
 20
1948.573820445112
 30
0.0
  0
POINT
  5
9046
  8
DEFPOINTS
 62
     0
 10
936.95090837813768
 20
1977.2323121643681
 30
0.0
  0
ENDBLK
  5
884D
  8
0
  0
BLOCK
  8
0
  2
*D7
 70
     1
 10
0.0
 20
0.0
 30
0.0
  3
*D7
  1

  0
LINE
  5
9047
  8
3
 62
     0
 10
2421.681926878603
 20
1932.4354206449229
 30
0.0
 11
2421.681926878603
 21
1985.145966998964
 31
0.0
  0
LINE
  5
9048
  8
3
 62
     0
 10
2657.681926878603
 20
1932.4354206449229
 30
0.0
 11
2657.681926878603
 21
1985.145966998964
 31
0.0
  0
LINE
  5
9049
  8
3
 62
     0
 10
2451.6819268786021
 20
1970.145966998964
 30
0.0
 11
2627.681926878603
 21
1970.145966998964
 31
0.0
  0
INSERT
  5
904A
  8
3
 62
     0
  2
_OPEN
 10
2421.681926878603
 20
1970.145966998964
 30
0.0
 41
30.0
 42
30.0
 43
30.0
 50
180.0
  0
INSERT
  5
904B
  8
3
 62
     0
  2
_OPEN
 10
2657.681926878603
 20
1970.145966998964
 30
0.0
 41
30.0
 42
30.0
 43
30.0
  0
TEXT
  8
3
  40
45
  5
90ED
  62
0
  72
0
  71
0
 10
2449.68
 20
1928.00
 30
0.000000
  1
236
  0
POINT
  5
904D
  8
DEFPOINTS
 62
     0
 10
2421.681926878603
 20
1924.9354206449229
 30
0.0
  0
POINT
  5
904E
  8
DEFPOINTS
 62
     0
 10
2657.681926878603
 20
1924.9354206449229
 30
0.0
  0
POINT
  5
904F
  8
DEFPOINTS
 62
     0
 10
2657.681926878603
 20
1970.145966998964
 30
0.0
  0
ENDBLK
  5
8858
  8
0
  0
BLOCK
  8
0
  2
*D8
 70
     1
 10
0.0
 20
0.0
 30
0.0
  3
*D8
  1

  0
LINE
  5
905A
  8
3
 62
     0
 10
2693.181926878603
 20
1845.4705397642419
 30
0.0
 11
2828.6742800115699
 21
1845.4705397642419
 31
0.0
  0
LINE
  5
905B
  8
3
 62
     0
 10
2693.181926878603
 20
1530.4705397642419
 30
0.0
 11
2828.6742800115699
 21
1530.4705397642419
 31
0.0
  0
LINE
  5
905C
  8
3
 62
     0
 10
2813.6742800115699
 20
1815.4705397642419
 30
0.0
 11
2813.6742800115699
 21
1560.470539764241
 31
0.0
  0
INSERT
  5
905D
  8
3
 62
     0
  2
_OPEN
 10
2813.6742800115699
 20
1845.4705397642419
 30
0.0
 41
30.0
 42
30.0
 43
30.0
 50
90.0
  0
INSERT
  5
905E
  8
3
 62
     0
  2
_OPEN
 10
2813.6742800115699
 20
1530.4705397642419
 30
0.0
 41
30.0
 42
30.0
 43
30.0
 50
270.0
  0
TEXT
  8
3
  40
45
  5
90EE
  62
0
  72
0
  71
0
 10
2686.17
 20
1606.99
 30
0.000000
  1
φ315
  0
POINT
  5
9060
  8
DEFPOINTS
 62
     0
 10
2685.6819268786021
 20
1845.4705397642419
 30
0.0
  0
POINT
  5
9061
  8
DEFPOINTS
 62
     0
 10
2685.6819268786021
 20
1530.4705397642419
 30
0.0
  0
POINT
  5
9062
  8
DEFPOINTS
 62
     0
 10
2813.6742800115699
 20
1530.4705397642419
 30
0.0
  0
ENDBLK
  5
8863
  8
0
  0
BLOCK
  8
0
  2
*D9
 70
     1
 10
0.0
 20
0.0
 30
0.0
  3
*D9
  1

  0
LINE
  5
9063
  8
3
 62
     0
 10
948.21586096282851
 20
1913.929443992072
 30
0.0
 11
425.96140895949418
 21
1913.929443992072
 31
0.0
  0
LINE
  5
9064
  8
3
 62
     0
 10
440.96140895949429
 20
1717.9705397642419
 30
0.0
 11
440.96140895949429
 21
1883.929443992072
 31
0.0
  0
INSERT
  5
9065
  8
3
 62
     0
  2
_OPEN
 10
440.96140895949429
 20
1687.9705397642419
 30
0.0
 41
30.0
 42
30.0
 43
30.0
 50
270.0
  0
INSERT
  5
9066
  8
3
 62
     0
  2
_OPEN
 10
440.96140895949429
 20
1913.929443992072
 30
0.0
 41
30.0
 42
30.0
 43
30.0
 50
90.0
  0
TEXT
  8
3
  40
45
  5
90EF
  62
0
  72
0
  71
0
 10
313.461
 20
1721.30
 30
0.000000
  1
226
  0
POINT
  5
9068
  8
DEFPOINTS
 62
     0
 10
680.49078202765213
 20
1687.970539764241
 30
0.0
  0
POINT
  5
9069
  8
DEFPOINTS
 62
     0
 10
955.71586096282863
 20
1913.929443992072
 30
0.0
  0
POINT
  5
906A
  8
DEFPOINTS
 62
     0
 10
440.96140895949429
 20
1913.929443992072
 30
0.0
  0
ENDBLK
  5
886D
  8
0
  0
BLOCK
  8
0
  2
*D10
 70
     1
 10
0.0
 20
0.0
 30
0.0
  3
*D10
  1

  0
LINE
  5
906B
  8
3
 62
     0
 10
691.95090837813768
 20
1697.8593700891979
 30
0.0
 11
691.95090837813768
 21
2086.5030722292859
 31
0.0
  0
LINE
  5
906C
  8
3
 62
     0
 10
1556.950908378137
 20
1320.4705397642419
 30
0.0
 11
1556.950908378137
 21
2086.5030722292859
 31
0.0
  0
LINE
  5
906D
  8
3
 62
     0
 10
721.95090837813757
 20
2071.5030722292859
 30
0.0
 11
1526.950908378137
 21
2071.5030722292859
 31
0.0
  0
INSERT
  5
906E
  8
3
 62
     0
  2
_OPEN
 10
691.95090837813768
 20
2071.5030722292859
 30
0.0
 41
30.0
 42
30.0
 43
30.0
 50
180.0
  0
INSERT
  5
906F
  8
3
 62
     0
  2
_OPEN
 10
1556.950908378137
 20
2071.5030722292859
 30
0.0
 41
30.0
 42
30.0
 43
30.0
  0
TEXT
  8
3
  40
45
  5
90F0
  62
0
  72
0
  71
0
 10
1017.50
 20
2029.35
 30
0.000000
  1
865
  0
POINT
  5
9071
  8
DEFPOINTS
 62
     0
 10
691.95090837813768
 20
1690.359370089197
 30
0.0
  0
POINT
  5
9072
  8
DEFPOINTS
 62
     0
 10
1556.950908378137
 20
1312.9705397642419
 30
0.0
  0
POINT
  5
9073
  8
DEFPOINTS
 62
     0
 10
1556.950908378137
 20
2071.5030722292859
 30
0.0
  0
ENDBLK
  5
8878
  8
0
  0
BLOCK
  8
0
  2
*D11
 70
     1
 10
0.0
 20
0.0
 30
0.0
  3
*D11
  1

  0
LINE
  5
9074
  8
3
 62
     0
 10
2539.681926878603
 20
2044.4429820915841
 30
0.0
 11
2539.681926878603
 21
2072.2493638566921
 31
0.0
  0
LINE
  5
9075
  8
3
 62
     0
 10
1851.6819268786039
 20
1795.4705397642419
 30
0.0
 11
1851.6819268786039
 21
2072.2493638566921
 31
0.0
  0
LINE
  5
9076
  8
3
 62
     0
 10
2509.681926878603
 20
2057.2493638566921
 30
0.0
 11
1881.6819268786039
 21
2057.2493638566921
 31
0.0
  0
INSERT
  5
9077
  8
3
 62
     0
  2
_OPEN
 10
2539.681926878603
 20
2057.2493638566921
 30
0.0
 41
30.0
 42
30.0
 43
30.0
  0
INSERT
  5
9078
  8
3
 62
     0
  2
_OPEN
 10
1851.6819268786039
 20
2057.2493638566921
 30
0.0
 41
30.0
 42
30.0
 43
30.0
 50
180.0
  0
TEXT
  8
3
  40
45
  5
90F1
  62
0
  72
0
  71
0
 10
2114.03
 20
2052.60
 30
0.000000
  1
MAX
  0
TEXT
  8
3
  40
45
  5
90F2
  62
0
  72
0
  71
0
 10
2114.03
 20
1994.10
 30
0.000000
  1
760
  0
POINT
  5
907A
  8
DEFPOINTS
 62
     0
 10
2539.681926878603
 20
2036.9429820915841
 30
0.0
  0
POINT
  5
907B
  8
DEFPOINTS
 62
     0
 10
1851.6819268786039
 20
1787.9705397642419
 30
0.0
  0
POINT
  5
907C
  8
DEFPOINTS
 62
     0
 10
1851.6819268786039
 20
2057.2493638566921
 30
0.0
  0
ENDBLK
  5
8883
  8
0
  0
BLOCK
  8
0
  2
*D12
 70
     1
 10
0.0
 20
0.0
 30
0.0
  3
*D12
  1

  0
LINE
  5
907D
  8
3
 62
     0
 10
756.95090837813859
 20
3205.2941857972069
 30
0.0
 11
756.95090837813859
 21
3320.696412333079
 31
0.0
  0
LINE
  5
907E
  8
3
 62
     0
 10
1116.9509083781379
 20
3205.2941857972069
 30
0.0
 11
1116.9509083781379
 21
3320.696412333079
 31
0.0
  0
LINE
  5
907F
  8
3
 62
     0
 10
786.95090837813859
 20
3305.6964123330799
 30
0.0
 11
1086.9509083781379
 21
3305.6964123330799
 31
0.0
  0
INSERT
  5
9080
  8
3
 62
     0
  2
_OPEN
 10
756.95090837813859
 20
3305.6964123330799
 30
0.0
 41
30.0
 42
30.0
 43
30.0
 50
180.0
  0
INSERT
  5
9081
  8
3
 62
     0
  2
_OPEN
 10
1116.9509083781379
 20
3305.6964123330799
 30
0.0
 41
30.0
 42
30.0
 43
30.0
  0
TEXT
  8
3
  40
45
  5
90F3
  62
0
  72
0
  71
0
 10
851.867
 20
3263.55
 30
0.000000
  1
360
  0
POINT
  5
9083
  8
DEFPOINTS
 62
     0
 10
756.95090837813859
 20
3197.794185797206
 30
0.0
  0
POINT
  5
9084
  8
DEFPOINTS
 62
     0
 10
1116.9509083781379
 20
3197.7941857972069
 30
0.0
  0
POINT
  5
9085
  8
DEFPOINTS
 62
     0
 10
1116.9509083781379
 20
3305.6964123330799
 30
0.0
  0
ENDBLK
  5
888E
  8
0
  0
BLOCK
  8
0
  2
*D13
 70
     1
 10
0.0
 20
0.0
 30
0.0
  3
*D13
  1

  0
LINE
  5
9086
  8
3
 62
     0
 10
1556.95090837814
 20
2805.2941857972069
 30
0.0
 11
1556.95090837814
 21
3320.696412333079
 31
0.0
  0
LINE
  5
9087
  8
3
 62
     0
 10
1146.9509083781379
 20
3305.6964123330799
 30
0.0
 11
1526.95090837814
 21
3305.6964123330799
 31
0.0
  0
INSERT
  5
9088
  8
3
 62
     0
  2
_OPEN
 10
1116.9509083781379
 20
3305.6964123330799
 30
0.0
 41
30.0
 42
30.0
 43
30.0
 50
180.0
  0
INSERT
  5
9089
  8
3
 62
     0
  2
_OPEN
 10
1556.95090837814
 20
3305.6964123330799
 30
0.0
 41
30.0
 42
30.0
 43
30.0
  0
TEXT
  8
3
  40
45
  5
90F4
  62
0
  72
0
  71
0
 10
1246.95
 20
3263.55
 30
0.000000
  1
440
  0
POINT
  5
908B
  8
DEFPOINTS
 62
     0
 10
1116.9509083781379
 20
3197.7941857972069
 30
0.0
  0
POINT
  5
908C
  8
DEFPOINTS
 62
     0
 10
1556.95090837814
 20
2797.7941857972069
 30
0.0
  0
POINT
  5
908D
  8
DEFPOINTS
 62
     0
 10
1556.95090837814
 20
3305.6964123330799
 30
0.0
  0
ENDBLK
  5
8898
  8
0
  0
BLOCK
  8
0
  2
*D14
 70
     1
 10
0.0
 20
0.0
 30
0.0
  3
*D14
  1

  0
LINE
  5
908E
  8
3
 62
     0
 10
1564.45090837814
 20
2797.7941857972069
 30
0.0
 11
1703.7365506591959
 21
2797.7941857972069
 31
0.0
  0
LINE
  5
908F
  8
3
 62
     0
 10
1564.45090837814
 20
2417.7941857972069
 30
0.0
 11
1703.7365506591959
 21
2417.7941857972069
 31
0.0
  0
LINE
  5
9090
  8
3
 62
     0
 10
1688.7365506591959
 20
2767.7941857972069
 30
0.0
 11
1688.7365506591959
 21
2447.7941857972069
 31
0.0
  0
INSERT
  5
9091
  8
3
 62
     0
  2
_OPEN
 10
1688.7365506591959
 20
2797.7941857972069
 30
0.0
 41
30.0
 42
30.0
 43
30.0
 50
90.0
  0
INSERT
  5
9092
  8
3
 62
     0
  2
_OPEN
 10
1688.7365506591959
 20
2417.7941857972069
 30
0.0
 41
30.0
 42
30.0
 43
30.0
 50
270.0
  0
TEXT
  8
3
  40
45
  5
90F5
  62
0
  72
0
  71
0
 10
1561.24
 20
2526.62
 30
0.000000
  1
380
  0
POINT
  5
9094
  8
DEFPOINTS
 62
     0
 10
1556.95090837814
 20
2797.7941857972069
 30
0.0
  0
POINT
  5
9095
  8
DEFPOINTS
 62
     0
 10
1556.95090837814
 20
2417.7941857972069
 30
0.0
  0
POINT
  5
9096
  8
DEFPOINTS
 62
     0
 10
1688.7365506591959
 20
2417.7941857972069
 30
0.0
  0
ENDBLK
  5
88A3
  8
0
  0
BLOCK
  8
0
  2
*D15
 70
     1
 10
0.0
 20
0.0
 30
0.0
  3
*D15
  1

  0
LINE
  5
9097
  8
3
 62
     0
 10
749.45090837813859
 20
3197.794185797206
 30
0.0
 11
619.03897946630468
 21
3197.794185797206
 31
0.0
  0
LINE
  5
9098
  8
3
 62
     0
 10
749.4509083781395
 20
2417.7941857972069
 30
0.0
 11
619.03897946630457
 21
2417.7941857972069
 31
0.0
  0
LINE
  5
9099
  8
3
 62
     0
 10
634.03897946630457
 20
3167.7941857972069
 30
0.0
 11
634.03897946630445
 21
2447.794185797206
 31
0.0
  0
INSERT
  5
909A
  8
3
 62
     0
  2
_OPEN
 10
634.03897946630457
 20
3197.794185797206
 30
0.0
 41
30.0
 42
30.0
 43
30.0
 50
90.0
  0
INSERT
  5
909B
  8
3
 62
     0
  2
_OPEN
 10
634.03897946630445
 20
2417.7941857972069
 30
0.0
 41
30.0
 42
30.0
 43
30.0
 50
270.0
  0
TEXT
  8
3
  40
45
  5
90F6
  62
0
  72
0
  71
0
 10
506.539
 20
2749.03
 30
0.000000
  1
780
  0
POINT
  5
909D
  8
DEFPOINTS
 62
     0
 10
756.95090837813859
 20
3197.794185797206
 30
0.0
  0
POINT
  5
909E
  8
DEFPOINTS
 62
     0
 10
756.9509083781395
 20
2417.7941857972069
 30
0.0
  0
POINT
  5
909F
  8
DEFPOINTS
 62
     0
 10
634.03897946630445
 20
2417.7941857972069
 30
0.0
  0
ENDBLK
  5
88AE
  8
0
  0
BLOCK
  8
0
  2
*D16
 70
     1
 10
0.0
 20
0.0
 30
0.0
  3
*D16
  1

  0
LINE
  5
88B0
  8
0
  6
BYBLOCK
 62
     0
 10
6538.4694355486326
 20
2158.850137076488
 30
0.0
 11
6538.4694355486326
 21
2352.1289344047118
 31
0.0
  0
LINE
  5
88B1
  8
0
  6
BYBLOCK
 62
     0
 10
6447.4694355486317
 20
2337.1289344047132
 30
0.0
 11
6508.4694355486326
 21
2337.1289344047132
 31
0.0
  0
TEXT
  5
88B2
  8
3
 62
     0
 10
6434.0408641200611
 20
2354.2719201189811
 30
0.0
 40
45.0
  1
121
  0
INSERT
  5
88B3
  8
0
  6
BYBLOCK
 62
     0
  2
_OPEN
 10
6417.4694355486317
 20
2337.1289344047132
 30
0.0
 41
30.0
 42
30.0
 43
30.0
 50
180.0
  0
INSERT
  5
88B4
  8
0
  6
BYBLOCK
 62
     0
  2
_OPEN
 10
6538.4694355486326
 20
2337.1289344047132
 30
0.0
 41
30.0
 42
30.0
 43
30.0
  0
POINT
  5
88B5
  8
DEFPOINTS
  6
BYBLOCK
 62
     0
 10
6417.4694355486317
 20
2316.822552639605
 30
0.0
  0
POINT
  5
88B6
  8
DEFPOINTS
  6
BYBLOCK
 62
     0
 10
6538.4694355486326
 20
2151.3501370764889
 30
0.0
  0
POINT
  5
88B7
  8
DEFPOINTS
  6
BYBLOCK
 62
     0
 10
6538.4694355486326
 20
2337.1289344047132
 30
0.0
  0
ENDBLK
  5
88B8
  8
0
  0
BLOCK
  8
0
  2
*D17
 70
     1
 10
0.0
 20
0.0
 30
0.0
  3
*D17
  1

  0
LINE
  5
90A0
  8
3
 62
     0
 10
756.95090837813859
 20
1119.470539764241
 30
0.0
 11
756.95090837813859
 21
1009.986926564319
 31
0.0
  0
LINE
  5
90A1
  8
3
 62
     0
 10
936.95090837813768
 20
1119.470539764241
 30
0.0
 11
936.95090837813768
 21
1009.986926564319
 31
0.0
  0
LINE
  5
90A2
  8
3
 62
     0
 10
726.95090837813859
 20
1024.986926564319
 30
0.0
 11
696.95090837813848
 21
1024.986926564319
 31
0.0
  0
LINE
  5
90A3
  8
3
 62
     0
 10
966.95090837813757
 20
1024.986926564319
 30
0.0
 11
996.95090837813757
 21
1024.986926564319
 31
0.0
  0
LINE
  5
90A4
  8
3
 62
     0
 10
756.95090837813859
 20
1024.986926564319
 30
0.0
 11
936.95090837813768
 21
1024.986926564319
 31
0.0
  0
INSERT
  5
90A5
  8
3
 62
     0
  2
_OPEN
 10
756.95090837813859
 20
1024.986926564319
 30
0.0
 41
30.0
 42
30.0
 43
30.0
  0
INSERT
  5
90A6
  8
3
 62
     0
  2
_OPEN
 10
936.95090837813768
 20
1024.986926564319
 30
0.0
 41
30.0
 42
30.0
 43
30.0
 50
180.0
  0
TEXT
  8
3
  40
45
  5
90F7
  62
0
  72
0
  71
0
 10
756.951
 20
982.837
 30
0.000000
  1
180
  0
POINT
  5
90A8
  8
DEFPOINTS
 62
     0
 10
756.95090837813859
 20
1126.970539764241
 30
0.0
  0
POINT
  5
90A9
  8
DEFPOINTS
 62
     0
 10
936.95090837813768
 20
1126.970539764241
 30
0.0
  0
POINT
  5
90AA
  8
DEFPOINTS
 62
     0
 10
936.95090837813768
 20
1024.986926564319
 30
0.0
  0
ENDBLK
  5
8F93
  8
0
  0
BLOCK
  8
0
  2
*D18
 70
     1
 10
0.0
 20
0.0
 30
0.0
  3
*D18
  1

  0
LINE
  5
90AB
  8
3
 62
     0
 10
936.95090837813768
 20
1119.470539764241
 30
0.0
 11
936.95090837813768
 21
1009.986926564319
 31
0.0
  0
LINE
  5
90AC
  8
3
 62
     0
 10
1556.9509083781379
 20
1119.470539764241
 30
0.0
 11
1556.9509083781379
 21
1009.986926564319
 31
0.0
  0
LINE
  5
90AD
  8
3
 62
     0
 10
966.95090837813757
 20
1024.986926564319
 30
0.0
 11
1526.9509083781379
 21
1024.986926564319
 31
0.0
  0
INSERT
  5
90AE
  8
3
 62
     0
  2
_OPEN
 10
936.95090837813768
 20
1024.986926564319
 30
0.0
 41
30.0
 42
30.0
 43
30.0
 50
180.0
  0
INSERT
  5
90AF
  8
3
 62
     0
  2
_OPEN
 10
1556.9509083781379
 20
1024.986926564319
 30
0.0
 41
30.0
 42
30.0
 43
30.0
  0
TEXT
  8
3
  40
45
  5
90F8
  62
0
  72
0
  71
0
 10
1156.95
 20
982.837
 30
0.000000
  1
620
  0
POINT
  5
90B1
  8
DEFPOINTS
 62
     0
 10
936.95090837813768
 20
1126.970539764241
 30
0.0
  0
POINT
  5
90B2
  8
DEFPOINTS
 62
     0
 10
1556.9509083781379
 20
1126.970539764241
 30
0.0
  0
POINT
  5
90B3
  8
DEFPOINTS
 62
     0
 10
1556.9509083781379
 20
1024.986926564319
 30
0.0
  0
ENDBLK
  5
8FA0
  8
0
  0
BLOCK
  8
0
  2
*D19
 70
     1
 10
0.0
 20
0.0
 30
0.0
  3
*D19
  1

  0
LINE
  5
90B4
  8
3
 62
     0
 10
1924.681926878603
 20
1119.470539764241
 30
0.0
 11
1924.681926878603
 21
1009.986926564319
 31
0.0
  0
LINE
  5
90B5
  8
3
 62
     0
 10
2539.6819268786021
 20
1119.470539764241
 30
0.0
 11
2539.6819268786021
 21
1009.986926564319
 31
0.0
  0
LINE
  5
90B6
  8
3
 62
     0
 10
1954.681926878603
 20
1024.986926564319
 30
0.0
 11
2509.6819268786012
 21
1024.986926564319
 31
0.0
  0
INSERT
  5
90B7
  8
3
 62
     0
  2
_OPEN
 10
1924.681926878603
 20
1024.986926564319
 30
0.0
 41
30.0
 42
30.0
 43
30.0
 50
180.0
  0
INSERT
  5
90B8
  8
3
 62
     0
  2
_OPEN
 10
2539.6819268786021
 20
1024.986926564319
 30
0.0
 41
30.0
 42
30.0
 43
30.0
  0
TEXT
  8
3
  40
45
  5
90F9
  62
0
  72
0
  71
0
 10
2142.18
 20
982.837
 30
0.000000
  1
615
  0
POINT
  5
90BA
  8
DEFPOINTS
 62
     0
 10
1924.681926878603
 20
1126.970539764241
 30
0.0
  0
POINT
  5
90BB
  8
DEFPOINTS
 62
     0
 10
2539.6819268786021
 20
1126.970539764241
 30
0.0
  0
POINT
  5
90BC
  8
DEFPOINTS
 62
     0
 10
2539.6819268786021
 20
1024.986926564319
 30
0.0
  0
ENDBLK
  5
8FAD
  8
0
  0
BLOCK
  8
0
  2
*D20
 70
     1
 10
0.0
 20
0.0
 30
0.0
  3
*D20
  1

  0
LINE
  5
90BD
  8
3
 62
     0
 10
2539.6819268786021
 20
1119.470539764241
 30
0.0
 11
2539.6819268786021
 21
1009.986926564319
 31
0.0
  0
LINE
  5
90BE
  8
3
 62
     0
 10
2704.6819268786021
 20
1119.470539764241
 30
0.0
 11
2704.6819268786021
 21
1009.986926564319
 31
0.0
  0
LINE
  5
90BF
  8
3
 62
     0
 10
2569.6819268786012
 20
1024.986926564319
 30
0.0
 11
2674.6819268786021
 21
1024.986926564319
 31
0.0
  0
INSERT
  5
90C0
  8
3
 62
     0
  2
_OPEN
 10
2539.6819268786021
 20
1024.986926564319
 30
0.0
 41
30.0
 42
30.0
 43
30.0
 50
180.0
  0
INSERT
  5
90C1
  8
3
 62
     0
  2
_OPEN
 10
2704.6819268786021
 20
1024.986926564319
 30
0.0
 41
30.0
 42
30.0
 43
30.0
  0
TEXT
  8
3
  40
45
  5
90FA
  62
0
  72
0
  71
0
 10
2532.18
 20
982.837
 30
0.000000
  1
165
  0
POINT
  5
90C3
  8
DEFPOINTS
 62
     0
 10
2539.6819268786021
 20
1126.970539764241
 30
0.0
  0
POINT
  5
90C4
  8
DEFPOINTS
 62
     0
 10
2704.6819268786021
 20
1126.970539764241
 30
0.0
  0
POINT
  5
90C5
  8
DEFPOINTS
 62
     0
 10
2704.6819268786021
 20
1024.986926564319
 30
0.0
  0
ENDBLK
  5
8FBC
  8
0
  0
BLOCK
  8
0
  2
*D21
 70
     1
 10
0.0
 20
0.0
 30
0.0
  3
*D21
  1

  0
LINE
  5
90C6
  8
3
 62
     0
 10
749.45090837813859
 20
1201.9705397642419
 30
0.0
 11
425.19496392369001
 21
1201.9705397642419
 31
0.0
  0
LINE
  5
90C7
  8
3
 62
     0
 10
749.45090837813859
 20
1126.970539764241
 30
0.0
 11
425.19496392369001
 21
1126.9705397642419
 31
0.0
  0
LINE
  5
90C8
  8
3
 62
     0
 10
440.19496392369001
 20
1231.9705397642419
 30
0.0
 11
440.19496392369001
 21
1261.9705397642419
 31
0.0
  0
LINE
  5
90C9
  8
3
 62
     0
 10
440.1949639236899
 20
1096.9705397642419
 30
0.0
 11
440.1949639236899
 21
964.11339690709917
 31
0.0
  0
LINE
  5
90CA
  8
3
 62
     0
 10
440.19496392369001
 20
1201.9705397642419
 30
0.0
 11
440.1949639236899
 21
1126.9705397642419
 31
0.0
  0
INSERT
  5
90CB
  8
3
 62
     0
  2
_DOT
 10
440.19496392369001
 20
1201.9705397642419
 30
0.0
 41
30.0
 42
30.0
 43
30.0
 50
270.0
  0
INSERT
  5
90CC
  8
3
 62
     0
  2
_OPEN
 10
440.1949639236899
 20
1126.9705397642419
 30
0.0
 41
30.0
 42
30.0
 43
30.0
 50
90.0
  0
TEXT
  8
3
  40
45
  5
90FB
  62
0
  72
0
  71
0
 10
312.695
 20
935.892
 30
0.000000
  1
75
  0
POINT
  5
90CE
  8
DEFPOINTS
 62
     0
 10
756.95090837813859
 20
1201.9705397642419
 30
0.0
  0
POINT
  5
90CF
  8
DEFPOINTS
 62
     0
 10
756.95090837813859
 20
1126.970539764241
 30
0.0
  0
POINT
  5
90D0
  8
DEFPOINTS
 62
     0
 10
440.1949639236899
 20
1126.9705397642419
 30
0.0
  0
ENDBLK
  5
8FCB
  8
0
  0
BLOCK
  8
0
  2
*D22
 70
     1
 10
0.0
 20
0.0
 30
0.0
  3
*D22
  1

  0
LINE
  5
90D1
  8
3
 62
     0
 10
749.45090837813859
 20
1201.9705397642419
 30
0.0
 11
425.19496392369001
 21
1201.9705397642419
 31
0.0
  0
LINE
  5
90D2
  8
3
 62
     0
 10
749.45090837813768
 20
1237.970539764241
 30
0.0
 11
425.19496392369001
 21
1237.9705397642419
 31
0.0
  0
LINE
  5
90D3
  8
3
 62
     0
 10
440.1949639236899
 20
1171.9705397642419
 30
0.0
 11
440.1949639236899
 21
1141.9705397642419
 31
0.0
  0
LINE
  5
90D4
  8
3
 62
     0
 10
440.1949639236899
 20
1267.9705397642419
 30
0.0
 11
440.1949639236899
 21
1297.9705397642419
 31
0.0
  0
LINE
  5
90D5
  8
3
 62
     0
 10
440.1949639236899
 20
1219.9705397642419
 30
0.0
 11
368.40924963797568
 21
1241.5062540499559
 31
0.0
  0
LINE
  5
90D6
  8
3
 62
     0
 10
368.40924963797568
 20
1241.5062540499559
 30
0.0
 11
368.40924963797568
 21
1402.2205397642419
 31
0.0
  0
TEXT
  8
3
  40
45
  5
90FC
  62
0
  72
0
  71
0
 10
229.124
 20
1242.21
 30
0.000000
  1
(36)
  0
LINE
  5
90D8
  8
3
 62
     0
 10
440.1949639236899
 20
1201.9705397642419
 30
0.0
 11
440.1949639236899
 21
1237.9705397642419
 31
0.0
  0
LINE
  5
90D9
  8
3
 62
     0
 10
440.1949639236899
 20
1201.9705397642419
 30
0.0
 11
440.1949639236899
 21
1237.9705397642419
 31
0.0
  0
INSERT
  5
90DA
  8
3
 62
     0
  2
_DOT
 10
440.1949639236899
 20
1201.9705397642419
 30
0.0
 41
30.0
 42
30.0
 43
30.0
 50
90.0
  0
INSERT
  5
90DB
  8
3
 62
     0
  2
_OPEN
 10
440.1949639236899
 20
1237.9705397642419
 30
0.0
 41
30.0
 42
30.0
 43
30.0
 50
270.0
  0
POINT
  5
90DC
  8
DEFPOINTS
 62
     0
 10
756.95090837813859
 20
1201.9705397642419
 30
0.0
  0
POINT
  5
90DD
  8
DEFPOINTS
 62
     0
 10
756.95090837813757
 20
1237.970539764241
 30
0.0
  0
POINT
  5
90DE
  8
DEFPOINTS
 62
     0
 10
440.1949639236899
 20
1237.9705397642419
 30
0.0
  0
ENDBLK
  5
8FDC
  8
0
  0
BLOCK
  8
0
  2
*D23
 70
     1
 10
0.0
 20
0.0
 30
0.0
  3
*D23
  1

  0
LINE
  5
90DF
  8
3
 62
     0
 10
940.71586096282863
 20
1913.929443992072
 30
0.0
 11
241.07686440664131
 21
1913.929443992072
 31
0.0
  0
LINE
  5
90E0
  8
3
 62
     0
 10
749.45090837813859
 20
1126.970539764241
 30
0.0
 11
241.07686440664111
 21
1126.9705397642419
 31
0.0
  0
LINE
  5
90E1
  8
3
 62
     0
 10
256.07686440664128
 20
1883.929443992072
 30
0.0
 11
256.07686440664111
 21
1156.9705397642419
 31
0.0
  0
INSERT
  5
90E2
  8
3
 62
     0
  2
_OPEN
 10
256.07686440664128
 20
1913.929443992072
 30
0.0
 41
30.0
 42
30.0
 43
30.0
 50
90.0
  0
INSERT
  5
90E3
  8
3
 62
     0
  2
_OPEN
 10
256.07686440664111
 20
1126.9705397642419
 30
0.0
 41
30.0
 42
30.0
 43
30.0
 50
270.0
  0
TEXT
  8
3
  40
45
  5
90FD
  62
0
  72
0
  71
0
 10
128.577
 20
1440.80
 30
0.000000
  1
787
  0
POINT
  5
90E5
  8
DEFPOINTS
 62
     0
 10
948.21586096282851
 20
1913.929443992072
 30
0.0
  0
POINT
  5
90E6
  8
DEFPOINTS
 62
     0
 10
756.95090837813859
 20
1126.970539764241
 30
0.0
  0
POINT
  5
90E7
  8
DEFPOINTS
 62
     0
 10
256.07686440664111
 20
1126.9705397642419
 30
0.0
  0
ENDBLK
  5
8FE9
  8
0
  0
ENDSEC
  0
SECTION
  2
ENTITIES
  0
LINE
  5
80BA
  8
4
 10
2775.0
 20
750.0
 30
0.0
 11
2775.0
 21
450.0
 31
0.0
  0
LINE
  5
80BB
  8
4
 10
1725.0
 20
750.0
 30
0.0
 11
1725.0
 21
450.0
 31
0.0
  0
LINE
  5
80BC
  8
4
 10
975.0
 20
750.0
 30
0.0
 11
975.0
 21
450.0
 31
0.0
  0
LINE
  5
80BF
  8
4
 10
975.0
 20
450.0
 30
0.0
 11
2775.0
 21
450.0
 31
0.0
  0
LINE
  5
80C0
  8
4
 10
975.0
 20
600.0
 30
0.0
 11
2775.0
 21
600.0
 31
0.0
  0
TEXT
  5
80C1
  8
4
 10
1032.753121270352
 20
647.31453879991932
 30
0.0
 40
75.0
  1
機器名称
  0
TEXT
  5
80C2
  8
4
 10
1029.3871590371959
 20
482.46773509801642
 30
0.0
 40
75.0
  1
機器型番
  0
TEXT
  5
80C3
  8
4
 10
1725.7019222260069
 20
634.0913930483091
 30
0.0
 40
67.5
  1
ミツヤ多翼送風機
  0
TEXT
  5
80C4
  8
4
 10
1779.9817433782209
 20
475.739376419915
 30
0.0
 40
75.0
  1
MF#2-1
  0
TEXT
  5
80C6
  8
4
 10
1170.658110497603
 20
3575.1432619987731
 30
0.0
 40
80.999999999999986
  1
床置防振ベット
  0
TEXT
  5
80C7
  8
4
 10
474.25138999416959
 20
3800.8214642989469
 30
0.0
 40
108.0
  1
遠心式片吸込片持多翼ファン
  0
LINE
  5
80C8
  8
4
 10
375.0
 20
3704.1131313972069
 30
0.0
 11
2775.0
 21
3704.1131313972069
 31
0.0
  0
LINE
  5
80C9
  8
4
 10
375.0
 20
4004.1131313972069
 30
0.0
 11
2775.0
 21
4004.1131313972069
 31
0.0
  0
LINE
  5
80CA
  8
4
 10
975.0
 20
750.0
 30
0.0
 11
2775.0
 21
750.0
 31
0.0
  0
LINE
  5
80CB
  8
4
 10
375.0
 20
4004.1131313972069
 30
0.0
 11
375.0
 21
3704.1131313972069
 31
0.0
  0
TEXT
  5
80CC
  8
4
 10
516.86986213354965
 20
3573.4792163195152
 30
0.0
 40
80.999999999999986
  1
右回転左横向
  0
TEXT
  5
80CD
  8
4
 10
2203.4543388739339
 20
4059.0916222429628
 30
0.0
 40
84.000000000000014
  1
No.
  0
TEXT
  5
80CE
  8
4
 10
1966.944093900019
 20
3575.1432619987731
 30
0.0
 40
80.999999999999986
  1
縮尺：1/15
  0
LINE
  5
80CF
  8
4
 10
2775.0
 20
4004.1131313972069
 30
0.0
 11
2775.0
 21
3704.1131313972069
 31
0.0
  0
LINE
  5
80D0
  8
4
 10
3150.0
 20
4425.0
 30
0.0
 11
3150.0
 21
4425.0
 31
0.0
  0
LINE
  5
80D1
  8
4
 10
2160.9261335397969
 20
4021.895374688102
 30
0.0
 11
2160.9261335397969
 21
4179.9783923246277
 31
0.0
  0
LINE
  5
80D2
  8
4
 10
2160.9261335397969
 20
4179.9783923246277
 30
0.0
 11
2775.0
 21
4179.9783923246277
 31
0.0
  0
LINE
  5
80D3
  8
4
 10
2775.0
 20
4179.9783923246277
 30
0.0
 11
2775.0
 21
4021.895374688102
 31
0.0
  0
LINE
  5
80D4
  8
4
 10
2775.0
 20
4021.895374688102
 30
0.0
 11
2160.9261335397969
 21
4021.895374688102
 31
0.0
  0
LINE
  5
80D5
  8
4
 10
0.0
 20
0.0
 30
0.0
 11
0.0
 21
4425.0
 31
0.0
  0
LINE
  5
80D6
  8
4
 10
0.0
 20
4425.0
 30
0.0
 11
3150.0
 21
4425.0
 31
0.0
  0
LINE
  5
80D7
  8
4
 10
3150.0
 20
4425.0
 30
0.0
 11
3150.0
 21
0.0
 31
0.0
  0
LINE
  5
80D8
  8
4
 10
3150.0
 20
0.0
 30
0.0
 11
0.0
 21
0.0
 31
0.0
  0
LINE
  5
85E4
  8
1
 10
1924.6819268786039
 20
1312.9705397642419
 30
0.0
 11
2704.6819268786021
 21
1312.9705397642419
 31
0.0
  0
LINE
  5
85E5
  8
2
 10
2721.7871495199388
 20
1687.970539764241
 30
0.0
 11
1829.8962964737259
 21
1687.970539764241
 31
0.0
  0
LINE
  5
85E6
  8
1
 10
2366.6819268786021
 20
1631.170539764242
 30
0.0
 11
1956.681926878603
 21
1631.1705397642411
 31
0.0
  0
LINE
  5
85E7
  8
1
 10
2366.6819268786021
 20
1634.370539764242
 30
0.0
 11
1956.681926878603
 21
1634.370539764242
 31
0.0
  0
LINE
  5
85E8
  8
1
 10
2704.6819268786021
 20
1237.9705397642419
 30
0.0
 11
1924.681926878603
 21
1237.970539764241
 31
0.0
  0
DIMENSION
  5
85E9
  8
3
  2
*D2
 10
1210.51578925882
 20
1977.2323121643681
 30
0.0
 11
1073.733348818479
 21
2014.7323121643681
 31
0.0
 70
     0
 13
936.95090837813768
 23
1948.573820445112
 33
0.0
 14
1210.51578925882
 24
1663.9705397642419
 34
0.0
1001
ACAD
1000
DSTYLE
1002
{
1070
   287
1070
     3
1070
    40
1040
15.0
1070
   143
1040
0.039
1070
   172
1070
     1
1070
   271
1070
     0
1070
   279
1070
     0
1070
   288
1070
     1
1002
}
  0
ARC
  5
85EA
  8
1
 10
955.71586096282863
 20
1658.77721172415
 30
0.0
 40
255.15223226792139
 50
1.1540559356372131
 51
97.460342772904141
  0
LINE
  5
85EB
  8
1
 10
886.15656534181664
 20
1601.8314968422969
 30
0.0
 11
1340.7593938236571
 21
1333.7619753813251
 31
0.0
  0
LINE
  5
85EC
  8
1
 10
970.66492048304644
 20
1782.115987810284
 30
0.0
 11
1467.5219265355011
 21
1604.188711833305
 31
0.0
  0
LINE
  5
85ED
  8
1
 10
907.94526843460415
 20
1631.4822856624719
 30
0.0
 11
1379.2207373649751
 21
1389.4913304917029
 31
0.0
  0
LINE
  5
85EE
  8
1
 10
961.81337244763915
 20
1746.4009075569641
 30
0.0
 11
1449.2916884118511
 21
1538.9760260583971
 31
0.0
  0
LINE
  5
85EF
  8
1
 10
1020.450908378137
 20
1640.370539764242
 30
0.0
 11
966.45090837813768
 21
1640.370539764242
 31
0.0
  0
ARC
  5
85F0
  8
1
 10
960.95090837813768
 20
1663.9705397642419
 30
0.0
 40
260.96488088068128
 50
0.0
 51
97.373766361329587
  0
LINE
  5
85F1
  8
1
 10
1566.9509083781379
 20
1312.9705397642419
 30
0.0
 11
756.95090837813757
 21
1312.9705397642419
 31
0.0
  0
LINE
  5
85F2
  8
1
 10
1556.9509083781379
 20
1237.970539764241
 30
0.0
 11
756.95090837813757
 21
1237.970539764241
 31
0.0
  0
LINE
  5
85F3
  8
1
 10
736.95090837813666
 20
1631.170539764242
 30
0.0
 11
1136.950908378137
 21
1631.170539764242
 31
0.0
  0
LINE
  5
85F4
  8
2
 10
1291.81176148648
 20
1687.970539764241
 30
0.0
 11
680.49078202765213
 21
1687.970539764241
 31
0.0
  0
LINE
  5
85F5
  8
1
 10
776.95090837813757
 20
1634.370539764242
 30
0.0
 11
1096.950908378137
 21
1634.370539764242
 31
0.0
  0
ARC
  5
85F6
  8
1
 10
912.95090837813848
 20
1663.9705397642419
 30
0.0
 40
297.56488088068153
 50
274.610207495868
 51
0.0000000000002036
  0
POLYLINE
  5
85F7
  8
1
 66
     1
 10
0.0
 20
0.0
 30
0.0
 70
     1
  0
VERTEX
  5
9016
  8
1
 10
1036.950908378137
 20
1634.370539764242
 30
0.0
  0
VERTEX
  5
9017
  8
1
 10
836.95090837813768
 20
1634.370539764242
 30
0.0
  0
VERTEX
  5
9018
  8
1
 10
836.95090837813768
 20
1640.370539764242
 30
0.0
  0
VERTEX
  5
9019
  8
1
 10
1036.950908378137
 20
1640.370539764242
 30
0.0
  0
SEQEND
  5
901A
  8
1
  0
POLYLINE
  5
85FD
  8
1
 66
     1
 10
0.0
 20
0.0
 30
0.0
 70
     1
  0
VERTEX
  5
901B
  8
1
 10
1036.950908378137
 20
1634.370539764242
 30
0.0
  0
VERTEX
  5
901C
  8
1
 10
836.95090837813768
 20
1634.370539764242
 30
0.0
  0
VERTEX
  5
901D
  8
1
 10
836.95090837813768
 20
1640.370539764242
 30
0.0
  0
VERTEX
  5
901E
  8
1
 10
1036.950908378137
 20
1640.370539764242
 30
0.0
  0
SEQEND
  5
901F
  8
1
  0
DIMENSION
  5
8603
  8
3
  2
*D3
 10
440.96140895949429
 20
1237.9705397642419
 30
0.0
 11
403.46140895949412
 21
1462.9705397642419
 31
0.0
 70
     0
 13
680.49078202765213
 23
1687.970539764241
 33
0.0
 14
756.95090837813757
 24
1237.970539764241
 34
0.0
 50
90.0
1001
ACAD
1000
DSTYLE
1002
{
1070
   287
1070
     3
1070
    40
1040
15.0
1070
   143
1040
0.039
1070
   172
1070
     1
1070
   271
1070
     0
1070
   279
1070
     0
1070
   288
1070
     1
1002
}
  0
DIMENSION
  5
8604
  8
3
  2
*D4
 10
531.44221072330402
 20
1687.970539764241
 30
0.0
 11
493.94221072330367
 21
1512.4705397642419
 31
0.0
 70
     0
 13
691.95090837813768
 23
1336.9705397642419
 33
0.0
 14
680.49078202765213
 24
1687.970539764241
 34
0.0
 50
90.0
1001
ACAD
1000
DSTYLE
1002
{
1070
   287
1070
     3
1070
    40
1040
15.0
1070
   143
1040
0.039
1070
   172
1070
     1
1070
   271
1070
     0
1070
   279
1070
     0
1070
   288
1070
     1
1002
}
  0
DIMENSION
  5
8605
  8
3
  2
*D5
 10
623.47537583976009
 20
1661.9705397642419
 30
0.0
 11
585.97537583975975
 21
1499.4705397642419
 31
0.0
 70
     0
 13
691.95090837813768
 23
1336.9705397642419
 33
0.0
 14
691.95090837813768
 24
1661.9705397642419
 34
0.0
 50
90.0
1001
ACAD
1000
DSTYLE
1002
{
1070
   287
1070
     3
1070
    40
1040
15.0
1070
   143
1040
0.039
1070
   172
1070
     1
1070
   271
1070
     0
1070
   279
1070
     0
1070
   288
1070
     1
1002
}
  0
LINE
  5
8606
  8
1
 10
691.95090837813768
 20
1690.359370089197
 30
0.0
 11
691.95090837813768
 21
1310.3593700891979
 31
0.0
  0
LINE
  5
8607
  8
1
 10
694.95090837813768
 20
1690.359370089197
 30
0.0
 11
694.95090837813768
 21
1312.3593700891979
 31
0.0
  0
LINE
  5
8608
  8
1
 10
716.95090837813768
 20
1329.8599129686841
 30
0.0
 11
716.95090837813768
 21
1666.3593700891979
 31
0.0
  0
LINE
  5
8609
  8
1
 10
786.95090837813666
 20
1631.170539764242
 30
0.0
 11
786.95090837813859
 21
1312.9705397642419
 31
0.0
  0
LINE
  5
860A
  8
2
 10
936.95090837813768
 20
1782.109854956718
 30
0.0
 11
936.95090837813768
 21
1126.970539764241
 31
0.0
  0
LINE
  5
860B
  8
1
 10
691.95090837813768
 20
1335.359370089197
 30
0.0
 11
937.1092626111249
 21
1364.3781140596329
 31
0.0
  0
LINE
  5
860C
  8
1
 10
756.95090837813757
 20
1387.9705397642419
 30
0.0
 11
756.95090837813757
 21
1237.970539764241
 31
0.0
  0
POLYLINE
  5
860D
  8
1
 66
     1
 10
0.0
 20
0.0
 30
0.0
  0
VERTEX
  5
903B
  8
1
 10
691.95090837813768
 20
1335.359370089197
 30
0.0
  0
VERTEX
  5
903C
  8
1
 10
836.72025267937795
 20
1352.4953332922009
 30
0.0
 42
0.3908380251735333
  0
SEQEND
  5
903D
  8
1
  0
LINE
  5
8611
  8
1
 10
786.95090837813768
 20
1317.9705397642419
 30
0.0
 11
756.95090837813757
 21
1317.9705397642419
 31
0.0
  0
LINE
  5
8612
  8
1
 10
716.95090837813848
 20
1335.359370089197
 30
0.0
 11
691.95090837813848
 21
1335.359370089197
 31
0.0
  0
ARC
  5
8613
  8
1
 10
714.95090837813859
 20
1334.3593700891979
 30
0.0
 40
2.0
 50
270.0
 51
0.0
  0
LINE
  5
8614
  8
1
 10
691.95090837813848
 20
1335.359370089197
 30
0.0
 11
691.95090837813848
 21
1310.3593700891979
 31
0.0
  0
LINE
  5
8615
  8
1
 10
694.95090837813859
 20
1312.3593700891979
 30
0.0
 11
694.95090837813859
 21
1328.3593700891979
 31
0.0
  0
LINE
  5
8616
  8
1
 10
698.95090837813859
 20
1332.3593700891979
 30
0.0
 11
714.95090837813859
 21
1332.3593700891979
 31
0.0
  0
ARC
  5
8617
  8
1
 10
698.95090837813859
 20
1328.3593700891979
 30
0.0
 40
4.0
 50
90.0
 51
180.0
  0
LINE
  5
8618
  8
1
 10
691.95090837813848
 20
1310.3593700891979
 30
0.0
 11
692.95090837813848
 21
1310.3593700891979
 31
0.0
  0
ARC
  5
8619
  8
1
 10
692.95090837813848
 20
1312.3593700891979
 30
0.0
 40
2.0
 50
270.0
 51
0.0
  0
LINE
  5
861A
  8
1
 10
716.95090837813768
 20
1338.9297234377109
 30
0.0
 11
716.95090837813768
 21
1339.9297234377109
 31
0.0
  0
LINE
  5
861B
  8
1
 10
716.95090837813848
 20
1334.3593700891979
 30
0.0
 11
716.95090837813848
 21
1335.359370089197
 31
0.0
  0
LINE
  5
861C
  8
1
 10
716.95090837813768
 20
1329.8599129686841
 30
0.0
 11
756.95090837813757
 21
1334.5946068462349
 31
0.0
  0
LINE
  5
861D
  8
1
 10
786.95090837813859
 20
1387.9705397642419
 30
0.0
 11
756.95090837813757
 21
1387.9705397642419
 31
0.0
  0
DIMENSION
  5
861E
  8
3
  2
*D6
 10
936.95090837813768
 20
1977.2323121643681
 30
0.0
 11
814.45090837813768
 21
2014.7323121643681
 31
0.0
 70
     0
 13
691.95090837813768
 23
1690.359370089197
 33
0.0
 14
936.95090837813768
 24
1948.573820445112
 34
0.0
1001
ACAD
1000
DSTYLE
1002
{
1070
   287
1070
     3
1070
    40
1040
15.0
1070
   143
1040
0.039
1070
   172
1070
     1
1070
   271
1070
     0
1070
   279
1070
     0
1070
   288
1070
     1
1002
}
  0
ARC
  5
861F
  8
1
 10
936.95090837813768
 20
1687.970539764241
 30
0.0
 40
100.0
 50
70.297269738203724
 51
239.47306048950711
  0
ARC
  5
8620
  8
1
 10
949.95385245336365
 20
1712.04624882645
 30
0.0
 40
201.58952384937541
 50
97.79780284392973
 51
181.563977764425
  0
ARC
  5
8621
  8
1
 10
955.45090837813859
 20
1706.4705397642419
 30
0.0
 40
218.11047620624919
 50
97.373766361329587
 51
179.99999999999989
  0
CIRCLE
  5
8622
  8
1
 10
936.95090837813768
 20
1687.970539764241
 30
0.0
 40
63.5
  0
LINE
  5
8623
  8
1
 10
736.95090837813666
 20
1631.1705397642411
 30
0.0
 11
736.95090837813666
 21
1591.1705397642411
 31
0.0
  0
LINE
  5
8624
  8
1
 10
786.95090837813666
 20
1591.170539764242
 30
0.0
 11
716.95090837813768
 21
1591.1705397642411
 31
0.0
  0
LINE
  5
8625
  8
1
 10
786.95090837813666
 20
1586.6705397642411
 30
0.0
 11
716.95090837813768
 21
1586.6705397642411
 31
0.0
  0
LINE
  5
8626
  8
1
 10
691.95090837813768
 20
1665.359370089197
 30
0.0
 11
691.95090837813768
 21
1690.359370089197
 31
0.0
  0
ARC
  5
8627
  8
1
 10
698.95090837813768
 20
1672.359370089197
 30
0.0
 40
4.0
 50
180.0
 51
270.0
  0
ARC
  5
8628
  8
1
 10
918.45090837813757
 20
1706.4705397642419
 30
0.0
 40
170.010476206249
 50
179.9999999999996
 51
195.17384176877829
  0
ARC
  5
8629
  8
1
 10
918.45090837813575
 20
1706.4705397642419
 30
0.0
 40
181.11047620624669
 50
180.0000000000002
 51
190.98146693575629
  0
ARC
  5
862A
  8
1
 10
714.95090837813757
 20
1666.3593700891979
 30
0.0
 40
2.0
 50
0.0
 51
90.0
  0
LINE
  5
862B
  8
1
 10
691.95090837813768
 20
1661.9705397642419
 30
0.0
 11
754.3676611532137
 21
1661.970539764241
 31
0.0
  0
LINE
  5
862C
  8
1
 10
698.95090837813768
 20
1668.3593700891979
 30
0.0
 11
714.95090837813757
 21
1668.3593700891979
 31
0.0
  0
LINE
  5
862D
  8
1
 10
716.95090837813768
 20
1666.3593700891979
 30
0.0
 11
716.95090837813768
 21
1665.359370089197
 31
0.0
  0
LINE
  5
862E
  8
1
 10
716.95090837813768
 20
1671.9705397642419
 30
0.0
 11
716.95090837813768
 21
1665.359370089197
 31
0.0
  0
LINE
  5
862F
  8
1
 10
716.95090837813768
 20
1671.9705397642419
 30
0.0
 11
740.65677295276964
 21
1671.9705397642419
 31
0.0
  0
LINE
  5
8630
  8
1
 10
694.95090837813768
 20
1688.359370089197
 30
0.0
 11
694.95090837813768
 21
1672.359370089197
 31
0.0
  0
ARC
  5
8631
  8
1
 10
692.95090837813757
 20
1688.359370089197
 30
0.0
 40
2.0
 50
0.0
 51
90.0
  0
LINE
  5
8632
  8
1
 10
691.95090837813768
 20
1690.359370089197
 30
0.0
 11
692.95090837813757
 21
1690.359370089197
 31
0.0
  0
LINE
  5
8633
  8
1
 10
776.95090837813757
 20
1634.370539764242
 30
0.0
 11
776.95090837813757
 21
1631.170539764242
 31
0.0
  0
CIRCLE
  5
8634
  8
1
 10
936.95090837813768
 20
1547.9705397642419
 30
0.0
 40
65.0
  0
LINE
  5
8635
  8
2
 10
1006.950908378137
 20
1547.9705397642419
 30
0.0
 11
866.95090837813757
 21
1547.9705397642419
 31
0.0
  0
LINE
  5
8636
  8
1
 10
853.45090837813757
 20
1640.370539764242
 30
0.0
 11
907.45090837813768
 21
1640.370539764242
 31
0.0
  0
LINE
  5
8637
  8
2
 10
936.95090837813768
 20
1948.573820445112
 30
0.0
 11
936.95090837813768
 21
1801.0497819349059
 31
0.0
  0
LINE
  5
8638
  8
1
 10
936.95090837813768
 20
1787.9705397642419
 30
0.0
 11
936.95090837813768
 21
1787.9705397642419
 31
0.0
  0
ARC
  5
8639
  8
1
 10
1416.9509083781379
 20
1462.9705397642419
 30
0.0
 40
150.0
 50
239.47306048950711
 51
70.29726973820371
  0
LINE
  5
863A
  8
1
 10
2208.681926878603
 20
1559.9705397642419
 30
0.0
 11
2208.681926878603
 21
1372.970539764241
 31
0.0
  0
LINE
  5
863B
  8
1
 10
1086.950908378137
 20
1631.170539764242
 30
0.0
 11
1086.950908378137
 21
1312.9705397642419
 31
0.0
  0
LINE
  5
863C
  8
2
 10
1416.9509083781379
 20
1126.970539764241
 30
0.0
 11
1416.9509083781379
 21
1571.4316397642419
 31
0.0
  0
ARC
  5
863D
  8
1
 10
1416.9509083781379
 20
1462.9705397642419
 30
0.0
 40
100.8
 50
0.0
 51
239.69929999999999
  0
ARC
  5
863E
  8
1
 10
1416.9509083781379
 20
1462.9705397642419
 30
0.0
 40
100.8
 50
0.0
 51
239.69929999999999
  0
ARC
  5
863F
  8
1
 10
1416.9509083781379
 20
1462.9705397642419
 30
0.0
 40
97.0
 50
0.0
 51
242.49639999999999
  0
ARC
  5
8640
  8
1
 10
1416.9509083781379
 20
1462.9705397642419
 30
0.0
 40
97.0
 50
0.0
 51
242.49639999999999
  0
CIRCLE
  5
8641
  8
1
 10
1416.9509083781379
 20
1462.9705397642419
 30
0.0
 40
82.599999999999994
  0
ARC
  5
8642
  8
1
 10
912.95090837813768
 20
1663.9705397642419
 30
0.0
 40
308.96488088068128
 50
304.27536477064342
 51
0.0
  0
LINE
  5
8643
  8
1
 10
1943.681926878603
 20
1787.9705397642419
 30
0.0
 11
1943.681926878603
 21
1312.9705397642419
 31
0.0
  0
LINE
  5
8644
  8
1
 10
1851.6819268786039
 20
1787.9705397642419
 30
0.0
 11
1851.6819268786039
 21
1312.9705397642419
 31
0.0
  0
LINE
  5
8645
  8
1
 10
1931.6819268786039
 20
1640.5705397642421
 30
0.0
 11
1931.6819268786039
 21
1361.3705397642409
 31
0.0
  0
LINE
  5
8646
  8
1
 10
1881.681926878603
 20
1640.5705397642421
 30
0.0
 11
1881.681926878603
 21
1361.3705397642409
 31
0.0
  0
LINE
  5
8647
  8
1
 10
1936.6819268786039
 20
1426.4705397642419
 30
0.0
 11
1936.6819268786039
 21
1499.4705397642419
 31
0.0
  0
LINE
  5
8648
  8
1
 10
1946.681926878603
 20
1559.9705397642419
 30
0.0
 11
1946.681926878603
 21
1372.970539764241
 31
0.0
  0
LINE
  5
8649
  8
1
 10
1328.9509083781379
 20
1372.970539764241
 30
0.0
 11
1368.9509083781379
 21
1372.970539764241
 31
0.0
  0
LINE
  5
864A
  8
1
 10
1517.8547798468251
 20
1372.970539764241
 30
0.0
 11
1316.047036909451
 21
1372.970539764241
 31
0.0
  0
LINE
  5
864B
  8
2
 10
1312.485708378138
 20
1462.9705397642419
 30
0.0
 11
1523.053708378138
 21
1462.9705397642419
 31
0.0
  0
LINE
  5
864C
  8
1
 10
1566.9509083781379
 20
1342.9705397642419
 30
0.0
 11
1266.9509083781379
 21
1342.9705397642419
 31
0.0
  0
LINE
  5
864D
  8
1
 10
1116.950908378137
 20
1387.9705397642419
 30
0.0
 11
1116.950908378137
 21
1312.9705397642419
 31
0.0
  0
LINE
  5
864E
  8
1
 10
1116.950908378137
 20
1317.9705397642419
 30
0.0
 11
1086.950908378137
 21
1317.9705397642419
 31
0.0
  0
LINE
  5
864F
  8
1
 10
1116.950908378137
 20
1387.9705397642419
 30
0.0
 11
1086.950908378137
 21
1387.9705397642419
 31
0.0
  0
LINE
  5
8650
  8
1
 10
1304.4509083781379
 20
1342.9705397642419
 30
0.0
 11
1316.047036909451
 21
1372.970539764241
 31
0.0
  0
LINE
  5
8651
  8
1
 10
1266.9509083781379
 20
1312.9705397642419
 30
0.0
 11
1266.9509083781379
 21
1342.9705397642419
 31
0.0
  0
LINE
  5
8652
  8
1
 10
1346.9509083781379
 20
1368.6040397642421
 30
0.0
 11
1346.9509083781379
 21
1385.507439764242
 31
0.0
  0
LINE
  5
8653
  8
1
 10
1328.9509083781379
 20
1372.970539764241
 30
0.0
 11
1328.9509083781379
 21
1380.970539764241
 31
0.0
  0
LINE
  5
8654
  8
1
 10
1334.8044083781381
 20
1404.5532397642421
 30
0.0
 11
1328.9509083781379
 21
1380.970539764241
 31
0.0
  0
LINE
  5
8655
  8
1
 10
1529.4509083781379
 20
1342.9705397642419
 30
0.0
 11
1517.8547798468251
 21
1372.970539764241
 31
0.0
  0
LINE
  5
8656
  8
1
 10
1372.1204083781381
 20
1376.9705397642419
 30
0.0
 11
1462.074808378138
 21
1376.9705397642419
 31
0.0
  0
LINE
  5
8657
  8
1
 10
1372.1204083781381
 20
1376.9705397642419
 30
0.0
 11
1462.074808378138
 21
1376.9705397642419
 31
0.0
  0
LINE
  5
8658
  8
1
 10
1366.026808378138
 20
1375.9705397642419
 30
0.0
 11
1467.9819083781381
 21
1375.9705397642419
 31
0.0
  0
LINE
  5
8659
  8
1
 10
1366.026808378138
 20
1375.9705397642419
 30
0.0
 11
1467.9819083781381
 21
1375.9705397642419
 31
0.0
  0
LINE
  5
865A
  8
1
 10
1368.9509083781379
 20
1375.943339764241
 30
0.0
 11
1368.9509083781379
 21
1372.970539764241
 31
0.0
  0
ARC
  5
865B
  8
1
 10
1416.9509083781379
 20
1462.9705397642419
 30
0.0
 40
97.0
 50
297.61250000000001
 51
0.0
  0
ARC
  5
865C
  8
1
 10
1416.9509083781379
 20
1462.9705397642419
 30
0.0
 40
100.8
 50
300.3932999999999
 51
0.0
  0
ARC
  5
865D
  8
1
 10
1416.9509083781379
 20
1462.9705397642419
 30
0.0
 40
97.0
 50
297.61250000000001
 51
0.0
  0
ARC
  5
865E
  8
1
 10
1416.9509083781379
 20
1462.9705397642419
 30
0.0
 40
100.8
 50
300.3932999999999
 51
0.0
  0
LINE
  5
865F
  8
1
 10
1504.9509083781379
 20
1372.970539764241
 30
0.0
 11
1464.9509083781379
 21
1372.970539764241
 31
0.0
  0
LINE
  5
8660
  8
1
 10
1486.9509083781379
 20
1368.6040397642421
 30
0.0
 11
1486.9509083781379
 21
1385.507439764242
 31
0.0
  0
LINE
  5
8661
  8
1
 10
1464.9509083781379
 20
1375.901539764242
 30
0.0
 11
1464.9509083781379
 21
1372.970539764241
 31
0.0
  0
LINE
  5
8662
  8
1
 10
1499.0975083781379
 20
1404.5532397642421
 30
0.0
 11
1504.9509083781379
 21
1380.970539764241
 31
0.0
  0
LINE
  5
8663
  8
1
 10
1504.9509083781379
 20
1372.970539764241
 30
0.0
 11
1504.9509083781379
 21
1380.970539764241
 31
0.0
  0
LINE
  5
8664
  8
1
 10
1556.950908378137
 20
1312.9705397642419
 30
0.0
 11
1556.9509083781379
 21
1237.970539764241
 31
0.0
  0
LINE
  5
8665
  8
1
 10
1566.9509083781379
 20
1312.9705397642419
 30
0.0
 11
1566.950908378137
 21
1342.9705397642419
 31
0.0
  0
LINE
  5
8666
  8
1
 10
1946.681926878603
 20
1372.970539764241
 30
0.0
 11
2208.681926878603
 21
1372.970539764241
 31
0.0
  0
LINE
  5
8667
  8
2
 10
2223.1946923511132
 20
1462.9705397642419
 30
0.0
 11
1830.2846850542439
 21
1462.9705397642419
 31
0.0
  0
LINE
  5
8668
  8
1
 10
1966.681926878603
 20
1372.970539764241
 30
0.0
 11
1966.681926878603
 21
1312.9705397642419
 31
0.0
  0
LINE
  5
8669
  8
1
 10
1963.481926878603
 20
1372.970539764241
 30
0.0
 11
1963.481926878603
 21
1312.9705397642419
 31
0.0
  0
LINE
  5
866A
  8
1
 10
1851.6819268786039
 20
1312.9705397642419
 30
0.0
 11
1943.681926878603
 21
1312.9705397642419
 31
0.0
  0
LINE
  5
866B
  8
1
 10
1924.6819268786039
 20
1312.9705397642419
 30
0.0
 11
1924.681926878603
 21
1237.970539764241
 31
0.0
  0
LINE
  5
866C
  8
1
 10
1931.6819268786039
 20
1361.3705397642409
 30
0.0
 11
1881.6819268786039
 21
1361.3705397642409
 31
0.0
  0
LINE
  5
866D
  8
1
 10
1936.6819268786039
 20
1450.4705397642419
 30
0.0
 11
1931.6819268786039
 21
1450.4705397642419
 31
0.0
  0
ARC
  5
866E
  8
1
 10
1937.682026878603
 20
1426.4705397642419
 30
0.0
 40
1.0000999999999991
 50
180.0
 51
269.99650000000003
  0
ARC
  5
866F
  8
1
 10
1945.681926878603
 20
1424.4705397642419
 30
0.0
 40
1.0000999999999991
 50
0.0
 51
89.996500000000054
  0
LINE
  5
8670
  8
1
 10
1937.681926878603
 20
1425.470539764241
 30
0.0
 11
1945.681926878603
 21
1425.470539764241
 31
0.0
  0
LINE
  5
8671
  8
1
 10
1936.6819268786039
 20
1475.470539764241
 30
0.0
 11
1931.6819268786039
 21
1475.470539764241
 31
0.0
  0
LINE
  5
8672
  8
1
 10
1931.6819268786039
 20
1475.470539764241
 30
0.0
 11
1931.6819268786039
 21
1450.4705397642419
 31
0.0
  0
LINE
  5
8673
  8
1
 10
1213.216553461976
 20
1591.1705397642429
 30
0.0
 11
1086.950908378137
 21
1591.170539764242
 31
0.0
  0
LINE
  5
8674
  8
1
 10
1212.0896848976879
 20
1586.670539764242
 30
0.0
 11
1086.950908378137
 21
1586.670539764242
 31
0.0
  0
LINE
  5
8675
  8
1
 10
1136.950908378137
 20
1631.170539764242
 30
0.0
 11
1136.950908378137
 21
1591.170539764242
 31
0.0
  0
LINE
  5
8676
  8
1
 10
1096.950908378137
 20
1634.370539764242
 30
0.0
 11
1096.950908378137
 21
1631.170539764242
 31
0.0
  0
LINE
  5
8677
  8
1
 10
1946.681926878603
 20
1559.9705397642419
 30
0.0
 11
2208.681926878603
 21
1559.9705397642419
 31
0.0
  0
LINE
  5
8678
  8
1
 10
1931.6819268786039
 20
1751.4705397642419
 30
0.0
 11
1931.6819268786039
 21
1624.4705397642419
 31
0.0
  0
LINE
  5
8679
  8
1
 10
1881.6819268786039
 20
1751.4705397642419
 30
0.0
 11
1881.6819268786039
 21
1624.4705397642419
 31
0.0
  0
LINE
  5
867A
  8
1
 10
1966.681926878603
 20
1631.1705397642411
 30
0.0
 11
1966.681926878603
 21
1559.9705397642419
 31
0.0
  0
LINE
  5
867B
  8
1
 10
1931.6819268786039
 20
1564.5705397642409
 30
0.0
 11
1881.6819268786039
 21
1564.5705397642409
 31
0.0
  0
LINE
  5
867C
  8
1
 10
1881.6819268786039
 20
1569.9705397642419
 30
0.0
 11
1881.6819268786039
 21
1545.9705397642419
 31
0.0
  0
LINE
  5
867D
  8
1
 10
1936.6819268786039
 20
1499.4705397642419
 30
0.0
 11
1946.681926878603
 21
1499.4705397642419
 31
0.0
  0
LINE
  5
867E
  8
1
 10
1931.6819268786039
 20
1624.4705397642419
 30
0.0
 11
1881.6819268786039
 21
1624.4705397642419
 31
0.0
  0
LINE
  5
867F
  8
1
 10
1956.681926878603
 20
1634.370539764242
 30
0.0
 11
1956.681926878603
 21
1631.1705397642411
 31
0.0
  0
LINE
  5
8680
  8
1
 10
1851.6819268786039
 20
1787.9705397642419
 30
0.0
 11
1943.681926878603
 21
1787.9705397642419
 31
0.0
  0
LINE
  5
8681
  8
1
 10
1931.6819268786039
 20
1751.4705397642419
 30
0.0
 11
1881.6819268786039
 21
1751.4705397642419
 31
0.0
  0
LINE
  5
8682
  8
1
 10
776.95090837813859
 20
2449.7941857972069
 30
0.0
 11
919.45090837813848
 21
2449.7941857972069
 31
0.0
  0
LINE
  5
8683
  8
1
 10
776.9509083781395
 20
2859.7941857972069
 30
0.0
 11
919.45090837813848
 21
2859.7941857972069
 31
0.0
  0
LINE
  5
8684
  8
1
 10
1213.5157892588211
 20
2914.7941857972069
 30
0.0
 11
695.95090837813939
 21
2914.7941857972069
 31
0.0
  0
LINE
  5
8685
  8
1
 10
1213.5157892588211
 20
3150.7941857972078
 30
0.0
 11
695.95090837813939
 21
3150.7941857972069
 31
0.0
  0
LINE
  5
8686
  8
2
 10
1236.9821699255031
 20
3032.7941857972069
 30
0.0
 11
687.35178835192255
 21
3032.7941857972069
 31
0.0
  0
LINE
  5
8687
  8
1
 10
836.95090837813859
 20
2436.7941857972069
 30
0.0
 11
1566.950908378139
 21
2436.7941857972069
 31
0.0
  0
LINE
  5
8688
  8
1
 10
836.95090837813859
 20
2344.7941857972069
 30
0.0
 11
1566.950908378139
 21
2344.7941857972069
 31
0.0
  0
LINE
  5
8689
  8
1
 10
776.95090837813859
 20
2449.7941857972069
 30
0.0
 11
776.95090837813859
 21
2859.7941857972069
 31
0.0
  0
LINE
  5
868A
  8
2
 10
936.9509083781395
 20
3184.9755658058789
 30
0.0
 11
936.95090837813859
 21
2335.6278825212999
 31
0.0
  0
LINE
  5
868B
  8
1
 10
756.9509083781395
 20
2914.7941857972069
 30
0.0
 11
756.9509083781395
 21
2417.7941857972069
 31
0.0
  0
LINE
  5
868C
  8
1
 10
756.95090837813859
 20
2417.7941857972069
 30
0.0
 11
836.95090837813859
 21
2417.7941857972069
 31
0.0
  0
POINT
  5
868D
  8
1
 10
756.9509083781395
 20
2417.7941857972069
 30
0.0
  0
LINE
  5
868E
  8
1
 10
836.95090837813859
 20
2344.7941857972069
 30
0.0
 11
836.95090837813859
 21
2436.7941857972069
 31
0.0
  0
LINE
  5
868F
  8
1
 10
954.45090837813859
 20
2914.7941857972069
 30
0.0
 11
954.45090837813859
 21
2424.7941857972069
 31
0.0
  0
LINE
  5
8690
  8
1
 10
919.45090837813848
 20
2914.7941857972078
 30
0.0
 11
919.45090837813848
 21
2424.7941857972069
 31
0.0
  0
LINE
  5
8691
  8
1
 10
1000.450908378138
 20
2374.7941857972069
 30
0.0
 11
873.45090837813859
 21
2374.7941857972069
 31
0.0
  0
LINE
  5
8692
  8
1
 10
1000.450908378138
 20
2424.7941857972078
 30
0.0
 11
873.45090837813859
 21
2424.7941857972069
 31
0.0
  0
LINE
  5
8693
  8
1
 10
873.45090837813859
 20
2424.7941857972069
 30
0.0
 11
873.45090837813859
 21
2374.7941857972069
 31
0.0
  0
LINE
  5
8694
  8
1
 10
1000.450908378138
 20
2424.7941857972078
 30
0.0
 11
1000.450908378138
 21
2374.7941857972069
 31
0.0
  0
LINE
  5
8695
  8
1
 10
692.9509083781395
 20
2887.794185797206
 30
0.0
 11
692.9509083781395
 21
3177.7941857972069
 31
0.0
  0
LINE
  5
8696
  8
1
 10
695.95090837813939
 20
2887.794185797206
 30
0.0
 11
695.95090837813939
 21
3177.7941857972069
 31
0.0
  0
LINE
  5
8697
  8
1
 10
695.95090837813939
 20
2887.794185797206
 30
0.0
 11
692.9509083781395
 21
2887.794185797206
 31
0.0
  0
LINE
  5
8698
  8
1
 10
695.95090837813939
 20
3177.7941857972069
 30
0.0
 11
692.9509083781395
 21
3177.7941857972069
 31
0.0
  0
POINT
  5
8699
  8
1
 10
756.95090837813859
 20
3197.7941857972069
 30
0.0
  0
POINT
  5
869A
  8
1
 10
756.95090837813859
 20
3197.7941857972069
 30
0.0
  0
LINE
  5
869B
  8
1
 10
756.95090837813859
 20
3197.7941857972069
 30
0.0
 11
756.95090837813859
 21
3150.7941857972078
 31
0.0
  0
LINE
  5
869C
  8
1
 10
1096.9509083781379
 20
2449.794185797206
 30
0.0
 11
1096.9509083781379
 21
2859.7941857972069
 31
0.0
  0
LINE
  5
869D
  8
1
 10
1116.9509083781379
 20
2797.7941857972069
 30
0.0
 11
1116.9509083781379
 21
2914.7941857972069
 31
0.0
  0
LINE
  5
869E
  8
1
 10
1315.950908378139
 20
2701.7941857972078
 30
0.0
 11
1517.950908378139
 21
2701.7941857972078
 31
0.0
  0
LINE
  5
869F
  8
1
 10
1315.950908378139
 20
2439.7941857972069
 30
0.0
 11
1517.950908378139
 21
2439.7941857972069
 31
0.0
  0
LINE
  5
86A0
  8
1
 10
1116.9509083781379
 20
2797.7941857972069
 30
0.0
 11
1556.9509083781379
 21
2797.7941857972069
 31
0.0
  0
LINE
  5
86A1
  8
1
 10
1334.3509083781389
 20
2374.7941857972069
 30
0.0
 11
1499.550908378139
 21
2374.7941857972069
 31
0.0
  0
LINE
  5
86A2
  8
1
 10
1334.3509083781389
 20
2424.7941857972078
 30
0.0
 11
1499.550908378139
 21
2424.7941857972078
 31
0.0
  0
LINE
  5
86A3
  8
1
 10
1315.950908378139
 20
2701.7941857972078
 30
0.0
 11
1315.950908378139
 21
2439.7941857972069
 31
0.0
  0
LINE
  5
86A4
  8
1
 10
1334.3509083781389
 20
2424.7941857972078
 30
0.0
 11
1334.3509083781389
 21
2374.7941857972069
 31
0.0
  0
LINE
  5
86A5
  8
1
 10
1517.950908378139
 20
2701.7941857972078
 30
0.0
 11
1517.950908378139
 21
2439.7941857972069
 31
0.0
  0
LINE
  5
86A6
  8
2
 10
1416.950908378139
 20
2725.4433198026582
 30
0.0
 11
1416.950908378139
 21
2332.3303319238198
 31
0.0
  0
LINE
  5
86A7
  8
1
 10
1453.450908378139
 20
2429.7941857972078
 30
0.0
 11
1380.450908378139
 21
2429.7941857972078
 31
0.0
  0
LINE
  5
86A8
  8
1
 10
1404.950908378139
 20
2374.7941857972069
 30
0.0
 11
1428.950908378139
 21
2374.7941857972069
 31
0.0
  0
LINE
  5
86A9
  8
1
 10
1404.450908378139
 20
2424.7941857972078
 30
0.0
 11
1429.450908378139
 21
2424.7941857972078
 31
0.0
  0
LINE
  5
86AA
  8
1
 10
1380.450908378139
 20
2429.7941857972078
 30
0.0
 11
1380.450908378139
 21
2439.7941857972069
 31
0.0
  0
LINE
  5
86AB
  8
1
 10
1404.450908378139
 20
2429.7941857972078
 30
0.0
 11
1404.450908378139
 21
2424.7941857972078
 31
0.0
  0
LINE
  5
86AC
  8
1
 10
1429.450908378139
 20
2429.7941857972078
 30
0.0
 11
1429.450908378139
 21
2424.7941857972078
 31
0.0
  0
LINE
  5
86AD
  8
1
 10
1499.550908378139
 20
2424.7941857972078
 30
0.0
 11
1499.550908378139
 21
2374.7941857972069
 31
0.0
  0
LINE
  5
86AE
  8
1
 10
1454.450908378139
 20
2430.7941857972069
 30
0.0
 11
1454.450908378139
 21
2438.7941857972069
 31
0.0
  0
ARC
  5
86AF
  8
1
 10
1453.450908378139
 20
2430.794285797208
 30
0.0
 40
1.0000999999999991
 50
270.0
 51
359.99650000000003
  0
ARC
  5
86B0
  8
1
 10
1455.450908378139
 20
2438.7941857972069
 30
0.0
 40
1.0000999999999991
 50
90.0
 51
179.9965
  0
LINE
  5
86B1
  8
1
 10
1566.950908378139
 20
2344.7941857972069
 30
0.0
 11
1566.950908378139
 21
2436.7941857972069
 31
0.0
  0
LINE
  5
86B2
  8
1
 10
1556.95090837814
 20
2436.7941857972069
 30
0.0
 11
1556.95090837814
 21
2797.7941857972069
 31
0.0
  0
POINT
  5
86B3
  8
1
 10
1556.95090837814
 20
2797.7941857972069
 30
0.0
  0
LINE
  5
86B4
  8
1
 10
1213.5157892588211
 20
2914.7941857972069
 30
0.0
 11
1213.5157892588211
 21
3150.7941857972078
 31
0.0
  0
LINE
  5
86B5
  8
1
 10
1116.9509083781379
 20
3197.7941857972069
 30
0.0
 11
756.95090837813859
 21
3197.794185797206
 31
0.0
  0
POINT
  5
86B6
  8
1
 10
1116.9509083781379
 20
3197.7941857972069
 30
0.0
  0
LINE
  5
86B7
  8
1
 10
1116.9509083781379
 20
3150.7941857972078
 30
0.0
 11
1116.9509083781379
 21
3197.7941857972069
 31
0.0
  0
LINE
  5
86B8
  8
1
 10
2421.681926878603
 20
1690.359370089197
 30
0.0
 11
2421.681926878603
 21
1325.3593700891979
 31
0.0
  0
LINE
  5
86B9
  8
1
 10
2657.6819268786039
 20
1690.359370089197
 30
0.0
 11
2657.681926878603
 21
1325.3593700891979
 31
0.0
  0
LINE
  5
86BA
  8
1
 10
2659.6819268786039
 20
1690.359370089197
 30
0.0
 11
2659.681926878603
 21
1325.3593700891979
 31
0.0
  0
LINE
  5
86BB
  8
1
 10
2419.6819268786021
 20
1690.359370089197
 30
0.0
 11
2419.6819268786021
 21
1325.3593700891979
 31
0.0
  0
LINE
  5
86BC
  8
1
 10
2394.681926878603
 20
1685.581709439286
 30
0.0
 11
2394.681926878603
 21
1312.9705397642419
 31
0.0
  0
LINE
  5
86BD
  8
1
 10
2684.681926878603
 20
1690.359370089197
 30
0.0
 11
2684.681926878603
 21
1312.9705397642419
 31
0.0
  0
LINE
  5
86BE
  8
1
 10
2659.6819268786039
 20
1710.581709439286
 30
0.0
 11
2659.6819268786039
 21
1452.0116355364121
 31
0.0
  0
LINE
  5
86BF
  8
1
 10
2419.6819268786039
 20
1710.581709439286
 30
0.0
 11
2419.6819268786021
 21
1452.0116355364121
 31
0.0
  0
LINE
  5
86C0
  8
1
 10
2657.6819268786039
 20
1710.581709439286
 30
0.0
 11
2657.681926878603
 21
1452.0116355364121
 31
0.0
  0
LINE
  5
86C1
  8
1
 10
2421.6819268786039
 20
1710.581709439286
 30
0.0
 11
2421.681926878603
 21
1452.0116355364121
 31
0.0
  0
LINE
  5
86C2
  8
2
 10
2539.681926878603
 20
1964.901558382415
 30
0.0
 11
2539.6819268786021
 21
1126.970539764241
 31
0.0
  0
LINE
  5
86C3
  8
1
 10
2356.6819268786012
 20
1629.870539764242
 30
0.0
 11
2356.6819268786012
 21
1312.9705397642419
 31
0.0
  0
LINE
  5
86C4
  8
1
 10
2421.681926878603
 20
1335.359370089197
 30
0.0
 11
2657.681926878603
 21
1335.359370089197
 31
0.0
  0
LINE
  5
86C5
  8
1
 10
2419.6819268786021
 20
1325.3593700891979
 30
0.0
 11
2421.681926878603
 21
1325.3593700891979
 31
0.0
  0
LINE
  5
86C6
  8
1
 10
2657.681926878603
 20
1325.3593700891979
 30
0.0
 11
2659.681926878603
 21
1325.3593700891979
 31
0.0
  0
LINE
  5
86C7
  8
1
 10
2704.6819268786021
 20
1312.9705397642419
 30
0.0
 11
2704.6819268786021
 21
1237.970539764241
 31
0.0
  0
DIMENSION
  5
86C8
  8
3
  2
*D7
 10
2657.681926878603
 20
1970.145966998964
 30
0.0
 11
2539.681926878603
 21
2007.645966998964
 31
0.0
 70
     0
 13
2421.681926878603
 23
1924.9354206449229
 33
0.0
 14
2657.681926878603
 24
1924.9354206449229
 34
0.0
1001
ACAD
1000
DSTYLE
1002
{
1070
   287
1070
     3
1070
    40
1040
15.0
1070
   143
1040
0.039
1070
   172
1070
     1
1070
   271
1070
     0
1070
   279
1070
     0
1070
   288
1070
     1
1002
}
  0
LINE
  5
86C9
  8
1
 10
2659.6819268786039
 20
1690.359370089197
 30
0.0
 11
2684.681926878603
 21
1690.359370089197
 31
0.0
  0
ARC
  5
86CA
  8
1
 10
2667.681926878603
 20
1853.470566528468
 30
0.0
 40
4.0
 50
180.0
 51
270.0
  0
ARC
  5
86CB
  8
1
 10
2661.681926878603
 20
1869.470566528468
 30
0.0
 40
2.0
 50
0.0
 51
90.0
  0
ARC
  5
86CC
  8
1
 10
2661.681926878603
 20
1507.4705397642419
 30
0.0
 40
2.0
 50
270.0
 51
0.0
  0
ARC
  5
86CD
  8
1
 10
2667.681926878603
 20
1523.4705397642419
 30
0.0
 40
4.0
 50
90.0
 51
180.0
  0
LINE
  5
86CE
  8
1
 10
2660.681926878603
 20
1871.470566528468
 30
0.0
 11
2660.681926878603
 21
1685.581709439286
 31
0.0
  0
LINE
  5
86CF
  8
1
 10
2421.681926878603
 20
1924.9354206449229
 30
0.0
 11
2421.681926878603
 21
1710.581709439286
 31
0.0
  0
LINE
  5
86D0
  8
1
 10
2657.681926878603
 20
1924.9354206449229
 30
0.0
 11
2657.681926878603
 21
1710.581709439286
 31
0.0
  0
LINE
  5
86D1
  8
1
 10
2419.6819268786021
 20
1924.9354206449229
 30
0.0
 11
2419.6819268786021
 21
1710.581709439286
 31
0.0
  0
LINE
  5
86D2
  8
1
 10
2659.681926878603
 20
1924.9354206449229
 30
0.0
 11
2659.681926878603
 21
1710.581709439286
 31
0.0
  0
POLYLINE
  5
86D3
  8
1
 66
     1
 10
0.0
 20
0.0
 30
0.0
 70
     1
  0
VERTEX
  5
9050
  8
1
 10
2356.6819268786012
 20
1591.1705397642411
 30
0.0
  0
VERTEX
  5
9051
  8
1
 10
2356.6819268786012
 20
1631.1705397642411
 30
0.0
  0
VERTEX
  5
9052
  8
1
 10
2358.6819268786021
 20
1631.1705397642411
 30
0.0
 42
-0.4142135623730951
  0
VERTEX
  5
9053
  8
1
 10
2361.6819268786021
 20
1628.170539764242
 30
0.0
  0
VERTEX
  5
9054
  8
1
 10
2361.6819268786021
 20
1600.6705397642411
 30
0.0
 42
0.4142135623730951
  0
VERTEX
  5
9055
  8
1
 10
2366.1819268786021
 20
1596.170539764242
 30
0.0
  0
VERTEX
  5
9056
  8
1
 10
2393.6819268786021
 20
1596.170539764242
 30
0.0
 42
-0.4142135623730951
  0
VERTEX
  5
9057
  8
1
 10
2396.6819268786021
 20
1593.1705397642411
 30
0.0
  0
VERTEX
  5
9058
  8
1
 10
2396.6819268786021
 20
1591.1705397642411
 30
0.0
  0
SEQEND
  5
9059
  8
1
  0
LINE
  5
86DE
  8
1
 10
2356.6819268786012
 20
1629.870539764242
 30
0.0
 11
2356.6819268786012
 21
1579.870539764242
 31
0.0
  0
LINE
  5
86DF
  8
1
 10
2356.6819268786012
 20
1629.8705397642429
 30
0.0
 11
2356.6819268786012
 21
1589.8705397642429
 31
0.0
  0
LINE
  5
86E0
  8
1
 10
2369.681926878603
 20
1591.1705397642411
 30
0.0
 11
2419.6819268786039
 21
1591.1705397642411
 31
0.0
  0
LINE
  5
86E1
  8
1
 10
2369.681926878603
 20
1585.1705397642411
 30
0.0
 11
2419.6819268786039
 21
1585.1705397642411
 31
0.0
  0
LINE
  5
86E2
  8
1
 10
2369.681926878603
 20
1585.1705397642411
 30
0.0
 11
2369.681926878603
 21
1589.870539764242
 31
0.0
  0
LINE
  5
86E3
  8
1
 10
2369.681926878603
 20
1591.170539764242
 30
0.0
 11
2369.681926878603
 21
1585.1705397642411
 31
0.0
  0
LINE
  5
86E4
  8
1
 10
2394.681926878603
 20
1685.581709439286
 30
0.0
 11
2419.6819268786039
 21
1685.581709439286
 31
0.0
  0
LINE
  5
86E5
  8
1
 10
2419.6819268786039
 20
1705.4705397642419
 30
0.0
 11
1931.681926878603
 21
1705.4705397642419
 31
0.0
  0
LINE
  5
86E6
  8
1
 10
2394.681926878603
 20
1670.4705397642419
 30
0.0
 11
1931.681926878603
 21
1670.4705397642419
 31
0.0
  0
LINE
  5
86E7
  8
1
 10
2366.6819268786021
 20
1634.370539764242
 30
0.0
 11
2366.6819268786012
 21
1631.1705397642411
 31
0.0
  0
LINE
  5
86E8
  8
1
 10
2660.681926878603
 20
1505.4705397642419
 30
0.0
 11
2660.681926878603
 21
1685.581709439286
 31
0.0
  0
LINE
  5
86E9
  8
1
 10
2661.681926878603
 20
1505.4705397642419
 30
0.0
 11
2660.681926878603
 21
1505.4705397642419
 31
0.0
  0
LINE
  5
86EA
  8
1
 10
2421.681926878603
 20
1910.9294439920709
 30
0.0
 11
2657.681926878603
 21
1910.9294439920709
 31
0.0
  0
LINE
  5
86EB
  8
1
 10
2419.6819268786021
 20
1924.9354206449229
 30
0.0
 11
2421.681926878603
 21
1924.9354206449229
 31
0.0
  0
LINE
  5
86EC
  8
1
 10
2657.681926878603
 20
1924.9354206449229
 30
0.0
 11
2659.681926878603
 21
1924.935420644922
 31
0.0
  0
LINE
  5
86ED
  8
1
 10
2661.681926878603
 20
1871.470566528468
 30
0.0
 11
2660.681926878603
 21
1871.470566528468
 31
0.0
  0
LINE
  5
86EE
  8
1
 10
2663.681926878603
 20
1869.470566528468
 30
0.0
 11
2663.681926878603
 21
1513.344494962115
 31
0.0
  0
DIMENSION
  5
86EF
  8
3
  2
*D8
 10
2813.6742800115699
 20
1530.4705397642419
 30
0.0
 11
2813.6742800115699
 21
1686.6396576510949
 31
0.0
 70
   128
 13
2685.6819268786021
 23
1845.4705397642419
 33
0.0
 14
2685.6819268786021
 24
1530.4705397642419
 34
0.0
 50
90.0
1001
ACAD
1000
DSTYLE
1002
{
1070
   287
1070
     3
1070
     3
1000
φ<>
1070
    40
1040
15.0
1070
   143
1040
0.039
1070
   172
1070
     1
1070
   271
1070
     0
1070
   279
1070
     0
1070
   288
1070
     1
1002
}
  0
LINE
  5
86F0
  8
1
 10
2685.6819268786021
 20
1530.4705397642419
 30
0.0
 11
2685.6819268786021
 21
1846.470566528468
 31
0.0
  0
LINE
  5
86F1
  8
1
 10
2663.681926878603
 20
1523.4705397642419
 30
0.0
 11
2663.681926878603
 21
1507.4705397642419
 31
0.0
  0
LINE
  5
86F2
  8
1
 10
2683.681926878603
 20
1527.4705397642419
 30
0.0
 11
2667.681926878603
 21
1527.4705397642419
 31
0.0
  0
ARC
  5
86F3
  8
1
 10
2683.681926878603
 20
1529.4705397642419
 30
0.0
 40
2.0
 50
270.0
 51
0.0
  0
LINE
  5
86F4
  8
1
 10
2685.6819268786021
 20
1530.4705397642419
 30
0.0
 11
2685.6819268786021
 21
1529.4705397642419
 31
0.0
  0
LINE
  5
86F5
  8
1
 10
2663.681926878603
 20
1853.470566528468
 30
0.0
 11
2663.681926878603
 21
1869.470566528468
 31
0.0
  0
ARC
  5
86F6
  8
1
 10
2683.681926878603
 20
1847.470566528468
 30
0.0
 40
2.0
 50
0.0
 51
90.0
  0
LINE
  5
86F7
  8
1
 10
2683.681926878603
 20
1849.470566528468
 30
0.0
 11
2667.681926878603
 21
1849.470566528468
 31
0.0
  0
DIMENSION
  5
8717
  8
3
  2
*D9
 10
440.96140895949429
 20
1913.929443992072
 30
0.0
 11
403.46140895949389
 21
1800.9499918781571
 31
0.0
 70
     0
 13
680.49078202765213
 23
1687.970539764241
 33
0.0
 14
955.71586096282863
 24
1913.929443992072
 34
0.0
 50
90.0
1001
ACAD
1000
DSTYLE
1002
{
1070
   287
1070
     4
1070
    40
1040
15.0
1070
    75
1070
     1
1070
   143
1040
0.039
1070
   172
1070
     1
1070
   271
1070
     0
1070
   279
1070
     1
1070
   288
1070
     1
1002
}
  0
DIMENSION
  5
8718
  8
3
  2
*D10
 10
1556.950908378137
 20
2071.5030722292859
 30
0.0
 11
1107.4959740289589
 21
2071.5030722292859
 31
0.0
 70
   128
 13
691.95090837813768
 23
1690.359370089197
 33
0.0
 14
1556.950908378137
 24
1312.9705397642419
 34
0.0
1001
ACAD
1000
DSTYLE
1002
{
1070
   287
1070
     3
1070
    40
1040
15.0
1070
   143
1040
0.039
1070
   172
1070
     1
1070
   271
1070
     0
1070
   279
1070
     0
1070
   288
1070
     1
1002
}
  0
DIMENSION
  5
8719
  8
3
  2
*D11
 10
1851.6819268786039
 20
2057.2493638566921
 30
0.0
 11
2204.0251554904889
 21
2057.2493638566921
 31
0.0
 70
   128
  1
MAX\P760
 13
2539.681926878603
 23
2036.9429820915841
 33
0.0
 14
1851.6819268786039
 24
1787.9705397642419
 34
0.0
1001
ACAD
1000
DSTYLE
1002
{
1070
   287
1070
     3
1070
    40
1040
15.0
1070
   143
1040
0.039
1070
   172
1070
     1
1070
   271
1070
     0
1070
   279
1070
     0
1070
   288
1070
     1
1002
}
  0
DIMENSION
  5
871A
  8
3
  2
*D12
 10
1116.9509083781379
 20
3305.6964123330799
 30
0.0
 11
941.86657339757937
 21
3305.6964123330799
 31
0.0
 70
   128
 13
756.95090837813859
 23
3197.794185797206
 33
0.0
 14
1116.9509083781379
 24
3197.7941857972069
 34
0.0
1001
ACAD
1000
DSTYLE
1002
{
1070
   287
1070
     3
1070
    40
1040
15.0
1070
   143
1040
0.039
1070
   172
1070
     1
1070
   271
1070
     0
1070
   279
1070
     0
1070
   288
1070
     1
1002
}
  0
DIMENSION
  5
871B
  8
3
  2
*D13
 10
1556.95090837814
 20
3305.6964123330799
 30
0.0
 11
1336.950908378139
 21
3343.1964123330799
 31
0.0
 70
     0
 13
1116.9509083781379
 23
3197.7941857972069
 33
0.0
 14
1556.95090837814
 24
2797.7941857972069
 34
0.0
1001
ACAD
1000
DSTYLE
1002
{
1070
   287
1070
     4
1070
    40
1040
15.0
1070
    75
1070
     1
1070
   143
1040
0.039
1070
   172
1070
     1
1070
   271
1070
     0
1070
   279
1070
     1
1070
   288
1070
     1
1002
}
  0
DIMENSION
  5
871C
  8
3
  2
*D14
 10
1688.7365506591959
 20
2417.7941857972069
 30
0.0
 11
1688.7365506591959
 21
2606.2665298644861
 31
0.0
 70
   128
 13
1556.95090837814
 23
2797.7941857972069
 33
0.0
 14
1556.95090837814
 24
2417.7941857972069
 34
0.0
 50
90.0
1001
ACAD
1000
DSTYLE
1002
{
1070
   287
1070
     3
1070
    40
1040
15.0
1070
   143
1040
0.039
1070
   172
1070
     1
1070
   271
1070
     0
1070
   279
1070
     0
1070
   288
1070
     1
1002
}
  0
DIMENSION
  5
871D
  8
3
  2
*D15
 10
634.03897946630445
 20
2417.7941857972069
 30
0.0
 11
634.03897946630423
 21
2828.6793765884431
 31
0.0
 70
   128
 13
756.95090837813859
 23
3197.794185797206
 33
0.0
 14
756.9509083781395
 24
2417.7941857972069
 34
0.0
 50
90.0
1001
ACAD
1000
DSTYLE
1002
{
1070
   287
1070
     3
1070
    40
1040
15.0
1070
   143
1040
0.039
1070
   172
1070
     1
1070
   271
1070
     0
1070
   279
1070
     0
1070
   288
1070
     1
1002
}
  0
LINE
  5
871E
  8
1
 10
954.45090837813859
 20
2859.7941857972069
 30
0.0
 11
1096.950908378139
 21
2859.7941857972069
 31
0.0
  0
LINE
  5
871F
  8
1
 10
954.45090837813859
 20
2449.7941857972069
 30
0.0
 11
1096.9509083781379
 21
2449.7941857972069
 31
0.0
  0
DIMENSION
  5
8720
  8
3
  2
*D16
 10
2660.681926878603
 20
2057.2493638566921
 30
0.0
 11
2600.181926878603
 21
2096.8923495709601
 31
0.0
 12
-3877.7875086700301
 22
-279.87957054802058
 32
0.0
 70
   128
 13
2539.681926878603
 23
2036.9429820915841
 33
0.0
 14
2660.681926878603
 24
1871.470566528468
 34
0.0
1001
ACAD
1000
DSTYLE
1002
{
1070
   288
1070
     1
1070
   172
1070
     1
1070
    75
1070
     1
1070
    40
1040
15.0
1070
   271
1070
     0
1070
   143
1040
0.039
1002
}
  0
LINE
  5
8BCD
  8
1
 10
2704.6819268786021
 20
1126.970539764241
 30
0.0
 11
1924.681926878603
 21
1126.970539764241
 31
0.0
  0
LINE
  5
8BCE
  8
1
 10
2704.6819268786021
 20
1201.970539764241
 30
0.0
 11
1924.681926878603
 21
1201.970539764241
 31
0.0
  0
LINE
  5
8BE9
  8
1
 10
1556.9509083781379
 20
1126.970539764241
 30
0.0
 11
756.95090837813859
 21
1126.970539764241
 31
0.0
  0
LINE
  5
8BEA
  8
1
 10
1556.9509083781379
 20
1201.9705397642419
 30
0.0
 11
756.95090837813859
 21
1201.970539764241
 31
0.0
  0
LINE
  5
8C04
  8
1
 10
756.95090837813859
 20
1201.9705397642419
 30
0.0
 11
756.95090837813859
 21
1126.970539764241
 31
0.0
  0
LINE
  5
8C72
  8
1
 10
1556.9509083781379
 20
1201.9705397642419
 30
0.0
 11
1556.9509083781379
 21
1126.970539764241
 31
0.0
  0
LINE
  5
8C81
  8
1
 10
1924.681926878603
 20
1201.970539764241
 30
0.0
 11
1924.681926878603
 21
1126.970539764241
 31
0.0
  0
LINE
  5
8D48
  8
1
 10
2704.6819268786021
 20
1201.970539764241
 30
0.0
 11
2704.6819268786021
 21
1126.970539764241
 31
0.0
  0
DIMENSION
  5
8F94
  8
3
  2
*D17
 10
936.95090837813768
 20
1024.986926564319
 30
0.0
 11
846.95090837813825
 21
1024.986926564319
 31
0.0
 70
   128
 13
756.95090837813859
 23
1126.970539764241
 33
0.0
 14
936.95090837813768
 24
1126.970539764241
 34
0.0
1001
ACAD
1000
DSTYLE
1002
{
1070
   287
1070
     3
1070
    40
1040
15.0
1070
   143
1040
0.039
1070
   172
1070
     1
1070
   271
1070
     0
1070
   279
1070
     0
1070
   288
1070
     1
1002
}
  0
DIMENSION
  5
8FA1
  8
3
  2
*D18
 10
1556.9509083781379
 20
1024.986926564319
 30
0.0
 11
1246.9509083781379
 21
1062.486926564319
 31
0.0
 70
     0
 13
936.95090837813768
 23
1126.970539764241
 33
0.0
 14
1556.9509083781379
 24
1126.970539764241
 34
0.0
1001
ACAD
1000
DSTYLE
1002
{
1070
   287
1070
     3
1070
    40
1040
15.0
1070
   143
1040
0.039
1070
   172
1070
     1
1070
   271
1070
     0
1070
   279
1070
     0
1002
}
  0
DIMENSION
  5
8FAE
  8
3
  2
*D19
 10
2539.6819268786021
 20
1024.986926564319
 30
0.0
 11
2232.1819268786021
 21
1062.486926564319
 31
0.0
 70
     0
 13
1924.681926878603
 23
1126.970539764241
 33
0.0
 14
2539.6819268786021
 24
1126.970539764241
 34
0.0
1001
ACAD
1000
DSTYLE
1002
{
1070
   287
1070
     3
1070
    40
1040
15.0
1070
   143
1040
0.039
1070
   172
1070
     1
1070
   271
1070
     0
1070
   279
1070
     0
1002
}
  0
DIMENSION
  5
8FBD
  8
3
  2
*D20
 10
2704.6819268786021
 20
1024.986926564319
 30
0.0
 11
2622.1819268786021
 21
1062.486926564319
 31
0.0
 70
     0
 13
2539.6819268786021
 23
1126.970539764241
 33
0.0
 14
2704.6819268786021
 24
1126.970539764241
 34
0.0
1001
ACAD
1000
DSTYLE
1002
{
1070
   287
1070
     3
1070
    40
1040
15.0
1070
   143
1040
0.039
1070
   172
1070
     1
1070
   271
1070
     0
1070
   279
1070
     0
1002
}
  0
DIMENSION
  5
8FCC
  8
3
  2
*D21
 10
440.1949639236899
 20
1126.9705397642419
 30
0.0
 11
402.69496392368978
 21
1015.54196833567
 31
0.0
 70
     0
 13
756.95090837813859
 23
1201.9705397642419
 33
0.0
 14
756.95090837813859
 24
1126.970539764241
 34
0.0
 50
90.0
1001
ACAD
1000
DSTYLE
1002
{
1070
   287
1070
     3
1070
    40
1040
15.0
1070
   143
1040
0.039
1070
   172
1070
     1
1070
   271
1070
     0
1070
   279
1070
     0
1070
     6
1000
DOT
1002
}
  0
DIMENSION
  5
8FDD
  8
3
  2
*D22
 10
440.1949639236899
 20
1237.9705397642419
 30
0.0
 11
319.12353535226117
 21
1256.5062540499559
 31
0.0
 70
     0
 13
756.95090837813859
 23
1201.9705397642419
 33
0.0
 14
756.95090837813757
 24
1237.970539764241
 34
0.0
 50
90.0
1001
ACAD
1000
DSTYLE
1002
{
1070
   287
1070
     4
1070
     3
1000
(<>)
1070
    40
1040
15.0
1070
   143
1040
0.039
1070
   172
1070
     1
1070
   271
1070
     0
1070
   279
1070
     1
1070
     6
1000
DOT
1002
}
  0
DIMENSION
  5
8FEA
  8
3
  2
*D23
 10
256.07686440664111
 20
1126.9705397642419
 30
0.0
 11
218.57686440664091
 21
1520.4499918781571
 31
0.0
 70
     0
 13
948.21586096282851
 23
1913.929443992072
 33
0.0
 14
756.95090837813859
 24
1126.970539764241
 34
0.0
 50
90.0
1001
ACAD
1000
DSTYLE
1002
{
1070
   287
1070
     3
1070
    40
1040
15.0
1070
   143
1040
0.039
1070
   172
1070
     1
1070
   271
1070
     0
1070
   279
1070
     0
1002
}
  0
ENDSEC
  0
EOF
