  0
SECTION
  2
HEADER
  9
$ACADVER
  1
AC1009
  9
$INSBASE
 10
0.0
 20
0.0
 30
0.0
  9
$EXTMIN
 10
0.0
 20
0.0
 30
0.0
  9
$EXTMAX
 10
3150.0
 20
4425.0
 30
0.0
  9
$LIMMIN
 10
0.0
 20
0.0
  9
$LIMMAX
 10
297.0
 20
210.0
  9
$ORTHOMODE
 70
     0
  9
$REGENMODE
 70
     1
  9
$FILLMODE
 70
     0
  9
$QTEXTMODE
 70
     0
  9
$MIRRTEXT
 70
     1
  9
$DRAGMODE
 70
     2
  9
$LTSCALE
 40
100.0
  9
$OSMODE
 70
    37
  9
$ATTMODE
 70
     1
  9
$TEXTSIZE
 40
180.0
  9
$TRACEWID
 40
0.05
  9
$TEXTSTYLE
  7
STANDARD
  9
$CLAYER
  8
4
  9
$CELTYPE
  6
BYLAYER
  9
$CECOLOR
 62
   256
  9
$DIMSCALE
 40
15.0
  9
$DIMASZ
 40
2.0
  9
$DIMEXO
 40
0.5
  9
$DIMDLI
 40
10.0
  9
$DIMRND
 40
0.0
  9
$DIMDLE
 40
0.0
  9
$DIMEXE
 40
1.0
  9
$DIMTP
 40
1.0
  9
$DIMTM
 40
1.0
  9
$DIMTXT
 40
3.0
  9
$DIMCEN
 40
0.0
  9
$DIMTSZ
 40
0.0
  9
$DIMTOL
 70
     0
  9
$DIMLIM
 70
     0
  9
$DIMTIH
 70
     0
  9
$DIMTOH
 70
     0
  9
$DIMSE1
 70
     0
  9
$DIMSE2
 70
     0
  9
$DIMTAD
 70
     1
  9
$DIMZIN
 70
     8
  9
$DIMBLK
  1

  9
$DIMASO
 70
     1
  9
$DIMSHO
 70
     1
  9
$DIMPOST
  1

  9
$DIMAPOST
  1

  9
$DIMALT
 70
     0
  9
$DIMALTD
 70
     2
  9
$DIMALTF
 40
0.039
  9
$DIMLFAC
 40
1.0
  9
$DIMTOFL
 70
     1
  9
$DIMTVP
 40
0.0
  9
$DIMTIX
 70
     0
  9
$DIMSOXD
 70
     0
  9
$DIMSAH
 70
     1
  9
$DIMBLK1
  1
OPEN
  9
$DIMBLK2
  1
OPEN
  9
$DIMSTYLE
  2
IGA
  9
$DIMCLRD
 70
     0
  9
$DIMCLRE
 70
     0
  9
$DIMCLRT
 70
     0
  9
$DIMTFAC
 40
10.0
  9
$DIMGAP
 40
1.0
  9
$LUNITS
 70
     2
  9
$LUPREC
 70
     3
  9
$SKETCHINC
 40
0.1
  9
$FILLETRAD
 40
50.0
  9
$AUNITS
 70
     0
  9
$AUPREC
 70
     0
  9
$MENU
  1
acad
  9
$ELEVATION
 40
0.0
  9
$PELEVATION
 40
0.0
  9
$THICKNESS
 40
0.0
  9
$LIMCHECK
 70
     0
  9
$BLIPMODE
 70
     0
  9
$CHAMFERA
 40
0.5
  9
$CHAMFERB
 40
0.5
  9
$SKPOLY
 70
     0
  9
$TDCREATE
 40
2451019.4996922449
  9
$TDUPDATE
 40
2454953.7526189932
  9
$TDINDWG
 40
0.050278125
  9
$TDUSRTIMER
 40
0.050278125
  9
$USRTIMER
 70
     1
  9
$ANGBASE
 50
0.0
  9
$ANGDIR
 70
     0
  9
$PDMODE
 70
     0
  9
$PDSIZE
 40
0.0
  9
$PLINEWID
 40
0.0
  9
$COORDS
 70
     1
  9
$SPLFRAME
 70
     0
  9
$SPLINETYPE
 70
     6
  9
$SPLINESEGS
 70
     8
  9
$ATTDIA
 70
     0
  9
$ATTREQ
 70
     1
  9
$HANDLING
 70
 10241
  9
$HANDSEED
  5
825E
  9
$SURFTAB1
 70
     6
  9
$SURFTAB2
 70
     6
  9
$SURFTYPE
 70
     6
  9
$SURFU
 70
     6
  9
$SURFV
 70
     6
  9
$UCSNAME
  2

  9
$UCSORG
 10
0.0
 20
0.0
 30
0.0
  9
$UCSXDIR
 10
1.0
 20
0.0
 30
0.0
  9
$UCSYDIR
 10
0.0
 20
1.0
 30
0.0
  9
$PUCSNAME
  2

  9
$PUCSORG
 10
0.0
 20
0.0
 30
0.0
  9
$PUCSXDIR
 10
1.0
 20
0.0
 30
0.0
  9
$PUCSYDIR
 10
0.0
 20
1.0
 30
0.0
  9
$USERI1
 70
     0
  9
$USERI2
 70
     0
  9
$USERI3
 70
     0
  9
$USERI4
 70
     0
  9
$USERI5
 70
     0
  9
$USERR1
 40
0.0
  9
$USERR2
 40
0.0
  9
$USERR3
 40
0.0
  9
$USERR4
 40
0.0
  9
$USERR5
 40
0.0
  9
$WORLDVIEW
 70
     1
  9
$SHADEDGE
 70
     3
  9
$SHADEDIF
 70
    70
  9
$TILEMODE
 70
     1
  9
$MAXACTVP
 70
    16
  9
$PLIMCHECK
 70
     0
  9
$PEXTMIN
 10
1.0000000000000000E+020
 20
1.0000000000000000E+020
 30
1.0000000000000000E+020
  9
$PEXTMAX
 10
-1.0000000000000000E+020
 20
-1.0000000000000000E+020
 30
-1.0000000000000000E+020
  9
$PLIMMIN
 10
0.0
 20
0.0
  9
$PLIMMAX
 10
12.0
 20
9.0
  9
$UNITMODE
 70
     0
  9
$VISRETAIN
 70
     0
  9
$PLINEGEN
 70
     0
  9
$PSLTSCALE
 70
     1
  0
ENDSEC
  0
SECTION
  2
TABLES
  0
TABLE
  2
VPORT
 70
     2
  0
VPORT
  2
*ACTIVE
 70
     0
 10
0.0
 20
0.0
 11
1.0
 21
1.0
 12
5304.9149382770529
 22
2212.5000103027569
 13
0.0
 23
0.0
 14
10.0
 24
10.0
 15
10.0
 25
10.0
 16
0.0
 26
0.0
 36
1.0
 17
0.0
 27
0.0
 37
0.0
 40
4458.9223245254034
 41
3.1666666666666661
 42
50.0
 43
0.0
 44
0.0
 50
0.0
 51
0.0
 71
     0
 72
   100
 73
     1
 74
     0
 75
     0
 76
     0
 77
     0
 78
     0
  0
ENDTAB
  0
TABLE
  2
LTYPE
 70
     2
  0
LTYPE
  2
CONTINUOUS
 70
     0
  3
Solid line
 72
    65
 73
     0
 40
0.0
  0
LTYPE
  2
CENTER
 70
     0
  3
____ _ ____ _ ____ _ ____ _ ____ _ ____ _ ____ 
 72
    65
 73
     4
 40
2.0
 49
1.25
 49
-0.25
 49
0.25
 49
-0.25
  0
ENDTAB
  0
TABLE
  2
LAYER
 70
     6
  0
LAYER
  2
0
 70
     0
 62
     7
  6
CONTINUOUS
  0
LAYER
  2
3
 70
     0
 62
     2
  6
CONTINUOUS
  0
LAYER
  2
2
 70
     0
 62
     3
  6
CENTER
  0
LAYER
  2
1
 70
     0
 62
     4
  6
CONTINUOUS
  0
LAYER
  2
4
 70
     0
 62
     7
  6
CONTINUOUS
  0
LAYER
  2
DEFPOINTS
 70
     0
 62
     7
  6
CONTINUOUS
  0
ENDTAB
  0
TABLE
  2
STYLE
 70
     1
  0
STYLE
  2
STANDARD
 70
     0
 40
0.0
 41
1.0
 50
0.0
 71
     0
 42
180.0
  3
simplex.shx
  4
extfont.shx
  0
ENDTAB
  0
TABLE
  2
VIEW
 70
     0
  0
ENDTAB
  0
TABLE
  2
UCS
 70
     0
  0
ENDTAB
  0
TABLE
  2
APPID
 70
     1
  0
APPID
  2
ACAD
 70
     0
  0
ENDTAB
  0
TABLE
  2
DIMSTYLE
 70
     2
  0
DIMSTYLE
  2
IGA
 70
     0
  3

  4

  5

  6
OPEN
  7
OPEN
 40
2.0
 41
2.0
 42
0.5
 43
10.0
 44
1.0
 45
0.0
 46
0.0
 47
1.0
 48
1.0
140
3.0
141
0.0
142
0.0
143
0.03937
144
1.0
145
0.0
146
10.0
147
1.0
 71
     0
 72
     0
 73
     0
 74
     0
 75
     0
 76
     0
 77
     1
 78
     8
170
     0
171
     2
172
     0
173
     1
174
     0
175
     0
176
     0
177
     0
178
     0
  0
DIMSTYLE
  2
DIA1
 70
     0
  3

  4

  5
ARROW
  6

  7

 40
1.0
 41
2.0
 42
1.0
 43
10.0
 44
1.0
 45
0.0
 46
0.0
 47
0.0
 48
0.0
140
2.5
141
0.0
142
0.0
143
25.399999999999999
144
1.0
145
0.0
146
1.0
147
0.09
 71
     0
 72
     0
 73
     0
 74
     0
 75
     0
 76
     0
 77
     1
 78
     8
170
     0
171
     2
172
     1
173
     0
174
     0
175
     0
176
     2
177
     2
178
     2
  0
ENDTAB
  0
ENDSEC
  0
SECTION
  2
BLOCKS
  0
BLOCK
  8
0
  2
$MODEL_SPACE
 70
     0
 10
0.0
 20
0.0
 30
0.0
  3
$MODEL_SPACE
  1

  0
ENDBLK
  5
1B
  8
0
  0
BLOCK
 67
     1
  8
0
  2
$PAPER_SPACE
 70
     0
 10
0.0
 20
0.0
 30
0.0
  3
$PAPER_SPACE
  1

  0
ENDBLK
  5
18
 67
     1
  8
0
  0
BLOCK
  8
0
  2
YA_N
 70
     0
 10
0.0
 20
0.0
 30
0.0
  3
YA_N
  1

  0
ENDBLK
  5
79FE
  8
0
  0
BLOCK
  8
0
  2
ARROW
 70
     0
 10
0.0
 20
0.0
 30
0.0
  3
ARROW
  1

  0
LINE
  5
7A00
  8
0
 10
-0.9999999999999991
 20
0.1666666667000003
 30
0.0
 11
0.0
 21
0.0
 31
0.0
  0
LINE
  5
7A01
  8
0
 10
-0.9999999999999991
 20
0.0
 30
0.0
 11
0.0
 21
0.0
 31
0.0
  0
LINE
  5
7A02
  8
0
 10
-0.9999999999999991
 20
-0.1666666667000003
 30
0.0
 11
0.0
 21
0.0
 31
0.0
  0
ENDBLK
  5
7A04
  8
0
  0
BLOCK
  8
0
  2
_OPEN
 70
     0
 10
0.0
 20
0.0
 30
0.0
  3
_OPEN
  1

  0
LINE
  5
7A37
  8
0
  6
BYBLOCK
 62
     0
 10
-1.0
 20
0.1666666666666666
 30
0.0
 11
0.0
 21
0.0
 31
0.0
  0
LINE
  5
7A38
  8
0
  6
BYBLOCK
 62
     0
 10
0.0
 20
0.0
 30
0.0
 11
-1.0
 21
-0.1666666666666666
 31
0.0
  0
LINE
  5
7A39
  8
0
  6
BYBLOCK
 62
     0
 10
0.0
 20
0.0
 30
0.0
 11
-1.0
 21
0.0
 31
0.0
  0
ENDBLK
  5
7A3B
  8
0
  0
BLOCK
  8
0
  2
*D3
 70
     1
 10
0.0
 20
0.0
 30
0.0
  3
*D3
  1

  0
LINE
  5
811E
  8
3
 62
     2
 10
2113.7708857752218
 20
1036.161773729644
 30
0.0
 11
2113.7708857752218
 21
911.12101388827693
 31
0.0
  0
LINE
  5
811F
  8
3
 62
     2
 10
2728.7708857752218
 20
1018.88927286438
 30
0.0
 11
2728.7708857752218
 21
911.12101388827693
 31
0.0
  0
LINE
  5
8120
  8
3
 62
     2
 10
2143.7708857752218
 20
926.12101388827705
 30
0.0
 11
2698.7708857752218
 21
926.12101388827705
 31
0.0
  0
INSERT
  5
8121
  8
3
 62
     2
  2
ARROW
 10
2113.7708857752218
 20
926.12101388827705
 30
0.0
 41
30.0
 42
30.0
 43
30.0
 50
180.0
  0
INSERT
  5
8122
  8
3
 62
     2
  2
ARROW
 10
2728.7708857752218
 20
926.12101388827705
 30
0.0
 41
30.0
 42
30.0
 43
30.0
  0
TEXT
  8
3
  40
37.5
  5
8248
  62
2
  72
0
  71
0
 10
2346.27
 20
900.996
 30
0.000000
  1
615
  0
POINT
  5
8124
  8
DEFPOINTS
 62
     0
 10
2113.7708857752218
 20
1051.161773729644
 30
0.0
  0
POINT
  5
8125
  8
DEFPOINTS
 62
     0
 10
2728.7708857752218
 20
1033.88927286438
 30
0.0
  0
POINT
  5
8126
  8
DEFPOINTS
 62
     0
 10
2728.7708857752218
 20
926.12101388827705
 30
0.0
  0
ENDBLK
  5
7FD5
  8
0
  0
BLOCK
  8
0
  2
*D4
 70
     1
 10
0.0
 20
0.0
 30
0.0
  3
*D4
  1

  0
LINE
  5
8127
  8
3
 62
     2
 10
2040.770885775222
 20
1632.161773729644
 30
0.0
 11
2040.770885775222
 21
1943.5016347780911
 31
0.0
  0
LINE
  5
8128
  8
3
 62
     2
 10
2698.7708857752218
 20
1928.5016347780911
 30
0.0
 11
2070.7708857752218
 21
1928.5016347780911
 31
0.0
  0
INSERT
  5
8129
  8
3
 62
     2
  2
ARROW
 10
2728.7708857752218
 20
1928.5016347780911
 30
0.0
 41
30.0
 42
30.0
 43
30.0
  0
INSERT
  5
812A
  8
3
 62
     2
  2
ARROW
 10
2040.770885775222
 20
1928.5016347780911
 30
0.0
 41
30.0
 42
30.0
 43
30.0
 50
180.0
  0
TEXT
  8
3
  40
37.5
  5
8249
  62
2
  72
0
  71
0
 10
2309.77
 20
1903.38
 30
0.000000
  1
688
  0
POINT
  5
812C
  8
DEFPOINTS
 62
     0
 10
2728.7708857752218
 20
1909.268601567016
 30
0.0
  0
POINT
  5
812D
  8
DEFPOINTS
 62
     0
 10
2040.770885775222
 20
1617.161773729644
 30
0.0
  0
POINT
  5
812E
  8
DEFPOINTS
 62
     0
 10
2040.770885775222
 20
1928.5016347780911
 30
0.0
  0
ENDBLK
  5
80CC
  8
0
  0
BLOCK
  8
0
  2
*D5
 70
     1
 10
0.0
 20
0.0
 30
0.0
  3
*D5
  1

  0
LINE
  5
8139
  8
3
 62
     2
 10
1387.086090917059
 20
2408.1747664608979
 30
0.0
 11
1387.086090917059
 21
2239.8636256536929
 31
0.0
  0
LINE
  5
813A
  8
3
 62
     2
 10
587.08609091706012
 20
2427.1747664608988
 30
0.0
 11
587.08609091706012
 21
2239.8636256536929
 31
0.0
  0
LINE
  5
813B
  8
3
 62
     2
 10
1357.0860909170599
 20
2254.8636256536938
 30
0.0
 11
617.08609091706012
 21
2254.8636256536938
 31
0.0
  0
INSERT
  5
813C
  8
3
 62
     2
  2
ARROW
 10
1387.086090917059
 20
2254.8636256536938
 30
0.0
 41
30.0
 42
30.0
 43
30.0
  0
INSERT
  5
813D
  8
3
 62
     2
  2
ARROW
 10
587.08609091706012
 20
2254.8636256536938
 30
0.0
 41
30.0
 42
30.0
 43
30.0
 50
180.0
  0
TEXT
  8
3
  40
37.5
  5
824A
  62
2
  72
0
  71
0
 10
912.086
 20
2229.74
 30
0.000000
  1
800
  0
POINT
  5
813F
  8
DEFPOINTS
 62
     0
 10
1387.086090917059
 20
2423.1747664608979
 30
0.0
  0
POINT
  5
8140
  8
DEFPOINTS
 62
     0
 10
587.08609091706012
 20
2442.1747664608988
 30
0.0
  0
POINT
  5
8141
  8
DEFPOINTS
 62
     0
 10
587.08609091706012
 20
2254.8636256536938
 30
0.0
  0
ENDBLK
  5
7FEA
  8
0
  0
BLOCK
  8
0
  2
*D6
 70
     1
 10
0.0
 20
0.0
 30
0.0
  3
*D6
  1

  0
LINE
  5
814C
  8
3
 62
     2
 10
1387.0860909170599
 20
1036.161773729644
 30
0.0
 11
1387.0860909170599
 21
913.47726321009293
 31
0.0
  0
LINE
  5
814D
  8
3
 62
     2
 10
1207.0860909170599
 20
1021.288487854856
 30
0.0
 11
1207.0860909170599
 21
913.47726321009293
 31
0.0
  0
LINE
  5
814E
  8
3
 62
     2
 10
1357.0860909170599
 20
928.47726321009304
 30
0.0
 11
1237.0860909170599
 21
928.47726321009304
 31
0.0
  0
INSERT
  5
814F
  8
3
 62
     2
  2
ARROW
 10
1387.0860909170599
 20
928.47726321009304
 30
0.0
 41
30.0
 42
30.0
 43
30.0
  0
INSERT
  5
8150
  8
3
 62
     2
  2
ARROW
 10
1207.0860909170599
 20
928.47726321009304
 30
0.0
 41
30.0
 42
30.0
 43
30.0
 50
180.0
  0
TEXT
  8
3
  40
37.5
  5
824B
  62
2
  72
0
  71
0
 10
1222.09
 20
903.352
 30
0.000000
  1
180
  0
POINT
  5
8152
  8
DEFPOINTS
 62
     0
 10
1387.0860909170599
 20
1051.161773729644
 30
0.0
  0
POINT
  5
8153
  8
DEFPOINTS
 62
     0
 10
1207.0860909170599
 20
1036.2884878548559
 30
0.0
  0
POINT
  5
8154
  8
DEFPOINTS
 62
     0
 10
1207.0860909170599
 20
928.47726321009304
 30
0.0
  0
ENDBLK
  5
7FF7
  8
0
  0
BLOCK
  8
0
  2
*D7
 70
     1
 10
0.0
 20
0.0
 30
0.0
  3
*D7
  1

  0
LINE
  5
815A
  8
3
 62
     2
 10
829.47492124201665
 20
1777.1617737296449
 30
0.0
 11
829.47492124201665
 21
2014.922848342663
 31
0.0
  0
LINE
  5
815B
  8
3
 62
     2
 10
1433.04499514489
 20
1513.396821144953
 30
0.0
 11
1433.04499514489
 21
2014.922848342663
 31
0.0
  0
LINE
  5
815C
  8
3
 62
     2
 10
859.47492124201653
 20
1999.9228483426641
 30
0.0
 11
1403.04499514489
 21
1999.9228483426641
 31
0.0
  0
INSERT
  5
815D
  8
3
 62
     2
  2
ARROW
 10
829.47492124201665
 20
1999.9228483426641
 30
0.0
 41
30.0
 42
30.0
 43
30.0
 50
180.0
  0
INSERT
  5
815E
  8
3
 62
     2
  2
ARROW
 10
1433.04499514489
 20
1999.9228483426641
 30
0.0
 41
30.0
 42
30.0
 43
30.0
  0
TEXT
  8
3
  40
37.5
  5
824C
  62
2
  72
0
  71
0
 10
1056.26
 20
1974.80
 30
0.000000
  1
604
  0
POINT
  5
8160
  8
DEFPOINTS
 62
     0
 10
829.47492124201665
 20
1762.161773729644
 30
0.0
  0
POINT
  5
8161
  8
DEFPOINTS
 62
     0
 10
1433.04499514489
 20
1498.396821144953
 30
0.0
  0
POINT
  5
8162
  8
DEFPOINTS
 62
     0
 10
1433.04499514489
 20
1999.9228483426641
 30
0.0
  0
ENDBLK
  5
8002
  8
0
  0
BLOCK
  8
0
  2
*D8
 70
     1
 10
0.0
 20
0.0
 30
0.0
  3
*D8
  1

  0
LINE
  5
8163
  8
3
 62
     2
 10
587.08609091706035
 20
1036.161773729644
 30
0.0
 11
587.08609091706035
 21
913.47726321009293
 31
0.0
  0
LINE
  5
8164
  8
3
 62
     2
 10
1177.0860909170599
 20
928.47726321009304
 30
0.0
 11
617.08609091706035
 21
928.47726321009304
 31
0.0
  0
INSERT
  5
8165
  8
3
 62
     2
  2
ARROW
 10
1207.0860909170599
 20
928.47726321009304
 30
0.0
 41
30.0
 42
30.0
 43
30.0
  0
INSERT
  5
8166
  8
3
 62
     2
  2
ARROW
 10
587.08609091706035
 20
928.47726321009304
 30
0.0
 41
30.0
 42
30.0
 43
30.0
 50
180.0
  0
TEXT
  8
3
  40
37.5
  5
824D
  62
2
  72
0
  71
0
 10
822.086
 20
903.352
 30
0.000000
  1
620
  0
POINT
  5
8168
  8
DEFPOINTS
 62
     0
 10
1207.0860909170599
 20
1036.2884878548559
 30
0.0
  0
POINT
  5
8169
  8
DEFPOINTS
 62
     0
 10
587.08609091706035
 20
1051.161773729644
 30
0.0
  0
POINT
  5
816A
  8
DEFPOINTS
 62
     0
 10
587.08609091706035
 20
928.47726321009304
 30
0.0
  0
ENDBLK
  5
800C
  8
0
  0
BLOCK
  8
0
  2
*D9
 70
     1
 10
0.0
 20
0.0
 30
0.0
  3
*D9
  1

  0
LINE
  5
816B
  8
3
 62
     2
 10
856.08615135673972
 20
1777.1617737296449
 30
0.0
 11
856.08615135673972
 21
1932.9003155447349
 31
0.0
  0
LINE
  5
816C
  8
3
 62
     2
 10
1207.0860909170599
 20
1810.0595217906309
 30
0.0
 11
1207.0860909170599
 21
1932.9003155447349
 31
0.0
  0
LINE
  5
816D
  8
3
 62
     2
 10
886.08615135673983
 20
1917.9003155447349
 30
0.0
 11
1177.0860909170599
 21
1917.9003155447349
 31
0.0
  0
INSERT
  5
816E
  8
3
 62
     2
  2
ARROW
 10
856.08615135673972
 20
1917.9003155447349
 30
0.0
 41
30.0
 42
30.0
 43
30.0
 50
180.0
  0
INSERT
  5
816F
  8
3
 62
     2
  2
ARROW
 10
1207.0860909170599
 20
1917.9003155447349
 30
0.0
 41
30.0
 42
30.0
 43
30.0
  0
TEXT
  8
3
  40
37.5
  5
824E
  62
2
  72
0
  71
0
 10
956.586
 20
1892.78
 30
0.000000
  1
351
  0
POINT
  5
8171
  8
DEFPOINTS
 62
     0
 10
856.08615135673972
 20
1762.161773729644
 30
0.0
  0
POINT
  5
8172
  8
DEFPOINTS
 62
     0
 10
1207.0860909170599
 20
1795.0595217906309
 30
0.0
  0
POINT
  5
8173
  8
DEFPOINTS
 62
     0
 10
1207.0860909170599
 20
1917.9003155447349
 30
0.0
  0
ENDBLK
  5
8017
  8
0
  0
BLOCK
  8
0
  2
*D10
 70
     1
 10
0.0
 20
0.0
 30
0.0
  3
*D10
  1

  0
LINE
  5
817B
  8
3
 62
     2
 10
856.08615135673972
 20
1777.1617737296449
 30
0.0
 11
856.08615135673972
 21
1836.130134318762
 31
0.0
  0
LINE
  5
817C
  8
3
 62
     2
 10
1181.0860909170599
 20
1777.1617737296449
 30
0.0
 11
1181.0860909170599
 21
1836.130134318762
 31
0.0
  0
LINE
  5
817D
  8
3
 62
     2
 10
886.08615135673983
 20
1821.130134318762
 30
0.0
 11
1151.0860909170599
 21
1821.130134318762
 31
0.0
  0
INSERT
  5
817E
  8
3
 62
     2
  2
ARROW
 10
856.08615135673972
 20
1821.130134318762
 30
0.0
 41
30.0
 42
30.0
 43
30.0
 50
180.0
  0
INSERT
  5
817F
  8
3
 62
     2
  2
ARROW
 10
1181.0860909170599
 20
1821.130134318762
 30
0.0
 41
30.0
 42
30.0
 43
30.0
  0
TEXT
  8
3
  40
37.5
  5
824F
  62
2
  72
0
  71
0
 10
943.586
 20
1796.01
 30
0.000000
  1
325
  0
POINT
  5
8181
  8
DEFPOINTS
 62
     0
 10
856.08615135673972
 20
1762.161773729644
 30
0.0
  0
POINT
  5
8182
  8
DEFPOINTS
 62
     0
 10
1181.0860909170599
 20
1762.161773729644
 30
0.0
  0
POINT
  5
8183
  8
DEFPOINTS
 62
     0
 10
1181.0860909170599
 20
1821.130134318762
 30
0.0
  0
ENDBLK
  5
8022
  8
0
  0
BLOCK
  8
0
  2
*D11
 70
     1
 10
0.0
 20
0.0
 30
0.0
  3
*D11
  1

  0
LINE
  5
8184
  8
3
 62
     2
 10
1402.0860909170599
 20
1051.161773729644
 30
0.0
 11
1787.8403098728741
 21
1051.161773729644
 31
0.0
  0
LINE
  5
8185
  8
3
 62
     2
 10
1224.4749212420161
 20
1762.161773729644
 30
0.0
 11
1787.8403098728741
 21
1762.161773729644
 31
0.0
  0
LINE
  5
8186
  8
3
 62
     2
 10
1772.8403098728741
 20
1081.161773729644
 30
0.0
 11
1772.8403098728741
 21
1732.161773729644
 31
0.0
  0
INSERT
  5
8187
  8
3
 62
     2
  2
ARROW
 10
1772.8403098728741
 20
1051.161773729644
 30
0.0
 41
30.0
 42
30.0
 43
30.0
 50
270.0
  0
INSERT
  5
8188
  8
3
 62
     2
  2
ARROW
 10
1772.8403098728741
 20
1762.161773729644
 30
0.0
 41
30.0
 42
30.0
 43
30.0
 50
90.0
  0
TEXT
  8
3
  40
37.5
  5
8250
  62
2
  72
0
  71
0
 10
1656.59
 20
1340.29
 30
0.000000
  1
711
  0
POINT
  5
818A
  8
DEFPOINTS
 62
     0
 10
1387.0860909170599
 20
1051.161773729644
 30
0.0
  0
POINT
  5
818B
  8
DEFPOINTS
 62
     0
 10
1209.474921242017
 20
1762.161773729644
 30
0.0
  0
POINT
  5
818C
  8
DEFPOINTS
 62
     0
 10
1772.8403098728741
 20
1762.161773729644
 30
0.0
  0
ENDBLK
  5
802D
  8
0
  0
BLOCK
  8
0
  2
*D12
 70
     1
 10
0.0
 20
0.0
 30
0.0
  3
*D12
  1

  0
LINE
  5
818D
  8
3
 62
     2
 10
1402.0860909170599
 20
1162.161773729644
 30
0.0
 11
1580.6752858340819
 21
1162.161773729644
 31
0.0
  0
LINE
  5
818E
  8
3
 62
     2
 10
1565.6752858340819
 20
1487.161773729644
 30
0.0
 11
1565.6752858340819
 21
1192.161773729644
 31
0.0
  0
INSERT
  5
818F
  8
3
 62
     2
  2
ARROW
 10
1565.6752858340819
 20
1517.161773729644
 30
0.0
 41
30.0
 42
30.0
 43
30.0
 50
90.0
  0
INSERT
  5
8190
  8
3
 62
     2
  2
ARROW
 10
1565.6752858340819
 20
1162.161773729644
 30
0.0
 41
30.0
 42
30.0
 43
30.0
 50
270.0
  0
TEXT
  8
3
  40
37.5
  5
8251
  62
2
  72
0
  71
0
 10
1449.43
 20
1273.29
 30
0.000000
  1
355
  0
POINT
  5
8192
  8
DEFPOINTS
 62
     0
 10
1463.5462172675459
 20
1517.161773729644
 30
0.0
  0
POINT
  5
8193
  8
DEFPOINTS
 62
     0
 10
1387.0860909170599
 20
1162.161773729644
 30
0.0
  0
POINT
  5
8194
  8
DEFPOINTS
 62
     0
 10
1565.6752858340819
 20
1162.161773729644
 30
0.0
  0
ENDBLK
  5
8037
  8
0
  0
BLOCK
  8
0
  2
*D13
 70
     1
 10
0.0
 20
0.0
 30
0.0
  3
*D13
  1

  0
LINE
  5
8195
  8
3
 62
     2
 10
1402.0860909170599
 20
1126.161773729644
 30
0.0
 11
1580.6752858340819
 21
1126.161773729644
 31
0.0
  0
LINE
  5
8196
  8
3
 62
     2
 10
1402.0860909170599
 20
1051.161773729644
 30
0.0
 11
1580.6752858340819
 21
1051.161773729644
 31
0.0
  0
LINE
  5
8197
  8
3
 62
     2
 10
1565.6752858340819
 20
1156.161773729644
 30
0.0
 11
1565.6752858340819
 21
1186.161773729644
 31
0.0
  0
LINE
  5
8198
  8
3
 62
     2
 10
1565.6752858340819
 20
1021.161773729644
 30
0.0
 11
1565.6752858340819
 21
885.44748801535877
 31
0.0
  0
LINE
  5
8199
  8
3
 62
     2
 10
1565.6752858340819
 20
1126.161773729644
 30
0.0
 11
1565.6752858340819
 21
1051.161773729644
 31
0.0
  0
INSERT
  5
819A
  8
3
 62
     2
  2
YA_N
 10
1565.6752858340819
 20
1126.161773729644
 30
0.0
 41
30.0
 42
30.0
 43
30.0
 50
270.0
  0
INSERT
  5
819B
  8
3
 62
     2
  2
_OPEN
 10
1565.6752858340819
 20
1051.161773729644
 30
0.0
 41
30.0
 42
30.0
 43
30.0
 50
90.0
  0
TEXT
  8
3
  40
37.5
  5
8252
  62
2
  72
0
  71
0
 10
1449.43
 20
871.930
 30
0.000000
  1
75
  0
POINT
  5
819D
  8
DEFPOINTS
 62
     0
 10
1387.0860909170599
 20
1126.161773729644
 30
0.0
  0
POINT
  5
819E
  8
DEFPOINTS
 62
     0
 10
1387.0860909170599
 20
1051.161773729644
 30
0.0
  0
POINT
  5
819F
  8
DEFPOINTS
 62
     0
 10
1565.6752858340819
 20
1051.161773729644
 30
0.0
  0
ENDBLK
  5
8044
  8
0
  0
BLOCK
  8
0
  2
*D14
 70
     1
 10
0.0
 20
0.0
 30
0.0
  3
*D14
  1

  0
LINE
  5
81A0
  8
3
 62
     2
 10
1402.0860909170599
 20
1126.161773729644
 30
0.0
 11
1580.6752858340819
 21
1126.161773729644
 31
0.0
  0
LINE
  5
81A1
  8
3
 62
     2
 10
1565.6752858340819
 20
1192.161773729644
 30
0.0
 11
1565.6752858340819
 21
1222.161773729644
 31
0.0
  0
LINE
  5
81A2
  8
3
 62
     2
 10
1565.6752858340819
 20
1096.161773729644
 30
0.0
 11
1565.6752858340819
 21
1066.161773729644
 31
0.0
  0
LINE
  5
81A3
  8
3
 62
     2
 10
1565.6752858340819
 20
1144.161773729644
 30
0.0
 11
1694.06814297694
 21
1204.55623043837
 31
0.0
  0
LINE
  5
81A4
  8
3
 62
     2
 10
1694.06814297694
 20
1204.55623043837
 30
0.0
 11
1694.06814297694
 21
1358.484801866942
 31
0.0
  0
TEXT
  8
3
  40
37.5
  5
8253
  62
2
  72
0
  71
0
 10
1568.00
 20
1215.15
 30
0.000000
  1
(36)
  0
LINE
  5
81A6
  8
3
 62
     2
 10
1565.6752858340819
 20
1162.161773729644
 30
0.0
 11
1565.6752858340819
 21
1126.161773729644
 31
0.0
  0
LINE
  5
81A7
  8
3
 62
     2
 10
1565.6752858340819
 20
1162.161773729644
 30
0.0
 11
1565.6752858340819
 21
1126.161773729644
 31
0.0
  0
INSERT
  5
81A8
  8
3
 62
     2
  2
_OPEN
 10
1565.6752858340819
 20
1162.161773729644
 30
0.0
 41
30.0
 42
30.0
 43
30.0
 50
270.0
  0
INSERT
  5
81A9
  8
3
 62
     2
  2
YA_N
 10
1565.6752858340819
 20
1126.161773729644
 30
0.0
 41
30.0
 42
30.0
 43
30.0
 50
90.0
  0
POINT
  5
81AA
  8
DEFPOINTS
 62
     0
 10
1387.0860909170599
 20
1162.161773729644
 30
0.0
  0
POINT
  5
81AB
  8
DEFPOINTS
 62
     0
 10
1387.0860909170599
 20
1126.161773729644
 30
0.0
  0
POINT
  5
81AC
  8
DEFPOINTS
 62
     0
 10
1565.6752858340819
 20
1126.161773729644
 30
0.0
  0
ENDBLK
  5
8052
  8
0
  0
BLOCK
  8
0
  2
*D15
 70
     1
 10
0.0
 20
0.0
 30
0.0
  3
*D15
  1

  0
LINE
  5
81AD
  8
3
 62
     2
 10
1433.04499514489
 20
1513.396821144953
 30
0.0
 11
1433.04499514489
 21
1932.9003155447349
 31
0.0
  0
LINE
  5
81AE
  8
3
 62
     2
 10
1237.0860909170599
 20
1917.9003155447349
 30
0.0
 11
1403.04499514489
 21
1917.9003155447349
 31
0.0
  0
INSERT
  5
81AF
  8
3
 62
     2
  2
ARROW
 10
1207.0860909170599
 20
1917.9003155447349
 30
0.0
 41
30.0
 42
30.0
 43
30.0
 50
180.0
  0
INSERT
  5
81B0
  8
3
 62
     2
  2
ARROW
 10
1433.04499514489
 20
1917.9003155447349
 30
0.0
 41
30.0
 42
30.0
 43
30.0
  0
TEXT
  8
3
  40
37.5
  5
8254
  62
2
  72
0
  71
0
 10
1245.07
 20
1892.78
 30
0.000000
  1
226
  0
POINT
  5
81B2
  8
DEFPOINTS
 62
     0
 10
1207.0860909170599
 20
1795.0595217906309
 30
0.0
  0
POINT
  5
81B3
  8
DEFPOINTS
 62
     0
 10
1433.04499514489
 20
1498.396821144953
 30
0.0
  0
POINT
  5
81B4
  8
DEFPOINTS
 62
     0
 10
1433.04499514489
 20
1917.9003155447349
 30
0.0
  0
ENDBLK
  5
805C
  8
0
  0
BLOCK
  8
0
  2
*D16
 70
     1
 10
0.0
 20
0.0
 30
0.0
  3
*D16
  1

  0
LINE
  5
81B5
  8
3
 62
     2
 10
1224.4749212420161
 20
1762.161773729644
 30
0.0
 11
1580.6752858340819
 21
1762.161773729644
 31
0.0
  0
LINE
  5
81B6
  8
3
 62
     2
 10
1478.5462172675459
 20
1517.161773729644
 30
0.0
 11
1580.6752858340819
 21
1517.161773729644
 31
0.0
  0
LINE
  5
81B7
  8
3
 62
     2
 10
1565.6752858340831
 20
1732.161773729644
 30
0.0
 11
1565.6752858340831
 21
1547.161773729644
 31
0.0
  0
INSERT
  5
81B8
  8
3
 62
     2
  2
ARROW
 10
1565.6752858340831
 20
1762.161773729644
 30
0.0
 41
30.0
 42
30.0
 43
30.0
 50
90.0
  0
INSERT
  5
81B9
  8
3
 62
     2
  2
ARROW
 10
1565.6752858340819
 20
1517.161773729644
 30
0.0
 41
30.0
 42
30.0
 43
30.0
 50
270.0
  0
TEXT
  8
3
  40
37.5
  5
8255
  62
2
  72
0
  71
0
 10
1449.43
 20
1573.29
 30
0.000000
  1
245
  0
POINT
  5
81BB
  8
DEFPOINTS
 62
     0
 10
1209.474921242017
 20
1762.161773729644
 30
0.0
  0
POINT
  5
81BC
  8
DEFPOINTS
 62
     0
 10
1463.5462172675459
 20
1517.161773729644
 30
0.0
  0
POINT
  5
81BD
  8
DEFPOINTS
 62
     0
 10
1565.6752858340819
 20
1517.161773729644
 30
0.0
  0
ENDBLK
  5
8067
  8
0
  0
BLOCK
  8
0
  2
*D17
 70
     1
 10
0.0
 20
0.0
 30
0.0
  3
*D17
  1

  0
LINE
  5
81D2
  8
3
 62
     2
 10
1387.0860909170599
 20
3218.1747664608988
 30
0.0
 11
1387.0860909170599
 21
3313.964245174182
 31
0.0
  0
LINE
  5
81D3
  8
3
 62
     2
 10
1027.0860909170599
 20
3218.1747664608988
 30
0.0
 11
1027.0860909170599
 21
3313.964245174182
 31
0.0
  0
LINE
  5
81D4
  8
3
 62
     2
 10
1357.086090917061
 20
3298.964245174182
 30
0.0
 11
1057.0860909170599
 21
3298.964245174182
 31
0.0
  0
INSERT
  5
81D5
  8
3
 62
     2
  2
ARROW
 10
1387.0860909170599
 20
3298.964245174182
 30
0.0
 41
30.0
 42
30.0
 43
30.0
  0
INSERT
  5
81D6
  8
3
 62
     2
  2
ARROW
 10
1027.0860909170599
 20
3298.964245174182
 30
0.0
 41
30.0
 42
30.0
 43
30.0
 50
180.0
  0
TEXT
  8
3
  40
37.5
  5
8256
  62
2
  72
0
  71
0
 10
1132.09
 20
3273.84
 30
0.000000
  1
360
  0
POINT
  5
81D8
  8
DEFPOINTS
 62
     0
 10
1387.0860909170599
 20
3203.1747664608979
 30
0.0
  0
POINT
  5
81D9
  8
DEFPOINTS
 62
     0
 10
1027.0860909170599
 20
3203.1747664608979
 30
0.0
  0
POINT
  5
81DA
  8
DEFPOINTS
 62
     0
 10
1027.0860909170599
 20
3298.964245174182
 30
0.0
  0
ENDBLK
  5
8072
  8
0
  0
BLOCK
  8
0
  2
*D18
 70
     1
 10
0.0
 20
0.0
 30
0.0
  3
*D18
  1

  0
LINE
  5
81DB
  8
3
 62
     2
 10
572.0860909170608
 20
2423.1747664608979
 30
0.0
 11
438.93981231160802
 21
2423.1747664608979
 31
0.0
  0
LINE
  5
81DC
  8
3
 62
     2
 10
572.08609091705887
 20
2803.1747664608979
 30
0.0
 11
438.93981231160808
 21
2803.1747664608979
 31
0.0
  0
LINE
  5
81DD
  8
3
 62
     2
 10
453.93981231160808
 20
2453.1747664608979
 30
0.0
 11
453.93981231160819
 21
2773.1747664608988
 31
0.0
  0
INSERT
  5
81DE
  8
3
 62
     2
  2
ARROW
 10
453.93981231160808
 20
2423.1747664608979
 30
0.0
 41
30.0
 42
30.0
 43
30.0
 50
270.0
  0
INSERT
  5
81DF
  8
3
 62
     2
  2
ARROW
 10
453.93981231160819
 20
2803.1747664608979
 30
0.0
 41
30.0
 42
30.0
 43
30.0
 50
90.0
  0
TEXT
  8
3
  40
37.5
  5
8257
  62
2
  72
0
  71
0
 10
337.690
 20
2546.80
 30
0.000000
  1
380
  0
POINT
  5
81E1
  8
DEFPOINTS
 62
     0
 10
587.0860909170608
 20
2423.1747664608979
 30
0.0
  0
POINT
  5
81E2
  8
DEFPOINTS
 62
     0
 10
587.08609091705887
 20
2803.1747664608979
 30
0.0
  0
POINT
  5
81E3
  8
DEFPOINTS
 62
     0
 10
453.93981231160819
 20
2803.1747664608979
 30
0.0
  0
ENDBLK
  5
807D
  8
0
  0
BLOCK
  8
0
  2
*D19
 70
     1
 10
0.0
 20
0.0
 30
0.0
  3
*D19
  1

  0
LINE
  5
81E4
  8
3
 62
     2
 10
587.08609091705887
 20
2818.1747664608988
 30
0.0
 11
587.08609091705887
 21
3313.964245174182
 31
0.0
  0
LINE
  5
81E5
  8
3
 62
     2
 10
997.08609091706091
 20
3298.964245174182
 30
0.0
 11
617.08609091705887
 21
3298.964245174182
 31
0.0
  0
INSERT
  5
81E6
  8
3
 62
     2
  2
ARROW
 10
1027.0860909170599
 20
3298.964245174182
 30
0.0
 41
30.0
 42
30.0
 43
30.0
  0
INSERT
  5
81E7
  8
3
 62
     2
  2
ARROW
 10
587.08609091705887
 20
3298.964245174182
 30
0.0
 41
30.0
 42
30.0
 43
30.0
 50
180.0
  0
TEXT
  8
3
  40
37.5
  5
8258
  62
2
  72
0
  71
0
 10
732.086
 20
3273.84
 30
0.000000
  1
440
  0
POINT
  5
81E9
  8
DEFPOINTS
 62
     0
 10
1027.0860909170599
 20
3203.1747664608979
 30
0.0
  0
POINT
  5
81EA
  8
DEFPOINTS
 62
     0
 10
587.08609091705887
 20
2803.1747664608979
 30
0.0
  0
POINT
  5
81EB
  8
DEFPOINTS
 62
     0
 10
587.08609091705887
 20
3298.964245174182
 30
0.0
  0
ENDBLK
  5
8087
  8
0
  0
BLOCK
  8
0
  2
*D20
 70
     1
 10
0.0
 20
0.0
 30
0.0
  3
*D20
  1

  0
LINE
  5
81EC
  8
3
 62
     2
 10
1402.0860909170599
 20
2423.1747664608979
 30
0.0
 11
1539.516572925857
 21
2423.1747664608979
 31
0.0
  0
LINE
  5
81ED
  8
3
 62
     2
 10
1402.0860909170599
 20
3203.1747664608979
 30
0.0
 11
1539.516572925857
 21
3203.1747664608979
 31
0.0
  0
LINE
  5
81EE
  8
3
 62
     2
 10
1524.516572925857
 20
2453.1747664608979
 30
0.0
 11
1524.516572925857
 21
3173.1747664608988
 31
0.0
  0
INSERT
  5
81EF
  8
3
 62
     2
  2
ARROW
 10
1524.516572925857
 20
2423.1747664608979
 30
0.0
 41
30.0
 42
30.0
 43
30.0
 50
270.0
  0
INSERT
  5
81F0
  8
3
 62
     2
  2
ARROW
 10
1524.516572925857
 20
3203.1747664608979
 30
0.0
 41
30.0
 42
30.0
 43
30.0
 50
90.0
  0
TEXT
  8
3
  40
37.5
  5
8259
  62
2
  72
0
  71
0
 10
1408.27
 20
2746.80
 30
0.000000
  1
780
  0
POINT
  5
81F2
  8
DEFPOINTS
 62
     0
 10
1387.086090917059
 20
2423.1747664608979
 30
0.0
  0
POINT
  5
81F3
  8
DEFPOINTS
 62
     0
 10
1387.0860909170599
 20
3203.1747664608979
 30
0.0
  0
POINT
  5
81F4
  8
DEFPOINTS
 62
     0
 10
1524.516572925857
 20
3203.1747664608979
 30
0.0
  0
ENDBLK
  5
8092
  8
0
  0
BLOCK
  8
0
  2
*D21
 70
     1
 10
0.0
 20
0.0
 30
0.0
  3
*D21
  1

  0
LINE
  5
81F5
  8
3
 62
     2
 10
2889.7708857752218
 20
1674.661773729644
 30
0.0
 11
3016.95085731771
 21
1674.661773729644
 31
0.0
  0
LINE
  5
81F6
  8
3
 62
     2
 10
2889.7708857752218
 20
1359.661773729644
 30
0.0
 11
3016.95085731771
 21
1359.661773729644
 31
0.0
  0
LINE
  5
81F7
  8
3
 62
     2
 10
3001.95085731771
 20
1644.661773729644
 30
0.0
 11
3001.95085731771
 21
1389.661773729644
 31
0.0
  0
INSERT
  5
81F8
  8
3
 62
     2
  2
ARROW
 10
3001.95085731771
 20
1674.661773729644
 30
0.0
 41
30.0
 42
30.0
 43
30.0
 50
90.0
  0
INSERT
  5
81F9
  8
3
 62
     2
  2
ARROW
 10
3001.95085731771
 20
1359.661773729644
 30
0.0
 41
30.0
 42
30.0
 43
30.0
 50
270.0
  0
TEXT
  8
3
  40
37.5
  5
825A
  62
2
  72
0
  71
0
 10
2885.70
 20
1450.79
 30
0.000000
  1
φ315
  0
POINT
  5
81FB
  8
DEFPOINTS
 62
     0
 10
2874.7708857752218
 20
1674.661773729644
 30
0.0
  0
POINT
  5
81FC
  8
DEFPOINTS
 62
     0
 10
2874.7708857752218
 20
1359.661773729644
 30
0.0
  0
POINT
  5
81FD
  8
DEFPOINTS
 62
     0
 10
3001.95085731771
 20
1359.661773729644
 30
0.0
  0
ENDBLK
  5
809D
  8
0
  0
BLOCK
  8
0
  2
*D22
 70
     1
 10
0.0
 20
0.0
 30
0.0
  3
*D22
  1

  0
LINE
  5
81FE
  8
3
 62
     2
 10
2728.7708857752218
 20
1018.88927286438
 30
0.0
 11
2728.7708857752218
 21
911.12101388827693
 31
0.0
  0
LINE
  5
81FF
  8
3
 62
     2
 10
2893.7708857752209
 20
1036.1617737296449
 30
0.0
 11
2893.7708857752209
 21
911.12101388827693
 31
0.0
  0
LINE
  5
8200
  8
3
 62
     2
 10
2758.7708857752218
 20
926.12101388827705
 30
0.0
 11
2863.7708857752209
 21
926.12101388827705
 31
0.0
  0
INSERT
  5
8201
  8
3
 62
     2
  2
ARROW
 10
2728.7708857752218
 20
926.12101388827705
 30
0.0
 41
30.0
 42
30.0
 43
30.0
 50
180.0
  0
INSERT
  5
8202
  8
3
 62
     2
  2
ARROW
 10
2893.7708857752209
 20
926.12101388827705
 30
0.0
 41
30.0
 42
30.0
 43
30.0
  0
TEXT
  8
3
  40
37.5
  5
825B
  62
2
  72
0
  71
0
 10
2736.27
 20
900.996
 30
0.000000
  1
165
  0
POINT
  5
8204
  8
DEFPOINTS
 62
     0
 10
2728.7708857752218
 20
1033.88927286438
 30
0.0
  0
POINT
  5
8205
  8
DEFPOINTS
 62
     0
 10
2893.7708857752209
 20
1051.1617737296449
 30
0.0
  0
POINT
  5
8206
  8
DEFPOINTS
 62
     0
 10
2893.7708857752209
 20
926.12101388827705
 30
0.0
  0
ENDBLK
  5
80AA
  8
0
  0
BLOCK
  8
0
  2
*D23
 70
     1
 10
0.0
 20
0.0
 30
0.0
  3
*D23
  1

  0
LINE
  5
8222
  8
3
 62
     2
 10
2849.7708857752218
 20
1714.6617737296449
 30
0.0
 11
2849.7708857752218
 21
1943.5016347780911
 31
0.0
  0
LINE
  5
8223
  8
3
 62
     2
 10
2728.7708857752218
 20
1924.268601567016
 30
0.0
 11
2728.7708857752218
 21
1943.5016347780911
 31
0.0
  0
LINE
  5
8224
  8
3
 62
     2
 10
2819.7708857752218
 20
1928.5016347780911
 30
0.0
 11
2758.7708857752218
 21
1928.5016347780911
 31
0.0
  0
INSERT
  5
8225
  8
3
 62
     2
  2
ARROW
 10
2849.7708857752218
 20
1928.5016347780911
 30
0.0
 41
30.0
 42
30.0
 43
30.0
  0
INSERT
  5
8226
  8
3
 62
     2
  2
ARROW
 10
2728.7708857752218
 20
1928.5016347780911
 30
0.0
 41
30.0
 42
30.0
 43
30.0
 50
180.0
  0
TEXT
  8
3
  40
37.5
  5
825C
  62
2
  72
0
  71
0
 10
2714.27
 20
1903.38
 30
0.000000
  1
121
  0
POINT
  5
8228
  8
DEFPOINTS
 62
     0
 10
2849.7708857752218
 20
1699.661773729644
 30
0.0
  0
POINT
  5
8229
  8
DEFPOINTS
 62
     0
 10
2728.7708857752218
 20
1909.268601567016
 30
0.0
  0
POINT
  5
822A
  8
DEFPOINTS
 62
     0
 10
2728.7708857752218
 20
1928.5016347780911
 30
0.0
  0
ENDBLK
  5
80D9
  8
0
  0
BLOCK
  8
0
  2
*D24
 70
     1
 10
0.0
 20
0.0
 30
0.0
  3
*D24
  1

  0
LINE
  5
822B
  8
3
 62
     2
 10
2610.7708857752218
 20
1782.161773729644
 30
0.0
 11
2610.7708857752218
 21
1856.765351182527
 31
0.0
  0
LINE
  5
822C
  8
3
 62
     2
 10
2846.7708857752232
 20
1779.1617737296449
 30
0.0
 11
2846.7708857752232
 21
1856.765351182527
 31
0.0
  0
LINE
  5
822D
  8
3
 62
     2
 10
2640.7708857752218
 20
1841.765351182527
 30
0.0
 11
2816.7708857752232
 21
1841.765351182527
 31
0.0
  0
INSERT
  5
822E
  8
3
 62
     2
  2
ARROW
 10
2610.7708857752218
 20
1841.765351182527
 30
0.0
 41
30.0
 42
30.0
 43
30.0
 50
180.0
  0
INSERT
  5
822F
  8
3
 62
     2
  2
ARROW
 10
2846.7708857752232
 20
1841.765351182527
 30
0.0
 41
30.0
 42
30.0
 43
30.0
  0
TEXT
  8
3
  40
37.5
  5
825D
  62
2
  72
0
  71
0
 10
2635.59
 20
1816.64
 30
0.000000
  1
236
  0
POINT
  5
8231
  8
DEFPOINTS
 62
     0
 10
2610.7708857752218
 20
1767.161773729644
 30
0.0
  0
POINT
  5
8232
  8
DEFPOINTS
 62
     0
 10
2846.7708857752232
 20
1764.161773729644
 30
0.0
  0
POINT
  5
8233
  8
DEFPOINTS
 62
     0
 10
2846.7708857752232
 20
1841.765351182527
 30
0.0
  0
ENDBLK
  5
80C2
  8
0
  0
ENDSEC
  0
SECTION
  2
ENTITIES
  0
DIMENSION
  5
7CF6
  8
3
  2
*D3
 10
2728.7708857752218
 20
926.12101388827705
 30
0.0
 11
2421.2708857752218
 21
967.37101388827693
 31
0.0
 70
     0
 13
2113.7708857752218
 23
1051.161773729644
 33
0.0
 14
2728.7708857752218
 24
1033.88927286438
 34
0.0
1001
ACAD
1000
DSTYLE
1002
{
1070
   287
1070
     3
1070
    40
1040
15.0
1070
    43
1040
0.0
1070
   147
1040
1.5
1070
   173
1070
     1
1070
   272
1070
     4
1070
   279
1070
     0
1070
   284
1070
     0
1070
   285
1070
     0
1070
   286
1070
     0
1070
     6
1000
ARROW
1070
     7
1000
ARROW
1002
}
  0
DIMENSION
  5
7CF7
  8
3
  2
*D4
 10
2040.770885775222
 20
1928.5016347780911
 30
0.0
 11
2384.7708857752218
 21
1969.7516347780911
 31
0.0
 70
     0
 13
2728.7708857752218
 23
1909.268601567016
 33
0.0
 14
2040.770885775222
 24
1617.161773729644
 34
0.0
1001
ACAD
1000
DSTYLE
1002
{
1070
   287
1070
     4
1070
    40
1040
15.0
1070
    43
1040
0.0
1070
    75
1070
     1
1070
   147
1040
1.5
1070
   173
1070
     1
1070
   271
1070
     4
1070
   272
1070
     4
1070
   279
1070
     1
1070
   284
1070
     0
1070
   285
1070
     0
1070
   286
1070
     0
1070
     6
1000
ARROW
1070
     7
1000
ARROW
1002
}
  0
LINE
  5
7CF8
  8
1
 10
2608.7708857752218
 20
1499.661773729644
 30
0.0
 11
2532.0539173561592
 21
1499.661773729644
 31
0.0
  0
LINE
  5
7CF9
  8
1
 10
2608.7708857752218
 20
1534.661773729644
 30
0.0
 11
2529.5708857752211
 21
1534.661773729644
 31
0.0
  0
POLYLINE
  5
7CFA
  8
1
 66
     1
 10
0.0
 20
0.0
 30
0.0
 70
     1
  0
VERTEX
  5
812F
  8
1
 10
2545.7708857752209
 20
1420.361773729644
 30
0.0
  0
VERTEX
  5
8130
  8
1
 10
2545.7708857752209
 20
1460.361773729644
 30
0.0
  0
VERTEX
  5
8131
  8
1
 10
2547.7708857752209
 20
1460.361773729644
 30
0.0
 42
-0.4142135623730951
  0
VERTEX
  5
8132
  8
1
 10
2550.7708857752209
 20
1457.361773729644
 30
0.0
  0
VERTEX
  5
8133
  8
1
 10
2550.7708857752209
 20
1429.861773729644
 30
0.0
 42
0.4142135623730951
  0
VERTEX
  5
8134
  8
1
 10
2555.2708857752209
 20
1425.361773729644
 30
0.0
  0
VERTEX
  5
8135
  8
1
 10
2582.7708857752209
 20
1425.361773729644
 30
0.0
 42
-0.4142135623730951
  0
VERTEX
  5
8136
  8
1
 10
2585.7708857752209
 20
1422.361773729644
 30
0.0
  0
VERTEX
  5
8137
  8
1
 10
2585.7708857752209
 20
1420.361773729644
 30
0.0
  0
SEQEND
  5
8138
  8
1
  0
LINE
  5
7D05
  8
1
 10
2893.7708857752209
 20
1051.1617737296449
 30
0.0
 11
2113.7708857752218
 21
1051.161773729644
 31
0.0
  0
LINE
  5
7D06
  8
1
 10
2893.7708857752209
 20
1126.161773729644
 30
0.0
 11
2113.7708857752218
 21
1126.161773729644
 31
0.0
  0
LINE
  5
7D07
  8
2
 10
2763.6447007724209
 20
1517.161773729644
 30
0.0
 11
2018.9852553703461
 21
1517.161773729644
 31
0.0
  0
LINE
  5
7D08
  8
1
 10
2893.7708857752209
 20
1162.1617737296449
 30
0.0
 11
2113.7708857752218
 21
1162.161773729644
 31
0.0
  0
LINE
  5
7D09
  8
1
 10
2893.7708857752209
 20
1237.161773729644
 30
0.0
 11
2113.7708857752218
 21
1237.161773729644
 31
0.0
  0
LINE
  5
7D0A
  8
1
 10
577.08609091706035
 20
2350.1747664608979
 30
0.0
 11
577.08609091706035
 21
2442.1747664608979
 31
0.0
  0
LINE
  5
7D0B
  8
1
 10
644.48609091706089
 20
2430.1747664608988
 30
0.0
 11
644.48609091706055
 21
2380.1747664608979
 31
0.0
  0
LINE
  5
7D0C
  8
1
 10
809.68609091706026
 20
2430.1747664608988
 30
0.0
 11
809.68609091706026
 21
2380.1747664608979
 31
0.0
  0
LINE
  5
7D0D
  8
1
 10
1143.5860909170599
 20
2430.1747664608988
 30
0.0
 11
1143.5860909170599
 21
2380.1747664608979
 31
0.0
  0
LINE
  5
7D0E
  8
1
 10
1270.5860909170599
 20
2430.1747664608979
 30
0.0
 11
1270.5860909170599
 21
2380.1747664608979
 31
0.0
  0
LINE
  5
7D0F
  8
1
 10
1307.0860909170599
 20
2350.1747664608979
 30
0.0
 11
1307.0860909170599
 21
2442.1747664608988
 31
0.0
  0
DIMENSION
  5
7D10
  8
3
  2
*D5
 10
587.08609091706012
 20
2254.8636256536938
 30
0.0
 11
987.08609091706001
 21
2296.1136256536929
 31
0.0
 70
     0
 13
1387.086090917059
 23
2423.1747664608979
 33
0.0
 14
587.08609091706012
 24
2442.1747664608988
 34
0.0
1001
ACAD
1000
DSTYLE
1002
{
1070
   287
1070
     3
1070
    40
1040
15.0
1070
    43
1040
0.0
1070
   147
1040
1.5
1070
   173
1070
     1
1070
   272
1070
     4
1070
   279
1070
     0
1070
   284
1070
     0
1070
   285
1070
     0
1070
   286
1070
     0
1070
     6
1000
ARROW
1070
     7
1000
ARROW
1002
}
  0
LINE
  5
7D11
  8
2
 10
1207.0860909170599
 20
3190.3561464695699
 30
0.0
 11
1207.086090917061
 21
2341.0084631849918
 31
0.0
  0
LINE
  5
7D12
  8
2
 10
727.08609091706035
 20
2711.1117664608992
 30
0.0
 11
727.08609091706035
 21
2375.1401664608989
 31
0.0
  0
LINE
  5
7D13
  8
1
 10
1143.5860909170599
 20
2380.1747664608988
 30
0.0
 11
1270.5860909170599
 21
2380.1747664608979
 31
0.0
  0
LINE
  5
7D14
  8
1
 10
1207.4749212420161
 20
1759.161773729644
 30
0.0
 11
1191.4749212420161
 21
1759.161773729644
 31
0.0
  0
LINE
  5
7D15
  8
1
 10
1184.4749212420161
 20
1762.161773729644
 30
0.0
 11
1209.474921242017
 21
1762.161773729644
 31
0.0
  0
ARC
  5
7D16
  8
1
 10
1225.5860909170599
 20
1535.661773729644
 30
0.0
 40
170.010476206249
 50
89.999999999999616
 51
104.9310604237252
  0
CIRCLE
  5
7D17
  8
1
 10
1207.0860909170599
 20
1337.161773729644
 30
0.0
 40
65.0
  0
LINE
  5
7D18
  8
2
 10
1137.0860909170599
 20
1337.161773729644
 30
0.0
 11
1277.0860909170599
 21
1337.161773729644
 31
0.0
  0
ARC
  5
7D19
  8
1
 10
1177.8927628769691
 20
1498.396821144953
 30
0.0
 40
255.15223226792139
 50
271.15405593563707
 51
7.4603427729040979
  0
LINE
  5
7D1A
  8
1
 10
1367.086090917061
 20
1463.5617737296441
 30
0.0
 11
1047.0860909170599
 21
1463.5617737296441
 31
0.0
  0
POLYLINE
  5
7D1B
  8
1
 66
     1
 10
0.0
 20
0.0
 30
0.0
 70
     1
  0
VERTEX
  5
8142
  8
1
 10
1107.086090917061
 20
1463.5617737296441
 30
0.0
  0
VERTEX
  5
8143
  8
1
 10
1307.0860909170599
 20
1463.5617737296441
 30
0.0
  0
VERTEX
  5
8144
  8
1
 10
1307.0860909170599
 20
1469.5617737296441
 30
0.0
  0
VERTEX
  5
8145
  8
1
 10
1107.086090917061
 20
1469.5617737296441
 30
0.0
  0
SEQEND
  5
8146
  8
1
  0
POLYLINE
  5
7D21
  8
1
 66
     1
 10
0.0
 20
0.0
 30
0.0
 70
     1
  0
VERTEX
  5
8147
  8
1
 10
1107.086090917061
 20
1463.5617737296441
 30
0.0
  0
VERTEX
  5
8148
  8
1
 10
1307.0860909170599
 20
1463.5617737296441
 30
0.0
  0
VERTEX
  5
8149
  8
1
 10
1307.0860909170599
 20
1469.5617737296441
 30
0.0
  0
VERTEX
  5
814A
  8
1
 10
1107.086090917061
 20
1469.5617737296441
 30
0.0
  0
SEQEND
  5
814B
  8
1
  0
LINE
  5
7D27
  8
1
 10
1407.086090917061
 20
1460.361773729644
 30
0.0
 11
1007.08609091706
 21
1460.3617737296449
 31
0.0
  0
DIMENSION
  5
7D28
  8
3
  2
*D6
 10
1207.0860909170599
 20
928.47726321009304
 30
0.0
 11
1297.0860909170599
 21
969.72726321009293
 31
0.0
 70
     0
 13
1387.0860909170599
 23
1051.161773729644
 33
0.0
 14
1207.0860909170599
 24
1036.2884878548559
 34
0.0
1001
ACAD
1000
DSTYLE
1002
{
1070
   287
1070
     3
1070
    40
1040
15.0
1070
    43
1040
0.0
1070
   147
1040
1.5
1070
   173
1070
     1
1070
   272
1070
     4
1070
   279
1070
     0
1070
   284
1070
     0
1070
   285
1070
     0
1070
   286
1070
     0
1070
     6
1000
ARROW
1070
     7
1000
ARROW
1002
}
  0
POLYLINE
  5
7D29
  8
1
 66
     1
 10
0.0
 20
0.0
 30
0.0
  0
VERTEX
  5
8155
  8
1
 10
1357.086090917061
 20
1298.6709794666051
 30
0.0
 42
0.247273813914887
  0
VERTEX
  5
8156
  8
1
 10
1441.892799858372
 20
1526.6544066514609
 30
0.0
 42
0.377002301875605
  0
VERTEX
  5
8157
  8
1
 10
1225.5860909170599
 20
1716.7722499358929
 30
0.0
 42
0.0479523924775464
  0
VERTEX
  5
8158
  8
1
 10
1191.0860909170599
 20
1713.455909155012
 30
0.0
 42
0.3936265759256324
  0
SEQEND
  5
8159
  8
1
  0
ARC
  5
7D2F
  8
1
 10
1207.0860909170599
 20
1517.161773729644
 30
0.0
 40
100.0
 50
290.92458914348401
 51
99.383546957141121
  0
CIRCLE
  5
7D30
  8
1
 10
1207.0860909170599
 20
1517.161773729644
 30
0.0
 40
63.5
  0
DIMENSION
  5
7D31
  8
3
  2
*D7
 10
1433.04499514489
 20
1999.9228483426641
 30
0.0
 11
1131.259958193453
 21
2041.1728483426641
 31
0.0
 70
     0
  1
604
 13
829.47492124201665
 23
1762.161773729644
 33
0.0
 14
1433.04499514489
 24
1498.396821144953
 34
0.0
1001
ACAD
1000
DSTYLE
1002
{
1070
   287
1070
     3
1070
    40
1040
15.0
1070
    43
1040
0.0
1070
   147
1040
1.5
1070
   173
1070
     1
1070
   272
1070
     4
1070
   279
1070
     0
1070
   284
1070
     0
1070
   285
1070
     0
1070
   286
1070
     0
1070
     6
1000
ARROW
1070
     7
1000
ARROW
1002
}
  0
LINE
  5
7D32
  8
1
 10
1242.7999800232619
 20
1423.756644722132
 30
0.0
 11
780.65692457636214
 21
1247.0540802183759
 31
0.0
  0
LINE
  5
7D33
  8
2
 10
852.22523780871813
 20
1517.161773729644
 30
0.0
 11
1463.5462172675459
 21
1517.161773729644
 31
0.0
  0
LINE
  5
7D34
  8
1
 10
587.08609091706035
 20
1162.161773729644
 30
0.0
 11
1387.0860909170599
 21
1162.161773729644
 31
0.0
  0
LINE
  5
7D35
  8
1
 10
577.08609091706057
 20
1237.161773729644
 30
0.0
 11
1387.0860909170599
 21
1237.161773729644
 31
0.0
  0
LINE
  5
7D36
  8
1
 10
587.08609091706035
 20
1126.161773729644
 30
0.0
 11
1387.0860909170599
 21
1126.161773729644
 31
0.0
  0
LINE
  5
7D37
  8
1
 10
587.08609091706035
 20
1051.161773729644
 30
0.0
 11
1387.0860909170599
 21
1051.161773729644
 31
0.0
  0
DIMENSION
  5
7D38
  8
3
  2
*D8
 10
587.08609091706035
 20
928.47726321009304
 30
0.0
 11
897.08609091706046
 21
969.72726321009293
 31
0.0
 70
     0
 13
1207.0860909170599
 23
1036.2884878548559
 33
0.0
 14
587.08609091706035
 24
1051.161773729644
 34
0.0
1001
ACAD
1000
DSTYLE
1002
{
1070
   287
1070
     4
1070
    40
1040
15.0
1070
    43
1040
0.0
1070
    75
1070
     1
1070
   147
1040
1.5
1070
   173
1070
     1
1070
   272
1070
     4
1070
   279
1070
     1
1070
   284
1070
     0
1070
   285
1070
     0
1070
   286
1070
     0
1070
     6
1000
ARROW
1070
     7
1000
ARROW
1002
}
  0
LINE
  5
7D39
  8
1
 10
1226.0278215065259
 20
1456.552691553157
 30
0.0
 11
751.72525543186066
 21
1308.3222432134589
 31
0.0
  0
LINE
  5
7D3A
  8
1
 10
1307.0860909170599
 20
2350.1747664608979
 30
0.0
 11
577.08609091706035
 21
2350.1747664608979
 31
0.0
  0
DIMENSION
  5
7D3B
  8
3
  2
*D9
 10
1207.0860909170599
 20
1917.9003155447349
 30
0.0
 11
1031.5861211368999
 21
1959.1503155447349
 31
0.0
 70
     0
 13
856.08615135673972
 23
1762.161773729644
 33
0.0
 14
1207.0860909170599
 24
1795.0595217906309
 34
0.0
1001
ACAD
1000
DSTYLE
1002
{
1070
   287
1070
     3
1070
    40
1040
15.0
1070
    43
1040
0.0
1070
   147
1040
1.5
1070
   173
1070
     1
1070
   272
1070
     4
1070
   279
1070
     0
1070
   284
1070
     0
1070
   285
1070
     0
1070
   286
1070
     0
1070
     6
1000
ARROW
1070
     7
1000
ARROW
1002
}
  0
LINE
  5
7D3C
  8
1
 10
1209.474921242017
 20
1759.161773729644
 30
0.0
 11
829.47492124201665
 21
1759.161773729644
 31
0.0
  0
LINE
  5
7D3D
  8
1
 10
1209.474921242017
 20
1762.161773729644
 30
0.0
 11
829.47492124201665
 21
1762.161773729644
 31
0.0
  0
LINE
  5
7D3E
  8
2
 10
727.08609091706035
 20
1291.1776737296441
 30
0.0
 11
727.08609091706035
 21
1495.622873729644
 31
0.0
  0
CIRCLE
  5
7D3F
  8
1
 10
727.08609091706035
 20
1387.161773729644
 30
0.0
 40
82.599999999999994
  0
ARC
  5
7D40
  8
1
 10
727.08609091706035
 20
1387.161773729644
 30
0.0
 40
97.0
 50
297.50360000000001
 51
180.0
  0
ARC
  5
7D41
  8
1
 10
727.08609091706035
 20
1387.161773729644
 30
0.0
 40
97.0
 50
297.50360000000001
 51
180.0
  0
ARC
  5
7D42
  8
1
 10
727.08609091706035
 20
1387.161773729644
 30
0.0
 40
150.0
 50
99.383546957141107
 51
290.92458914348401
  0
ARC
  5
7D43
  8
1
 10
727.08609091706035
 20
1387.161773729644
 30
0.0
 40
100.8
 50
300.30070000000001
 51
180.0
  0
ARC
  5
7D44
  8
1
 10
727.08609091706035
 20
1387.161773729644
 30
0.0
 40
100.8
 50
300.30070000000001
 51
180.0
  0
LINE
  5
7D45
  8
1
 10
1007.08609091706
 20
1460.361773729644
 30
0.0
 11
1007.08609091706
 21
1420.3617737296449
 31
0.0
  0
LINE
  5
7D46
  8
1
 10
1057.0860909170599
 20
1460.361773729644
 30
0.0
 11
1057.0860909170599
 21
1237.161773729644
 31
0.0
  0
POLYLINE
  5
7D47
  8
1
 66
     1
 10
0.0
 20
0.0
 30
0.0
  0
VERTEX
  5
8174
  8
1
 10
848.97546412150302
 20
1737.161773729644
 30
0.0
  0
VERTEX
  5
8175
  8
1
 10
875.13358202724714
 20
1516.1707776293911
 30
0.0
 42
0.2448603046964227
  0
VERTEX
  5
8176
  8
1
 10
1027.0860909170599
 20
1274.472258342156
 30
0.0
 42
0.4524303970122726
  0
SEQEND
  5
8177
  8
1
  0
ARC
  5
7D4C
  8
1
 10
1183.0860909170599
 20
1541.161773729644
 30
0.0
 40
300.56488088068153
 50
184.610207495868
 51
270.00000000000023
  0
LINE
  5
7D4D
  8
1
 10
577.08609091706057
 20
1267.161773729644
 30
0.0
 11
877.08609091706035
 21
1267.161773729644
 31
0.0
  0
LINE
  5
7D4E
  8
1
 10
587.0860909170608
 20
1237.161773729644
 30
0.0
 11
587.08609091706035
 21
1162.161773729644
 31
0.0
  0
LINE
  5
7D4F
  8
1
 10
587.08609091706035
 20
1126.161773729644
 30
0.0
 11
587.08609091706035
 21
1051.161773729644
 31
0.0
  0
LINE
  5
7D50
  8
1
 10
778.01019091706019
 20
1300.161773729644
 30
0.0
 11
676.05509091706028
 21
1300.161773729644
 31
0.0
  0
LINE
  5
7D51
  8
1
 10
778.01019091706019
 20
1300.161773729644
 30
0.0
 11
676.05509091706028
 21
1300.161773729644
 31
0.0
  0
LINE
  5
7D52
  8
1
 10
771.91659091706026
 20
1301.161773729644
 30
0.0
 11
681.9621909170603
 21
1301.161773729644
 31
0.0
  0
LINE
  5
7D53
  8
1
 10
771.91659091706026
 20
1301.161773729644
 30
0.0
 11
681.9621909170603
 21
1301.161773729644
 31
0.0
  0
LINE
  5
7D54
  8
1
 10
626.18221944837342
 20
1297.161773729644
 30
0.0
 11
827.98996238574716
 21
1297.161773729644
 31
0.0
  0
LINE
  5
7D55
  8
2
 10
831.55129091706033
 20
1387.161773729644
 30
0.0
 11
620.98329091706023
 21
1387.161773729644
 31
0.0
  0
ARC
  5
7D56
  8
1
 10
727.08609091706035
 20
1387.161773729644
 30
0.0
 40
100.8
 50
180.0
 51
239.6066999999999
  0
ARC
  5
7D57
  8
1
 10
727.08609091706035
 20
1387.161773729644
 30
0.0
 40
97.0
 50
180.0
 51
242.3874999999999
  0
ARC
  5
7D58
  8
1
 10
727.08609091706035
 20
1387.161773729644
 30
0.0
 40
100.8
 50
180.0
 51
239.6066999999999
  0
ARC
  5
7D59
  8
1
 10
727.08609091706035
 20
1387.161773729644
 30
0.0
 40
97.0
 50
180.0
 51
242.3874999999999
  0
LINE
  5
7D5A
  8
1
 10
577.08609091706057
 20
1237.161773729644
 30
0.0
 11
577.0860909170608
 21
1267.161773729644
 31
0.0
  0
LINE
  5
7D5B
  8
1
 10
614.58609091706035
 20
1267.161773729644
 30
0.0
 11
626.18221944837342
 21
1297.161773729644
 31
0.0
  0
LINE
  5
7D5C
  8
1
 10
639.08609091706035
 20
1297.161773729644
 30
0.0
 11
679.08609091706035
 21
1297.161773729644
 31
0.0
  0
LINE
  5
7D5D
  8
1
 10
644.93949091706031
 20
1328.7444737296439
 30
0.0
 11
639.08609091706035
 21
1305.161773729644
 31
0.0
  0
LINE
  5
7D5E
  8
1
 10
639.08609091706035
 20
1297.161773729644
 30
0.0
 11
639.08609091706035
 21
1305.161773729644
 31
0.0
  0
LINE
  5
7D5F
  8
1
 10
657.08609091706035
 20
1292.7952737296439
 30
0.0
 11
657.08609091706035
 21
1309.698673729644
 31
0.0
  0
LINE
  5
7D60
  8
1
 10
679.08609091706035
 20
1300.092773729644
 30
0.0
 11
679.08609091706035
 21
1297.161773729644
 31
0.0
  0
LINE
  5
7D61
  8
1
 10
815.08609091706035
 20
1297.161773729644
 30
0.0
 11
775.08609091706035
 21
1297.161773729644
 31
0.0
  0
LINE
  5
7D62
  8
1
 10
775.08609091706035
 20
1300.134573729644
 30
0.0
 11
775.08609091706035
 21
1297.161773729644
 31
0.0
  0
LINE
  5
7D63
  8
1
 10
839.58609091706035
 20
1267.161773729644
 30
0.0
 11
827.98996238574716
 21
1297.161773729644
 31
0.0
  0
LINE
  5
7D64
  8
1
 10
815.08609091706035
 20
1297.161773729644
 30
0.0
 11
815.08609091706035
 21
1305.161773729644
 31
0.0
  0
LINE
  5
7D65
  8
1
 10
809.23259091706041
 20
1328.7444737296439
 30
0.0
 11
815.08609091706035
 21
1305.161773729644
 31
0.0
  0
LINE
  5
7D66
  8
1
 10
797.08609091706035
 20
1292.7952737296439
 30
0.0
 11
797.08609091706035
 21
1309.698673729644
 31
0.0
  0
LINE
  5
7D67
  8
1
 10
1027.0860909170599
 20
1277.161773729644
 30
0.0
 11
1057.0860909170599
 21
1277.161773729644
 31
0.0
  0
LINE
  5
7D68
  8
1
 10
1027.0860909170599
 20
1242.161773729644
 30
0.0
 11
1057.0860909170599
 21
1242.161773729644
 31
0.0
  0
LINE
  5
7D69
  8
1
 10
899.2712082600483
 20
1420.3617737296449
 30
0.0
 11
1057.0860909170599
 21
1420.3617737296449
 31
0.0
  0
LINE
  5
7D6A
  8
1
 10
901.24972417633364
 20
1415.8617737296449
 30
0.0
 11
1057.0860909170599
 21
1415.8617737296449
 31
0.0
  0
LINE
  5
7D6B
  8
1
 10
877.08609091706035
 20
1237.161773729644
 30
0.0
 11
877.08609091706035
 21
1267.161773729644
 31
0.0
  0
LINE
  5
7D6C
  8
1
 10
1027.0860909170599
 20
1277.161773729644
 30
0.0
 11
1027.0860909170599
 21
1237.161773729644
 31
0.0
  0
POLYLINE
  5
7D6D
  8
1
 66
     1
 10
0.0
 20
0.0
 30
0.0
  0
VERTEX
  5
8178
  8
1
 10
854.47492124201665
 20
1762.161773729644
 30
0.0
  0
VERTEX
  5
8179
  8
1
 10
871.61088444502025
 20
1617.3924294284041
 30
0.0
 42
0.3908380251735333
  0
SEQEND
  5
817A
  8
1
  0
LINE
  5
7D71
  8
1
 10
856.08615135673972
 20
1762.161773729644
 30
0.0
 11
885.08247757912864
 21
1517.192810816359
 31
0.0
  0
LINE
  5
7D72
  8
1
 10
854.47492124201619
 20
1762.161773729644
 30
0.0
 11
883.49366521245145
 21
1517.003419496657
 31
0.0
  0
LINE
  5
7D73
  8
1
 10
1190.781825749395
 20
1615.823675887176
 30
0.0
 11
702.62969316556291
 21
1535.154626965943
 31
0.0
  0
LINE
  5
7D74
  8
1
 10
1192.852552806366
 20
1579.0459913691309
 30
0.0
 11
708.57128386283409
 21
1467.6599843914021
 31
0.0
  0
LINE
  5
7D75
  8
1
 10
848.97546412150302
 20
1737.161773729644
 30
0.0
 11
1185.4749212420161
 21
1737.161773729644
 31
0.0
  0
DIMENSION
  5
7D76
  8
3
  2
*D10
 10
1181.0860909170599
 20
1821.130134318762
 30
0.0
 11
1018.5861211369
 21
1862.380134318762
 31
0.0
 70
     0
 13
856.08615135673972
 23
1762.161773729644
 33
0.0
 14
1181.0860909170599
 24
1762.161773729644
 34
0.0
1001
ACAD
1000
DSTYLE
1002
{
1070
   287
1070
     3
1070
    40
1040
15.0
1070
    43
1040
0.0
1070
   147
1040
1.5
1070
   173
1070
     1
1070
   272
1070
     4
1070
   279
1070
     0
1070
   284
1070
     0
1070
   285
1070
     0
1070
   286
1070
     0
1070
     6
1000
ARROW
1070
     7
1000
ARROW
1002
}
  0
ARC
  5
7D77
  8
1
 10
847.47492124201653
 20
1755.161773729644
 30
0.0
 40
4.0
 50
0.0
 51
90.0
  0
LINE
  5
7D78
  8
1
 10
854.47492124201665
 20
1737.161773729644
 30
0.0
 11
854.47492124201665
 21
1762.1617737296431
 31
0.0
  0
LINE
  5
7D79
  8
1
 10
853.47492124201642
 20
1737.161773729644
 30
0.0
 11
854.47492124201665
 21
1737.161773729644
 31
0.0
  0
ARC
  5
7D7A
  8
1
 10
853.47492124201642
 20
1739.161773729644
 30
0.0
 40
2.0
 50
180.0
 51
270.0
  0
LINE
  5
7D7B
  8
1
 10
858.04527459053043
 20
1737.161773729644
 30
0.0
 11
859.04527459053043
 21
1737.161773729644
 31
0.0
  0
LINE
  5
7D7C
  8
1
 10
851.47492124201653
 20
1755.161773729644
 30
0.0
 11
851.47492124201653
 21
1739.161773729644
 31
0.0
  0
ARC
  5
7D7D
  8
1
 10
831.47492124201653
 20
1761.1617737296431
 30
0.0
 40
2.0
 50
180.0
 51
270.0
  0
LINE
  5
7D7E
  8
1
 10
829.47492124201665
 20
1762.1617737296431
 30
0.0
 11
829.47492124201665
 21
1761.1617737296431
 31
0.0
  0
LINE
  5
7D7F
  8
1
 10
854.47492124201665
 20
1762.1617737296431
 30
0.0
 11
829.47492124201665
 21
1762.1617737296431
 31
0.0
  0
LINE
  5
7D80
  8
1
 10
831.47492124201653
 20
1759.1617737296431
 30
0.0
 11
847.47492124201653
 21
1759.1617737296431
 31
0.0
  0
LINE
  5
7D81
  8
1
 10
1047.0860909170599
 20
1463.5617737296441
 30
0.0
 11
1047.0860909170599
 21
1460.361773729644
 31
0.0
  0
LINE
  5
7D82
  8
1
 10
1123.5860909170599
 20
1469.5617737296441
 30
0.0
 11
1177.586090917061
 21
1469.5617737296441
 31
0.0
  0
ARC
  5
7D83
  8
1
 10
1191.4749212420161
 20
1755.161773729644
 30
0.0
 40
4.0
 50
90.0
 51
180.0
  0
LINE
  5
7D84
  8
1
 10
1184.4749212420161
 20
1703.3833926257259
 30
0.0
 11
1184.4749212420161
 21
1762.161773729644
 31
0.0
  0
LINE
  5
7D85
  8
1
 10
1181.0860909170599
 20
1762.161773729644
 30
0.0
 11
1181.0860909170599
 21
1702.540947359518
 31
0.0
  0
ARC
  5
7D86
  8
1
 10
1185.4749212420161
 20
1739.161773729644
 30
0.0
 40
2.0
 50
270.0
 51
0.0
  0
LINE
  5
7D87
  8
1
 10
1185.4749212420161
 20
1737.161773729644
 30
0.0
 11
1184.4749212420161
 21
1737.161773729644
 31
0.0
  0
LINE
  5
7D88
  8
1
 10
1191.0860909170599
 20
1737.161773729644
 30
0.0
 11
1184.4749212420161
 21
1737.161773729644
 31
0.0
  0
LINE
  5
7D89
  8
1
 10
1191.0860909170599
 20
1737.161773729644
 30
0.0
 11
1191.0860909170599
 21
1713.455909155012
 31
0.0
  0
LINE
  5
7D8A
  8
1
 10
1187.4749212420161
 20
1755.161773729644
 30
0.0
 11
1187.4749212420161
 21
1739.161773729644
 31
0.0
  0
LINE
  5
7D8B
  8
1
 10
809.68609091706026
 20
2380.1747664608979
 30
0.0
 11
644.48609091706089
 21
2380.1747664608979
 31
0.0
  0
LINE
  5
7D8C
  8
1
 10
739.08609091706035
 20
2380.1747664608988
 30
0.0
 11
715.08609091706035
 21
2380.1747664608988
 31
0.0
  0
DIMENSION
  5
7D8D
  8
3
  2
*D11
 10
1772.8403098728741
 20
1762.161773729644
 30
0.0
 11
1731.5903098728729
 21
1406.661773729644
 31
0.0
 70
     0
 13
1387.0860909170599
 23
1051.161773729644
 33
0.0
 14
1209.474921242017
 24
1762.161773729644
 34
0.0
 50
90.0
1001
ACAD
1000
DSTYLE
1002
{
1070
   287
1070
     3
1070
    40
1040
15.0
1070
    43
1040
0.0
1070
   147
1040
1.5
1070
   173
1070
     1
1070
   271
1070
     0
1070
   272
1070
     4
1070
   279
1070
     0
1070
   284
1070
     0
1070
   285
1070
     0
1070
   286
1070
     0
1070
     6
1000
ARROW
1070
     7
1000
ARROW
1002
}
  0
LINE
  5
7D8E
  8
1
 10
1407.086090917061
 20
1460.361773729644
 30
0.0
 11
1407.086090917061
 21
1420.361773729644
 31
0.0
  0
DIMENSION
  5
7D8F
  8
3
  2
*D12
 10
1565.6752858340819
 20
1162.161773729644
 30
0.0
 11
1524.4252858340819
 21
1339.6617737296449
 31
0.0
 70
     0
 13
1463.5462172675459
 23
1517.161773729644
 33
0.0
 14
1387.0860909170599
 24
1162.161773729644
 34
0.0
 50
270.0
1001
ACAD
1000
DSTYLE
1002
{
1070
   287
1070
     4
1070
    40
1040
15.0
1070
    43
1040
0.0
1070
    75
1070
     1
1070
   147
1040
1.5
1070
   173
1070
     1
1070
   272
1070
     4
1070
   279
1070
     1
1070
   284
1070
     0
1070
   285
1070
     0
1070
   286
1070
     0
1070
     6
1000
ARROW
1070
     7
1000
ARROW
1002
}
  0
LINE
  5
7D90
  8
1
 10
1357.086090917061
 20
1460.361773729644
 30
0.0
 11
1357.086090917061
 21
1237.161773729644
 31
0.0
  0
LINE
  5
7D91
  8
2
 10
1207.0860909170599
 20
1611.30108892212
 30
0.0
 11
1207.0860909170599
 21
1036.2884878548559
 31
0.0
  0
LINE
  5
7D92
  8
1
 10
2132.7708857752218
 20
1617.161773729644
 30
0.0
 11
2132.7708857752218
 21
1237.161773729644
 31
0.0
  0
LINE
  5
7D93
  8
1
 10
2040.770885775222
 20
1617.161773729644
 30
0.0
 11
2040.770885775222
 21
1237.161773729644
 31
0.0
  0
LINE
  5
7D94
  8
1
 10
2120.7708857752218
 20
1580.661773729644
 30
0.0
 11
2120.7708857752218
 21
1453.661773729644
 31
0.0
  0
LINE
  5
7D95
  8
1
 10
2120.7708857752232
 20
1469.7617737296439
 30
0.0
 11
2120.7708857752232
 21
1304.561773729645
 31
0.0
  0
LINE
  5
7D96
  8
1
 10
2070.7708857752218
 20
1469.7617737296439
 30
0.0
 11
2070.7708857752218
 21
1304.561773729645
 31
0.0
  0
LINE
  5
7D97
  8
1
 10
2135.7708857752218
 20
1488.161773729644
 30
0.0
 11
2135.7708857752218
 21
1286.161773729644
 31
0.0
  0
LINE
  5
7D98
  8
1
 10
2070.7708857752218
 20
1580.661773729644
 30
0.0
 11
2070.7708857752218
 21
1453.661773729644
 31
0.0
  0
LINE
  5
7D99
  8
1
 10
2152.5708857752211
 20
1460.361773729644
 30
0.0
 11
2152.570885775222
 21
1237.161773729644
 31
0.0
  0
LINE
  5
7D9A
  8
1
 10
2155.7708857752218
 20
1460.361773729644
 30
0.0
 11
2155.7708857752218
 21
1237.161773729644
 31
0.0
  0
LINE
  5
7D9B
  8
1
 10
2545.7708857752209
 20
1459.0617737296441
 30
0.0
 11
2545.7708857752209
 21
1409.0617737296441
 31
0.0
  0
LINE
  5
7D9C
  8
1
 10
2545.7708857752209
 20
1459.061773729645
 30
0.0
 11
2545.7708857752209
 21
1419.061773729645
 31
0.0
  0
LINE
  5
7D9D
  8
1
 10
2545.7708857752209
 20
1459.0617737296441
 30
0.0
 11
2545.7708857752209
 21
1237.161773729644
 31
0.0
  0
LINE
  5
7D9E
  8
2
 10
2190.7708857752218
 20
1583.4269385779101
 30
0.0
 11
2190.7708857752218
 21
1424.365061149063
 31
0.0
  0
LINE
  5
7D9F
  8
2
 10
2510.7708857752209
 20
1584.803365181084
 30
0.0
 11
2510.7708857752209
 21
1413.628933644311
 31
0.0
  0
DIMENSION
  5
7DA0
  8
3
  2
*D13
 10
1565.6752858340819
 20
1051.161773729644
 30
0.0
 11
1524.4252858340819
 21
938.30463087250189
 31
0.0
 70
     0
 13
1387.0860909170599
 23
1126.161773729644
 33
0.0
 14
1387.0860909170599
 24
1051.161773729644
 34
0.0
 50
270.0
1001
ACAD
1000
DSTYLE
1002
{
1070
   287
1070
     3
1070
    40
1040
15.0
1070
    43
1040
0.0
1070
   147
1040
1.5
1070
   173
1070
     1
1070
   272
1070
     4
1070
   279
1070
     0
1070
   284
1070
     0
1070
   285
1070
     0
1070
   286
1070
     0
1070
     6
1000
YA_N
1070
     7
1000
OPEN
1002
}
  0
DIMENSION
  5
7DA1
  8
3
  2
*D14
 10
1565.6752858340819
 20
1126.161773729644
 30
0.0
 11
1694.06814297694
 21
1227.0562304383709
 31
0.0
 70
   128
  1
(36)
 13
1387.0860909170599
 23
1162.161773729644
 33
0.0
 14
1387.0860909170599
 24
1126.161773729644
 34
0.0
 50
270.0
1001
ACAD
1000
DSTYLE
1002
{
1070
   287
1070
     4
1070
    40
1040
15.0
1070
    43
1040
0.0
1070
    75
1070
     1
1070
   147
1040
1.5
1070
   173
1070
     1
1070
   272
1070
     4
1070
   279
1070
     1
1070
   284
1070
     0
1070
   285
1070
     0
1070
   286
1070
     0
1070
     6
1000
OPEN
1070
     7
1000
YA_N
1002
}
  0
LINE
  5
7DA2
  8
1
 10
1387.0860909170599
 20
1277.161773729644
 30
0.0
 11
1387.0860909170599
 21
1162.161773729644
 31
0.0
  0
LINE
  5
7DA3
  8
1
 10
1387.0860909170599
 20
1126.161773729644
 30
0.0
 11
1387.0860909170599
 21
1051.161773729644
 31
0.0
  0
LINE
  5
7DA4
  8
1
 10
1357.086090917061
 20
1415.861773729644
 30
0.0
 11
1431.9328490897719
 21
1415.861773729644
 31
0.0
  0
LINE
  5
7DA5
  8
1
 10
1357.086090917061
 20
1420.3617737296449
 30
0.0
 11
1433.3097090130909
 21
1420.361773729644
 31
0.0
  0
LINE
  5
7DA6
  8
1
 10
1357.086090917061
 20
1277.161773729644
 30
0.0
 11
1387.0860909170599
 21
1277.161773729644
 31
0.0
  0
LINE
  5
7DA7
  8
1
 10
1357.086090917061
 20
1242.161773729644
 30
0.0
 11
1387.0860909170599
 21
1242.161773729644
 31
0.0
  0
CIRCLE
  5
7DA8
  8
1
 10
1565.6752858340819
 20
1126.161773729644
 30
0.0
 40
3.0
  0
LINE
  5
7DA9
  8
1
 10
2113.7708857752218
 20
1237.161773729644
 30
0.0
 11
2113.7708857752218
 21
1162.161773729644
 31
0.0
  0
LINE
  5
7DAA
  8
1
 10
2113.7708857752218
 20
1126.161773729644
 30
0.0
 11
2113.7708857752218
 21
1051.161773729644
 31
0.0
  0
LINE
  5
7DAB
  8
1
 10
2040.770885775222
 20
1237.161773729644
 30
0.0
 11
2132.7708857752218
 21
1237.161773729644
 31
0.0
  0
LINE
  5
7DAC
  8
1
 10
2120.7708857752232
 20
1304.561773729645
 30
0.0
 11
2070.7708857752218
 21
1304.5617737296441
 31
0.0
  0
LINE
  5
7DAD
  8
1
 10
2135.7708857752218
 20
1286.161773729644
 30
0.0
 11
2152.570885775222
 21
1286.161773729644
 31
0.0
  0
LINE
  5
7DAE
  8
1
 10
2126.7708857752218
 20
1349.661773729644
 30
0.0
 11
2134.7708857752232
 21
1349.661773729644
 31
0.0
  0
LINE
  5
7DAF
  8
1
 10
2125.7708857752218
 20
1423.661773729644
 30
0.0
 11
2135.7708857752232
 21
1423.661773729644
 31
0.0
  0
LINE
  5
7DB0
  8
2
 10
2165.068851172271
 20
1387.161773729644
 30
0.0
 11
2065.7362857752219
 21
1387.161773729644
 31
0.0
  0
LINE
  5
7DB1
  8
1
 10
2125.7708857752218
 20
1350.661773729644
 30
0.0
 11
2125.7708857752218
 21
1423.661773729644
 31
0.0
  0
LINE
  5
7DB2
  8
1
 10
2070.7708857752218
 20
1399.161773729644
 30
0.0
 11
2070.7708857752218
 21
1375.161773729644
 31
0.0
  0
LINE
  5
7DB3
  8
1
 10
2120.7708857752218
 20
1399.661773729644
 30
0.0
 11
2120.7708857752218
 21
1374.661773729644
 31
0.0
  0
LINE
  5
7DB4
  8
1
 10
2125.7708857752218
 20
1374.661773729644
 30
0.0
 11
2120.7708857752218
 21
1374.661773729644
 31
0.0
  0
ARC
  5
7DB5
  8
1
 10
2126.7709857752229
 20
1350.661773729644
 30
0.0
 40
1.0000999999999991
 50
180.0
 51
269.99650000000003
  0
LINE
  5
7DB6
  8
1
 10
2120.7708857752232
 20
1453.661773729644
 30
0.0
 11
2070.7708857752232
 21
1453.661773729644
 31
0.0
  0
LINE
  5
7DB7
  8
1
 10
2125.7708857752218
 20
1399.661773729644
 30
0.0
 11
2120.7708857752218
 21
1399.661773729644
 31
0.0
  0
ARC
  5
7DB8
  8
1
 10
2134.7708857752232
 20
1348.661773729644
 30
0.0
 40
1.0000999999999991
 50
0.0
 51
89.996500000000054
  0
DIMENSION
  5
7DB9
  8
3
  2
*D15
 10
1433.04499514489
 20
1917.9003155447349
 30
0.0
 11
1320.065543030975
 21
1959.1503155447349
 31
0.0
 70
     0
 13
1207.0860909170599
 23
1795.0595217906309
 33
0.0
 14
1433.04499514489
 24
1498.396821144953
 34
0.0
1001
ACAD
1000
DSTYLE
1002
{
1070
   287
1070
     4
1070
    40
1040
15.0
1070
    43
1040
0.0
1070
    75
1070
     1
1070
   147
1040
1.5
1070
   173
1070
     1
1070
   272
1070
     4
1070
   279
1070
     1
1070
   284
1070
     0
1070
   285
1070
     0
1070
   286
1070
     0
1070
     6
1000
ARROW
1070
     7
1000
ARROW
1002
}
  0
DIMENSION
  5
7DBA
  8
3
  2
*D16
 10
1565.6752858340819
 20
1517.161773729644
 30
0.0
 11
1524.4252858340819
 21
1639.6617737296449
 31
0.0
 70
     0
 13
1209.474921242017
 23
1762.161773729644
 33
0.0
 14
1463.5462172675459
 24
1517.161773729644
 34
0.0
 50
270.0
1001
ACAD
1000
DSTYLE
1002
{
1070
   287
1070
     3
1070
    40
1040
15.0
1070
    43
1040
0.0
1070
   147
1040
1.5
1070
   173
1070
     1
1070
   272
1070
     4
1070
   279
1070
     0
1070
   284
1070
     0
1070
   285
1070
     0
1070
   286
1070
     0
1070
     6
1000
ARROW
1070
     7
1000
ARROW
1002
}
  0
LINE
  5
7DBB
  8
2
 10
1207.0860909170599
 20
1795.0595217906309
 30
0.0
 11
1207.0860909170599
 21
1630.2410159003091
 31
0.0
  0
ARC
  5
7DBC
  8
1
 10
1231.1617999792679
 20
1504.1588296544189
 30
0.0
 40
201.58952384937541
 50
7.7978028439297358
 51
91.563977764425033
  0
LINE
  5
7DBD
  8
1
 10
1290.5860909170599
 20
1469.5617737296441
 30
0.0
 11
1236.5860909170599
 21
1469.5617737296441
 31
0.0
  0
LINE
  5
7DBE
  8
1
 10
1367.086090917061
 20
1463.5617737296441
 30
0.0
 11
1367.086090917061
 21
1460.361773729644
 31
0.0
  0
LINE
  5
7DBF
  8
1
 10
1207.0860909170599
 20
1617.161773729644
 30
0.0
 11
1207.0860909170599
 21
1617.161773729644
 31
0.0
  0
ARC
  5
7DC0
  8
1
 10
1207.4749212420161
 20
1761.1617737296449
 30
0.0
 40
2.0
 50
270.0
 51
0.0
  0
LINE
  5
7DC1
  8
1
 10
1209.474921242017
 20
1762.161773729644
 30
0.0
 11
1209.474921242017
 21
1761.1617737296449
 31
0.0
  0
LINE
  5
7DC2
  8
1
 10
2223.0708857752229
 20
1544.5729184390141
 30
0.0
 11
2206.050095216438
 21
1544.5729184390141
 31
0.0
  0
LINE
  5
7DC3
  8
1
 10
2223.0708857752229
 20
1489.7506290202739
 30
0.0
 11
2214.455522706035
 21
1489.7506290202739
 31
0.0
  0
POLYLINE
  5
7DC4
  8
1
 66
     1
 10
0.0
 20
0.0
 30
0.0
 70
     1
  0
VERTEX
  5
81BE
  8
1
 10
2223.2708857752218
 20
1463.5617737296441
 30
0.0
  0
VERTEX
  5
81BF
  8
1
 10
2158.2708857752218
 20
1463.5617737296441
 30
0.0
  0
VERTEX
  5
81C0
  8
1
 10
2158.2708857752218
 20
1469.5617737296441
 30
0.0
  0
VERTEX
  5
81C1
  8
1
 10
2223.2708857752218
 20
1469.5617737296441
 30
0.0
  0
SEQEND
  5
81C2
  8
1
  0
LINE
  5
7DCA
  8
1
 10
2555.7708857752209
 20
1460.361773729644
 30
0.0
 11
2145.7708857752218
 21
1460.361773729644
 31
0.0
  0
LINE
  5
7DCB
  8
1
 10
2555.7708857752209
 20
1463.5617737296441
 30
0.0
 11
2145.7708857752218
 21
1463.5617737296441
 31
0.0
  0
LINE
  5
7DCC
  8
1
 10
2040.770885775223
 20
1617.161773729644
 30
0.0
 11
2132.7708857752218
 21
1617.161773729644
 31
0.0
  0
LINE
  5
7DCD
  8
1
 10
2170.2630439950458
 20
1499.661773729644
 30
0.0
 11
2132.7708857752218
 21
1499.661773729644
 31
0.0
  0
LINE
  5
7DCE
  8
1
 10
2171.9708857752221
 20
1534.661773729644
 30
0.0
 11
2132.7708857752218
 21
1534.661773729644
 31
0.0
  0
LINE
  5
7DCF
  8
1
 10
2120.7708857752232
 20
1469.7617737296439
 30
0.0
 11
2070.7708857752218
 21
1469.7617737296439
 31
0.0
  0
ARC
  5
7DD0
  8
1
 10
2470.75831897429
 20
1557.1028305200759
 30
0.0
 40
265.0046083029427
 50
179.34767661318941
 51
194.9894391436155
  0
ARC
  5
7DD1
  8
1
 10
1910.783452576155
 20
1557.1028305200759
 30
0.0
 40
265.0046083029427
 50
345.01056085638442
 51
0.6523233868105212
  0
LINE
  5
7DD2
  8
1
 10
2171.9708857752221
 20
1512.2857895570801
 30
0.0
 11
2171.9708857752221
 21
1544.5729184390141
 31
0.0
  0
LINE
  5
7DD3
  8
1
 10
2214.7708857752232
 20
1469.5617737296441
 30
0.0
 11
2166.7708857752232
 21
1469.5617737296441
 31
0.0
  0
LINE
  5
7DD4
  8
1
 10
2214.7708857752232
 20
1488.5617737296441
 30
0.0
 11
2166.7708857752232
 21
1488.5617737296441
 31
0.0
  0
LINE
  5
7DD5
  8
1
 10
2214.7708857752232
 20
1469.5617737296441
 30
0.0
 11
2166.7708857752232
 21
1469.5617737296441
 31
0.0
  0
LINE
  5
7DD6
  8
1
 10
2135.7708857752218
 20
1488.161773729644
 30
0.0
 11
2166.7708857752232
 21
1488.161773729644
 31
0.0
  0
LINE
  5
7DD7
  8
1
 10
2166.7708857752232
 20
1469.5617737296441
 30
0.0
 11
2166.7708857752232
 21
1488.5617737296441
 31
0.0
  0
LINE
  5
7DD8
  8
1
 10
2145.7708857752218
 20
1460.361773729644
 30
0.0
 11
2145.7708857752218
 21
1463.5617737296441
 31
0.0
  0
LINE
  5
7DD9
  8
1
 10
2214.7708857752232
 20
1469.5617737296441
 30
0.0
 11
2214.7708857752232
 21
1488.5617737296441
 31
0.0
  0
ARC
  5
7DDA
  8
1
 10
2188.574593460361
 20
1538.72683555763
 30
0.0
 40
24.931864229136519
 50
84.94616189605199
 51
120.9004470316801
  0
LINE
  5
7DDB
  8
1
 10
2175.491676334007
 20
1544.5729184390141
 30
0.0
 11
2171.9708857752221
 21
1544.5729184390141
 31
0.0
  0
POLYLINE
  5
7DDC
  8
1
 66
     1
 10
0.0
 20
0.0
 30
0.0
 70
     1
  0
VERTEX
  5
81C3
  8
1
 10
2197.1228109126519
 20
1571.923197210155
 30
0.0
  0
VERTEX
  5
81C4
  8
1
 10
2192.477826139725
 20
1571.923197210155
 30
0.0
  0
VERTEX
  5
81C5
  8
1
 10
2192.477826139725
 20
1563.5617737296441
 30
0.0
  0
VERTEX
  5
81C6
  8
1
 10
2197.1228109126519
 20
1563.5617737296441
 30
0.0
  0
SEQEND
  5
81C7
  8
1
  0
ARC
  5
7DE2
  8
1
 10
2192.9671780900831
 20
1538.72683555763
 30
0.0
 40
24.931864229136519
 50
59.099552968319841
 51
95.053838103948024
  0
LINE
  5
7DE3
  8
1
 10
2120.7708857752232
 20
1580.6617737296449
 30
0.0
 11
2070.7708857752232
 21
1580.661773729644
 31
0.0
  0
LINE
  5
7DE4
  8
1
 10
2478.4708857752212
 20
1499.661773729644
 30
0.0
 11
2223.070885775222
 21
1499.661773729644
 31
0.0
  0
LINE
  5
7DE5
  8
1
 10
2478.4708857752212
 20
1534.661773729644
 30
0.0
 11
2223.070885775222
 21
1534.661773729644
 31
0.0
  0
LINE
  5
7DE6
  8
1
 10
2223.0708857752229
 20
1489.7506290202739
 30
0.0
 11
2223.0708857752229
 21
1544.5729184390141
 31
0.0
  0
LINE
  5
7DE7
  8
1
 10
2529.5708857752211
 20
1512.2857895570801
 30
0.0
 11
2529.5708857752211
 21
1544.5729184390141
 31
0.0
  0
LINE
  5
7DE8
  8
1
 10
2478.4708857752212
 20
1489.7506290202739
 30
0.0
 11
2478.4708857752212
 21
1544.5729184390141
 31
0.0
  0
ARC
  5
7DE9
  8
1
 10
2230.7834525761541
 20
1557.1028305200759
 30
0.0
 40
265.0046083029427
 50
345.01056085638442
 51
0.6523233868105212
  0
ARC
  5
7DEA
  8
1
 10
2790.7583189742891
 20
1557.1028305200759
 30
0.0
 40
265.0046083029427
 50
179.34767661318941
 51
194.9894391436155
  0
LINE
  5
7DEB
  8
1
 10
2486.7708857752209
 20
1469.5617737296441
 30
0.0
 11
2534.7708857752209
 21
1469.5617737296441
 31
0.0
  0
LINE
  5
7DEC
  8
1
 10
2486.7708857752209
 20
1488.5617737296441
 30
0.0
 11
2534.7708857752209
 21
1488.5617737296441
 31
0.0
  0
LINE
  5
7DED
  8
1
 10
2486.7708857752209
 20
1469.5617737296441
 30
0.0
 11
2534.7708857752209
 21
1469.5617737296441
 31
0.0
  0
POLYLINE
  5
7DEE
  8
1
 66
     1
 10
0.0
 20
0.0
 30
0.0
 70
     1
  0
VERTEX
  5
81C8
  8
1
 10
2478.2708857752209
 20
1463.5617737296441
 30
0.0
  0
VERTEX
  5
81C9
  8
1
 10
2543.2708857752209
 20
1463.5617737296441
 30
0.0
  0
VERTEX
  5
81CA
  8
1
 10
2543.2708857752209
 20
1469.5617737296441
 30
0.0
  0
VERTEX
  5
81CB
  8
1
 10
2478.2708857752209
 20
1469.5617737296441
 30
0.0
  0
SEQEND
  5
81CC
  8
1
  0
LINE
  5
7DF4
  8
1
 10
2486.7708857752209
 20
1469.5617737296441
 30
0.0
 11
2486.7708857752209
 21
1488.5617737296441
 31
0.0
  0
LINE
  5
7DF5
  8
1
 10
2478.4708857752212
 20
1489.7506290202739
 30
0.0
 11
2487.0862488444081
 21
1489.7506290202739
 31
0.0
  0
LINE
  5
7DF6
  8
1
 10
2534.7708857752209
 20
1469.5617737296441
 30
0.0
 11
2534.7708857752209
 21
1488.5617737296441
 31
0.0
  0
LINE
  5
7DF7
  8
1
 10
2555.7708857752209
 20
1463.5617737296441
 30
0.0
 11
2555.77088577522
 21
1460.361773729644
 31
0.0
  0
ARC
  5
7DF8
  8
1
 10
2512.9671780900821
 20
1538.72683555763
 30
0.0
 40
24.931864229136519
 50
59.099552968319841
 51
95.053838103948024
  0
ARC
  5
7DF9
  8
1
 10
2508.5745934603601
 20
1538.72683555763
 30
0.0
 40
24.931864229136519
 50
84.94616189605199
 51
120.9004470316801
  0
POLYLINE
  5
7DFA
  8
1
 66
     1
 10
0.0
 20
0.0
 30
0.0
 70
     1
  0
VERTEX
  5
81CD
  8
1
 10
2504.4189606377922
 20
1571.923197210155
 30
0.0
  0
VERTEX
  5
81CE
  8
1
 10
2509.0639454107181
 20
1571.923197210155
 30
0.0
  0
VERTEX
  5
81CF
  8
1
 10
2509.0639454107181
 20
1563.5617737296441
 30
0.0
  0
VERTEX
  5
81D0
  8
1
 10
2504.4189606377922
 20
1563.5617737296441
 30
0.0
  0
SEQEND
  5
81D1
  8
1
  0
LINE
  5
7E00
  8
1
 10
2478.4708857752212
 20
1544.5729184390141
 30
0.0
 11
2495.4916763340061
 21
1544.5729184390141
 31
0.0
  0
LINE
  5
7E01
  8
1
 10
2526.0500952164371
 20
1544.5729184390141
 30
0.0
 11
2529.5708857752211
 21
1544.5729184390141
 31
0.0
  0
DIMENSION
  5
7E02
  8
3
  2
*D17
 10
1027.0860909170599
 20
3298.964245174182
 30
0.0
 11
1207.0860909170599
 21
3340.214245174182
 31
0.0
 70
     0
 13
1387.0860909170599
 23
3203.1747664608979
 33
0.0
 14
1027.0860909170599
 24
3203.1747664608979
 34
0.0
1001
ACAD
1000
DSTYLE
1002
{
1070
   287
1070
     3
1070
    40
1040
15.0
1070
    43
1040
0.0
1070
   147
1040
1.5
1070
   173
1070
     1
1070
   272
1070
     4
1070
   279
1070
     0
1070
   284
1070
     0
1070
   285
1070
     0
1070
   286
1070
     0
1070
     6
1000
ARROW
1070
     7
1000
ARROW
1002
}
  0
LINE
  5
7E03
  8
1
 10
1067.0860909170619
 20
3198.1747664608988
 30
0.0
 11
1347.0860909170599
 21
3198.1747664608988
 31
0.0
  0
LINE
  5
7E04
  8
1
 10
1123.5860909170599
 20
2798.6747664608979
 30
0.0
 11
1290.5860909170599
 21
2798.6747664608988
 31
0.0
  0
LINE
  5
7E05
  8
1
 10
1123.5860909170599
 20
2841.6747664608988
 30
0.0
 11
1290.5860909170599
 21
2841.6747664608988
 31
0.0
  0
LINE
  5
7E06
  8
1
 10
1367.0860909170599
 20
2865.1747664608979
 30
0.0
 11
1047.0860909170599
 21
2865.1747664608979
 31
0.0
  0
LINE
  5
7E07
  8
2
 10
1103.217412228385
 20
2820.1747664608979
 30
0.0
 11
1313.271552454828
 21
2820.1747664608979
 31
0.0
  0
LINE
  5
7E08
  8
2
 10
775.07497864513812
 20
3038.1747664608979
 30
0.0
 11
1456.6852109432771
 21
3038.1747664608979
 31
0.0
  0
LINE
  5
7E09
  8
1
 10
829.47492124201676
 20
2893.1747664608979
 30
0.0
 11
1209.474921242017
 21
2893.1747664608979
 31
0.0
  0
LINE
  5
7E0A
  8
1
 10
829.47492124201676
 20
3183.1747664608988
 30
0.0
 11
1209.474921242017
 21
3183.1747664608988
 31
0.0
  0
LINE
  5
7E0B
  8
1
 10
1143.586090917061
 20
2430.1747664608988
 30
0.0
 11
1270.586090917061
 21
2430.1747664608979
 31
0.0
  0
LINE
  5
7E0C
  8
1
 10
1123.5860909170599
 20
2478.6747664608988
 30
0.0
 11
1290.5860909170599
 21
2478.6747664608988
 31
0.0
  0
LINE
  5
7E0D
  8
1
 10
1123.5860909170599
 20
2521.6747664608988
 30
0.0
 11
1290.5860909170599
 21
2521.6747664608988
 31
0.0
  0
LINE
  5
7E0E
  8
1
 10
1367.0860909170599
 20
2455.1747664608979
 30
0.0
 11
1047.0860909170599
 21
2455.1747664608979
 31
0.0
  0
LINE
  5
7E0F
  8
2
 10
1103.217412228385
 20
2500.1747664608988
 30
0.0
 11
1313.271552454828
 21
2500.1747664608988
 31
0.0
  0
LINE
  5
7E10
  8
1
 10
1307.0860909170599
 20
2442.1747664608988
 30
0.0
 11
577.08609091706035
 21
2442.1747664608988
 31
0.0
  0
DIMENSION
  5
7E11
  8
3
  2
*D18
 10
453.93981231160819
 20
2803.1747664608979
 30
0.0
 11
412.68981231160768
 21
2613.1747664608979
 31
0.0
 70
     0
 13
587.0860909170608
 23
2423.1747664608979
 33
0.0
 14
587.08609091705887
 24
2803.1747664608979
 34
0.0
 50
270.0
1001
ACAD
1000
DSTYLE
1002
{
1070
   287
1070
     3
1070
    40
1040
15.0
1070
    43
1040
0.0
1070
   147
1040
1.5
1070
   173
1070
     1
1070
   272
1070
     4
1070
   279
1070
     0
1070
   284
1070
     0
1070
   285
1070
     0
1070
   286
1070
     0
1070
     6
1000
ARROW
1070
     7
1000
ARROW
1002
}
  0
LINE
  5
7E12
  8
1
 10
1067.086090917061
 20
2865.1747664608979
 30
0.0
 11
1067.086090917061
 21
2893.1747664608979
 31
0.0
  0
LINE
  5
7E13
  8
1
 10
1189.5860909170599
 20
2893.1747664608979
 30
0.0
 11
1189.5860909170599
 21
2841.6747664608988
 31
0.0
  0
DIMENSION
  5
7E14
  8
3
  2
*D19
 10
587.08609091705887
 20
3298.964245174182
 30
0.0
 11
807.08609091705989
 21
3340.214245174182
 31
0.0
 70
     0
 13
1027.0860909170599
 23
3203.1747664608979
 33
0.0
 14
587.08609091705887
 24
2803.1747664608979
 34
0.0
1001
ACAD
1000
DSTYLE
1002
{
1070
   287
1070
     4
1070
    40
1040
15.0
1070
    43
1040
0.0
1070
    75
1070
     1
1070
   147
1040
1.5
1070
   173
1070
     1
1070
   272
1070
     4
1070
   279
1070
     1
1070
   284
1070
     0
1070
   285
1070
     0
1070
   286
1070
     0
1070
     6
1000
ARROW
1070
     7
1000
ARROW
1002
}
  0
LINE
  5
7E15
  8
1
 10
1027.086090917061
 20
2463.1747664608979
 30
0.0
 11
1027.086090917061
 21
2893.1747664608979
 31
0.0
  0
LINE
  5
7E16
  8
1
 10
1027.0860909170599
 20
2763.1747664608979
 30
0.0
 11
587.0860909170608
 21
2763.1747664608979
 31
0.0
  0
LINE
  5
7E17
  8
1
 10
1027.0860909170599
 20
2803.1747664608979
 30
0.0
 11
587.0860909170608
 21
2803.1747664608979
 31
0.0
  0
LINE
  5
7E18
  8
1
 10
1047.086090917061
 20
2463.1747664608979
 30
0.0
 11
828.08609091706035
 21
2463.1747664608979
 31
0.0
  0
LINE
  5
7E19
  8
1
 10
828.08609091706035
 20
2707.1747664608988
 30
0.0
 11
828.08609091706035
 21
2445.1747664608988
 31
0.0
  0
LINE
  5
7E1A
  8
1
 10
626.08609091706035
 20
2707.1747664608988
 30
0.0
 11
626.08609091706035
 21
2445.1747664608988
 31
0.0
  0
LINE
  5
7E1B
  8
1
 10
690.58609091706035
 20
2435.1747664608988
 30
0.0
 11
763.58609091706035
 21
2435.1747664608988
 31
0.0
  0
LINE
  5
7E1C
  8
1
 10
809.68609091706026
 20
2430.1747664608988
 30
0.0
 11
644.48609091706089
 21
2430.1747664608988
 31
0.0
  0
LINE
  5
7E1D
  8
2
 10
809.68609091706026
 20
2486.1747664608979
 30
0.0
 11
644.48609091706089
 21
2486.1747664608979
 31
0.0
  0
LINE
  5
7E1E
  8
1
 10
828.08609091706035
 20
2445.1747664608988
 30
0.0
 11
626.08609091706035
 21
2445.1747664608988
 31
0.0
  0
LINE
  5
7E1F
  8
1
 10
626.08609091706012
 20
2463.1747664608979
 30
0.0
 11
587.0860909170608
 21
2463.1747664608979
 31
0.0
  0
LINE
  5
7E20
  8
1
 10
587.08609091706012
 20
2442.1747664608988
 30
0.0
 11
587.08609091705978
 21
2463.1747664608979
 31
0.0
  0
ARC
  5
7E21
  8
1
 10
690.58609091706035
 20
2436.174866460899
 30
0.0
 40
1.0000999999999991
 50
180.00349999999989
 51
270.0
  0
ARC
  5
7E22
  8
1
 10
688.58609091706035
 20
2444.1747664608988
 30
0.0
 40
1.0000999999999991
 50
0.0034999999999464
 51
90.0
  0
LINE
  5
7E23
  8
1
 10
689.58609091706035
 20
2436.1747664608988
 30
0.0
 11
689.58609091706035
 21
2444.1747664608988
 31
0.0
  0
LINE
  5
7E24
  8
1
 10
739.58609091706035
 20
2430.1747664608988
 30
0.0
 11
714.58609091706035
 21
2430.1747664608988
 31
0.0
  0
LINE
  5
7E25
  8
1
 10
739.58609091706035
 20
2435.1747664608988
 30
0.0
 11
739.58609091706035
 21
2430.1747664608988
 31
0.0
  0
LINE
  5
7E26
  8
1
 10
714.58609091706035
 20
2435.1747664608988
 30
0.0
 11
714.58609091706035
 21
2430.1747664608988
 31
0.0
  0
LINE
  5
7E27
  8
1
 10
763.58609091706035
 20
2435.1747664608988
 30
0.0
 11
763.58609091706035
 21
2445.1747664608988
 31
0.0
  0
LINE
  5
7E28
  8
1
 10
828.08609091706035
 20
2707.1747664608988
 30
0.0
 11
626.08609091706035
 21
2707.1747664608988
 31
0.0
  0
LINE
  5
7E29
  8
1
 10
587.08609091705887
 20
2763.1747664608979
 30
0.0
 11
587.08609091705887
 21
2803.1747664608979
 31
0.0
  0
POINT
  5
7E2A
  8
1
 10
587.08609091705887
 20
2803.1747664608979
 30
0.0
  0
LINE
  5
7E2B
  8
1
 10
1189.5860909170599
 20
2798.6747664608988
 30
0.0
 11
1189.5860909170599
 21
2521.6747664608988
 31
0.0
  0
LINE
  5
7E2C
  8
1
 10
1047.0860909170599
 20
2455.174766460897
 30
0.0
 11
1047.0860909170599
 21
2865.1747664608979
 31
0.0
  0
LINE
  5
7E2D
  8
1
 10
1107.0860909170599
 20
2467.6747664608988
 30
0.0
 11
1189.5860909170599
 21
2467.6747664608988
 31
0.0
  0
LINE
  5
7E2E
  8
1
 10
1107.0860909170599
 20
2532.6747664608988
 30
0.0
 11
1189.5860909170599
 21
2532.6747664608988
 31
0.0
  0
LINE
  5
7E2F
  8
1
 10
1107.0860909170599
 20
2532.6747664608988
 30
0.0
 11
1107.0860909170599
 21
2467.6747664608988
 31
0.0
  0
LINE
  5
7E30
  8
1
 10
1189.5860909170599
 20
2478.6747664608988
 30
0.0
 11
1189.5860909170599
 21
2430.1747664608979
 31
0.0
  0
LINE
  5
7E31
  8
1
 10
1123.5860909170599
 20
2521.6747664608988
 30
0.0
 11
1123.5860909170599
 21
2478.6747664608988
 31
0.0
  0
LINE
  5
7E32
  8
1
 10
1107.0860909170599
 20
2787.6747664608988
 30
0.0
 11
1189.5860909170599
 21
2787.6747664608988
 31
0.0
  0
LINE
  5
7E33
  8
1
 10
1107.0860909170599
 20
2852.6747664608988
 30
0.0
 11
1189.5860909170599
 21
2852.6747664608988
 31
0.0
  0
LINE
  5
7E34
  8
1
 10
1107.0860909170599
 20
2852.6747664608988
 30
0.0
 11
1107.0860909170599
 21
2787.6747664608988
 31
0.0
  0
LINE
  5
7E35
  8
1
 10
1123.5860909170599
 20
2841.6747664608988
 30
0.0
 11
1123.5860909170599
 21
2798.6747664608979
 31
0.0
  0
LINE
  5
7E36
  8
1
 10
854.47492124201676
 20
2918.1747664608979
 30
0.0
 11
1184.4749212420161
 21
3158.1747664608988
 31
0.0
  0
LINE
  5
7E37
  8
1
 10
854.47492124201676
 20
3158.1747664608988
 30
0.0
 11
1184.4749212420161
 21
2918.1747664608988
 31
0.0
  0
LINE
  5
7E38
  8
1
 10
854.47492124201676
 20
2918.1747664608979
 30
0.0
 11
1184.4749212420161
 21
2918.1747664608988
 31
0.0
  0
LINE
  5
7E39
  8
1
 10
854.47492124201676
 20
3158.1747664608988
 30
0.0
 11
1184.4749212420161
 21
3158.1747664608988
 31
0.0
  0
LINE
  5
7E3A
  8
1
 10
854.47492124201676
 20
2918.1747664608979
 30
0.0
 11
854.47492124201676
 21
3158.1747664608988
 31
0.0
  0
LINE
  5
7E3B
  8
1
 10
829.47492124201676
 20
2893.1747664608979
 30
0.0
 11
829.47492124201676
 21
3183.1747664608988
 31
0.0
  0
LINE
  5
7E3C
  8
1
 10
1184.4749212420161
 20
2918.1747664608988
 30
0.0
 11
1184.4749212420161
 21
3158.1747664608988
 31
0.0
  0
LINE
  5
7E3D
  8
1
 10
1027.0860909170599
 20
3203.1747664608979
 30
0.0
 11
1067.0860909170619
 21
3203.1747664608979
 31
0.0
  0
LINE
  5
7E3E
  8
1
 10
1027.0860909170599
 20
3183.1747664608988
 30
0.0
 11
1027.0860909170599
 21
3203.1747664608979
 31
0.0
  0
POINT
  5
7E3F
  8
1
 10
1027.0860909170599
 20
3203.1747664608979
 30
0.0
  0
LINE
  5
7E40
  8
1
 10
1067.0860909170619
 20
3183.1747664608988
 30
0.0
 11
1067.0860909170619
 21
3203.1747664608979
 31
0.0
  0
LINE
  5
7E41
  8
1
 10
1224.5860909170599
 20
2920.1747664608988
 30
0.0
 11
1224.5860909170599
 21
2841.6747664608988
 31
0.0
  0
LINE
  5
7E42
  8
1
 10
1347.086090917061
 20
2920.1747664608988
 30
0.0
 11
1347.086090917061
 21
2865.1747664608979
 31
0.0
  0
DIMENSION
  5
7E43
  8
3
  2
*D20
 10
1524.516572925857
 20
3203.1747664608979
 30
0.0
 11
1483.2665729258561
 21
2813.1747664608988
 31
0.0
 70
     0
 13
1387.086090917059
 23
2423.1747664608979
 33
0.0
 14
1387.0860909170599
 24
3203.1747664608979
 34
0.0
 50
270.0
1001
ACAD
1000
DSTYLE
1002
{
1070
   287
1070
     3
1070
    40
1040
15.0
1070
    43
1040
0.0
1070
   147
1040
1.5
1070
   173
1070
     1
1070
   272
1070
     4
1070
   279
1070
     0
1070
   284
1070
     0
1070
   285
1070
     0
1070
   286
1070
     0
1070
     6
1000
ARROW
1070
     7
1000
ARROW
1002
}
  0
LINE
  5
7E44
  8
1
 10
1387.0860909170599
 20
2920.1747664608988
 30
0.0
 11
1387.086090917059
 21
2423.1747664608988
 31
0.0
  0
LINE
  5
7E45
  8
1
 10
1367.0860909170599
 20
2455.1747664608979
 30
0.0
 11
1367.0860909170599
 21
2865.1747664608979
 31
0.0
  0
LINE
  5
7E46
  8
1
 10
1224.5860909170599
 20
2798.6747664608988
 30
0.0
 11
1224.5860909170599
 21
2521.6747664608988
 31
0.0
  0
LINE
  5
7E47
  8
1
 10
1387.0860909170599
 20
2423.1747664608979
 30
0.0
 11
1307.0860909170599
 21
2423.1747664608979
 31
0.0
  0
LINE
  5
7E48
  8
1
 10
1387.086090917059
 20
2463.1747664608979
 30
0.0
 11
1367.0860909170599
 21
2463.1747664608979
 31
0.0
  0
LINE
  5
7E49
  8
1
 10
1224.5860909170599
 20
2467.6747664608988
 30
0.0
 11
1307.0860909170599
 21
2467.6747664608979
 31
0.0
  0
LINE
  5
7E4A
  8
1
 10
1224.5860909170599
 20
2532.6747664608988
 30
0.0
 11
1307.0860909170599
 21
2532.6747664608988
 31
0.0
  0
LINE
  5
7E4B
  8
1
 10
1224.5860909170599
 20
2478.6747664608988
 30
0.0
 11
1224.5860909170599
 21
2430.1747664608979
 31
0.0
  0
LINE
  5
7E4C
  8
1
 10
1307.0860909170599
 20
2532.6747664608988
 30
0.0
 11
1307.0860909170599
 21
2467.6747664608988
 31
0.0
  0
LINE
  5
7E4D
  8
1
 10
1290.5860909170599
 20
2521.6747664608988
 30
0.0
 11
1290.5860909170599
 21
2478.6747664608988
 31
0.0
  0
POINT
  5
7E4E
  8
1
 10
1387.086090917059
 20
2423.1747664608979
 30
0.0
  0
LINE
  5
7E4F
  8
1
 10
1224.5860909170599
 20
2852.6747664608988
 30
0.0
 11
1307.0860909170599
 21
2852.6747664608988
 31
0.0
  0
LINE
  5
7E50
  8
1
 10
1224.5860909170599
 20
2787.6747664608988
 30
0.0
 11
1307.0860909170599
 21
2787.6747664608979
 31
0.0
  0
LINE
  5
7E51
  8
1
 10
1290.5860909170599
 20
2841.6747664608988
 30
0.0
 11
1290.5860909170599
 21
2798.6747664608979
 31
0.0
  0
LINE
  5
7E52
  8
1
 10
1307.0860909170599
 20
2852.6747664608988
 30
0.0
 11
1307.0860909170599
 21
2787.6747664608988
 31
0.0
  0
LINE
  5
7E53
  8
1
 10
1209.474921242017
 20
2893.1747664608979
 30
0.0
 11
1209.474921242017
 21
3183.1747664608988
 31
0.0
  0
LINE
  5
7E54
  8
1
 10
1435.74499514489
 20
2920.1747664608988
 30
0.0
 11
1435.74499514489
 21
3156.1747664608988
 31
0.0
  0
LINE
  5
7E55
  8
1
 10
1209.474921242017
 20
2920.1747664608988
 30
0.0
 11
1435.74499514489
 21
2920.1747664608988
 31
0.0
  0
LINE
  5
7E56
  8
1
 10
1347.0860909170599
 20
3203.1747664608979
 30
0.0
 11
1387.0860909170599
 21
3203.1747664608979
 31
0.0
  0
LINE
  5
7E57
  8
1
 10
1209.474921242017
 20
3156.1747664608988
 30
0.0
 11
1435.74499514489
 21
3156.1747664608988
 31
0.0
  0
LINE
  5
7E58
  8
1
 10
1209.474921242017
 20
3158.1747664608988
 30
0.0
 11
1347.086090917061
 21
3158.1747664608988
 31
0.0
  0
LINE
  5
7E59
  8
1
 10
1347.086090917061
 20
3203.1747664608979
 30
0.0
 11
1347.086090917061
 21
3156.1747664608988
 31
0.0
  0
LINE
  5
7E5A
  8
1
 10
1387.0860909170599
 20
3203.1747664608979
 30
0.0
 11
1387.0860909170599
 21
3156.1747664608988
 31
0.0
  0
POINT
  5
7E5B
  8
1
 10
1387.0860909170599
 20
3203.1747664608979
 30
0.0
  0
POINT
  5
7E5C
  8
1
 10
1387.0860909170599
 20
3203.1747664608979
 30
0.0
  0
DIMENSION
  5
7E5D
  8
3
  2
*D21
 10
3001.95085731771
 20
1359.661773729644
 30
0.0
 11
2960.7008573177091
 21
1517.1617737296449
 31
0.0
 70
     0
 13
2874.7708857752218
 23
1674.661773729644
 33
0.0
 14
2874.7708857752218
 24
1359.661773729644
 34
0.0
 50
90.0
1001
ACAD
1000
DSTYLE
1002
{
1070
   287
1070
     3
1070
     3
1000
φ<>
1070
    40
1040
15.0
1070
    43
1040
0.0
1070
   147
1040
1.5
1070
   173
1070
     1
1070
   271
1070
     4
1070
   272
1070
     4
1070
   279
1070
     0
1070
   284
1070
     0
1070
   285
1070
     0
1070
   286
1070
     0
1070
     6
1000
ARROW
1070
     7
1000
ARROW
1002
}
  0
LINE
  5
7E5E
  8
1
 10
2848.7708857752218
 20
1767.161773729644
 30
0.0
 11
2848.7708857752232
 21
1241.1617737296419
 31
0.0
  0
LINE
  5
7E5F
  8
1
 10
2608.7708857752218
 20
1767.161773729644
 30
0.0
 11
2608.7708857752218
 21
1241.1617737296419
 31
0.0
  0
LINE
  5
7E60
  8
1
 10
2846.7708857752232
 20
1767.161773729644
 30
0.0
 11
2846.7708857752218
 21
1241.1617737296419
 31
0.0
  0
LINE
  5
7E61
  8
1
 10
2610.7708857752218
 20
1767.161773729644
 30
0.0
 11
2610.7708857752218
 21
1241.1617737296419
 31
0.0
  0
LINE
  5
7E62
  8
1
 10
2852.7708857752218
 20
1681.661773729644
 30
0.0
 11
2852.7708857752218
 21
1352.661773729644
 31
0.0
  0
LINE
  5
7E63
  8
1
 10
2849.7708857752218
 20
1334.661773729644
 30
0.0
 11
2849.7708857752218
 21
1693.169244418621
 31
0.0
  0
LINE
  5
7E64
  8
1
 10
2874.7708857752218
 20
1359.661773729644
 30
0.0
 11
2874.7708857752218
 21
1675.66180049387
 31
0.0
  0
LINE
  5
7E65
  8
2
 10
2728.7708857752218
 20
1834.7463093519691
 30
0.0
 11
2728.7708857752218
 21
1033.88927286438
 31
0.0
  0
DIMENSION
  5
7E66
  8
3
  2
*D22
 10
2893.7708857752209
 20
926.12101388827705
 30
0.0
 11
2811.2708857752218
 21
967.37101388827693
 31
0.0
 70
     0
 13
2728.7708857752218
 23
1033.88927286438
 33
0.0
 14
2893.7708857752209
 24
1051.1617737296449
 34
0.0
1001
ACAD
1000
DSTYLE
1002
{
1070
   287
1070
     3
1070
    40
1040
15.0
1070
    43
1040
0.0
1070
   147
1040
1.5
1070
   173
1070
     1
1070
   272
1070
     4
1070
   279
1070
     0
1070
   284
1070
     0
1070
   285
1070
     0
1070
   286
1070
     0
1070
     6
1000
ARROW
1070
     7
1000
ARROW
1002
}
  0
LINE
  5
7E67
  8
1
 10
2893.7708857752209
 20
1237.161773729644
 30
0.0
 11
2893.7708857752209
 21
1162.161773729644
 31
0.0
  0
LINE
  5
7E68
  8
1
 10
2893.7708857752209
 20
1126.161773729644
 30
0.0
 11
2893.7708857752209
 21
1051.161773729644
 31
0.0
  0
LINE
  5
7E69
  8
1
 10
2608.7708857752218
 20
1251.1617737296419
 30
0.0
 11
2846.7708857752218
 21
1251.1617737296419
 31
0.0
  0
POLYLINE
  5
7E6A
  8
1
 66
     1
 10
0.0
 20
0.0
 30
0.0
 70
     1
  0
VERTEX
  5
8207
  8
1
 10
2608.7708857752218
 20
1237.161773729644
 30
0.0
  0
VERTEX
  5
8208
  8
1
 10
2608.7708857752218
 20
1277.161773729644
 30
0.0
  0
VERTEX
  5
8209
  8
1
 10
2606.7708857752218
 20
1277.161773729644
 30
0.0
 42
0.4142135623730951
  0
VERTEX
  5
820A
  8
1
 10
2603.7708857752218
 20
1274.161773729644
 30
0.0
  0
VERTEX
  5
820B
  8
1
 10
2603.7708857752218
 20
1246.661773729644
 30
0.0
 42
-0.4142135623730951
  0
VERTEX
  5
820C
  8
1
 10
2599.2708857752218
 20
1242.161773729644
 30
0.0
  0
VERTEX
  5
820D
  8
1
 10
2571.7708857752218
 20
1242.161773729644
 30
0.0
 42
0.4142135623730951
  0
VERTEX
  5
820E
  8
1
 10
2568.7708857752218
 20
1239.161773729644
 30
0.0
  0
VERTEX
  5
820F
  8
1
 10
2568.7708857752218
 20
1237.161773729644
 30
0.0
  0
SEQEND
  5
8210
  8
1
  0
LINE
  5
7E75
  8
1
 10
2608.7708857752218
 20
1241.1617737296419
 30
0.0
 11
2610.7708857752218
 21
1241.1617737296419
 31
0.0
  0
LINE
  5
7E76
  8
1
 10
2558.7708857752218
 20
1420.361773729644
 30
0.0
 11
2608.7708857752232
 21
1420.361773729644
 31
0.0
  0
LINE
  5
7E77
  8
1
 10
2558.7708857752218
 20
1414.361773729644
 30
0.0
 11
2608.7708857752232
 21
1414.361773729644
 31
0.0
  0
LINE
  5
7E78
  8
1
 10
2558.7708857752218
 20
1414.361773729644
 30
0.0
 11
2558.7708857752218
 21
1419.0617737296441
 31
0.0
  0
LINE
  5
7E79
  8
1
 10
2558.7708857752218
 20
1420.361773729644
 30
0.0
 11
2558.7708857752218
 21
1414.361773729644
 31
0.0
  0
ARC
  5
7E7A
  8
1
 10
2850.7708857752218
 20
1336.661773729644
 30
0.0
 40
2.0
 50
270.0
 51
0.0
  0
POLYLINE
  5
7E7B
  8
1
 66
     1
 10
0.0
 20
0.0
 30
0.0
  0
VERTEX
  5
8211
  8
1
 10
2848.7708857752218
 20
1252.161773729644
 30
0.0
  0
VERTEX
  5
8212
  8
1
 10
2848.7708857752218
 20
1277.161773729644
 30
0.0
  0
VERTEX
  5
8213
  8
1
 10
2850.7708857752218
 20
1277.161773729644
 30
0.0
 42
-0.4142135623730951
  0
VERTEX
  5
8214
  8
1
 10
2853.7708857752218
 20
1274.161773729644
 30
0.0
  0
VERTEX
  5
8215
  8
1
 10
2853.7708857752218
 20
1252.161773729644
 30
0.0
 42
0.4142135623730951
  0
SEQEND
  5
8216
  8
1
  0
POLYLINE
  5
7E82
  8
1
 66
     1
 10
0.0
 20
0.0
 30
0.0
  0
VERTEX
  5
8217
  8
1
 10
2853.7708857752218
 20
1252.161773729644
 30
0.0
  0
VERTEX
  5
8218
  8
1
 10
2853.7708857752218
 20
1246.661773729644
 30
0.0
 42
0.4142135623730951
  0
VERTEX
  5
8219
  8
1
 10
2858.2708857752218
 20
1242.161773729644
 30
0.0
  0
VERTEX
  5
821A
  8
1
 10
2885.7708857752218
 20
1242.161773729644
 30
0.0
 42
-0.4142135623730951
  0
VERTEX
  5
821B
  8
1
 10
2888.7708857752218
 20
1239.161773729644
 30
0.0
  0
VERTEX
  5
821C
  8
1
 10
2888.7708857752218
 20
1237.161773729644
 30
0.0
  0
VERTEX
  5
821D
  8
1
 10
2848.7708857752218
 20
1237.161773729644
 30
0.0
  0
SEQEND
  5
821E
  8
1
  0
POLYLINE
  5
7E8B
  8
1
 66
     1
 10
0.0
 20
0.0
 30
0.0
  0
VERTEX
  5
821F
  8
1
 10
2848.7708857752218
 20
1237.161773729644
 30
0.0
  0
VERTEX
  5
8220
  8
1
 10
2848.7708857752218
 20
1252.161773729644
 30
0.0
  0
SEQEND
  5
8221
  8
1
  0
LINE
  5
7E8F
  8
1
 10
2846.7708857752218
 20
1241.1617737296419
 30
0.0
 11
2848.7708857752232
 21
1241.1617737296419
 31
0.0
  0
LINE
  5
7E90
  8
1
 10
2850.7708857752218
 20
1334.661773729644
 30
0.0
 11
2849.7708857752218
 21
1334.661773729644
 31
0.0
  0
ARC
  5
7E91
  8
1
 10
2856.7708857752218
 20
1352.661773729644
 30
0.0
 40
4.0
 50
90.0
 51
180.0
  0
LINE
  5
7E92
  8
1
 10
2857.519356751241
 20
1348.161773729644
 30
0.0
 11
2840.343015421814
 21
1348.161773729644
 31
0.0
  0
LINE
  5
7E93
  8
1
 10
2852.7708857752218
 20
1352.661773729644
 30
0.0
 11
2852.7708857752218
 21
1336.661773729644
 31
0.0
  0
LINE
  5
7E94
  8
1
 10
2872.7708857752218
 20
1356.661773729644
 30
0.0
 11
2856.7708857752218
 21
1356.661773729644
 31
0.0
  0
ARC
  5
7E95
  8
1
 10
2872.7708857752218
 20
1358.661773729644
 30
0.0
 40
2.0
 50
270.0
 51
0.0
  0
LINE
  5
7E96
  8
1
 10
2874.7708857752218
 20
1359.661773729644
 30
0.0
 11
2874.7708857752218
 21
1358.661773729644
 31
0.0
  0
DIMENSION
  5
7E97
  8
3
  2
*D23
 10
2728.7708857752218
 20
1928.5016347780911
 30
0.0
 11
2789.2708857752218
 21
1969.7516347780911
 31
0.0
 70
     0
 13
2849.7708857752218
 23
1699.661773729644
 33
0.0
 14
2728.7708857752218
 24
1909.268601567016
 34
0.0
1001
ACAD
1000
DSTYLE
1002
{
1070
   287
1070
     3
1070
    40
1040
15.0
1070
    43
1040
0.0
1070
   147
1040
1.5
1070
   173
1070
     1
1070
   271
1070
     4
1070
   272
1070
     4
1070
   279
1070
     0
1070
   284
1070
     0
1070
   285
1070
     0
1070
   286
1070
     0
1070
     6
1000
ARROW
1070
     7
1000
ARROW
1002
}
  0
LINE
  5
7E98
  8
1
 10
2849.7708857752218
 20
1699.661773729644
 30
0.0
 11
2849.7708857752218
 21
1674.661773729644
 31
0.0
  0
LINE
  5
7E99
  8
1
 10
2852.7708857752218
 20
1681.661773729644
 30
0.0
 11
2852.7708857752218
 21
1697.661773729644
 31
0.0
  0
LINE
  5
7E9A
  8
2
 10
2886.561174174386
 20
1517.161773729644
 30
0.0
 11
2814.9682678846739
 21
1517.161773729644
 31
0.0
  0
ARC
  5
7E9B
  8
1
 10
2856.7708857752218
 20
1681.661773729644
 30
0.0
 40
4.0
 50
180.0
 51
270.0
  0
LINE
  5
7E9C
  8
1
 10
2857.519356751241
 20
1686.1617737296449
 30
0.0
 11
2840.343015421814
 21
1686.1617737296449
 31
0.0
  0
LINE
  5
7E9D
  8
1
 10
2872.7708857752218
 20
1677.661773729644
 30
0.0
 11
2856.7708857752218
 21
1677.661773729644
 31
0.0
  0
ARC
  5
7E9E
  8
1
 10
2872.7708857752218
 20
1675.661773729644
 30
0.0
 40
2.0
 50
0.0
 51
90.0
  0
LINE
  5
7E9F
  8
1
 10
2874.7708857752218
 20
1674.661773729644
 30
0.0
 11
2874.7708857752218
 21
1675.661773729644
 31
0.0
  0
LINE
  5
7EA0
  8
1
 10
2610.7708857752232
 20
1702.002905815604
 30
0.0
 11
2846.7708857752232
 21
1702.002905815604
 31
0.0
  0
DIMENSION
  5
7EA1
  8
3
  2
*D24
 10
2846.7708857752232
 20
1841.765351182527
 30
0.0
 11
2710.5923143466512
 21
1841.765351182527
 31
0.0
 70
   128
 13
2610.7708857752218
 23
1767.161773729644
 33
0.0
 14
2846.7708857752232
 24
1764.161773729644
 34
0.0
1001
ACAD
1000
DSTYLE
1002
{
1070
   287
1070
     3
1070
    40
1040
15.0
1070
    43
1040
0.0
1070
   147
1040
1.5
1070
   173
1070
     1
1070
   271
1070
     4
1070
   272
1070
     4
1070
   279
1070
     0
1070
   284
1070
     0
1070
   285
1070
     0
1070
   286
1070
     0
1070
     6
1000
ARROW
1070
     7
1000
ARROW
1002
}
  0
LINE
  5
7EA2
  8
1
 10
2595.1974268770741
 20
1764.161773729644
 30
0.0
 11
2865.1197854194802
 21
1764.161773729644
 31
0.0
  0
LINE
  5
7EA3
  8
1
 10
2607.7708857752232
 20
1742.161773729644
 30
0.0
 11
2849.7708857752218
 21
1742.161773729644
 31
0.0
  0
LINE
  5
7EA4
  8
1
 10
2583.7708857752232
 20
1767.161773729644
 30
0.0
 11
2873.7708857752218
 21
1767.161773729644
 31
0.0
  0
POLYLINE
  5
7EA5
  8
1
 66
     1
 10
0.0
 20
0.0
 30
0.0
 70
     1
  0
VERTEX
  5
8234
  8
1
 10
2608.7708857752232
 20
1767.161773729644
 30
0.0
  0
VERTEX
  5
8235
  8
1
 10
2583.7708857752232
 20
1767.161773729644
 30
0.0
  0
VERTEX
  5
8236
  8
1
 10
2583.7708857752232
 20
1766.161773729644
 30
0.0
 42
0.4142135623730951
  0
VERTEX
  5
8237
  8
1
 10
2585.7708857752232
 20
1764.161773729644
 30
0.0
  0
VERTEX
  5
8238
  8
1
 10
2601.7708857752232
 20
1764.161773729644
 30
0.0
 42
-0.4142135623730951
  0
VERTEX
  5
8239
  8
1
 10
2605.7708857752232
 20
1760.161773729644
 30
0.0
  0
VERTEX
  5
823A
  8
1
 10
2605.7708857752232
 20
1744.161773729644
 30
0.0
 42
0.4142135623730951
  0
VERTEX
  5
823B
  8
1
 10
2607.7708857752232
 20
1742.161773729644
 30
0.0
  0
VERTEX
  5
823C
  8
1
 10
2608.7708857752232
 20
1742.161773729644
 30
0.0
  0
SEQEND
  5
823D
  8
1
  0
POLYLINE
  5
7EB0
  8
1
 66
     1
 10
0.0
 20
0.0
 30
0.0
 70
     1
  0
VERTEX
  5
823E
  8
1
 10
2848.7708857752218
 20
1767.161773729644
 30
0.0
  0
VERTEX
  5
823F
  8
1
 10
2873.7708857752218
 20
1767.161773729644
 30
0.0
  0
VERTEX
  5
8240
  8
1
 10
2873.7708857752218
 20
1766.161773729644
 30
0.0
 42
-0.4142135623730951
  0
VERTEX
  5
8241
  8
1
 10
2871.7708857752218
 20
1764.161773729644
 30
0.0
  0
VERTEX
  5
8242
  8
1
 10
2855.7708857752218
 20
1764.161773729644
 30
0.0
 42
0.4142135623730951
  0
VERTEX
  5
8243
  8
1
 10
2851.7708857752218
 20
1760.161773729644
 30
0.0
  0
VERTEX
  5
8244
  8
1
 10
2851.7708857752218
 20
1744.161773729644
 30
0.0
 42
-0.4142135623730951
  0
VERTEX
  5
8245
  8
1
 10
2849.7708857752218
 20
1742.161773729644
 30
0.0
  0
VERTEX
  5
8246
  8
1
 10
2848.7708857752218
 20
1742.161773729644
 30
0.0
  0
SEQEND
  5
8247
  8
1
  0
ARC
  5
7EBB
  8
1
 10
2850.7708857752218
 20
1697.661773729644
 30
0.0
 40
2.0
 50
0.0
 51
90.0
  0
LINE
  5
7EBC
  8
1
 10
2850.7708857752218
 20
1699.661773729644
 30
0.0
 11
2849.7708857752218
 21
1699.661773729644
 31
0.0
  0
LINE
  5
80DB
  8
4
 10
2775.0
 20
750.0
 30
0.0
 11
2775.0
 21
450.0
 31
0.0
  0
LINE
  5
80DC
  8
4
 10
1725.0
 20
750.0
 30
0.0
 11
1725.0
 21
450.0
 31
0.0
  0
LINE
  5
80DD
  8
4
 10
975.0
 20
750.0
 30
0.0
 11
975.0
 21
450.0
 31
0.0
  0
LINE
  5
80E0
  8
4
 10
975.0
 20
450.0
 30
0.0
 11
2775.0
 21
450.0
 31
0.0
  0
LINE
  5
80E1
  8
4
 10
975.0
 20
600.0
 30
0.0
 11
2775.0
 21
600.0
 31
0.0
  0
TEXT
  5
80E2
  8
4
 10
1032.753121270352
 20
647.31453879991932
 30
0.0
 40
75.0
  1
機器名称
  0
TEXT
  5
80E3
  8
4
 10
1029.3871590371959
 20
482.46773509801642
 30
0.0
 40
75.0
  1
機器型番
  0
TEXT
  5
80E4
  8
4
 10
1734.6224689236451
 20
633.28095353542062
 30
0.0
 40
67.5
  1
ミツヤ多翼送風機
  0
TEXT
  5
80E5
  8
4
 10
1779.9817433782209
 20
475.739376419915
 30
0.0
 40
75.0
  1
MF#2-1
  0
TEXT
  5
80E7
  8
4
 10
1170.658094655937
 20
3575.1432619987731
 30
0.0
 40
80.999999999999986
  1
床置防振ベット
  0
TEXT
  5
80E8
  8
4
 10
474.25138999416959
 20
3800.8214642989469
 30
0.0
 40
108.0
  1
遠心式片吸込片持多翼ファン
  0
LINE
  5
80E9
  8
4
 10
375.0
 20
3704.1131313972069
 30
0.0
 11
2775.0
 21
3704.1131313972069
 31
0.0
  0
LINE
  5
80EA
  8
4
 10
375.0
 20
4004.1131313972069
 30
0.0
 11
2775.0
 21
4004.1131313972069
 31
0.0
  0
LINE
  5
80EB
  8
4
 10
975.0
 20
750.0
 30
0.0
 11
2775.0
 21
750.0
 31
0.0
  0
LINE
  5
80EC
  8
4
 10
375.0
 20
4004.1131313972069
 30
0.0
 11
375.0
 21
3704.1131313972069
 31
0.0
  0
TEXT
  5
80ED
  8
4
 10
516.86984629188373
 20
3573.4792163195152
 30
0.0
 40
80.999999999999986
  1
右回転上向
  0
TEXT
  5
80EE
  8
4
 10
2203.4543388739339
 20
4059.0916222429628
 30
0.0
 40
84.000000000000014
  1
No.
  0
TEXT
  5
80EF
  8
4
 10
1966.944093900019
 20
3575.1432619987731
 30
0.0
 40
80.999999999999986
  1
縮尺：1/15
  0
LINE
  5
80F0
  8
4
 10
2775.0
 20
4004.1131313972069
 30
0.0
 11
2775.0
 21
3704.1131313972069
 31
0.0
  0
LINE
  5
80F1
  8
4
 10
3150.0
 20
4425.0
 30
0.0
 11
3150.0
 21
4425.0
 31
0.0
  0
LINE
  5
80F2
  8
4
 10
2160.9261335397969
 20
4021.895374688102
 30
0.0
 11
2160.9261335397969
 21
4179.9783923246277
 31
0.0
  0
LINE
  5
80F3
  8
4
 10
2160.9261335397969
 20
4179.9783923246277
 30
0.0
 11
2775.0
 21
4179.9783923246277
 31
0.0
  0
LINE
  5
80F4
  8
4
 10
2775.0
 20
4179.9783923246277
 30
0.0
 11
2775.0
 21
4021.895374688102
 31
0.0
  0
LINE
  5
80F5
  8
4
 10
2775.0
 20
4021.895374688102
 30
0.0
 11
2160.9261335397969
 21
4021.895374688102
 31
0.0
  0
LINE
  5
80F6
  8
4
 10
0.0
 20
0.0
 30
0.0
 11
0.0
 21
4425.0
 31
0.0
  0
LINE
  5
80F7
  8
4
 10
0.0
 20
4425.0
 30
0.0
 11
3150.0
 21
4425.0
 31
0.0
  0
LINE
  5
80F8
  8
4
 10
3150.0
 20
4425.0
 30
0.0
 11
3150.0
 21
0.0
 31
0.0
  0
LINE
  5
80F9
  8
4
 10
3150.0
 20
0.0
 30
0.0
 11
0.0
 21
0.0
 31
0.0
  0
ENDSEC
  0
EOF
