  0
SECTION
  2
HEADER
  9
$ACADVER
  1
AC1009
  9
$INSBASE
 10
0.0
 20
0.0
 30
0.0
  9
$EXTMIN
 10
0.0
 20
0.0
 30
0.0
  9
$EXTMAX
 10
3150.0
 20
4425.0
 30
0.0
  9
$LIMMIN
 10
0.0
 20
0.0
  9
$LIMMAX
 10
297.0
 20
210.0
  9
$ORTHOMODE
 70
     0
  9
$REGENMODE
 70
     1
  9
$FILLMODE
 70
     0
  9
$QTEXTMODE
 70
     0
  9
$MIRRTEXT
 70
     1
  9
$DRAGMODE
 70
     2
  9
$LTSCALE
 40
100.0
  9
$OSMODE
 70
    37
  9
$ATTMODE
 70
     1
  9
$TEXTSIZE
 40
180.0
  9
$TRACEWID
 40
0.05
  9
$TEXTSTYLE
  7
STANDARD
  9
$CLAYER
  8
4
  9
$CELTYPE
  6
BYLAYER
  9
$CECOLOR
 62
   256
  9
$DIMSCALE
 40
15.0
  9
$DIMASZ
 40
2.0
  9
$DIMEXO
 40
0.5
  9
$DIMDLI
 40
10.0
  9
$DIMRND
 40
0.0
  9
$DIMDLE
 40
0.0
  9
$DIMEXE
 40
1.0
  9
$DIMTP
 40
1.0
  9
$DIMTM
 40
1.0
  9
$DIMTXT
 40
3.0
  9
$DIMCEN
 40
0.0
  9
$DIMTSZ
 40
0.0
  9
$DIMTOL
 70
     0
  9
$DIMLIM
 70
     0
  9
$DIMTIH
 70
     0
  9
$DIMTOH
 70
     0
  9
$DIMSE1
 70
     0
  9
$DIMSE2
 70
     0
  9
$DIMTAD
 70
     1
  9
$DIMZIN
 70
     8
  9
$DIMBLK
  1

  9
$DIMASO
 70
     1
  9
$DIMSHO
 70
     1
  9
$DIMPOST
  1

  9
$DIMAPOST
  1

  9
$DIMALT
 70
     0
  9
$DIMALTD
 70
     2
  9
$DIMALTF
 40
0.039
  9
$DIMLFAC
 40
1.0
  9
$DIMTOFL
 70
     1
  9
$DIMTVP
 40
0.0
  9
$DIMTIX
 70
     0
  9
$DIMSOXD
 70
     0
  9
$DIMSAH
 70
     1
  9
$DIMBLK1
  1
OPEN
  9
$DIMBLK2
  1
OPEN
  9
$DIMSTYLE
  2
IGA
  9
$DIMCLRD
 70
     0
  9
$DIMCLRE
 70
     0
  9
$DIMCLRT
 70
     0
  9
$DIMTFAC
 40
10.0
  9
$DIMGAP
 40
1.0
  9
$LUNITS
 70
     2
  9
$LUPREC
 70
     3
  9
$SKETCHINC
 40
0.1
  9
$FILLETRAD
 40
50.0
  9
$AUNITS
 70
     0
  9
$AUPREC
 70
     0
  9
$MENU
  1
acad
  9
$ELEVATION
 40
0.0
  9
$PELEVATION
 40
0.0
  9
$THICKNESS
 40
0.0
  9
$LIMCHECK
 70
     0
  9
$BLIPMODE
 70
     0
  9
$CHAMFERA
 40
0.5
  9
$CHAMFERB
 40
0.5
  9
$SKPOLY
 70
     0
  9
$TDCREATE
 40
2451019.5951290498
  9
$TDUPDATE
 40
2454953.752454062
  9
$TDINDWG
 40
0.0055109028
  9
$TDUSRTIMER
 40
0.0055109028
  9
$USRTIMER
 70
     1
  9
$ANGBASE
 50
0.0
  9
$ANGDIR
 70
     0
  9
$PDMODE
 70
     0
  9
$PDSIZE
 40
0.0
  9
$PLINEWID
 40
0.0
  9
$COORDS
 70
     1
  9
$SPLFRAME
 70
     0
  9
$SPLINETYPE
 70
     6
  9
$SPLINESEGS
 70
     8
  9
$ATTDIA
 70
     0
  9
$ATTREQ
 70
     1
  9
$HANDLING
 70
 10241
  9
$HANDSEED
  5
823A
  9
$SURFTAB1
 70
     6
  9
$SURFTAB2
 70
     6
  9
$SURFTYPE
 70
     6
  9
$SURFU
 70
     6
  9
$SURFV
 70
     6
  9
$UCSNAME
  2

  9
$UCSORG
 10
0.0
 20
0.0
 30
0.0
  9
$UCSXDIR
 10
1.0
 20
0.0
 30
0.0
  9
$UCSYDIR
 10
0.0
 20
1.0
 30
0.0
  9
$PUCSNAME
  2

  9
$PUCSORG
 10
0.0
 20
0.0
 30
0.0
  9
$PUCSXDIR
 10
1.0
 20
0.0
 30
0.0
  9
$PUCSYDIR
 10
0.0
 20
1.0
 30
0.0
  9
$USERI1
 70
     0
  9
$USERI2
 70
     0
  9
$USERI3
 70
     0
  9
$USERI4
 70
     0
  9
$USERI5
 70
     0
  9
$USERR1
 40
0.0
  9
$USERR2
 40
0.0
  9
$USERR3
 40
0.0
  9
$USERR4
 40
0.0
  9
$USERR5
 40
0.0
  9
$WORLDVIEW
 70
     1
  9
$SHADEDGE
 70
     3
  9
$SHADEDIF
 70
    70
  9
$TILEMODE
 70
     1
  9
$MAXACTVP
 70
    16
  9
$PLIMCHECK
 70
     0
  9
$PEXTMIN
 10
1.0000000000000000E+020
 20
1.0000000000000000E+020
 30
1.0000000000000000E+020
  9
$PEXTMAX
 10
-1.0000000000000000E+020
 20
-1.0000000000000000E+020
 30
-1.0000000000000000E+020
  9
$PLIMMIN
 10
0.0
 20
0.0
  9
$PLIMMAX
 10
12.0
 20
9.0
  9
$UNITMODE
 70
     0
  9
$VISRETAIN
 70
     0
  9
$PLINEGEN
 70
     0
  9
$PSLTSCALE
 70
     1
  0
ENDSEC
  0
SECTION
  2
TABLES
  0
TABLE
  2
VPORT
 70
     2
  0
VPORT
  2
*ACTIVE
 70
     0
 10
0.0
 20
0.0
 11
1.0
 21
1.0
 12
5305.1426015525394
 22
2212.50002060614
 13
0.0
 23
0.0
 14
10.0
 24
10.0
 15
10.0
 25
10.0
 16
0.0
 26
0.0
 36
1.0
 17
0.0
 27
0.0
 37
0.0
 40
4459.194475546502
 41
3.1666666666666661
 42
50.0
 43
0.0
 44
0.0
 50
0.0
 51
0.0
 71
     0
 72
   100
 73
     1
 74
     0
 75
     0
 76
     0
 77
     0
 78
     0
  0
ENDTAB
  0
TABLE
  2
LTYPE
 70
     2
  0
LTYPE
  2
CONTINUOUS
 70
     0
  3
Solid line
 72
    65
 73
     0
 40
0.0
  0
LTYPE
  2
CENTER
 70
     0
  3
____ _ ____ _ ____ _ ____ _ ____ _ ____ _ ____ 
 72
    65
 73
     4
 40
2.0
 49
1.25
 49
-0.25
 49
0.25
 49
-0.25
  0
ENDTAB
  0
TABLE
  2
LAYER
 70
     6
  0
LAYER
  2
0
 70
     0
 62
     7
  6
CONTINUOUS
  0
LAYER
  2
3
 70
     0
 62
     2
  6
CONTINUOUS
  0
LAYER
  2
2
 70
     0
 62
     3
  6
CENTER
  0
LAYER
  2
1
 70
     0
 62
     4
  6
CONTINUOUS
  0
LAYER
  2
4
 70
     0
 62
     7
  6
CONTINUOUS
  0
LAYER
  2
DEFPOINTS
 70
     0
 62
     7
  6
CONTINUOUS
  0
ENDTAB
  0
TABLE
  2
STYLE
 70
     1
  0
STYLE
  2
STANDARD
 70
     0
 40
0.0
 41
1.0
 50
0.0
 71
     0
 42
180.0
  3
simplex.shx
  4
extfont.shx
  0
ENDTAB
  0
TABLE
  2
VIEW
 70
     0
  0
ENDTAB
  0
TABLE
  2
UCS
 70
     0
  0
ENDTAB
  0
TABLE
  2
APPID
 70
     1
  0
APPID
  2
ACAD
 70
     0
  0
ENDTAB
  0
TABLE
  2
DIMSTYLE
 70
     2
  0
DIMSTYLE
  2
IGA
 70
     0
  3

  4

  5

  6
OPEN
  7
OPEN
 40
2.0
 41
2.0
 42
0.5
 43
10.0
 44
1.0
 45
0.0
 46
0.0
 47
1.0
 48
1.0
140
3.0
141
0.0
142
0.0
143
0.03937
144
1.0
145
0.0
146
10.0
147
1.0
 71
     0
 72
     0
 73
     0
 74
     0
 75
     0
 76
     0
 77
     1
 78
     8
170
     0
171
     2
172
     0
173
     1
174
     0
175
     0
176
     0
177
     0
178
     0
  0
DIMSTYLE
  2
DIA1
 70
     0
  3

  4

  5
ARROW
  6

  7

 40
1.0
 41
2.0
 42
1.0
 43
10.0
 44
1.0
 45
0.0
 46
0.0
 47
0.0
 48
0.0
140
2.5
141
0.0
142
0.0
143
25.399999999999999
144
1.0
145
0.0
146
1.0
147
0.09
 71
     0
 72
     0
 73
     0
 74
     0
 75
     0
 76
     0
 77
     1
 78
     8
170
     0
171
     2
172
     1
173
     0
174
     0
175
     0
176
     2
177
     2
178
     2
  0
ENDTAB
  0
ENDSEC
  0
SECTION
  2
BLOCKS
  0
BLOCK
  8
0
  2
$MODEL_SPACE
 70
     0
 10
0.0
 20
0.0
 30
0.0
  3
$MODEL_SPACE
  1

  0
ENDBLK
  5
1B
  8
0
  0
BLOCK
 67
     1
  8
0
  2
$PAPER_SPACE
 70
     0
 10
0.0
 20
0.0
 30
0.0
  3
$PAPER_SPACE
  1

  0
ENDBLK
  5
18
 67
     1
  8
0
  0
BLOCK
  8
0
  2
YA_N
 70
     0
 10
0.0
 20
0.0
 30
0.0
  3
YA_N
  1

  0
ENDBLK
  5
79FE
  8
0
  0
BLOCK
  8
0
  2
ARROW
 70
     0
 10
0.0
 20
0.0
 30
0.0
  3
ARROW
  1

  0
LINE
  5
7A00
  8
0
 10
-0.9999999999999991
 20
0.1666666667000003
 30
0.0
 11
0.0
 21
0.0
 31
0.0
  0
LINE
  5
7A01
  8
0
 10
-0.9999999999999991
 20
0.0
 30
0.0
 11
0.0
 21
0.0
 31
0.0
  0
LINE
  5
7A02
  8
0
 10
-0.9999999999999991
 20
-0.1666666667000003
 30
0.0
 11
0.0
 21
0.0
 31
0.0
  0
ENDBLK
  5
7A04
  8
0
  0
BLOCK
  8
0
  2
_OPEN
 70
     0
 10
0.0
 20
0.0
 30
0.0
  3
_OPEN
  1

  0
LINE
  5
7A8C
  8
0
  6
BYBLOCK
 62
     0
 10
-1.0
 20
0.1666666666666666
 30
0.0
 11
0.0
 21
0.0
 31
0.0
  0
LINE
  5
7A8D
  8
0
  6
BYBLOCK
 62
     0
 10
0.0
 20
0.0
 30
0.0
 11
-1.0
 21
-0.1666666666666666
 31
0.0
  0
LINE
  5
7A8E
  8
0
  6
BYBLOCK
 62
     0
 10
0.0
 20
0.0
 30
0.0
 11
-1.0
 21
0.0
 31
0.0
  0
ENDBLK
  5
7A90
  8
0
  0
BLOCK
  8
0
  2
*D3
 70
     1
 10
0.0
 20
0.0
 30
0.0
  3
*D3
  1

  0
LINE
  5
8107
  8
3
 62
     2
 10
2059.2707396304731
 20
1009.943259401616
 30
0.0
 11
2059.2707396304731
 21
884.90249956024866
 31
0.0
  0
LINE
  5
8108
  8
3
 62
     2
 10
2674.2707396304741
 20
992.67075853635208
 30
0.0
 11
2674.2707396304741
 21
884.90249956024866
 31
0.0
  0
LINE
  5
8109
  8
3
 62
     2
 10
2089.2707396304731
 20
899.90249956024866
 30
0.0
 11
2644.2707396304731
 21
899.90249956024866
 31
0.0
  0
INSERT
  5
810A
  8
3
 62
     2
  2
ARROW
 10
2059.2707396304731
 20
899.90249956024866
 30
0.0
 41
30.0
 42
30.0
 43
30.0
 50
180.0
  0
INSERT
  5
810B
  8
3
 62
     2
  2
ARROW
 10
2674.2707396304741
 20
899.90249956024866
 30
0.0
 41
30.0
 42
30.0
 43
30.0
  0
TEXT
  8
3
  40
37.5
  5
8224
  62
2
  72
0
  71
0
 10
2291.77
 20
874.777
 30
0.000000
  1
615
  0
POINT
  5
810D
  8
DEFPOINTS
 62
     0
 10
2059.2707396304731
 20
1024.9432594016159
 30
0.0
  0
POINT
  5
810E
  8
DEFPOINTS
 62
     0
 10
2674.2707396304741
 20
1007.670758536352
 30
0.0
  0
POINT
  5
810F
  8
DEFPOINTS
 62
     0
 10
2674.2707396304741
 20
899.90249956024866
 30
0.0
  0
ENDBLK
  5
7FBB
  8
0
  0
BLOCK
  8
0
  2
*D4
 70
     1
 10
0.0
 20
0.0
 30
0.0
  3
*D4
  1

  0
LINE
  5
8110
  8
3
 62
     2
 10
1986.2707396304729
 20
1605.9432594016159
 30
0.0
 11
1986.2707396304729
 21
1917.2831204500619
 31
0.0
  0
LINE
  5
8111
  8
3
 62
     2
 10
2644.2707396304731
 20
1902.2831204500619
 30
0.0
 11
2016.2707396304741
 21
1902.2831204500619
 31
0.0
  0
INSERT
  5
8112
  8
3
 62
     2
  2
ARROW
 10
2674.2707396304741
 20
1902.2831204500619
 30
0.0
 41
30.0
 42
30.0
 43
30.0
  0
INSERT
  5
8113
  8
3
 62
     2
  2
ARROW
 10
1986.2707396304729
 20
1902.2831204500619
 30
0.0
 41
30.0
 42
30.0
 43
30.0
 50
180.0
  0
TEXT
  8
3
  40
37.5
  5
8225
  62
2
  72
0
  71
0
 10
2255.27
 20
1877.16
 30
0.000000
  1
688
  0
POINT
  5
8115
  8
DEFPOINTS
 62
     0
 10
2674.2707396304741
 20
1878.1695775439309
 30
0.0
  0
POINT
  5
8116
  8
DEFPOINTS
 62
     0
 10
1986.2707396304729
 20
1590.9432594016159
 30
0.0
  0
POINT
  5
8117
  8
DEFPOINTS
 62
     0
 10
1986.2707396304729
 20
1902.2831204500619
 30
0.0
  0
ENDBLK
  5
80B0
  8
0
  0
BLOCK
  8
0
  2
*D5
 70
     1
 10
0.0
 20
0.0
 30
0.0
  3
*D5
  1

  0
LINE
  5
812C
  8
3
 62
     2
 10
753.87773054550644
 20
2381.9562521328689
 30
0.0
 11
753.87773054550644
 21
2213.6451113256649
 31
0.0
  0
LINE
  5
812D
  8
3
 62
     2
 10
1553.877730545506
 20
2400.9562521328698
 30
0.0
 11
1553.877730545506
 21
2213.6451113256649
 31
0.0
  0
LINE
  5
812E
  8
3
 62
     2
 10
783.87773054550644
 20
2228.6451113256649
 30
0.0
 11
1523.877730545506
 21
2228.6451113256649
 31
0.0
  0
INSERT
  5
812F
  8
3
 62
     2
  2
ARROW
 10
753.87773054550644
 20
2228.6451113256649
 30
0.0
 41
30.0
 42
30.0
 43
30.0
 50
180.0
  0
INSERT
  5
8130
  8
3
 62
     2
  2
ARROW
 10
1553.877730545506
 20
2228.6451113256649
 30
0.0
 41
30.0
 42
30.0
 43
30.0
  0
TEXT
  8
3
  40
37.5
  5
8226
  62
2
  72
0
  71
0
 10
1078.88
 20
2203.52
 30
0.000000
  1
800
  0
POINT
  5
8132
  8
DEFPOINTS
 62
     0
 10
753.87773054550644
 20
2396.9562521328698
 30
0.0
  0
POINT
  5
8133
  8
DEFPOINTS
 62
     0
 10
1553.877730545506
 20
2415.9562521328712
 30
0.0
  0
POINT
  5
8134
  8
DEFPOINTS
 62
     0
 10
1553.877730545506
 20
2228.6451113256649
 30
0.0
  0
ENDBLK
  5
7FD0
  8
0
  0
BLOCK
  8
0
  2
*D6
 70
     1
 10
0.0
 20
0.0
 30
0.0
  3
*D6
  1

  0
LINE
  5
8135
  8
3
 62
     2
 10
1311.4889002205491
 20
1750.9432594016159
 30
0.0
 11
1311.4889002205491
 21
1988.7043340146349
 31
0.0
  0
LINE
  5
8136
  8
3
 62
     2
 10
707.91882631767567
 20
1487.178306816925
 30
0.0
 11
707.91882631767567
 21
1988.7043340146349
 31
0.0
  0
LINE
  5
8137
  8
3
 62
     2
 10
1281.48890022055
 20
1973.7043340146349
 30
0.0
 11
737.91882631767555
 21
1973.7043340146349
 31
0.0
  0
INSERT
  5
8138
  8
3
 62
     2
  2
ARROW
 10
1311.4889002205491
 20
1973.7043340146349
 30
0.0
 41
30.0
 42
30.0
 43
30.0
  0
INSERT
  5
8139
  8
3
 62
     2
  2
ARROW
 10
707.91882631767567
 20
1973.7043340146349
 30
0.0
 41
30.0
 42
30.0
 43
30.0
 50
180.0
  0
TEXT
  8
3
  40
37.5
  5
8227
  62
2
  72
0
  71
0
 10
934.704
 20
1948.58
 30
0.000000
  1
604
  0
POINT
  5
813B
  8
DEFPOINTS
 62
     0
 10
1311.4889002205491
 20
1735.9432594016159
 30
0.0
  0
POINT
  5
813C
  8
DEFPOINTS
 62
     0
 10
707.91882631767567
 20
1472.178306816925
 30
0.0
  0
POINT
  5
813D
  8
DEFPOINTS
 62
     0
 10
707.91882631767567
 20
1973.7043340146349
 30
0.0
  0
ENDBLK
  5
7FDB
  8
0
  0
BLOCK
  8
0
  2
*D7
 70
     1
 10
0.0
 20
0.0
 30
0.0
  3
*D7
  1

  0
LINE
  5
813E
  8
3
 62
     2
 10
1553.8777305455051
 20
1009.943259401616
 30
0.0
 11
1553.8777305455051
 21
887.25874888206465
 31
0.0
  0
LINE
  5
813F
  8
3
 62
     2
 10
963.87773054550564
 20
902.25874888206465
 30
0.0
 11
1523.877730545506
 21
902.25874888206465
 31
0.0
  0
INSERT
  5
8140
  8
3
 62
     2
  2
ARROW
 10
933.87773054550553
 20
902.25874888206465
 30
0.0
 41
30.0
 42
30.0
 43
30.0
 50
180.0
  0
INSERT
  5
8141
  8
3
 62
     2
  2
ARROW
 10
1553.8777305455051
 20
902.25874888206465
 30
0.0
 41
30.0
 42
30.0
 43
30.0
  0
TEXT
  8
3
  40
37.5
  5
8228
  62
2
  72
0
  71
0
 10
1168.88
 20
877.134
 30
0.000000
  1
620
  0
POINT
  5
8143
  8
DEFPOINTS
 62
     0
 10
933.87773054550553
 20
1010.069973526828
 30
0.0
  0
POINT
  5
8144
  8
DEFPOINTS
 62
     0
 10
1553.8777305455051
 20
1024.9432594016159
 30
0.0
  0
POINT
  5
8145
  8
DEFPOINTS
 62
     0
 10
1553.8777305455051
 20
902.25874888206465
 30
0.0
  0
ENDBLK
  5
7FE5
  8
0
  0
BLOCK
  8
0
  2
*D8
 70
     1
 10
0.0
 20
0.0
 30
0.0
  3
*D8
  1

  0
LINE
  5
8146
  8
3
 62
     2
 10
1284.8776701058259
 20
1750.9432594016159
 30
0.0
 11
1284.8776701058259
 21
1906.6818012167071
 31
0.0
  0
LINE
  5
8147
  8
3
 62
     2
 10
933.87773054550553
 20
1783.841007462602
 30
0.0
 11
933.87773054550553
 21
1906.6818012167071
 31
0.0
  0
LINE
  5
8148
  8
3
 62
     2
 10
1254.8776701058259
 20
1891.6818012167071
 30
0.0
 11
963.87773054550564
 21
1891.6818012167071
 31
0.0
  0
INSERT
  5
8149
  8
3
 62
     2
  2
ARROW
 10
1284.8776701058259
 20
1891.6818012167071
 30
0.0
 41
30.0
 42
30.0
 43
30.0
  0
INSERT
  5
814A
  8
3
 62
     2
  2
ARROW
 10
933.87773054550553
 20
1891.6818012167071
 30
0.0
 41
30.0
 42
30.0
 43
30.0
 50
180.0
  0
TEXT
  8
3
  40
37.5
  5
8229
  62
2
  72
0
  71
0
 10
1034.38
 20
1866.56
 30
0.000000
  1
351
  0
POINT
  5
814C
  8
DEFPOINTS
 62
     0
 10
1284.8776701058259
 20
1735.9432594016159
 30
0.0
  0
POINT
  5
814D
  8
DEFPOINTS
 62
     0
 10
933.87773054550553
 20
1768.8410074626031
 30
0.0
  0
POINT
  5
814E
  8
DEFPOINTS
 62
     0
 10
933.87773054550553
 20
1891.6818012167071
 30
0.0
  0
ENDBLK
  5
7FF0
  8
0
  0
BLOCK
  8
0
  2
*D9
 70
     1
 10
0.0
 20
0.0
 30
0.0
  3
*D9
  1

  0
LINE
  5
814F
  8
3
 62
     2
 10
1284.8776701058259
 20
1750.9432594016159
 30
0.0
 11
1284.8776701058259
 21
1809.9116199907339
 31
0.0
  0
LINE
  5
8150
  8
3
 62
     2
 10
959.87773054550553
 20
1750.9432594016159
 30
0.0
 11
959.87773054550553
 21
1809.9116199907339
 31
0.0
  0
LINE
  5
8151
  8
3
 62
     2
 10
1254.8776701058259
 20
1794.9116199907339
 30
0.0
 11
989.87773054550553
 21
1794.9116199907339
 31
0.0
  0
INSERT
  5
8152
  8
3
 62
     2
  2
ARROW
 10
1284.8776701058259
 20
1794.9116199907339
 30
0.0
 41
30.0
 42
30.0
 43
30.0
  0
INSERT
  5
8153
  8
3
 62
     2
  2
ARROW
 10
959.87773054550553
 20
1794.9116199907339
 30
0.0
 41
30.0
 42
30.0
 43
30.0
 50
180.0
  0
TEXT
  8
3
  40
37.5
  5
822A
  62
2
  72
0
  71
0
 10
1047.38
 20
1769.79
 30
0.000000
  1
325
  0
POINT
  5
8155
  8
DEFPOINTS
 62
     0
 10
1284.8776701058259
 20
1735.9432594016159
 30
0.0
  0
POINT
  5
8156
  8
DEFPOINTS
 62
     0
 10
959.87773054550553
 20
1735.9432594016159
 30
0.0
  0
POINT
  5
8157
  8
DEFPOINTS
 62
     0
 10
959.87773054550553
 20
1794.9116199907339
 30
0.0
  0
ENDBLK
  5
7FFB
  8
0
  0
BLOCK
  8
0
  2
*D10
 70
     1
 10
0.0
 20
0.0
 30
0.0
  3
*D10
  1

  0
LINE
  5
815C
  8
3
 62
     2
 10
738.87773054550587
 20
1024.9432594016159
 30
0.0
 11
420.3333968209202
 21
1024.9432594016159
 31
0.0
  0
LINE
  5
815D
  8
3
 62
     2
 10
916.48890022054957
 20
1735.9432594016159
 30
0.0
 11
420.33339682092043
 21
1735.9432594016159
 31
0.0
  0
LINE
  5
815E
  8
3
 62
     2
 10
435.33339682092009
 20
1054.9432594016159
 30
0.0
 11
435.33339682092031
 21
1705.9432594016159
 31
0.0
  0
INSERT
  5
815F
  8
3
 62
     2
  2
ARROW
 10
435.33339682092009
 20
1024.9432594016159
 30
0.0
 41
30.0
 42
30.0
 43
30.0
 50
270.0
  0
INSERT
  5
8160
  8
3
 62
     2
  2
ARROW
 10
435.33339682092031
 20
1735.9432594016159
 30
0.0
 41
30.0
 42
30.0
 43
30.0
 50
90.0
  0
TEXT
  8
3
  40
37.5
  5
822B
  62
2
  72
0
  71
0
 10
319.083
 20
1314.07
 30
0.000000
  1
711
  0
POINT
  5
8162
  8
DEFPOINTS
 62
     0
 10
753.87773054550587
 20
1024.9432594016159
 30
0.0
  0
POINT
  5
8163
  8
DEFPOINTS
 62
     0
 10
931.48890022054945
 20
1735.9432594016159
 30
0.0
  0
POINT
  5
8164
  8
DEFPOINTS
 62
     0
 10
435.33339682092031
 20
1735.9432594016159
 30
0.0
  0
ENDBLK
  5
8006
  8
0
  0
BLOCK
  8
0
  2
*D11
 70
     1
 10
0.0
 20
0.0
 30
0.0
  3
*D11
  1

  0
LINE
  5
8165
  8
3
 62
     2
 10
738.87773054550553
 20
1135.9432594016159
 30
0.0
 11
560.2885356284836
 21
1135.9432594016159
 31
0.0
  0
LINE
  5
8166
  8
3
 62
     2
 10
575.28853562848383
 20
1460.9432594016159
 30
0.0
 11
575.28853562848371
 21
1165.9432594016159
 31
0.0
  0
INSERT
  5
8167
  8
3
 62
     2
  2
ARROW
 10
575.28853562848383
 20
1490.9432594016159
 30
0.0
 41
30.0
 42
30.0
 43
30.0
 50
90.0
  0
INSERT
  5
8168
  8
3
 62
     2
  2
ARROW
 10
575.28853562848371
 20
1135.9432594016159
 30
0.0
 41
30.0
 42
30.0
 43
30.0
 50
270.0
  0
TEXT
  8
3
  40
37.5
  5
822C
  62
2
  72
0
  71
0
 10
459.039
 20
1247.07
 30
0.000000
  1
355
  0
POINT
  5
816A
  8
DEFPOINTS
 62
     0
 10
677.41760419501986
 20
1490.9432594016159
 30
0.0
  0
POINT
  5
816B
  8
DEFPOINTS
 62
     0
 10
753.87773054550553
 20
1135.9432594016159
 30
0.0
  0
POINT
  5
816C
  8
DEFPOINTS
 62
     0
 10
575.28853562848371
 20
1135.9432594016159
 30
0.0
  0
ENDBLK
  5
8010
  8
0
  0
BLOCK
  8
0
  2
*D12
 70
     1
 10
0.0
 20
0.0
 30
0.0
  3
*D12
  1

  0
LINE
  5
8172
  8
3
 62
     2
 10
738.87773054550587
 20
1099.9432594016159
 30
0.0
 11
560.2885356284836
 21
1099.9432594016159
 31
0.0
  0
LINE
  5
8173
  8
3
 62
     2
 10
575.28853562848371
 20
1165.9432594016159
 30
0.0
 11
575.28853562848371
 21
1195.9432594016159
 31
0.0
  0
LINE
  5
8174
  8
3
 62
     2
 10
575.28853562848371
 20
1069.9432594016159
 30
0.0
 11
575.28853562848371
 21
1039.9432594016159
 31
0.0
  0
TEXT
  8
3
  40
37.5
  5
822D
  62
2
  72
0
  71
0
 10
435.832
 20
1062.90
 30
0.000000
  1
(36)
  0
LINE
  5
8176
  8
3
 62
     2
 10
575.28853562848371
 20
1135.9432594016159
 30
0.0
 11
575.28853562848371
 21
1099.9432594016159
 31
0.0
  0
INSERT
  5
8177
  8
3
 62
     2
  2
_OPEN
 10
575.28853562848371
 20
1135.9432594016159
 30
0.0
 41
30.0
 42
30.0
 43
30.0
 50
270.0
  0
INSERT
  5
8178
  8
3
 62
     2
  2
YA_N
 10
575.28853562848371
 20
1099.9432594016159
 30
0.0
 41
30.0
 42
30.0
 43
30.0
 50
90.0
  0
POINT
  5
8179
  8
DEFPOINTS
 62
     0
 10
753.87773054550553
 20
1135.9432594016159
 30
0.0
  0
POINT
  5
817A
  8
DEFPOINTS
 62
     0
 10
753.87773054550587
 20
1099.9432594016159
 30
0.0
  0
POINT
  5
817B
  8
DEFPOINTS
 62
     0
 10
575.28853562848371
 20
1099.9432594016159
 30
0.0
  0
ENDBLK
  5
801C
  8
0
  0
BLOCK
  8
0
  2
*D13
 70
     1
 10
0.0
 20
0.0
 30
0.0
  3
*D13
  1

  0
LINE
  5
817C
  8
3
 62
     2
 10
753.87773054550587
 20
1009.943259401616
 30
0.0
 11
753.87773054550587
 21
887.25874888206465
 31
0.0
  0
LINE
  5
817D
  8
3
 62
     2
 10
933.87773054550553
 20
995.06997352682833
 30
0.0
 11
933.87773054550553
 21
887.25874888206465
 31
0.0
  0
LINE
  5
817E
  8
3
 62
     2
 10
783.87773054550587
 20
902.25874888206465
 30
0.0
 11
903.87773054550541
 21
902.25874888206465
 31
0.0
  0
INSERT
  5
817F
  8
3
 62
     2
  2
ARROW
 10
753.87773054550587
 20
902.25874888206465
 30
0.0
 41
30.0
 42
30.0
 43
30.0
 50
180.0
  0
INSERT
  5
8180
  8
3
 62
     2
  2
ARROW
 10
933.87773054550553
 20
902.25874888206465
 30
0.0
 41
30.0
 42
30.0
 43
30.0
  0
TEXT
  8
3
  40
37.5
  5
822E
  62
2
  72
0
  71
0
 10
768.878
 20
877.134
 30
0.000000
  1
180
  0
POINT
  5
8182
  8
DEFPOINTS
 62
     0
 10
753.87773054550587
 20
1024.9432594016159
 30
0.0
  0
POINT
  5
8183
  8
DEFPOINTS
 62
     0
 10
933.87773054550553
 20
1010.069973526828
 30
0.0
  0
POINT
  5
8184
  8
DEFPOINTS
 62
     0
 10
933.87773054550553
 20
902.25874888206465
 30
0.0
  0
ENDBLK
  5
8029
  8
0
  0
BLOCK
  8
0
  2
*D14
 70
     1
 10
0.0
 20
0.0
 30
0.0
  3
*D14
  1

  0
LINE
  5
8185
  8
3
 62
     2
 10
738.87773054550587
 20
1099.9432594016159
 30
0.0
 11
560.2885356284836
 21
1099.9432594016159
 31
0.0
  0
LINE
  5
8186
  8
3
 62
     2
 10
738.87773054550587
 20
1024.9432594016159
 30
0.0
 11
560.2885356284836
 21
1024.9432594016159
 31
0.0
  0
LINE
  5
8187
  8
3
 62
     2
 10
575.28853562848371
 20
1129.9432594016159
 30
0.0
 11
575.28853562848371
 21
1159.9432594016159
 31
0.0
  0
LINE
  5
8188
  8
3
 62
     2
 10
575.28853562848371
 20
994.9432594016165
 30
0.0
 11
575.28853562848371
 21
859.22897368733084
 31
0.0
  0
LINE
  5
8189
  8
3
 62
     2
 10
575.28853562848371
 20
1099.9432594016159
 30
0.0
 11
575.28853562848371
 21
1024.9432594016159
 31
0.0
  0
INSERT
  5
818A
  8
3
 62
     2
  2
YA_N
 10
575.28853562848371
 20
1099.9432594016159
 30
0.0
 41
30.0
 42
30.0
 43
30.0
 50
270.0
  0
INSERT
  5
818B
  8
3
 62
     2
  2
_OPEN
 10
575.28853562848371
 20
1024.9432594016159
 30
0.0
 41
30.0
 42
30.0
 43
30.0
 50
90.0
  0
TEXT
  8
3
  40
37.5
  5
822F
  62
2
  72
0
  71
0
 10
459.039
 20
845.711
 30
0.000000
  1
75
  0
POINT
  5
818D
  8
DEFPOINTS
 62
     0
 10
753.87773054550587
 20
1099.9432594016159
 30
0.0
  0
POINT
  5
818E
  8
DEFPOINTS
 62
     0
 10
753.87773054550587
 20
1024.9432594016159
 30
0.0
  0
POINT
  5
818F
  8
DEFPOINTS
 62
     0
 10
575.28853562848371
 20
1024.9432594016159
 30
0.0
  0
ENDBLK
  5
8036
  8
0
  0
BLOCK
  8
0
  2
*D15
 70
     1
 10
0.0
 20
0.0
 30
0.0
  3
*D15
  1

  0
LINE
  5
8190
  8
1
 62
     2
 10
707.91882631767567
 20
1487.178306816925
 30
0.0
 11
707.91882631767567
 21
1906.6818012167071
 31
0.0
  0
LINE
  5
8191
  8
1
 62
     2
 10
903.87773054550541
 20
1891.6818012167071
 30
0.0
 11
737.91882631767555
 21
1891.6818012167071
 31
0.0
  0
INSERT
  5
8192
  8
1
 62
     2
  2
ARROW
 10
933.87773054550553
 20
1891.6818012167071
 30
0.0
 41
30.0
 42
30.0
 43
30.0
  0
INSERT
  5
8193
  8
1
 62
     2
  2
ARROW
 10
707.91882631767567
 20
1891.6818012167071
 30
0.0
 41
30.0
 42
30.0
 43
30.0
 50
180.0
  0
TEXT
  8
1
  40
37.5
  5
8230
  62
2
  72
0
  71
0
 10
745.898
 20
1866.56
 30
0.000000
  1
226
  0
POINT
  5
8195
  8
DEFPOINTS
 62
     0
 10
933.87773054550553
 20
1768.8410074626031
 30
0.0
  0
POINT
  5
8196
  8
DEFPOINTS
 62
     0
 10
707.91882631767567
 20
1472.178306816925
 30
0.0
  0
POINT
  5
8197
  8
DEFPOINTS
 62
     0
 10
707.91882631767567
 20
1891.6818012167071
 30
0.0
  0
ENDBLK
  5
8040
  8
0
  0
BLOCK
  8
0
  2
*D16
 70
     1
 10
0.0
 20
0.0
 30
0.0
  3
*D16
  1

  0
LINE
  5
8198
  8
3
 62
     2
 10
916.48890022054957
 20
1735.9432594016159
 30
0.0
 11
560.2885356284836
 21
1735.9432594016159
 31
0.0
  0
LINE
  5
8199
  8
3
 62
     2
 10
662.41760419501998
 20
1490.9432594016159
 30
0.0
 11
560.2885356284836
 21
1490.9432594016159
 31
0.0
  0
LINE
  5
819A
  8
3
 62
     2
 10
575.28853562848371
 20
1705.9432594016159
 30
0.0
 11
575.28853562848371
 21
1520.9432594016159
 31
0.0
  0
INSERT
  5
819B
  8
3
 62
     2
  2
ARROW
 10
575.28853562848371
 20
1735.9432594016159
 30
0.0
 41
30.0
 42
30.0
 43
30.0
 50
90.0
  0
INSERT
  5
819C
  8
3
 62
     2
  2
ARROW
 10
575.28853562848371
 20
1490.9432594016159
 30
0.0
 41
30.0
 42
30.0
 43
30.0
 50
270.0
  0
TEXT
  8
3
  40
37.5
  5
8231
  62
2
  72
0
  71
0
 10
459.039
 20
1547.07
 30
0.000000
  1
245
  0
POINT
  5
819E
  8
DEFPOINTS
 62
     0
 10
931.48890022054945
 20
1735.9432594016159
 30
0.0
  0
POINT
  5
819F
  8
DEFPOINTS
 62
     0
 10
677.41760419501986
 20
1490.9432594016159
 30
0.0
  0
POINT
  5
81A0
  8
DEFPOINTS
 62
     0
 10
575.28853562848371
 20
1490.9432594016159
 30
0.0
  0
ENDBLK
  5
804B
  8
0
  0
BLOCK
  8
0
  2
*D17
 70
     1
 10
0.0
 20
0.0
 30
0.0
  3
*D17
  1

  0
LINE
  5
81B8
  8
3
 62
     2
 10
1553.8777305455069
 20
2791.9562521328698
 30
0.0
 11
1553.8777305455069
 21
3287.745730846153
 31
0.0
  0
LINE
  5
81B9
  8
3
 62
     2
 10
1143.8777305455051
 20
3272.745730846153
 30
0.0
 11
1523.8777305455069
 21
3272.745730846153
 31
0.0
  0
INSERT
  5
81BA
  8
3
 62
     2
  2
ARROW
 10
1113.8777305455051
 20
3272.745730846153
 30
0.0
 41
30.0
 42
30.0
 43
30.0
 50
180.0
  0
INSERT
  5
81BB
  8
3
 62
     2
  2
ARROW
 10
1553.8777305455069
 20
3272.745730846153
 30
0.0
 41
30.0
 42
30.0
 43
30.0
  0
TEXT
  8
3
  40
37.5
  5
8232
  62
2
  72
0
  71
0
 10
1258.88
 20
3247.62
 30
0.000000
  1
440
  0
POINT
  5
81BD
  8
DEFPOINTS
 62
     0
 10
1113.8777305455051
 20
3176.9562521328712
 30
0.0
  0
POINT
  5
81BE
  8
DEFPOINTS
 62
     0
 10
1553.8777305455069
 20
2776.9562521328712
 30
0.0
  0
POINT
  5
81BF
  8
DEFPOINTS
 62
     0
 10
1553.8777305455069
 20
3272.745730846153
 30
0.0
  0
ENDBLK
  5
8055
  8
0
  0
BLOCK
  8
0
  2
*D18
 70
     1
 10
0.0
 20
0.0
 30
0.0
  3
*D18
  1

  0
LINE
  5
81C0
  8
3
 62
     2
 10
738.87773054550644
 20
2396.9562521328698
 30
0.0
 11
601.44724853670903
 21
2396.9562521328698
 31
0.0
  0
LINE
  5
81C1
  8
3
 62
     2
 10
738.87773054550553
 20
3176.9562521328712
 30
0.0
 11
601.44724853670914
 21
3176.9562521328712
 31
0.0
  0
LINE
  5
81C2
  8
3
 62
     2
 10
616.44724853670903
 20
2426.9562521328689
 30
0.0
 11
616.44724853670914
 21
3146.9562521328698
 31
0.0
  0
INSERT
  5
81C3
  8
3
 62
     2
  2
ARROW
 10
616.44724853670903
 20
2396.9562521328698
 30
0.0
 41
30.0
 42
30.0
 43
30.0
 50
270.0
  0
INSERT
  5
81C4
  8
3
 62
     2
  2
ARROW
 10
616.44724853670914
 20
3176.9562521328712
 30
0.0
 41
30.0
 42
30.0
 43
30.0
 50
90.0
  0
TEXT
  8
3
  40
37.5
  5
8233
  62
2
  72
0
  71
0
 10
500.197
 20
2720.58
 30
0.000000
  1
780
  0
POINT
  5
81C6
  8
DEFPOINTS
 62
     0
 10
753.87773054550644
 20
2396.9562521328698
 30
0.0
  0
POINT
  5
81C7
  8
DEFPOINTS
 62
     0
 10
753.87773054550553
 20
3176.9562521328712
 30
0.0
  0
POINT
  5
81C8
  8
DEFPOINTS
 62
     0
 10
616.44724853670914
 20
3176.9562521328712
 30
0.0
  0
ENDBLK
  5
8060
  8
0
  0
BLOCK
  8
0
  2
*D19
 70
     1
 10
0.0
 20
0.0
 30
0.0
  3
*D19
  1

  0
LINE
  5
81C9
  8
3
 62
     2
 10
753.87773054550553
 20
3191.9562521328698
 30
0.0
 11
753.87773054550553
 21
3287.745730846153
 31
0.0
  0
LINE
  5
81CA
  8
3
 62
     2
 10
1113.8777305455051
 20
3191.9562521328698
 30
0.0
 11
1113.8777305455051
 21
3287.745730846153
 31
0.0
  0
LINE
  5
81CB
  8
3
 62
     2
 10
783.87773054550553
 20
3272.745730846153
 30
0.0
 11
1083.8777305455051
 21
3272.745730846153
 31
0.0
  0
INSERT
  5
81CC
  8
3
 62
     2
  2
ARROW
 10
753.87773054550553
 20
3272.745730846153
 30
0.0
 41
30.0
 42
30.0
 43
30.0
 50
180.0
  0
INSERT
  5
81CD
  8
3
 62
     2
  2
ARROW
 10
1113.8777305455051
 20
3272.745730846153
 30
0.0
 41
30.0
 42
30.0
 43
30.0
  0
TEXT
  8
3
  40
37.5
  5
8234
  62
2
  72
0
  71
0
 10
858.878
 20
3247.62
 30
0.000000
  1
360
  0
POINT
  5
81CF
  8
DEFPOINTS
 62
     0
 10
753.87773054550553
 20
3176.9562521328712
 30
0.0
  0
POINT
  5
81D0
  8
DEFPOINTS
 62
     0
 10
1113.8777305455051
 20
3176.9562521328712
 30
0.0
  0
POINT
  5
81D1
  8
DEFPOINTS
 62
     0
 10
1113.8777305455051
 20
3272.745730846153
 30
0.0
  0
ENDBLK
  5
806B
  8
0
  0
BLOCK
  8
0
  2
*D20
 70
     1
 10
0.0
 20
0.0
 30
0.0
  3
*D20
  1

  0
LINE
  5
81D2
  8
3
 62
     2
 10
1568.8777305455051
 20
2396.9562521328698
 30
0.0
 11
1702.024009150957
 21
2396.9562521328698
 31
0.0
  0
LINE
  5
81D3
  8
3
 62
     2
 10
1568.8777305455069
 20
2776.9562521328712
 30
0.0
 11
1702.0240091509579
 21
2776.9562521328712
 31
0.0
  0
LINE
  5
81D4
  8
3
 62
     2
 10
1687.0240091509579
 20
2426.9562521328689
 30
0.0
 11
1687.0240091509579
 21
2746.9562521328698
 31
0.0
  0
INSERT
  5
81D5
  8
3
 62
     2
  2
ARROW
 10
1687.0240091509579
 20
2396.9562521328698
 30
0.0
 41
30.0
 42
30.0
 43
30.0
 50
270.0
  0
INSERT
  5
81D6
  8
3
 62
     2
  2
ARROW
 10
1687.0240091509579
 20
2776.9562521328712
 30
0.0
 41
30.0
 42
30.0
 43
30.0
 50
90.0
  0
TEXT
  8
3
  40
37.5
  5
8235
  62
2
  72
0
  71
0
 10
1570.77
 20
2520.58
 30
0.000000
  1
380
  0
POINT
  5
81D8
  8
DEFPOINTS
 62
     0
 10
1553.8777305455051
 20
2396.9562521328698
 30
0.0
  0
POINT
  5
81D9
  8
DEFPOINTS
 62
     0
 10
1553.8777305455069
 20
2776.9562521328712
 30
0.0
  0
POINT
  5
81DA
  8
DEFPOINTS
 62
     0
 10
1687.0240091509579
 20
2776.9562521328712
 30
0.0
  0
ENDBLK
  5
8076
  8
0
  0
BLOCK
  8
0
  2
*D21
 70
     1
 10
0.0
 20
0.0
 30
0.0
  3
*D21
  1

  0
LINE
  5
81DB
  8
3
 62
     2
 10
2835.2707396304731
 20
1648.4432594016159
 30
0.0
 11
2962.4507111729608
 21
1648.4432594016159
 31
0.0
  0
LINE
  5
81DC
  8
3
 62
     2
 10
2835.2707396304731
 20
1333.4432594016159
 30
0.0
 11
2962.4507111729608
 21
1333.4432594016159
 31
0.0
  0
LINE
  5
81DD
  8
3
 62
     2
 10
2947.4507111729608
 20
1618.4432594016159
 30
0.0
 11
2947.4507111729608
 21
1363.4432594016159
 31
0.0
  0
INSERT
  5
81DE
  8
3
 62
     2
  2
ARROW
 10
2947.4507111729608
 20
1648.4432594016159
 30
0.0
 41
30.0
 42
30.0
 43
30.0
 50
90.0
  0
INSERT
  5
81DF
  8
3
 62
     2
  2
ARROW
 10
2947.4507111729608
 20
1333.4432594016159
 30
0.0
 41
30.0
 42
30.0
 43
30.0
 50
270.0
  0
TEXT
  8
3
  40
37.5
  5
8236
  62
2
  72
0
  71
0
 10
2831.20
 20
1424.57
 30
0.000000
  1
φ315
  0
POINT
  5
81E1
  8
DEFPOINTS
 62
     0
 10
2820.2707396304731
 20
1648.4432594016159
 30
0.0
  0
POINT
  5
81E2
  8
DEFPOINTS
 62
     0
 10
2820.2707396304731
 20
1333.4432594016159
 30
0.0
  0
POINT
  5
81E3
  8
DEFPOINTS
 62
     0
 10
2947.4507111729608
 20
1333.4432594016159
 30
0.0
  0
ENDBLK
  5
8081
  8
0
  0
BLOCK
  8
0
  2
*D22
 70
     1
 10
0.0
 20
0.0
 30
0.0
  3
*D22
  1

  0
LINE
  5
81E4
  8
3
 62
     2
 10
2674.2707396304741
 20
992.67075853635208
 30
0.0
 11
2674.2707396304741
 21
884.90249956024866
 31
0.0
  0
LINE
  5
81E5
  8
3
 62
     2
 10
2839.2707396304731
 20
1009.943259401617
 30
0.0
 11
2839.2707396304731
 21
884.90249956024866
 31
0.0
  0
LINE
  5
81E6
  8
3
 62
     2
 10
2704.2707396304731
 20
899.90249956024866
 30
0.0
 11
2809.2707396304731
 21
899.90249956024866
 31
0.0
  0
INSERT
  5
81E7
  8
3
 62
     2
  2
ARROW
 10
2674.2707396304741
 20
899.90249956024866
 30
0.0
 41
30.0
 42
30.0
 43
30.0
 50
180.0
  0
INSERT
  5
81E8
  8
3
 62
     2
  2
ARROW
 10
2839.2707396304731
 20
899.90249956024866
 30
0.0
 41
30.0
 42
30.0
 43
30.0
  0
TEXT
  8
3
  40
37.5
  5
8237
  62
2
  72
0
  71
0
 10
2681.77
 20
874.777
 30
0.000000
  1
165
  0
POINT
  5
81EA
  8
DEFPOINTS
 62
     0
 10
2674.2707396304741
 20
1007.670758536352
 30
0.0
  0
POINT
  5
81EB
  8
DEFPOINTS
 62
     0
 10
2839.2707396304731
 20
1024.9432594016171
 30
0.0
  0
POINT
  5
81EC
  8
DEFPOINTS
 62
     0
 10
2839.2707396304731
 20
899.90249956024866
 30
0.0
  0
ENDBLK
  5
808E
  8
0
  0
BLOCK
  8
0
  2
*D23
 70
     1
 10
0.0
 20
0.0
 30
0.0
  3
*D23
  1

  0
LINE
  5
81FE
  8
3
 62
     2
 10
2795.2707396304731
 20
1688.4432594016159
 30
0.0
 11
2795.2707396304731
 21
1917.2831204500619
 31
0.0
  0
LINE
  5
81FF
  8
3
 62
     2
 10
2674.2707396304741
 20
1893.1695775439309
 30
0.0
 11
2674.2707396304741
 21
1917.2831204500619
 31
0.0
  0
LINE
  5
8200
  8
3
 62
     2
 10
2765.2707396304731
 20
1902.2831204500619
 30
0.0
 11
2704.2707396304731
 21
1902.2831204500619
 31
0.0
  0
INSERT
  5
8201
  8
3
 62
     2
  2
ARROW
 10
2795.2707396304731
 20
1902.2831204500619
 30
0.0
 41
30.0
 42
30.0
 43
30.0
  0
INSERT
  5
8202
  8
3
 62
     2
  2
ARROW
 10
2674.2707396304741
 20
1902.2831204500619
 30
0.0
 41
30.0
 42
30.0
 43
30.0
 50
180.0
  0
TEXT
  8
3
  40
37.5
  5
8238
  62
2
  72
0
  71
0
 10
2659.77
 20
1877.16
 30
0.000000
  1
121
  0
POINT
  5
8204
  8
DEFPOINTS
 62
     0
 10
2795.2707396304731
 20
1673.4432594016159
 30
0.0
  0
POINT
  5
8205
  8
DEFPOINTS
 62
     0
 10
2674.2707396304741
 20
1878.1695775439309
 30
0.0
  0
POINT
  5
8206
  8
DEFPOINTS
 62
     0
 10
2674.2707396304741
 20
1902.2831204500619
 30
0.0
  0
ENDBLK
  5
80BD
  8
0
  0
BLOCK
  8
0
  2
*D24
 70
     1
 10
0.0
 20
0.0
 30
0.0
  3
*D24
  1

  0
LINE
  5
8207
  8
3
 62
     2
 10
2556.2707396304731
 20
1755.9432594016159
 30
0.0
 11
2556.2707396304731
 21
1830.5468368544989
 31
0.0
  0
LINE
  5
8208
  8
3
 62
     2
 10
2792.2707396304741
 20
1752.9432594016159
 30
0.0
 11
2792.2707396304741
 21
1830.5468368544989
 31
0.0
  0
LINE
  5
8209
  8
3
 62
     2
 10
2586.2707396304731
 20
1815.5468368544989
 30
0.0
 11
2762.270739630475
 21
1815.5468368544989
 31
0.0
  0
INSERT
  5
820A
  8
3
 62
     2
  2
ARROW
 10
2556.2707396304731
 20
1815.5468368544989
 30
0.0
 41
30.0
 42
30.0
 43
30.0
 50
180.0
  0
INSERT
  5
820B
  8
3
 62
     2
  2
ARROW
 10
2792.2707396304741
 20
1815.5468368544989
 30
0.0
 41
30.0
 42
30.0
 43
30.0
  0
TEXT
  8
3
  40
37.5
  5
8239
  62
2
  72
0
  71
0
 10
2581.09
 20
1790.42
 30
0.000000
  1
236
  0
POINT
  5
820D
  8
DEFPOINTS
 62
     0
 10
2556.2707396304731
 20
1740.9432594016159
 30
0.0
  0
POINT
  5
820E
  8
DEFPOINTS
 62
     0
 10
2792.2707396304741
 20
1737.9432594016159
 30
0.0
  0
POINT
  5
820F
  8
DEFPOINTS
 62
     0
 10
2792.2707396304741
 20
1815.5468368544989
 30
0.0
  0
ENDBLK
  5
80A6
  8
0
  0
ENDSEC
  0
SECTION
  2
ENTITIES
  0
DIMENSION
  5
7CE9
  8
3
  2
*D3
 10
2674.2707396304741
 20
899.90249956024866
 30
0.0
 11
2366.7707396304731
 21
941.15249956024866
 31
0.0
 70
     0
 13
2059.2707396304731
 23
1024.9432594016159
 33
0.0
 14
2674.2707396304741
 24
1007.670758536352
 34
0.0
1001
ACAD
1000
DSTYLE
1002
{
1070
   287
1070
     3
1070
    40
1040
15.0
1070
    43
1040
0.0
1070
   147
1040
1.5
1070
   173
1070
     1
1070
   272
1070
     4
1070
   279
1070
     0
1070
   284
1070
     0
1070
   285
1070
     0
1070
   286
1070
     0
1070
     6
1000
ARROW
1070
     7
1000
ARROW
1002
}
  0
DIMENSION
  5
7CEA
  8
3
  2
*D4
 10
1986.2707396304729
 20
1902.2831204500619
 30
0.0
 11
2330.2707396304731
 21
1943.5331204500619
 31
0.0
 70
     0
 13
2674.2707396304741
 23
1878.1695775439309
 33
0.0
 14
1986.2707396304729
 24
1590.9432594016159
 34
0.0
1001
ACAD
1000
DSTYLE
1002
{
1070
   287
1070
     4
1070
    40
1040
15.0
1070
    43
1040
0.0
1070
    75
1070
     1
1070
   147
1040
1.5
1070
   173
1070
     1
1070
   271
1070
     4
1070
   272
1070
     4
1070
   279
1070
     1
1070
   284
1070
     0
1070
   285
1070
     0
1070
   286
1070
     0
1070
     6
1000
ARROW
1070
     7
1000
ARROW
1002
}
  0
LINE
  5
7CEB
  8
1
 10
2554.2707396304731
 20
1473.4432594016159
 30
0.0
 11
2477.5537712114101
 21
1473.4432594016159
 31
0.0
  0
LINE
  5
7CEC
  8
1
 10
2554.2707396304731
 20
1508.4432594016159
 30
0.0
 11
2475.070739630472
 21
1508.4432594016159
 31
0.0
  0
POLYLINE
  5
7CED
  8
1
 66
     1
 10
0.0
 20
0.0
 30
0.0
 70
     1
  0
VERTEX
  5
8118
  8
1
 10
2491.2707396304718
 20
1394.143259401616
 30
0.0
  0
VERTEX
  5
8119
  8
1
 10
2491.2707396304718
 20
1434.143259401616
 30
0.0
  0
VERTEX
  5
811A
  8
1
 10
2493.2707396304731
 20
1434.143259401616
 30
0.0
 42
-0.4142135623730951
  0
VERTEX
  5
811B
  8
1
 10
2496.2707396304718
 20
1431.143259401616
 30
0.0
  0
VERTEX
  5
811C
  8
1
 10
2496.2707396304718
 20
1403.643259401616
 30
0.0
 42
0.4142135623730951
  0
VERTEX
  5
811D
  8
1
 10
2500.7707396304731
 20
1399.143259401616
 30
0.0
  0
VERTEX
  5
811E
  8
1
 10
2528.2707396304718
 20
1399.143259401616
 30
0.0
 42
-0.4142135623730951
  0
VERTEX
  5
811F
  8
1
 10
2531.2707396304718
 20
1396.143259401616
 30
0.0
  0
VERTEX
  5
8120
  8
1
 10
2531.2707396304718
 20
1394.143259401616
 30
0.0
  0
SEQEND
  5
8121
  8
1
  0
LINE
  5
7CF8
  8
1
 10
2839.2707396304731
 20
1024.9432594016171
 30
0.0
 11
2059.2707396304731
 21
1024.9432594016159
 31
0.0
  0
LINE
  5
7CF9
  8
1
 10
2839.2707396304731
 20
1099.9432594016159
 30
0.0
 11
2059.2707396304731
 21
1099.9432594016159
 31
0.0
  0
LINE
  5
7CFA
  8
2
 10
2709.1445546276718
 20
1490.9432594016159
 30
0.0
 11
1964.4851092255969
 21
1490.9432594016159
 31
0.0
  0
LINE
  5
7CFB
  8
1
 10
2504.2707396304731
 20
1394.143259401616
 30
0.0
 11
2554.2707396304741
 21
1394.143259401616
 31
0.0
  0
POLYLINE
  5
7CFC
  8
1
 66
     1
 10
0.0
 20
0.0
 30
0.0
 70
     1
  0
VERTEX
  5
8122
  8
1
 10
2554.2707396304731
 20
1210.9432594016159
 30
0.0
  0
VERTEX
  5
8123
  8
1
 10
2554.2707396304731
 20
1250.9432594016159
 30
0.0
  0
VERTEX
  5
8124
  8
1
 10
2552.2707396304731
 20
1250.9432594016159
 30
0.0
 42
0.4142135623730951
  0
VERTEX
  5
8125
  8
1
 10
2549.2707396304741
 20
1247.9432594016159
 30
0.0
  0
VERTEX
  5
8126
  8
1
 10
2549.2707396304741
 20
1220.4432594016159
 30
0.0
 42
-0.4142135623730951
  0
VERTEX
  5
8127
  8
1
 10
2544.7707396304731
 20
1215.9432594016159
 30
0.0
  0
VERTEX
  5
8128
  8
1
 10
2517.2707396304741
 20
1215.9432594016159
 30
0.0
 42
0.4142135623730951
  0
VERTEX
  5
8129
  8
1
 10
2514.2707396304731
 20
1212.9432594016159
 30
0.0
  0
VERTEX
  5
812A
  8
1
 10
2514.2707396304731
 20
1210.9432594016159
 30
0.0
  0
SEQEND
  5
812B
  8
1
  0
LINE
  5
7D07
  8
1
 10
2504.2707396304731
 20
1388.143259401616
 30
0.0
 11
2554.2707396304741
 21
1388.143259401616
 31
0.0
  0
LINE
  5
7D08
  8
1
 10
2839.2707396304731
 20
1135.9432594016171
 30
0.0
 11
2059.2707396304731
 21
1135.9432594016159
 31
0.0
  0
LINE
  5
7D09
  8
1
 10
2839.2707396304731
 20
1210.9432594016159
 30
0.0
 11
2059.2707396304731
 21
1210.9432594016159
 31
0.0
  0
DIMENSION
  5
7D0A
  8
3
  2
*D5
 10
1553.877730545506
 20
2228.6451113256649
 30
0.0
 11
1153.877730545506
 21
2269.8951113256649
 31
0.0
 70
     0
 13
753.87773054550644
 23
2396.9562521328698
 33
0.0
 14
1553.877730545506
 24
2415.9562521328712
 34
0.0
1001
ACAD
1000
DSTYLE
1002
{
1070
   287
1070
     3
1070
    40
1040
15.0
1070
    43
1040
0.0
1070
   147
1040
1.5
1070
   173
1070
     1
1070
   272
1070
     4
1070
   279
1070
     0
1070
   284
1070
     0
1070
   285
1070
     0
1070
   286
1070
     0
1070
     6
1000
ARROW
1070
     7
1000
ARROW
1002
}
  0
LINE
  5
7D0B
  8
1
 10
1563.877730545506
 20
2323.9562521328698
 30
0.0
 11
1563.877730545506
 21
2415.9562521328698
 31
0.0
  0
LINE
  5
7D0C
  8
1
 10
833.87773054550553
 20
2323.9562521328698
 30
0.0
 11
833.87773054550553
 21
2415.9562521328712
 31
0.0
  0
LINE
  5
7D0D
  8
1
 10
1496.477730545505
 20
2403.9562521328712
 30
0.0
 11
1496.477730545505
 21
2353.9562521328698
 31
0.0
  0
LINE
  5
7D0E
  8
1
 10
1331.2777305455061
 20
2403.9562521328712
 30
0.0
 11
1331.2777305455061
 21
2353.9562521328698
 31
0.0
  0
LINE
  5
7D0F
  8
1
 10
997.37773054550553
 20
2403.9562521328712
 30
0.0
 11
997.37773054550553
 21
2353.9562521328698
 31
0.0
  0
LINE
  5
7D10
  8
1
 10
870.37773054550553
 20
2403.9562521328698
 30
0.0
 11
870.37773054550553
 21
2353.9562521328689
 31
0.0
  0
LINE
  5
7D11
  8
2
 10
1413.877730545506
 20
2684.8932521328702
 30
0.0
 11
1413.877730545506
 21
2348.9216521328699
 31
0.0
  0
LINE
  5
7D12
  8
2
 10
933.87773054550576
 20
3164.137632141541
 30
0.0
 11
933.8777305455053
 21
2314.7899488569628
 31
0.0
  0
LINE
  5
7D13
  8
1
 10
1291.988357341063
 20
1710.9432594016159
 30
0.0
 11
955.48890022054945
 21
1710.9432594016159
 31
0.0
  0
DIMENSION
  5
7D14
  8
3
  2
*D6
 10
707.91882631767567
 20
1973.7043340146349
 30
0.0
 11
1009.703863269112
 21
2014.9543340146349
 31
0.0
 70
     0
  1
604
 13
1311.4889002205491
 23
1735.9432594016159
 33
0.0
 14
707.91882631767567
 24
1472.178306816925
 34
0.0
1001
ACAD
1000
DSTYLE
1002
{
1070
   287
1070
     3
1070
    40
1040
15.0
1070
    43
1040
0.0
1070
   147
1040
1.5
1070
   173
1070
     1
1070
   272
1070
     4
1070
   279
1070
     0
1070
   284
1070
     0
1070
   285
1070
     0
1070
   286
1070
     0
1070
     6
1000
ARROW
1070
     7
1000
ARROW
1002
}
  0
DIMENSION
  5
7D15
  8
3
  2
*D7
 10
1553.8777305455051
 20
902.25874888206465
 30
0.0
 11
1243.8777305455051
 21
943.50874888206465
 31
0.0
 70
     0
 13
933.87773054550553
 23
1010.069973526828
 33
0.0
 14
1553.8777305455051
 24
1024.9432594016159
 34
0.0
1001
ACAD
1000
DSTYLE
1002
{
1070
   287
1070
     4
1070
    40
1040
15.0
1070
    43
1040
0.0
1070
    75
1070
     1
1070
   147
1040
1.5
1070
   173
1070
     1
1070
   272
1070
     4
1070
   279
1070
     1
1070
   284
1070
     0
1070
   285
1070
     0
1070
   286
1070
     0
1070
     6
1000
ARROW
1070
     7
1000
ARROW
1002
}
  0
DIMENSION
  5
7D16
  8
3
  2
*D8
 10
933.87773054550553
 20
1891.6818012167071
 30
0.0
 11
1109.377700325665
 21
1932.9318012167071
 31
0.0
 70
     0
 13
1284.8776701058259
 23
1735.9432594016159
 33
0.0
 14
933.87773054550553
 24
1768.8410074626031
 34
0.0
1001
ACAD
1000
DSTYLE
1002
{
1070
   287
1070
     3
1070
    40
1040
15.0
1070
    43
1040
0.0
1070
   147
1040
1.5
1070
   173
1070
     1
1070
   272
1070
     4
1070
   279
1070
     0
1070
   284
1070
     0
1070
   285
1070
     0
1070
   286
1070
     0
1070
     6
1000
ARROW
1070
     7
1000
ARROW
1002
}
  0
DIMENSION
  5
7D17
  8
3
  2
*D9
 10
959.87773054550553
 20
1794.9116199907339
 30
0.0
 11
1122.377700325665
 21
1836.1616199907339
 31
0.0
 70
     0
 13
1284.8776701058259
 23
1735.9432594016159
 33
0.0
 14
959.87773054550553
 24
1735.9432594016159
 34
0.0
1001
ACAD
1000
DSTYLE
1002
{
1070
   287
1070
     3
1070
    40
1040
15.0
1070
    43
1040
0.0
1070
   147
1040
1.5
1070
   173
1070
     1
1070
   272
1070
     4
1070
   279
1070
     0
1070
   284
1070
     0
1070
   285
1070
     0
1070
   286
1070
     0
1070
     6
1000
ARROW
1070
     7
1000
ARROW
1002
}
  0
LINE
  5
7D18
  8
1
 10
833.87773054550553
 20
2323.9562521328698
 30
0.0
 11
1563.877730545506
 21
2323.9562521328698
 31
0.0
  0
LINE
  5
7D19
  8
1
 10
898.16384143930441
 20
1397.538130394104
 30
0.0
 11
1360.306896886204
 21
1220.8355658903481
 31
0.0
  0
LINE
  5
7D1A
  8
1
 10
950.18199571317064
 20
1589.605161559148
 30
0.0
 11
1438.334128297003
 21
1508.9361126379149
 31
0.0
  0
LINE
  5
7D1B
  8
1
 10
914.9359999560404
 20
1430.334177225129
 30
0.0
 11
1389.238566030705
 21
1282.10372888543
 31
0.0
  0
LINE
  5
7D1C
  8
1
 10
948.11126865620008
 20
1552.8274770411031
 30
0.0
 11
1432.3925375997319
 21
1441.441470063374
 31
0.0
  0
POLYLINE
  5
7D1D
  8
1
 66
     1
 10
0.0
 20
0.0
 30
0.0
  0
VERTEX
  5
8158
  8
1
 10
1291.988357341063
 20
1710.9432594016159
 30
0.0
  0
VERTEX
  5
8159
  8
1
 10
1265.8302394353191
 20
1489.952263301363
 30
0.0
 42
-0.2448603046964227
  0
VERTEX
  5
815A
  8
1
 10
1113.8777305455051
 20
1248.253744014128
 30
0.0
 42
-0.4524303970122726
  0
SEQEND
  5
815B
  8
1
  0
LINE
  5
7D22
  8
1
 10
1241.692613202518
 20
1394.1432594016169
 30
0.0
 11
1083.8777305455051
 21
1394.1432594016169
 31
0.0
  0
LINE
  5
7D23
  8
1
 10
1239.7140972862319
 20
1389.6432594016169
 30
0.0
 11
1083.8777305455051
 21
1389.643259401616
 31
0.0
  0
LINE
  5
7D24
  8
2
 10
1288.7385836538481
 20
1490.9432594016159
 30
0.0
 11
677.41760419501986
 21
1490.9432594016159
 31
0.0
  0
LINE
  5
7D25
  8
1
 10
1553.8777305455051
 20
1135.9432594016159
 30
0.0
 11
753.87773054550553
 21
1135.9432594016159
 31
0.0
  0
LINE
  5
7D26
  8
1
 10
1563.8777305455051
 20
1210.9432594016159
 30
0.0
 11
753.87773054550553
 21
1210.9432594016159
 31
0.0
  0
LINE
  5
7D27
  8
1
 10
931.48890022054945
 20
1732.9432594016159
 30
0.0
 11
1311.4889002205491
 21
1732.9432594016159
 31
0.0
  0
LINE
  5
7D28
  8
1
 10
931.48890022054945
 20
1735.9432594016159
 30
0.0
 11
1311.4889002205491
 21
1735.9432594016159
 31
0.0
  0
ARC
  5
7D29
  8
1
 10
957.87773054550553
 20
1514.9432594016159
 30
0.0
 40
300.56488088068153
 50
269.99999999999972
 51
355.389792504132
  0
LINE
  5
7D2A
  8
1
 10
1553.8777305455051
 20
1099.9432594016159
 30
0.0
 11
753.87773054550553
 21
1099.9432594016159
 31
0.0
  0
LINE
  5
7D2B
  8
1
 10
1553.8777305455051
 20
1024.9432594016159
 30
0.0
 11
753.87773054550553
 21
1024.9432594016159
 31
0.0
  0
DIMENSION
  5
7D2C
  8
3
  2
*D10
 10
435.33339682092031
 20
1735.9432594016159
 30
0.0
 11
394.08339682091997
 21
1380.4432594016159
 31
0.0
 70
     0
 13
753.87773054550587
 23
1024.9432594016159
 33
0.0
 14
931.48890022054945
 24
1735.9432594016159
 34
0.0
 50
90.0
1001
ACAD
1000
DSTYLE
1002
{
1070
   287
1070
     3
1070
    40
1040
15.0
1070
    43
1040
0.0
1070
   147
1040
1.5
1070
   173
1070
     1
1070
   271
1070
     0
1070
   272
1070
     4
1070
   279
1070
     0
1070
   284
1070
     0
1070
   285
1070
     0
1070
   286
1070
     0
1070
     6
1000
ARROW
1070
     7
1000
ARROW
1002
}
  0
DIMENSION
  5
7D2D
  8
3
  2
*D11
 10
575.28853562848371
 20
1135.9432594016159
 30
0.0
 11
534.03853562848349
 21
1313.4432594016159
 31
0.0
 70
     0
 13
677.41760419501986
 23
1490.9432594016159
 33
0.0
 14
753.87773054550553
 24
1135.9432594016159
 34
0.0
 50
90.0
1001
ACAD
1000
DSTYLE
1002
{
1070
   287
1070
     4
1070
    40
1040
15.0
1070
    43
1040
0.0
1070
    75
1070
     1
1070
   147
1040
1.5
1070
   173
1070
     1
1070
   272
1070
     4
1070
   279
1070
     1
1070
   284
1070
     0
1070
   285
1070
     0
1070
   286
1070
     0
1070
     6
1000
ARROW
1070
     7
1000
ARROW
1002
}
  0
ARC
  5
7D2E
  8
1
 10
963.07105858559703
 20
1472.178306816925
 30
0.0
 40
255.15223226792139
 50
172.53965722709589
 51
268.84594406436281
  0
ARC
  5
7D2F
  8
1
 10
933.87773054550553
 20
1490.9432594016159
 30
0.0
 40
100.0
 50
80.616453042858865
 51
249.0754108565159
  0
CIRCLE
  5
7D30
  8
1
 10
933.87773054550553
 20
1490.9432594016159
 30
0.0
 40
63.5
  0
POLYLINE
  5
7D31
  8
1
 66
     1
 10
0.0
 20
0.0
 30
0.0
  0
VERTEX
  5
816D
  8
1
 10
783.8777305455053
 20
1272.4524651385759
 30
0.0
 42
-0.247273813914887
  0
VERTEX
  5
816E
  8
1
 10
699.07102160419436
 20
1500.4358923234331
 30
0.0
 42
-0.377002301875605
  0
VERTEX
  5
816F
  8
1
 10
915.37773054550541
 20
1690.5537356078639
 30
0.0
 42
-0.0479523924775464
  0
VERTEX
  5
8170
  8
1
 10
949.87773054550553
 20
1687.237394826984
 30
0.0
 42
-0.3936265759256324
  0
SEQEND
  5
8171
  8
1
  0
LINE
  5
7D37
  8
1
 10
733.87773054550462
 20
1434.143259401616
 30
0.0
 11
733.87773054550462
 21
1394.143259401616
 31
0.0
  0
LINE
  5
7D38
  8
1
 10
783.87773054550462
 20
1434.143259401616
 30
0.0
 11
783.87773054550553
 21
1210.9432594016159
 31
0.0
  0
LINE
  5
7D39
  8
1
 10
1133.8777305455051
 20
1434.143259401616
 30
0.0
 11
1133.8777305455051
 21
1394.1432594016169
 31
0.0
  0
LINE
  5
7D3A
  8
1
 10
1083.8777305455051
 20
1434.143259401616
 30
0.0
 11
1083.8777305455051
 21
1210.9432594016159
 31
0.0
  0
LINE
  5
7D3B
  8
2
 10
933.87773054550553
 20
1585.082574594092
 30
0.0
 11
933.87773054550553
 21
1010.069973526828
 31
0.0
  0
DIMENSION
  5
7D3C
  8
3
  2
*D12
 10
575.28853562848371
 20
1099.9432594016159
 30
0.0
 11
561.90379594251078
 21
1129.276803354541
 31
0.0
 70
   128
  1
(36)
 13
753.87773054550553
 23
1135.9432594016159
 33
0.0
 14
753.87773054550587
 24
1099.9432594016159
 34
0.0
 50
90.0
1001
ACAD
1000
DSTYLE
1002
{
1070
   287
1070
     4
1070
    40
1040
15.0
1070
    43
1040
0.0
1070
    75
1070
     1
1070
   147
1040
1.5
1070
   173
1070
     1
1070
   272
1070
     4
1070
   279
1070
     1
1070
   284
1070
     0
1070
   285
1070
     0
1070
   286
1070
     0
1070
     6
1000
OPEN
1070
     7
1000
YA_N
1002
}
  0
DIMENSION
  5
7D3D
  8
3
  2
*D13
 10
933.87773054550553
 20
902.25874888206465
 30
0.0
 11
843.87773054550576
 21
943.50874888206465
 31
0.0
 70
     0
 13
753.87773054550587
 23
1024.9432594016159
 33
0.0
 14
933.87773054550553
 24
1010.069973526828
 34
0.0
1001
ACAD
1000
DSTYLE
1002
{
1070
   287
1070
     3
1070
    40
1040
15.0
1070
    43
1040
0.0
1070
   147
1040
1.5
1070
   173
1070
     1
1070
   272
1070
     4
1070
   279
1070
     0
1070
   284
1070
     0
1070
   285
1070
     0
1070
   286
1070
     0
1070
     6
1000
ARROW
1070
     7
1000
ARROW
1002
}
  0
DIMENSION
  5
7D3E
  8
3
  2
*D14
 10
575.28853562848371
 20
1024.9432594016159
 30
0.0
 11
534.03853562848337
 21
912.08611654447361
 31
0.0
 70
     0
 13
753.87773054550587
 23
1099.9432594016159
 33
0.0
 14
753.87773054550587
 24
1024.9432594016159
 34
0.0
 50
90.0
1001
ACAD
1000
DSTYLE
1002
{
1070
   287
1070
     3
1070
    40
1040
15.0
1070
    43
1040
0.0
1070
   147
1040
1.5
1070
   173
1070
     1
1070
   272
1070
     4
1070
   279
1070
     0
1070
   284
1070
     0
1070
   285
1070
     0
1070
   286
1070
     0
1070
     6
1000
YA_N
1070
     7
1000
OPEN
1002
}
  0
LINE
  5
7D3F
  8
1
 10
753.87773054550553
 20
1250.9432594016159
 30
0.0
 11
753.87773054550553
 21
1135.9432594016159
 31
0.0
  0
CIRCLE
  5
7D40
  8
1
 10
575.28853562848371
 20
1099.9432594016159
 30
0.0
 40
3.0
  0
LINE
  5
7D41
  8
1
 10
753.87773054550587
 20
1099.9432594016159
 30
0.0
 11
753.87773054550587
 21
1024.9432594016159
 31
0.0
  0
LINE
  5
7D42
  8
1
 10
783.87773054550553
 20
1215.9432594016159
 30
0.0
 11
753.87773054550553
 21
1215.9432594016159
 31
0.0
  0
LINE
  5
7D43
  8
1
 10
783.87773054550496
 20
1250.9432594016159
 30
0.0
 11
753.87773054550553
 21
1250.9432594016159
 31
0.0
  0
LINE
  5
7D44
  8
1
 10
783.87773054550462
 20
1394.143259401616
 30
0.0
 11
707.65411244947518
 21
1394.143259401616
 31
0.0
  0
LINE
  5
7D45
  8
1
 10
783.87773054550462
 20
1389.643259401616
 30
0.0
 11
709.03097237279405
 21
1389.643259401616
 31
0.0
  0
CIRCLE
  5
7D46
  8
1
 10
933.87773054550553
 20
1310.9432594016159
 30
0.0
 40
65.0
  0
LINE
  5
7D47
  8
2
 10
1003.877730545505
 20
1310.9432594016159
 30
0.0
 11
863.87773054550564
 21
1310.9432594016159
 31
0.0
  0
LINE
  5
7D48
  8
1
 10
1113.8777305455051
 20
1250.9432594016159
 30
0.0
 11
1083.8777305455051
 21
1250.9432594016159
 31
0.0
  0
LINE
  5
7D49
  8
1
 10
1113.8777305455051
 20
1215.9432594016159
 30
0.0
 11
1083.8777305455051
 21
1215.9432594016159
 31
0.0
  0
LINE
  5
7D4A
  8
1
 10
1113.8777305455051
 20
1250.9432594016159
 30
0.0
 11
1113.8777305455051
 21
1210.9432594016159
 31
0.0
  0
DIMENSION
  5
7D4B
  8
1
  2
*D15
 10
707.91882631767567
 20
1891.6818012167071
 30
0.0
 11
820.89827843159048
 21
1932.9318012167071
 31
0.0
 70
     0
 13
933.87773054550553
 23
1768.8410074626031
 33
0.0
 14
707.91882631767567
 24
1472.178306816925
 34
0.0
1001
ACAD
1000
DSTYLE
1002
{
1070
   287
1070
     4
1070
    40
1040
15.0
1070
    43
1040
0.0
1070
    75
1070
     1
1070
   147
1040
1.5
1070
   173
1070
     1
1070
   272
1070
     4
1070
   279
1070
     1
1070
   284
1070
     0
1070
   285
1070
     0
1070
   286
1070
     0
1070
     6
1000
ARROW
1070
     7
1000
ARROW
1002
}
  0
DIMENSION
  5
7D4C
  8
3
  2
*D16
 10
575.28853562848371
 20
1490.9432594016159
 30
0.0
 11
534.03853562848337
 21
1613.4432594016159
 31
0.0
 70
     0
 13
931.48890022054945
 23
1735.9432594016159
 33
0.0
 14
677.41760419501986
 24
1490.9432594016159
 34
0.0
 50
90.0
1001
ACAD
1000
DSTYLE
1002
{
1070
   287
1070
     3
1070
    40
1040
15.0
1070
    43
1040
0.0
1070
   147
1040
1.5
1070
   173
1070
     1
1070
   272
1070
     4
1070
   279
1070
     0
1070
   284
1070
     0
1070
   285
1070
     0
1070
   286
1070
     0
1070
     6
1000
ARROW
1070
     7
1000
ARROW
1002
}
  0
ARC
  5
7D4D
  8
1
 10
909.80202148329738
 20
1477.9403153263911
 30
0.0
 40
201.58952384937541
 50
88.436022235574967
 51
172.20219715607021
  0
LINE
  5
7D4E
  8
1
 10
773.87773054550553
 20
1437.343259401616
 30
0.0
 11
1093.8777305455051
 21
1437.343259401616
 31
0.0
  0
POLYLINE
  5
7D4F
  8
1
 66
     1
 10
0.0
 20
0.0
 30
0.0
 70
     1
  0
VERTEX
  5
81A1
  8
1
 10
1033.8777305455051
 20
1437.343259401616
 30
0.0
  0
VERTEX
  5
81A2
  8
1
 10
833.87773054550553
 20
1437.343259401616
 30
0.0
  0
VERTEX
  5
81A3
  8
1
 10
833.87773054550553
 20
1443.343259401616
 30
0.0
  0
VERTEX
  5
81A4
  8
1
 10
1033.8777305455051
 20
1443.343259401616
 30
0.0
  0
SEQEND
  5
81A5
  8
1
  0
POLYLINE
  5
7D55
  8
1
 66
     1
 10
0.0
 20
0.0
 30
0.0
 70
     1
  0
VERTEX
  5
81A6
  8
1
 10
1033.8777305455051
 20
1437.343259401616
 30
0.0
  0
VERTEX
  5
81A7
  8
1
 10
833.87773054550553
 20
1437.343259401616
 30
0.0
  0
VERTEX
  5
81A8
  8
1
 10
833.87773054550553
 20
1443.343259401616
 30
0.0
  0
VERTEX
  5
81A9
  8
1
 10
1033.8777305455051
 20
1443.343259401616
 30
0.0
  0
SEQEND
  5
81AA
  8
1
  0
LINE
  5
7D5B
  8
1
 10
733.87773054550462
 20
1434.143259401616
 30
0.0
 11
1133.8777305455051
 21
1434.143259401616
 31
0.0
  0
LINE
  5
7D5C
  8
1
 10
773.87773054550553
 20
1437.343259401616
 30
0.0
 11
773.87773054550553
 21
1434.143259401616
 31
0.0
  0
LINE
  5
7D5D
  8
2
 10
933.87773054550553
 20
1768.8410074626031
 30
0.0
 11
933.87773054550553
 21
1604.022501572281
 31
0.0
  0
LINE
  5
7D5E
  8
1
 10
1017.377730545505
 20
1443.343259401616
 30
0.0
 11
963.37773054550553
 21
1443.343259401616
 31
0.0
  0
LINE
  5
7D5F
  8
1
 10
850.37773054550564
 20
1443.343259401616
 30
0.0
 11
904.37773054550553
 21
1443.343259401616
 31
0.0
  0
LINE
  5
7D60
  8
1
 10
933.87773054550553
 20
1590.9432594016159
 30
0.0
 11
933.87773054550553
 21
1590.9432594016159
 31
0.0
  0
LINE
  5
7D61
  8
1
 10
1093.8777305455051
 20
1437.343259401616
 30
0.0
 11
1093.8777305455051
 21
1434.143259401616
 31
0.0
  0
ARC
  5
7D62
  8
1
 10
915.37773054550576
 20
1509.4432594016159
 30
0.0
 40
170.010476206249
 50
75.068939576274744
 51
90.000000000000384
  0
ARC
  5
7D63
  8
1
 10
949.48890022054945
 20
1728.9432594016159
 30
0.0
 40
4.0
 50
0.0
 51
90.0
  0
LINE
  5
7D64
  8
1
 10
956.48890022054945
 20
1677.1648782976979
 30
0.0
 11
956.48890022054945
 21
1735.9432594016159
 31
0.0
  0
LINE
  5
7D65
  8
1
 10
959.87773054550553
 20
1735.9432594016159
 30
0.0
 11
959.87773054550553
 21
1676.322433031489
 31
0.0
  0
LINE
  5
7D66
  8
1
 10
949.87773054550553
 20
1710.9432594016159
 30
0.0
 11
956.48890022054945
 21
1710.9432594016159
 31
0.0
  0
LINE
  5
7D67
  8
1
 10
953.48890022054945
 20
1728.9432594016159
 30
0.0
 11
953.48890022054945
 21
1712.9432594016159
 31
0.0
  0
ARC
  5
7D68
  8
1
 10
955.48890022054945
 20
1712.9432594016159
 30
0.0
 40
2.0
 50
180.0
 51
270.0
  0
LINE
  5
7D69
  8
1
 10
955.48890022054945
 20
1710.9432594016159
 30
0.0
 11
956.48890022054945
 21
1710.9432594016159
 31
0.0
  0
LINE
  5
7D6A
  8
1
 10
949.87773054550553
 20
1710.9432594016159
 30
0.0
 11
949.87773054550553
 21
1687.237394826984
 31
0.0
  0
LINE
  5
7D6B
  8
1
 10
956.48890022054945
 20
1735.9432594016159
 30
0.0
 11
931.48890022054945
 21
1735.9432594016159
 31
0.0
  0
LINE
  5
7D6C
  8
1
 10
931.48890022054945
 20
1735.9432594016159
 30
0.0
 11
931.48890022054945
 21
1734.9432594016159
 31
0.0
  0
ARC
  5
7D6D
  8
1
 10
933.48890022054957
 20
1734.9432594016159
 30
0.0
 40
2.0
 50
180.0
 51
270.0
  0
LINE
  5
7D6E
  8
1
 10
933.48890022054957
 20
1732.9432594016159
 30
0.0
 11
949.48890022054945
 21
1732.9432594016159
 31
0.0
  0
LINE
  5
7D6F
  8
1
 10
997.37773054550553
 20
2353.9562521328698
 30
0.0
 11
870.37773054550553
 21
2353.9562521328689
 31
0.0
  0
LINE
  5
7D70
  8
1
 10
2078.2707396304731
 20
1590.9432594016159
 30
0.0
 11
2078.2707396304741
 21
1210.9432594016159
 31
0.0
  0
LINE
  5
7D71
  8
1
 10
1986.2707396304729
 20
1590.9432594016159
 30
0.0
 11
1986.2707396304729
 21
1210.9432594016159
 31
0.0
  0
LINE
  5
7D72
  8
1
 10
2066.2707396304741
 20
1554.4432594016159
 30
0.0
 11
2066.2707396304741
 21
1427.4432594016159
 31
0.0
  0
LINE
  5
7D73
  8
1
 10
2066.2707396304741
 20
1443.5432594016161
 30
0.0
 11
2066.2707396304741
 21
1278.3432594016169
 31
0.0
  0
LINE
  5
7D74
  8
1
 10
2016.2707396304729
 20
1443.5432594016161
 30
0.0
 11
2016.2707396304729
 21
1278.3432594016169
 31
0.0
  0
LINE
  5
7D75
  8
1
 10
2081.2707396304741
 20
1461.9432594016159
 30
0.0
 11
2081.2707396304741
 21
1259.9432594016159
 31
0.0
  0
LINE
  5
7D76
  8
1
 10
2343.2707396304741
 20
1461.9432594016159
 30
0.0
 11
2343.2707396304741
 21
1259.9432594016159
 31
0.0
  0
LINE
  5
7D77
  8
1
 10
2016.2707396304741
 20
1554.4432594016159
 30
0.0
 11
2016.2707396304741
 21
1427.4432594016159
 31
0.0
  0
ARC
  5
7D78
  8
1
 10
1413.877730545506
 20
1360.9432594016159
 30
0.0
 40
150.0
 50
249.0754108565159
 51
80.616453042858907
  0
CIRCLE
  5
7D79
  8
1
 10
1413.877730545506
 20
1360.9432594016159
 30
0.0
 40
82.599999999999994
  0
LINE
  5
7D7A
  8
2
 10
1413.877730545506
 20
1264.959159401616
 30
0.0
 11
1413.877730545506
 21
1469.4043594016159
 31
0.0
  0
ARC
  5
7D7B
  8
1
 10
1413.877730545506
 20
1360.9432594016159
 30
0.0
 40
100.8
 50
0.0
 51
239.69929999999999
  0
ARC
  5
7D7C
  8
1
 10
1413.877730545506
 20
1360.9432594016159
 30
0.0
 40
97.0
 50
0.0
 51
242.49639999999999
  0
ARC
  5
7D7D
  8
1
 10
1413.877730545506
 20
1360.9432594016159
 30
0.0
 40
100.8
 50
0.0
 51
239.69929999999999
  0
ARC
  5
7D7E
  8
1
 10
1413.877730545506
 20
1360.9432594016159
 30
0.0
 40
97.0
 50
0.0
 51
242.49639999999999
  0
LINE
  5
7D7F
  8
1
 10
2491.2707396304718
 20
1432.843259401616
 30
0.0
 11
2491.2707396304718
 21
1382.843259401616
 31
0.0
  0
LINE
  5
7D80
  8
1
 10
2491.2707396304718
 20
1432.8432594016169
 30
0.0
 11
2491.2707396304718
 21
1392.8432594016169
 31
0.0
  0
LINE
  5
7D81
  8
1
 10
2491.2707396304718
 20
1432.843259401616
 30
0.0
 11
2491.2707396304718
 21
1210.9432594016159
 31
0.0
  0
LINE
  5
7D82
  8
2
 10
2136.2707396304741
 20
1557.208424249882
 30
0.0
 11
2136.2707396304741
 21
1398.146546821034
 31
0.0
  0
LINE
  5
7D83
  8
2
 10
2456.2707396304718
 20
1558.584850853056
 30
0.0
 11
2456.2707396304718
 21
1387.4104193162821
 31
0.0
  0
LINE
  5
7D84
  8
1
 10
1514.7816020141929
 20
1270.9432594016159
 30
0.0
 11
1312.9738590768191
 21
1270.9432594016159
 31
0.0
  0
LINE
  5
7D85
  8
1
 10
1563.8777305455051
 20
1240.9432594016159
 30
0.0
 11
1263.877730545506
 21
1240.9432594016159
 31
0.0
  0
LINE
  5
7D86
  8
2
 10
1309.412530545505
 20
1360.9432594016159
 30
0.0
 11
1519.9805305455061
 21
1360.9432594016159
 31
0.0
  0
ARC
  5
7D87
  8
1
 10
1413.877730545506
 20
1360.9432594016159
 30
0.0
 40
100.8
 50
300.3932999999999
 51
0.0
  0
ARC
  5
7D88
  8
1
 10
1413.877730545506
 20
1360.9432594016159
 30
0.0
 40
97.0
 50
297.61250000000001
 51
0.0
  0
ARC
  5
7D89
  8
1
 10
1413.877730545506
 20
1360.9432594016159
 30
0.0
 40
100.8
 50
300.3932999999999
 51
0.0
  0
ARC
  5
7D8A
  8
1
 10
1413.877730545506
 20
1360.9432594016159
 30
0.0
 40
97.0
 50
297.61250000000001
 51
0.0
  0
LINE
  5
7D8B
  8
1
 10
1325.877730545506
 20
1270.9432594016159
 30
0.0
 11
1365.877730545506
 21
1270.9432594016159
 31
0.0
  0
LINE
  5
7D8C
  8
1
 10
1301.377730545506
 20
1240.9432594016159
 30
0.0
 11
1312.9738590768191
 21
1270.9432594016159
 31
0.0
  0
LINE
  5
7D8D
  8
1
 10
1263.877730545506
 20
1210.9432594016159
 30
0.0
 11
1263.877730545506
 21
1240.9432594016159
 31
0.0
  0
LINE
  5
7D8E
  8
1
 10
1331.7312305455059
 20
1302.5259594016161
 30
0.0
 11
1325.877730545506
 21
1278.9432594016159
 31
0.0
  0
LINE
  5
7D8F
  8
1
 10
1325.877730545506
 20
1270.9432594016159
 30
0.0
 11
1325.877730545506
 21
1278.9432594016159
 31
0.0
  0
LINE
  5
7D90
  8
1
 10
1343.877730545506
 20
1266.5767594016161
 30
0.0
 11
1343.877730545506
 21
1283.480159401616
 31
0.0
  0
LINE
  5
7D91
  8
1
 10
1362.953630545506
 20
1273.9432594016159
 30
0.0
 11
1464.9087305455059
 21
1273.9432594016159
 31
0.0
  0
LINE
  5
7D92
  8
1
 10
1362.953630545506
 20
1273.9432594016159
 30
0.0
 11
1464.9087305455059
 21
1273.9432594016159
 31
0.0
  0
LINE
  5
7D93
  8
1
 10
1369.047230545506
 20
1274.9432594016159
 30
0.0
 11
1459.001630545506
 21
1274.9432594016159
 31
0.0
  0
LINE
  5
7D94
  8
1
 10
1369.047230545506
 20
1274.9432594016159
 30
0.0
 11
1459.001630545506
 21
1274.9432594016159
 31
0.0
  0
LINE
  5
7D95
  8
1
 10
1365.877730545506
 20
1273.9160594016159
 30
0.0
 11
1365.877730545506
 21
1270.9432594016159
 31
0.0
  0
LINE
  5
7D96
  8
1
 10
1501.877730545506
 20
1270.9432594016159
 30
0.0
 11
1461.877730545506
 21
1270.9432594016159
 31
0.0
  0
LINE
  5
7D97
  8
1
 10
1461.877730545506
 20
1273.874259401616
 30
0.0
 11
1461.877730545506
 21
1270.9432594016159
 31
0.0
  0
LINE
  5
7D98
  8
1
 10
1496.024330545506
 20
1302.5259594016161
 30
0.0
 11
1501.877730545506
 21
1278.9432594016159
 31
0.0
  0
LINE
  5
7D99
  8
1
 10
1501.877730545506
 20
1270.9432594016159
 30
0.0
 11
1501.877730545506
 21
1278.9432594016159
 31
0.0
  0
LINE
  5
7D9A
  8
1
 10
1483.877730545506
 20
1266.5767594016161
 30
0.0
 11
1483.877730545506
 21
1283.480159401616
 31
0.0
  0
LINE
  5
7D9B
  8
1
 10
1553.8777305455051
 20
1210.9432594016159
 30
0.0
 11
1553.8777305455051
 21
1135.9432594016159
 31
0.0
  0
LINE
  5
7D9C
  8
1
 10
1553.8777305455051
 20
1099.9432594016159
 30
0.0
 11
1553.8777305455051
 21
1024.9432594016159
 31
0.0
  0
LINE
  5
7D9D
  8
1
 10
1526.3777305455051
 20
1240.9432594016159
 30
0.0
 11
1514.7816020141929
 21
1270.9432594016159
 31
0.0
  0
LINE
  5
7D9E
  8
1
 10
1563.8777305455051
 20
1210.9432594016159
 30
0.0
 11
1563.8777305455051
 21
1240.9432594016159
 31
0.0
  0
LINE
  5
7D9F
  8
1
 10
2343.2707396304741
 20
1259.9432594016159
 30
0.0
 11
2081.2707396304741
 21
1259.9432594016159
 31
0.0
  0
LINE
  5
7DA0
  8
2
 10
2347.207739630474
 20
1360.9432594016159
 30
0.0
 11
2011.2361396304741
 21
1360.9432594016159
 31
0.0
  0
LINE
  5
7DA1
  8
1
 10
2059.2707396304741
 20
1210.9432594016159
 30
0.0
 11
2059.2707396304731
 21
1135.9432594016159
 31
0.0
  0
LINE
  5
7DA2
  8
1
 10
2059.2707396304731
 20
1099.9432594016159
 30
0.0
 11
2059.2707396304741
 21
1024.9432594016159
 31
0.0
  0
LINE
  5
7DA3
  8
1
 10
1986.2707396304729
 20
1210.9432594016159
 30
0.0
 11
2078.2707396304741
 21
1210.9432594016159
 31
0.0
  0
LINE
  5
7DA4
  8
1
 10
2066.2707396304741
 20
1427.4432594016159
 30
0.0
 11
2016.2707396304741
 21
1427.4432594016159
 31
0.0
  0
LINE
  5
7DA5
  8
1
 10
2066.2707396304741
 20
1278.3432594016169
 30
0.0
 11
2016.2707396304729
 21
1278.343259401616
 31
0.0
  0
LINE
  5
7DA6
  8
1
 10
2016.2707396304741
 20
1372.9432594016159
 30
0.0
 11
2016.2707396304741
 21
1348.9432594016159
 31
0.0
  0
LINE
  5
7DA7
  8
1
 10
2098.0707396304729
 20
1259.9432594016159
 30
0.0
 11
2098.0707396304729
 21
1210.9432594016159
 31
0.0
  0
LINE
  5
7DA8
  8
1
 10
2101.2707396304741
 20
1259.9432594016159
 30
0.0
 11
2101.2707396304741
 21
1210.9432594016159
 31
0.0
  0
LINE
  5
7DA9
  8
1
 10
2071.2707396304731
 20
1324.4432594016159
 30
0.0
 11
2071.2707396304731
 21
1397.4432594016159
 31
0.0
  0
LINE
  5
7DAA
  8
1
 10
2066.2707396304741
 20
1373.4432594016159
 30
0.0
 11
2066.2707396304741
 21
1348.4432594016159
 31
0.0
  0
LINE
  5
7DAB
  8
1
 10
2071.2707396304731
 20
1348.4432594016159
 30
0.0
 11
2066.2707396304741
 21
1348.4432594016159
 31
0.0
  0
ARC
  5
7DAC
  8
1
 10
2072.2708396304738
 20
1324.4432594016159
 30
0.0
 40
1.0000999999999991
 50
180.0
 51
269.99650000000003
  0
ARC
  5
7DAD
  8
1
 10
2080.2707396304741
 20
1322.4432594016159
 30
0.0
 40
1.0000999999999991
 50
0.0
 51
89.996500000000054
  0
LINE
  5
7DAE
  8
1
 10
2072.2707396304741
 20
1323.4432594016159
 30
0.0
 11
2080.2707396304741
 21
1323.4432594016159
 31
0.0
  0
LINE
  5
7DAF
  8
1
 10
2071.2707396304731
 20
1373.4432594016159
 30
0.0
 11
2066.2707396304741
 21
1373.4432594016159
 31
0.0
  0
LINE
  5
7DB0
  8
1
 10
2071.2707396304731
 20
1397.4432594016159
 30
0.0
 11
2081.2707396304741
 21
1397.4432594016159
 31
0.0
  0
LINE
  5
7DB1
  8
1
 10
2504.2707396304731
 20
1388.143259401616
 30
0.0
 11
2504.2707396304731
 21
1392.843259401616
 31
0.0
  0
LINE
  5
7DB2
  8
1
 10
2504.2707396304731
 20
1394.143259401616
 30
0.0
 11
2504.2707396304731
 21
1388.143259401616
 31
0.0
  0
LINE
  5
7DB3
  8
1
 10
1284.8776701058259
 20
1735.9432594016159
 30
0.0
 11
1255.881343883437
 21
1490.974296488331
 31
0.0
  0
POLYLINE
  5
7DB4
  8
1
 66
     1
 10
0.0
 20
0.0
 30
0.0
  0
VERTEX
  5
81AB
  8
1
 10
1286.4889002205491
 20
1735.9432594016159
 30
0.0
  0
VERTEX
  5
81AC
  8
1
 10
1269.3529370175461
 20
1591.173915100376
 30
0.0
 42
-0.3908380251735333
  0
SEQEND
  5
81AD
  8
1
  0
LINE
  5
7DB8
  8
1
 10
1286.48890022055
 20
1735.9432594016159
 30
0.0
 11
1257.4701562501141
 21
1490.7849051686289
 31
0.0
  0
ARC
  5
7DB9
  8
1
 10
1293.4889002205491
 20
1728.943259401615
 30
0.0
 40
4.0
 50
90.0
 51
180.0
  0
LINE
  5
7DBA
  8
1
 10
1286.4889002205491
 20
1710.943259401615
 30
0.0
 11
1286.4889002205491
 21
1735.943259401615
 31
0.0
  0
LINE
  5
7DBB
  8
1
 10
1282.9185468720359
 20
1710.9432594016159
 30
0.0
 11
1281.918546872035
 21
1710.9432594016159
 31
0.0
  0
LINE
  5
7DBC
  8
1
 10
1289.48890022055
 20
1728.943259401615
 30
0.0
 11
1289.48890022055
 21
1712.943259401615
 31
0.0
  0
ARC
  5
7DBD
  8
1
 10
1287.4889002205491
 20
1712.943259401615
 30
0.0
 40
2.0
 50
270.0
 51
0.0
  0
LINE
  5
7DBE
  8
1
 10
1287.4889002205491
 20
1710.943259401615
 30
0.0
 11
1286.4889002205491
 21
1710.943259401615
 31
0.0
  0
LINE
  5
7DBF
  8
1
 10
1286.4889002205491
 20
1735.943259401615
 30
0.0
 11
1311.4889002205491
 21
1735.943259401615
 31
0.0
  0
LINE
  5
7DC0
  8
1
 10
1309.4889002205491
 20
1732.943259401615
 30
0.0
 11
1293.4889002205491
 21
1732.943259401615
 31
0.0
  0
LINE
  5
7DC1
  8
1
 10
1311.4889002205491
 20
1735.943259401615
 30
0.0
 11
1311.4889002205491
 21
1734.943259401615
 31
0.0
  0
ARC
  5
7DC2
  8
1
 10
1309.4889002205491
 20
1734.943259401615
 30
0.0
 40
2.0
 50
270.0
 51
0.0
  0
LINE
  5
7DC3
  8
1
 10
1331.2777305455061
 20
2353.9562521328698
 30
0.0
 11
1496.477730545505
 21
2353.9562521328698
 31
0.0
  0
LINE
  5
7DC4
  8
1
 10
1401.877730545506
 20
2353.9562521328698
 30
0.0
 11
1425.877730545506
 21
2353.9562521328698
 31
0.0
  0
LINE
  5
7DC5
  8
1
 10
2343.2707396304741
 20
1461.9432594016159
 30
0.0
 11
2081.2707396304741
 21
1461.9432594016159
 31
0.0
  0
LINE
  5
7DC6
  8
1
 10
2423.970739630473
 20
1473.4432594016159
 30
0.0
 11
2168.5707396304738
 21
1473.4432594016159
 31
0.0
  0
LINE
  5
7DC7
  8
1
 10
2423.970739630473
 20
1508.4432594016159
 30
0.0
 11
2168.5707396304738
 21
1508.4432594016159
 31
0.0
  0
LINE
  5
7DC8
  8
1
 10
1986.2707396304741
 20
1590.9432594016159
 30
0.0
 11
2078.2707396304731
 21
1590.9432594016159
 31
0.0
  0
LINE
  5
7DC9
  8
1
 10
2066.2707396304741
 20
1554.4432594016159
 30
0.0
 11
2016.2707396304741
 21
1554.4432594016159
 31
0.0
  0
LINE
  5
7DCA
  8
1
 10
2066.2707396304741
 20
1443.5432594016161
 30
0.0
 11
2016.2707396304729
 21
1443.5432594016161
 31
0.0
  0
LINE
  5
7DCB
  8
1
 10
2115.7628978502971
 20
1473.4432594016159
 30
0.0
 11
2078.2707396304741
 21
1473.4432594016159
 31
0.0
  0
LINE
  5
7DCC
  8
1
 10
2117.4707396304739
 20
1508.4432594016159
 30
0.0
 11
2078.2707396304731
 21
1508.4432594016159
 31
0.0
  0
LINE
  5
7DCD
  8
1
 10
2117.4707396304739
 20
1486.067275229052
 30
0.0
 11
2117.4707396304739
 21
1518.354404110986
 31
0.0
  0
LINE
  5
7DCE
  8
1
 10
2168.5707396304738
 20
1463.5321146922461
 30
0.0
 11
2168.5707396304738
 21
1518.354404110986
 31
0.0
  0
ARC
  5
7DCF
  8
1
 10
2416.2581728295409
 20
1530.8843161920479
 30
0.0
 40
265.0046083029427
 50
179.34767661318961
 51
194.98943914361499
  0
ARC
  5
7DD0
  8
1
 10
1856.2833064314059
 20
1530.8843161920479
 30
0.0
 40
265.0046083029427
 50
345.01056085638493
 51
0.6523233868103379
  0
LINE
  5
7DD1
  8
1
 10
2160.2707396304741
 20
1462.343259401616
 30
0.0
 11
2112.2707396304741
 21
1462.343259401616
 31
0.0
  0
LINE
  5
7DD2
  8
1
 10
2112.2707396304731
 20
1461.9432594016159
 30
0.0
 11
2112.2707396304741
 21
1462.343259401616
 31
0.0
  0
LINE
  5
7DD3
  8
1
 10
2160.2707396304731
 20
1461.9432594016159
 30
0.0
 11
2160.2707396304741
 21
1462.343259401616
 31
0.0
  0
LINE
  5
7DD4
  8
1
 10
2168.5707396304738
 20
1463.5321146922461
 30
0.0
 11
2159.9553765612868
 21
1463.5321146922461
 31
0.0
  0
ARC
  5
7DD5
  8
1
 10
2138.4670319453348
 20
1512.5083212296011
 30
0.0
 40
24.931864229136519
 50
59.099552968319848
 51
95.053838103948024
  0
ARC
  5
7DD6
  8
1
 10
2134.0744473156128
 20
1512.5083212296011
 30
0.0
 40
24.931864229136519
 50
84.94616189605199
 51
120.9004470316801
  0
LINE
  5
7DD7
  8
1
 10
2142.6226647679032
 20
1537.343259401616
 30
0.0
 11
2142.6226647679032
 21
1545.7046828821269
 31
0.0
  0
LINE
  5
7DD8
  8
1
 10
2137.9776799949759
 20
1537.343259401616
 30
0.0
 11
2142.6226647679032
 21
1537.343259401616
 31
0.0
  0
LINE
  5
7DD9
  8
1
 10
2137.9776799949759
 20
1545.7046828821269
 30
0.0
 11
2137.9776799949759
 21
1537.343259401616
 31
0.0
  0
LINE
  5
7DDA
  8
1
 10
2142.6226647679032
 20
1545.7046828821269
 30
0.0
 11
2137.9776799949759
 21
1545.7046828821269
 31
0.0
  0
LINE
  5
7DDB
  8
1
 10
2120.9915301892579
 20
1518.354404110986
 30
0.0
 11
2117.4707396304739
 21
1518.354404110986
 31
0.0
  0
LINE
  5
7DDC
  8
1
 10
2168.5707396304738
 20
1518.354404110986
 30
0.0
 11
2151.5499490716888
 21
1518.354404110986
 31
0.0
  0
LINE
  5
7DDD
  8
1
 10
2501.2707396304718
 20
1434.143259401616
 30
0.0
 11
2343.2707396304741
 21
1434.143259401616
 31
0.0
  0
LINE
  5
7DDE
  8
1
 10
2501.2707396304718
 20
1437.343259401616
 30
0.0
 11
2343.2707396304741
 21
1437.343259401616
 31
0.0
  0
LINE
  5
7DDF
  8
1
 10
2432.2707396304731
 20
1443.343259401616
 30
0.0
 11
2480.2707396304718
 21
1443.343259401616
 31
0.0
  0
LINE
  5
7DE0
  8
1
 10
2432.2707396304731
 20
1462.343259401616
 30
0.0
 11
2480.2707396304718
 21
1462.343259401616
 31
0.0
  0
ARC
  5
7DE1
  8
1
 10
2176.283306431405
 20
1530.8843161920479
 30
0.0
 40
265.0046083029427
 50
345.01056085638442
 51
0.6523233868105212
  0
LINE
  5
7DE2
  8
1
 10
2423.970739630473
 20
1518.354404110986
 30
0.0
 11
2440.991530189257
 21
1518.354404110986
 31
0.0
  0
LINE
  5
7DE3
  8
1
 10
2432.2707396304731
 20
1443.343259401616
 30
0.0
 11
2480.2707396304718
 21
1443.343259401616
 31
0.0
  0
POLYLINE
  5
7DE4
  8
1
 66
     1
 10
0.0
 20
0.0
 30
0.0
 70
     1
  0
VERTEX
  5
81AE
  8
1
 10
2423.7707396304731
 20
1437.343259401616
 30
0.0
  0
VERTEX
  5
81AF
  8
1
 10
2488.7707396304731
 20
1437.343259401616
 30
0.0
  0
VERTEX
  5
81B0
  8
1
 10
2488.7707396304731
 20
1443.343259401616
 30
0.0
  0
VERTEX
  5
81B1
  8
1
 10
2423.7707396304731
 20
1443.343259401616
 30
0.0
  0
SEQEND
  5
81B2
  8
1
  0
LINE
  5
7DEA
  8
1
 10
2423.970739630473
 20
1463.5321146922461
 30
0.0
 11
2423.970739630473
 21
1518.354404110986
 31
0.0
  0
LINE
  5
7DEB
  8
1
 10
2432.2707396304731
 20
1443.343259401616
 30
0.0
 11
2432.2707396304731
 21
1462.343259401616
 31
0.0
  0
LINE
  5
7DEC
  8
1
 10
2423.970739630473
 20
1463.5321146922461
 30
0.0
 11
2432.586102699659
 21
1463.5321146922461
 31
0.0
  0
LINE
  5
7DED
  8
1
 10
2475.070739630472
 20
1486.067275229052
 30
0.0
 11
2475.070739630472
 21
1518.354404110986
 31
0.0
  0
ARC
  5
7DEE
  8
1
 10
2736.2581728295399
 20
1530.8843161920479
 30
0.0
 40
265.0046083029427
 50
179.34767661318941
 51
194.9894391436155
  0
LINE
  5
7DEF
  8
1
 10
2480.2707396304718
 20
1443.343259401616
 30
0.0
 11
2480.2707396304718
 21
1462.343259401616
 31
0.0
  0
LINE
  5
7DF0
  8
1
 10
2501.2707396304718
 20
1437.343259401616
 30
0.0
 11
2501.2707396304709
 21
1434.143259401616
 31
0.0
  0
ARC
  5
7DF1
  8
1
 10
2458.4670319453339
 20
1512.5083212296011
 30
0.0
 40
24.931864229136519
 50
59.099552968319841
 51
95.053838103948024
  0
ARC
  5
7DF2
  8
1
 10
2454.074447315611
 20
1512.5083212296011
 30
0.0
 40
24.931864229136519
 50
84.94616189605199
 51
120.9004470316801
  0
POLYLINE
  5
7DF3
  8
1
 66
     1
 10
0.0
 20
0.0
 30
0.0
 70
     1
  0
VERTEX
  5
81B3
  8
1
 10
2449.9188144930431
 20
1545.7046828821269
 30
0.0
  0
VERTEX
  5
81B4
  8
1
 10
2454.5637992659699
 20
1545.7046828821269
 30
0.0
  0
VERTEX
  5
81B5
  8
1
 10
2454.5637992659699
 20
1537.343259401616
 30
0.0
  0
VERTEX
  5
81B6
  8
1
 10
2449.9188144930431
 20
1537.343259401616
 30
0.0
  0
SEQEND
  5
81B7
  8
1
  0
LINE
  5
7DF9
  8
1
 10
2471.5499490716879
 20
1518.354404110986
 30
0.0
 11
2475.070739630472
 21
1518.354404110986
 31
0.0
  0
DIMENSION
  5
7DFA
  8
3
  2
*D17
 10
1553.8777305455069
 20
3272.745730846153
 30
0.0
 11
1333.877730545506
 21
3313.995730846153
 31
0.0
 70
     0
 13
1113.8777305455051
 23
3176.9562521328712
 33
0.0
 14
1553.8777305455069
 24
2776.9562521328712
 34
0.0
1001
ACAD
1000
DSTYLE
1002
{
1070
   287
1070
     4
1070
    40
1040
15.0
1070
    43
1040
0.0
1070
    75
1070
     1
1070
   147
1040
1.5
1070
   173
1070
     1
1070
   272
1070
     4
1070
   279
1070
     1
1070
   284
1070
     0
1070
   285
1070
     0
1070
   286
1070
     0
1070
     6
1000
ARROW
1070
     7
1000
ARROW
1002
}
  0
LINE
  5
7DFB
  8
1
 10
833.87773054550553
 20
2415.9562521328712
 30
0.0
 11
1563.877730545506
 21
2415.9562521328712
 31
0.0
  0
LINE
  5
7DFC
  8
1
 10
1093.8777305455051
 20
2436.9562521328698
 30
0.0
 11
1312.877730545506
 21
2436.9562521328698
 31
0.0
  0
LINE
  5
7DFD
  8
1
 10
1286.4889002205491
 20
2891.9562521328698
 30
0.0
 11
956.48890022054945
 21
3131.9562521328712
 31
0.0
  0
LINE
  5
7DFE
  8
1
 10
1286.4889002205491
 20
3131.9562521328712
 30
0.0
 11
956.48890022054945
 21
2891.9562521328712
 31
0.0
  0
LINE
  5
7DFF
  8
1
 10
1286.4889002205491
 20
2891.9562521328698
 30
0.0
 11
956.48890022054945
 21
2891.9562521328712
 31
0.0
  0
LINE
  5
7E00
  8
1
 10
1286.4889002205491
 20
3131.9562521328712
 30
0.0
 11
956.48890022054945
 21
3131.9562521328712
 31
0.0
  0
LINE
  5
7E01
  8
1
 10
1311.4889002205491
 20
2866.9562521328698
 30
0.0
 11
931.48890022054945
 21
2866.9562521328712
 31
0.0
  0
LINE
  5
7E02
  8
1
 10
1311.4889002205491
 20
3156.9562521328712
 30
0.0
 11
931.48890022054945
 21
3156.9562521328712
 31
0.0
  0
LINE
  5
7E03
  8
2
 10
1365.888842817428
 20
3011.9562521328698
 30
0.0
 11
684.27861051928937
 21
3011.9562521328698
 31
0.0
  0
LINE
  5
7E04
  8
1
 10
1113.8777305455051
 20
2776.9562521328712
 30
0.0
 11
1553.8777305455051
 21
2776.9562521328712
 31
0.0
  0
LINE
  5
7E05
  8
1
 10
1113.8777305455051
 20
2736.9562521328698
 30
0.0
 11
1553.8777305455051
 21
2736.9562521328698
 31
0.0
  0
DIMENSION
  5
7E06
  8
3
  2
*D18
 10
616.44724853670914
 20
3176.9562521328712
 30
0.0
 11
575.19724853670868
 21
2786.9562521328698
 31
0.0
 70
     0
 13
753.87773054550644
 23
2396.9562521328698
 33
0.0
 14
753.87773054550553
 24
3176.9562521328712
 34
0.0
 50
90.0
1001
ACAD
1000
DSTYLE
1002
{
1070
   287
1070
     3
1070
    40
1040
15.0
1070
    43
1040
0.0
1070
   147
1040
1.5
1070
   173
1070
     1
1070
   272
1070
     4
1070
   279
1070
     0
1070
   284
1070
     0
1070
   285
1070
     0
1070
   286
1070
     0
1070
     6
1000
ARROW
1070
     7
1000
ARROW
1002
}
  0
LINE
  5
7E07
  8
1
 10
951.37773054550564
 20
2866.9562521328712
 30
0.0
 11
951.37773054550576
 21
2815.4562521328698
 31
0.0
  0
LINE
  5
7E08
  8
1
 10
916.37773054550541
 20
2893.9562521328698
 30
0.0
 11
916.37773054550541
 21
2815.4562521328698
 31
0.0
  0
LINE
  5
7E09
  8
1
 10
753.87773054550587
 20
2893.9562521328698
 30
0.0
 11
753.87773054550644
 21
2396.9562521328698
 31
0.0
  0
LINE
  5
7E0A
  8
1
 10
793.87773054550496
 20
2893.9562521328721
 30
0.0
 11
793.87773054550496
 21
2838.9562521328698
 31
0.0
  0
LINE
  5
7E0B
  8
1
 10
1113.8777305455039
 20
2436.9562521328698
 30
0.0
 11
1113.8777305455051
 21
2866.9562521328712
 31
0.0
  0
LINE
  5
7E0C
  8
1
 10
1073.8777305455039
 20
2838.9562521328698
 30
0.0
 11
1073.8777305455039
 21
2866.9562521328712
 31
0.0
  0
LINE
  5
7E0D
  8
1
 10
916.37773054550576
 20
2441.4562521328712
 30
0.0
 11
833.87773054550576
 21
2441.4562521328712
 31
0.0
  0
LINE
  5
7E0E
  8
1
 10
916.37773054550576
 20
2506.4562521328712
 30
0.0
 11
833.87773054550576
 21
2506.4562521328712
 31
0.0
  0
LINE
  5
7E0F
  8
1
 10
916.37773054550576
 20
2826.4562521328712
 30
0.0
 11
833.87773054550576
 21
2826.4562521328712
 31
0.0
  0
LINE
  5
7E10
  8
1
 10
916.37773054550576
 20
2761.4562521328698
 30
0.0
 11
833.87773054550576
 21
2761.4562521328698
 31
0.0
  0
LINE
  5
7E11
  8
1
 10
773.87773054550598
 20
2838.9562521328698
 30
0.0
 11
1093.877730545506
 21
2838.9562521328698
 31
0.0
  0
LINE
  5
7E12
  8
1
 10
773.87773054550553
 20
2428.9562521328698
 30
0.0
 11
1093.8777305455051
 21
2428.9562521328698
 31
0.0
  0
LINE
  5
7E13
  8
2
 10
1037.7464092341811
 20
2473.9562521328698
 30
0.0
 11
827.69226900773799
 21
2473.9562521328698
 31
0.0
  0
LINE
  5
7E14
  8
2
 10
1037.7464092341811
 20
2793.9562521328698
 30
0.0
 11
827.69226900773799
 21
2793.9562521328698
 31
0.0
  0
LINE
  5
7E15
  8
1
 10
773.87773054550553
 20
2428.9562521328698
 30
0.0
 11
773.87773054550553
 21
2838.9562521328698
 31
0.0
  0
LINE
  5
7E16
  8
1
 10
753.87773054550553
 20
2396.9562521328698
 30
0.0
 11
833.87773054550553
 21
2396.9562521328698
 31
0.0
  0
LINE
  5
7E17
  8
1
 10
753.87773054550644
 20
2436.9562521328698
 30
0.0
 11
773.87773054550553
 21
2436.9562521328698
 31
0.0
  0
POINT
  5
7E18
  8
1
 10
753.87773054550644
 20
2396.9562521328698
 30
0.0
  0
LINE
  5
7E19
  8
1
 10
833.87773054550553
 20
2506.4562521328712
 30
0.0
 11
833.87773054550553
 21
2441.4562521328712
 31
0.0
  0
LINE
  5
7E1A
  8
1
 10
833.87773054550553
 20
2826.4562521328712
 30
0.0
 11
833.87773054550553
 21
2761.4562521328698
 31
0.0
  0
LINE
  5
7E1B
  8
1
 10
916.37773054550541
 20
2772.4562521328712
 30
0.0
 11
916.37773054550541
 21
2495.4562521328698
 31
0.0
  0
LINE
  5
7E1C
  8
1
 10
951.37773054550576
 20
2772.4562521328712
 30
0.0
 11
951.37773054550564
 21
2495.4562521328698
 31
0.0
  0
LINE
  5
7E1D
  8
1
 10
1093.8777305455051
 20
2428.9562521328698
 30
0.0
 11
1093.8777305455051
 21
2838.9562521328698
 31
0.0
  0
LINE
  5
7E1E
  8
1
 10
1017.377730545505
 20
2452.4562521328698
 30
0.0
 11
850.37773054550564
 21
2452.4562521328698
 31
0.0
  0
LINE
  5
7E1F
  8
1
 10
1017.377730545505
 20
2495.4562521328698
 30
0.0
 11
850.37773054550564
 21
2495.4562521328698
 31
0.0
  0
LINE
  5
7E20
  8
1
 10
1033.8777305455051
 20
2441.4562521328712
 30
0.0
 11
951.37773054550564
 21
2441.4562521328712
 31
0.0
  0
LINE
  5
7E21
  8
1
 10
1033.8777305455051
 20
2506.4562521328712
 30
0.0
 11
951.37773054550564
 21
2506.4562521328712
 31
0.0
  0
LINE
  5
7E22
  8
1
 10
997.3777305455053
 20
2403.9562521328712
 30
0.0
 11
870.3777305455053
 21
2403.9562521328698
 31
0.0
  0
LINE
  5
7E23
  8
1
 10
916.37773054550541
 20
2452.4562521328721
 30
0.0
 11
916.37773054550541
 21
2403.9562521328698
 31
0.0
  0
LINE
  5
7E24
  8
1
 10
850.37773054550564
 20
2495.4562521328698
 30
0.0
 11
850.37773054550564
 21
2452.4562521328698
 31
0.0
  0
LINE
  5
7E25
  8
1
 10
951.37773054550564
 20
2452.4562521328698
 30
0.0
 11
951.37773054550564
 21
2403.9562521328698
 31
0.0
  0
LINE
  5
7E26
  8
1
 10
1033.877730545506
 20
2506.4562521328712
 30
0.0
 11
1033.8777305455051
 21
2441.4562521328712
 31
0.0
  0
LINE
  5
7E27
  8
1
 10
1017.377730545505
 20
2495.4562521328698
 30
0.0
 11
1017.377730545505
 21
2452.4562521328698
 31
0.0
  0
LINE
  5
7E28
  8
1
 10
1017.377730545505
 20
2772.4562521328712
 30
0.0
 11
850.37773054550564
 21
2772.4562521328712
 31
0.0
  0
LINE
  5
7E29
  8
1
 10
1017.377730545505
 20
2815.4562521328698
 30
0.0
 11
850.37773054550564
 21
2815.4562521328698
 31
0.0
  0
LINE
  5
7E2A
  8
1
 10
1033.8777305455051
 20
2761.4562521328698
 30
0.0
 11
951.37773054550564
 21
2761.4562521328698
 31
0.0
  0
LINE
  5
7E2B
  8
1
 10
1033.8777305455051
 20
2826.4562521328712
 30
0.0
 11
951.37773054550564
 21
2826.4562521328712
 31
0.0
  0
LINE
  5
7E2C
  8
1
 10
850.37773054550564
 20
2815.4562521328698
 30
0.0
 11
850.37773054550564
 21
2772.4562521328712
 31
0.0
  0
LINE
  5
7E2D
  8
1
 10
1017.377730545505
 20
2815.4562521328698
 30
0.0
 11
1017.377730545505
 21
2772.4562521328712
 31
0.0
  0
LINE
  5
7E2E
  8
1
 10
1033.877730545506
 20
2826.4562521328712
 30
0.0
 11
1033.8777305455051
 21
2761.4562521328698
 31
0.0
  0
DIMENSION
  5
7E2F
  8
3
  2
*D19
 10
1113.8777305455051
 20
3272.745730846153
 30
0.0
 11
933.87773054550553
 21
3313.995730846153
 31
0.0
 70
     0
 13
753.87773054550553
 23
3176.9562521328712
 33
0.0
 14
1113.8777305455051
 24
3176.9562521328712
 34
0.0
1001
ACAD
1000
DSTYLE
1002
{
1070
   287
1070
     3
1070
    40
1040
15.0
1070
    43
1040
0.0
1070
   147
1040
1.5
1070
   173
1070
     1
1070
   272
1070
     4
1070
   279
1070
     0
1070
   284
1070
     0
1070
   285
1070
     0
1070
   286
1070
     0
1070
     6
1000
ARROW
1070
     7
1000
ARROW
1002
}
  0
LINE
  5
7E30
  8
1
 10
931.48890022054945
 20
2893.9562521328698
 30
0.0
 11
705.21882631767585
 21
2893.9562521328698
 31
0.0
  0
LINE
  5
7E31
  8
1
 10
931.48890022054945
 20
3129.9562521328698
 30
0.0
 11
705.21882631767585
 21
3129.9562521328698
 31
0.0
  0
LINE
  5
7E32
  8
1
 10
1073.877730545503
 20
3171.9562521328698
 30
0.0
 11
793.87773054550553
 21
3171.9562521328698
 31
0.0
  0
LINE
  5
7E33
  8
1
 10
931.48890022054945
 20
3131.9562521328712
 30
0.0
 11
793.8777305455053
 21
3131.9562521328712
 31
0.0
  0
LINE
  5
7E34
  8
1
 10
705.21882631767585
 20
2893.9562521328721
 30
0.0
 11
705.21882631767585
 21
3129.9562521328698
 31
0.0
  0
LINE
  5
7E35
  8
1
 10
793.87773054550553
 20
3176.9562521328712
 30
0.0
 11
753.87773054550553
 21
3176.9562521328712
 31
0.0
  0
LINE
  5
7E36
  8
1
 10
753.87773054550553
 20
3176.9562521328712
 30
0.0
 11
753.87773054550553
 21
3129.9562521328698
 31
0.0
  0
POINT
  5
7E37
  8
1
 10
753.87773054550553
 20
3176.9562521328712
 30
0.0
  0
POINT
  5
7E38
  8
1
 10
753.87773054550553
 20
3176.9562521328712
 30
0.0
  0
LINE
  5
7E39
  8
1
 10
793.8777305455053
 20
3176.9562521328712
 30
0.0
 11
793.8777305455053
 21
3129.9562521328698
 31
0.0
  0
LINE
  5
7E3A
  8
1
 10
956.48890022054945
 20
2891.9562521328712
 30
0.0
 11
956.48890022054945
 21
3131.9562521328712
 31
0.0
  0
LINE
  5
7E3B
  8
1
 10
931.48890022054945
 20
2866.9562521328712
 30
0.0
 11
931.48890022054945
 21
3156.9562521328712
 31
0.0
  0
LINE
  5
7E3C
  8
1
 10
1113.8777305455051
 20
3176.9562521328712
 30
0.0
 11
1073.877730545503
 21
3176.9562521328712
 31
0.0
  0
LINE
  5
7E3D
  8
1
 10
1073.8777305455039
 20
3156.9562521328712
 30
0.0
 11
1073.877730545503
 21
3176.9562521328689
 31
0.0
  0
LINE
  5
7E3E
  8
1
 10
1113.8777305455051
 20
3156.9562521328712
 30
0.0
 11
1113.8777305455051
 21
3176.9562521328712
 31
0.0
  0
POINT
  5
7E3F
  8
1
 10
1113.8777305455051
 20
3176.9562521328712
 30
0.0
  0
LINE
  5
7E40
  8
1
 10
1312.877730545506
 20
2418.9562521328698
 30
0.0
 11
1514.877730545506
 21
2418.9562521328698
 31
0.0
  0
LINE
  5
7E41
  8
1
 10
1312.877730545506
 20
2680.9562521328712
 30
0.0
 11
1514.877730545506
 21
2680.9562521328712
 31
0.0
  0
LINE
  5
7E42
  8
1
 10
1312.877730545506
 20
2680.9562521328712
 30
0.0
 11
1312.877730545506
 21
2418.9562521328698
 31
0.0
  0
LINE
  5
7E43
  8
2
 10
1331.2777305455061
 20
2459.9562521328712
 30
0.0
 11
1496.477730545505
 21
2459.9562521328712
 31
0.0
  0
LINE
  5
7E44
  8
1
 10
1331.2777305455061
 20
2403.9562521328712
 30
0.0
 11
1496.477730545505
 21
2403.9562521328712
 31
0.0
  0
LINE
  5
7E45
  8
1
 10
1450.377730545506
 20
2408.9562521328698
 30
0.0
 11
1377.3777305455051
 21
2408.9562521328698
 31
0.0
  0
LINE
  5
7E46
  8
1
 10
1377.3777305455051
 20
2408.9562521328698
 30
0.0
 11
1377.3777305455051
 21
2418.9562521328698
 31
0.0
  0
LINE
  5
7E47
  8
1
 10
1426.377730545506
 20
2408.9562521328698
 30
0.0
 11
1426.377730545506
 21
2403.9562521328712
 31
0.0
  0
LINE
  5
7E48
  8
1
 10
1401.3777305455051
 20
2408.9562521328698
 30
0.0
 11
1401.3777305455051
 21
2403.9562521328712
 31
0.0
  0
LINE
  5
7E49
  8
1
 10
1401.3777305455051
 20
2403.9562521328712
 30
0.0
 11
1426.377730545506
 21
2403.9562521328712
 31
0.0
  0
ARC
  5
7E4A
  8
1
 10
1450.377730545506
 20
2409.956352132871
 30
0.0
 40
1.0000999999999991
 50
270.0
 51
359.99650000000003
  0
ARC
  5
7E4B
  8
1
 10
1452.377730545506
 20
2417.9562521328712
 30
0.0
 40
1.0000999999999991
 50
90.0
 51
179.9965
  0
LINE
  5
7E4C
  8
1
 10
1451.3777305455051
 20
2409.9562521328698
 30
0.0
 11
1451.3777305455051
 21
2417.9562521328712
 31
0.0
  0
DIMENSION
  5
7E4D
  8
3
  2
*D20
 10
1687.0240091509579
 20
2776.9562521328712
 30
0.0
 11
1645.774009150957
 21
2586.9562521328698
 31
0.0
 70
     0
 13
1553.8777305455051
 23
2396.9562521328698
 33
0.0
 14
1553.8777305455069
 24
2776.9562521328712
 34
0.0
 50
90.0
1001
ACAD
1000
DSTYLE
1002
{
1070
   287
1070
     3
1070
    40
1040
15.0
1070
    43
1040
0.0
1070
   147
1040
1.5
1070
   173
1070
     1
1070
   272
1070
     4
1070
   279
1070
     0
1070
   284
1070
     0
1070
   285
1070
     0
1070
   286
1070
     0
1070
     6
1000
ARROW
1070
     7
1000
ARROW
1002
}
  0
LINE
  5
7E4E
  8
1
 10
1514.877730545506
 20
2680.9562521328712
 30
0.0
 11
1514.877730545506
 21
2418.9562521328698
 31
0.0
  0
LINE
  5
7E4F
  8
1
 10
1514.877730545506
 20
2436.9562521328698
 30
0.0
 11
1553.8777305455051
 21
2436.9562521328698
 31
0.0
  0
LINE
  5
7E50
  8
1
 10
1553.877730545506
 20
2415.9562521328712
 30
0.0
 11
1553.877730545506
 21
2436.9562521328698
 31
0.0
  0
LINE
  5
7E51
  8
1
 10
1553.8777305455069
 20
2736.9562521328698
 30
0.0
 11
1553.8777305455069
 21
2776.9562521328712
 31
0.0
  0
POINT
  5
7E52
  8
1
 10
1553.8777305455069
 20
2776.9562521328712
 30
0.0
  0
LINE
  5
7E53
  8
1
 10
1286.4889002205491
 20
2891.9562521328698
 30
0.0
 11
1286.4889002205491
 21
3131.9562521328712
 31
0.0
  0
LINE
  5
7E54
  8
1
 10
1311.4889002205491
 20
2866.9562521328698
 30
0.0
 11
1311.4889002205491
 21
3156.9562521328712
 31
0.0
  0
DIMENSION
  5
7E55
  8
3
  2
*D21
 10
2947.4507111729608
 20
1333.4432594016159
 30
0.0
 11
2906.2007111729599
 21
1490.9432594016171
 31
0.0
 70
     0
 13
2820.2707396304731
 23
1648.4432594016159
 33
0.0
 14
2820.2707396304731
 24
1333.4432594016159
 34
0.0
 50
90.0
1001
ACAD
1000
DSTYLE
1002
{
1070
   287
1070
     3
1070
     3
1000
φ<>
1070
    40
1040
15.0
1070
    43
1040
0.0
1070
   147
1040
1.5
1070
   173
1070
     1
1070
   271
1070
     4
1070
   272
1070
     4
1070
   279
1070
     0
1070
   284
1070
     0
1070
   285
1070
     0
1070
   286
1070
     0
1070
     6
1000
ARROW
1070
     7
1000
ARROW
1002
}
  0
LINE
  5
7E56
  8
1
 10
2794.2707396304731
 20
1740.9432594016159
 30
0.0
 11
2794.2707396304741
 21
1214.9432594016139
 31
0.0
  0
LINE
  5
7E57
  8
1
 10
2554.2707396304731
 20
1740.9432594016159
 30
0.0
 11
2554.2707396304731
 21
1214.9432594016139
 31
0.0
  0
LINE
  5
7E58
  8
1
 10
2792.2707396304741
 20
1740.9432594016159
 30
0.0
 11
2792.2707396304741
 21
1214.9432594016139
 31
0.0
  0
LINE
  5
7E59
  8
1
 10
2556.2707396304731
 20
1740.9432594016159
 30
0.0
 11
2556.2707396304731
 21
1214.9432594016139
 31
0.0
  0
LINE
  5
7E5A
  8
1
 10
2798.2707396304731
 20
1655.4432594016159
 30
0.0
 11
2798.2707396304731
 21
1326.4432594016159
 31
0.0
  0
LINE
  5
7E5B
  8
1
 10
2795.2707396304731
 20
1308.4432594016159
 30
0.0
 11
2795.2707396304731
 21
1666.950730090593
 31
0.0
  0
LINE
  5
7E5C
  8
1
 10
2820.2707396304731
 20
1333.4432594016159
 30
0.0
 11
2820.2707396304731
 21
1649.443286165842
 31
0.0
  0
LINE
  5
7E5D
  8
2
 10
2674.2707396304741
 20
1878.1695775439309
 30
0.0
 11
2674.2707396304741
 21
1877.0698306052279
 31
0.0
  0
DIMENSION
  5
7E5E
  8
3
  2
*D22
 10
2839.2707396304731
 20
899.90249956024866
 30
0.0
 11
2756.7707396304731
 21
941.15249956024866
 31
0.0
 70
     0
 13
2674.2707396304741
 23
1007.670758536352
 33
0.0
 14
2839.2707396304731
 24
1024.9432594016171
 34
0.0
1001
ACAD
1000
DSTYLE
1002
{
1070
   287
1070
     3
1070
    40
1040
15.0
1070
    43
1040
0.0
1070
   147
1040
1.5
1070
   173
1070
     1
1070
   272
1070
     4
1070
   279
1070
     0
1070
   284
1070
     0
1070
   285
1070
     0
1070
   286
1070
     0
1070
     6
1000
ARROW
1070
     7
1000
ARROW
1002
}
  0
LINE
  5
7E5F
  8
1
 10
2839.2707396304731
 20
1210.9432594016159
 30
0.0
 11
2839.2707396304731
 21
1135.9432594016159
 31
0.0
  0
LINE
  5
7E60
  8
1
 10
2839.2707396304731
 20
1099.9432594016159
 30
0.0
 11
2839.2707396304731
 21
1024.9432594016159
 31
0.0
  0
LINE
  5
7E61
  8
1
 10
2554.2707396304731
 20
1224.9432594016139
 30
0.0
 11
2792.2707396304741
 21
1224.9432594016139
 31
0.0
  0
LINE
  5
7E62
  8
1
 10
2554.2707396304731
 20
1214.9432594016139
 30
0.0
 11
2556.2707396304731
 21
1214.9432594016139
 31
0.0
  0
ARC
  5
7E63
  8
1
 10
2796.2707396304741
 20
1310.4432594016159
 30
0.0
 40
2.0
 50
270.0
 51
0.0
  0
POLYLINE
  5
7E64
  8
1
 66
     1
 10
0.0
 20
0.0
 30
0.0
  0
VERTEX
  5
81ED
  8
1
 10
2794.2707396304731
 20
1225.9432594016159
 30
0.0
  0
VERTEX
  5
81EE
  8
1
 10
2794.2707396304731
 20
1250.9432594016159
 30
0.0
  0
VERTEX
  5
81EF
  8
1
 10
2796.2707396304741
 20
1250.9432594016159
 30
0.0
 42
-0.4142135623730951
  0
VERTEX
  5
81F0
  8
1
 10
2799.2707396304741
 20
1247.9432594016159
 30
0.0
  0
VERTEX
  5
81F1
  8
1
 10
2799.2707396304741
 20
1225.9432594016159
 30
0.0
 42
0.4142135623730951
  0
SEQEND
  5
81F2
  8
1
  0
POLYLINE
  5
7E6B
  8
1
 66
     1
 10
0.0
 20
0.0
 30
0.0
  0
VERTEX
  5
81F3
  8
1
 10
2799.2707396304741
 20
1225.9432594016159
 30
0.0
  0
VERTEX
  5
81F4
  8
1
 10
2799.2707396304741
 20
1220.4432594016159
 30
0.0
 42
0.4142135623730951
  0
VERTEX
  5
81F5
  8
1
 10
2803.7707396304731
 20
1215.9432594016159
 30
0.0
  0
VERTEX
  5
81F6
  8
1
 10
2831.2707396304741
 20
1215.9432594016159
 30
0.0
 42
-0.4142135623730951
  0
VERTEX
  5
81F7
  8
1
 10
2834.2707396304731
 20
1212.9432594016159
 30
0.0
  0
VERTEX
  5
81F8
  8
1
 10
2834.2707396304731
 20
1210.9432594016159
 30
0.0
  0
VERTEX
  5
81F9
  8
1
 10
2794.2707396304731
 20
1210.9432594016159
 30
0.0
  0
SEQEND
  5
81FA
  8
1
  0
POLYLINE
  5
7E74
  8
1
 66
     1
 10
0.0
 20
0.0
 30
0.0
  0
VERTEX
  5
81FB
  8
1
 10
2794.2707396304731
 20
1210.9432594016159
 30
0.0
  0
VERTEX
  5
81FC
  8
1
 10
2794.2707396304731
 20
1225.9432594016159
 30
0.0
  0
SEQEND
  5
81FD
  8
1
  0
LINE
  5
7E78
  8
1
 10
2792.2707396304741
 20
1214.9432594016139
 30
0.0
 11
2794.2707396304741
 21
1214.9432594016139
 31
0.0
  0
LINE
  5
7E79
  8
1
 10
2796.2707396304741
 20
1308.4432594016159
 30
0.0
 11
2795.2707396304731
 21
1308.4432594016159
 31
0.0
  0
LINE
  5
7E7A
  8
1
 10
2818.2707396304731
 20
1330.4432594016159
 30
0.0
 11
2802.2707396304731
 21
1330.4432594016159
 31
0.0
  0
LINE
  5
7E7B
  8
1
 10
2798.2707396304731
 20
1326.4432594016159
 30
0.0
 11
2798.2707396304731
 21
1310.4432594016159
 31
0.0
  0
ARC
  5
7E7C
  8
1
 10
2802.2707396304731
 20
1326.4432594016159
 30
0.0
 40
4.0
 50
90.0
 51
180.0
  0
LINE
  5
7E7D
  8
1
 10
2803.0192106064928
 20
1321.9432594016159
 30
0.0
 11
2785.8428692770649
 21
1321.9432594016159
 31
0.0
  0
ARC
  5
7E7E
  8
1
 10
2818.2707396304731
 20
1332.4432594016159
 30
0.0
 40
2.0
 50
270.0
 51
0.0
  0
LINE
  5
7E7F
  8
1
 10
2820.2707396304731
 20
1333.4432594016159
 30
0.0
 11
2820.2707396304731
 21
1332.4432594016159
 31
0.0
  0
DIMENSION
  5
7E80
  8
3
  2
*D23
 10
2674.2707396304741
 20
1902.2831204500619
 30
0.0
 11
2734.7707396304731
 21
1943.5331204500619
 31
0.0
 70
     0
 13
2795.2707396304731
 23
1673.4432594016159
 33
0.0
 14
2674.2707396304741
 24
1878.1695775439309
 34
0.0
1001
ACAD
1000
DSTYLE
1002
{
1070
   287
1070
     3
1070
    40
1040
15.0
1070
    43
1040
0.0
1070
   147
1040
1.5
1070
   173
1070
     1
1070
   271
1070
     4
1070
   272
1070
     4
1070
   279
1070
     0
1070
   284
1070
     0
1070
   285
1070
     0
1070
   286
1070
     0
1070
     6
1000
ARROW
1070
     7
1000
ARROW
1002
}
  0
LINE
  5
7E81
  8
1
 10
2795.2707396304731
 20
1673.4432594016159
 30
0.0
 11
2795.2707396304731
 21
1648.4432594016159
 31
0.0
  0
LINE
  5
7E82
  8
1
 10
2798.2707396304731
 20
1655.4432594016159
 30
0.0
 11
2798.2707396304731
 21
1671.4432594016159
 31
0.0
  0
LINE
  5
7E83
  8
2
 10
2832.0610280296369
 20
1490.9432594016159
 30
0.0
 11
2760.4681217399252
 21
1490.9432594016159
 31
0.0
  0
LINE
  5
7E84
  8
1
 10
2818.2707396304731
 20
1651.4432594016159
 30
0.0
 11
2802.2707396304731
 21
1651.4432594016159
 31
0.0
  0
ARC
  5
7E85
  8
1
 10
2802.2707396304731
 20
1655.4432594016159
 30
0.0
 40
4.0
 50
180.0
 51
270.0
  0
LINE
  5
7E86
  8
1
 10
2803.0192106064928
 20
1659.9432594016159
 30
0.0
 11
2785.8428692770649
 21
1659.9432594016159
 31
0.0
  0
ARC
  5
7E87
  8
1
 10
2818.2707396304731
 20
1649.4432594016159
 30
0.0
 40
2.0
 50
0.0
 51
90.0
  0
LINE
  5
7E88
  8
1
 10
2820.2707396304731
 20
1648.4432594016159
 30
0.0
 11
2820.2707396304731
 21
1649.4432594016159
 31
0.0
  0
DIMENSION
  5
7E89
  8
3
  2
*D24
 10
2792.2707396304741
 20
1815.5468368544989
 30
0.0
 11
2656.092168201902
 21
1815.5468368544989
 31
0.0
 70
   128
 13
2556.2707396304731
 23
1740.9432594016159
 33
0.0
 14
2792.2707396304741
 24
1737.9432594016159
 34
0.0
1001
ACAD
1000
DSTYLE
1002
{
1070
   287
1070
     3
1070
    40
1040
15.0
1070
    43
1040
0.0
1070
   147
1040
1.5
1070
   173
1070
     1
1070
   271
1070
     4
1070
   272
1070
     4
1070
   279
1070
     0
1070
   284
1070
     0
1070
   285
1070
     0
1070
   286
1070
     0
1070
     6
1000
ARROW
1070
     7
1000
ARROW
1002
}
  0
LINE
  5
7E8A
  8
1
 10
2540.6972807323259
 20
1737.9432594016159
 30
0.0
 11
2810.619639274732
 21
1737.9432594016159
 31
0.0
  0
LINE
  5
7E8B
  8
1
 10
2553.2707396304741
 20
1715.9432594016159
 30
0.0
 11
2795.2707396304731
 21
1715.9432594016159
 31
0.0
  0
LINE
  5
7E8C
  8
1
 10
2529.2707396304741
 20
1740.9432594016159
 30
0.0
 11
2819.2707396304731
 21
1740.9432594016159
 31
0.0
  0
POLYLINE
  5
7E8D
  8
1
 66
     1
 10
0.0
 20
0.0
 30
0.0
 70
     1
  0
VERTEX
  5
8210
  8
1
 10
2554.2707396304741
 20
1740.9432594016159
 30
0.0
  0
VERTEX
  5
8211
  8
1
 10
2529.2707396304741
 20
1740.9432594016159
 30
0.0
  0
VERTEX
  5
8212
  8
1
 10
2529.2707396304741
 20
1739.9432594016159
 30
0.0
 42
0.4142135623730951
  0
VERTEX
  5
8213
  8
1
 10
2531.2707396304741
 20
1737.9432594016159
 30
0.0
  0
VERTEX
  5
8214
  8
1
 10
2547.2707396304741
 20
1737.9432594016159
 30
0.0
 42
-0.4142135623730951
  0
VERTEX
  5
8215
  8
1
 10
2551.2707396304741
 20
1733.9432594016159
 30
0.0
  0
VERTEX
  5
8216
  8
1
 10
2551.2707396304741
 20
1717.9432594016159
 30
0.0
 42
0.4142135623730951
  0
VERTEX
  5
8217
  8
1
 10
2553.2707396304741
 20
1715.9432594016159
 30
0.0
  0
VERTEX
  5
8218
  8
1
 10
2554.2707396304741
 20
1715.9432594016159
 30
0.0
  0
SEQEND
  5
8219
  8
1
  0
POLYLINE
  5
7E98
  8
1
 66
     1
 10
0.0
 20
0.0
 30
0.0
 70
     1
  0
VERTEX
  5
821A
  8
1
 10
2794.2707396304731
 20
1740.9432594016159
 30
0.0
  0
VERTEX
  5
821B
  8
1
 10
2819.2707396304731
 20
1740.9432594016159
 30
0.0
  0
VERTEX
  5
821C
  8
1
 10
2819.2707396304731
 20
1739.9432594016159
 30
0.0
 42
-0.4142135623730951
  0
VERTEX
  5
821D
  8
1
 10
2817.2707396304731
 20
1737.9432594016159
 30
0.0
  0
VERTEX
  5
821E
  8
1
 10
2801.2707396304731
 20
1737.9432594016159
 30
0.0
 42
0.4142135623730951
  0
VERTEX
  5
821F
  8
1
 10
2797.2707396304731
 20
1733.9432594016159
 30
0.0
  0
VERTEX
  5
8220
  8
1
 10
2797.2707396304731
 20
1717.9432594016159
 30
0.0
 42
-0.4142135623730951
  0
VERTEX
  5
8221
  8
1
 10
2795.2707396304731
 20
1715.9432594016159
 30
0.0
  0
VERTEX
  5
8222
  8
1
 10
2794.2707396304731
 20
1715.9432594016159
 30
0.0
  0
SEQEND
  5
8223
  8
1
  0
LINE
  5
7EA3
  8
1
 10
2796.2707396304741
 20
1673.4432594016159
 30
0.0
 11
2795.2707396304731
 21
1673.4432594016159
 31
0.0
  0
ARC
  5
7EA4
  8
1
 10
2796.2707396304741
 20
1671.4432594016159
 30
0.0
 40
2.0
 50
0.0
 51
90.0
  0
LINE
  5
80BE
  8
2
 10
2674.2707396304741
 20
1823.7282993583319
 30
0.0
 11
2674.2707396304741
 21
1007.670758536352
 31
0.0
  0
LINE
  5
80BF
  8
4
 10
2775.0
 20
750.0
 30
0.0
 11
2775.0
 21
450.0
 31
0.0
  0
LINE
  5
80C0
  8
4
 10
1725.0
 20
750.0
 30
0.0
 11
1725.0
 21
450.0
 31
0.0
  0
LINE
  5
80C1
  8
4
 10
975.0
 20
750.0
 30
0.0
 11
975.0
 21
450.0
 31
0.0
  0
LINE
  5
80C4
  8
4
 10
975.0
 20
450.0
 30
0.0
 11
2775.0
 21
450.0
 31
0.0
  0
LINE
  5
80C5
  8
4
 10
975.0
 20
600.0
 30
0.0
 11
2775.0
 21
600.0
 31
0.0
  0
TEXT
  5
80C6
  8
4
 10
1032.753121270352
 20
647.31453879991932
 30
0.0
 40
75.0
  1
機器名称
  0
TEXT
  5
80C7
  8
4
 10
1029.3871590371959
 20
482.46773509801642
 30
0.0
 40
75.0
  1
機器型番
  0
TEXT
  5
80C8
  8
4
 10
1732.189592551566
 20
632.47051402253226
 30
0.0
 40
67.5
  1
ミツヤ多翼送風機
  0
TEXT
  5
80C9
  8
4
 10
1779.9817433782209
 20
475.739376419915
 30
0.0
 40
75.0
  1
MF#2-1
  0
TEXT
  5
80CB
  8
4
 10
1170.6581104976051
 20
3575.1432619987731
 30
0.0
 40
80.999999999999986
  1
床置防振ベット
  0
TEXT
  5
80CC
  8
4
 10
474.25138999416959
 20
3800.8214642989469
 30
0.0
 40
108.0
  1
遠心式片吸込片持多翼ファン
  0
LINE
  5
80CD
  8
4
 10
375.0
 20
3704.1131313972069
 30
0.0
 11
2775.0
 21
3704.1131313972069
 31
0.0
  0
LINE
  5
80CE
  8
4
 10
375.0
 20
4004.1131313972069
 30
0.0
 11
2775.0
 21
4004.1131313972069
 31
0.0
  0
LINE
  5
80CF
  8
4
 10
975.0
 20
750.0
 30
0.0
 11
2775.0
 21
750.0
 31
0.0
  0
LINE
  5
80D0
  8
4
 10
375.0
 20
4004.1131313972069
 30
0.0
 11
375.0
 21
3704.1131313972069
 31
0.0
  0
TEXT
  5
80D1
  8
4
 10
516.86986213355146
 20
3573.4792163195152
 30
0.0
 40
80.999999999999986
  1
左回転上向
  0
TEXT
  5
80D2
  8
4
 10
2203.4543388739339
 20
4059.0916222429628
 30
0.0
 40
84.000000000000014
  1
No.
  0
TEXT
  5
80D3
  8
4
 10
1966.944093900019
 20
3575.1432619987731
 30
0.0
 40
80.999999999999986
  1
縮尺：1/15
  0
LINE
  5
80D4
  8
4
 10
2775.0
 20
4004.1131313972069
 30
0.0
 11
2775.0
 21
3704.1131313972069
 31
0.0
  0
LINE
  5
80D5
  8
4
 10
3150.0
 20
4425.0
 30
0.0
 11
3150.0
 21
4425.0
 31
0.0
  0
LINE
  5
80D6
  8
4
 10
2160.9261335397969
 20
4021.895374688102
 30
0.0
 11
2160.9261335397969
 21
4179.9783923246277
 31
0.0
  0
LINE
  5
80D7
  8
4
 10
2160.9261335397969
 20
4179.9783923246277
 30
0.0
 11
2775.0
 21
4179.9783923246277
 31
0.0
  0
LINE
  5
80D8
  8
4
 10
2775.0
 20
4179.9783923246277
 30
0.0
 11
2775.0
 21
4021.895374688102
 31
0.0
  0
LINE
  5
80D9
  8
4
 10
2775.0
 20
4021.895374688102
 30
0.0
 11
2160.9261335397969
 21
4021.895374688102
 31
0.0
  0
LINE
  5
80DA
  8
4
 10
0.0
 20
0.0
 30
0.0
 11
0.0
 21
4425.0
 31
0.0
  0
LINE
  5
80DB
  8
4
 10
0.0
 20
4425.0
 30
0.0
 11
3150.0
 21
4425.0
 31
0.0
  0
LINE
  5
80DC
  8
4
 10
3150.0
 20
4425.0
 30
0.0
 11
3150.0
 21
0.0
 31
0.0
  0
LINE
  5
80DD
  8
4
 10
3150.0
 20
0.0
 30
0.0
 11
0.0
 21
0.0
 31
0.0
  0
ENDSEC
  0
EOF
