  0
SECTION
  2
HEADER
  9
$ACADVER
  1
AC1009
  9
$INSBASE
 10
0.0
 20
0.0
 30
0.0
  9
$EXTMIN
 10
0.0
 20
0.0
 30
0.0
  9
$EXTMAX
 10
3150.0
 20
4425.0
 30
0.0
  9
$LIMMIN
 10
0.0
 20
0.0
  9
$LIMMAX
 10
297.0
 20
210.0
  9
$ORTHOMODE
 70
     0
  9
$REGENMODE
 70
     1
  9
$FILLMODE
 70
     0
  9
$QTEXTMODE
 70
     0
  9
$MIRRTEXT
 70
     1
  9
$DRAGMODE
 70
     2
  9
$LTSCALE
 40
100.0
  9
$OSMODE
 70
    37
  9
$ATTMODE
 70
     1
  9
$TEXTSIZE
 40
180.0
  9
$TRACEWID
 40
0.05
  9
$TEXTSTYLE
  7
STANDARD
  9
$CLAYER
  8
4
  9
$CELTYPE
  6
BYLAYER
  9
$CECOLOR
 62
   256
  9
$DIMSCALE
 40
15.0
  9
$DIMASZ
 40
2.0
  9
$DIMEXO
 40
0.5
  9
$DIMDLI
 40
10.0
  9
$DIMRND
 40
0.0
  9
$DIMDLE
 40
0.0
  9
$DIMEXE
 40
1.0
  9
$DIMTP
 40
1.0
  9
$DIMTM
 40
1.0
  9
$DIMTXT
 40
3.0
  9
$DIMCEN
 40
0.0
  9
$DIMTSZ
 40
0.0
  9
$DIMTOL
 70
     0
  9
$DIMLIM
 70
     0
  9
$DIMTIH
 70
     0
  9
$DIMTOH
 70
     0
  9
$DIMSE1
 70
     0
  9
$DIMSE2
 70
     0
  9
$DIMTAD
 70
     1
  9
$DIMZIN
 70
     8
  9
$DIMBLK
  1

  9
$DIMASO
 70
     1
  9
$DIMSHO
 70
     1
  9
$DIMPOST
  1

  9
$DIMAPOST
  1

  9
$DIMALT
 70
     0
  9
$DIMALTD
 70
     2
  9
$DIMALTF
 40
0.039
  9
$DIMLFAC
 40
1.0
  9
$DIMTOFL
 70
     1
  9
$DIMTVP
 40
0.0
  9
$DIMTIX
 70
     0
  9
$DIMSOXD
 70
     0
  9
$DIMSAH
 70
     1
  9
$DIMBLK1
  1
OPEN
  9
$DIMBLK2
  1
OPEN
  9
$DIMSTYLE
  2
IGA
  9
$DIMCLRD
 70
     0
  9
$DIMCLRE
 70
     0
  9
$DIMCLRT
 70
     0
  9
$DIMTFAC
 40
10.0
  9
$DIMGAP
 40
1.0
  9
$LUNITS
 70
     2
  9
$LUPREC
 70
     3
  9
$SKETCHINC
 40
0.1
  9
$FILLETRAD
 40
50.0
  9
$AUNITS
 70
     0
  9
$AUPREC
 70
     0
  9
$MENU
  1
acad
  9
$ELEVATION
 40
0.0
  9
$PELEVATION
 40
0.0
  9
$THICKNESS
 40
0.0
  9
$LIMCHECK
 70
     0
  9
$BLIPMODE
 70
     0
  9
$CHAMFERA
 40
0.5
  9
$CHAMFERB
 40
0.5
  9
$SKPOLY
 70
     0
  9
$TDCREATE
 40
2451019.5564371529
  9
$TDUPDATE
 40
2454953.7524023368
  9
$TDINDWG
 40
0.0400301852
  9
$TDUSRTIMER
 40
0.0400301852
  9
$USRTIMER
 70
     1
  9
$ANGBASE
 50
0.0
  9
$ANGDIR
 70
     0
  9
$PDMODE
 70
     0
  9
$PDSIZE
 40
0.0
  9
$PLINEWID
 40
0.0
  9
$COORDS
 70
     1
  9
$SPLFRAME
 70
     0
  9
$SPLINETYPE
 70
     6
  9
$SPLINESEGS
 70
     8
  9
$ATTDIA
 70
     0
  9
$ATTREQ
 70
     1
  9
$HANDLING
 70
 10241
  9
$HANDSEED
  5
81FA
  9
$SURFTAB1
 70
     6
  9
$SURFTAB2
 70
     6
  9
$SURFTYPE
 70
     6
  9
$SURFU
 70
     6
  9
$SURFV
 70
     6
  9
$UCSNAME
  2

  9
$UCSORG
 10
0.0
 20
0.0
 30
0.0
  9
$UCSXDIR
 10
1.0
 20
0.0
 30
0.0
  9
$UCSYDIR
 10
0.0
 20
1.0
 30
0.0
  9
$PUCSNAME
  2

  9
$PUCSORG
 10
0.0
 20
0.0
 30
0.0
  9
$PUCSXDIR
 10
1.0
 20
0.0
 30
0.0
  9
$PUCSYDIR
 10
0.0
 20
1.0
 30
0.0
  9
$USERI1
 70
     0
  9
$USERI2
 70
     0
  9
$USERI3
 70
     0
  9
$USERI4
 70
     0
  9
$USERI5
 70
     0
  9
$USERR1
 40
0.0
  9
$USERR2
 40
0.0
  9
$USERR3
 40
0.0
  9
$USERR4
 40
0.0
  9
$USERR5
 40
0.0
  9
$WORLDVIEW
 70
     1
  9
$SHADEDGE
 70
     3
  9
$SHADEDIF
 70
    70
  9
$TILEMODE
 70
     1
  9
$MAXACTVP
 70
    16
  9
$PLIMCHECK
 70
     0
  9
$PEXTMIN
 10
1.0000000000000000E+020
 20
1.0000000000000000E+020
 30
1.0000000000000000E+020
  9
$PEXTMAX
 10
-1.0000000000000000E+020
 20
-1.0000000000000000E+020
 30
-1.0000000000000000E+020
  9
$PLIMMIN
 10
0.0
 20
0.0
  9
$PLIMMAX
 10
12.0
 20
9.0
  9
$UNITMODE
 70
     0
  9
$VISRETAIN
 70
     0
  9
$PLINEGEN
 70
     0
  9
$PSLTSCALE
 70
     1
  0
ENDSEC
  0
SECTION
  2
TABLES
  0
TABLE
  2
VPORT
 70
     2
  0
VPORT
  2
*ACTIVE
 70
     0
 10
0.0
 20
0.0
 11
1.0
 21
1.0
 12
5304.9149382770529
 22
2212.5000103027569
 13
0.0
 23
0.0
 14
10.0
 24
10.0
 15
10.0
 25
10.0
 16
0.0
 26
0.0
 36
1.0
 17
0.0
 27
0.0
 37
0.0
 40
4458.9223245254034
 41
3.1666666666666661
 42
50.0
 43
0.0
 44
0.0
 50
0.0
 51
0.0
 71
     0
 72
   100
 73
     1
 74
     0
 75
     0
 76
     0
 77
     0
 78
     0
  0
ENDTAB
  0
TABLE
  2
LTYPE
 70
     2
  0
LTYPE
  2
CONTINUOUS
 70
     0
  3
Solid line
 72
    65
 73
     0
 40
0.0
  0
LTYPE
  2
CENTER
 70
     0
  3
____ _ ____ _ ____ _ ____ _ ____ _ ____ _ ____ 
 72
    65
 73
     4
 40
2.0
 49
1.25
 49
-0.25
 49
0.25
 49
-0.25
  0
ENDTAB
  0
TABLE
  2
LAYER
 70
     6
  0
LAYER
  2
0
 70
     0
 62
     7
  6
CONTINUOUS
  0
LAYER
  2
3
 70
     0
 62
     2
  6
CONTINUOUS
  0
LAYER
  2
2
 70
     0
 62
     3
  6
CENTER
  0
LAYER
  2
1
 70
     0
 62
     4
  6
CONTINUOUS
  0
LAYER
  2
4
 70
     0
 62
     7
  6
CONTINUOUS
  0
LAYER
  2
DEFPOINTS
 70
     0
 62
     7
  6
CONTINUOUS
  0
ENDTAB
  0
TABLE
  2
STYLE
 70
     1
  0
STYLE
  2
STANDARD
 70
     0
 40
0.0
 41
1.0
 50
0.0
 71
     0
 42
180.0
  3
simplex.shx
  4
extfont.shx
  0
ENDTAB
  0
TABLE
  2
VIEW
 70
     0
  0
ENDTAB
  0
TABLE
  2
UCS
 70
     0
  0
ENDTAB
  0
TABLE
  2
APPID
 70
     1
  0
APPID
  2
ACAD
 70
     0
  0
ENDTAB
  0
TABLE
  2
DIMSTYLE
 70
     2
  0
DIMSTYLE
  2
IGA
 70
     0
  3

  4

  5

  6
OPEN
  7
OPEN
 40
2.0
 41
2.0
 42
0.5
 43
10.0
 44
1.0
 45
0.0
 46
0.0
 47
1.0
 48
1.0
140
3.0
141
0.0
142
0.0
143
0.03937
144
1.0
145
0.0
146
10.0
147
1.0
 71
     0
 72
     0
 73
     0
 74
     0
 75
     0
 76
     0
 77
     1
 78
     8
170
     0
171
     2
172
     0
173
     1
174
     0
175
     0
176
     0
177
     0
178
     0
  0
DIMSTYLE
  2
DIA1
 70
     0
  3

  4

  5
ARROW
  6

  7

 40
1.0
 41
2.0
 42
1.0
 43
10.0
 44
1.0
 45
0.0
 46
0.0
 47
0.0
 48
0.0
140
2.5
141
0.0
142
0.0
143
25.399999999999999
144
1.0
145
0.0
146
1.0
147
0.09
 71
     0
 72
     0
 73
     0
 74
     0
 75
     0
 76
     0
 77
     1
 78
     8
170
     0
171
     2
172
     1
173
     0
174
     0
175
     0
176
     2
177
     2
178
     2
  0
ENDTAB
  0
ENDSEC
  0
SECTION
  2
BLOCKS
  0
BLOCK
  8
0
  2
$MODEL_SPACE
 70
     0
 10
0.0
 20
0.0
 30
0.0
  3
$MODEL_SPACE
  1

  0
ENDBLK
  5
1B
  8
0
  0
BLOCK
 67
     1
  8
0
  2
$PAPER_SPACE
 70
     0
 10
0.0
 20
0.0
 30
0.0
  3
$PAPER_SPACE
  1

  0
ENDBLK
  5
18
 67
     1
  8
0
  0
BLOCK
  8
0
  2
YA_N
 70
     0
 10
0.0
 20
0.0
 30
0.0
  3
YA_N
  1

  0
ENDBLK
  5
79FE
  8
0
  0
BLOCK
  8
0
  2
ARROW
 70
     0
 10
0.0
 20
0.0
 30
0.0
  3
ARROW
  1

  0
LINE
  5
7A00
  8
0
 10
-0.9999999999999991
 20
0.1666666667000003
 30
0.0
 11
0.0
 21
0.0
 31
0.0
  0
LINE
  5
7A01
  8
0
 10
-0.9999999999999991
 20
0.0
 30
0.0
 11
0.0
 21
0.0
 31
0.0
  0
LINE
  5
7A02
  8
0
 10
-0.9999999999999991
 20
-0.1666666667000003
 30
0.0
 11
0.0
 21
0.0
 31
0.0
  0
ENDBLK
  5
7A04
  8
0
  0
BLOCK
  8
0
  2
_OPEN
 70
     0
 10
0.0
 20
0.0
 30
0.0
  3
_OPEN
  1

  0
LINE
  5
7A12
  8
0
  6
BYBLOCK
 62
     0
 10
-1.0
 20
0.1666666666666666
 30
0.0
 11
0.0
 21
0.0
 31
0.0
  0
LINE
  5
7A13
  8
0
  6
BYBLOCK
 62
     0
 10
0.0
 20
0.0
 30
0.0
 11
-1.0
 21
-0.1666666666666666
 31
0.0
  0
LINE
  5
7A14
  8
0
  6
BYBLOCK
 62
     0
 10
0.0
 20
0.0
 30
0.0
 11
-1.0
 21
0.0
 31
0.0
  0
ENDBLK
  5
7A16
  8
0
  0
BLOCK
  8
0
  2
*D3
 70
     1
 10
0.0
 20
0.0
 30
0.0
  3
*D3
  1

  0
LINE
  5
80DA
  8
3
 62
     2
 10
2787.8368359525762
 20
2042.9414135886871
 30
0.0
 11
2787.8368359525762
 21
2077.2662146289299
 31
0.0
  0
LINE
  5
80DB
  8
3
 62
     2
 10
2099.8368359525748
 20
1593.8681393497741
 30
0.0
 11
2099.8368359525748
 21
2077.2662146289299
 31
0.0
  0
LINE
  5
80DC
  8
3
 62
     2
 10
2757.8368359525748
 20
2062.2662146289299
 30
0.0
 11
2129.8368359525748
 21
2062.2662146289299
 31
0.0
  0
INSERT
  5
80DD
  8
3
 62
     2
  2
ARROW
 10
2787.8368359525762
 20
2062.2662146289299
 30
0.0
 41
30.0
 42
30.0
 43
30.0
  0
INSERT
  5
80DE
  8
3
 62
     2
  2
ARROW
 10
2099.8368359525748
 20
2062.2662146289299
 30
0.0
 41
30.0
 42
30.0
 43
30.0
 50
180.0
  0
TEXT
  8
3
  40
37.5
  5
81E4
  62
2
  72
0
  71
0
 10
2368.84
 20
2037.14
 30
0.000000
  1
688
  0
POINT
  5
80E0
  8
DEFPOINTS
 62
     0
 10
2787.8368359525762
 20
2027.9414135886859
 30
0.0
  0
POINT
  5
80E1
  8
DEFPOINTS
 62
     0
 10
2099.8368359525748
 20
1578.8681393497741
 30
0.0
  0
POINT
  5
80E2
  8
DEFPOINTS
 62
     0
 10
2099.8368359525748
 20
2062.2662146289299
 30
0.0
  0
ENDBLK
  5
8096
  8
0
  0
BLOCK
  8
0
  2
*D4
 70
     1
 10
0.0
 20
0.0
 30
0.0
  3
*D4
  1

  0
LINE
  5
80E3
  8
3
 62
     2
 10
2172.8368359525748
 20
1037.8681393497729
 30
0.0
 11
2172.8368359525748
 21
881.50659304032297
 31
0.0
  0
LINE
  5
80E4
  8
3
 62
     2
 10
2787.8368359525762
 20
1012.366310078963
 30
0.0
 11
2787.8368359525762
 21
881.50659304032297
 31
0.0
  0
LINE
  5
80E5
  8
3
 62
     2
 10
2202.8368359525748
 20
896.50659304032297
 30
0.0
 11
2757.8368359525748
 21
896.50659304032297
 31
0.0
  0
INSERT
  5
80E6
  8
3
 62
     2
  2
ARROW
 10
2172.8368359525748
 20
896.50659304032297
 30
0.0
 41
30.0
 42
30.0
 43
30.0
 50
180.0
  0
INSERT
  5
80E7
  8
3
 62
     2
  2
ARROW
 10
2787.8368359525762
 20
896.50659304032297
 30
0.0
 41
30.0
 42
30.0
 43
30.0
  0
TEXT
  8
3
  40
37.5
  5
81E5
  62
2
  72
0
  71
0
 10
2405.34
 20
871.382
 30
0.000000
  1
615
  0
POINT
  5
80E9
  8
DEFPOINTS
 62
     0
 10
2172.8368359525748
 20
1052.8681393497729
 30
0.0
  0
POINT
  5
80EA
  8
DEFPOINTS
 62
     0
 10
2787.8368359525762
 20
1027.3663100789629
 30
0.0
  0
POINT
  5
80EB
  8
DEFPOINTS
 62
     0
 10
2787.8368359525762
 20
896.50659304032297
 30
0.0
  0
ENDBLK
  5
7F82
  8
0
  0
BLOCK
  8
0
  2
*D5
 70
     1
 10
0.0
 20
0.0
 30
0.0
  3
*D5
  1

  0
LINE
  5
80F1
  8
3
 62
     2
 10
920.23632790398824
 20
2369.8811320810269
 30
0.0
 11
920.23632790398824
 21
2201.5699912738228
 31
0.0
  0
LINE
  5
80F2
  8
3
 62
     2
 10
1720.236327903988
 20
2388.8811320810282
 30
0.0
 11
1720.236327903988
 21
2201.5699912738228
 31
0.0
  0
LINE
  5
80F3
  8
3
 62
     2
 10
950.23632790398813
 20
2216.5699912738228
 30
0.0
 11
1690.236327903988
 21
2216.5699912738228
 31
0.0
  0
INSERT
  5
80F4
  8
3
 62
     2
  2
ARROW
 10
920.23632790398824
 20
2216.5699912738228
 30
0.0
 41
30.0
 42
30.0
 43
30.0
 50
180.0
  0
INSERT
  5
80F5
  8
3
 62
     2
  2
ARROW
 10
1720.236327903988
 20
2216.5699912738228
 30
0.0
 41
30.0
 42
30.0
 43
30.0
  0
TEXT
  8
3
  40
37.5
  5
81E6
  62
2
  72
0
  71
0
 10
1245.24
 20
2191.44
 30
0.000000
  1
800
  0
POINT
  5
80F7
  8
DEFPOINTS
 62
     0
 10
920.23632790398824
 20
2384.8811320810269
 30
0.0
  0
POINT
  5
80F8
  8
DEFPOINTS
 62
     0
 10
1720.236327903988
 20
2403.8811320810282
 30
0.0
  0
POINT
  5
80F9
  8
DEFPOINTS
 62
     0
 10
1720.236327903988
 20
2216.5699912738228
 30
0.0
  0
ENDBLK
  5
7F8D
  8
0
  0
BLOCK
  8
0
  2
*D6
 70
     1
 10
0.0
 20
0.0
 30
0.0
  3
*D6
  1

  0
LINE
  5
80FA
  8
3
 62
     2
 10
1735.2363279039871
 20
2384.8811320810269
 30
0.0
 11
1868.382606509439
 21
2384.8811320810269
 31
0.0
  0
LINE
  5
80FB
  8
3
 62
     2
 10
1735.2363279039889
 20
2764.8811320810282
 30
0.0
 11
1868.3826065094399
 21
2764.8811320810282
 31
0.0
  0
LINE
  5
80FC
  8
3
 62
     2
 10
1853.382606509439
 20
2414.8811320810282
 30
0.0
 11
1853.382606509439
 21
2734.8811320810282
 31
0.0
  0
INSERT
  5
80FD
  8
3
 62
     2
  2
ARROW
 10
1853.382606509439
 20
2384.8811320810269
 30
0.0
 41
30.0
 42
30.0
 43
30.0
 50
270.0
  0
INSERT
  5
80FE
  8
3
 62
     2
  2
ARROW
 10
1853.382606509439
 20
2764.8811320810282
 30
0.0
 41
30.0
 42
30.0
 43
30.0
 50
90.0
  0
TEXT
  8
3
  40
37.5
  5
81E7
  62
2
  72
0
  71
0
 10
1737.13
 20
2508.51
 30
0.000000
  1
380
  0
POINT
  5
8100
  8
DEFPOINTS
 62
     0
 10
1720.2363279039871
 20
2384.8811320810269
 30
0.0
  0
POINT
  5
8101
  8
DEFPOINTS
 62
     0
 10
1720.2363279039889
 20
2764.8811320810282
 30
0.0
  0
POINT
  5
8102
  8
DEFPOINTS
 62
     0
 10
1853.382606509439
 20
2764.8811320810282
 30
0.0
  0
ENDBLK
  5
7F98
  8
0
  0
BLOCK
  8
0
  2
*D7
 70
     1
 10
0.0
 20
0.0
 30
0.0
  3
*D7
  1

  0
LINE
  5
8103
  8
3
 62
     2
 10
905.23632790398824
 20
2384.8811320810269
 30
0.0
 11
767.80584589519083
 21
2384.8811320810269
 31
0.0
  0
LINE
  5
8104
  8
3
 62
     2
 10
905.23632790398733
 20
3164.8811320810282
 30
0.0
 11
767.80584589519094
 21
3164.8811320810282
 31
0.0
  0
LINE
  5
8105
  8
3
 62
     2
 10
782.80584589519083
 20
2414.8811320810282
 30
0.0
 11
782.80584589519094
 21
3134.8811320810282
 31
0.0
  0
INSERT
  5
8106
  8
3
 62
     2
  2
ARROW
 10
782.80584589519083
 20
2384.8811320810269
 30
0.0
 41
30.0
 42
30.0
 43
30.0
 50
270.0
  0
INSERT
  5
8107
  8
3
 62
     2
  2
ARROW
 10
782.80584589519094
 20
3164.8811320810282
 30
0.0
 41
30.0
 42
30.0
 43
30.0
 50
90.0
  0
TEXT
  8
3
  40
37.5
  5
81E8
  62
2
  72
0
  71
0
 10
666.556
 20
2708.51
 30
0.000000
  1
780
  0
POINT
  5
8109
  8
DEFPOINTS
 62
     0
 10
920.23632790398824
 20
2384.8811320810269
 30
0.0
  0
POINT
  5
810A
  8
DEFPOINTS
 62
     0
 10
920.23632790398733
 20
3164.8811320810282
 30
0.0
  0
POINT
  5
810B
  8
DEFPOINTS
 62
     0
 10
782.80584589519094
 20
3164.8811320810282
 30
0.0
  0
ENDBLK
  5
7FA3
  8
0
  0
BLOCK
  8
0
  2
*D8
 70
     1
 10
0.0
 20
0.0
 30
0.0
  3
*D8
  1

  0
LINE
  5
810C
  8
3
 62
     2
 10
855.23632790398733
 20
1871.4793090248179
 30
0.0
 11
855.23632790398733
 21
2078.6576444421112
 31
0.0
  0
LINE
  5
810D
  8
3
 62
     2
 10
1730.2363279039871
 20
1283.8681393497741
 30
0.0
 11
1730.2363279039871
 21
2078.6576444421112
 31
0.0
  0
LINE
  5
810E
  8
3
 62
     2
 10
885.23632790398744
 20
2063.6576444421112
 30
0.0
 11
1700.2363279039871
 21
2063.6576444421112
 31
0.0
  0
INSERT
  5
810F
  8
3
 62
     2
  2
ARROW
 10
855.23632790398733
 20
2063.6576444421112
 30
0.0
 41
30.0
 42
30.0
 43
30.0
 50
180.0
  0
INSERT
  5
8110
  8
3
 62
     2
  2
ARROW
 10
1730.2363279039871
 20
2063.6576444421112
 30
0.0
 41
30.0
 42
30.0
 43
30.0
  0
TEXT
  8
3
  40
37.5
  5
81E9
  62
2
  72
0
  71
0
 10
1217.74
 20
2038.53
 30
0.000000
  1
875
  0
POINT
  5
8112
  8
DEFPOINTS
 62
     0
 10
855.23632790398733
 20
1856.4793090248179
 30
0.0
  0
POINT
  5
8113
  8
DEFPOINTS
 62
     0
 10
1730.2363279039871
 20
1268.8681393497741
 30
0.0
  0
POINT
  5
8114
  8
DEFPOINTS
 62
     0
 10
1730.2363279039871
 20
2063.6576444421112
 30
0.0
  0
ENDBLK
  5
7FAE
  8
0
  0
BLOCK
  8
0
  2
*D9
 70
     1
 10
0.0
 20
0.0
 30
0.0
  3
*D9
  1

  0
LINE
  5
8115
  8
3
 62
     2
 10
1720.236327903988
 20
1037.8681393497741
 30
0.0
 11
1720.236327903988
 21
882.18067731406109
 31
0.0
  0
LINE
  5
8116
  8
3
 62
     2
 10
1100.2363279039871
 20
1012.366310078963
 30
0.0
 11
1100.2363279039871
 21
882.18067731406109
 31
0.0
  0
LINE
  5
8117
  8
3
 62
     2
 10
1690.236327903988
 20
897.18067731406109
 30
0.0
 11
1130.2363279039871
 21
897.18067731406109
 31
0.0
  0
INSERT
  5
8118
  8
3
 62
     2
  2
ARROW
 10
1720.236327903988
 20
897.18067731406109
 30
0.0
 41
30.0
 42
30.0
 43
30.0
  0
INSERT
  5
8119
  8
3
 62
     2
  2
ARROW
 10
1100.2363279039871
 20
897.18067731406109
 30
0.0
 41
30.0
 42
30.0
 43
30.0
 50
180.0
  0
TEXT
  8
3
  40
37.5
  5
81EA
  62
2
  72
0
  71
0
 10
1335.24
 20
872.056
 30
0.000000
  1
620
  0
POINT
  5
811B
  8
DEFPOINTS
 62
     0
 10
1720.236327903988
 20
1052.8681393497741
 30
0.0
  0
POINT
  5
811C
  8
DEFPOINTS
 62
     0
 10
1100.2363279039871
 20
1027.3663100789629
 30
0.0
  0
POINT
  5
811D
  8
DEFPOINTS
 62
     0
 10
1100.2363279039871
 20
897.18067731406109
 30
0.0
  0
ENDBLK
  5
7FB9
  8
0
  0
BLOCK
  8
0
  2
*D10
 70
     1
 10
0.0
 20
0.0
 30
0.0
  3
*D10
  1

  0
LINE
  5
811E
  8
3
 62
     2
 10
1373.8012087846689
 20
1517.8681393497741
 30
0.0
 11
1373.8012087846689
 21
1977.1211654150691
 31
0.0
  0
LINE
  5
811F
  8
3
 62
     2
 10
1130.2363279039871
 20
1962.1211654150679
 30
0.0
 11
1343.8012087846689
 21
1962.1211654150679
 31
0.0
  0
INSERT
  5
8120
  8
3
 62
     2
  2
ARROW
 10
1100.2363279039871
 20
1962.1211654150679
 30
0.0
 41
30.0
 42
30.0
 43
30.0
 50
180.0
  0
INSERT
  5
8121
  8
3
 62
     2
  2
ARROW
 10
1373.8012087846689
 20
1962.1211654150679
 30
0.0
 41
30.0
 42
30.0
 43
30.0
  0
TEXT
  8
3
  40
37.5
  5
81EB
  62
2
  72
0
  71
0
 10
1162.02
 20
1937.00
 30
0.000000
  1
274
  0
POINT
  5
8123
  8
DEFPOINTS
 62
     0
 10
1100.2363279039871
 20
1862.9525264663971
 30
0.0
  0
POINT
  5
8124
  8
DEFPOINTS
 62
     0
 10
1373.8012087846689
 20
1502.8681393497741
 30
0.0
  0
POINT
  5
8125
  8
DEFPOINTS
 62
     0
 10
1373.8012087846689
 20
1962.1211654150679
 30
0.0
  0
ENDBLK
  5
7FC3
  8
0
  0
BLOCK
  8
0
  2
*D11
 70
     1
 10
0.0
 20
0.0
 30
0.0
  3
*D11
  1

  0
LINE
  5
8126
  8
3
 62
     2
 10
905.23632790398733
 20
1163.8681393497741
 30
0.0
 11
627.63196086758944
 21
1163.8681393497741
 31
0.0
  0
LINE
  5
8127
  8
3
 62
     2
 10
642.63196086758956
 20
1448.8681393497741
 30
0.0
 11
642.63196086758944
 21
1193.8681393497741
 31
0.0
  0
INSERT
  5
8128
  8
3
 62
     2
  2
ARROW
 10
642.63196086758956
 20
1478.8681393497741
 30
0.0
 41
30.0
 42
30.0
 43
30.0
 50
90.0
  0
INSERT
  5
8129
  8
3
 62
     2
  2
ARROW
 10
642.63196086758944
 20
1163.8681393497741
 30
0.0
 41
30.0
 42
30.0
 43
30.0
 50
270.0
  0
TEXT
  8
3
  40
37.5
  5
81EC
  62
2
  72
0
  71
0
 10
526.382
 20
1254.99
 30
0.000000
  1
315
  0
POINT
  5
812B
  8
DEFPOINTS
 62
     0
 10
843.77620155350166
 20
1478.8681393497741
 30
0.0
  0
POINT
  5
812C
  8
DEFPOINTS
 62
     0
 10
920.23632790398733
 20
1163.8681393497741
 30
0.0
  0
POINT
  5
812D
  8
DEFPOINTS
 62
     0
 10
642.63196086758944
 20
1163.8681393497741
 30
0.0
  0
ENDBLK
  5
7FCD
  8
0
  0
BLOCK
  8
0
  2
*D12
 70
     1
 10
0.0
 20
0.0
 30
0.0
  3
*D12
  1

  0
LINE
  5
812E
  8
3
 62
     2
 10
905.23632790398779
 20
1052.8681393497741
 30
0.0
 11
429.500562338051
 21
1052.8681393497741
 31
0.0
  0
LINE
  5
812F
  8
3
 62
     2
 10
840.23632790398733
 20
1856.4793090248179
 30
0.0
 11
429.50056233805111
 21
1856.4793090248179
 31
0.0
  0
LINE
  5
8130
  8
3
 62
     2
 10
444.50056233805088
 20
1082.8681393497741
 30
0.0
 11
444.50056233805111
 21
1826.4793090248179
 31
0.0
  0
INSERT
  5
8131
  8
3
 62
     2
  2
ARROW
 10
444.50056233805088
 20
1052.8681393497741
 30
0.0
 41
30.0
 42
30.0
 43
30.0
 50
270.0
  0
INSERT
  5
8132
  8
3
 62
     2
  2
ARROW
 10
444.50056233805111
 20
1856.4793090248179
 30
0.0
 41
30.0
 42
30.0
 43
30.0
 50
90.0
  0
TEXT
  8
3
  40
37.5
  5
81ED
  62
2
  72
0
  71
0
 10
328.251
 20
1388.30
 30
0.000000
  1
804
  0
POINT
  5
8134
  8
DEFPOINTS
 62
     0
 10
920.23632790398767
 20
1052.8681393497741
 30
0.0
  0
POINT
  5
8135
  8
DEFPOINTS
 62
     0
 10
855.23632790398733
 20
1856.4793090248179
 30
0.0
  0
POINT
  5
8136
  8
DEFPOINTS
 62
     0
 10
444.50056233805111
 20
1856.4793090248179
 30
0.0
  0
ENDBLK
  5
7FD8
  8
0
  0
BLOCK
  8
0
  2
*D13
 70
     1
 10
0.0
 20
0.0
 30
0.0
  3
*D13
  1

  0
LINE
  5
8137
  8
3
 62
     2
 10
905.23632790398779
 20
1127.8681393497741
 30
0.0
 11
627.63196086758944
 21
1127.8681393497741
 31
0.0
  0
LINE
  5
8138
  8
3
 62
     2
 10
642.63196086758944
 20
1193.8681393497741
 30
0.0
 11
642.63196086758944
 21
1223.8681393497741
 31
0.0
  0
LINE
  5
8139
  8
3
 62
     2
 10
642.63196086758944
 20
1097.8681393497741
 30
0.0
 11
642.63196086758944
 21
1067.8681393497729
 31
0.0
  0
LINE
  5
813A
  8
3
 62
     2
 10
642.63196086758944
 20
1145.8681393497741
 30
0.0
 11
565.31053229616077
 21
1169.0645679212021
 31
0.0
  0
LINE
  5
813B
  8
3
 62
     2
 10
565.31053229616077
 20
1169.0645679212021
 30
0.0
 11
565.310532296161
 21
1322.9931393497741
 31
0.0
  0
TEXT
  8
3
  40
37.5
  5
81EE
  62
2
  72
0
  71
0
 10
439.239
 20
1179.65
 30
0.000000
  1
(36)
  0
LINE
  5
813D
  8
3
 62
     2
 10
642.63196086758944
 20
1163.8681393497741
 30
0.0
 11
642.63196086758944
 21
1127.8681393497741
 31
0.0
  0
LINE
  5
813E
  8
3
 62
     2
 10
642.63196086758944
 20
1163.8681393497741
 30
0.0
 11
642.63196086758944
 21
1127.8681393497741
 31
0.0
  0
INSERT
  5
813F
  8
3
 62
     2
  2
_OPEN
 10
642.63196086758944
 20
1163.8681393497741
 30
0.0
 41
30.0
 42
30.0
 43
30.0
 50
270.0
  0
INSERT
  5
8140
  8
3
 62
     2
  2
YA_N
 10
642.63196086758944
 20
1127.8681393497741
 30
0.0
 41
30.0
 42
30.0
 43
30.0
 50
90.0
  0
POINT
  5
8141
  8
DEFPOINTS
 62
     0
 10
920.23632790398733
 20
1163.8681393497741
 30
0.0
  0
POINT
  5
8142
  8
DEFPOINTS
 62
     0
 10
920.23632790398767
 20
1127.8681393497741
 30
0.0
  0
POINT
  5
8143
  8
DEFPOINTS
 62
     0
 10
642.63196086758944
 20
1127.8681393497741
 30
0.0
  0
ENDBLK
  5
7FE6
  8
0
  0
BLOCK
  8
0
  2
*D14
 70
     1
 10
0.0
 20
0.0
 30
0.0
  3
*D14
  1

  0
LINE
  5
8144
  8
3
 62
     2
 10
905.23632790398779
 20
1127.8681393497741
 30
0.0
 11
627.63196086758944
 21
1127.8681393497741
 31
0.0
  0
LINE
  5
8145
  8
3
 62
     2
 10
905.23632790398779
 20
1052.8681393497741
 30
0.0
 11
627.63196086758944
 21
1052.8681393497741
 31
0.0
  0
LINE
  5
8146
  8
3
 62
     2
 10
642.63196086758944
 20
1157.8681393497741
 30
0.0
 11
642.63196086758944
 21
1187.8681393497741
 31
0.0
  0
LINE
  5
8147
  8
3
 62
     2
 10
642.63196086758944
 20
1022.868139349774
 30
0.0
 11
642.63196086758944
 21
887.15385363548853
 31
0.0
  0
LINE
  5
8148
  8
3
 62
     2
 10
642.63196086758944
 20
1127.8681393497741
 30
0.0
 11
642.63196086758944
 21
1052.8681393497741
 31
0.0
  0
INSERT
  5
8149
  8
3
 62
     2
  2
YA_N
 10
642.63196086758944
 20
1127.8681393497741
 30
0.0
 41
30.0
 42
30.0
 43
30.0
 50
270.0
  0
INSERT
  5
814A
  8
3
 62
     2
  2
_OPEN
 10
642.63196086758944
 20
1052.8681393497741
 30
0.0
 41
30.0
 42
30.0
 43
30.0
 50
90.0
  0
TEXT
  8
3
  40
37.5
  5
81EF
  62
2
  72
0
  71
0
 10
526.382
 20
873.636
 30
0.000000
  1
75
  0
POINT
  5
814C
  8
DEFPOINTS
 62
     0
 10
920.23632790398767
 20
1127.8681393497741
 30
0.0
  0
POINT
  5
814D
  8
DEFPOINTS
 62
     0
 10
920.23632790398767
 20
1052.8681393497741
 30
0.0
  0
POINT
  5
814E
  8
DEFPOINTS
 62
     0
 10
642.63196086758944
 20
1052.8681393497741
 30
0.0
  0
ENDBLK
  5
7FF3
  8
0
  0
BLOCK
  8
0
  2
*D15
 70
     1
 10
0.0
 20
0.0
 30
0.0
  3
*D15
  1

  0
LINE
  5
814F
  8
3
 62
     2
 10
1100.2363279039871
 20
1012.366310078963
 30
0.0
 11
1100.2363279039871
 21
882.18067731406109
 31
0.0
  0
LINE
  5
8150
  8
3
 62
     2
 10
920.23632790398767
 20
1037.8681393497741
 30
0.0
 11
920.23632790398767
 21
882.18067731406109
 31
0.0
  0
LINE
  5
8151
  8
3
 62
     2
 10
1070.2363279039871
 20
897.18067731406109
 30
0.0
 11
950.23632790398779
 21
897.18067731406109
 31
0.0
  0
INSERT
  5
8152
  8
3
 62
     2
  2
ARROW
 10
1100.2363279039871
 20
897.18067731406109
 30
0.0
 41
30.0
 42
30.0
 43
30.0
  0
INSERT
  5
8153
  8
3
 62
     2
  2
ARROW
 10
920.23632790398767
 20
897.18067731406109
 30
0.0
 41
30.0
 42
30.0
 43
30.0
 50
180.0
  0
TEXT
  8
3
  40
37.5
  5
81F0
  62
2
  72
0
  71
0
 10
935.236
 20
872.056
 30
0.000000
  1
180
  0
POINT
  5
8155
  8
DEFPOINTS
 62
     0
 10
1100.2363279039871
 20
1027.3663100789629
 30
0.0
  0
POINT
  5
8156
  8
DEFPOINTS
 62
     0
 10
920.23632790398767
 20
1052.8681393497741
 30
0.0
  0
POINT
  5
8157
  8
DEFPOINTS
 62
     0
 10
920.23632790398767
 20
897.18067731406109
 30
0.0
  0
ENDBLK
  5
8000
  8
0
  0
BLOCK
  8
0
  2
*D16
 70
     1
 10
0.0
 20
0.0
 30
0.0
  3
*D16
  1

  0
LINE
  5
8162
  8
3
 62
     2
 10
855.23632790398733
 20
1871.4793090248179
 30
0.0
 11
855.23632790398733
 21
1977.1211654150691
 31
0.0
  0
LINE
  5
8163
  8
3
 62
     2
 10
1100.2363279039871
 20
1877.9525264663971
 30
0.0
 11
1100.2363279039871
 21
1977.1211654150691
 31
0.0
  0
LINE
  5
8164
  8
3
 62
     2
 10
885.23632790398744
 20
1962.1211654150679
 30
0.0
 11
1070.2363279039871
 21
1962.1211654150679
 31
0.0
  0
INSERT
  5
8165
  8
3
 62
     2
  2
ARROW
 10
855.23632790398733
 20
1962.1211654150679
 30
0.0
 41
30.0
 42
30.0
 43
30.0
 50
180.0
  0
INSERT
  5
8166
  8
3
 62
     2
  2
ARROW
 10
1100.2363279039871
 20
1962.1211654150679
 30
0.0
 41
30.0
 42
30.0
 43
30.0
  0
TEXT
  8
3
  40
37.5
  5
81F1
  62
2
  72
0
  71
0
 10
902.736
 20
1937.00
 30
0.000000
  1
245
  0
POINT
  5
8168
  8
DEFPOINTS
 62
     0
 10
855.23632790398733
 20
1856.4793090248179
 30
0.0
  0
POINT
  5
8169
  8
DEFPOINTS
 62
     0
 10
1100.2363279039871
 20
1862.9525264663971
 30
0.0
  0
POINT
  5
816A
  8
DEFPOINTS
 62
     0
 10
1100.2363279039871
 20
1962.1211654150679
 30
0.0
  0
ENDBLK
  5
800B
  8
0
  0
BLOCK
  8
0
  2
*D17
 70
     1
 10
0.0
 20
0.0
 30
0.0
  3
*D17
  1

  0
LINE
  5
816E
  8
3
 62
     2
 10
840.23632790398733
 20
1829.8681393497741
 30
0.0
 11
627.63196086758956
 21
1829.8681393497741
 31
0.0
  0
LINE
  5
816F
  8
3
 62
     2
 10
828.77620155350166
 20
1478.8681393497741
 30
0.0
 11
627.63196086758944
 21
1478.8681393497741
 31
0.0
  0
LINE
  5
8170
  8
3
 62
     2
 10
642.63196086758956
 20
1799.8681393497741
 30
0.0
 11
642.63196086758944
 21
1508.8681393497741
 31
0.0
  0
INSERT
  5
8171
  8
3
 62
     2
  2
ARROW
 10
642.63196086758956
 20
1829.8681393497741
 30
0.0
 41
30.0
 42
30.0
 43
30.0
 50
90.0
  0
INSERT
  5
8172
  8
3
 62
     2
  2
ARROW
 10
642.63196086758944
 20
1478.8681393497741
 30
0.0
 41
30.0
 42
30.0
 43
30.0
 50
270.0
  0
TEXT
  8
3
  40
37.5
  5
81F2
  62
2
  72
0
  71
0
 10
526.382
 20
1587.99
 30
0.000000
  1
351
  0
POINT
  5
8174
  8
DEFPOINTS
 62
     0
 10
855.23632790398733
 20
1829.8681393497741
 30
0.0
  0
POINT
  5
8175
  8
DEFPOINTS
 62
     0
 10
843.77620155350166
 20
1478.8681393497741
 30
0.0
  0
POINT
  5
8176
  8
DEFPOINTS
 62
     0
 10
642.63196086758944
 20
1478.8681393497741
 30
0.0
  0
ENDBLK
  5
8016
  8
0
  0
BLOCK
  8
0
  2
*D18
 70
     1
 10
0.0
 20
0.0
 30
0.0
  3
*D18
  1

  0
LINE
  5
8177
  8
3
 62
     2
 10
840.23632790398733
 20
1829.8681393497741
 30
0.0
 11
728.14149099987674
 21
1829.8681393497741
 31
0.0
  0
LINE
  5
8178
  8
3
 62
     2
 10
840.23632790398733
 20
1504.8681393497741
 30
0.0
 11
728.14149099987651
 21
1504.8681393497741
 31
0.0
  0
LINE
  5
8179
  8
3
 62
     2
 10
743.14149099987674
 20
1799.8681393497741
 30
0.0
 11
743.14149099987662
 21
1534.8681393497741
 31
0.0
  0
INSERT
  5
817A
  8
3
 62
     2
  2
ARROW
 10
743.14149099987674
 20
1829.8681393497741
 30
0.0
 41
30.0
 42
30.0
 43
30.0
 50
90.0
  0
INSERT
  5
817B
  8
3
 62
     2
  2
ARROW
 10
743.14149099987662
 20
1504.8681393497741
 30
0.0
 41
30.0
 42
30.0
 43
30.0
 50
270.0
  0
TEXT
  8
3
  40
37.5
  5
81F3
  62
2
  72
0
  71
0
 10
626.891
 20
1600.99
 30
0.000000
  1
325
  0
POINT
  5
817D
  8
DEFPOINTS
 62
     0
 10
855.23632790398733
 20
1829.8681393497741
 30
0.0
  0
POINT
  5
817E
  8
DEFPOINTS
 62
     0
 10
855.23632790398733
 20
1504.8681393497741
 30
0.0
  0
POINT
  5
817F
  8
DEFPOINTS
 62
     0
 10
743.14149099987662
 20
1504.8681393497741
 30
0.0
  0
ENDBLK
  5
8021
  8
0
  0
BLOCK
  8
0
  2
*D19
 70
     1
 10
0.0
 20
0.0
 30
0.0
  3
*D19
  1

  0
LINE
  5
818A
  8
3
 62
     2
 10
920.23632790398733
 20
3179.8811320810282
 30
0.0
 11
920.23632790398733
 21
3275.670610794311
 31
0.0
  0
LINE
  5
818B
  8
3
 62
     2
 10
1280.2363279039871
 20
3179.8811320810282
 30
0.0
 11
1280.2363279039871
 21
3275.670610794311
 31
0.0
  0
LINE
  5
818C
  8
3
 62
     2
 10
950.23632790398722
 20
3260.670610794311
 30
0.0
 11
1250.2363279039871
 21
3260.670610794311
 31
0.0
  0
INSERT
  5
818D
  8
3
 62
     2
  2
ARROW
 10
920.23632790398733
 20
3260.670610794311
 30
0.0
 41
30.0
 42
30.0
 43
30.0
 50
180.0
  0
INSERT
  5
818E
  8
3
 62
     2
  2
ARROW
 10
1280.2363279039871
 20
3260.670610794311
 30
0.0
 41
30.0
 42
30.0
 43
30.0
  0
TEXT
  8
3
  40
37.5
  5
81F4
  62
2
  72
0
  71
0
 10
1025.24
 20
3235.55
 30
0.000000
  1
360
  0
POINT
  5
8190
  8
DEFPOINTS
 62
     0
 10
920.23632790398733
 20
3164.8811320810282
 30
0.0
  0
POINT
  5
8191
  8
DEFPOINTS
 62
     0
 10
1280.2363279039871
 20
3164.8811320810282
 30
0.0
  0
POINT
  5
8192
  8
DEFPOINTS
 62
     0
 10
1280.2363279039871
 20
3260.670610794311
 30
0.0
  0
ENDBLK
  5
802C
  8
0
  0
BLOCK
  8
0
  2
*D20
 70
     1
 10
0.0
 20
0.0
 30
0.0
  3
*D20
  1

  0
LINE
  5
8193
  8
3
 62
     2
 10
1720.2363279039889
 20
2779.8811320810282
 30
0.0
 11
1720.2363279039889
 21
3275.670610794311
 31
0.0
  0
LINE
  5
8194
  8
3
 62
     2
 10
1310.2363279039871
 20
3260.670610794311
 30
0.0
 11
1690.2363279039889
 21
3260.670610794311
 31
0.0
  0
INSERT
  5
8195
  8
3
 62
     2
  2
ARROW
 10
1280.2363279039871
 20
3260.670610794311
 30
0.0
 41
30.0
 42
30.0
 43
30.0
 50
180.0
  0
INSERT
  5
8196
  8
3
 62
     2
  2
ARROW
 10
1720.2363279039889
 20
3260.670610794311
 30
0.0
 41
30.0
 42
30.0
 43
30.0
  0
TEXT
  8
3
  40
37.5
  5
81F5
  62
2
  72
0
  71
0
 10
1425.24
 20
3235.55
 30
0.000000
  1
440
  0
POINT
  5
8198
  8
DEFPOINTS
 62
     0
 10
1280.2363279039871
 20
3164.8811320810282
 30
0.0
  0
POINT
  5
8199
  8
DEFPOINTS
 62
     0
 10
1720.2363279039889
 20
2764.8811320810282
 30
0.0
  0
POINT
  5
819A
  8
DEFPOINTS
 62
     0
 10
1720.2363279039889
 20
3260.670610794311
 30
0.0
  0
ENDBLK
  5
8036
  8
0
  0
BLOCK
  8
0
  2
*D21
 70
     1
 10
0.0
 20
0.0
 30
0.0
  3
*D21
  1

  0
LINE
  5
819B
  8
3
 62
     2
 10
2948.8368359525762
 20
1636.3681393497741
 30
0.0
 11
3076.0168074950629
 21
1636.3681393497741
 31
0.0
  0
LINE
  5
819C
  8
3
 62
     2
 10
2948.8368359525762
 20
1321.3681393497741
 30
0.0
 11
3076.0168074950629
 21
1321.3681393497741
 31
0.0
  0
LINE
  5
819D
  8
3
 62
     2
 10
3061.0168074950629
 20
1606.3681393497741
 30
0.0
 11
3061.0168074950629
 21
1351.3681393497741
 31
0.0
  0
INSERT
  5
819E
  8
3
 62
     2
  2
ARROW
 10
3061.0168074950629
 20
1636.3681393497741
 30
0.0
 41
30.0
 42
30.0
 43
30.0
 50
90.0
  0
INSERT
  5
819F
  8
3
 62
     2
  2
ARROW
 10
3061.0168074950629
 20
1321.3681393497741
 30
0.0
 41
30.0
 42
30.0
 43
30.0
 50
270.0
  0
TEXT
  8
3
  40
37.5
  5
81F6
  62
2
  72
0
  71
0
 10
2944.77
 20
1412.49
 30
0.000000
  1
φ315
  0
POINT
  5
81A1
  8
DEFPOINTS
 62
     0
 10
2933.8368359525748
 20
1636.3681393497741
 30
0.0
  0
POINT
  5
81A2
  8
DEFPOINTS
 62
     0
 10
2933.8368359525748
 20
1321.3681393497741
 30
0.0
  0
POINT
  5
81A3
  8
DEFPOINTS
 62
     0
 10
3061.0168074950629
 20
1321.3681393497741
 30
0.0
  0
ENDBLK
  5
8041
  8
0
  0
BLOCK
  8
0
  2
*D22
 70
     1
 10
0.0
 20
0.0
 30
0.0
  3
*D22
  1

  0
LINE
  5
81A4
  8
3
 62
     2
 10
2787.8368359525762
 20
1012.366310078963
 30
0.0
 11
2787.8368359525762
 21
881.50659304032297
 31
0.0
  0
LINE
  5
81A5
  8
3
 62
     2
 10
2952.8368359525748
 20
1037.8681393497741
 30
0.0
 11
2952.8368359525748
 21
881.50659304032297
 31
0.0
  0
LINE
  5
81A6
  8
3
 62
     2
 10
2817.8368359525762
 20
896.50659304032297
 30
0.0
 11
2922.8368359525739
 21
896.50659304032297
 31
0.0
  0
INSERT
  5
81A7
  8
3
 62
     2
  2
ARROW
 10
2787.8368359525762
 20
896.50659304032297
 30
0.0
 41
30.0
 42
30.0
 43
30.0
 50
180.0
  0
INSERT
  5
81A8
  8
3
 62
     2
  2
ARROW
 10
2952.8368359525748
 20
896.50659304032297
 30
0.0
 41
30.0
 42
30.0
 43
30.0
  0
TEXT
  8
3
  40
37.5
  5
81F7
  62
2
  72
0
  71
0
 10
2795.34
 20
871.382
 30
0.000000
  1
165
  0
POINT
  5
81AA
  8
DEFPOINTS
 62
     0
 10
2787.8368359525762
 20
1027.3663100789629
 30
0.0
  0
POINT
  5
81AB
  8
DEFPOINTS
 62
     0
 10
2952.8368359525748
 20
1052.8681393497741
 30
0.0
  0
POINT
  5
81AC
  8
DEFPOINTS
 62
     0
 10
2952.8368359525748
 20
896.50659304032297
 30
0.0
  0
ENDBLK
  5
804E
  8
0
  0
BLOCK
  8
0
  2
*D23
 70
     1
 10
0.0
 20
0.0
 30
0.0
  3
*D23
  1

  0
LINE
  5
81D2
  8
3
 62
     2
 10
2787.8368359525762
 20
2042.9414135886871
 30
0.0
 11
2787.8368359525762
 21
2077.2662146289299
 31
0.0
  0
LINE
  5
81D3
  8
3
 62
     2
 10
2908.8368359525748
 20
1491.4793090248179
 30
0.0
 11
2908.8368359525748
 21
2077.2662146289299
 31
0.0
  0
LINE
  5
81D4
  8
3
 62
     2
 10
2817.8368359525762
 20
2062.2662146289299
 30
0.0
 11
2878.8368359525762
 21
2062.2662146289299
 31
0.0
  0
INSERT
  5
81D5
  8
3
 62
     2
  2
ARROW
 10
2787.8368359525762
 20
2062.2662146289299
 30
0.0
 41
30.0
 42
30.0
 43
30.0
 50
180.0
  0
INSERT
  5
81D6
  8
3
 62
     2
  2
ARROW
 10
2908.8368359525748
 20
2062.2662146289299
 30
0.0
 41
30.0
 42
30.0
 43
30.0
  0
TEXT
  8
3
  40
37.5
  5
81F8
  62
2
  72
0
  71
0
 10
2773.34
 20
2037.14
 30
0.000000
  1
121
  0
POINT
  5
81D8
  8
DEFPOINTS
 62
     0
 10
2787.8368359525762
 20
2027.9414135886859
 30
0.0
  0
POINT
  5
81D9
  8
DEFPOINTS
 62
     0
 10
2908.8368359525748
 20
1476.4793090248179
 30
0.0
  0
POINT
  5
81DA
  8
DEFPOINTS
 62
     0
 10
2908.8368359525748
 20
2062.2662146289299
 30
0.0
  0
ENDBLK
  5
808B
  8
0
  0
BLOCK
  8
0
  2
*D24
 70
     1
 10
0.0
 20
0.0
 30
0.0
  3
*D24
  1

  0
LINE
  5
81DB
  8
3
 62
     2
 10
2669.8368359525762
 20
1846.4793090248179
 30
0.0
 11
2669.8368359525762
 21
1977.0312831391341
 31
0.0
  0
LINE
  5
81DC
  8
3
 62
     2
 10
2905.8368359525748
 20
1846.4793090248179
 30
0.0
 11
2905.8368359525748
 21
1977.0312831391341
 31
0.0
  0
LINE
  5
81DD
  8
3
 62
     2
 10
2699.8368359525748
 20
1962.0312831391341
 30
0.0
 11
2875.8368359525762
 21
1962.0312831391341
 31
0.0
  0
INSERT
  5
81DE
  8
3
 62
     2
  2
ARROW
 10
2669.8368359525762
 20
1962.0312831391341
 30
0.0
 41
30.0
 42
30.0
 43
30.0
 50
180.0
  0
INSERT
  5
81DF
  8
3
 62
     2
  2
ARROW
 10
2905.8368359525748
 20
1962.0312831391341
 30
0.0
 41
30.0
 42
30.0
 43
30.0
  0
TEXT
  8
3
  40
37.5
  5
81F9
  62
2
  72
0
  71
0
 10
2712.84
 20
1936.91
 30
0.000000
  1
236
  0
POINT
  5
81E1
  8
DEFPOINTS
 62
     0
 10
2669.8368359525762
 20
1831.4793090248179
 30
0.0
  0
POINT
  5
81E2
  8
DEFPOINTS
 62
     0
 10
2905.8368359525748
 20
1831.4793090248179
 30
0.0
  0
POINT
  5
81E3
  8
DEFPOINTS
 62
     0
 10
2905.8368359525748
 20
1962.0312831391341
 30
0.0
  0
ENDBLK
  5
8066
  8
0
  0
ENDSEC
  0
SECTION
  2
ENTITIES
  0
DIMENSION
  5
7CC2
  8
3
  2
*D3
 10
2099.8368359525748
 20
2062.2662146289299
 30
0.0
 11
2443.8368359525748
 21
2103.5162146289299
 31
0.0
 70
     0
 13
2787.8368359525762
 23
2027.9414135886859
 33
0.0
 14
2099.8368359525748
 24
1578.8681393497741
 34
0.0
1001
ACAD
1000
DSTYLE
1002
{
1070
   287
1070
     3
1070
    40
1040
15.0
1070
    43
1040
0.0
1070
   147
1040
1.5
1070
   173
1070
     1
1070
   271
1070
     0
1070
   272
1070
     4
1070
   279
1070
     0
1070
   284
1070
     0
1070
   285
1070
     0
1070
   286
1070
     0
1070
     6
1000
ARROW
1070
     7
1000
ARROW
1002
}
  0
DIMENSION
  5
7CC3
  8
3
  2
*D4
 10
2787.8368359525762
 20
896.50659304032297
 30
0.0
 11
2480.3368359525748
 21
937.75659304032297
 31
0.0
 70
     0
 13
2172.8368359525748
 23
1052.8681393497729
 33
0.0
 14
2787.8368359525762
 24
1027.3663100789629
 34
0.0
1001
ACAD
1000
DSTYLE
1002
{
1070
   287
1070
     3
1070
    40
1040
15.0
1070
    43
1040
0.0
1070
   147
1040
1.5
1070
   173
1070
     1
1070
   271
1070
     0
1070
   272
1070
     4
1070
   279
1070
     0
1070
   284
1070
     0
1070
   285
1070
     0
1070
   286
1070
     0
1070
     6
1000
ARROW
1070
     7
1000
ARROW
1002
}
  0
LINE
  5
7CC4
  8
1
 10
2172.8368359525748
 20
1238.8681393497729
 30
0.0
 11
2952.8368359525748
 21
1238.8681393497729
 31
0.0
  0
LINE
  5
7CC5
  8
1
 10
2545.8368359525748
 20
1431.2681393497739
 30
0.0
 11
2593.8368359525748
 21
1431.2681393497739
 31
0.0
  0
LINE
  5
7CC6
  8
1
 10
2545.8368359525748
 20
1450.2681393497739
 30
0.0
 11
2593.8368359525748
 21
1450.2681393497739
 31
0.0
  0
ARC
  5
7CC7
  8
1
 10
2572.033128267436
 20
1500.433201177759
 30
0.0
 40
24.931864229136519
 50
59.099552968319841
 51
95.053838103948024
  0
LINE
  5
7CCD
  8
1
 10
2952.8368359525748
 20
1052.8681393497741
 30
0.0
 11
2172.8368359525748
 21
1052.8681393497729
 31
0.0
  0
LINE
  5
7CCE
  8
1
 10
2952.8368359525748
 20
1127.8681393497729
 30
0.0
 11
2172.8368359525748
 21
1127.8681393497729
 31
0.0
  0
LINE
  5
7CCF
  8
2
 10
2969.942058593911
 20
1478.8681393497741
 30
0.0
 11
2078.0512055476988
 21
1478.8681393497741
 31
0.0
  0
LINE
  5
7CD0
  8
1
 10
2614.8368359525748
 20
1422.0681393497739
 30
0.0
 11
2456.8368359525748
 21
1422.0681393497739
 31
0.0
  0
LINE
  5
7CD1
  8
1
 10
2545.8368359525748
 20
1431.2681393497739
 30
0.0
 11
2593.8368359525748
 21
1431.2681393497739
 31
0.0
  0
POLYLINE
  5
7CD2
  8
1
 66
     1
 10
0.0
 20
0.0
 30
0.0
 70
     1
  0
VERTEX
  5
80EC
  8
1
 10
2537.3368359525739
 20
1425.2681393497739
 30
0.0
  0
VERTEX
  5
80ED
  8
1
 10
2602.3368359525739
 20
1425.2681393497739
 30
0.0
  0
VERTEX
  5
80EE
  8
1
 10
2602.3368359525739
 20
1431.2681393497739
 30
0.0
  0
VERTEX
  5
80EF
  8
1
 10
2537.3368359525739
 20
1431.2681393497739
 30
0.0
  0
SEQEND
  5
80F0
  8
1
  0
LINE
  5
7CD8
  8
1
 10
2614.8368359525748
 20
1425.2681393497739
 30
0.0
 11
2456.8368359525762
 21
1425.2681393497739
 31
0.0
  0
LINE
  5
7CD9
  8
1
 10
2952.8368359525748
 20
1163.8681393497741
 30
0.0
 11
2172.8368359525748
 21
1163.8681393497729
 31
0.0
  0
LINE
  5
7CDA
  8
2
 10
1100.2363279039871
 20
3152.0625120896989
 30
0.0
 11
1100.2363279039871
 21
2302.7148288051212
 31
0.0
  0
LINE
  5
7CDB
  8
2
 10
1580.2363279039871
 20
2672.8181320810281
 30
0.0
 11
1580.2363279039871
 21
2336.8465320810278
 31
0.0
  0
DIMENSION
  5
7CDC
  8
3
  2
*D5
 10
1720.236327903988
 20
2216.5699912738228
 30
0.0
 11
1320.236327903988
 21
2257.8199912738228
 31
0.0
 70
     0
 13
920.23632790398824
 23
2384.8811320810269
 33
0.0
 14
1720.236327903988
 24
2403.8811320810282
 34
0.0
1001
ACAD
1000
DSTYLE
1002
{
1070
   287
1070
     3
1070
    40
1040
15.0
1070
    43
1040
0.0
1070
   147
1040
1.5
1070
   173
1070
     1
1070
   272
1070
     4
1070
   279
1070
     0
1070
   284
1070
     0
1070
   285
1070
     0
1070
   286
1070
     0
1070
     6
1000
ARROW
1070
     7
1000
ARROW
1002
}
  0
LINE
  5
7CDD
  8
1
 10
1730.2363279039871
 20
2311.8811320810282
 30
0.0
 11
1730.2363279039871
 21
2403.8811320810282
 31
0.0
  0
LINE
  5
7CDE
  8
1
 10
1000.236327903987
 20
2311.8811320810282
 30
0.0
 11
1000.236327903987
 21
2403.8811320810282
 31
0.0
  0
DIMENSION
  5
7CDF
  8
3
  2
*D6
 10
1853.382606509439
 20
2764.8811320810282
 30
0.0
 11
1812.132606509439
 21
2574.8811320810282
 31
0.0
 70
     0
 13
1720.2363279039871
 23
2384.8811320810269
 33
0.0
 14
1720.2363279039889
 24
2764.8811320810282
 34
0.0
 50
90.0
1001
ACAD
1000
DSTYLE
1002
{
1070
   287
1070
     3
1070
    40
1040
15.0
1070
    43
1040
0.0
1070
   147
1040
1.5
1070
   173
1070
     1
1070
   272
1070
     4
1070
   279
1070
     0
1070
   284
1070
     0
1070
   285
1070
     0
1070
   286
1070
     0
1070
     6
1000
ARROW
1070
     7
1000
ARROW
1002
}
  0
LINE
  5
7CE0
  8
1
 10
1592.7363279039871
 20
2396.8811320810282
 30
0.0
 11
1592.7363279039871
 21
2391.8811320810282
 31
0.0
  0
LINE
  5
7CE1
  8
1
 10
1567.7363279039871
 20
2396.8811320810282
 30
0.0
 11
1567.7363279039871
 21
2391.8811320810282
 31
0.0
  0
LINE
  5
7CE2
  8
1
 10
1117.7363279039871
 20
2440.3811320810291
 30
0.0
 11
1117.7363279039871
 21
2391.8811320810282
 31
0.0
  0
LINE
  5
7CE3
  8
1
 10
1082.7363279039871
 20
2440.3811320810291
 30
0.0
 11
1082.7363279039871
 21
2391.8811320810282
 31
0.0
  0
DIMENSION
  5
7CE4
  8
3
  2
*D7
 10
782.80584589519094
 20
3164.8811320810282
 30
0.0
 11
741.55584589519026
 21
2774.8811320810282
 31
0.0
 70
     0
 13
920.23632790398824
 23
2384.8811320810269
 33
0.0
 14
920.23632790398733
 24
3164.8811320810282
 34
0.0
 50
90.0
1001
ACAD
1000
DSTYLE
1002
{
1070
   287
1070
     3
1070
    40
1040
15.0
1070
    43
1040
0.0
1070
   147
1040
1.5
1070
   173
1070
     1
1070
   272
1070
     4
1070
   279
1070
     0
1070
   284
1070
     0
1070
   285
1070
     0
1070
   286
1070
     0
1070
     6
1000
ARROW
1070
     7
1000
ARROW
1002
}
  0
LINE
  5
7CE5
  8
1
 10
920.23632790398767
 20
2881.8811320810282
 30
0.0
 11
920.23632790398824
 21
2384.8811320810282
 31
0.0
  0
LINE
  5
7CE6
  8
1
 10
1109.4887405340869
 20
1541.6904511547559
 30
0.0
 11
1592.271749687394
 21
1470.5866110834979
 31
0.0
  0
LINE
  5
7CE7
  8
1
 10
1592.6400059450989
 20
1538.3544222357041
 30
0.0
 11
1108.505446598062
 21
1578.525661273728
 31
0.0
  0
DIMENSION
  5
7CE8
  8
3
  2
*D8
 10
1730.2363279039871
 20
2063.6576444421112
 30
0.0
 11
1292.7363279039871
 21
2104.9076444421112
 31
0.0
 70
     0
 13
855.23632790398733
 23
1856.4793090248179
 33
0.0
 14
1730.2363279039871
 24
1268.8681393497741
 34
0.0
1001
ACAD
1000
DSTYLE
1002
{
1070
   287
1070
     3
1070
    40
1040
15.0
1070
    43
1040
0.0
1070
   147
1040
1.5
1070
   173
1070
     1
1070
   271
1070
     0
1070
   272
1070
     4
1070
   279
1070
     0
1070
   284
1070
     0
1070
   285
1070
     0
1070
   286
1070
     0
1070
     6
1000
ARROW
1070
     7
1000
ARROW
1002
}
  0
LINE
  5
7CE9
  8
1
 10
1720.236327903988
 20
1052.8681393497741
 30
0.0
 11
920.23632790398733
 21
1052.8681393497741
 31
0.0
  0
LINE
  5
7CEA
  8
1
 10
1720.236327903988
 20
1127.8681393497741
 30
0.0
 11
920.23632790398733
 21
1127.8681393497741
 31
0.0
  0
LINE
  5
7CEB
  8
1
 10
1730.2363279039871
 20
1238.8681393497741
 30
0.0
 11
920.23632790398733
 21
1238.8681393497741
 31
0.0
  0
LINE
  5
7CEC
  8
1
 10
1720.236327903988
 20
1163.8681393497741
 30
0.0
 11
920.23632790398733
 21
1163.8681393497741
 31
0.0
  0
LINE
  5
7CED
  8
1
 10
900.23632790398631
 20
1422.0681393497739
 30
0.0
 11
1300.2363279039871
 21
1422.0681393497739
 31
0.0
  0
LINE
  5
7CEE
  8
2
 10
1455.0971810123301
 20
1478.8681393497741
 30
0.0
 11
843.77620155350166
 21
1478.8681393497741
 31
0.0
  0
LINE
  5
7CEF
  8
1
 10
940.23632790398733
 20
1425.2681393497739
 30
0.0
 11
1260.2363279039871
 21
1425.2681393497739
 31
0.0
  0
ARC
  5
7CF0
  8
1
 10
1119.001280488678
 20
1508.061467389866
 30
0.0
 40
252.15223226792139
 50
262.5396572270958
 51
358.84594406436281
  0
LINE
  5
7CF1
  8
1
 10
1086.102003324201
 20
1416.961186035358
 30
0.0
 11
1561.850576560832
 21
1308.340354408502
 31
0.0
  0
LINE
  5
7CF2
  8
1
 10
1537.643970617592
 20
1245.0422338223341
 30
0.0
 11
1071.84142304639
 21
1382.98420233148
 31
0.0
  0
DIMENSION
  5
7CF3
  8
3
  2
*D9
 10
1100.2363279039871
 20
897.18067731406109
 30
0.0
 11
1410.2363279039871
 21
938.43067731406109
 31
0.0
 70
     0
 13
1720.236327903988
 23
1052.8681393497741
 33
0.0
 14
1100.2363279039871
 24
1027.3663100789629
 34
0.0
1001
ACAD
1000
DSTYLE
1002
{
1070
   287
1070
     3
1070
    40
1040
15.0
1070
    43
1040
0.0
1070
   147
1040
1.5
1070
   173
1070
     1
1070
   271
1070
     0
1070
   272
1070
     4
1070
   279
1070
     0
1070
   284
1070
     0
1070
   285
1070
     0
1070
   286
1070
     0
1070
     6
1000
ARROW
1070
     7
1000
ARROW
1002
}
  0
DIMENSION
  5
7CF4
  8
3
  2
*D10
 10
1373.8012087846689
 20
1962.1211654150679
 30
0.0
 11
1237.018768344328
 21
2003.3711654150691
 31
0.0
 70
     0
 13
1100.2363279039871
 23
1862.9525264663971
 33
0.0
 14
1373.8012087846689
 24
1502.8681393497741
 34
0.0
1001
ACAD
1000
DSTYLE
1002
{
1070
   287
1070
     4
1070
    40
1040
15.0
1070
    43
1040
0.0
1070
    75
1070
     1
1070
   147
1040
1.5
1070
   173
1070
     1
1070
   271
1070
     0
1070
   272
1070
     4
1070
   279
1070
     1
1070
   284
1070
     0
1070
   285
1070
     0
1070
   286
1070
     0
1070
     6
1000
ARROW
1070
     7
1000
ARROW
1002
}
  0
ARC
  5
7CF5
  8
1
 10
1076.2363279039871
 20
1502.8681393497741
 30
0.0
 40
308.96488088068128
 50
0.0
 51
85.360493477310484
  0
ARC
  5
7CF6
  8
1
 10
1076.2363279039871
 20
1502.8681393497741
 30
0.0
 40
297.56488088068153
 50
359.99999999999972
 51
85.389792504131975
  0
LINE
  5
7CF7
  8
1
 10
1000.236327903987
 20
2311.8811320810282
 30
0.0
 11
1730.2363279039871
 21
2311.8811320810282
 31
0.0
  0
ARC
  5
7CF8
  8
1
 10
1113.2392719792131
 20
1454.792430287566
 30
0.0
 40
201.58952384937541
 50
178.43602223557491
 51
262.20219715607021
  0
LINE
  5
7CF9
  8
2
 10
1100.2363279039871
 20
1573.0074545422499
 30
0.0
 11
1100.2363279039871
 21
1027.3663100789629
 31
0.0
  0
DIMENSION
  5
7CFA
  8
3
  2
*D11
 10
642.63196086758944
 20
1163.8681393497741
 30
0.0
 11
601.38196086758933
 21
1321.3681393497741
 31
0.0
 70
     0
 13
843.77620155350166
 23
1478.8681393497741
 33
0.0
 14
920.23632790398733
 24
1163.8681393497741
 34
0.0
 50
270.0
1001
ACAD
1000
DSTYLE
1002
{
1070
   287
1070
     4
1070
    40
1040
15.0
1070
    43
1040
0.0
1070
    75
1070
     1
1070
   147
1040
1.5
1070
   173
1070
     1
1070
   271
1070
     0
1070
   272
1070
     4
1070
   279
1070
     1
1070
   284
1070
     0
1070
   285
1070
     0
1070
   286
1070
     0
1070
     6
1000
ARROW
1070
     7
1000
ARROW
1002
}
  0
DIMENSION
  5
7CFB
  8
3
  2
*D12
 10
444.50056233805111
 20
1856.4793090248179
 30
0.0
 11
403.25056233805083
 21
1454.6737241872961
 31
0.0
 70
     0
 13
920.23632790398767
 23
1052.8681393497741
 33
0.0
 14
855.23632790398733
 24
1856.4793090248179
 34
0.0
 50
270.0
1001
ACAD
1000
DSTYLE
1002
{
1070
   287
1070
     3
1070
    40
1040
15.0
1070
    43
1040
0.0
1070
   147
1040
1.5
1070
   173
1070
     1
1070
   271
1070
     0
1070
   272
1070
     4
1070
   279
1070
     0
1070
   284
1070
     0
1070
   285
1070
     0
1070
   286
1070
     0
1070
     6
1000
ARROW
1070
     7
1000
ARROW
1002
}
  0
ARC
  5
7CFC
  8
1
 10
1118.7363279039871
 20
1460.3681393497741
 30
0.0
 40
218.11047620624919
 50
180.0
 51
190.11352301515069
  0
CIRCLE
  5
7CFD
  8
1
 10
1100.2363279039871
 20
1478.8681393497741
 30
0.0
 40
63.5
  0
ARC
  5
7CFE
  8
1
 10
1100.2363279039871
 20
1478.8681393497741
 30
0.0
 40
100.0
 50
85.256727858981463
 51
253.50396158870819
  0
DIMENSION
  5
7CFF
  8
3
  2
*D13
 10
642.63196086758944
 20
1127.8681393497741
 30
0.0
 11
514.23910372473222
 21
1191.564567921203
 31
0.0
 70
     0
  1
(36)
 13
920.23632790398733
 23
1163.8681393497741
 33
0.0
 14
920.23632790398767
 24
1127.8681393497741
 34
0.0
 50
270.0
1001
ACAD
1000
DSTYLE
1002
{
1070
   287
1070
     4
1070
    40
1040
15.0
1070
    43
1040
0.0
1070
    75
1070
     1
1070
   147
1040
1.5
1070
   173
1070
     1
1070
   271
1070
     0
1070
   272
1070
     4
1070
   279
1070
     1
1070
   284
1070
     0
1070
   285
1070
     0
1070
   286
1070
     0
1070
     6
1000
OPEN
1070
     7
1000
YA_N
1002
}
  0
DIMENSION
  5
7D00
  8
3
  2
*D14
 10
642.63196086758944
 20
1052.8681393497741
 30
0.0
 11
601.38196086758933
 21
940.01099649263131
 31
0.0
 70
     0
 13
920.23632790398767
 23
1127.8681393497741
 33
0.0
 14
920.23632790398767
 24
1052.8681393497741
 34
0.0
 50
270.0
1001
ACAD
1000
DSTYLE
1002
{
1070
   287
1070
     3
1070
    40
1040
15.0
1070
    43
1040
0.0
1070
   147
1040
1.5
1070
   173
1070
     1
1070
   271
1070
     0
1070
   272
1070
     4
1070
   279
1070
     0
1070
   284
1070
     0
1070
   285
1070
     0
1070
   286
1070
     0
1070
     6
1000
YA_N
1070
     7
1000
OPEN
1002
}
  0
DIMENSION
  5
7D01
  8
3
  2
*D15
 10
920.23632790398767
 20
897.18067731406109
 30
0.0
 11
1010.236327903987
 21
938.43067731406109
 31
0.0
 70
     0
 13
1100.2363279039871
 23
1027.3663100789629
 33
0.0
 14
920.23632790398767
 24
1052.8681393497741
 34
0.0
1001
ACAD
1000
DSTYLE
1002
{
1070
   287
1070
     3
1070
    40
1040
15.0
1070
    43
1040
0.0
1070
   147
1040
1.5
1070
   173
1070
     1
1070
   271
1070
     0
1070
   272
1070
     4
1070
   279
1070
     0
1070
   284
1070
     0
1070
   285
1070
     0
1070
   286
1070
     0
1070
     6
1000
ARROW
1070
     7
1000
ARROW
1002
}
  0
CIRCLE
  5
7D02
  8
1
 10
642.63196086758944
 20
1127.8681393497741
 30
0.0
 40
3.0
  0
LINE
  5
7D03
  8
1
 10
920.23632790398733
 20
1278.8681393497741
 30
0.0
 11
920.23632790398733
 21
1163.8681393497741
 31
0.0
  0
LINE
  5
7D04
  8
1
 10
920.23632790398767
 20
1127.8681393497741
 30
0.0
 11
920.23632790398767
 21
1052.8681393497741
 31
0.0
  0
LINE
  5
7D05
  8
1
 10
1016.736327903987
 20
1431.2681393497739
 30
0.0
 11
1070.7363279039871
 21
1431.2681393497739
 31
0.0
  0
CIRCLE
  5
7D06
  8
1
 10
1100.2363279039871
 20
1338.8681393497741
 30
0.0
 40
65.0
  0
LINE
  5
7D07
  8
2
 10
1170.2363279039871
 20
1338.8681393497741
 30
0.0
 11
1030.2363279039871
 21
1338.8681393497741
 31
0.0
  0
POLYLINE
  5
7D08
  8
1
 66
     1
 10
0.0
 20
0.0
 30
0.0
 70
     1
  0
VERTEX
  5
8158
  8
1
 10
1200.2363279039871
 20
1425.2681393497739
 30
0.0
  0
VERTEX
  5
8159
  8
1
 10
1000.236327903987
 20
1425.2681393497739
 30
0.0
  0
VERTEX
  5
815A
  8
1
 10
1000.236327903987
 20
1431.2681393497739
 30
0.0
  0
VERTEX
  5
815B
  8
1
 10
1200.2363279039871
 20
1431.2681393497739
 30
0.0
  0
SEQEND
  5
815C
  8
1
  0
POLYLINE
  5
7D0E
  8
1
 66
     1
 10
0.0
 20
0.0
 30
0.0
 70
     1
  0
VERTEX
  5
815D
  8
1
 10
1200.2363279039871
 20
1425.2681393497739
 30
0.0
  0
VERTEX
  5
815E
  8
1
 10
1000.236327903987
 20
1425.2681393497739
 30
0.0
  0
VERTEX
  5
815F
  8
1
 10
1000.236327903987
 20
1431.2681393497739
 30
0.0
  0
VERTEX
  5
8160
  8
1
 10
1200.2363279039871
 20
1431.2681393497739
 30
0.0
  0
SEQEND
  5
8161
  8
1
  0
LINE
  5
7D14
  8
1
 10
950.23632790398631
 20
1422.0681393497739
 30
0.0
 11
950.23632790398722
 21
1238.8681393497741
 31
0.0
  0
ARC
  5
7D15
  8
1
 10
1118.7363279039871
 20
1460.3681393497741
 30
0.0
 40
218.11047620624919
 50
202.3104024165645
 51
219.4170843541811
  0
LINE
  5
7D16
  8
1
 10
950.23632790398722
 20
1243.8681393497741
 30
0.0
 11
920.23632790398733
 21
1243.8681393497741
 31
0.0
  0
LINE
  5
7D17
  8
1
 10
950.23632790398688
 20
1278.8681393497741
 30
0.0
 11
920.23632790398733
 21
1278.8681393497741
 31
0.0
  0
LINE
  5
7D18
  8
1
 10
900.23632790398631
 20
1422.0681393497739
 30
0.0
 11
900.23632790398631
 21
1377.5681393497739
 31
0.0
  0
LINE
  5
7D19
  8
1
 10
950.23632790398631
 20
1382.0681393497739
 30
0.0
 11
900.23632790398631
 21
1382.0681393497739
 31
0.0
  0
LINE
  5
7D1A
  8
1
 10
950.23632790398631
 20
1377.5681393497739
 30
0.0
 11
900.23632790398631
 21
1377.5681393497739
 31
0.0
  0
LINE
  5
7D1B
  8
1
 10
940.23632790398733
 20
1425.2681393497739
 30
0.0
 11
940.23632790398733
 21
1422.0681393497739
 31
0.0
  0
LINE
  5
7D1C
  8
1
 10
1183.7363279039871
 20
1431.2681393497739
 30
0.0
 11
1129.7363279039871
 21
1431.2681393497739
 31
0.0
  0
DIMENSION
  5
7D1D
  8
3
  2
*D16
 10
1100.2363279039871
 20
1962.1211654150679
 30
0.0
 11
977.73632790398733
 21
2003.3711654150691
 31
0.0
 70
     0
 13
855.23632790398733
 23
1856.4793090248179
 33
0.0
 14
1100.2363279039871
 24
1862.9525264663971
 34
0.0
1001
ACAD
1000
DSTYLE
1002
{
1070
   287
1070
     3
1070
    40
1040
15.0
1070
    43
1040
0.0
1070
   147
1040
1.5
1070
   173
1070
     1
1070
   271
1070
     0
1070
   272
1070
     4
1070
   279
1070
     0
1070
   284
1070
     0
1070
   285
1070
     0
1070
   286
1070
     0
1070
     6
1000
ARROW
1070
     7
1000
ARROW
1002
}
  0
LINE
  5
7D1E
  8
1
 10
880.23632790398824
 20
1831.4793090248179
 30
0.0
 11
855.23632790398824
 21
1831.4793090248179
 31
0.0
  0
LINE
  5
7D1F
  8
1
 10
862.23632790398824
 20
1834.4793090248179
 30
0.0
 11
878.23632790398824
 21
1834.4793090248179
 31
0.0
  0
POLYLINE
  5
7D20
  8
1
 66
     1
 10
0.0
 20
0.0
 30
0.0
  0
VERTEX
  5
816B
  8
1
 10
855.23632790398733
 20
1831.4793090248179
 30
0.0
  0
VERTEX
  5
816C
  8
1
 10
1000.005672205227
 20
1814.343345821814
 30
0.0
 42
-0.3908380251735333
  0
SEQEND
  5
816D
  8
1
  0
LINE
  5
7D24
  8
1
 10
855.23632790398733
 20
1831.4793090248179
 30
0.0
 11
1100.3946821369741
 21
1802.4605650543831
 31
0.0
  0
LINE
  5
7D25
  8
1
 10
862.23632790398733
 20
1498.4793090248179
 30
0.0
 11
878.23632790398744
 21
1498.4793090248179
 31
0.0
  0
LINE
  5
7D26
  8
1
 10
855.23632790398733
 20
1504.8681393497741
 30
0.0
 11
914.85715427411367
 21
1504.8681393497741
 31
0.0
  0
LINE
  5
7D27
  8
1
 10
914.01470900790571
 20
1501.4793090248179
 30
0.0
 11
855.23632790398733
 21
1501.4793090248179
 31
0.0
  0
LINE
  5
7D28
  8
1
 10
855.23632790398733
 20
1476.4793090248179
 30
0.0
 11
855.23632790398733
 21
1856.4793090248179
 31
0.0
  0
LINE
  5
7D29
  8
1
 10
858.23632790398722
 20
1476.4793090248179
 30
0.0
 11
858.23632790398722
 21
1856.4793090248179
 31
0.0
  0
DIMENSION
  5
7D2A
  8
3
  2
*D17
 10
642.63196086758944
 20
1478.8681393497741
 30
0.0
 11
601.38196086758921
 21
1654.3681393497741
 31
0.0
 70
     0
 13
855.23632790398733
 23
1829.8681393497741
 33
0.0
 14
843.77620155350166
 24
1478.8681393497741
 34
0.0
 50
270.0
1001
ACAD
1000
DSTYLE
1002
{
1070
   287
1070
     3
1070
    40
1040
15.0
1070
    43
1040
0.0
1070
   147
1040
1.5
1070
   173
1070
     1
1070
   271
1070
     0
1070
   272
1070
     4
1070
   279
1070
     0
1070
   284
1070
     0
1070
   285
1070
     0
1070
   286
1070
     0
1070
     6
1000
ARROW
1070
     7
1000
ARROW
1002
}
  0
DIMENSION
  5
7D2B
  8
3
  2
*D18
 10
743.14149099987662
 20
1504.8681393497741
 30
0.0
 11
701.89149099987628
 21
1667.3681393497741
 31
0.0
 70
     0
 13
855.23632790398733
 23
1829.8681393497741
 33
0.0
 14
855.23632790398733
 24
1504.8681393497741
 34
0.0
 50
270.0
1001
ACAD
1000
DSTYLE
1002
{
1070
   287
1070
     3
1070
    40
1040
15.0
1070
    43
1040
0.0
1070
   147
1040
1.5
1070
   173
1070
     1
1070
   271
1070
     0
1070
   272
1070
     4
1070
   279
1070
     0
1070
   284
1070
     0
1070
   285
1070
     0
1070
   286
1070
     0
1070
     6
1000
ARROW
1070
     7
1000
ARROW
1002
}
  0
LINE
  5
7D2C
  8
1
 10
855.23632790398733
 20
1501.4793090248179
 30
0.0
 11
855.23632790398733
 21
1476.4793090248179
 31
0.0
  0
LINE
  5
7D2D
  8
1
 10
858.23632790398722
 20
1478.4793090248179
 30
0.0
 11
858.23632790398722
 21
1494.4793090248179
 31
0.0
  0
ARC
  5
7D2E
  8
1
 10
856.23632790398733
 20
1478.4793090248179
 30
0.0
 40
2.0
 50
270.0
 51
0.0
  0
LINE
  5
7D2F
  8
1
 10
855.23632790398733
 20
1476.4793090248179
 30
0.0
 11
856.23632790398733
 21
1476.4793090248179
 31
0.0
  0
ARC
  5
7D30
  8
1
 10
862.23632790398733
 20
1494.4793090248179
 30
0.0
 40
4.0
 50
90.0
 51
180.0
  0
LINE
  5
7D31
  8
1
 10
855.23632790398824
 20
1831.4793090248179
 30
0.0
 11
855.23632790398824
 21
1856.4793090248179
 31
0.0
  0
LINE
  5
7D32
  8
1
 10
858.23632790398813
 20
1854.4793090248179
 30
0.0
 11
858.23632790398813
 21
1838.4793090248179
 31
0.0
  0
ARC
  5
7D33
  8
1
 10
862.23632790398824
 20
1838.4793090248179
 30
0.0
 40
4.0
 50
180.0
 51
270.0
  0
LINE
  5
7D34
  8
1
 10
855.23632790398733
 20
1829.8681393497741
 30
0.0
 11
862.86663957828557
 21
1829.8681393497741
 31
0.0
  0
LINE
  5
7D35
  8
1
 10
855.23632790398824
 20
1856.4793090248179
 30
0.0
 11
856.23632790398824
 21
1856.4793090248179
 31
0.0
  0
ARC
  5
7D36
  8
1
 10
856.23632790398824
 20
1854.4793090248179
 30
0.0
 40
2.0
 50
0.0
 51
90.0
  0
LINE
  5
7D37
  8
2
 10
1100.2363279039871
 20
1862.9525264663971
 30
0.0
 11
1100.2363279039871
 21
1591.947381520439
 31
0.0
  0
LINE
  5
7D38
  8
1
 10
880.23632790398733
 20
1836.978766145332
 30
0.0
 11
880.23632790398733
 21
1500.4793090248179
 31
0.0
  0
LINE
  5
7D39
  8
1
 10
880.23632790398733
 20
1500.4793090248179
 30
0.0
 11
880.23632790398733
 21
1501.4793090248179
 31
0.0
  0
LINE
  5
7D3A
  8
1
 10
880.23632790398733
 20
1494.8681393497741
 30
0.0
 11
880.23632790398733
 21
1501.4793090248179
 31
0.0
  0
ARC
  5
7D3B
  8
1
 10
878.23632790398744
 20
1500.4793090248179
 30
0.0
 40
2.0
 50
270.0
 51
0.0
  0
ARC
  5
7D3C
  8
1
 10
1081.7363279039851
 20
1460.3681393497729
 30
0.0
 40
181.11047620624669
 50
169.0185330642436
 51
179.9999999999998
  0
LINE
  5
7D3D
  8
1
 10
880.23632790398733
 20
1494.8681393497741
 30
0.0
 11
903.94219247861929
 21
1494.8681393497741
 31
0.0
  0
ARC
  5
7D3E
  8
1
 10
1081.7363279039871
 20
1460.3681393497741
 30
0.0
 40
170.010476206249
 50
165.06893957627469
 51
180.0000000000004
  0
LINE
  5
7D3F
  8
1
 10
1100.2363279039871
 20
1578.8681393497741
 30
0.0
 11
1100.2363279039871
 21
1578.8681393497741
 31
0.0
  0
LINE
  5
7D40
  8
1
 10
880.23632790398733
 20
1836.978766145332
 30
0.0
 11
1101.22732400424
 21
1810.8206482395881
 31
0.0
  0
LINE
  5
7D41
  8
1
 10
880.23632790398733
 20
1827.908955676304
 30
0.0
 11
880.23632790398733
 21
1826.908955676304
 31
0.0
  0
LINE
  5
7D42
  8
1
 10
880.23632790398824
 20
1832.4793090248179
 30
0.0
 11
880.23632790398824
 21
1831.4793090248179
 31
0.0
  0
ARC
  5
7D43
  8
1
 10
878.23632790398824
 20
1832.4793090248179
 30
0.0
 40
2.0
 50
0.0
 51
90.0
  0
LINE
  5
7D44
  8
1
 10
920.23632790398733
 20
2384.8811320810269
 30
0.0
 11
1000.236327903987
 21
2384.8811320810269
 31
0.0
  0
POINT
  5
7D45
  8
1
 10
920.23632790398824
 20
2384.8811320810269
 30
0.0
  0
LINE
  5
7D46
  8
1
 10
1163.7363279039871
 20
2341.8811320810291
 30
0.0
 11
1036.7363279039871
 21
2341.8811320810269
 31
0.0
  0
LINE
  5
7D47
  8
1
 10
1163.7363279039871
 20
2391.8811320810282
 30
0.0
 11
1036.7363279039871
 21
2391.8811320810282
 31
0.0
  0
LINE
  5
7D48
  8
1
 10
1036.7363279039871
 20
2391.8811320810282
 30
0.0
 11
1036.7363279039871
 21
2341.8811320810269
 31
0.0
  0
LINE
  5
7D49
  8
1
 10
1163.7363279039871
 20
2391.8811320810282
 30
0.0
 11
1163.7363279039871
 21
2341.8811320810282
 31
0.0
  0
LINE
  5
7D4A
  8
1
 10
2456.8368359525762
 20
1485.8681393497741
 30
0.0
 11
2456.8368359525748
 21
1298.8681393497741
 31
0.0
  0
LINE
  5
7D4B
  8
2
 10
1580.2363279039871
 20
1292.884039349774
 30
0.0
 11
1580.2363279039871
 21
1497.3292393497741
 31
0.0
  0
ARC
  5
7D4C
  8
1
 10
1580.2363279039871
 20
1388.8681393497741
 30
0.0
 40
100.8
 50
0.0
 51
239.69929999999999
  0
ARC
  5
7D4D
  8
1
 10
1580.2363279039871
 20
1388.8681393497741
 30
0.0
 40
100.8
 50
0.0
 51
239.69929999999999
  0
ARC
  5
7D4E
  8
1
 10
1580.2363279039871
 20
1388.8681393497741
 30
0.0
 40
97.0
 50
0.0
 51
242.49639999999999
  0
ARC
  5
7D4F
  8
1
 10
1580.2363279039871
 20
1388.8681393497741
 30
0.0
 40
97.0
 50
0.0
 51
242.49639999999999
  0
CIRCLE
  5
7D50
  8
1
 10
1580.2363279039871
 20
1388.8681393497741
 30
0.0
 40
82.599999999999994
  0
ARC
  5
7D51
  8
1
 10
1124.2363279039871
 20
1502.8681393497741
 30
0.0
 40
260.96488088068128
 50
300.86783728670241
 51
0.0
  0
ARC
  5
7D52
  8
1
 10
1580.2363279039871
 20
1388.8681393497741
 30
0.0
 40
150.0
 50
253.50396158870819
 51
85.256727858981506
  0
LINE
  5
7D53
  8
1
 10
2545.8368359525748
 20
1431.2681393497739
 30
0.0
 11
2545.8368359525748
 21
1450.2681393497739
 31
0.0
  0
LINE
  5
7D54
  8
1
 10
2191.8368359525748
 20
1578.8681393497741
 30
0.0
 11
2191.8368359525748
 21
1238.8681393497741
 31
0.0
  0
LINE
  5
7D55
  8
1
 10
2099.8368359525748
 20
1578.8681393497741
 30
0.0
 11
2099.8368359525748
 21
1238.8681393497741
 31
0.0
  0
LINE
  5
7D56
  8
1
 10
2179.8368359525748
 20
1542.3681393497741
 30
0.0
 11
2179.8368359525748
 21
1415.3681393497741
 31
0.0
  0
LINE
  5
7D57
  8
1
 10
2194.8368359525762
 20
1485.8681393497741
 30
0.0
 11
2194.8368359525762
 21
1298.8681393497741
 31
0.0
  0
LINE
  5
7D58
  8
1
 10
2129.8368359525748
 20
1542.3681393497741
 30
0.0
 11
2129.8368359525748
 21
1415.3681393497741
 31
0.0
  0
LINE
  5
7D59
  8
2
 10
2249.8368359525748
 20
1545.1333041980399
 30
0.0
 11
2249.8368359525748
 21
1386.0714267691919
 31
0.0
  0
LINE
  5
7D5A
  8
2
 10
2569.8368359525748
 20
1546.509730801213
 30
0.0
 11
2569.8368359525748
 21
1375.33529926444
 31
0.0
  0
LINE
  5
7D5B
  8
1
 10
1681.140199372674
 20
1298.8681393497741
 30
0.0
 11
1479.3324564352999
 21
1298.8681393497741
 31
0.0
  0
LINE
  5
7D5C
  8
1
 10
1535.4058279039871
 20
1302.8681393497741
 30
0.0
 11
1625.3602279039869
 21
1302.8681393497741
 31
0.0
  0
LINE
  5
7D5D
  8
1
 10
1535.4058279039871
 20
1302.8681393497741
 30
0.0
 11
1625.3602279039869
 21
1302.8681393497741
 31
0.0
  0
LINE
  5
7D5E
  8
1
 10
1529.3122279039869
 20
1301.8681393497741
 30
0.0
 11
1631.2673279039871
 21
1301.8681393497741
 31
0.0
  0
LINE
  5
7D5F
  8
1
 10
1529.3122279039869
 20
1301.8681393497741
 30
0.0
 11
1631.2673279039871
 21
1301.8681393497741
 31
0.0
  0
LINE
  5
7D60
  8
2
 10
1475.771127903987
 20
1388.8681393497741
 30
0.0
 11
1686.3391279039879
 21
1388.8681393497741
 31
0.0
  0
LINE
  5
7D61
  8
1
 10
1730.2363279039871
 20
1268.8681393497741
 30
0.0
 11
1430.236327903988
 21
1268.8681393497741
 31
0.0
  0
LINE
  5
7D62
  8
1
 10
1250.2363279039871
 20
1422.0681393497739
 30
0.0
 11
1250.2363279039871
 21
1238.8681393497741
 31
0.0
  0
LINE
  5
7D63
  8
1
 10
1280.2363279039871
 20
1278.8681393497741
 30
0.0
 11
1280.2363279039871
 21
1238.8681393497741
 31
0.0
  0
LINE
  5
7D64
  8
1
 10
1280.2363279039871
 20
1243.8681393497741
 30
0.0
 11
1250.2363279039871
 21
1243.8681393497741
 31
0.0
  0
LINE
  5
7D65
  8
1
 10
1280.2363279039871
 20
1278.8681393497741
 30
0.0
 11
1250.2363279039871
 21
1278.8681393497741
 31
0.0
  0
LINE
  5
7D66
  8
1
 10
1355.5586767012189
 20
1382.068139349775
 30
0.0
 11
1250.2363279039871
 21
1382.0681393497739
 31
0.0
  0
LINE
  5
7D67
  8
1
 10
1353.1524240026849
 20
1377.5681393497739
 30
0.0
 11
1250.2363279039871
 21
1377.5681393497739
 31
0.0
  0
LINE
  5
7D68
  8
1
 10
1260.2363279039871
 20
1425.2681393497739
 30
0.0
 11
1260.2363279039871
 21
1422.0681393497739
 31
0.0
  0
LINE
  5
7D69
  8
1
 10
1300.2363279039871
 20
1422.0681393497739
 30
0.0
 11
1300.2363279039871
 21
1382.0681393497739
 31
0.0
  0
LINE
  5
7D6A
  8
1
 10
1430.236327903988
 20
1238.8681393497741
 30
0.0
 11
1430.236327903988
 21
1268.8681393497741
 31
0.0
  0
LINE
  5
7D6B
  8
1
 10
1467.7363279039871
 20
1268.8681393497741
 30
0.0
 11
1479.3324564352999
 21
1298.8681393497741
 31
0.0
  0
LINE
  5
7D6C
  8
1
 10
1492.2363279039871
 20
1298.8681393497741
 30
0.0
 11
1532.2363279039871
 21
1298.8681393497741
 31
0.0
  0
LINE
  5
7D6D
  8
1
 10
1492.2363279039871
 20
1298.8681393497741
 30
0.0
 11
1492.2363279039871
 21
1306.8681393497741
 31
0.0
  0
LINE
  5
7D6E
  8
1
 10
1498.089827903987
 20
1330.450839349774
 30
0.0
 11
1492.2363279039871
 21
1306.8681393497741
 31
0.0
  0
LINE
  5
7D6F
  8
1
 10
1510.2363279039871
 20
1294.501639349774
 30
0.0
 11
1510.2363279039871
 21
1311.4050393497739
 31
0.0
  0
LINE
  5
7D70
  8
1
 10
1532.2363279039871
 20
1301.8409393497741
 30
0.0
 11
1532.2363279039871
 21
1298.8681393497741
 31
0.0
  0
LINE
  5
7D71
  8
1
 10
1720.2363279039871
 20
1238.8681393497741
 30
0.0
 11
1720.236327903988
 21
1163.8681393497741
 31
0.0
  0
LINE
  5
7D72
  8
1
 10
1720.236327903988
 20
1127.8681393497741
 30
0.0
 11
1720.236327903988
 21
1052.8681393497741
 31
0.0
  0
ARC
  5
7D73
  8
1
 10
1580.2363279039871
 20
1388.8681393497741
 30
0.0
 40
97.0
 50
297.61250000000001
 51
0.0
  0
ARC
  5
7D74
  8
1
 10
1580.2363279039871
 20
1388.8681393497741
 30
0.0
 40
100.8
 50
300.3932999999999
 51
0.0
  0
ARC
  5
7D75
  8
1
 10
1580.2363279039871
 20
1388.8681393497741
 30
0.0
 40
97.0
 50
297.61250000000001
 51
0.0
  0
ARC
  5
7D76
  8
1
 10
1580.2363279039871
 20
1388.8681393497741
 30
0.0
 40
100.8
 50
300.3932999999999
 51
0.0
  0
LINE
  5
7D77
  8
1
 10
1668.2363279039871
 20
1298.8681393497741
 30
0.0
 11
1628.2363279039871
 21
1298.8681393497741
 31
0.0
  0
LINE
  5
7D78
  8
1
 10
1628.2363279039871
 20
1301.7991393497739
 30
0.0
 11
1628.2363279039871
 21
1298.8681393497741
 31
0.0
  0
LINE
  5
7D79
  8
1
 10
1692.7363279039871
 20
1268.8681393497741
 30
0.0
 11
1681.140199372674
 21
1298.8681393497741
 31
0.0
  0
LINE
  5
7D7A
  8
1
 10
1650.2363279039871
 20
1294.501639349774
 30
0.0
 11
1650.2363279039871
 21
1311.4050393497739
 31
0.0
  0
LINE
  5
7D7B
  8
1
 10
1662.3829279039869
 20
1330.450839349774
 30
0.0
 11
1668.2363279039871
 21
1306.8681393497741
 31
0.0
  0
LINE
  5
7D7C
  8
1
 10
1668.2363279039871
 20
1298.8681393497741
 30
0.0
 11
1668.2363279039871
 21
1306.8681393497741
 31
0.0
  0
LINE
  5
7D7D
  8
1
 10
1730.2363279039871
 20
1238.8681393497741
 30
0.0
 11
1730.2363279039871
 21
1268.8681393497741
 31
0.0
  0
LINE
  5
7D7E
  8
1
 10
2194.8368359525762
 20
1298.8681393497741
 30
0.0
 11
2456.8368359525748
 21
1298.8681393497741
 31
0.0
  0
LINE
  5
7D7F
  8
1
 10
2099.8368359525748
 20
1238.8681393497741
 30
0.0
 11
2300.3754744180528
 21
1238.8681393497741
 31
0.0
  0
LINE
  5
7D80
  8
1
 10
2172.8368359525748
 20
1238.8681393497729
 30
0.0
 11
2172.8368359525748
 21
1163.8681393497729
 31
0.0
  0
LINE
  5
7D81
  8
1
 10
2172.8368359525748
 20
1127.8681393497729
 30
0.0
 11
2172.8368359525748
 21
1052.8681393497729
 31
0.0
  0
LINE
  5
7D82
  8
1
 10
2179.8368359525762
 20
1431.468139349774
 30
0.0
 11
2179.8368359525762
 21
1266.2681393497751
 31
0.0
  0
LINE
  5
7D83
  8
1
 10
2129.8368359525748
 20
1431.468139349774
 30
0.0
 11
2129.8368359525748
 21
1266.2681393497751
 31
0.0
  0
LINE
  5
7D84
  8
1
 10
2179.8368359525762
 20
1266.2681393497751
 30
0.0
 11
2129.8368359525748
 21
1266.2681393497739
 31
0.0
  0
LINE
  5
7D85
  8
1
 10
2211.636835952575
 20
1298.8681393497741
 30
0.0
 11
2211.636835952575
 21
1238.8681393497729
 31
0.0
  0
LINE
  5
7D86
  8
1
 10
2214.8368359525762
 20
1298.8681393497741
 30
0.0
 11
2214.8368359525762
 21
1238.8681393497729
 31
0.0
  0
LINE
  5
7D87
  8
1
 10
2179.8368359525762
 20
1415.3681393497741
 30
0.0
 11
2129.8368359525762
 21
1415.3681393497741
 31
0.0
  0
LINE
  5
7D88
  8
1
 10
2179.8368359525762
 20
1431.468139349774
 30
0.0
 11
2129.8368359525748
 21
1431.468139349774
 31
0.0
  0
LINE
  5
7D89
  8
2
 10
2224.134801349624
 20
1388.8681393497741
 30
0.0
 11
2124.8022359525762
 21
1388.8681393497741
 31
0.0
  0
LINE
  5
7D8A
  8
1
 10
2129.8368359525748
 20
1360.8681393497741
 30
0.0
 11
2129.8368359525748
 21
1336.8681393497741
 31
0.0
  0
LINE
  5
7D8B
  8
1
 10
2184.8368359525748
 20
1352.3681393497741
 30
0.0
 11
2184.8368359525748
 21
1425.3681393497741
 31
0.0
  0
LINE
  5
7D8C
  8
1
 10
2179.8368359525748
 20
1401.3681393497741
 30
0.0
 11
2179.8368359525748
 21
1376.3681393497741
 31
0.0
  0
LINE
  5
7D8D
  8
1
 10
2184.8368359525748
 20
1376.3681393497741
 30
0.0
 11
2179.8368359525748
 21
1376.3681393497741
 31
0.0
  0
ARC
  5
7D8E
  8
1
 10
2185.836935952575
 20
1352.3681393497741
 30
0.0
 40
1.0000999999999991
 50
180.0
 51
269.99650000000003
  0
ARC
  5
7D8F
  8
1
 10
2193.8368359525748
 20
1350.3681393497741
 30
0.0
 40
1.0000999999999991
 50
0.0
 51
89.996500000000054
  0
LINE
  5
7D90
  8
1
 10
2185.8368359525762
 20
1351.3681393497741
 30
0.0
 11
2193.8368359525748
 21
1351.3681393497741
 31
0.0
  0
LINE
  5
7D91
  8
1
 10
2184.8368359525748
 20
1401.3681393497741
 30
0.0
 11
2179.8368359525748
 21
1401.3681393497741
 31
0.0
  0
LINE
  5
7D92
  8
1
 10
2184.8368359525748
 20
1425.3681393497741
 30
0.0
 11
2194.8368359525762
 21
1425.3681393497741
 31
0.0
  0
LINE
  5
7D93
  8
1
 10
1497.636327903987
 20
2341.8811320810282
 30
0.0
 11
1662.836327903987
 21
2341.8811320810282
 31
0.0
  0
LINE
  5
7D94
  8
1
 10
1497.636327903987
 20
2391.8811320810282
 30
0.0
 11
1662.836327903987
 21
2391.8811320810282
 31
0.0
  0
LINE
  5
7D95
  8
1
 10
1497.636327903987
 20
2391.8811320810282
 30
0.0
 11
1497.636327903987
 21
2341.8811320810282
 31
0.0
  0
LINE
  5
7D96
  8
1
 10
1568.2363279039871
 20
2341.8811320810291
 30
0.0
 11
1592.2363279039871
 21
2341.8811320810291
 31
0.0
  0
LINE
  5
7D97
  8
1
 10
1567.7363279039871
 20
2391.8811320810282
 30
0.0
 11
1592.7363279039871
 21
2391.8811320810282
 31
0.0
  0
LINE
  5
7D98
  8
1
 10
1662.836327903987
 20
2391.8811320810282
 30
0.0
 11
1662.836327903987
 21
2341.8811320810282
 31
0.0
  0
LINE
  5
7D99
  8
1
 10
2194.8368359525762
 20
1485.8681393497741
 30
0.0
 11
2456.8368359525762
 21
1485.8681393497741
 31
0.0
  0
ARC
  5
7D9A
  8
1
 10
2247.640543637714
 20
1500.433201177759
 30
0.0
 40
24.931864229136519
 50
84.94616189605199
 51
120.9004470316801
  0
LINE
  5
7D9B
  8
1
 10
2179.8368359525762
 20
1542.3681393497741
 30
0.0
 11
2129.8368359525762
 21
1542.3681393497741
 31
0.0
  0
ARC
  5
7D9C
  8
1
 10
1969.849402753508
 20
1518.8091961402049
 30
0.0
 40
265.0046083029427
 50
352.85945212218581
 51
0.6523233868105212
  0
LINE
  5
7D9D
  8
1
 10
2231.0368359525751
 20
1496.3681393497741
 30
0.0
 11
2191.8368359525748
 21
1496.3681393497741
 31
0.0
  0
LINE
  5
7D9E
  8
1
 10
2194.8368359525762
 20
1461.3681393497741
 30
0.0
 11
2191.8368359525748
 21
1461.3681393497741
 31
0.0
  0
LINE
  5
7D9F
  8
1
 10
2234.55762651136
 20
1506.2792840591439
 30
0.0
 11
2231.0368359525751
 21
1506.2792840591439
 31
0.0
  0
LINE
  5
7DA0
  8
1
 10
2231.0368359525751
 20
1485.8681393497741
 30
0.0
 11
2231.0368359525751
 21
1506.2792840591439
 31
0.0
  0
LINE
  5
7DA1
  8
1
 10
2099.8368359525762
 20
1578.8681393497741
 30
0.0
 11
2191.8368359525748
 21
1578.8681393497741
 31
0.0
  0
LINE
  5
7DA2
  8
1
 10
2537.5368359525742
 20
1496.3681393497741
 30
0.0
 11
2282.136835952575
 21
1496.3681393497741
 31
0.0
  0
ARC
  5
7DA3
  8
1
 10
2529.824269151643
 20
1518.8091961402049
 30
0.0
 40
265.0046083029427
 50
179.34767661318941
 51
187.1405478778141
  0
LINE
  5
7DA4
  8
1
 10
2282.136835952575
 20
1506.2792840591439
 30
0.0
 11
2265.11604539379
 21
1506.2792840591439
 31
0.0
  0
LINE
  5
7DA5
  8
1
 10
2282.136835952575
 20
1485.8681393497741
 30
0.0
 11
2282.136835952575
 21
1506.2792840591439
 31
0.0
  0
POLYLINE
  5
7DA6
  8
1
 66
     1
 10
0.0
 20
0.0
 30
0.0
 70
     1
  0
VERTEX
  5
8180
  8
1
 10
2256.1887610900048
 20
1533.6295628302851
 30
0.0
  0
VERTEX
  5
8181
  8
1
 10
2251.543776317078
 20
1533.6295628302851
 30
0.0
  0
VERTEX
  5
8182
  8
1
 10
2251.543776317078
 20
1525.2681393497739
 30
0.0
  0
VERTEX
  5
8183
  8
1
 10
2256.1887610900048
 20
1525.2681393497739
 30
0.0
  0
SEQEND
  5
8184
  8
1
  0
ARC
  5
7DAC
  8
1
 10
2252.033128267437
 20
1500.433201177759
 30
0.0
 40
24.931864229136519
 50
59.099552968319841
 51
95.053838103948024
  0
LINE
  5
7DAD
  8
1
 10
2537.5368359525742
 20
1461.3681393497741
 30
0.0
 11
2456.8368359525762
 21
1461.3681393497741
 31
0.0
  0
ARC
  5
7DAE
  8
1
 10
2289.8494027535071
 20
1518.8091961402049
 30
0.0
 40
265.0046083029427
 50
345.01056085638442
 51
0.6523233868105212
  0
LINE
  5
7DAF
  8
1
 10
2537.5368359525742
 20
1506.2792840591439
 30
0.0
 11
2554.5576265113591
 21
1506.2792840591439
 31
0.0
  0
LINE
  5
7DB0
  8
1
 10
2537.5368359525742
 20
1451.456994640404
 30
0.0
 11
2546.1521990217611
 21
1451.456994640404
 31
0.0
  0
LINE
  5
7DB1
  8
1
 10
2537.5368359525742
 20
1451.456994640404
 30
0.0
 11
2537.5368359525742
 21
1506.2792840591439
 31
0.0
  0
ARC
  5
7DB2
  8
1
 10
2567.6405436377131
 20
1500.433201177759
 30
0.0
 40
24.931864229136519
 50
84.94616189605199
 51
120.9004470316801
  0
POLYLINE
  5
7DB3
  8
1
 66
     1
 10
0.0
 20
0.0
 30
0.0
 70
     1
  0
VERTEX
  5
8185
  8
1
 10
2563.4849108151452
 20
1533.6295628302851
 30
0.0
  0
VERTEX
  5
8186
  8
1
 10
2568.129895588072
 20
1533.6295628302851
 30
0.0
  0
VERTEX
  5
8187
  8
1
 10
2568.129895588072
 20
1525.2681393497739
 30
0.0
  0
VERTEX
  5
8188
  8
1
 10
2563.4849108151452
 20
1525.2681393497739
 30
0.0
  0
SEQEND
  5
8189
  8
1
  0
LINE
  5
7DB9
  8
1
 10
940.23632790398733
 20
2416.8811320810269
 30
0.0
 11
1260.2363279039871
 21
2416.8811320810269
 31
0.0
  0
LINE
  5
7DBA
  8
1
 10
940.23632790398779
 20
2826.8811320810282
 30
0.0
 11
1260.2363279039871
 21
2826.8811320810282
 31
0.0
  0
DIMENSION
  5
7DBB
  8
3
  2
*D19
 10
1280.2363279039871
 20
3260.670610794311
 30
0.0
 11
1100.2363279039871
 21
3301.920610794311
 31
0.0
 70
     0
 13
920.23632790398733
 23
3164.8811320810282
 33
0.0
 14
1280.2363279039871
 24
3164.8811320810282
 34
0.0
1001
ACAD
1000
DSTYLE
1002
{
1070
   287
1070
     3
1070
    40
1040
15.0
1070
    43
1040
0.0
1070
   147
1040
1.5
1070
   173
1070
     1
1070
   272
1070
     4
1070
   279
1070
     0
1070
   284
1070
     0
1070
   285
1070
     0
1070
   286
1070
     0
1070
     6
1000
ARROW
1070
     7
1000
ARROW
1002
}
  0
LINE
  5
7DBC
  8
1
 10
1240.2363279039851
 20
3159.8811320810282
 30
0.0
 11
960.23632790398744
 21
3159.8811320810282
 31
0.0
  0
LINE
  5
7DBD
  8
1
 10
1376.8012087846689
 20
2881.8811320810282
 30
0.0
 11
859.23632790398835
 21
2881.8811320810282
 31
0.0
  0
LINE
  5
7DBE
  8
1
 10
1376.8012087846689
 20
3117.8811320810282
 30
0.0
 11
859.23632790398835
 21
3117.8811320810282
 31
0.0
  0
LINE
  5
7DBF
  8
1
 10
1240.236327903986
 20
3119.8811320810282
 30
0.0
 11
960.23632790398744
 21
3119.8811320810282
 31
0.0
  0
LINE
  5
7DC0
  8
2
 10
1400.267589451352
 20
2999.8811320810282
 30
0.0
 11
850.63720787777117
 21
2999.8811320810282
 31
0.0
  0
LINE
  5
7DC1
  8
1
 10
1000.236327903987
 20
2403.8811320810282
 30
0.0
 11
1730.2363279039871
 21
2403.8811320810282
 31
0.0
  0
LINE
  5
7DC2
  8
1
 10
1082.7363279039871
 20
2881.8811320810282
 30
0.0
 11
1082.7363279039871
 21
2803.3811320810282
 31
0.0
  0
LINE
  5
7DC3
  8
1
 10
960.23632790398676
 20
2881.8811320810291
 30
0.0
 11
960.23632790398676
 21
2826.8811320810282
 31
0.0
  0
LINE
  5
7DC4
  8
1
 10
856.23632790398824
 20
2854.8811320810269
 30
0.0
 11
856.23632790398824
 21
3144.8811320810282
 31
0.0
  0
LINE
  5
7DC5
  8
1
 10
859.23632790398835
 20
2854.8811320810269
 30
0.0
 11
859.23632790398835
 21
3144.8811320810282
 31
0.0
  0
LINE
  5
7DC6
  8
1
 10
1117.7363279039871
 20
2881.8811320810282
 30
0.0
 11
1117.7363279039871
 21
2803.3811320810282
 31
0.0
  0
LINE
  5
7DC7
  8
1
 10
859.23632790398835
 20
2854.8811320810269
 30
0.0
 11
856.23632790398824
 21
2854.8811320810269
 31
0.0
  0
LINE
  5
7DC8
  8
1
 10
1082.7363279039871
 20
2760.3811320810282
 30
0.0
 11
1082.7363279039871
 21
2483.3811320810282
 31
0.0
  0
LINE
  5
7DC9
  8
1
 10
940.23632790398733
 20
2416.8811320810269
 30
0.0
 11
940.23632790398733
 21
2826.8811320810282
 31
0.0
  0
LINE
  5
7DCA
  8
1
 10
1117.7363279039871
 20
2760.3811320810282
 30
0.0
 11
1117.7363279039871
 21
2483.3811320810282
 31
0.0
  0
LINE
  5
7DCB
  8
1
 10
1082.7363279039871
 20
2429.3811320810291
 30
0.0
 11
1000.236327903987
 21
2429.3811320810282
 31
0.0
  0
LINE
  5
7DCC
  8
1
 10
1082.7363279039871
 20
2494.3811320810282
 30
0.0
 11
1000.236327903987
 21
2494.3811320810282
 31
0.0
  0
LINE
  5
7DCD
  8
1
 10
1183.7363279039871
 20
2440.3811320810291
 30
0.0
 11
1016.736327903987
 21
2440.3811320810291
 31
0.0
  0
LINE
  5
7DCE
  8
1
 10
1183.7363279039871
 20
2483.3811320810282
 30
0.0
 11
1016.736327903987
 21
2483.3811320810282
 31
0.0
  0
LINE
  5
7DCF
  8
2
 10
1204.1050065926629
 20
2461.8811320810282
 30
0.0
 11
994.05086636621979
 21
2461.8811320810282
 31
0.0
  0
LINE
  5
7DD0
  8
1
 10
920.23632790398824
 20
2424.8811320810282
 30
0.0
 11
940.23632790398733
 21
2424.8811320810269
 31
0.0
  0
LINE
  5
7DD1
  8
1
 10
1016.736327903987
 20
2483.3811320810282
 30
0.0
 11
1016.736327903987
 21
2440.3811320810291
 31
0.0
  0
LINE
  5
7DD2
  8
1
 10
1000.236327903987
 20
2494.3811320810282
 30
0.0
 11
1000.236327903987
 21
2429.3811320810291
 31
0.0
  0
LINE
  5
7DD3
  8
1
 10
1200.2363279039871
 20
2429.3811320810291
 30
0.0
 11
1117.7363279039871
 21
2429.3811320810291
 31
0.0
  0
LINE
  5
7DD4
  8
1
 10
1200.2363279039871
 20
2494.3811320810282
 30
0.0
 11
1117.7363279039871
 21
2494.3811320810282
 31
0.0
  0
LINE
  5
7DD5
  8
1
 10
1183.7363279039871
 20
2483.3811320810282
 30
0.0
 11
1183.7363279039871
 21
2440.3811320810291
 31
0.0
  0
LINE
  5
7DD6
  8
1
 10
1200.2363279039871
 20
2494.3811320810282
 30
0.0
 11
1200.2363279039871
 21
2429.3811320810291
 31
0.0
  0
LINE
  5
7DD7
  8
1
 10
1082.7363279039871
 20
2814.3811320810282
 30
0.0
 11
1000.236327903987
 21
2814.3811320810282
 31
0.0
  0
LINE
  5
7DD8
  8
1
 10
1082.7363279039871
 20
2749.3811320810282
 30
0.0
 11
1000.236327903987
 21
2749.3811320810269
 31
0.0
  0
LINE
  5
7DD9
  8
1
 10
1183.7363279039871
 20
2760.3811320810282
 30
0.0
 11
1016.736327903987
 21
2760.3811320810282
 31
0.0
  0
LINE
  5
7DDA
  8
1
 10
1183.7363279039871
 20
2803.3811320810282
 30
0.0
 11
1016.736327903987
 21
2803.3811320810282
 31
0.0
  0
LINE
  5
7DDB
  8
2
 10
1204.1050065926629
 20
2781.8811320810282
 30
0.0
 11
994.05086636621979
 21
2781.8811320810282
 31
0.0
  0
LINE
  5
7DDC
  8
1
 10
1000.236327903987
 20
2814.3811320810282
 30
0.0
 11
1000.236327903987
 21
2749.3811320810282
 31
0.0
  0
LINE
  5
7DDD
  8
1
 10
1016.736327903987
 20
2803.3811320810282
 30
0.0
 11
1016.736327903987
 21
2760.3811320810282
 31
0.0
  0
LINE
  5
7DDE
  8
1
 10
1200.2363279039871
 20
2814.3811320810282
 30
0.0
 11
1200.2363279039871
 21
2749.3811320810282
 31
0.0
  0
LINE
  5
7DDF
  8
1
 10
1200.2363279039871
 20
2749.3811320810282
 30
0.0
 11
1117.7363279039871
 21
2749.3811320810282
 31
0.0
  0
LINE
  5
7DE0
  8
1
 10
1200.2363279039871
 20
2814.3811320810282
 30
0.0
 11
1117.7363279039871
 21
2814.3811320810282
 31
0.0
  0
LINE
  5
7DE1
  8
1
 10
1183.7363279039871
 20
2803.3811320810282
 30
0.0
 11
1183.7363279039871
 21
2760.3811320810282
 31
0.0
  0
LINE
  5
7DE2
  8
1
 10
859.23632790398835
 20
3144.8811320810282
 30
0.0
 11
856.23632790398824
 21
3144.8811320810282
 31
0.0
  0
LINE
  5
7DE3
  8
1
 10
960.23632790398744
 20
3164.8811320810282
 30
0.0
 11
920.23632790398733
 21
3164.8811320810282
 31
0.0
  0
LINE
  5
7DE4
  8
1
 10
920.23632790398733
 20
3164.8811320810282
 30
0.0
 11
920.23632790398733
 21
3117.8811320810282
 31
0.0
  0
POINT
  5
7DE5
  8
1
 10
920.23632790398733
 20
3164.8811320810282
 30
0.0
  0
POINT
  5
7DE6
  8
1
 10
920.23632790398733
 20
3164.8811320810282
 30
0.0
  0
LINE
  5
7DE7
  8
1
 10
960.23632790398744
 20
3164.8811320810282
 30
0.0
 11
960.23632790398744
 21
3117.8811320810282
 31
0.0
  0
DIMENSION
  5
7DE8
  8
3
  2
*D20
 10
1720.2363279039889
 20
3260.670610794311
 30
0.0
 11
1500.236327903988
 21
3301.920610794311
 31
0.0
 70
     0
 13
1280.2363279039871
 23
3164.8811320810282
 33
0.0
 14
1720.2363279039889
 24
2764.8811320810282
 34
0.0
1001
ACAD
1000
DSTYLE
1002
{
1070
   287
1070
     4
1070
    40
1040
15.0
1070
    43
1040
0.0
1070
    75
1070
     1
1070
   147
1040
1.5
1070
   173
1070
     1
1070
   272
1070
     4
1070
   279
1070
     1
1070
   284
1070
     0
1070
   285
1070
     0
1070
   286
1070
     0
1070
     6
1000
ARROW
1070
     7
1000
ARROW
1002
}
  0
LINE
  5
7DE9
  8
1
 10
1240.236327903986
 20
2826.8811320810282
 30
0.0
 11
1240.236327903986
 21
2881.8811320810282
 31
0.0
  0
LINE
  5
7DEA
  8
1
 10
1280.236327903986
 20
2424.8811320810269
 30
0.0
 11
1280.2363279039871
 21
2881.8811320810282
 31
0.0
  0
LINE
  5
7DEB
  8
1
 10
1479.2363279039871
 20
2668.8811320810291
 30
0.0
 11
1681.2363279039871
 21
2668.8811320810291
 31
0.0
  0
LINE
  5
7DEC
  8
2
 10
1497.636327903987
 20
2447.8811320810282
 30
0.0
 11
1662.836327903987
 21
2447.8811320810282
 31
0.0
  0
LINE
  5
7DED
  8
1
 10
1479.2363279039871
 20
2406.8811320810291
 30
0.0
 11
1681.2363279039871
 21
2406.8811320810291
 31
0.0
  0
LINE
  5
7DEE
  8
1
 10
1616.7363279039871
 20
2396.8811320810282
 30
0.0
 11
1543.7363279039871
 21
2396.8811320810282
 31
0.0
  0
LINE
  5
7DEF
  8
1
 10
1280.2363279039871
 20
2724.8811320810282
 30
0.0
 11
1720.2363279039871
 21
2724.8811320810282
 31
0.0
  0
LINE
  5
7DF0
  8
1
 10
1280.2363279039871
 20
2764.8811320810282
 30
0.0
 11
1720.2363279039871
 21
2764.8811320810282
 31
0.0
  0
LINE
  5
7DF1
  8
1
 10
1260.2363279039871
 20
2416.8811320810269
 30
0.0
 11
1260.2363279039871
 21
2826.8811320810282
 31
0.0
  0
LINE
  5
7DF2
  8
1
 10
1479.2363279039871
 20
2668.8811320810291
 30
0.0
 11
1479.2363279039871
 21
2406.8811320810291
 31
0.0
  0
LINE
  5
7DF3
  8
1
 10
1260.2363279039871
 20
2424.8811320810269
 30
0.0
 11
1479.2363279039871
 21
2424.8811320810269
 31
0.0
  0
LINE
  5
7DF4
  8
1
 10
1543.7363279039871
 20
2396.8811320810282
 30
0.0
 11
1543.7363279039871
 21
2406.8811320810291
 31
0.0
  0
LINE
  5
7DF5
  8
1
 10
1681.2363279039871
 20
2668.8811320810291
 30
0.0
 11
1681.2363279039871
 21
2406.8811320810291
 31
0.0
  0
LINE
  5
7DF6
  8
1
 10
1617.7363279039871
 20
2397.8811320810282
 30
0.0
 11
1617.7363279039871
 21
2405.8811320810291
 31
0.0
  0
ARC
  5
7DF7
  8
1
 10
1616.7363279039871
 20
2397.881232081028
 30
0.0
 40
1.0000999999999991
 50
270.0
 51
359.99650000000003
  0
ARC
  5
7DF8
  8
1
 10
1618.7363279039871
 20
2405.8811320810291
 30
0.0
 40
1.0000999999999991
 50
90.0
 51
179.9965
  0
LINE
  5
7DF9
  8
1
 10
1720.236327903988
 20
2403.8811320810282
 30
0.0
 11
1720.236327903988
 21
2424.8811320810269
 31
0.0
  0
LINE
  5
7DFA
  8
1
 10
1681.2363279039871
 20
2424.8811320810269
 30
0.0
 11
1720.2363279039871
 21
2424.8811320810269
 31
0.0
  0
LINE
  5
7DFB
  8
1
 10
1720.2363279039889
 20
2724.8811320810282
 30
0.0
 11
1720.2363279039889
 21
2764.8811320810282
 31
0.0
  0
POINT
  5
7DFC
  8
1
 10
1720.2363279039889
 20
2764.8811320810282
 30
0.0
  0
LINE
  5
7DFD
  8
1
 10
1376.8012087846689
 20
2881.8811320810282
 30
0.0
 11
1376.8012087846689
 21
3117.8811320810282
 31
0.0
  0
LINE
  5
7DFE
  8
1
 10
1240.236327903986
 20
3117.8811320810282
 30
0.0
 11
1240.2363279039851
 21
3164.8811320810282
 31
0.0
  0
LINE
  5
7DFF
  8
1
 10
1280.2363279039871
 20
3117.8811320810282
 30
0.0
 11
1280.2363279039871
 21
3164.8811320810282
 31
0.0
  0
LINE
  5
7E00
  8
1
 10
1280.2363279039871
 20
3164.8811320810282
 30
0.0
 11
1240.2363279039851
 21
3164.8811320810282
 31
0.0
  0
POINT
  5
7E01
  8
1
 10
1280.2363279039871
 20
3164.8811320810282
 30
0.0
  0
LINE
  5
7E02
  8
1
 10
2593.8368359525748
 20
1431.2681393497739
 30
0.0
 11
2593.8368359525748
 21
1450.2681393497739
 31
0.0
  0
DIMENSION
  5
7E03
  8
3
  2
*D21
 10
3061.0168074950629
 20
1321.3681393497741
 30
0.0
 11
3019.7668074950629
 21
1478.8681393497741
 31
0.0
 70
     0
 13
2933.8368359525748
 23
1636.3681393497741
 33
0.0
 14
2933.8368359525748
 24
1321.3681393497741
 34
0.0
 50
90.0
1001
ACAD
1000
DSTYLE
1002
{
1070
   287
1070
     3
1070
     3
1000
φ<>
1070
    40
1040
15.0
1070
    43
1040
0.0
1070
   147
1040
1.5
1070
   173
1070
     1
1070
   271
1070
     4
1070
   272
1070
     4
1070
   279
1070
     0
1070
   284
1070
     0
1070
   285
1070
     0
1070
   286
1070
     0
1070
     6
1000
ARROW
1070
     7
1000
ARROW
1002
}
  0
LINE
  5
7E04
  8
1
 10
2907.8368359525771
 20
1501.4793090248179
 30
0.0
 11
2907.8368359525762
 21
1242.909235121944
 31
0.0
  0
LINE
  5
7E05
  8
1
 10
2667.8368359525762
 20
1501.4793090248179
 30
0.0
 11
2667.8368359525748
 21
1242.909235121944
 31
0.0
  0
LINE
  5
7E06
  8
1
 10
2905.8368359525762
 20
1501.4793090248179
 30
0.0
 11
2905.8368359525748
 21
1242.909235121944
 31
0.0
  0
LINE
  5
7E07
  8
1
 10
2669.8368359525762
 20
1501.4793090248179
 30
0.0
 11
2669.8368359525762
 21
1242.909235121944
 31
0.0
  0
LINE
  5
7E08
  8
1
 10
2911.8368359525748
 20
1476.4793090248179
 30
0.0
 11
2911.8368359525748
 21
1314.3681393497741
 31
0.0
  0
LINE
  5
7E09
  8
1
 10
2908.8368359525748
 20
1296.3681393497741
 30
0.0
 11
2908.8368359525748
 21
1476.4793090248179
 31
0.0
  0
LINE
  5
7E0A
  8
1
 10
2933.8368359525748
 20
1321.3681393497741
 30
0.0
 11
2933.8368359525748
 21
1637.3681661139999
 31
0.0
  0
LINE
  5
7E0B
  8
2
 10
2787.8368359525762
 20
1976.588498841425
 30
0.0
 11
2787.8368359525762
 21
1027.3663100789629
 31
0.0
  0
DIMENSION
  5
7E0C
  8
3
  2
*D22
 10
2952.8368359525748
 20
896.50659304032297
 30
0.0
 11
2870.3368359525748
 21
937.75659304032297
 31
0.0
 70
     0
 13
2787.8368359525762
 23
1027.3663100789629
 33
0.0
 14
2952.8368359525748
 24
1052.8681393497741
 34
0.0
1001
ACAD
1000
DSTYLE
1002
{
1070
   287
1070
     3
1070
    40
1040
15.0
1070
    43
1040
0.0
1070
   147
1040
1.5
1070
   173
1070
     1
1070
   271
1070
     0
1070
   272
1070
     4
1070
   279
1070
     0
1070
   284
1070
     0
1070
   285
1070
     0
1070
   286
1070
     0
1070
     6
1000
ARROW
1070
     7
1000
ARROW
1002
}
  0
POLYLINE
  5
7E0D
  8
1
 66
     1
 10
0.0
 20
0.0
 30
0.0
  0
VERTEX
  5
81AD
  8
1
 10
2912.8368359525762
 20
1253.909235121946
 30
0.0
  0
VERTEX
  5
81AE
  8
1
 10
2912.8368359525762
 20
1248.409235121946
 30
0.0
 42
0.4142135623730951
  0
VERTEX
  5
81AF
  8
1
 10
2917.3368359525748
 20
1243.909235121946
 30
0.0
  0
VERTEX
  5
81B0
  8
1
 10
2944.8368359525762
 20
1243.909235121946
 30
0.0
 42
-0.4142135623730951
  0
VERTEX
  5
81B1
  8
1
 10
2947.8368359525748
 20
1240.909235121946
 30
0.0
  0
VERTEX
  5
81B2
  8
1
 10
2947.8368359525748
 20
1238.909235121946
 30
0.0
  0
VERTEX
  5
81B3
  8
1
 10
2907.8368359525762
 20
1238.909235121946
 30
0.0
  0
SEQEND
  5
81B4
  8
1
  0
LINE
  5
7E16
  8
1
 10
2931.8368359525748
 20
1318.3681393497741
 30
0.0
 11
2915.8368359525748
 21
1318.3681393497741
 31
0.0
  0
LINE
  5
7E17
  8
1
 10
2667.8368359525748
 20
1252.909235121944
 30
0.0
 11
2905.8368359525748
 21
1252.909235121944
 31
0.0
  0
LINE
  5
7E18
  8
1
 10
2604.8368359525748
 20
1420.7681393497739
 30
0.0
 11
2604.8368359525748
 21
1238.8681393497729
 31
0.0
  0
POLYLINE
  5
7E19
  8
1
 66
     1
 10
0.0
 20
0.0
 30
0.0
 70
     1
  0
VERTEX
  5
81B5
  8
1
 10
2667.8368359525748
 20
1238.909235121946
 30
0.0
  0
VERTEX
  5
81B6
  8
1
 10
2667.8368359525748
 20
1278.909235121946
 30
0.0
  0
VERTEX
  5
81B7
  8
1
 10
2665.8368359525748
 20
1278.909235121946
 30
0.0
 42
0.4142135623730951
  0
VERTEX
  5
81B8
  8
1
 10
2662.8368359525762
 20
1275.909235121946
 30
0.0
  0
VERTEX
  5
81B9
  8
1
 10
2662.8368359525762
 20
1248.409235121946
 30
0.0
 42
-0.4142135623730951
  0
VERTEX
  5
81BA
  8
1
 10
2658.3368359525748
 20
1243.909235121946
 30
0.0
  0
VERTEX
  5
81BB
  8
1
 10
2630.8368359525762
 20
1243.909235121946
 30
0.0
 42
0.4142135623730951
  0
VERTEX
  5
81BC
  8
1
 10
2627.8368359525748
 20
1240.909235121946
 30
0.0
  0
VERTEX
  5
81BD
  8
1
 10
2627.8368359525748
 20
1238.909235121946
 30
0.0
  0
SEQEND
  5
81BE
  8
1
  0
LINE
  5
7E24
  8
1
 10
2667.8368359525748
 20
1242.909235121944
 30
0.0
 11
2669.8368359525762
 21
1242.909235121944
 31
0.0
  0
LINE
  5
7E25
  8
1
 10
2617.8368359525762
 20
1382.0681393497739
 30
0.0
 11
2667.8368359525762
 21
1382.0681393497739
 31
0.0
  0
LINE
  5
7E26
  8
1
 10
2617.8368359525762
 20
1376.0681393497739
 30
0.0
 11
2667.8368359525762
 21
1376.0681393497739
 31
0.0
  0
POLYLINE
  5
7E27
  8
1
 66
     1
 10
0.0
 20
0.0
 30
0.0
 70
     1
  0
VERTEX
  5
81BF
  8
1
 10
2604.8368359525748
 20
1382.0681393497739
 30
0.0
  0
VERTEX
  5
81C0
  8
1
 10
2604.8368359525748
 20
1422.0681393497739
 30
0.0
  0
VERTEX
  5
81C1
  8
1
 10
2606.8368359525748
 20
1422.0681393497739
 30
0.0
 42
-0.4142135623730951
  0
VERTEX
  5
81C2
  8
1
 10
2609.8368359525748
 20
1419.068139349773
 30
0.0
  0
VERTEX
  5
81C3
  8
1
 10
2609.8368359525748
 20
1391.568139349773
 30
0.0
 42
0.4142135623730951
  0
VERTEX
  5
81C4
  8
1
 10
2614.3368359525739
 20
1387.068139349773
 30
0.0
  0
VERTEX
  5
81C5
  8
1
 10
2641.8368359525739
 20
1387.068139349773
 30
0.0
 42
-0.4142135623730951
  0
VERTEX
  5
81C6
  8
1
 10
2644.8368359525739
 20
1384.0681393497739
 30
0.0
  0
VERTEX
  5
81C7
  8
1
 10
2644.8368359525739
 20
1382.0681393497739
 30
0.0
  0
SEQEND
  5
81C8
  8
1
  0
LINE
  5
7E32
  8
1
 10
2604.8368359525748
 20
1420.7681393497739
 30
0.0
 11
2604.8368359525748
 21
1370.7681393497739
 31
0.0
  0
LINE
  5
7E33
  8
1
 10
2604.8368359525748
 20
1420.7681393497751
 30
0.0
 11
2604.8368359525748
 21
1380.7681393497751
 31
0.0
  0
LINE
  5
7E34
  8
1
 10
2617.8368359525762
 20
1376.0681393497739
 30
0.0
 11
2617.8368359525762
 21
1380.7681393497739
 31
0.0
  0
LINE
  5
7E35
  8
1
 10
2617.8368359525762
 20
1382.0681393497739
 30
0.0
 11
2617.8368359525762
 21
1376.0681393497739
 31
0.0
  0
LINE
  5
7E36
  8
1
 10
2614.8368359525748
 20
1425.2681393497739
 30
0.0
 11
2614.836835952573
 21
1422.0681393497739
 31
0.0
  0
POLYLINE
  5
7E37
  8
1
 66
     1
 10
0.0
 20
0.0
 30
0.0
  0
VERTEX
  5
81C9
  8
1
 10
2907.8368359525762
 20
1253.909235121946
 30
0.0
  0
VERTEX
  5
81CA
  8
1
 10
2907.8368359525762
 20
1278.909235121946
 30
0.0
  0
VERTEX
  5
81CB
  8
1
 10
2909.8368359525748
 20
1278.909235121946
 30
0.0
 42
-0.4142135623730951
  0
VERTEX
  5
81CC
  8
1
 10
2912.8368359525762
 20
1275.909235121946
 30
0.0
  0
VERTEX
  5
81CD
  8
1
 10
2912.8368359525762
 20
1253.909235121946
 30
0.0
 42
0.4142135623730951
  0
SEQEND
  5
81CE
  8
1
  0
POLYLINE
  5
7E3E
  8
1
 66
     1
 10
0.0
 20
0.0
 30
0.0
  0
VERTEX
  5
81CF
  8
1
 10
2907.8368359525762
 20
1238.909235121946
 30
0.0
  0
VERTEX
  5
81D0
  8
1
 10
2907.8368359525762
 20
1253.909235121946
 30
0.0
  0
SEQEND
  5
81D1
  8
1
  0
LINE
  5
7E42
  8
1
 10
2905.8368359525748
 20
1242.909235121944
 30
0.0
 11
2907.8368359525771
 21
1242.909235121944
 31
0.0
  0
LINE
  5
7E43
  8
1
 10
2909.8368359525748
 20
1296.3681393497741
 30
0.0
 11
2908.8368359525748
 21
1296.3681393497741
 31
0.0
  0
ARC
  5
7E44
  8
1
 10
2909.8368359525748
 20
1298.3681393497741
 30
0.0
 40
2.0
 50
270.0
 51
0.0
  0
LINE
  5
7E45
  8
1
 10
2911.8368359525748
 20
1314.3681393497741
 30
0.0
 11
2911.8368359525748
 21
1298.3681393497741
 31
0.0
  0
ARC
  5
7E46
  8
1
 10
2915.8368359525748
 20
1314.3681393497741
 30
0.0
 40
4.0
 50
90.0
 51
180.0
  0
LINE
  5
7E47
  8
1
 10
2952.8368359525748
 20
1238.8681393497729
 30
0.0
 11
2952.8368359525748
 21
1163.8681393497729
 31
0.0
  0
LINE
  5
7E48
  8
1
 10
2952.8368359525748
 20
1127.8681393497729
 30
0.0
 11
2952.8368359525748
 21
1052.8681393497729
 31
0.0
  0
ARC
  5
7E49
  8
1
 10
2931.8368359525748
 20
1320.3681393497741
 30
0.0
 40
2.0
 50
270.0
 51
0.0
  0
LINE
  5
7E4A
  8
1
 10
2933.8368359525748
 20
1321.3681393497741
 30
0.0
 11
2933.8368359525748
 21
1320.3681393497741
 31
0.0
  0
DIMENSION
  5
7E4B
  8
3
  2
*D23
 10
2908.8368359525748
 20
2062.2662146289299
 30
0.0
 11
2848.3368359525762
 21
2103.5162146289299
 31
0.0
 70
     0
 13
2787.8368359525762
 23
2027.9414135886859
 33
0.0
 14
2908.8368359525748
 24
1476.4793090248179
 34
0.0
1001
ACAD
1000
DSTYLE
1002
{
1070
   287
1070
     3
1070
    40
1040
15.0
1070
    43
1040
0.0
1070
   147
1040
1.5
1070
   173
1070
     1
1070
   271
1070
     0
1070
   272
1070
     4
1070
   279
1070
     0
1070
   284
1070
     0
1070
   285
1070
     0
1070
   286
1070
     0
1070
     6
1000
ARROW
1070
     7
1000
ARROW
1002
}
  0
DIMENSION
  5
7E4C
  8
3
  2
*D24
 10
2905.8368359525748
 20
1962.0312831391341
 30
0.0
 11
2787.8368359525762
 21
2003.2812831391341
 31
0.0
 70
     0
 13
2669.8368359525762
 23
1831.4793090248179
 33
0.0
 14
2905.8368359525748
 24
1831.4793090248179
 34
0.0
1001
ACAD
1000
DSTYLE
1002
{
1070
   287
1070
     3
1070
    40
1040
15.0
1070
    43
1040
0.0
1070
   147
1040
1.5
1070
   173
1070
     1
1070
   271
1070
     0
1070
   272
1070
     4
1070
   279
1070
     0
1070
   284
1070
     0
1070
   285
1070
     0
1070
   286
1070
     0
1070
     6
1000
ARROW
1070
     7
1000
ARROW
1002
}
  0
LINE
  5
7E4D
  8
1
 10
2907.8368359525771
 20
1476.4793090248179
 30
0.0
 11
2932.8368359525762
 21
1476.4793090248179
 31
0.0
  0
LINE
  5
7E4E
  8
1
 10
2642.8368359525762
 20
1856.4793090248179
 30
0.0
 11
2932.8368359525762
 21
1856.4793090248179
 31
0.0
  0
LINE
  5
7E4F
  8
1
 10
2669.8368359525762
 20
1831.4793090248179
 30
0.0
 11
2669.8368359525762
 21
1501.4793090248179
 31
0.0
  0
LINE
  5
7E50
  8
1
 10
2905.8368359525748
 20
1831.4793090248179
 30
0.0
 11
2905.8368359525748
 21
1501.4793090248179
 31
0.0
  0
LINE
  5
7E51
  8
1
 10
2667.8368359525748
 20
1831.4793090248179
 30
0.0
 11
2667.8368359525748
 21
1501.4793090248179
 31
0.0
  0
LINE
  5
7E52
  8
1
 10
2907.8368359525762
 20
1831.4793090248179
 30
0.0
 11
2907.8368359525762
 21
1501.4793090248179
 31
0.0
  0
LINE
  5
7E53
  8
1
 10
2642.8368359525762
 20
1856.4793090248179
 30
0.0
 11
2642.8368359525762
 21
1476.4793090248179
 31
0.0
  0
LINE
  5
7E54
  8
1
 10
2642.8368359525762
 20
1476.4793090248179
 30
0.0
 11
2667.8368359525762
 21
1476.4793090248179
 31
0.0
  0
LINE
  5
7E55
  8
1
 10
2667.8368359525748
 20
1461.3681393497741
 30
0.0
 11
2591.1198675335122
 21
1461.3681393497741
 31
0.0
  0
ARC
  5
7E56
  8
1
 10
2849.8242691516421
 20
1518.8091961402049
 30
0.0
 40
265.0046083029427
 50
179.34767661318941
 51
194.9894391436155
  0
LINE
  5
7E57
  8
1
 10
2642.8368359525762
 20
1496.3681393497741
 30
0.0
 11
2588.636835952575
 21
1496.3681393497741
 31
0.0
  0
LINE
  5
7E58
  8
1
 10
2588.636835952575
 20
1473.992155177209
 30
0.0
 11
2588.636835952575
 21
1506.2792840591439
 31
0.0
  0
LINE
  5
7E59
  8
1
 10
2585.11604539379
 20
1506.2792840591439
 30
0.0
 11
2588.636835952575
 21
1506.2792840591439
 31
0.0
  0
LINE
  5
7E5A
  8
1
 10
2667.8368359525748
 20
1831.4793090248179
 30
0.0
 11
2907.8368359525762
 21
1831.4793090248179
 31
0.0
  0
LINE
  5
7E5B
  8
1
 10
2932.8368359525762
 20
1856.4793090248179
 30
0.0
 11
2932.8368359525762
 21
1476.4793090248179
 31
0.0
  0
LINE
  5
7E5C
  8
1
 10
2933.8368359525748
 20
1637.3681661139999
 30
0.0
 11
2932.8368359525762
 21
1637.3681661139999
 31
0.0
  0
LINE
  5
8097
  8
4
 10
2775.0
 20
750.0
 30
0.0
 11
2775.0
 21
450.0
 31
0.0
  0
LINE
  5
8098
  8
4
 10
1725.0
 20
750.0
 30
0.0
 11
1725.0
 21
450.0
 31
0.0
  0
LINE
  5
8099
  8
4
 10
975.0
 20
750.0
 30
0.0
 11
975.0
 21
450.0
 31
0.0
  0
LINE
  5
809C
  8
4
 10
975.0
 20
450.0
 30
0.0
 11
2775.0
 21
450.0
 31
0.0
  0
LINE
  5
809D
  8
4
 10
975.0
 20
600.0
 30
0.0
 11
2775.0
 21
600.0
 31
0.0
  0
TEXT
  5
809E
  8
4
 10
1032.753121270352
 20
647.31453879991932
 30
0.0
 40
75.0
  1
機器名称
  0
TEXT
  5
809F
  8
4
 10
1029.3871590371959
 20
482.46773509801642
 30
0.0
 40
75.0
  1
機器型番
  0
TEXT
  5
80A0
  8
4
 10
1732.189592551566
 20
633.28095353542062
 30
0.0
 40
67.5
  1
ミツヤ多翼送風機
  0
TEXT
  5
80A1
  8
4
 10
1779.9817433782209
 20
475.739376419915
 30
0.0
 40
75.0
  1
MF#2-1
  0
TEXT
  5
80A3
  8
4
 10
1178.7676984045499
 20
3575.1432619987731
 30
0.0
 40
80.999999999999986
  1
床置防振ベット
  0
TEXT
  5
80A4
  8
4
 10
474.25138999416959
 20
3800.8214642989469
 30
0.0
 40
108.0
  1
遠心式片吸込片持多翼ファン
  0
LINE
  5
80A5
  8
4
 10
375.0
 20
3704.1131313972069
 30
0.0
 11
2775.0
 21
3704.1131313972069
 31
0.0
  0
LINE
  5
80A6
  8
4
 10
375.0
 20
4004.1131313972069
 30
0.0
 11
2775.0
 21
4004.1131313972069
 31
0.0
  0
LINE
  5
80A7
  8
4
 10
975.0
 20
750.0
 30
0.0
 11
2775.0
 21
750.0
 31
0.0
  0
LINE
  5
80A8
  8
4
 10
375.0
 20
4004.1131313972069
 30
0.0
 11
375.0
 21
3704.1131313972069
 31
0.0
  0
TEXT
  5
80A9
  8
4
 10
524.97945004049677
 20
3573.4792163195152
 30
0.0
 40
80.999999999999986
  1
左回転左横向
  0
TEXT
  5
80AA
  8
4
 10
2203.4543388739339
 20
4059.0916222429628
 30
0.0
 40
84.000000000000014
  1
No.
  0
TEXT
  5
80AB
  8
4
 10
1966.944093900019
 20
3575.1432619987731
 30
0.0
 40
80.999999999999986
  1
縮尺：1/15
  0
LINE
  5
80AC
  8
4
 10
2775.0
 20
4004.1131313972069
 30
0.0
 11
2775.0
 21
3704.1131313972069
 31
0.0
  0
LINE
  5
80AD
  8
4
 10
3150.0
 20
4425.0
 30
0.0
 11
3150.0
 21
4425.0
 31
0.0
  0
LINE
  5
80AE
  8
4
 10
2160.9261335397969
 20
4021.895374688102
 30
0.0
 11
2160.9261335397969
 21
4179.9783923246277
 31
0.0
  0
LINE
  5
80AF
  8
4
 10
2160.9261335397969
 20
4179.9783923246277
 30
0.0
 11
2775.0
 21
4179.9783923246277
 31
0.0
  0
LINE
  5
80B0
  8
4
 10
2775.0
 20
4179.9783923246277
 30
0.0
 11
2775.0
 21
4021.895374688102
 31
0.0
  0
LINE
  5
80B1
  8
4
 10
2775.0
 20
4021.895374688102
 30
0.0
 11
2160.9261335397969
 21
4021.895374688102
 31
0.0
  0
LINE
  5
80B2
  8
4
 10
0.0
 20
0.0
 30
0.0
 11
0.0
 21
4425.0
 31
0.0
  0
LINE
  5
80B3
  8
4
 10
0.0
 20
4425.0
 30
0.0
 11
3150.0
 21
4425.0
 31
0.0
  0
LINE
  5
80B4
  8
4
 10
3150.0
 20
4425.0
 30
0.0
 11
3150.0
 21
0.0
 31
0.0
  0
LINE
  5
80B5
  8
4
 10
3150.0
 20
0.0
 30
0.0
 11
0.0
 21
0.0
 31
0.0
  0
ENDSEC
  0
EOF
