  0
SECTION
  2
HEADER
  9
$ACADVER
  1
AC1009
  9
$INSBASE
 10
0.0
 20
0.0
 30
0.0
  9
$EXTMIN
 10
0.0
 20
0.0
 30
0.0
  9
$EXTMAX
 10
3150.0
 20
4425.0
 30
0.0
  9
$LIMMIN
 10
0.0
 20
0.0
  9
$LIMMAX
 10
297.0
 20
210.0
  9
$ORTHOMODE
 70
     0
  9
$REGENMODE
 70
     1
  9
$FILLMODE
 70
     0
  9
$QTEXTMODE
 70
     0
  9
$MIRRTEXT
 70
     1
  9
$DRAGMODE
 70
     2
  9
$LTSCALE
 40
100.0
  9
$OSMODE
 70
    37
  9
$ATTMODE
 70
     1
  9
$TEXTSIZE
 40
180.0
  9
$TRACEWID
 40
0.05
  9
$TEXTSTYLE
  7
STANDARD
  9
$CLAYER
  8
3
  9
$CELTYPE
  6
BYLAYER
  9
$CECOLOR
 62
   256
  9
$DIMSCALE
 40
15.0
  9
$DIMASZ
 40
2.0
  9
$DIMEXO
 40
0.5
  9
$DIMDLI
 40
10.0
  9
$DIMRND
 40
0.0
  9
$DIMDLE
 40
0.0
  9
$DIMEXE
 40
1.0
  9
$DIMTP
 40
1.0
  9
$DIMTM
 40
1.0
  9
$DIMTXT
 40
3.0
  9
$DIMCEN
 40
0.0
  9
$DIMTSZ
 40
0.0
  9
$DIMTOL
 70
     0
  9
$DIMLIM
 70
     0
  9
$DIMTIH
 70
     0
  9
$DIMTOH
 70
     0
  9
$DIMSE1
 70
     0
  9
$DIMSE2
 70
     0
  9
$DIMTAD
 70
     1
  9
$DIMZIN
 70
     8
  9
$DIMBLK
  1

  9
$DIMASO
 70
     1
  9
$DIMSHO
 70
     1
  9
$DIMPOST
  1

  9
$DIMAPOST
  1

  9
$DIMALT
 70
     0
  9
$DIMALTD
 70
     2
  9
$DIMALTF
 40
0.039
  9
$DIMLFAC
 40
1.0
  9
$DIMTOFL
 70
     1
  9
$DIMTVP
 40
0.0
  9
$DIMTIX
 70
     0
  9
$DIMSOXD
 70
     0
  9
$DIMSAH
 70
     1
  9
$DIMBLK1
  1
OPEN
  9
$DIMBLK2
  1
OPEN
  9
$DIMSTYLE
  2
IGA
  9
$DIMCLRD
 70
     0
  9
$DIMCLRE
 70
     0
  9
$DIMCLRT
 70
     0
  9
$DIMTFAC
 40
10.0
  9
$DIMGAP
 40
1.0
  9
$LUNITS
 70
     2
  9
$LUPREC
 70
     3
  9
$SKETCHINC
 40
0.1
  9
$FILLETRAD
 40
50.0
  9
$AUNITS
 70
     0
  9
$AUPREC
 70
     0
  9
$MENU
  1
acad
  9
$ELEVATION
 40
0.0
  9
$PELEVATION
 40
0.0
  9
$THICKNESS
 40
0.0
  9
$LIMCHECK
 70
     0
  9
$BLIPMODE
 70
     0
  9
$CHAMFERA
 40
0.5
  9
$CHAMFERB
 40
0.5
  9
$SKPOLY
 70
     0
  9
$TDCREATE
 40
2451019.4996922449
  9
$TDUPDATE
 40
2454953.7522943751
  9
$TDINDWG
 40
0.1257016435
  9
$TDUSRTIMER
 40
0.1257016435
  9
$USRTIMER
 70
     1
  9
$ANGBASE
 50
0.0
  9
$ANGDIR
 70
     0
  9
$PDMODE
 70
     0
  9
$PDSIZE
 40
0.0
  9
$PLINEWID
 40
0.0
  9
$COORDS
 70
     1
  9
$SPLFRAME
 70
     0
  9
$SPLINETYPE
 70
     6
  9
$SPLINESEGS
 70
     8
  9
$ATTDIA
 70
     0
  9
$ATTREQ
 70
     1
  9
$HANDLING
 70
 10241
  9
$HANDSEED
  5
886F
  9
$SURFTAB1
 70
     6
  9
$SURFTAB2
 70
     6
  9
$SURFTYPE
 70
     6
  9
$SURFU
 70
     6
  9
$SURFV
 70
     6
  9
$UCSNAME
  2

  9
$UCSORG
 10
0.0
 20
0.0
 30
0.0
  9
$UCSXDIR
 10
1.0
 20
0.0
 30
0.0
  9
$UCSYDIR
 10
0.0
 20
1.0
 30
0.0
  9
$PUCSNAME
  2

  9
$PUCSORG
 10
0.0
 20
0.0
 30
0.0
  9
$PUCSXDIR
 10
1.0
 20
0.0
 30
0.0
  9
$PUCSYDIR
 10
0.0
 20
1.0
 30
0.0
  9
$USERI1
 70
     0
  9
$USERI2
 70
     0
  9
$USERI3
 70
     0
  9
$USERI4
 70
     0
  9
$USERI5
 70
     0
  9
$USERR1
 40
0.0
  9
$USERR2
 40
0.0
  9
$USERR3
 40
0.0
  9
$USERR4
 40
0.0
  9
$USERR5
 40
0.0
  9
$WORLDVIEW
 70
     1
  9
$SHADEDGE
 70
     3
  9
$SHADEDIF
 70
    70
  9
$TILEMODE
 70
     1
  9
$MAXACTVP
 70
    16
  9
$PLIMCHECK
 70
     0
  9
$PEXTMIN
 10
1.0000000000000000E+020
 20
1.0000000000000000E+020
 30
1.0000000000000000E+020
  9
$PEXTMAX
 10
-1.0000000000000000E+020
 20
-1.0000000000000000E+020
 30
-1.0000000000000000E+020
  9
$PLIMMIN
 10
0.0
 20
0.0
  9
$PLIMMAX
 10
12.0
 20
9.0
  9
$UNITMODE
 70
     0
  9
$VISRETAIN
 70
     0
  9
$PLINEGEN
 70
     0
  9
$PSLTSCALE
 70
     1
  0
ENDSEC
  0
SECTION
  2
TABLES
  0
TABLE
  2
VPORT
 70
     2
  0
VPORT
  2
*ACTIVE
 70
     0
 10
0.0
 20
0.0
 11
1.0
 21
1.0
 12
5304.9149382770529
 22
2212.5000103027569
 13
0.0
 23
0.0
 14
10.0
 24
10.0
 15
10.0
 25
10.0
 16
0.0
 26
0.0
 36
1.0
 17
0.0
 27
0.0
 37
0.0
 40
4458.9223245254034
 41
3.1666666666666661
 42
50.0
 43
0.0
 44
0.0
 50
0.0
 51
0.0
 71
     0
 72
   100
 73
     1
 74
     0
 75
     0
 76
     0
 77
     0
 78
     0
  0
ENDTAB
  0
TABLE
  2
LTYPE
 70
     2
  0
LTYPE
  2
CONTINUOUS
 70
     0
  3
Solid line
 72
    65
 73
     0
 40
0.0
  0
LTYPE
  2
CENTER
 70
     0
  3
____ _ ____ _ ____ _ ____ _ ____ _ ____ _ ____ 
 72
    65
 73
     4
 40
2.0
 49
1.25
 49
-0.25
 49
0.25
 49
-0.25
  0
ENDTAB
  0
TABLE
  2
LAYER
 70
     6
  0
LAYER
  2
0
 70
     0
 62
     7
  6
CONTINUOUS
  0
LAYER
  2
3
 70
     0
 62
     2
  6
CONTINUOUS
  0
LAYER
  2
2
 70
     0
 62
     3
  6
CENTER
  0
LAYER
  2
1
 70
     0
 62
     4
  6
CONTINUOUS
  0
LAYER
  2
4
 70
     0
 62
     7
  6
CONTINUOUS
  0
LAYER
  2
DEFPOINTS
 70
     0
 62
     7
  6
CONTINUOUS
  0
ENDTAB
  0
TABLE
  2
STYLE
 70
     1
  0
STYLE
  2
STANDARD
 70
     0
 40
0.0
 41
1.0
 50
0.0
 71
     0
 42
180.0
  3
simplex.shx
  4
extfont.shx
  0
ENDTAB
  0
TABLE
  2
VIEW
 70
     0
  0
ENDTAB
  0
TABLE
  2
UCS
 70
     0
  0
ENDTAB
  0
TABLE
  2
APPID
 70
     1
  0
APPID
  2
ACAD
 70
     0
  0
ENDTAB
  0
TABLE
  2
DIMSTYLE
 70
     1
  0
DIMSTYLE
  2
IGA
 70
     0
  3

  4

  5

  6
OPEN
  7
OPEN
 40
2.0
 41
2.0
 42
0.5
 43
10.0
 44
1.0
 45
0.0
 46
0.0
 47
1.0
 48
1.0
140
3.0
141
0.0
142
0.0
143
0.03937
144
1.0
145
0.0
146
10.0
147
1.0
 71
     0
 72
     0
 73
     0
 74
     0
 75
     0
 76
     0
 77
     1
 78
     8
170
     0
171
     2
172
     0
173
     1
174
     0
175
     0
176
     0
177
     0
178
     0
  0
ENDTAB
  0
ENDSEC
  0
SECTION
  2
BLOCKS
  0
BLOCK
  8
0
  2
$MODEL_SPACE
 70
     0
 10
0.0
 20
0.0
 30
0.0
  3
$MODEL_SPACE
  1

  0
ENDBLK
  5
1B
  8
0
  0
BLOCK
 67
     1
  8
0
  2
$PAPER_SPACE
 70
     0
 10
0.0
 20
0.0
 30
0.0
  3
$PAPER_SPACE
  1

  0
ENDBLK
  5
18
 67
     1
  8
0
  0
BLOCK
  8
0
  2
_OPEN
 70
     0
 10
0.0
 20
0.0
 30
0.0
  3
_OPEN
  1

  0
LINE
  5
7A37
  8
0
  6
BYBLOCK
 62
     0
 10
-1.0
 20
0.1666666666666666
 30
0.0
 11
0.0
 21
0.0
 31
0.0
  0
LINE
  5
7A38
  8
0
  6
BYBLOCK
 62
     0
 10
0.0
 20
0.0
 30
0.0
 11
-1.0
 21
-0.1666666666666666
 31
0.0
  0
LINE
  5
7A39
  8
0
  6
BYBLOCK
 62
     0
 10
0.0
 20
0.0
 30
0.0
 11
-1.0
 21
0.0
 31
0.0
  0
ENDBLK
  5
7A3B
  8
0
  0
BLOCK
  8
0
  2
*D1
 70
     1
 10
0.0
 20
0.0
 30
0.0
  3
*D1
  1

  0
LINE
  5
878F
  8
3
 62
     0
 10
856.08615135673972
 20
1823.6617737296449
 30
0.0
 11
856.08615135673972
 21
1966.2977362369461
 31
0.0
  0
LINE
  5
8790
  8
3
 62
     0
 10
1207.0860909170599
 20
1856.5595217906309
 30
0.0
 11
1207.0860909170599
 21
1966.2977362369461
 31
0.0
  0
LINE
  5
8791
  8
3
 62
     0
 10
886.08615135673983
 20
1951.297736236945
 30
0.0
 11
1177.0860909170599
 21
1951.297736236945
 31
0.0
  0
INSERT
  5
8792
  8
3
 62
     0
  2
_OPEN
 10
856.08615135673972
 20
1951.297736236945
 30
0.0
 41
30.0
 42
30.0
 43
30.0
 50
180.0
  0
INSERT
  5
8793
  8
3
 62
     0
  2
_OPEN
 10
1207.0860909170599
 20
1951.297736236945
 30
0.0
 41
30.0
 42
30.0
 43
30.0
  0
TEXT
  8
3
  40
45
  5
885D
  62
0
  72
0
  71
0
 10
941.586
 20
1909.15
 30
0.000000
  1
351
  0
POINT
  5
8795
  8
DEFPOINTS
 62
     0
 10
856.08615135673972
 20
1816.161773729644
 30
0.0
  0
POINT
  5
8796
  8
DEFPOINTS
 62
     0
 10
1207.0860909170599
 20
1849.0595217906309
 30
0.0
  0
POINT
  5
8797
  8
DEFPOINTS
 62
     0
 10
1207.0860909170599
 20
1951.297736236945
 30
0.0
  0
ENDBLK
  5
81BC
  8
0
  0
BLOCK
  8
0
  2
*D2
 70
     1
 10
0.0
 20
0.0
 30
0.0
  3
*D2
  1

  0
LINE
  5
879C
  8
3
 62
     0
 10
856.08615135673972
 20
1823.6617737296449
 30
0.0
 11
856.08615135673972
 21
1890.130134318762
 31
0.0
  0
LINE
  5
879D
  8
3
 62
     0
 10
1181.0860909170599
 20
1823.6617737296449
 30
0.0
 11
1181.0860909170599
 21
1890.130134318762
 31
0.0
  0
LINE
  5
879E
  8
3
 62
     0
 10
886.08615135673983
 20
1875.130134318762
 30
0.0
 11
1151.0860909170599
 21
1875.130134318762
 31
0.0
  0
INSERT
  5
879F
  8
3
 62
     0
  2
_OPEN
 10
856.08615135673972
 20
1875.130134318762
 30
0.0
 41
30.0
 42
30.0
 43
30.0
 50
180.0
  0
INSERT
  5
87A0
  8
3
 62
     0
  2
_OPEN
 10
1181.0860909170599
 20
1875.130134318762
 30
0.0
 41
30.0
 42
30.0
 43
30.0
  0
TEXT
  8
3
  40
45
  5
885E
  62
0
  72
0
  71
0
 10
928.586
 20
1832.98
 30
0.000000
  1
325
  0
POINT
  5
87A2
  8
DEFPOINTS
 62
     0
 10
856.08615135673972
 20
1816.161773729644
 30
0.0
  0
POINT
  5
87A3
  8
DEFPOINTS
 62
     0
 10
1181.0860909170599
 20
1816.161773729644
 30
0.0
  0
POINT
  5
87A4
  8
DEFPOINTS
 62
     0
 10
1181.0860909170599
 20
1875.130134318762
 30
0.0
  0
ENDBLK
  5
81D2
  8
0
  0
BLOCK
  8
0
  2
*D3
 70
     1
 10
0.0
 20
0.0
 30
0.0
  3
*D3
  1

  0
LINE
  5
87A5
  8
3
 62
     0
 10
1471.0462172675459
 20
1571.1617737296449
 30
0.0
 11
1578.240177489261
 21
1571.161773729644
 31
0.0
  0
LINE
  5
87A6
  8
3
 62
     0
 10
1394.5860909170599
 20
1216.1617737296449
 30
0.0
 11
1578.2401774892601
 21
1216.161773729644
 31
0.0
  0
LINE
  5
87A7
  8
3
 62
     0
 10
1563.240177489261
 20
1541.161773729644
 30
0.0
 11
1563.240177489261
 21
1246.161773729644
 31
0.0
  0
INSERT
  5
87A8
  8
3
 62
     0
  2
_OPEN
 10
1563.240177489261
 20
1571.161773729644
 30
0.0
 41
30.0
 42
30.0
 43
30.0
 50
90.0
  0
INSERT
  5
87A9
  8
3
 62
     0
  2
_OPEN
 10
1563.240177489261
 20
1216.161773729644
 30
0.0
 41
30.0
 42
30.0
 43
30.0
 50
270.0
  0
TEXT
  8
3
  40
45
  5
885F
  62
0
  72
0
  71
0
 10
1435.74
 20
1314.01
 30
0.000000
  1
355
  0
POINT
  5
87AB
  8
DEFPOINTS
 62
     0
 10
1463.5462172675459
 20
1571.1617737296449
 30
0.0
  0
POINT
  5
87AC
  8
DEFPOINTS
 62
     0
 10
1387.0860909170599
 20
1216.1617737296449
 30
0.0
  0
POINT
  5
87AD
  8
DEFPOINTS
 62
     0
 10
1563.240177489261
 20
1216.161773729644
 30
0.0
  0
ENDBLK
  5
857B
  8
0
  0
BLOCK
  8
0
  2
*D4
 70
     1
 10
0.0
 20
0.0
 30
0.0
  3
*D4
  1

  0
LINE
  5
87AE
  8
3
 62
     0
 10
1207.0860909170599
 20
1856.5595217906309
 30
0.0
 11
1207.0860909170599
 21
1966.2977362369461
 31
0.0
  0
LINE
  5
87AF
  8
3
 62
     0
 10
1433.04499514489
 20
1559.896821144953
 30
0.0
 11
1433.04499514489
 21
1966.2977362369461
 31
0.0
  0
LINE
  5
87B0
  8
3
 62
     0
 10
1237.0860909170599
 20
1951.297736236945
 30
0.0
 11
1403.04499514489
 21
1951.297736236945
 31
0.0
  0
INSERT
  5
87B1
  8
3
 62
     0
  2
_OPEN
 10
1207.0860909170599
 20
1951.297736236945
 30
0.0
 41
30.0
 42
30.0
 43
30.0
 50
180.0
  0
INSERT
  5
87B2
  8
3
 62
     0
  2
_OPEN
 10
1433.04499514489
 20
1951.297736236945
 30
0.0
 41
30.0
 42
30.0
 43
30.0
  0
TEXT
  8
3
  40
45
  5
8860
  62
0
  72
0
  71
0
 10
1230.07
 20
1909.15
 30
0.000000
  1
226
  0
POINT
  5
87B4
  8
DEFPOINTS
 62
     0
 10
1207.0860909170599
 20
1849.0595217906309
 30
0.0
  0
POINT
  5
87B5
  8
DEFPOINTS
 62
     0
 10
1433.04499514489
 20
1552.3968211449539
 30
0.0
  0
POINT
  5
87B6
  8
DEFPOINTS
 62
     0
 10
1433.04499514489
 20
1951.297736236945
 30
0.0
  0
ENDBLK
  5
81C7
  8
0
  0
BLOCK
  8
0
  2
*D5
 70
     1
 10
0.0
 20
0.0
 30
0.0
  3
*D5
  1

  0
LINE
  5
87B7
  8
3
 62
     0
 10
1216.9749212420161
 20
1816.161773729644
 30
0.0
 11
1578.2401774892601
 21
1816.161773729644
 31
0.0
  0
LINE
  5
87B8
  8
3
 62
     0
 10
1471.0462172675459
 20
1571.1617737296449
 30
0.0
 11
1578.2401774892601
 21
1571.161773729644
 31
0.0
  0
LINE
  5
87B9
  8
3
 62
     0
 10
1563.240177489261
 20
1786.161773729644
 30
0.0
 11
1563.240177489261
 21
1601.161773729644
 31
0.0
  0
INSERT
  5
87BA
  8
3
 62
     0
  2
_OPEN
 10
1563.240177489261
 20
1816.161773729644
 30
0.0
 41
30.0
 42
30.0
 43
30.0
 50
90.0
  0
INSERT
  5
87BB
  8
3
 62
     0
  2
_OPEN
 10
1563.240177489261
 20
1571.161773729644
 30
0.0
 41
30.0
 42
30.0
 43
30.0
 50
270.0
  0
TEXT
  8
3
  40
45
  5
8861
  62
0
  72
0
  71
0
 10
1435.74
 20
1614.01
 30
0.000000
  1
245
  0
POINT
  5
87BD
  8
DEFPOINTS
 62
     0
 10
1209.474921242017
 20
1816.161773729644
 30
0.0
  0
POINT
  5
87BE
  8
DEFPOINTS
 62
     0
 10
1463.5462172675459
 20
1571.1617737296449
 30
0.0
  0
POINT
  5
87BF
  8
DEFPOINTS
 62
     0
 10
1563.240177489261
 20
1571.161773729644
 30
0.0
  0
ENDBLK
  5
8570
  8
0
  0
BLOCK
  8
0
  2
*D6
 70
     1
 10
0.0
 20
0.0
 30
0.0
  3
*D6
  1

  0
LINE
  5
87C0
  8
3
 62
     0
 10
2752.5174634224381
 20
1728.661773729644
 30
0.0
 11
2865.4222253132671
 21
1728.661773729644
 31
0.0
  0
LINE
  5
87C1
  8
3
 62
     0
 10
2752.5174634224381
 20
1413.661773729644
 30
0.0
 11
2865.4222253132671
 21
1413.661773729644
 31
0.0
  0
LINE
  5
87C2
  8
3
 62
     0
 10
2850.4222253132671
 20
1698.661773729644
 30
0.0
 11
2850.4222253132671
 21
1443.661773729644
 31
0.0
  0
INSERT
  5
87C3
  8
3
 62
     0
  2
_OPEN
 10
2850.4222253132671
 20
1728.661773729644
 30
0.0
 41
30.0
 42
30.0
 43
30.0
 50
90.0
  0
INSERT
  5
87C4
  8
3
 62
     0
  2
_OPEN
 10
2850.4222253132671
 20
1413.661773729644
 30
0.0
 41
30.0
 42
30.0
 43
30.0
 50
270.0
  0
TEXT
  8
3
  40
45
  5
8862
  62
0
  72
0
  71
0
 10
2722.92
 20
1491.51
 30
0.000000
  1
φ315
  0
POINT
  5
87C6
  8
DEFPOINTS
 62
     0
 10
2745.0174634224381
 20
1728.661773729644
 30
0.0
  0
POINT
  5
87C7
  8
DEFPOINTS
 62
     0
 10
2745.0174634224381
 20
1413.661773729644
 30
0.0
  0
POINT
  5
87C8
  8
DEFPOINTS
 62
     0
 10
2850.4222253132671
 20
1413.661773729644
 30
0.0
  0
ENDBLK
  5
86D8
  8
0
  0
BLOCK
  8
0
  2
*D7
 70
     1
 10
0.0
 20
0.0
 30
0.0
  3
*D7
  1

  0
LINE
  5
87E4
  8
3
 62
     0
 10
2481.0174634224381
 20
1828.661773729644
 30
0.0
 11
2481.0174634224381
 21
1910.765351182527
 31
0.0
  0
LINE
  5
87E5
  8
3
 62
     0
 10
2717.0174634224391
 20
1825.661773729644
 30
0.0
 11
2717.0174634224391
 21
1910.765351182527
 31
0.0
  0
LINE
  5
87E6
  8
3
 62
     0
 10
2511.0174634224381
 20
1895.765351182527
 30
0.0
 11
2687.0174634224391
 21
1895.765351182527
 31
0.0
  0
INSERT
  5
87E7
  8
3
 62
     0
  2
_OPEN
 10
2481.0174634224381
 20
1895.765351182527
 30
0.0
 41
30.0
 42
30.0
 43
30.0
 50
180.0
  0
INSERT
  5
87E8
  8
3
 62
     0
  2
_OPEN
 10
2717.0174634224391
 20
1895.765351182527
 30
0.0
 41
30.0
 42
30.0
 43
30.0
  0
TEXT
  8
3
  40
45
  5
8863
  62
0
  72
0
  71
0
 10
2492.80
 20
1853.62
 30
0.000000
  1
236
  0
POINT
  5
87EA
  8
DEFPOINTS
 62
     0
 10
2481.0174634224381
 20
1821.161773729644
 30
0.0
  0
POINT
  5
87EB
  8
DEFPOINTS
 62
     0
 10
2717.0174634224391
 20
1818.161773729644
 30
0.0
  0
POINT
  5
87EC
  8
DEFPOINTS
 62
     0
 10
2717.0174634224391
 20
1895.765351182527
 30
0.0
  0
ENDBLK
  5
825D
  8
0
  0
BLOCK
  8
0
  2
_DOT
 70
     0
 10
0.0
 20
0.0
 30
0.0
  3
_DOT
  1

  0
LINE
  5
866F
  8
0
  6
BYBLOCK
 62
     0
 10
0.0
 20
0.0
 30
0.0
 11
-1.0
 21
-0.0000000000000284
 31
0.0
  0
POLYLINE
  5
8670
  8
0
  6
BYBLOCK
 62
     0
 66
     1
 10
0.0
 20
0.0
 30
0.0
 70
     1
 40
0.1666666666666666
 41
0.1666666666666666
  0
VERTEX
  5
882D
  8
0
  6
BYBLOCK
 62
     0
 10
-0.0833333333333286
 20
-0.0000000000000284
 30
0.0
 42
1.0
  0
VERTEX
  5
882E
  8
0
  6
BYBLOCK
 62
     0
 10
0.0833333333333286
 20
-0.0000000000000284
 30
0.0
 42
1.0
  0
SEQEND
  5
882F
  8
0
  6
BYBLOCK
 62
     0
  0
ENDBLK
  5
849C
  8
0
  0
BLOCK
  8
0
  2
*D9
 70
     1
 10
0.0
 20
0.0
 30
0.0
  3
*D9
  1

  0
LINE
  5
8801
  8
3
 62
     0
 10
2599.0174634224391
 20
1976.255330026527
 30
0.0
 11
2599.0174634224391
 21
2005.683749815852
 31
0.0
  0
LINE
  5
8802
  8
3
 62
     0
 10
1911.0174634224391
 20
1678.661773729644
 30
0.0
 11
1911.0174634224391
 21
2005.683749815852
 31
0.0
  0
LINE
  5
8803
  8
3
 62
     0
 10
2569.0174634224381
 20
1990.6837498158529
 30
0.0
 11
1941.0174634224379
 21
1990.6837498158529
 31
0.0
  0
INSERT
  5
8804
  8
3
 62
     0
  2
_OPEN
 10
2599.0174634224391
 20
1990.6837498158529
 30
0.0
 41
30.0
 42
30.0
 43
30.0
  0
INSERT
  5
8805
  8
3
 62
     0
  2
_OPEN
 10
1911.0174634224391
 20
1990.6837498158529
 30
0.0
 41
30.0
 42
30.0
 43
30.0
 50
180.0
  0
TEXT
  8
3
  40
45
  5
8864
  62
0
  72
0
  71
0
 10
2172.29
 20
1986.03
 30
0.000000
  1
MAX
  0
TEXT
  8
3
  40
45
  5
8865
  62
0
  72
0
  71
0
 10
2172.29
 20
1927.53
 30
0.000000
  1
760
  0
POINT
  5
8807
  8
DEFPOINTS
 62
     0
 10
2599.0174634224391
 20
1968.755330026527
 30
0.0
  0
POINT
  5
8808
  8
DEFPOINTS
 62
     0
 10
1911.0174634224391
 20
1671.161773729644
 30
0.0
  0
POINT
  5
8809
  8
DEFPOINTS
 62
     0
 10
1911.0174634224391
 20
1990.6837498158529
 30
0.0
  0
ENDBLK
  5
86AB
  8
0
  0
BLOCK
  8
0
  2
*D10
 70
     1
 10
0.0
 20
0.0
 30
0.0
  3
*D10
  1

  0
LINE
  5
880A
  8
3
 62
     0
 10
579.58609091705887
 20
2851.8032173322781
 30
0.0
 11
461.16190530737038
 21
2851.8032173322781
 31
0.0
  0
LINE
  5
880B
  8
3
 62
     0
 10
579.58609091705887
 20
2471.8032173322781
 30
0.0
 11
461.16190530737038
 21
2471.8032173322781
 31
0.0
  0
LINE
  5
880C
  8
3
 62
     0
 10
476.16190530737049
 20
2821.8032173322781
 30
0.0
 11
476.16190530737038
 21
2501.8032173322781
 31
0.0
  0
INSERT
  5
880D
  8
3
 62
     0
  2
_OPEN
 10
476.16190530737049
 20
2851.8032173322781
 30
0.0
 41
30.0
 42
30.0
 43
30.0
 50
90.0
  0
INSERT
  5
880E
  8
3
 62
     0
  2
_OPEN
 10
476.16190530737038
 20
2471.8032173322781
 30
0.0
 41
30.0
 42
30.0
 43
30.0
 50
270.0
  0
TEXT
  8
3
  40
45
  5
8866
  62
0
  72
0
  71
0
 10
348.662
 20
2585.04
 30
0.000000
  1
380
  0
POINT
  5
8810
  8
DEFPOINTS
 62
     0
 10
587.08609091705887
 20
2851.8032173322781
 30
0.0
  0
POINT
  5
8811
  8
DEFPOINTS
 62
     0
 10
587.08609091705887
 20
2471.8032173322781
 30
0.0
  0
POINT
  5
8812
  8
DEFPOINTS
 62
     0
 10
476.16190530737038
 20
2471.8032173322781
 30
0.0
  0
ENDBLK
  5
863C
  8
0
  0
BLOCK
  8
0
  2
*D11
 70
     1
 10
0.0
 20
0.0
 30
0.0
  3
*D11
  1

  0
LINE
  5
8813
  8
3
 62
     0
 10
587.08609091705921
 20
2859.3032173322781
 30
0.0
 11
587.08609091705921
 21
3351.4767591750528
 31
0.0
  0
LINE
  5
8814
  8
3
 62
     0
 10
1027.0860909170599
 20
3259.3032173322781
 30
0.0
 11
1027.0860909170599
 21
3351.4767591750528
 31
0.0
  0
LINE
  5
8815
  8
3
 62
     0
 10
617.08609091705921
 20
3336.4767591750528
 30
0.0
 11
997.08609091706091
 21
3336.4767591750528
 31
0.0
  0
INSERT
  5
8816
  8
3
 62
     0
  2
_OPEN
 10
587.08609091705921
 20
3336.4767591750528
 30
0.0
 41
30.0
 42
30.0
 43
30.0
 50
180.0
  0
INSERT
  5
8817
  8
3
 62
     0
  2
_OPEN
 10
1027.0860909170599
 20
3336.4767591750528
 30
0.0
 41
30.0
 42
30.0
 43
30.0
  0
TEXT
  8
3
  40
45
  5
8867
  62
0
  72
0
  71
0
 10
701.243
 20
3294.33
 30
0.000000
  1
440
  0
POINT
  5
8819
  8
DEFPOINTS
 62
     0
 10
587.08609091705921
 20
2851.8032173322781
 30
0.0
  0
POINT
  5
881A
  8
DEFPOINTS
 62
     0
 10
1027.0860909170599
 20
3251.803217332279
 30
0.0
  0
POINT
  5
881B
  8
DEFPOINTS
 62
     0
 10
1027.0860909170599
 20
3336.4767591750528
 30
0.0
  0
ENDBLK
  5
8654
  8
0
  0
BLOCK
  8
0
  2
*D12
 70
     1
 10
0.0
 20
0.0
 30
0.0
  3
*D12
  1

  0
LINE
  5
881C
  8
3
 62
     0
 10
1387.0860909170599
 20
3259.3032173322781
 30
0.0
 11
1387.0860909170599
 21
3351.4767591750528
 31
0.0
  0
LINE
  5
881D
  8
3
 62
     0
 10
1057.0860909170599
 20
3336.4767591750528
 30
0.0
 11
1357.086090917061
 21
3336.4767591750528
 31
0.0
  0
INSERT
  5
881E
  8
3
 62
     0
  2
_OPEN
 10
1027.0860909170599
 20
3336.4767591750528
 30
0.0
 41
30.0
 42
30.0
 43
30.0
 50
180.0
  0
INSERT
  5
881F
  8
3
 62
     0
  2
_OPEN
 10
1387.0860909170599
 20
3336.4767591750528
 30
0.0
 41
30.0
 42
30.0
 43
30.0
  0
TEXT
  8
3
  40
45
  5
8868
  62
0
  72
0
  71
0
 10
1117.09
 20
3294.33
 30
0.000000
  1
360
  0
POINT
  5
8821
  8
DEFPOINTS
 62
     0
 10
1027.0860909170599
 20
3251.803217332279
 30
0.0
  0
POINT
  5
8822
  8
DEFPOINTS
 62
     0
 10
1387.0860909170599
 20
3251.803217332279
 30
0.0
  0
POINT
  5
8823
  8
DEFPOINTS
 62
     0
 10
1387.0860909170599
 20
3336.4767591750528
 30
0.0
  0
ENDBLK
  5
8660
  8
0
  0
BLOCK
  8
0
  2
*D13
 70
     1
 10
0.0
 20
0.0
 30
0.0
  3
*D13
  1

  0
LINE
  5
8824
  8
3
 62
     0
 10
1394.5860909170599
 20
3251.803217332279
 30
0.0
 11
1545.566571794385
 21
3251.803217332279
 31
0.0
  0
LINE
  5
8825
  8
3
 62
     0
 10
1394.586090917059
 20
2471.8032173322781
 30
0.0
 11
1545.566571794385
 21
2471.8032173322781
 31
0.0
  0
LINE
  5
8826
  8
3
 62
     0
 10
1530.566571794385
 20
3221.8032173322781
 30
0.0
 11
1530.566571794385
 21
2501.8032173322781
 31
0.0
  0
INSERT
  5
8827
  8
3
 62
     0
  2
_OPEN
 10
1530.566571794385
 20
3251.803217332279
 30
0.0
 41
30.0
 42
30.0
 43
30.0
 50
90.0
  0
INSERT
  5
8828
  8
3
 62
     0
  2
_OPEN
 10
1530.566571794385
 20
2471.8032173322781
 30
0.0
 41
30.0
 42
30.0
 43
30.0
 50
270.0
  0
TEXT
  8
3
  40
45
  5
8869
  62
0
  72
0
  71
0
 10
1403.07
 20
2778.40
 30
0.000000
  1
780
  0
POINT
  5
882A
  8
DEFPOINTS
 62
     0
 10
1387.0860909170599
 20
3251.803217332279
 30
0.0
  0
POINT
  5
882B
  8
DEFPOINTS
 62
     0
 10
1387.086090917059
 20
2471.8032173322781
 30
0.0
  0
POINT
  5
882C
  8
DEFPOINTS
 62
     0
 10
1530.566571794385
 20
2471.8032173322781
 30
0.0
  0
ENDBLK
  5
866D
  8
0
  0
BLOCK
  8
0
  2
*D14
 70
     1
 10
0.0
 20
0.0
 30
0.0
  3
*D14
  1

  0
LINE
  5
8830
  8
3
 62
     0
 10
1433.04499514489
 20
1578.6617737296449
 30
0.0
 11
1433.04499514489
 21
2050.8091719840272
 31
0.0
  0
LINE
  5
8831
  8
3
 62
     0
 10
587.0860909170608
 20
1298.661773729644
 30
0.0
 11
587.0860909170608
 21
2050.8091719840272
 31
0.0
  0
LINE
  5
8832
  8
3
 62
     0
 10
1403.04499514489
 20
2035.8091719840261
 30
0.0
 11
617.0860909170608
 21
2035.8091719840261
 31
0.0
  0
INSERT
  5
8833
  8
3
 62
     0
  2
_OPEN
 10
1433.04499514489
 20
2035.8091719840261
 30
0.0
 41
30.0
 42
30.0
 43
30.0
  0
INSERT
  5
8834
  8
3
 62
     0
  2
_OPEN
 10
587.0860909170608
 20
2035.8091719840261
 30
0.0
 41
30.0
 42
30.0
 43
30.0
 50
180.0
  0
TEXT
  8
3
  40
45
  5
886A
  62
0
  72
0
  71
0
 10
930.559
 20
1993.66
 30
0.000000
  1
846
  0
POINT
  5
8836
  8
DEFPOINTS
 62
     0
 10
1433.04499514489
 20
1571.1617737296449
 30
0.0
  0
POINT
  5
8837
  8
DEFPOINTS
 62
     0
 10
587.0860909170608
 20
1291.1617737296449
 30
0.0
  0
POINT
  5
8838
  8
DEFPOINTS
 62
     0
 10
587.0860909170608
 20
2035.8091719840261
 30
0.0
  0
ENDBLK
  5
868D
  8
0
  0
BLOCK
  8
0
  2
*D15
 70
     1
 10
0.0
 20
0.0
 30
0.0
  3
*D15
  1

  0
LINE
  5
86FF
  8
0
  6
BYBLOCK
 62
     0
 10
2720.0174634224381
 20
1761.161773729644
 30
0.0
 11
2720.0174634224381
 21
2005.683749815852
 31
0.0
  0
LINE
  5
8700
  8
0
  6
BYBLOCK
 62
     0
 10
2629.0174634224381
 20
1990.6837498158529
 30
0.0
 11
2690.0174634224381
 21
1990.6837498158529
 31
0.0
  0
TEXT
  5
8701
  8
3
 62
     0
 10
2615.588891993867
 20
2009.89207750991
 30
0.0
 40
45.0
  1
121
  0
INSERT
  5
8702
  8
0
  6
BYBLOCK
 62
     0
  2
_OPEN
 10
2599.0174634224391
 20
1990.6837498158529
 30
0.0
 41
30.0
 42
30.0
 43
30.0
 50
180.0
  0
INSERT
  5
8703
  8
0
  6
BYBLOCK
 62
     0
  2
_OPEN
 10
2720.0174634224381
 20
1990.6837498158529
 30
0.0
 41
30.0
 42
30.0
 43
30.0
  0
POINT
  5
8704
  8
DEFPOINTS
  6
BYBLOCK
 62
     0
 10
2599.0174634224391
 20
1968.755330026527
 30
0.0
  0
POINT
  5
8705
  8
DEFPOINTS
  6
BYBLOCK
 62
     0
 10
2720.0174634224381
 20
1753.661773729644
 30
0.0
  0
POINT
  5
8706
  8
DEFPOINTS
  6
BYBLOCK
 62
     0
 10
2720.0174634224381
 20
1990.6837498158529
 30
0.0
  0
ENDBLK
  5
8707
  8
0
  0
BLOCK
  8
0
  2
*D16
 70
     1
 10
0.0
 20
0.0
 30
0.0
  3
*D16
  1

  0
LINE
  5
8839
  8
3
 62
     0
 10
587.08609091706035
 20
1208.6617737296449
 30
0.0
 11
587.08609091706035
 21
1084.719462118544
 31
0.0
  0
LINE
  5
883A
  8
3
 62
     0
 10
1207.0860909170599
 20
1208.6617737296449
 30
0.0
 11
1207.0860909170599
 21
1084.719462118544
 31
0.0
  0
LINE
  5
883B
  8
3
 62
     0
 10
617.08609091706035
 20
1099.719462118544
 30
0.0
 11
1177.0860909170599
 21
1099.719462118544
 31
0.0
  0
INSERT
  5
883C
  8
3
 62
     0
  2
_OPEN
 10
587.08609091706035
 20
1099.719462118544
 30
0.0
 41
30.0
 42
30.0
 43
30.0
 50
180.0
  0
INSERT
  5
883D
  8
3
 62
     0
  2
_OPEN
 10
1207.0860909170599
 20
1099.719462118544
 30
0.0
 41
30.0
 42
30.0
 43
30.0
  0
TEXT
  8
3
  40
45
  5
886B
  62
0
  72
0
  71
0
 10
807.086
 20
1057.57
 30
0.000000
  1
620
  0
POINT
  5
883F
  8
DEFPOINTS
 62
     0
 10
587.08609091706035
 20
1216.1617737296449
 30
0.0
  0
POINT
  5
8840
  8
DEFPOINTS
 62
     0
 10
1207.0860909170599
 20
1216.1617737296449
 30
0.0
  0
POINT
  5
8841
  8
DEFPOINTS
 62
     0
 10
1207.0860909170599
 20
1099.719462118544
 30
0.0
  0
ENDBLK
  5
871F
  8
0
  0
BLOCK
  8
0
  2
*D17
 70
     1
 10
0.0
 20
0.0
 30
0.0
  3
*D17
  1

  0
LINE
  5
8842
  8
3
 62
     0
 10
1207.0860909170599
 20
1208.6617737296449
 30
0.0
 11
1207.0860909170599
 21
1084.719462118544
 31
0.0
  0
LINE
  5
8843
  8
3
 62
     0
 10
1387.0860909170599
 20
1208.6617737296449
 30
0.0
 11
1387.0860909170599
 21
1084.719462118544
 31
0.0
  0
LINE
  5
8844
  8
3
 62
     0
 10
1237.0860909170599
 20
1099.719462118544
 30
0.0
 11
1357.086090917061
 21
1099.719462118544
 31
0.0
  0
INSERT
  5
8845
  8
3
 62
     0
  2
_OPEN
 10
1207.0860909170599
 20
1099.719462118544
 30
0.0
 41
30.0
 42
30.0
 43
30.0
 50
180.0
  0
INSERT
  5
8846
  8
3
 62
     0
  2
_OPEN
 10
1387.0860909170599
 20
1099.719462118544
 30
0.0
 41
30.0
 42
30.0
 43
30.0
  0
TEXT
  8
3
  40
45
  5
886C
  62
0
  72
0
  71
0
 10
1207.09
 20
1057.57
 30
0.000000
  1
180
  0
POINT
  5
8848
  8
DEFPOINTS
 62
     0
 10
1207.0860909170599
 20
1216.1617737296449
 30
0.0
  0
POINT
  5
8849
  8
DEFPOINTS
 62
     0
 10
1387.0860909170599
 20
1216.1617737296449
 30
0.0
  0
POINT
  5
884A
  8
DEFPOINTS
 62
     0
 10
1387.0860909170599
 20
1099.719462118544
 30
0.0
  0
ENDBLK
  5
872E
  8
0
  0
BLOCK
  8
0
  2
*D18
 70
     1
 10
0.0
 20
0.0
 30
0.0
  3
*D18
  1

  0
LINE
  5
884B
  8
3
 62
     0
 10
1984.0174634224379
 20
1208.661773729644
 30
0.0
 11
1984.0174634224379
 21
1084.719462118544
 31
0.0
  0
LINE
  5
884C
  8
3
 62
     0
 10
2599.0174634224391
 20
1208.6617737296449
 30
0.0
 11
2599.0174634224391
 21
1084.719462118544
 31
0.0
  0
LINE
  5
884D
  8
3
 62
     0
 10
2014.0174634224379
 20
1099.719462118544
 30
0.0
 11
2569.0174634224381
 21
1099.719462118544
 31
0.0
  0
INSERT
  5
884E
  8
3
 62
     0
  2
_OPEN
 10
1984.0174634224379
 20
1099.719462118544
 30
0.0
 41
30.0
 42
30.0
 43
30.0
 50
180.0
  0
INSERT
  5
884F
  8
3
 62
     0
  2
_OPEN
 10
2599.0174634224391
 20
1099.719462118544
 30
0.0
 41
30.0
 42
30.0
 43
30.0
  0
TEXT
  8
3
  40
45
  5
886D
  62
0
  72
0
  71
0
 10
2201.52
 20
1057.57
 30
0.000000
  1
615
  0
POINT
  5
8851
  8
DEFPOINTS
 62
     0
 10
1984.0174634224379
 20
1216.161773729644
 30
0.0
  0
POINT
  5
8852
  8
DEFPOINTS
 62
     0
 10
2599.0174634224391
 20
1216.1617737296449
 30
0.0
  0
POINT
  5
8853
  8
DEFPOINTS
 62
     0
 10
2599.0174634224391
 20
1099.719462118544
 30
0.0
  0
ENDBLK
  5
873B
  8
0
  0
BLOCK
  8
0
  2
*D19
 70
     1
 10
0.0
 20
0.0
 30
0.0
  3
*D19
  1

  0
LINE
  5
8854
  8
3
 62
     0
 10
2599.0174634224391
 20
1208.6617737296449
 30
0.0
 11
2599.0174634224391
 21
1084.719462118544
 31
0.0
  0
LINE
  5
8855
  8
3
 62
     0
 10
2764.0174634224368
 20
1208.661773729644
 30
0.0
 11
2764.0174634224368
 21
1084.719462118544
 31
0.0
  0
LINE
  5
8856
  8
3
 62
     0
 10
2629.0174634224381
 20
1099.719462118544
 30
0.0
 11
2734.0174634224368
 21
1099.719462118544
 31
0.0
  0
INSERT
  5
8857
  8
3
 62
     0
  2
_OPEN
 10
2599.0174634224391
 20
1099.719462118544
 30
0.0
 41
30.0
 42
30.0
 43
30.0
 50
180.0
  0
INSERT
  5
8858
  8
3
 62
     0
  2
_OPEN
 10
2764.0174634224368
 20
1099.719462118544
 30
0.0
 41
30.0
 42
30.0
 43
30.0
  0
TEXT
  8
3
  40
45
  5
886E
  62
0
  72
0
  71
0
 10
2591.52
 20
1057.57
 30
0.000000
  1
165
  0
POINT
  5
885A
  8
DEFPOINTS
 62
     0
 10
2599.0174634224391
 20
1216.1617737296449
 30
0.0
  0
POINT
  5
885B
  8
DEFPOINTS
 62
     0
 10
2764.0174634224368
 20
1216.161773729644
 30
0.0
  0
POINT
  5
885C
  8
DEFPOINTS
 62
     0
 10
2764.0174634224368
 20
1099.719462118544
 30
0.0
  0
ENDBLK
  5
874A
  8
0
  0
ENDSEC
  0
SECTION
  2
ENTITIES
  0
POLYLINE
  5
7CFA
  8
1
 66
     1
 10
0.0
 20
0.0
 30
0.0
 70
     1
  0
VERTEX
  5
8776
  8
1
 10
2416.0174634224368
 20
1474.361773729644
 30
0.0
  0
VERTEX
  5
8777
  8
1
 10
2416.0174634224368
 20
1514.361773729644
 30
0.0
  0
VERTEX
  5
8778
  8
1
 10
2418.0174634224381
 20
1514.361773729644
 30
0.0
 42
-0.4142135623730951
  0
VERTEX
  5
8779
  8
1
 10
2421.0174634224368
 20
1511.361773729644
 30
0.0
  0
VERTEX
  5
877A
  8
1
 10
2421.0174634224368
 20
1483.861773729644
 30
0.0
 42
0.4142135623730951
  0
VERTEX
  5
877B
  8
1
 10
2425.5174634224368
 20
1479.361773729644
 30
0.0
  0
VERTEX
  5
877C
  8
1
 10
2453.0174634224368
 20
1479.361773729644
 30
0.0
 42
-0.4142135623730951
  0
VERTEX
  5
877D
  8
1
 10
2456.0174634224368
 20
1476.361773729644
 30
0.0
  0
VERTEX
  5
877E
  8
1
 10
2456.0174634224368
 20
1474.361773729644
 30
0.0
  0
SEQEND
  5
877F
  8
1
  0
LINE
  5
7D07
  8
2
 10
2633.8912784196368
 20
1571.161773729644
 30
0.0
 11
1889.2318330175619
 21
1571.161773729644
 31
0.0
  0
LINE
  5
7D08
  8
1
 10
2764.0174634224368
 20
1216.1617737296449
 30
0.0
 11
1984.0174634224379
 21
1216.161773729644
 31
0.0
  0
LINE
  5
7D09
  8
1
 10
2764.0174634224368
 20
1291.161773729644
 30
0.0
 11
1984.0174634224379
 21
1291.161773729644
 31
0.0
  0
LINE
  5
7D0A
  8
1
 10
577.08609091706035
 20
2398.8032173322781
 30
0.0
 11
577.08609091706035
 21
2490.8032173322781
 31
0.0
  0
LINE
  5
7D0B
  8
1
 10
644.48609091706089
 20
2478.803217332279
 30
0.0
 11
644.48609091706055
 21
2428.8032173322781
 31
0.0
  0
LINE
  5
7D0C
  8
1
 10
809.68609091706026
 20
2478.803217332279
 30
0.0
 11
809.68609091706026
 21
2428.8032173322781
 31
0.0
  0
LINE
  5
7D0D
  8
1
 10
1143.5860909170599
 20
2478.803217332279
 30
0.0
 11
1143.5860909170599
 21
2428.8032173322781
 31
0.0
  0
LINE
  5
7D0E
  8
1
 10
1270.5860909170599
 20
2478.8032173322781
 30
0.0
 11
1270.5860909170599
 21
2428.8032173322781
 31
0.0
  0
LINE
  5
7D0F
  8
1
 10
1307.0860909170599
 20
2398.8032173322781
 30
0.0
 11
1307.0860909170599
 21
2490.8032173322781
 31
0.0
  0
LINE
  5
7D11
  8
2
 10
1207.0860909170599
 20
3238.9845973409501
 30
0.0
 11
1207.086090917061
 21
2389.636914056372
 31
0.0
  0
LINE
  5
7D12
  8
2
 10
727.08609091706035
 20
2759.7402173322789
 30
0.0
 11
727.08609091706035
 21
2388.3214814654289
 31
0.0
  0
LINE
  5
7D13
  8
1
 10
1143.5860909170599
 20
2428.803217332279
 30
0.0
 11
1270.5860909170599
 21
2428.8032173322781
 31
0.0
  0
LINE
  5
7D14
  8
1
 10
1207.4749212420161
 20
1813.161773729644
 30
0.0
 11
1191.4749212420161
 21
1813.161773729644
 31
0.0
  0
LINE
  5
7D15
  8
1
 10
1184.4749212420161
 20
1816.161773729644
 30
0.0
 11
1209.474921242017
 21
1816.161773729644
 31
0.0
  0
ARC
  5
7D16
  8
1
 10
1225.5860909170599
 20
1589.6617737296449
 30
0.0
 40
170.010476206249
 50
89.999999999999616
 51
105.1738417687781
  0
CIRCLE
  5
7D17
  8
1
 10
1207.0860909170599
 20
1391.1617737296449
 30
0.0
 40
65.0
  0
LINE
  5
7D18
  8
2
 10
1137.0860909170599
 20
1391.1617737296449
 30
0.0
 11
1277.0860909170599
 21
1391.1617737296449
 31
0.0
  0
ARC
  5
7D19
  8
1
 10
1177.8927628769691
 20
1552.3968211449539
 30
0.0
 40
255.15223226792139
 50
271.15405593563707
 51
7.4603427729040979
  0
LINE
  5
7D1A
  8
1
 10
1367.086090917061
 20
1517.561773729645
 30
0.0
 11
1047.0860909170599
 21
1517.561773729645
 31
0.0
  0
POLYLINE
  5
7D1B
  8
1
 66
     1
 10
0.0
 20
0.0
 30
0.0
 70
     1
  0
VERTEX
  5
8780
  8
1
 10
1107.086090917061
 20
1517.561773729645
 30
0.0
  0
VERTEX
  5
8781
  8
1
 10
1307.0860909170599
 20
1517.561773729645
 30
0.0
  0
VERTEX
  5
8782
  8
1
 10
1307.0860909170599
 20
1523.561773729645
 30
0.0
  0
VERTEX
  5
8783
  8
1
 10
1107.086090917061
 20
1523.561773729645
 30
0.0
  0
SEQEND
  5
8784
  8
1
  0
POLYLINE
  5
7D21
  8
1
 66
     1
 10
0.0
 20
0.0
 30
0.0
 70
     1
  0
VERTEX
  5
8785
  8
1
 10
1107.086090917061
 20
1517.561773729645
 30
0.0
  0
VERTEX
  5
8786
  8
1
 10
1307.0860909170599
 20
1517.561773729645
 30
0.0
  0
VERTEX
  5
8787
  8
1
 10
1307.0860909170599
 20
1523.561773729645
 30
0.0
  0
VERTEX
  5
8788
  8
1
 10
1107.086090917061
 20
1523.561773729645
 30
0.0
  0
SEQEND
  5
8789
  8
1
  0
LINE
  5
7D27
  8
1
 10
1407.086090917061
 20
1514.361773729644
 30
0.0
 11
1007.08609091706
 21
1514.3617737296449
 31
0.0
  0
POLYLINE
  5
7D29
  8
1
 66
     1
 10
0.0
 20
0.0
 30
0.0
  0
VERTEX
  5
878A
  8
1
 10
1357.086090917061
 20
1352.6709794666051
 30
0.0
 42
0.247273813914887
  0
VERTEX
  5
878B
  8
1
 10
1441.892799858372
 20
1580.6544066514609
 30
0.0
 42
0.377002301875605
  0
VERTEX
  5
878C
  8
1
 10
1225.5860909170599
 20
1770.7722499358929
 30
0.0
 42
0.0479523924775464
  0
VERTEX
  5
878D
  8
1
 10
1191.0860909170599
 20
1767.4559091550129
 30
0.0
 42
0.3936265759256324
  0
SEQEND
  5
878E
  8
1
  0
ARC
  5
7D2F
  8
1
 10
1207.0860909170599
 20
1571.1617737296449
 30
0.0
 40
100.0
 50
290.92458914348401
 51
99.383546957141121
  0
CIRCLE
  5
7D30
  8
1
 10
1207.0860909170599
 20
1571.1617737296449
 30
0.0
 40
63.5
  0
LINE
  5
7D32
  8
1
 10
1242.7999800232619
 20
1477.756644722132
 30
0.0
 11
780.65692457636214
 21
1301.0540802183771
 31
0.0
  0
LINE
  5
7D33
  8
2
 10
852.22523780871813
 20
1571.1617737296449
 30
0.0
 11
1463.5462172675459
 21
1571.1617737296449
 31
0.0
  0
LINE
  5
7D34
  8
1
 10
587.08609091706035
 20
1216.1617737296449
 30
0.0
 11
1387.0860909170599
 21
1216.1617737296449
 31
0.0
  0
LINE
  5
7D35
  8
1
 10
577.08609091706057
 20
1291.1617737296449
 30
0.0
 11
1387.0860909170599
 21
1291.1617737296449
 31
0.0
  0
LINE
  5
7D39
  8
1
 10
1226.0278215065259
 20
1510.552691553158
 30
0.0
 11
751.72525543186066
 21
1362.3222432134589
 31
0.0
  0
LINE
  5
7D3A
  8
1
 10
1307.0860909170599
 20
2398.8032173322781
 30
0.0
 11
577.08609091706035
 21
2398.8032173322781
 31
0.0
  0
DIMENSION
  5
7D3B
  8
3
  2
*D1
 10
1207.0860909170599
 20
1951.297736236945
 30
0.0
 11
1031.5861211368999
 21
1988.7977362369461
 31
0.0
 70
     0
 13
856.08615135673972
 23
1816.161773729644
 33
0.0
 14
1207.0860909170599
 24
1849.0595217906309
 34
0.0
1001
ACAD
1000
DSTYLE
1002
{
1070
   287
1070
     3
1070
    40
1040
15.0
1070
   143
1040
0.039
1070
   172
1070
     1
1070
   271
1070
     0
1070
   279
1070
     0
1070
   288
1070
     1
1002
}
  0
LINE
  5
7D3C
  8
1
 10
1209.474921242017
 20
1813.161773729644
 30
0.0
 11
847.47492124201653
 21
1813.161773729644
 31
0.0
  0
LINE
  5
7D3D
  8
1
 10
1209.474921242017
 20
1816.161773729644
 30
0.0
 11
829.47492124201665
 21
1816.161773729644
 31
0.0
  0
LINE
  5
7D3E
  8
2
 10
727.08609091706035
 20
1345.177673729645
 30
0.0
 11
727.08609091706035
 21
1549.6228737296451
 31
0.0
  0
CIRCLE
  5
7D3F
  8
1
 10
727.08609091706035
 20
1441.161773729644
 30
0.0
 40
82.599999999999994
  0
ARC
  5
7D42
  8
1
 10
727.08609091706035
 20
1441.161773729644
 30
0.0
 40
150.0
 50
99.383546957141107
 51
290.92458914348401
  0
ARC
  5
7D43
  8
1
 10
727.08609091706035
 20
1441.161773729644
 30
0.0
 40
100.8
 50
300.30070000000001
 51
180.0
  0
ARC
  5
7D44
  8
1
 10
727.08609091706035
 20
1441.161773729644
 30
0.0
 40
100.8
 50
300.30070000000001
 51
180.0
  0
LINE
  5
7D45
  8
1
 10
1007.08609091706
 20
1514.361773729644
 30
0.0
 11
1007.08609091706
 21
1474.3617737296449
 31
0.0
  0
LINE
  5
7D46
  8
1
 10
1057.0860909170599
 20
1514.361773729644
 30
0.0
 11
1057.0860909170599
 21
1291.1617737296449
 31
0.0
  0
POLYLINE
  5
7D47
  8
1
 66
     1
 10
0.0
 20
0.0
 30
0.0
  0
VERTEX
  5
8798
  8
1
 10
848.97546412150302
 20
1791.1617737296449
 30
0.0
  0
VERTEX
  5
8799
  8
1
 10
875.13358202724714
 20
1570.1707776293911
 30
0.0
 42
0.2448603046964227
  0
VERTEX
  5
879A
  8
1
 10
1027.0860909170599
 20
1328.472258342156
 30
0.0
 42
0.4524303970122726
  0
SEQEND
  5
879B
  8
1
  0
ARC
  5
7D4C
  8
1
 10
1181.9162199869661
 20
1592.168536493898
 30
0.0
 40
297.57394324695451
 50
184.04208118224409
 51
270.22525103777849
  0
LINE
  5
7D4D
  8
1
 10
577.08609091706057
 20
1321.1617737296449
 30
0.0
 11
877.08609091706035
 21
1321.1617737296449
 31
0.0
  0
LINE
  5
7D4E
  8
1
 10
587.0860909170608
 20
1291.1617737296449
 30
0.0
 11
587.08609091706035
 21
1216.1617737296449
 31
0.0
  0
LINE
  5
7D50
  8
1
 10
778.01019091706019
 20
1354.161773729644
 30
0.0
 11
676.05509091706028
 21
1354.161773729644
 31
0.0
  0
LINE
  5
7D51
  8
1
 10
778.01019091706019
 20
1354.161773729644
 30
0.0
 11
676.05509091706028
 21
1354.161773729644
 31
0.0
  0
LINE
  5
7D52
  8
1
 10
771.91659091706026
 20
1355.1617737296449
 30
0.0
 11
681.9621909170603
 21
1355.1617737296449
 31
0.0
  0
LINE
  5
7D53
  8
1
 10
771.91659091706026
 20
1355.1617737296449
 30
0.0
 11
681.9621909170603
 21
1355.1617737296449
 31
0.0
  0
LINE
  5
7D54
  8
1
 10
626.18221944837342
 20
1351.1617737296449
 30
0.0
 11
827.98996238574716
 21
1351.1617737296449
 31
0.0
  0
LINE
  5
7D55
  8
2
 10
831.55129091706033
 20
1441.161773729644
 30
0.0
 11
620.98329091706023
 21
1441.161773729644
 31
0.0
  0
ARC
  5
7D56
  8
1
 10
727.08609091706035
 20
1441.161773729644
 30
0.0
 40
100.8
 50
180.0
 51
239.6066999999999
  0
ARC
  5
7D58
  8
1
 10
727.08609091706035
 20
1441.161773729644
 30
0.0
 40
100.8
 50
180.0
 51
239.6066999999999
  0
LINE
  5
7D5A
  8
1
 10
577.08609091706057
 20
1291.1617737296449
 30
0.0
 11
577.0860909170608
 21
1321.1617737296449
 31
0.0
  0
LINE
  5
7D5B
  8
1
 10
614.58609091706035
 20
1321.1617737296449
 30
0.0
 11
626.18221944837342
 21
1351.1617737296449
 31
0.0
  0
LINE
  5
7D5C
  8
1
 10
639.08609091706035
 20
1351.1617737296449
 30
0.0
 11
679.08609091706035
 21
1351.1617737296449
 31
0.0
  0
LINE
  5
7D5D
  8
1
 10
644.93949091706031
 20
1382.7444737296439
 30
0.0
 11
639.08609091706035
 21
1359.1617737296449
 31
0.0
  0
LINE
  5
7D5E
  8
1
 10
639.08609091706035
 20
1351.1617737296449
 30
0.0
 11
639.08609091706035
 21
1359.1617737296449
 31
0.0
  0
LINE
  5
7D60
  8
1
 10
679.08609091706035
 20
1354.0927737296449
 30
0.0
 11
679.08609091706035
 21
1351.1617737296449
 31
0.0
  0
LINE
  5
7D61
  8
1
 10
815.08609091706035
 20
1351.1617737296449
 30
0.0
 11
775.08609091706035
 21
1351.1617737296449
 31
0.0
  0
LINE
  5
7D62
  8
1
 10
775.08609091706035
 20
1354.1345737296449
 30
0.0
 11
775.08609091706035
 21
1351.1617737296449
 31
0.0
  0
LINE
  5
7D63
  8
1
 10
839.58609091706035
 20
1321.1617737296449
 30
0.0
 11
827.98996238574716
 21
1351.1617737296449
 31
0.0
  0
LINE
  5
7D64
  8
1
 10
815.08609091706035
 20
1351.1617737296449
 30
0.0
 11
815.08609091706035
 21
1359.1617737296449
 31
0.0
  0
LINE
  5
7D65
  8
1
 10
809.23259091706041
 20
1382.7444737296439
 30
0.0
 11
815.08609091706035
 21
1359.1617737296449
 31
0.0
  0
LINE
  5
7D67
  8
1
 10
1027.0860909170599
 20
1331.1617737296449
 30
0.0
 11
1057.0860909170599
 21
1331.1617737296449
 31
0.0
  0
LINE
  5
7D68
  8
1
 10
1027.0860909170599
 20
1296.1617737296449
 30
0.0
 11
1057.0860909170599
 21
1296.1617737296449
 31
0.0
  0
LINE
  5
7D69
  8
1
 10
899.2712082600483
 20
1474.3617737296449
 30
0.0
 11
1057.0860909170599
 21
1474.3617737296449
 31
0.0
  0
LINE
  5
7D6A
  8
1
 10
901.24972417633364
 20
1469.8617737296449
 30
0.0
 11
1057.0860909170599
 21
1469.8617737296449
 31
0.0
  0
LINE
  5
7D6B
  8
1
 10
877.08609091706035
 20
1291.1617737296449
 30
0.0
 11
877.08609091706035
 21
1321.1617737296449
 31
0.0
  0
LINE
  5
7D6C
  8
1
 10
1027.0860909170599
 20
1331.1617737296449
 30
0.0
 11
1027.0860909170599
 21
1291.1617737296449
 31
0.0
  0
LINE
  5
7D71
  8
1
 10
856.08615135673972
 20
1816.161773729644
 30
0.0
 11
885.08247757912864
 21
1571.192810816359
 31
0.0
  0
LINE
  5
7D73
  8
1
 10
1190.781825749395
 20
1669.823675887176
 30
0.0
 11
702.62969316556291
 21
1589.154626965943
 31
0.0
  0
LINE
  5
7D74
  8
1
 10
1192.852552806366
 20
1633.0459913691309
 30
0.0
 11
708.57128386283409
 21
1521.659984391403
 31
0.0
  0
LINE
  5
7D75
  8
1
 10
848.97546412150302
 20
1791.1617737296449
 30
0.0
 11
1185.4749212420161
 21
1791.1617737296449
 31
0.0
  0
DIMENSION
  5
7D76
  8
3
  2
*D2
 10
1181.0860909170599
 20
1875.130134318762
 30
0.0
 11
1018.5861211369
 21
1912.630134318762
 31
0.0
 70
     0
 13
856.08615135673972
 23
1816.161773729644
 33
0.0
 14
1181.0860909170599
 24
1816.161773729644
 34
0.0
1001
ACAD
1000
DSTYLE
1002
{
1070
   287
1070
     3
1070
    40
1040
15.0
1070
   143
1040
0.039
1070
   172
1070
     1
1070
   271
1070
     0
1070
   279
1070
     0
1070
   288
1070
     1
1002
}
  0
ARC
  5
7D77
  8
1
 10
847.47492124201653
 20
1809.161773729644
 30
0.0
 40
4.0
 50
0.0
 51
90.0
  0
LINE
  5
7D78
  8
1
 10
854.47492124201665
 20
1791.1617737296431
 30
0.0
 11
854.47492124201665
 21
1816.161773729644
 31
0.0
  0
LINE
  5
7D79
  8
1
 10
853.47492124201642
 20
1791.1617737296431
 30
0.0
 11
854.47492124201665
 21
1791.1617737296431
 31
0.0
  0
ARC
  5
7D7A
  8
1
 10
853.47492124201642
 20
1793.161773729644
 30
0.0
 40
2.0
 50
180.0
 51
270.0
  0
LINE
  5
7D7B
  8
1
 10
858.04527459053043
 20
1791.1617737296449
 30
0.0
 11
859.04527459053043
 21
1791.1617737296449
 31
0.0
  0
LINE
  5
7D7C
  8
1
 10
851.47492124201653
 20
1809.161773729644
 30
0.0
 11
851.47492124201653
 21
1793.161773729644
 31
0.0
  0
ARC
  5
7D7D
  8
1
 10
831.47492124201653
 20
1815.161773729644
 30
0.0
 40
2.0
 50
180.0
 51
270.0
  0
LINE
  5
7D7E
  8
1
 10
829.47492124201665
 20
1816.161773729644
 30
0.0
 11
829.47492124201665
 21
1815.161773729644
 31
0.0
  0
LINE
  5
7D7F
  8
1
 10
854.47492124201665
 20
1816.161773729644
 30
0.0
 11
829.47492124201665
 21
1816.161773729644
 31
0.0
  0
LINE
  5
7D80
  8
1
 10
831.47492124201653
 20
1813.161773729644
 30
0.0
 11
847.47492124201653
 21
1813.161773729644
 31
0.0
  0
LINE
  5
7D81
  8
1
 10
1047.0860909170599
 20
1517.561773729645
 30
0.0
 11
1047.0860909170599
 21
1514.361773729644
 31
0.0
  0
LINE
  5
7D82
  8
1
 10
1123.5860909170599
 20
1523.561773729645
 30
0.0
 11
1177.586090917061
 21
1523.561773729645
 31
0.0
  0
ARC
  5
7D83
  8
1
 10
1191.4749212420161
 20
1809.1617737296449
 30
0.0
 40
4.0
 50
90.0
 51
180.0
  0
LINE
  5
7D85
  8
1
 10
1181.0860909170599
 20
1816.161773729644
 30
0.0
 11
1181.0860909170599
 21
1753.7450209545691
 31
0.0
  0
ARC
  5
7D86
  8
1
 10
1185.4749212420161
 20
1793.1617737296449
 30
0.0
 40
2.0
 50
270.0
 51
0.0
  0
LINE
  5
7D87
  8
1
 10
1185.4749212420161
 20
1791.1617737296449
 30
0.0
 11
1184.4749212420161
 21
1791.1617737296449
 31
0.0
  0
LINE
  5
7D88
  8
1
 10
1191.0860909170599
 20
1791.1617737296449
 30
0.0
 11
1184.4749212420161
 21
1791.1617737296449
 31
0.0
  0
LINE
  5
7D89
  8
1
 10
1191.0860909170599
 20
1791.1617737296449
 30
0.0
 11
1191.0860909170599
 21
1767.4559091550129
 31
0.0
  0
LINE
  5
7D8A
  8
1
 10
1187.4749212420161
 20
1809.1617737296449
 30
0.0
 11
1187.4749212420161
 21
1793.1617737296449
 31
0.0
  0
LINE
  5
7D8B
  8
1
 10
809.68609091706026
 20
2428.8032173322781
 30
0.0
 11
644.48609091706089
 21
2428.8032173322781
 31
0.0
  0
LINE
  5
7D8C
  8
1
 10
739.08609091706035
 20
2428.803217332279
 30
0.0
 11
715.08609091706035
 21
2428.803217332279
 31
0.0
  0
LINE
  5
7D8E
  8
1
 10
1407.086090917061
 20
1514.361773729644
 30
0.0
 11
1407.086090917061
 21
1474.361773729644
 31
0.0
  0
DIMENSION
  5
7D8F
  8
3
  2
*D3
 10
1563.240177489261
 20
1216.161773729644
 30
0.0
 11
1525.7401774892601
 21
1393.6617737296449
 31
0.0
 70
     0
 13
1463.5462172675459
 23
1571.1617737296449
 33
0.0
 14
1387.0860909170599
 24
1216.1617737296449
 34
0.0
 50
270.0
1001
ACAD
1000
DSTYLE
1002
{
1070
   287
1070
     3
1070
    40
1040
15.0
1070
   143
1040
0.039
1070
   172
1070
     1
1070
   271
1070
     0
1070
   279
1070
     0
1070
   288
1070
     1
1002
}
  0
LINE
  5
7D90
  8
1
 10
1357.086090917061
 20
1514.361773729644
 30
0.0
 11
1357.086090917061
 21
1291.1617737296449
 31
0.0
  0
LINE
  5
7D91
  8
2
 10
1207.0860909170599
 20
1665.30108892212
 30
0.0
 11
1207.0860909170599
 21
1216.1617737296449
 31
0.0
  0
LINE
  5
7D92
  8
1
 10
2003.0174634224379
 20
1671.161773729644
 30
0.0
 11
2003.0174634224391
 21
1291.161773729644
 31
0.0
  0
LINE
  5
7D93
  8
1
 10
1911.0174634224391
 20
1671.161773729644
 30
0.0
 11
1911.0174634224379
 21
1291.161773729644
 31
0.0
  0
LINE
  5
7D94
  8
1
 10
1991.0174634224391
 20
1634.661773729644
 30
0.0
 11
1991.0174634224391
 21
1507.661773729644
 31
0.0
  0
LINE
  5
7D95
  8
1
 10
1991.0174634224391
 20
1523.7617737296439
 30
0.0
 11
1991.0174634224391
 21
1358.561773729645
 31
0.0
  0
LINE
  5
7D96
  8
1
 10
1941.0174634224379
 20
1523.7617737296439
 30
0.0
 11
1941.0174634224379
 21
1358.561773729645
 31
0.0
  0
LINE
  5
7D97
  8
1
 10
2006.0174634224391
 20
1542.161773729644
 30
0.0
 11
2006.0174634224391
 21
1340.161773729644
 31
0.0
  0
LINE
  5
7D98
  8
1
 10
1941.0174634224379
 20
1634.661773729644
 30
0.0
 11
1941.0174634224379
 21
1507.661773729644
 31
0.0
  0
LINE
  5
7D9A
  8
1
 10
2026.0174634224391
 20
1514.3617737296429
 30
0.0
 11
2026.0174634224391
 21
1291.161773729644
 31
0.0
  0
LINE
  5
7D9B
  8
1
 10
2416.0174634224368
 20
1513.0617737296441
 30
0.0
 11
2416.0174634224368
 21
1463.0617737296441
 31
0.0
  0
LINE
  5
7D9C
  8
1
 10
2416.0174634224368
 20
1513.061773729645
 30
0.0
 11
2416.0174634224368
 21
1473.061773729645
 31
0.0
  0
LINE
  5
7D9D
  8
1
 10
2416.0174634224368
 20
1513.0617737296441
 30
0.0
 11
2416.0174634224368
 21
1291.161773729644
 31
0.0
  0
LINE
  5
7DA2
  8
1
 10
1387.0860909170599
 20
1331.1617737296449
 30
0.0
 11
1387.0860909170599
 21
1216.1617737296449
 31
0.0
  0
LINE
  5
7DA4
  8
1
 10
1357.086090917061
 20
1469.861773729644
 30
0.0
 11
1431.9328490897719
 21
1469.861773729644
 31
0.0
  0
LINE
  5
7DA5
  8
1
 10
1357.086090917061
 20
1474.3617737296449
 30
0.0
 11
1433.3097090130909
 21
1474.361773729644
 31
0.0
  0
LINE
  5
7DA6
  8
1
 10
1357.086090917061
 20
1331.1617737296449
 30
0.0
 11
1387.0860909170599
 21
1331.1617737296449
 31
0.0
  0
LINE
  5
7DA7
  8
1
 10
1357.086090917061
 20
1296.1617737296449
 30
0.0
 11
1387.0860909170599
 21
1296.1617737296449
 31
0.0
  0
LINE
  5
7DA9
  8
1
 10
1984.0174634224379
 20
1291.161773729644
 30
0.0
 11
1984.0174634224379
 21
1216.161773729644
 31
0.0
  0
LINE
  5
7DAB
  8
1
 10
1911.0174634224379
 20
1291.161773729644
 30
0.0
 11
2003.0174634224391
 21
1291.161773729644
 31
0.0
  0
LINE
  5
7DAC
  8
1
 10
1991.0174634224391
 20
1358.561773729645
 30
0.0
 11
1941.0174634224379
 21
1358.5617737296441
 31
0.0
  0
LINE
  5
7DAD
  8
1
 10
2006.0174634224391
 20
1340.161773729644
 30
0.0
 11
2022.8174634224381
 21
1340.161773729644
 31
0.0
  0
LINE
  5
7DAE
  8
1
 10
1997.0174634224391
 20
1403.661773729644
 30
0.0
 11
2005.0174634224391
 21
1403.661773729644
 31
0.0
  0
LINE
  5
7DAF
  8
1
 10
1996.0174634224391
 20
1477.661773729644
 30
0.0
 11
2006.0174634224391
 21
1477.661773729644
 31
0.0
  0
LINE
  5
7DB0
  8
2
 10
2035.3154288194869
 20
1441.161773729644
 30
0.0
 11
1887.5483582128211
 21
1441.161773729644
 31
0.0
  0
LINE
  5
7DB1
  8
1
 10
1996.0174634224391
 20
1404.661773729644
 30
0.0
 11
1996.0174634224391
 21
1477.661773729644
 31
0.0
  0
LINE
  5
7DB2
  8
1
 10
1941.0174634224379
 20
1453.161773729644
 30
0.0
 11
1941.0174634224379
 21
1429.161773729644
 31
0.0
  0
LINE
  5
7DB3
  8
1
 10
1991.0174634224391
 20
1453.661773729644
 30
0.0
 11
1991.0174634224391
 21
1428.661773729644
 31
0.0
  0
LINE
  5
7DB4
  8
1
 10
1996.0174634224391
 20
1428.661773729644
 30
0.0
 11
1991.0174634224391
 21
1428.661773729644
 31
0.0
  0
ARC
  5
7DB5
  8
1
 10
1997.017563422439
 20
1404.661773729644
 30
0.0
 40
1.0000999999999991
 50
180.0
 51
269.99650000000003
  0
LINE
  5
7DB6
  8
1
 10
1991.0174634224391
 20
1507.661773729644
 30
0.0
 11
1941.0174634224391
 21
1507.661773729644
 31
0.0
  0
LINE
  5
7DB7
  8
1
 10
1996.0174634224391
 20
1453.661773729644
 30
0.0
 11
1991.0174634224391
 21
1453.661773729644
 31
0.0
  0
ARC
  5
7DB8
  8
1
 10
2005.0174634224391
 20
1402.661773729644
 30
0.0
 40
1.0000999999999991
 50
0.0
 51
89.996500000000054
  0
DIMENSION
  5
7DB9
  8
3
  2
*D4
 10
1433.04499514489
 20
1951.297736236945
 30
0.0
 11
1320.065543030975
 21
1988.7977362369461
 31
0.0
 70
     0
 13
1207.0860909170599
 23
1849.0595217906309
 33
0.0
 14
1433.04499514489
 24
1552.3968211449539
 34
0.0
1001
ACAD
1000
DSTYLE
1002
{
1070
   287
1070
     3
1070
    40
1040
15.0
1070
   143
1040
0.039
1070
   172
1070
     1
1070
   271
1070
     0
1070
   279
1070
     0
1070
   288
1070
     1
1002
}
  0
DIMENSION
  5
7DBA
  8
3
  2
*D5
 10
1563.240177489261
 20
1571.161773729644
 30
0.0
 11
1525.7401774892601
 21
1693.6617737296449
 31
0.0
 70
     0
 13
1209.474921242017
 23
1816.161773729644
 33
0.0
 14
1463.5462172675459
 24
1571.1617737296449
 34
0.0
 50
270.0
1001
ACAD
1000
DSTYLE
1002
{
1070
   287
1070
     3
1070
    40
1040
15.0
1070
   143
1040
0.039
1070
   172
1070
     1
1070
   271
1070
     0
1070
   279
1070
     0
1070
   288
1070
     1
1002
}
  0
LINE
  5
7DBB
  8
2
 10
1207.0860909170599
 20
1849.0595217906309
 30
0.0
 11
1207.0860909170599
 21
1684.2410159003091
 31
0.0
  0
ARC
  5
7DBC
  8
1
 10
1231.1617999792679
 20
1558.1588296544189
 30
0.0
 40
201.58952384937541
 50
7.7978028439297358
 51
91.563977764425033
  0
LINE
  5
7DBD
  8
1
 10
1290.5860909170599
 20
1523.561773729645
 30
0.0
 11
1236.5860909170599
 21
1523.561773729645
 31
0.0
  0
LINE
  5
7DBE
  8
1
 10
1367.086090917061
 20
1517.561773729645
 30
0.0
 11
1367.086090917061
 21
1514.361773729644
 31
0.0
  0
LINE
  5
7DBF
  8
1
 10
1207.0860909170599
 20
1671.1617737296449
 30
0.0
 11
1207.0860909170599
 21
1671.1617737296449
 31
0.0
  0
ARC
  5
7DC0
  8
1
 10
1207.4749212420161
 20
1815.161773729644
 30
0.0
 40
2.0
 50
270.0
 51
0.0
  0
LINE
  5
7DC1
  8
1
 10
1209.474921242017
 20
1816.161773729644
 30
0.0
 11
1209.474921242017
 21
1815.161773729644
 31
0.0
  0
LINE
  5
7DCA
  8
1
 10
2426.0174634224381
 20
1514.361773729644
 30
0.0
 11
2016.0174634224379
 21
1514.3617737296429
 31
0.0
  0
LINE
  5
7DCB
  8
1
 10
2426.0174634224381
 20
1517.5617737296441
 30
0.0
 11
2016.0174634224391
 21
1517.5617737296441
 31
0.0
  0
LINE
  5
7DCC
  8
1
 10
1911.0174634224391
 20
1671.161773729644
 30
0.0
 11
2003.0174634224379
 21
1671.161773729644
 31
0.0
  0
LINE
  5
7DCF
  8
1
 10
1991.0174634224391
 20
1523.7617737296439
 30
0.0
 11
1941.0174634224379
 21
1523.7617737296439
 31
0.0
  0
LINE
  5
7DD6
  8
1
 10
2006.0174634224391
 20
1542.161773729644
 30
0.0
 11
2268.0174634224391
 21
1542.161773729644
 31
0.0
  0
LINE
  5
7DD8
  8
1
 10
2016.0174634224379
 20
1514.3617737296429
 30
0.0
 11
2016.0174634224391
 21
1517.5617737296441
 31
0.0
  0
LINE
  5
7DE3
  8
1
 10
1991.0174634224391
 20
1634.661773729644
 30
0.0
 11
1941.0174634224391
 21
1634.661773729644
 31
0.0
  0
LINE
  5
7DE4
  8
1
 10
2479.0174634224381
 20
1553.661773729644
 30
0.0
 11
1991.0174634224391
 21
1553.661773729644
 31
0.0
  0
LINE
  5
7DE5
  8
1
 10
2479.0174634224381
 20
1588.6617737296449
 30
0.0
 11
1991.0174634224391
 21
1588.661773729644
 31
0.0
  0
LINE
  5
7DF7
  8
1
 10
2426.0174634224381
 20
1517.5617737296441
 30
0.0
 11
2426.0174634224368
 21
1514.361773729644
 31
0.0
  0
LINE
  5
7E06
  8
1
 10
1367.0860909170599
 20
2913.8032173322781
 30
0.0
 11
1224.5860909170599
 21
2913.8032173322781
 31
0.0
  0
LINE
  5
7E08
  8
2
 10
775.07497864513812
 20
3086.8032173322781
 30
0.0
 11
1456.6852109432771
 21
3086.8032173322781
 31
0.0
  0
LINE
  5
7E09
  8
1
 10
829.47492124201676
 20
2941.8032173322781
 30
0.0
 11
1209.474921242017
 21
2941.8032173322781
 31
0.0
  0
LINE
  5
7E0A
  8
1
 10
829.47492124201676
 20
3231.8032173322781
 30
0.0
 11
1209.474921242017
 21
3231.803217332279
 31
0.0
  0
LINE
  5
7E0B
  8
1
 10
1143.586090917061
 20
2478.803217332279
 30
0.0
 11
1270.586090917061
 21
2478.8032173322781
 31
0.0
  0
LINE
  5
7E0E
  8
1
 10
1367.0860909170599
 20
2503.8032173322781
 30
0.0
 11
1224.5860909170599
 21
2503.8032173322781
 31
0.0
  0
LINE
  5
7E10
  8
1
 10
1307.0860909170599
 20
2490.8032173322781
 30
0.0
 11
577.08609091706035
 21
2490.8032173322781
 31
0.0
  0
LINE
  5
7E15
  8
1
 10
1027.086090917061
 20
2851.8032173322781
 30
0.0
 11
1027.086090917061
 21
2941.8032173322781
 31
0.0
  0
LINE
  5
7E17
  8
1
 10
1027.0860909170599
 20
2851.8032173322781
 30
0.0
 11
587.0860909170608
 21
2851.8032173322781
 31
0.0
  0
LINE
  5
7E19
  8
1
 10
828.08609091706035
 20
2755.803217332279
 30
0.0
 11
828.08609091706035
 21
2493.803217332279
 31
0.0
  0
LINE
  5
7E1A
  8
1
 10
626.08609091706035
 20
2755.803217332279
 30
0.0
 11
626.08609091706035
 21
2493.803217332279
 31
0.0
  0
LINE
  5
7E1B
  8
1
 10
690.58609091706035
 20
2483.803217332279
 30
0.0
 11
763.58609091706035
 21
2483.803217332279
 31
0.0
  0
LINE
  5
7E1C
  8
1
 10
809.68609091706026
 20
2478.803217332279
 30
0.0
 11
644.48609091706089
 21
2478.803217332279
 31
0.0
  0
LINE
  5
7E1E
  8
1
 10
828.08609091706035
 20
2493.803217332279
 30
0.0
 11
626.08609091706035
 21
2493.803217332279
 31
0.0
  0
ARC
  5
7E21
  8
1
 10
690.58609091706035
 20
2484.8033173322792
 30
0.0
 40
1.0000999999999991
 50
180.00349999999989
 51
270.0
  0
ARC
  5
7E22
  8
1
 10
688.58609091706035
 20
2492.803217332279
 30
0.0
 40
1.0000999999999991
 50
0.0034999999999464
 51
90.0
  0
LINE
  5
7E23
  8
1
 10
689.58609091706035
 20
2484.803217332279
 30
0.0
 11
689.58609091706035
 21
2492.803217332279
 31
0.0
  0
LINE
  5
7E24
  8
1
 10
739.58609091706035
 20
2478.803217332279
 30
0.0
 11
714.58609091706035
 21
2478.803217332279
 31
0.0
  0
LINE
  5
7E25
  8
1
 10
739.58609091706035
 20
2483.803217332279
 30
0.0
 11
739.58609091706035
 21
2478.803217332279
 31
0.0
  0
LINE
  5
7E26
  8
1
 10
714.58609091706035
 20
2483.803217332279
 30
0.0
 11
714.58609091706035
 21
2478.803217332279
 31
0.0
  0
LINE
  5
7E27
  8
1
 10
763.58609091706035
 20
2483.803217332279
 30
0.0
 11
763.58609091706035
 21
2493.803217332279
 31
0.0
  0
LINE
  5
7E28
  8
1
 10
828.08609091706035
 20
2755.803217332279
 30
0.0
 11
626.08609091706035
 21
2755.803217332279
 31
0.0
  0
LINE
  5
7E29
  8
1
 10
587.08609091705875
 20
2471.8032173322781
 30
0.0
 11
587.08609091705887
 21
2851.8032173322781
 31
0.0
  0
POINT
  5
7E2A
  8
1
 10
587.08609091705887
 20
2851.8032173322781
 30
0.0
  0
LINE
  5
7E2B
  8
1
 10
1189.5860909170599
 20
2941.8032173322781
 30
0.0
 11
1189.5860909170599
 21
2478.803217332279
 31
0.0
  0
LINE
  5
7E2C
  8
1
 10
1047.0860909170599
 20
2503.8032173322772
 30
0.0
 11
1047.0860909170599
 21
2913.8032173322781
 31
0.0
  0
LINE
  5
7E36
  8
1
 10
854.47492124201676
 20
2966.8032173322781
 30
0.0
 11
1184.4749212420161
 21
3206.803217332279
 31
0.0
  0
LINE
  5
7E37
  8
1
 10
854.47492124201676
 20
3206.8032173322781
 30
0.0
 11
1184.4749212420161
 21
2966.8032173322781
 31
0.0
  0
LINE
  5
7E38
  8
1
 10
854.47492124201676
 20
2966.8032173322781
 30
0.0
 11
1184.4749212420161
 21
2966.8032173322781
 31
0.0
  0
LINE
  5
7E39
  8
1
 10
854.47492124201676
 20
3206.8032173322781
 30
0.0
 11
1184.4749212420161
 21
3206.803217332279
 31
0.0
  0
LINE
  5
7E3A
  8
1
 10
854.47492124201676
 20
2966.8032173322781
 30
0.0
 11
854.47492124201676
 21
3206.8032173322781
 31
0.0
  0
LINE
  5
7E3B
  8
1
 10
829.47492124201676
 20
2941.8032173322781
 30
0.0
 11
829.47492124201676
 21
3231.8032173322781
 31
0.0
  0
LINE
  5
7E3C
  8
1
 10
1184.4749212420161
 20
2966.8032173322781
 30
0.0
 11
1184.4749212420161
 21
3206.803217332279
 31
0.0
  0
LINE
  5
7E3E
  8
1
 10
1027.0860909170599
 20
3231.8032173322781
 30
0.0
 11
1027.0860909170599
 21
3251.803217332279
 31
0.0
  0
POINT
  5
7E3F
  8
1
 10
1027.0860909170599
 20
3251.803217332279
 30
0.0
  0
LINE
  5
7E44
  8
1
 10
1387.0860909170599
 20
2968.803217332279
 30
0.0
 11
1387.086090917059
 21
2471.8032173322781
 31
0.0
  0
LINE
  5
7E45
  8
1
 10
1367.0860909170599
 20
2503.8032173322781
 30
0.0
 11
1367.0860909170599
 21
2913.8032173322781
 31
0.0
  0
LINE
  5
7E46
  8
1
 10
1224.5860909170599
 20
2968.803217332279
 30
0.0
 11
1224.5860909170599
 21
2478.8032173322781
 31
0.0
  0
LINE
  5
7E47
  8
1
 10
1387.0860909170599
 20
2471.8032173322781
 30
0.0
 11
587.08609091705875
 21
2471.8032173322781
 31
0.0
  0
POINT
  5
7E4E
  8
1
 10
1387.086090917059
 20
2471.8032173322781
 30
0.0
  0
LINE
  5
7E53
  8
1
 10
1209.474921242017
 20
2941.8032173322781
 30
0.0
 11
1209.474921242017
 21
3231.8032173322781
 31
0.0
  0
LINE
  5
7E54
  8
1
 10
1435.74499514489
 20
2968.803217332279
 30
0.0
 11
1435.74499514489
 21
3204.8032173322781
 31
0.0
  0
LINE
  5
7E55
  8
1
 10
1209.474921242017
 20
2968.803217332279
 30
0.0
 11
1435.74499514489
 21
2968.803217332279
 31
0.0
  0
LINE
  5
7E56
  8
1
 10
1027.0860909170599
 20
3251.803217332279
 30
0.0
 11
1387.0860909170599
 21
3251.803217332279
 31
0.0
  0
LINE
  5
7E57
  8
1
 10
1209.474921242017
 20
3204.8032173322781
 30
0.0
 11
1435.74499514489
 21
3204.8032173322781
 31
0.0
  0
LINE
  5
7E58
  8
1
 10
1209.474921242017
 20
3206.8032173322781
 30
0.0
 11
1347.086090917061
 21
3206.8032173322781
 31
0.0
  0
LINE
  5
7E5A
  8
1
 10
1387.0860909170599
 20
3251.803217332279
 30
0.0
 11
1387.0860909170599
 21
3204.8032173322781
 31
0.0
  0
POINT
  5
7E5B
  8
1
 10
1387.0860909170599
 20
3251.803217332279
 30
0.0
  0
POINT
  5
7E5C
  8
1
 10
1387.0860909170599
 20
3251.803217332279
 30
0.0
  0
DIMENSION
  5
7E5D
  8
3
  2
*D6
 10
2850.4222253132671
 20
1413.661773729644
 30
0.0
 11
2850.4222253132662
 21
1571.161773729644
 31
0.0
 70
   128
 13
2745.0174634224381
 23
1728.661773729644
 33
0.0
 14
2745.0174634224381
 24
1413.661773729644
 34
0.0
 50
90.0
1001
ACAD
1000
DSTYLE
1002
{
1070
   287
1070
     3
1070
     3
1000
φ<>
1070
    40
1040
15.0
1070
   143
1040
0.039
1070
   172
1070
     1
1070
   271
1070
     0
1070
   279
1070
     0
1070
   288
1070
     1
1002
}
  0
LINE
  5
7E5E
  8
1
 10
2719.0174634224391
 20
1821.1617737296431
 30
0.0
 11
2719.0174634224391
 21
1295.1617737296419
 31
0.0
  0
LINE
  5
7E5F
  8
1
 10
2479.0174634224381
 20
1821.1617737296431
 30
0.0
 11
2479.0174634224381
 21
1295.1617737296419
 31
0.0
  0
LINE
  5
7E60
  8
1
 10
2717.0174634224391
 20
1821.1617737296431
 30
0.0
 11
2717.0174634224381
 21
1295.1617737296419
 31
0.0
  0
LINE
  5
7E61
  8
1
 10
2481.0174634224381
 20
1821.1617737296431
 30
0.0
 11
2481.0174634224381
 21
1295.1617737296419
 31
0.0
  0
LINE
  5
7E62
  8
1
 10
2723.0174634224381
 20
1735.661773729644
 30
0.0
 11
2723.0174634224381
 21
1406.661773729644
 31
0.0
  0
LINE
  5
7E63
  8
1
 10
2720.0174634224381
 20
1388.661773729644
 30
0.0
 11
2720.0174634224381
 21
1747.169244418621
 31
0.0
  0
LINE
  5
7E64
  8
1
 10
2745.0174634224381
 20
1413.661773729644
 30
0.0
 11
2745.0174634224381
 21
1729.66180049387
 31
0.0
  0
LINE
  5
7E65
  8
2
 10
2599.0174634224391
 20
1900.3944143831191
 30
0.0
 11
2599.0174634224391
 21
1216.1617737296449
 31
0.0
  0
LINE
  5
7E67
  8
1
 10
2764.0174634224368
 20
1291.161773729644
 30
0.0
 11
2764.0174634224368
 21
1216.161773729644
 31
0.0
  0
LINE
  5
7E69
  8
1
 10
2479.0174634224381
 20
1305.1617737296419
 30
0.0
 11
2717.0174634224381
 21
1305.1617737296419
 31
0.0
  0
POLYLINE
  5
7E6A
  8
1
 66
     1
 10
0.0
 20
0.0
 30
0.0
 70
     1
  0
VERTEX
  5
87C9
  8
1
 10
2479.0174634224381
 20
1291.161773729644
 30
0.0
  0
VERTEX
  5
87CA
  8
1
 10
2479.0174634224381
 20
1331.161773729644
 30
0.0
  0
VERTEX
  5
87CB
  8
1
 10
2477.0174634224381
 20
1331.161773729644
 30
0.0
 42
0.4142135623730951
  0
VERTEX
  5
87CC
  8
1
 10
2474.0174634224391
 20
1328.161773729644
 30
0.0
  0
VERTEX
  5
87CD
  8
1
 10
2474.0174634224391
 20
1300.661773729644
 30
0.0
 42
-0.4142135623730951
  0
VERTEX
  5
87CE
  8
1
 10
2469.5174634224381
 20
1296.161773729644
 30
0.0
  0
VERTEX
  5
87CF
  8
1
 10
2442.0174634224381
 20
1296.161773729644
 30
0.0
 42
0.4142135623730951
  0
VERTEX
  5
87D0
  8
1
 10
2439.0174634224381
 20
1293.161773729644
 30
0.0
  0
VERTEX
  5
87D1
  8
1
 10
2439.0174634224381
 20
1291.161773729644
 30
0.0
  0
SEQEND
  5
87D2
  8
1
  0
LINE
  5
7E75
  8
1
 10
2479.0174634224381
 20
1295.1617737296419
 30
0.0
 11
2481.0174634224381
 21
1295.1617737296419
 31
0.0
  0
LINE
  5
7E76
  8
1
 10
2429.0174634224381
 20
1474.361773729644
 30
0.0
 11
2479.0174634224391
 21
1474.361773729644
 31
0.0
  0
LINE
  5
7E77
  8
1
 10
2429.0174634224381
 20
1468.361773729644
 30
0.0
 11
2479.0174634224391
 21
1468.361773729644
 31
0.0
  0
LINE
  5
7E78
  8
1
 10
2429.0174634224381
 20
1468.361773729644
 30
0.0
 11
2429.0174634224381
 21
1473.0617737296441
 31
0.0
  0
LINE
  5
7E79
  8
1
 10
2429.0174634224381
 20
1474.361773729644
 30
0.0
 11
2429.0174634224381
 21
1468.361773729644
 31
0.0
  0
ARC
  5
7E7A
  8
1
 10
2721.0174634224381
 20
1390.661773729644
 30
0.0
 40
2.0
 50
270.0
 51
0.0
  0
POLYLINE
  5
7E7B
  8
1
 66
     1
 10
0.0
 20
0.0
 30
0.0
  0
VERTEX
  5
87D3
  8
1
 10
2719.0174634224391
 20
1306.161773729644
 30
0.0
  0
VERTEX
  5
87D4
  8
1
 10
2719.0174634224391
 20
1331.161773729644
 30
0.0
  0
VERTEX
  5
87D5
  8
1
 10
2721.0174634224381
 20
1331.161773729644
 30
0.0
 42
-0.4142135623730951
  0
VERTEX
  5
87D6
  8
1
 10
2724.0174634224391
 20
1328.161773729644
 30
0.0
  0
VERTEX
  5
87D7
  8
1
 10
2724.0174634224391
 20
1306.161773729644
 30
0.0
 42
0.4142135623730951
  0
SEQEND
  5
87D8
  8
1
  0
POLYLINE
  5
7E82
  8
1
 66
     1
 10
0.0
 20
0.0
 30
0.0
  0
VERTEX
  5
87D9
  8
1
 10
2724.0174634224391
 20
1306.161773729644
 30
0.0
  0
VERTEX
  5
87DA
  8
1
 10
2724.0174634224391
 20
1300.661773729644
 30
0.0
 42
0.4142135623730951
  0
VERTEX
  5
87DB
  8
1
 10
2728.5174634224381
 20
1296.161773729644
 30
0.0
  0
VERTEX
  5
87DC
  8
1
 10
2756.0174634224381
 20
1296.161773729644
 30
0.0
 42
-0.4142135623730951
  0
VERTEX
  5
87DD
  8
1
 10
2759.0174634224381
 20
1293.161773729644
 30
0.0
  0
VERTEX
  5
87DE
  8
1
 10
2759.0174634224381
 20
1291.161773729644
 30
0.0
  0
VERTEX
  5
87DF
  8
1
 10
2719.0174634224391
 20
1291.161773729644
 30
0.0
  0
SEQEND
  5
87E0
  8
1
  0
POLYLINE
  5
7E8B
  8
1
 66
     1
 10
0.0
 20
0.0
 30
0.0
  0
VERTEX
  5
87E1
  8
1
 10
2719.0174634224391
 20
1291.161773729644
 30
0.0
  0
VERTEX
  5
87E2
  8
1
 10
2719.0174634224391
 20
1306.161773729644
 30
0.0
  0
SEQEND
  5
87E3
  8
1
  0
LINE
  5
7E8F
  8
1
 10
2717.0174634224381
 20
1295.1617737296419
 30
0.0
 11
2719.0174634224391
 21
1295.1617737296419
 31
0.0
  0
LINE
  5
7E90
  8
1
 10
2721.0174634224381
 20
1388.661773729644
 30
0.0
 11
2720.0174634224381
 21
1388.661773729644
 31
0.0
  0
ARC
  5
7E91
  8
1
 10
2727.0174634224381
 20
1406.661773729644
 30
0.0
 40
4.0
 50
90.0
 51
180.0
  0
LINE
  5
7E92
  8
1
 10
2727.7659343984569
 20
1402.161773729644
 30
0.0
 11
2710.5895930690299
 21
1402.161773729644
 31
0.0
  0
LINE
  5
7E93
  8
1
 10
2723.0174634224381
 20
1406.661773729644
 30
0.0
 11
2723.0174634224381
 21
1390.661773729644
 31
0.0
  0
LINE
  5
7E94
  8
1
 10
2743.0174634224381
 20
1410.661773729644
 30
0.0
 11
2727.0174634224381
 21
1410.661773729644
 31
0.0
  0
ARC
  5
7E95
  8
1
 10
2743.0174634224381
 20
1412.661773729644
 30
0.0
 40
2.0
 50
270.0
 51
0.0
  0
LINE
  5
7E96
  8
1
 10
2745.0174634224381
 20
1413.661773729644
 30
0.0
 11
2745.0174634224381
 21
1412.661773729644
 31
0.0
  0
LINE
  5
7E98
  8
1
 10
2720.0174634224381
 20
1753.661773729644
 30
0.0
 11
2720.0174634224381
 21
1728.661773729644
 31
0.0
  0
LINE
  5
7E99
  8
1
 10
2723.0174634224381
 20
1735.661773729644
 30
0.0
 11
2723.0174634224381
 21
1751.661773729644
 31
0.0
  0
LINE
  5
7E9A
  8
2
 10
2756.8077518216019
 20
1571.161773729644
 30
0.0
 11
2685.2148455318902
 21
1571.161773729644
 31
0.0
  0
ARC
  5
7E9B
  8
1
 10
2727.0174634224381
 20
1735.661773729644
 30
0.0
 40
4.0
 50
180.0
 51
270.0
  0
LINE
  5
7E9C
  8
1
 10
2727.7659343984569
 20
1740.161773729644
 30
0.0
 11
2710.5895930690299
 21
1740.161773729644
 31
0.0
  0
LINE
  5
7E9D
  8
1
 10
2743.0174634224381
 20
1731.661773729644
 30
0.0
 11
2727.0174634224381
 21
1731.661773729644
 31
0.0
  0
ARC
  5
7E9E
  8
1
 10
2743.0174634224381
 20
1729.661773729644
 30
0.0
 40
2.0
 50
0.0
 51
90.0
  0
LINE
  5
7E9F
  8
1
 10
2745.0174634224381
 20
1728.661773729644
 30
0.0
 11
2745.0174634224381
 21
1729.661773729644
 31
0.0
  0
LINE
  5
7EA0
  8
1
 10
2481.0174634224391
 20
1756.002905815604
 30
0.0
 11
2717.0174634224391
 21
1756.002905815604
 31
0.0
  0
DIMENSION
  5
7EA1
  8
3
  2
*D7
 10
2717.0174634224391
 20
1895.765351182527
 30
0.0
 11
2582.8031777081519
 21
1895.765351182527
 31
0.0
 70
   128
 13
2481.0174634224381
 23
1821.161773729644
 33
0.0
 14
2717.0174634224391
 24
1818.161773729644
 34
0.0
1001
ACAD
1000
DSTYLE
1002
{
1070
   287
1070
     3
1070
    40
1040
15.0
1070
   143
1040
0.039
1070
   172
1070
     1
1070
   271
1070
     0
1070
   279
1070
     0
1070
   288
1070
     1
1002
}
  0
LINE
  5
7EA2
  8
1
 10
2465.4440045242909
 20
1818.161773729644
 30
0.0
 11
2735.366363066697
 21
1818.161773729644
 31
0.0
  0
LINE
  5
7EA3
  8
1
 10
2478.0174634224391
 20
1796.161773729644
 30
0.0
 11
2720.0174634224381
 21
1796.161773729644
 31
0.0
  0
LINE
  5
7EA4
  8
1
 10
2454.0174634224391
 20
1821.161773729644
 30
0.0
 11
2744.0174634224391
 21
1821.161773729644
 31
0.0
  0
POLYLINE
  5
7EA5
  8
1
 66
     1
 10
0.0
 20
0.0
 30
0.0
 70
     1
  0
VERTEX
  5
87ED
  8
1
 10
2479.0174634224391
 20
1821.1617737296431
 30
0.0
  0
VERTEX
  5
87EE
  8
1
 10
2454.0174634224391
 20
1821.1617737296431
 30
0.0
  0
VERTEX
  5
87EF
  8
1
 10
2454.0174634224391
 20
1820.161773729644
 30
0.0
 42
0.4142135623730951
  0
VERTEX
  5
87F0
  8
1
 10
2456.0174634224391
 20
1818.161773729644
 30
0.0
  0
VERTEX
  5
87F1
  8
1
 10
2472.0174634224391
 20
1818.161773729644
 30
0.0
 42
-0.4142135623730951
  0
VERTEX
  5
87F2
  8
1
 10
2476.0174634224391
 20
1814.161773729644
 30
0.0
  0
VERTEX
  5
87F3
  8
1
 10
2476.0174634224391
 20
1798.161773729644
 30
0.0
 42
0.4142135623730951
  0
VERTEX
  5
87F4
  8
1
 10
2478.0174634224391
 20
1796.161773729644
 30
0.0
  0
VERTEX
  5
87F5
  8
1
 10
2479.0174634224391
 20
1796.161773729644
 30
0.0
  0
SEQEND
  5
87F6
  8
1
  0
POLYLINE
  5
7EB0
  8
1
 66
     1
 10
0.0
 20
0.0
 30
0.0
 70
     1
  0
VERTEX
  5
87F7
  8
1
 10
2719.0174634224391
 20
1821.1617737296431
 30
0.0
  0
VERTEX
  5
87F8
  8
1
 10
2744.0174634224391
 20
1821.1617737296431
 30
0.0
  0
VERTEX
  5
87F9
  8
1
 10
2744.0174634224391
 20
1820.161773729644
 30
0.0
 42
-0.4142135623730951
  0
VERTEX
  5
87FA
  8
1
 10
2742.0174634224381
 20
1818.161773729644
 30
0.0
  0
VERTEX
  5
87FB
  8
1
 10
2726.0174634224381
 20
1818.161773729644
 30
0.0
 42
0.4142135623730951
  0
VERTEX
  5
87FC
  8
1
 10
2722.0174634224381
 20
1814.161773729644
 30
0.0
  0
VERTEX
  5
87FD
  8
1
 10
2722.0174634224381
 20
1798.161773729644
 30
0.0
 42
-0.4142135623730951
  0
VERTEX
  5
87FE
  8
1
 10
2720.0174634224381
 20
1796.161773729644
 30
0.0
  0
VERTEX
  5
87FF
  8
1
 10
2719.0174634224391
 20
1796.161773729644
 30
0.0
  0
SEQEND
  5
8800
  8
1
  0
ARC
  5
7EBB
  8
1
 10
2721.0174634224381
 20
1751.661773729644
 30
0.0
 40
2.0
 50
0.0
 51
90.0
  0
LINE
  5
7EBC
  8
1
 10
2721.0174634224381
 20
1753.661773729644
 30
0.0
 11
2720.0174634224381
 21
1753.661773729644
 31
0.0
  0
LINE
  5
80DB
  8
4
 10
2775.0
 20
750.0
 30
0.0
 11
2775.0
 21
450.0
 31
0.0
  0
LINE
  5
80DC
  8
4
 10
1725.0
 20
750.0
 30
0.0
 11
1725.0
 21
450.0
 31
0.0
  0
LINE
  5
80DD
  8
4
 10
975.0
 20
750.0
 30
0.0
 11
975.0
 21
450.0
 31
0.0
  0
LINE
  5
80E0
  8
4
 10
975.0
 20
450.0
 30
0.0
 11
2775.0
 21
450.0
 31
0.0
  0
LINE
  5
80E1
  8
4
 10
975.0
 20
600.0
 30
0.0
 11
2775.0
 21
600.0
 31
0.0
  0
TEXT
  5
80E2
  8
4
 10
1032.753121270352
 20
647.31453879991932
 30
0.0
 40
75.0
  1
機器名称
  0
TEXT
  5
80E3
  8
4
 10
1029.3871590371959
 20
482.46773509801642
 30
0.0
 40
75.0
  1
機器型番
  0
TEXT
  5
80E4
  8
4
 10
1734.6224689236451
 20
633.28095353542062
 30
0.0
 40
67.5
  1
ミツヤ多翼送風機
  0
TEXT
  5
80E5
  8
4
 10
1779.9817433782209
 20
475.739376419915
 30
0.0
 40
75.0
  1
MF#2-1
  0
TEXT
  5
80E7
  8
4
 10
1161.5780360449389
 20
3575.1432619987731
 30
0.0
 40
80.999999999999986
  1
床置ベット
  0
TEXT
  5
80E8
  8
4
 10
444.25138999416959
 20
3800.8214642989469
 30
0.0
 40
108.0
  1
遠心式片吸込片持多翼ファン
  0
LINE
  5
80E9
  8
4
 10
375.0
 20
3704.1131313972069
 30
0.0
 11
2775.0
 21
3704.1131313972069
 31
0.0
  0
LINE
  5
80EA
  8
4
 10
375.0
 20
4004.1131313972069
 30
0.0
 11
2775.0
 21
4004.1131313972069
 31
0.0
  0
LINE
  5
80EB
  8
4
 10
975.0
 20
750.0
 30
0.0
 11
2775.0
 21
750.0
 31
0.0
  0
LINE
  5
80EC
  8
4
 10
375.0
 20
4004.1131313972069
 30
0.0
 11
375.0
 21
3704.1131313972069
 31
0.0
  0
TEXT
  5
80ED
  8
4
 10
516.86984629188373
 20
3573.4792163195152
 30
0.0
 40
80.999999999999986
  1
右回転上向
  0
TEXT
  5
80EE
  8
4
 10
2203.4543388739339
 20
4059.0916222429628
 30
0.0
 40
84.000000000000014
  1
No.
  0
TEXT
  5
80EF
  8
4
 10
1966.944093900019
 20
3575.1432619987731
 30
0.0
 40
80.999999999999986
  1
縮尺：1/15
  0
LINE
  5
80F0
  8
4
 10
2775.0
 20
4004.1131313972069
 30
0.0
 11
2775.0
 21
3704.1131313972069
 31
0.0
  0
LINE
  5
80F1
  8
4
 10
3150.0
 20
4425.0
 30
0.0
 11
3150.0
 21
4425.0
 31
0.0
  0
LINE
  5
80F2
  8
4
 10
2160.9261335397969
 20
4021.895374688102
 30
0.0
 11
2160.9261335397969
 21
4179.9783923246277
 31
0.0
  0
LINE
  5
80F3
  8
4
 10
2160.9261335397969
 20
4179.9783923246277
 30
0.0
 11
2775.0
 21
4179.9783923246277
 31
0.0
  0
LINE
  5
80F4
  8
4
 10
2775.0
 20
4179.9783923246277
 30
0.0
 11
2775.0
 21
4021.895374688102
 31
0.0
  0
LINE
  5
80F5
  8
4
 10
2775.0
 20
4021.895374688102
 30
0.0
 11
2160.9261335397969
 21
4021.895374688102
 31
0.0
  0
LINE
  5
80F6
  8
4
 10
0.0
 20
0.0
 30
0.0
 11
0.0
 21
4425.0
 31
0.0
  0
LINE
  5
80F7
  8
4
 10
0.0
 20
4425.0
 30
0.0
 11
3150.0
 21
4425.0
 31
0.0
  0
LINE
  5
80F8
  8
4
 10
3150.0
 20
4425.0
 30
0.0
 11
3150.0
 21
0.0
 31
0.0
  0
LINE
  5
80F9
  8
4
 10
3150.0
 20
0.0
 30
0.0
 11
0.0
 21
0.0
 31
0.0
  0
DIMENSION
  5
860D
  8
3
  2
*D9
 10
1911.0174634224391
 20
1990.6837498158529
 30
0.0
 11
2262.2923926225849
 21
1990.6837498158529
 31
0.0
 70
   128
  1
MAX\P760
 13
2599.0174634224391
 23
1968.755330026527
 33
0.0
 14
1911.0174634224391
 24
1671.161773729644
 34
0.0
1001
ACAD
1000
DSTYLE
1002
{
1070
   287
1070
     3
1070
    40
1040
15.0
1070
   143
1040
0.039
1070
   172
1070
     1
1070
   271
1070
     0
1070
   279
1070
     0
1070
   288
1070
     1
1002
}
  0
DIMENSION
  5
863D
  8
3
  2
*D10
 10
476.16190530737038
 20
2471.8032173322781
 30
0.0
 11
476.16190530736998
 21
2664.6935497023578
 31
0.0
 70
   128
 13
587.08609091705887
 23
2851.8032173322781
 33
0.0
 14
587.08609091705887
 24
2471.8032173322781
 34
0.0
 50
90.0
1001
ACAD
1000
DSTYLE
1002
{
1070
   287
1070
     3
1070
    40
1040
15.0
1070
   143
1040
0.039
1070
   172
1070
     1
1070
   271
1070
     0
1070
   279
1070
     0
1070
   288
1070
     1
1002
}
  0
DIMENSION
  5
8655
  8
3
  2
*D11
 10
1027.0860909170599
 20
3336.4767591750528
 30
0.0
 11
791.24281883848187
 21
3336.4767591750528
 31
0.0
 70
   128
 13
587.08609091705921
 23
2851.8032173322781
 33
0.0
 14
1027.0860909170599
 24
3251.803217332279
 34
0.0
1001
ACAD
1000
DSTYLE
1002
{
1070
   287
1070
     3
1070
    40
1040
15.0
1070
   143
1040
0.039
1070
   172
1070
     1
1070
   271
1070
     0
1070
   279
1070
     0
1070
   288
1070
     1
1002
}
  0
DIMENSION
  5
8661
  8
3
  2
*D12
 10
1387.0860909170599
 20
3336.4767591750528
 30
0.0
 11
1207.0860909170599
 21
3373.9767591750528
 31
0.0
 70
     0
 13
1027.0860909170599
 23
3251.803217332279
 33
0.0
 14
1387.0860909170599
 24
3251.803217332279
 34
0.0
1001
ACAD
1000
DSTYLE
1002
{
1070
   287
1070
     4
1070
    40
1040
15.0
1070
    75
1070
     1
1070
   143
1040
0.039
1070
   172
1070
     1
1070
   271
1070
     0
1070
   279
1070
     1
1070
   288
1070
     1
1002
}
  0
DIMENSION
  5
866E
  8
3
  2
*D13
 10
1530.566571794385
 20
2471.8032173322781
 30
0.0
 11
1530.5665717943839
 21
2858.0481222265412
 31
0.0
 70
   128
 13
1387.0860909170599
 23
3251.803217332279
 33
0.0
 14
1387.086090917059
 24
2471.8032173322781
 34
0.0
 50
90.0
1001
ACAD
1000
DSTYLE
1002
{
1070
   287
1070
     3
1070
    40
1040
15.0
1070
   143
1040
0.039
1070
   172
1070
     1
1070
   271
1070
     0
1070
   279
1070
     0
1070
   288
1070
     1
1002
}
  0
DIMENSION
  5
8682
  8
3
  2
*D14
 10
587.0860909170608
 20
2035.8091719840261
 30
0.0
 11
1020.558612782982
 21
2035.8091719840261
 31
0.0
 70
   128
 13
1433.04499514489
 23
1571.1617737296449
 33
0.0
 14
587.0860909170608
 24
1291.1617737296449
 34
0.0
1001
ACAD
1000
DSTYLE
1002
{
1070
   287
1070
     3
1070
    40
1040
15.0
1070
   143
1040
0.039
1070
   172
1070
     1
1070
   271
1070
     0
1070
   279
1070
     0
1070
   288
1070
     1
1002
}
  0
LINE
  5
86D9
  8
1
 10
2268.0174634224391
 20
1542.161773729644
 30
0.0
 11
2268.0174634224391
 21
1517.5617737296441
 31
0.0
  0
DIMENSION
  5
86E7
  8
3
  2
*D15
 10
2720.0174634224381
 20
1990.6837498158529
 30
0.0
 11
2659.5174634224381
 21
2032.39207750991
 31
0.0
 70
   128
 13
2599.0174634224391
 23
1968.755330026527
 33
0.0
 14
2720.0174634224381
 24
1753.661773729644
 34
0.0
1001
ACAD
1000
DSTYLE
1002
{
1070
   288
1070
     1
1070
   172
1070
     1
1070
    75
1070
     1
1070
    40
1040
15.0
1070
   271
1070
     0
1070
   143
1040
0.039
1002
}
  0
LINE
  5
870A
  8
1
 10
1189.5860909170599
 20
2913.8032173322781
 30
0.0
 11
1047.0860909170599
 21
2913.8032173322781
 31
0.0
  0
LINE
  5
870B
  8
1
 10
1189.586090917061
 20
2503.8032173322781
 30
0.0
 11
1047.0860909170599
 21
2503.8032173322781
 31
0.0
  0
DIMENSION
  5
8720
  8
3
  2
*D16
 10
1207.0860909170599
 20
1099.719462118544
 30
0.0
 11
897.08609091706046
 21
1137.219462118544
 31
0.0
 70
     0
 13
587.08609091706035
 23
1216.1617737296449
 33
0.0
 14
1207.0860909170599
 24
1216.1617737296449
 34
0.0
1001
ACAD
1000
DSTYLE
1002
{
1070
   287
1070
     3
1070
    40
1040
15.0
1070
   143
1040
0.039
1070
   172
1070
     1
1070
   271
1070
     0
1070
   279
1070
     0
1002
}
  0
DIMENSION
  5
872F
  8
3
  2
*D17
 10
1387.0860909170599
 20
1099.719462118544
 30
0.0
 11
1297.0860909170599
 21
1137.219462118544
 31
0.0
 70
     0
 13
1207.0860909170599
 23
1216.1617737296449
 33
0.0
 14
1387.0860909170599
 24
1216.1617737296449
 34
0.0
1001
ACAD
1000
DSTYLE
1002
{
1070
   287
1070
     3
1070
    40
1040
15.0
1070
   143
1040
0.039
1070
   172
1070
     1
1070
   271
1070
     0
1070
   279
1070
     0
1002
}
  0
DIMENSION
  5
873C
  8
3
  2
*D18
 10
2599.0174634224391
 20
1099.719462118544
 30
0.0
 11
2291.5174634224381
 21
1137.219462118544
 31
0.0
 70
     0
 13
1984.0174634224379
 23
1216.161773729644
 33
0.0
 14
2599.0174634224391
 24
1216.1617737296449
 34
0.0
1001
ACAD
1000
DSTYLE
1002
{
1070
   287
1070
     3
1070
    40
1040
15.0
1070
   143
1040
0.039
1070
   172
1070
     1
1070
   271
1070
     0
1070
   279
1070
     0
1002
}
  0
DIMENSION
  5
874B
  8
3
  2
*D19
 10
2764.0174634224368
 20
1099.719462118544
 30
0.0
 11
2681.5174634224381
 21
1137.219462118544
 31
0.0
 70
     0
 13
2599.0174634224391
 23
1216.1617737296449
 33
0.0
 14
2764.0174634224368
 24
1216.161773729644
 34
0.0
1001
ACAD
1000
DSTYLE
1002
{
1070
   287
1070
     3
1070
    40
1040
15.0
1070
   143
1040
0.039
1070
   172
1070
     1
1070
   271
1070
     0
1070
   279
1070
     0
1002
}
  0
ENDSEC
  0
EOF
