  0
SECTION
  2
HEADER
  9
$ACADVER
  1
AC1009
  9
$INSBASE
 10
0.0
 20
0.0
 30
0.0
  9
$EXTMIN
 10
0.0
 20
0.0
 30
0.0
  9
$EXTMAX
 10
3150.0
 20
4425.0
 30
0.0
  9
$LIMMIN
 10
0.0
 20
0.0
  9
$LIMMAX
 10
297.0
 20
210.0
  9
$ORTHOMODE
 70
     0
  9
$REGENMODE
 70
     1
  9
$FILLMODE
 70
     0
  9
$QTEXTMODE
 70
     0
  9
$MIRRTEXT
 70
     1
  9
$DRAGMODE
 70
     2
  9
$LTSCALE
 40
100.0
  9
$OSMODE
 70
    37
  9
$ATTMODE
 70
     1
  9
$TEXTSIZE
 40
180.0
  9
$TRACEWID
 40
0.05
  9
$TEXTSTYLE
  7
STANDARD
  9
$CLAYER
  8
3
  9
$CELTYPE
  6
BYLAYER
  9
$CECOLOR
 62
   256
  9
$DIMSCALE
 40
15.0
  9
$DIMASZ
 40
2.0
  9
$DIMEXO
 40
0.5
  9
$DIMDLI
 40
10.0
  9
$DIMRND
 40
0.0
  9
$DIMDLE
 40
0.0
  9
$DIMEXE
 40
1.0
  9
$DIMTP
 40
1.0
  9
$DIMTM
 40
1.0
  9
$DIMTXT
 40
3.0
  9
$DIMCEN
 40
0.0
  9
$DIMTSZ
 40
0.0
  9
$DIMTOL
 70
     0
  9
$DIMLIM
 70
     0
  9
$DIMTIH
 70
     0
  9
$DIMTOH
 70
     0
  9
$DIMSE1
 70
     0
  9
$DIMSE2
 70
     0
  9
$DIMTAD
 70
     1
  9
$DIMZIN
 70
     8
  9
$DIMBLK
  1

  9
$DIMASO
 70
     1
  9
$DIMSHO
 70
     1
  9
$DIMPOST
  1

  9
$DIMAPOST
  1

  9
$DIMALT
 70
     0
  9
$DIMALTD
 70
     2
  9
$DIMALTF
 40
0.039
  9
$DIMLFAC
 40
1.0
  9
$DIMTOFL
 70
     1
  9
$DIMTVP
 40
0.0
  9
$DIMTIX
 70
     0
  9
$DIMSOXD
 70
     0
  9
$DIMSAH
 70
     1
  9
$DIMBLK1
  1
OPEN
  9
$DIMBLK2
  1
OPEN
  9
$DIMSTYLE
  2
IGA
  9
$DIMCLRD
 70
     0
  9
$DIMCLRE
 70
     0
  9
$DIMCLRT
 70
     0
  9
$DIMTFAC
 40
10.0
  9
$DIMGAP
 40
1.0
  9
$LUNITS
 70
     2
  9
$LUPREC
 70
     3
  9
$SKETCHINC
 40
0.1
  9
$FILLETRAD
 40
50.0
  9
$AUNITS
 70
     0
  9
$AUPREC
 70
     0
  9
$MENU
  1
acad
  9
$ELEVATION
 40
0.0
  9
$PELEVATION
 40
0.0
  9
$THICKNESS
 40
0.0
  9
$LIMCHECK
 70
     0
  9
$BLIPMODE
 70
     0
  9
$CHAMFERA
 40
0.5
  9
$CHAMFERB
 40
0.5
  9
$SKPOLY
 70
     0
  9
$TDCREATE
 40
2451019.4849501159
  9
$TDUPDATE
 40
2454953.752243923
  9
$TDINDWG
 40
0.178665463
  9
$TDUSRTIMER
 40
0.178665463
  9
$USRTIMER
 70
     1
  9
$ANGBASE
 50
0.0
  9
$ANGDIR
 70
     0
  9
$PDMODE
 70
     0
  9
$PDSIZE
 40
0.0
  9
$PLINEWID
 40
0.0
  9
$COORDS
 70
     1
  9
$SPLFRAME
 70
     0
  9
$SPLINETYPE
 70
     6
  9
$SPLINESEGS
 70
     8
  9
$ATTDIA
 70
     0
  9
$ATTREQ
 70
     1
  9
$HANDLING
 70
 10241
  9
$HANDSEED
  5
8819
  9
$SURFTAB1
 70
     6
  9
$SURFTAB2
 70
     6
  9
$SURFTYPE
 70
     6
  9
$SURFU
 70
     6
  9
$SURFV
 70
     6
  9
$UCSNAME
  2

  9
$UCSORG
 10
0.0
 20
0.0
 30
0.0
  9
$UCSXDIR
 10
1.0
 20
0.0
 30
0.0
  9
$UCSYDIR
 10
0.0
 20
1.0
 30
0.0
  9
$PUCSNAME
  2

  9
$PUCSORG
 10
0.0
 20
0.0
 30
0.0
  9
$PUCSXDIR
 10
1.0
 20
0.0
 30
0.0
  9
$PUCSYDIR
 10
0.0
 20
1.0
 30
0.0
  9
$USERI1
 70
     0
  9
$USERI2
 70
     0
  9
$USERI3
 70
     0
  9
$USERI4
 70
     0
  9
$USERI5
 70
     0
  9
$USERR1
 40
0.0
  9
$USERR2
 40
0.0
  9
$USERR3
 40
0.0
  9
$USERR4
 40
0.0
  9
$USERR5
 40
0.0
  9
$WORLDVIEW
 70
     1
  9
$SHADEDGE
 70
     3
  9
$SHADEDIF
 70
    70
  9
$TILEMODE
 70
     1
  9
$MAXACTVP
 70
    16
  9
$PLIMCHECK
 70
     0
  9
$PEXTMIN
 10
1.0000000000000000E+020
 20
1.0000000000000000E+020
 30
1.0000000000000000E+020
  9
$PEXTMAX
 10
-1.0000000000000000E+020
 20
-1.0000000000000000E+020
 30
-1.0000000000000000E+020
  9
$PLIMMIN
 10
0.0
 20
0.0
  9
$PLIMMAX
 10
12.0
 20
9.0
  9
$UNITMODE
 70
     0
  9
$VISRETAIN
 70
     0
  9
$PLINEGEN
 70
     0
  9
$PSLTSCALE
 70
     1
  0
ENDSEC
  0
SECTION
  2
TABLES
  0
TABLE
  2
VPORT
 70
     2
  0
VPORT
  2
*ACTIVE
 70
     0
 10
0.0
 20
0.0
 11
1.0
 21
1.0
 12
5304.9149382770529
 22
2212.5000103027569
 13
0.0
 23
0.0
 14
10.0
 24
10.0
 15
10.0
 25
10.0
 16
0.0
 26
0.0
 36
1.0
 17
0.0
 27
0.0
 37
0.0
 40
4458.9223245254034
 41
3.1666666666666661
 42
50.0
 43
0.0
 44
0.0
 50
0.0
 51
0.0
 71
     0
 72
   100
 73
     1
 74
     0
 75
     0
 76
     0
 77
     0
 78
     0
  0
ENDTAB
  0
TABLE
  2
LTYPE
 70
     2
  0
LTYPE
  2
CONTINUOUS
 70
     0
  3
Solid line
 72
    65
 73
     0
 40
0.0
  0
LTYPE
  2
CENTER
 70
     0
  3
____ _ ____ _ ____ _ ____ _ ____ _ ____ _ ____ 
 72
    65
 73
     4
 40
2.0
 49
1.25
 49
-0.25
 49
0.25
 49
-0.25
  0
ENDTAB
  0
TABLE
  2
LAYER
 70
     6
  0
LAYER
  2
0
 70
     0
 62
     7
  6
CONTINUOUS
  0
LAYER
  2
3
 70
     0
 62
     2
  6
CONTINUOUS
  0
LAYER
  2
2
 70
     0
 62
     3
  6
CENTER
  0
LAYER
  2
1
 70
     0
 62
     4
  6
CONTINUOUS
  0
LAYER
  2
4
 70
     0
 62
     7
  6
CONTINUOUS
  0
LAYER
  2
DEFPOINTS
 70
     0
 62
     7
  6
CONTINUOUS
  0
ENDTAB
  0
TABLE
  2
STYLE
 70
     1
  0
STYLE
  2
STANDARD
 70
     0
 40
0.0
 41
1.0
 50
0.0
 71
     0
 42
180.0
  3
simplex.shx
  4
extfont.shx
  0
ENDTAB
  0
TABLE
  2
VIEW
 70
     0
  0
ENDTAB
  0
TABLE
  2
UCS
 70
     0
  0
ENDTAB
  0
TABLE
  2
APPID
 70
     1
  0
APPID
  2
ACAD
 70
     0
  0
ENDTAB
  0
TABLE
  2
DIMSTYLE
 70
     1
  0
DIMSTYLE
  2
IGA
 70
     0
  3

  4

  5

  6
OPEN
  7
OPEN
 40
2.0
 41
2.0
 42
0.5
 43
10.0
 44
1.0
 45
0.0
 46
0.0
 47
1.0
 48
1.0
140
3.0
141
0.0
142
0.0
143
0.03937
144
1.0
145
0.0
146
10.0
147
1.0
 71
     0
 72
     0
 73
     0
 74
     0
 75
     0
 76
     0
 77
     1
 78
     8
170
     0
171
     2
172
     0
173
     1
174
     0
175
     0
176
     0
177
     0
178
     0
  0
ENDTAB
  0
ENDSEC
  0
SECTION
  2
BLOCKS
  0
BLOCK
  8
0
  2
$MODEL_SPACE
 70
     0
 10
0.0
 20
0.0
 30
0.0
  3
$MODEL_SPACE
  1

  0
ENDBLK
  5
1B
  8
0
  0
BLOCK
 67
     1
  8
0
  2
$PAPER_SPACE
 70
     0
 10
0.0
 20
0.0
 30
0.0
  3
$PAPER_SPACE
  1

  0
ENDBLK
  5
18
 67
     1
  8
0
  0
BLOCK
  8
0
  2
_OPEN
 70
     0
 10
0.0
 20
0.0
 30
0.0
  3
_OPEN
  1

  0
LINE
  5
7A12
  8
0
  6
BYBLOCK
 62
     0
 10
-1.0
 20
0.1666666666666666
 30
0.0
 11
0.0
 21
0.0
 31
0.0
  0
LINE
  5
7A13
  8
0
  6
BYBLOCK
 62
     0
 10
0.0
 20
0.0
 30
0.0
 11
-1.0
 21
-0.1666666666666666
 31
0.0
  0
LINE
  5
7A14
  8
0
  6
BYBLOCK
 62
     0
 10
0.0
 20
0.0
 30
0.0
 11
-1.0
 21
0.0
 31
0.0
  0
ENDBLK
  5
7A16
  8
0
  0
BLOCK
  8
0
  2
*D1
 70
     1
 10
0.0
 20
0.0
 30
0.0
  3
*D1
  1

  0
LINE
  5
874E
  8
3
 62
     0
 10
1015.5691844458011
 20
2016.7492643767339
 30
0.0
 11
1015.5691844458011
 21
2072.2044177978892
 31
0.0
  0
LINE
  5
874F
  8
3
 62
     0
 10
742.0043035651197
 20
1656.6648772601111
 30
0.0
 11
742.0043035651197
 21
2072.2044177978892
 31
0.0
  0
LINE
  5
8750
  8
3
 62
     0
 10
985.5691844458014
 20
2057.2044177978892
 30
0.0
 11
772.0043035651197
 21
2057.2044177978892
 31
0.0
  0
INSERT
  5
8751
  8
3
 62
     0
  2
_OPEN
 10
1015.5691844458011
 20
2057.2044177978892
 30
0.0
 41
30.0
 42
30.0
 43
30.0
  0
INSERT
  5
8752
  8
3
 62
     0
  2
_OPEN
 10
742.0043035651197
 20
2057.2044177978892
 30
0.0
 41
30.0
 42
30.0
 43
30.0
 50
180.0
  0
TEXT
  8
3
  40
45
  5
8807
  62
0
  72
0
  71
0
 10
788.787
 20
2015.05
 30
0.000000
  1
274
  0
POINT
  5
8754
  8
DEFPOINTS
 62
     0
 10
1015.5691844458011
 20
2009.2492643767339
 30
0.0
  0
POINT
  5
8755
  8
DEFPOINTS
 62
     0
 10
742.0043035651197
 20
1649.1648772601111
 30
0.0
  0
POINT
  5
8756
  8
DEFPOINTS
 62
     0
 10
742.0043035651197
 20
2057.2044177978892
 30
0.0
  0
ENDBLK
  5
8580
  8
0
  0
BLOCK
  8
0
  2
*D2
 70
     1
 10
0.0
 20
0.0
 30
0.0
  3
*D2
  1

  0
LINE
  5
8757
  8
3
 62
     0
 10
1279.5293107962871
 20
1625.1648772601111
 30
0.0
 11
1524.3838044620461
 21
1625.1648772601111
 31
0.0
  0
LINE
  5
8758
  8
3
 62
     0
 10
1203.0691844458011
 20
1310.1648772601111
 30
0.0
 11
1524.3838044620461
 21
1310.1648772601111
 31
0.0
  0
LINE
  5
8759
  8
3
 62
     0
 10
1509.3838044620461
 20
1595.1648772601111
 30
0.0
 11
1509.3838044620461
 21
1340.1648772601111
 31
0.0
  0
INSERT
  5
875A
  8
3
 62
     0
  2
_OPEN
 10
1509.3838044620461
 20
1625.1648772601111
 30
0.0
 41
30.0
 42
30.0
 43
30.0
 50
90.0
  0
INSERT
  5
875B
  8
3
 62
     0
  2
_OPEN
 10
1509.3838044620461
 20
1310.1648772601111
 30
0.0
 41
30.0
 42
30.0
 43
30.0
 50
270.0
  0
TEXT
  8
3
  40
45
  5
8808
  62
0
  72
0
  71
0
 10
1381.88
 20
1388.01
 30
0.000000
  1
315
  0
POINT
  5
875D
  8
DEFPOINTS
 62
     0
 10
1272.0293107962871
 20
1625.1648772601111
 30
0.0
  0
POINT
  5
875E
  8
DEFPOINTS
 62
     0
 10
1195.5691844458011
 20
1310.1648772601111
 30
0.0
  0
POINT
  5
875F
  8
DEFPOINTS
 62
     0
 10
1509.3838044620461
 20
1310.1648772601111
 30
0.0
  0
ENDBLK
  5
8129
  8
0
  0
BLOCK
  8
0
  2
*D3
 70
     1
 10
0.0
 20
0.0
 30
0.0
  3
*D3
  1

  0
LINE
  5
8760
  8
3
 62
     0
 10
1260.5691844458011
 20
2010.2760469351549
 30
0.0
 11
1260.5691844458011
 21
2072.2044177978892
 31
0.0
  0
LINE
  5
8761
  8
3
 62
     0
 10
1015.5691844458011
 20
2016.7492643767339
 30
0.0
 11
1015.5691844458011
 21
2072.2044177978892
 31
0.0
  0
LINE
  5
8762
  8
3
 62
     0
 10
1230.5691844458011
 20
2057.2044177978892
 30
0.0
 11
1045.5691844458011
 21
2057.2044177978892
 31
0.0
  0
INSERT
  5
8763
  8
3
 62
     0
  2
_OPEN
 10
1260.5691844458011
 20
2057.2044177978892
 30
0.0
 41
30.0
 42
30.0
 43
30.0
  0
INSERT
  5
8764
  8
3
 62
     0
  2
_OPEN
 10
1015.5691844458011
 20
2057.2044177978892
 30
0.0
 41
30.0
 42
30.0
 43
30.0
 50
180.0
  0
TEXT
  8
3
  40
45
  5
8809
  62
0
  72
0
  71
0
 10
1048.07
 20
2015.05
 30
0.000000
  1
245
  0
POINT
  5
8766
  8
DEFPOINTS
 62
     0
 10
1260.5691844458011
 20
2002.7760469351549
 30
0.0
  0
POINT
  5
8767
  8
DEFPOINTS
 62
     0
 10
1015.5691844458011
 20
2009.2492643767339
 30
0.0
  0
POINT
  5
8768
  8
DEFPOINTS
 62
     0
 10
1015.5691844458011
 20
2057.2044177978892
 30
0.0
  0
ENDBLK
  5
8575
  8
0
  0
BLOCK
  8
0
  2
*D4
 70
     1
 10
0.0
 20
0.0
 30
0.0
  3
*D4
  1

  0
LINE
  5
8769
  8
3
 62
     0
 10
1268.0691844458011
 20
1976.1648772601111
 30
0.0
 11
1524.3838044620461
 21
1976.1648772601111
 31
0.0
  0
LINE
  5
876A
  8
3
 62
     0
 10
1279.5293107962871
 20
1625.1648772601111
 30
0.0
 11
1524.3838044620461
 21
1625.1648772601111
 31
0.0
  0
LINE
  5
876B
  8
3
 62
     0
 10
1509.3838044620461
 20
1946.1648772601111
 30
0.0
 11
1509.3838044620461
 21
1655.1648772601111
 31
0.0
  0
INSERT
  5
876C
  8
3
 62
     0
  2
_OPEN
 10
1509.3838044620461
 20
1976.1648772601111
 30
0.0
 41
30.0
 42
30.0
 43
30.0
 50
90.0
  0
INSERT
  5
876D
  8
3
 62
     0
  2
_OPEN
 10
1509.3838044620461
 20
1625.1648772601111
 30
0.0
 41
30.0
 42
30.0
 43
30.0
 50
270.0
  0
TEXT
  8
3
  40
45
  5
880A
  62
0
  72
0
  71
0
 10
1381.88
 20
1721.01
 30
0.000000
  1
351
  0
POINT
  5
876F
  8
DEFPOINTS
 62
     0
 10
1260.5691844458011
 20
1976.1648772601111
 30
0.0
  0
POINT
  5
8770
  8
DEFPOINTS
 62
     0
 10
1272.0293107962871
 20
1625.1648772601111
 30
0.0
  0
POINT
  5
8771
  8
DEFPOINTS
 62
     0
 10
1509.3838044620461
 20
1625.1648772601111
 30
0.0
  0
ENDBLK
  5
8141
  8
0
  0
BLOCK
  8
0
  2
*D5
 70
     1
 10
0.0
 20
0.0
 30
0.0
  3
*D5
  1

  0
LINE
  5
8772
  8
3
 62
     0
 10
1268.0691844458011
 20
1976.1648772601111
 30
0.0
 11
1423.874274329758
 21
1976.1648772601111
 31
0.0
  0
LINE
  5
8773
  8
3
 62
     0
 10
1268.0691844458011
 20
1651.1648772601111
 30
0.0
 11
1423.874274329758
 21
1651.1648772601111
 31
0.0
  0
LINE
  5
8774
  8
3
 62
     0
 10
1408.874274329758
 20
1946.1648772601111
 30
0.0
 11
1408.874274329758
 21
1681.1648772601111
 31
0.0
  0
INSERT
  5
8775
  8
3
 62
     0
  2
_OPEN
 10
1408.874274329758
 20
1976.1648772601111
 30
0.0
 41
30.0
 42
30.0
 43
30.0
 50
90.0
  0
INSERT
  5
8776
  8
3
 62
     0
  2
_OPEN
 10
1408.874274329758
 20
1651.1648772601111
 30
0.0
 41
30.0
 42
30.0
 43
30.0
 50
270.0
  0
TEXT
  8
3
  40
45
  5
880B
  62
0
  72
0
  71
0
 10
1281.37
 20
1734.01
 30
0.000000
  1
325
  0
POINT
  5
8778
  8
DEFPOINTS
 62
     0
 10
1260.5691844458011
 20
1976.1648772601111
 30
0.0
  0
POINT
  5
8779
  8
DEFPOINTS
 62
     0
 10
1260.5691844458011
 20
1651.1648772601111
 30
0.0
  0
POINT
  5
877A
  8
DEFPOINTS
 62
     0
 10
1408.874274329758
 20
1651.1648772601111
 30
0.0
  0
ENDBLK
  5
814C
  8
0
  0
BLOCK
  8
0
  2
*D6
 70
     1
 10
0.0
 20
0.0
 30
0.0
  3
*D6
  1

  0
LINE
  5
877E
  8
3
 62
     0
 10
2690.7539793039632
 20
1782.6648772601111
 30
0.0
 11
2826.925162830476
 21
1782.6648772601111
 31
0.0
  0
LINE
  5
877F
  8
3
 62
     0
 10
2690.7539793039632
 20
1467.6648772601111
 30
0.0
 11
2826.925162830476
 21
1467.6648772601111
 31
0.0
  0
LINE
  5
8780
  8
3
 62
     0
 10
2811.925162830476
 20
1752.66487726011
 30
0.0
 11
2811.925162830476
 21
1497.6648772601111
 31
0.0
  0
INSERT
  5
8781
  8
3
 62
     0
  2
_OPEN
 10
2811.925162830476
 20
1782.6648772601111
 30
0.0
 41
30.0
 42
30.0
 43
30.0
 50
90.0
  0
INSERT
  5
8782
  8
3
 62
     0
  2
_OPEN
 10
2811.925162830476
 20
1467.6648772601111
 30
0.0
 41
30.0
 42
30.0
 43
30.0
 50
270.0
  0
TEXT
  8
3
  40
45
  5
880C
  62
0
  72
0
  71
0
 10
2684.43
 20
1545.51
 30
0.000000
  1
φ315
  0
POINT
  5
8784
  8
DEFPOINTS
 62
     0
 10
2683.2539793039632
 20
1782.6648772601111
 30
0.0
  0
POINT
  5
8785
  8
DEFPOINTS
 62
     0
 10
2683.2539793039632
 20
1467.6648772601111
 30
0.0
  0
POINT
  5
8786
  8
DEFPOINTS
 62
     0
 10
2811.925162830476
 20
1467.6648772601111
 30
0.0
  0
ENDBLK
  5
867D
  8
0
  0
BLOCK
  8
0
  2
*D7
 70
     1
 10
0.0
 20
0.0
 30
0.0
  3
*D7
  1

  0
LINE
  5
87A2
  8
3
 62
     0
 10
2419.2539793039632
 20
1985.2760469351549
 30
0.0
 11
2419.2539793039632
 21
2073.2207112976198
 31
0.0
  0
LINE
  5
87A3
  8
3
 62
     0
 10
2655.2539793039632
 20
1985.2760469351549
 30
0.0
 11
2655.2539793039632
 21
2073.2207112976198
 31
0.0
  0
LINE
  5
87A4
  8
3
 62
     0
 10
2449.2539793039632
 20
2058.2207112976198
 30
0.0
 11
2625.2539793039632
 21
2058.2207112976198
 31
0.0
  0
INSERT
  5
87A5
  8
3
 62
     0
  2
_OPEN
 10
2419.2539793039632
 20
2058.2207112976198
 30
0.0
 41
30.0
 42
30.0
 43
30.0
 50
180.0
  0
INSERT
  5
87A6
  8
3
 62
     0
  2
_OPEN
 10
2655.2539793039632
 20
2058.2207112976198
 30
0.0
 41
30.0
 42
30.0
 43
30.0
  0
TEXT
  8
3
  40
45
  5
880D
  62
0
  72
0
  71
0
 10
2447.25
 20
2016.07
 30
0.000000
  1
236
  0
POINT
  5
87A8
  8
DEFPOINTS
 62
     0
 10
2419.2539793039632
 20
1977.7760469351549
 30
0.0
  0
POINT
  5
87A9
  8
DEFPOINTS
 62
     0
 10
2655.2539793039632
 20
1977.7760469351549
 30
0.0
  0
POINT
  5
87AA
  8
DEFPOINTS
 62
     0
 10
2655.2539793039632
 20
2058.2207112976198
 30
0.0
  0
ENDBLK
  5
81E8
  8
0
  0
BLOCK
  8
0
  2
_DOT
 70
     0
 10
0.0
 20
0.0
 30
0.0
  3
_DOT
  1

  0
LINE
  5
860F
  8
0
  6
BYBLOCK
 62
     0
 10
0.0
 20
0.0
 30
0.0
 11
-1.0
 21
-0.0000000000000284
 31
0.0
  0
POLYLINE
  5
8610
  8
0
  6
BYBLOCK
 62
     0
 66
     1
 10
0.0
 20
0.0
 30
0.0
 70
     1
 40
0.1666666666666666
 41
0.1666666666666666
  0
VERTEX
  5
87D7
  8
0
  6
BYBLOCK
 62
     0
 10
-0.0833333333333286
 20
-0.0000000000000284
 30
0.0
 42
1.0
  0
VERTEX
  5
87D8
  8
0
  6
BYBLOCK
 62
     0
 10
0.0833333333333286
 20
-0.0000000000000284
 30
0.0
 42
1.0
  0
SEQEND
  5
87D9
  8
0
  6
BYBLOCK
 62
     0
  0
ENDBLK
  5
849B
  8
0
  0
BLOCK
  8
0
  2
*D9
 70
     1
 10
0.0
 20
0.0
 30
0.0
  3
*D9
  1

  0
LINE
  5
87AB
  8
3
 62
     0
 10
2537.2539793039632
 20
2134.8266878674222
 30
0.0
 11
2537.2539793039632
 21
2200.1718006459259
 31
0.0
  0
LINE
  5
87AC
  8
3
 62
     0
 10
1849.253979303963
 20
1732.6648772601111
 30
0.0
 11
1849.253979303963
 21
2200.1718006459259
 31
0.0
  0
LINE
  5
87AD
  8
3
 62
     0
 10
2507.2539793039632
 20
2185.1718006459259
 30
0.0
 11
1879.253979303963
 21
2185.1718006459259
 31
0.0
  0
INSERT
  5
87AE
  8
3
 62
     0
  2
_OPEN
 10
2537.2539793039632
 20
2185.1718006459259
 30
0.0
 41
30.0
 42
30.0
 43
30.0
  0
INSERT
  5
87AF
  8
3
 62
     0
  2
_OPEN
 10
1849.253979303963
 20
2185.1718006459259
 30
0.0
 41
30.0
 42
30.0
 43
30.0
 50
180.0
  0
TEXT
  8
3
  40
45
  5
880E
  62
0
  72
0
  71
0
 10
2148.92
 20
2180.52
 30
0.000000
  1
MAX
  0
TEXT
  8
3
  40
45
  5
880F
  62
0
  72
0
  71
0
 10
2148.92
 20
2122.02
 30
0.000000
  1
760
  0
POINT
  5
87B1
  8
DEFPOINTS
 62
     0
 10
2537.2539793039632
 20
2127.3266878674222
 30
0.0
  0
POINT
  5
87B2
  8
DEFPOINTS
 62
     0
 10
1849.253979303963
 20
1725.1648772601111
 30
0.0
  0
POINT
  5
87B3
  8
DEFPOINTS
 62
     0
 10
1849.253979303963
 20
2185.1718006459259
 30
0.0
  0
ENDBLK
  5
864C
  8
0
  0
BLOCK
  8
0
  2
*D10
 70
     1
 10
0.0
 20
0.0
 30
0.0
  3
*D10
  1

  0
LINE
  5
87B4
  8
3
 62
     0
 10
388.06918444580151
 20
2780.2607083991588
 30
0.0
 11
265.33299321772608
 21
2780.2607083991588
 31
0.0
  0
LINE
  5
87B5
  8
3
 62
     0
 10
388.06918444580151
 20
2400.2607083991588
 30
0.0
 11
265.33299321772603
 21
2400.2607083991588
 31
0.0
  0
LINE
  5
87B6
  8
3
 62
     0
 10
280.3329932177262
 20
2750.2607083991588
 30
0.0
 11
280.33299321772603
 21
2430.2607083991588
 31
0.0
  0
INSERT
  5
87B7
  8
3
 62
     0
  2
_OPEN
 10
280.3329932177262
 20
2780.2607083991588
 30
0.0
 41
30.0
 42
30.0
 43
30.0
 50
90.0
  0
INSERT
  5
87B8
  8
3
 62
     0
  2
_OPEN
 10
280.33299321772603
 20
2400.2607083991588
 30
0.0
 41
30.0
 42
30.0
 43
30.0
 50
270.0
  0
TEXT
  8
3
  40
45
  5
8810
  62
0
  72
0
  71
0
 10
152.833
 20
2502.82
 30
0.000000
  1
380
  0
POINT
  5
87BA
  8
DEFPOINTS
 62
     0
 10
395.56918444580151
 20
2780.2607083991588
 30
0.0
  0
POINT
  5
87BB
  8
DEFPOINTS
 62
     0
 10
395.56918444580151
 20
2400.2607083991588
 30
0.0
  0
POINT
  5
87BC
  8
DEFPOINTS
 62
     0
 10
280.33299321772603
 20
2400.2607083991588
 30
0.0
  0
ENDBLK
  5
85DB
  8
0
  0
BLOCK
  8
0
  2
*D11
 70
     1
 10
0.0
 20
0.0
 30
0.0
  3
*D11
  1

  0
LINE
  5
87BD
  8
3
 62
     0
 10
395.56918444579958
 20
2787.7607083991588
 30
0.0
 11
395.56918444579969
 21
3297.2697048667101
 31
0.0
  0
LINE
  5
87BE
  8
3
 62
     0
 10
835.5691844458014
 20
3187.7607083991588
 30
0.0
 11
835.5691844458014
 21
3297.2697048667101
 31
0.0
  0
LINE
  5
87BF
  8
3
 62
     0
 10
425.56918444579969
 20
3282.269704866711
 30
0.0
 11
805.56918444580151
 21
3282.269704866711
 31
0.0
  0
INSERT
  5
87C0
  8
3
 62
     0
  2
_OPEN
 10
395.56918444579969
 20
3282.269704866711
 30
0.0
 41
30.0
 42
30.0
 43
30.0
 50
180.0
  0
INSERT
  5
87C1
  8
3
 62
     0
  2
_OPEN
 10
835.5691844458014
 20
3282.269704866711
 30
0.0
 41
30.0
 42
30.0
 43
30.0
  0
TEXT
  8
3
  40
45
  5
8811
  62
0
  72
0
  71
0
 10
528.689
 20
3240.12
 30
0.000000
  1
440
  0
POINT
  5
87C3
  8
DEFPOINTS
 62
     0
 10
395.56918444579958
 20
2780.2607083991588
 30
0.0
  0
POINT
  5
87C4
  8
DEFPOINTS
 62
     0
 10
835.5691844458014
 20
3180.2607083991588
 30
0.0
  0
POINT
  5
87C5
  8
DEFPOINTS
 62
     0
 10
835.5691844458014
 20
3282.269704866711
 30
0.0
  0
ENDBLK
  5
85E8
  8
0
  0
BLOCK
  8
0
  2
*D12
 70
     1
 10
0.0
 20
0.0
 30
0.0
  3
*D12
  1

  0
LINE
  5
87C6
  8
3
 62
     0
 10
1195.5691844458011
 20
3187.7607083991588
 30
0.0
 11
1195.5691844458011
 21
3297.2697048667101
 31
0.0
  0
LINE
  5
87C7
  8
3
 62
     0
 10
865.56918444580151
 20
3282.269704866711
 30
0.0
 11
1165.5691844458011
 21
3282.269704866711
 31
0.0
  0
INSERT
  5
87C8
  8
3
 62
     0
  2
_OPEN
 10
835.5691844458014
 20
3282.269704866711
 30
0.0
 41
30.0
 42
30.0
 43
30.0
 50
180.0
  0
INSERT
  5
87C9
  8
3
 62
     0
  2
_OPEN
 10
1195.5691844458011
 20
3282.269704866711
 30
0.0
 41
30.0
 42
30.0
 43
30.0
  0
TEXT
  8
3
  40
45
  5
8812
  62
0
  72
0
  71
0
 10
925.569
 20
3240.12
 30
0.000000
  1
360
  0
POINT
  5
87CB
  8
DEFPOINTS
 62
     0
 10
835.5691844458014
 20
3180.2607083991588
 30
0.0
  0
POINT
  5
87CC
  8
DEFPOINTS
 62
     0
 10
1195.5691844458011
 20
3180.2607083991588
 30
0.0
  0
POINT
  5
87CD
  8
DEFPOINTS
 62
     0
 10
1195.5691844458011
 20
3282.269704866711
 30
0.0
  0
ENDBLK
  5
85F4
  8
0
  0
BLOCK
  8
0
  2
*D13
 70
     1
 10
0.0
 20
0.0
 30
0.0
  3
*D13
  1

  0
LINE
  5
87CE
  8
3
 62
     0
 10
1203.0691844458011
 20
3180.2607083991588
 30
0.0
 11
1400.314428437141
 21
3180.2607083991588
 31
0.0
  0
LINE
  5
87CF
  8
3
 62
     0
 10
1203.0691844457999
 20
2400.2607083991588
 30
0.0
 11
1400.314428437141
 21
2400.2607083991588
 31
0.0
  0
LINE
  5
87D0
  8
3
 62
     0
 10
1385.314428437141
 20
3150.2607083991588
 30
0.0
 11
1385.314428437141
 21
2430.2607083991579
 31
0.0
  0
INSERT
  5
87D1
  8
3
 62
     0
  2
_OPEN
 10
1385.314428437141
 20
3180.2607083991588
 30
0.0
 41
30.0
 42
30.0
 43
30.0
 50
90.0
  0
INSERT
  5
87D2
  8
3
 62
     0
  2
_OPEN
 10
1385.314428437141
 20
2400.2607083991588
 30
0.0
 41
30.0
 42
30.0
 43
30.0
 50
270.0
  0
TEXT
  8
3
  40
45
  5
8813
  62
0
  72
0
  71
0
 10
1257.81
 20
2760.52
 30
0.000000
  1
780
  0
POINT
  5
87D4
  8
DEFPOINTS
 62
     0
 10
1195.5691844458011
 20
3180.2607083991588
 30
0.0
  0
POINT
  5
87D5
  8
DEFPOINTS
 62
     0
 10
1195.5691844457999
 20
2400.2607083991588
 30
0.0
  0
POINT
  5
87D6
  8
DEFPOINTS
 62
     0
 10
1385.314428437141
 20
2400.2607083991588
 30
0.0
  0
ENDBLK
  5
8601
  8
0
  0
BLOCK
  8
0
  2
*D14
 70
     1
 10
0.0
 20
0.0
 30
0.0
  3
*D14
  1

  0
LINE
  5
86A3
  8
0
  6
BYBLOCK
 62
     0
 10
2658.2539793039632
 20
1630.2760469351549
 30
0.0
 11
2658.2539793039632
 21
2200.1718006459259
 31
0.0
  0
LINE
  5
86A4
  8
0
  6
BYBLOCK
 62
     0
 10
2567.2539793039632
 20
2185.1718006459259
 30
0.0
 11
2628.2539793039632
 21
2185.1718006459259
 31
0.0
  0
TEXT
  5
86A5
  8
3
 62
     0
 10
2553.8254078753912
 20
2199.242319073986
 30
0.0
 40
45.0
  1
121
  0
INSERT
  5
86A6
  8
0
  6
BYBLOCK
 62
     0
  2
_OPEN
 10
2537.2539793039632
 20
2185.1718006459259
 30
0.0
 41
30.0
 42
30.0
 43
30.0
 50
180.0
  0
INSERT
  5
86A7
  8
0
  6
BYBLOCK
 62
     0
  2
_OPEN
 10
2658.2539793039632
 20
2185.1718006459259
 30
0.0
 41
30.0
 42
30.0
 43
30.0
  0
POINT
  5
86A8
  8
DEFPOINTS
  6
BYBLOCK
 62
     0
 10
2537.2539793039632
 20
2127.3266878674222
 30
0.0
  0
POINT
  5
86A9
  8
DEFPOINTS
  6
BYBLOCK
 62
     0
 10
2658.2539793039632
 20
1622.7760469351549
 30
0.0
  0
POINT
  5
86AA
  8
DEFPOINTS
  6
BYBLOCK
 62
     0
 10
2658.2539793039632
 20
2185.1718006459259
 30
0.0
  0
ENDBLK
  5
86AB
  8
0
  0
BLOCK
  8
0
  2
*D15
 70
     1
 10
0.0
 20
0.0
 30
0.0
  3
*D15
  1

  0
LINE
  5
87DA
  8
3
 62
     0
 10
1260.5691844458011
 20
2010.2760469351549
 30
0.0
 11
1260.5691844458011
 21
2179.8567439602748
 31
0.0
  0
LINE
  5
87DB
  8
3
 62
     0
 10
395.56918444580151
 20
1392.6648772601111
 30
0.0
 11
395.56918444580151
 21
2179.8567439602748
 31
0.0
  0
LINE
  5
87DC
  8
3
 62
     0
 10
1230.5691844458011
 20
2164.8567439602748
 30
0.0
 11
425.56918444580162
 21
2164.8567439602748
 31
0.0
  0
INSERT
  5
87DD
  8
3
 62
     0
  2
_OPEN
 10
1260.5691844458011
 20
2164.8567439602748
 30
0.0
 41
30.0
 42
30.0
 43
30.0
  0
INSERT
  5
87DE
  8
3
 62
     0
  2
_OPEN
 10
395.56918444580151
 20
2164.8567439602748
 30
0.0
 41
30.0
 42
30.0
 43
30.0
 50
180.0
  0
TEXT
  8
3
  40
45
  5
8814
  62
0
  72
0
  71
0
 10
738.069
 20
2122.71
 30
0.000000
  1
865
  0
POINT
  5
87E0
  8
DEFPOINTS
 62
     0
 10
1260.5691844458011
 20
2002.7760469351549
 30
0.0
  0
POINT
  5
87E1
  8
DEFPOINTS
 62
     0
 10
395.56918444580151
 20
1385.1648772601111
 30
0.0
  0
POINT
  5
87E2
  8
DEFPOINTS
 62
     0
 10
395.56918444580151
 20
2164.8567439602748
 30
0.0
  0
ENDBLK
  5
86D8
  8
0
  0
BLOCK
  8
0
  2
*D16
 70
     1
 10
0.0
 20
0.0
 30
0.0
  3
*D16
  1

  0
LINE
  5
87E3
  8
3
 62
     0
 10
395.569184445801
 20
1302.6648772601111
 30
0.0
 11
395.569184445801
 21
1175.6811554072681
 31
0.0
  0
LINE
  5
87E4
  8
3
 62
     0
 10
1015.5691844458011
 20
1302.6648772601111
 30
0.0
 11
1015.5691844458011
 21
1175.6811554072681
 31
0.0
  0
LINE
  5
87E5
  8
3
 62
     0
 10
425.569184445801
 20
1190.6811554072681
 30
0.0
 11
985.5691844458014
 21
1190.6811554072681
 31
0.0
  0
INSERT
  5
87E6
  8
3
 62
     0
  2
_OPEN
 10
395.569184445801
 20
1190.6811554072681
 30
0.0
 41
30.0
 42
30.0
 43
30.0
 50
180.0
  0
INSERT
  5
87E7
  8
3
 62
     0
  2
_OPEN
 10
1015.5691844458011
 20
1190.6811554072681
 30
0.0
 41
30.0
 42
30.0
 43
30.0
  0
TEXT
  8
3
  40
45
  5
8815
  62
0
  72
0
  71
0
 10
615.569
 20
1148.53
 30
0.000000
  1
620
  0
POINT
  5
87E9
  8
DEFPOINTS
 62
     0
 10
395.569184445801
 20
1310.1648772601111
 30
0.0
  0
POINT
  5
87EA
  8
DEFPOINTS
 62
     0
 10
1015.5691844458011
 20
1310.1648772601111
 30
0.0
  0
POINT
  5
87EB
  8
DEFPOINTS
 62
     0
 10
1015.5691844458011
 20
1190.6811554072681
 30
0.0
  0
ENDBLK
  5
86E5
  8
0
  0
BLOCK
  8
0
  2
*D17
 70
     1
 10
0.0
 20
0.0
 30
0.0
  3
*D17
  1

  0
LINE
  5
87EC
  8
3
 62
     0
 10
1015.5691844458011
 20
1302.6648772601111
 30
0.0
 11
1015.5691844458011
 21
1175.6811554072681
 31
0.0
  0
LINE
  5
87ED
  8
3
 62
     0
 10
1195.5691844458011
 20
1302.6648772601111
 30
0.0
 11
1195.5691844458011
 21
1175.6811554072681
 31
0.0
  0
LINE
  5
87EE
  8
3
 62
     0
 10
1045.5691844458011
 20
1190.6811554072681
 30
0.0
 11
1165.5691844458011
 21
1190.6811554072681
 31
0.0
  0
INSERT
  5
87EF
  8
3
 62
     0
  2
_OPEN
 10
1015.5691844458011
 20
1190.6811554072681
 30
0.0
 41
30.0
 42
30.0
 43
30.0
 50
180.0
  0
INSERT
  5
87F0
  8
3
 62
     0
  2
_OPEN
 10
1195.5691844458011
 20
1190.6811554072681
 30
0.0
 41
30.0
 42
30.0
 43
30.0
  0
TEXT
  8
3
  40
45
  5
8816
  62
0
  72
0
  71
0
 10
1015.57
 20
1148.53
 30
0.000000
  1
180
  0
POINT
  5
87F2
  8
DEFPOINTS
 62
     0
 10
1015.5691844458011
 20
1310.1648772601111
 30
0.0
  0
POINT
  5
87F3
  8
DEFPOINTS
 62
     0
 10
1195.5691844458011
 20
1310.1648772601111
 30
0.0
  0
POINT
  5
87F4
  8
DEFPOINTS
 62
     0
 10
1195.5691844458011
 20
1190.6811554072681
 30
0.0
  0
ENDBLK
  5
86F4
  8
0
  0
BLOCK
  8
0
  2
*D18
 70
     1
 10
0.0
 20
0.0
 30
0.0
  3
*D18
  1

  0
LINE
  5
87F5
  8
3
 62
     0
 10
1922.253979303963
 20
1302.66487726011
 30
0.0
 11
1922.253979303963
 21
1175.6811554072681
 31
0.0
  0
LINE
  5
87F6
  8
3
 62
     0
 10
2537.2539793039632
 20
1302.6648772601111
 30
0.0
 11
2537.2539793039632
 21
1175.6811554072681
 31
0.0
  0
LINE
  5
87F7
  8
3
 62
     0
 10
1952.253979303963
 20
1190.6811554072681
 30
0.0
 11
2507.2539793039632
 21
1190.6811554072681
 31
0.0
  0
INSERT
  5
87F8
  8
3
 62
     0
  2
_OPEN
 10
1922.253979303963
 20
1190.6811554072681
 30
0.0
 41
30.0
 42
30.0
 43
30.0
 50
180.0
  0
INSERT
  5
87F9
  8
3
 62
     0
  2
_OPEN
 10
2537.2539793039632
 20
1190.6811554072681
 30
0.0
 41
30.0
 42
30.0
 43
30.0
  0
TEXT
  8
3
  40
45
  5
8817
  62
0
  72
0
  71
0
 10
2139.75
 20
1148.53
 30
0.000000
  1
615
  0
POINT
  5
87FB
  8
DEFPOINTS
 62
     0
 10
1922.253979303963
 20
1310.16487726011
 30
0.0
  0
POINT
  5
87FC
  8
DEFPOINTS
 62
     0
 10
2537.2539793039632
 20
1310.1648772601111
 30
0.0
  0
POINT
  5
87FD
  8
DEFPOINTS
 62
     0
 10
2537.2539793039632
 20
1190.6811554072681
 30
0.0
  0
ENDBLK
  5
8701
  8
0
  0
BLOCK
  8
0
  2
*D19
 70
     1
 10
0.0
 20
0.0
 30
0.0
  3
*D19
  1

  0
LINE
  5
87FE
  8
3
 62
     0
 10
2537.2539793039632
 20
1302.6648772601111
 30
0.0
 11
2537.2539793039632
 21
1175.6811554072681
 31
0.0
  0
LINE
  5
87FF
  8
3
 62
     0
 10
2702.2539793039618
 20
1302.66487726011
 30
0.0
 11
2702.2539793039618
 21
1175.6811554072681
 31
0.0
  0
LINE
  5
8800
  8
3
 62
     0
 10
2567.2539793039632
 20
1190.6811554072681
 30
0.0
 11
2672.2539793039618
 21
1190.6811554072681
 31
0.0
  0
INSERT
  5
8801
  8
3
 62
     0
  2
_OPEN
 10
2537.2539793039632
 20
1190.6811554072681
 30
0.0
 41
30.0
 42
30.0
 43
30.0
 50
180.0
  0
INSERT
  5
8802
  8
3
 62
     0
  2
_OPEN
 10
2702.2539793039618
 20
1190.6811554072681
 30
0.0
 41
30.0
 42
30.0
 43
30.0
  0
TEXT
  8
3
  40
45
  5
8818
  62
0
  72
0
  71
0
 10
2529.75
 20
1148.53
 30
0.000000
  1
165
  0
POINT
  5
8804
  8
DEFPOINTS
 62
     0
 10
2537.2539793039632
 20
1310.1648772601111
 30
0.0
  0
POINT
  5
8805
  8
DEFPOINTS
 62
     0
 10
2702.2539793039618
 20
1310.16487726011
 30
0.0
  0
POINT
  5
8806
  8
DEFPOINTS
 62
     0
 10
2702.2539793039618
 20
1190.6811554072681
 30
0.0
  0
ENDBLK
  5
8710
  8
0
  0
ENDSEC
  0
SECTION
  2
ENTITIES
  0
LINE
  5
7CD2
  8
1
 10
1922.253979303963
 20
1385.16487726011
 30
0.0
 11
2702.2539793039618
 21
1385.16487726011
 31
0.0
  0
POLYLINE
  5
7CDA
  8
1
 66
     1
 10
0.0
 20
0.0
 30
0.0
 70
     1
  0
VERTEX
  5
8744
  8
1
 10
2354.2539793039618
 20
1528.3648772601109
 30
0.0
  0
VERTEX
  5
8745
  8
1
 10
2354.2539793039618
 20
1568.3648772601109
 30
0.0
  0
VERTEX
  5
8746
  8
1
 10
2356.2539793039618
 20
1568.3648772601109
 30
0.0
 42
-0.4142135623730951
  0
VERTEX
  5
8747
  8
1
 10
2359.2539793039618
 20
1565.36487726011
 30
0.0
  0
VERTEX
  5
8748
  8
1
 10
2359.2539793039618
 20
1537.8648772601109
 30
0.0
 42
0.4142135623730951
  0
VERTEX
  5
8749
  8
1
 10
2363.7539793039618
 20
1533.36487726011
 30
0.0
  0
VERTEX
  5
874A
  8
1
 10
2391.2539793039618
 20
1533.36487726011
 30
0.0
 42
-0.4142135623730951
  0
VERTEX
  5
874B
  8
1
 10
2394.2539793039618
 20
1530.3648772601109
 30
0.0
  0
VERTEX
  5
874C
  8
1
 10
2394.2539793039618
 20
1528.3648772601109
 30
0.0
  0
SEQEND
  5
874D
  8
1
  0
LINE
  5
7CE7
  8
2
 10
2719.359201945299
 20
1625.1648772601111
 30
0.0
 11
1827.4683488990861
 21
1625.1648772601111
 31
0.0
  0
LINE
  5
7CE8
  8
1
 10
2702.2539793039618
 20
1310.1648772601111
 30
0.0
 11
1922.253979303963
 21
1310.16487726011
 31
0.0
  0
LINE
  5
7CE9
  8
1
 10
385.569184445801
 20
2327.2607083991588
 30
0.0
 11
385.569184445801
 21
2419.2607083991588
 31
0.0
  0
LINE
  5
7CEA
  8
1
 10
548.06918444580106
 20
2412.2607083991588
 30
0.0
 11
548.06918444580106
 21
2407.2607083991602
 31
0.0
  0
LINE
  5
7CEB
  8
1
 10
523.06918444580106
 20
2412.2607083991588
 30
0.0
 11
523.06918444580106
 21
2407.2607083991602
 31
0.0
  0
LINE
  5
7CEC
  8
1
 10
998.0691844458014
 20
2897.2607083991588
 30
0.0
 11
998.0691844458014
 21
2407.2607083991579
 31
0.0
  0
LINE
  5
7CED
  8
1
 10
1033.0691844458011
 20
2897.2607083991588
 30
0.0
 11
1033.0691844458011
 21
2407.2607083991579
 31
0.0
  0
LINE
  5
7CEE
  8
1
 10
1115.5691844458011
 20
2327.2607083991588
 30
0.0
 11
1115.5691844458011
 21
2419.2607083991588
 31
0.0
  0
LINE
  5
7CF1
  8
1
 10
1195.5691844458011
 20
2897.2607083991588
 30
0.0
 11
1195.5691844457999
 21
2400.2607083991588
 31
0.0
  0
LINE
  5
7CF3
  8
2
 10
1015.5691844458011
 20
3167.4420884078309
 30
0.0
 11
1015.5691844458011
 21
2318.0944051232518
 31
0.0
  0
LINE
  5
7CF4
  8
2
 10
535.56918444580106
 20
2688.1977083991592
 30
0.0
 11
535.56918444580106
 21
2311.199995437591
 31
0.0
  0
DIMENSION
  5
7CF8
  8
3
  2
*D1
 10
742.0043035651197
 20
2057.2044177978892
 30
0.0
 11
878.7867440054606
 21
2094.7044177978892
 31
0.0
 70
     0
 13
1015.5691844458011
 23
2009.2492643767339
 33
0.0
 14
742.0043035651197
 24
1649.1648772601111
 34
0.0
1001
ACAD
1000
DSTYLE
1002
{
1070
   287
1070
     3
1070
    40
1040
15.0
1070
   143
1040
0.039
1070
   172
1070
     1
1070
   271
1070
     0
1070
   279
1070
     0
1070
   288
1070
     1
1002
}
  0
ARC
  5
7CF9
  8
1
 10
996.80423186111057
 20
1654.3582053002019
 30
0.0
 40
252.15223226792139
 50
181.15405593563719
 51
277.46034277290408
  0
ARC
  5
7CFA
  8
1
 10
1045.308863955046
 20
1646.9215922555891
 30
0.0
 40
303.31285610889972
 50
95.656922830107433
 51
179.57623973987199
  0
LINE
  5
7CFB
  8
1
 10
578.16154173219638
 20
1391.3389717326711
 30
0.0
 11
1043.9640893033979
 21
1529.280940241817
 31
0.0
  0
ARC
  5
7CFC
  8
1
 10
1015.5691844458011
 20
1625.1648772601111
 30
0.0
 40
100.0
 50
286.49603841129169
 51
94.743272141018537
  0
LINE
  5
7CFD
  8
1
 10
1029.703509025587
 20
1563.257923945695
 30
0.0
 11
553.95493578895639
 21
1454.637092318839
 31
0.0
  0
ARC
  5
7CFE
  8
1
 10
1039.5691844458011
 20
1649.1648772601111
 30
0.0
 40
308.96488088068128
 50
94.639506522689473
 51
180.0
  0
LINE
  5
7CFF
  8
1
 10
952.06918444580151
 20
2407.2607083991602
 30
0.0
 11
1079.0691844458011
 21
2407.2607083991579
 31
0.0
  0
LINE
  5
7D00
  8
1
 10
952.06918444580151
 20
2357.2607083991588
 30
0.0
 11
1079.0691844458011
 21
2357.2607083991588
 31
0.0
  0
CIRCLE
  5
7D01
  8
1
 10
1015.5691844458011
 20
1485.1648772601111
 30
0.0
 40
65.0
  0
LINE
  5
7D02
  8
2
 10
945.5691844458014
 20
1485.1648772601111
 30
0.0
 11
1085.5691844458011
 21
1485.1648772601111
 31
0.0
  0
LINE
  5
7D03
  8
1
 10
1175.5691844458011
 20
1571.564877260111
 30
0.0
 11
855.56918444580151
 21
1571.564877260111
 31
0.0
  0
LINE
  5
7D10
  8
1
 10
1215.569184445802
 20
1568.3648772601109
 30
0.0
 11
815.56918444580151
 21
1568.3648772601109
 31
0.0
  0
CIRCLE
  5
7D11
  8
1
 10
1015.5691844458011
 20
1625.1648772601111
 30
0.0
 40
63.5
  0
LINE
  5
7D12
  8
2
 10
660.70833133745873
 20
1625.1648772601111
 30
0.0
 11
1272.0293107962871
 21
1625.1648772601111
 31
0.0
  0
LINE
  5
7D13
  8
1
 10
395.569184445801
 20
1310.1648772601111
 30
0.0
 11
1195.5691844458011
 21
1310.1648772601111
 31
0.0
  0
LINE
  5
7D14
  8
1
 10
385.56918444580151
 20
1385.1648772601111
 30
0.0
 11
1195.5691844458011
 21
1385.1648772601111
 31
0.0
  0
LINE
  5
7D17
  8
1
 10
1115.5691844458011
 20
2327.2607083991588
 30
0.0
 11
385.569184445801
 21
2327.2607083991588
 31
0.0
  0
ARC
  5
7D18
  8
1
 10
535.56918444580106
 20
1535.1648772601111
 30
0.0
 40
150.0
 50
94.743272141018508
 51
286.49603841129169
  0
ARC
  5
7D19
  8
1
 10
991.56918444580151
 20
1649.1648772601111
 30
0.0
 40
260.96488088068128
 50
180.0
 51
239.1321627132975
  0
LINE
  5
7D1A
  8
2
 10
535.56918444580106
 20
1352.0618149971669
 30
0.0
 11
535.56918444580106
 21
1697.869039365665
 31
0.0
  0
CIRCLE
  5
7D1B
  8
1
 10
535.56918444580106
 20
1535.1648772601111
 30
0.0
 40
82.599999999999994
  0
ARC
  5
7D1E
  8
1
 10
535.56918444580106
 20
1535.1648772601111
 30
0.0
 40
100.8
 50
300.30070000000001
 51
180.0
  0
ARC
  5
7D1F
  8
1
 10
535.56918444580106
 20
1535.1648772601111
 30
0.0
 40
100.8
 50
300.30070000000001
 51
180.0
  0
LINE
  5
7D20
  8
1
 10
385.56918444580151
 20
1415.1648772601111
 30
0.0
 11
685.56918444580106
 21
1415.1648772601111
 31
0.0
  0
LINE
  5
7D21
  8
1
 10
395.56918444580151
 20
1385.1648772601111
 30
0.0
 11
395.569184445801
 21
1310.1648772601111
 31
0.0
  0
LINE
  5
7D23
  8
1
 10
586.49328444580067
 20
1448.1648772601111
 30
0.0
 11
484.53818444580099
 21
1448.1648772601111
 31
0.0
  0
LINE
  5
7D24
  8
1
 10
586.49328444580067
 20
1448.1648772601111
 30
0.0
 11
484.53818444580099
 21
1448.1648772601111
 31
0.0
  0
LINE
  5
7D27
  8
1
 10
434.6653129771139
 20
1445.1648772601111
 30
0.0
 11
636.47305591448821
 21
1445.1648772601111
 31
0.0
  0
LINE
  5
7D28
  8
2
 10
640.03438444580115
 20
1535.1648772601111
 30
0.0
 11
429.46638444580088
 21
1535.1648772601111
 31
0.0
  0
ARC
  5
7D29
  8
1
 10
535.56918444580106
 20
1535.1648772601111
 30
0.0
 40
100.8
 50
180.0
 51
239.6066999999999
  0
ARC
  5
7D2B
  8
1
 10
535.56918444580106
 20
1535.1648772601111
 30
0.0
 40
100.8
 50
180.0
 51
239.6066999999999
  0
LINE
  5
7D2D
  8
1
 10
385.56918444580151
 20
1385.1648772601111
 30
0.0
 11
385.56918444580151
 21
1415.1648772601111
 31
0.0
  0
LINE
  5
7D2E
  8
1
 10
423.069184445801
 20
1415.1648772601111
 30
0.0
 11
434.6653129771139
 21
1445.1648772601111
 31
0.0
  0
LINE
  5
7D2F
  8
1
 10
447.569184445801
 20
1445.1648772601111
 30
0.0
 11
487.569184445801
 21
1445.1648772601111
 31
0.0
  0
LINE
  5
7D30
  8
1
 10
453.42258444580102
 20
1476.747577260111
 30
0.0
 11
447.569184445801
 21
1453.1648772601111
 31
0.0
  0
LINE
  5
7D31
  8
1
 10
447.569184445801
 20
1445.1648772601111
 30
0.0
 11
447.569184445801
 21
1453.1648772601111
 31
0.0
  0
LINE
  5
7D32
  8
1
 10
465.56918444580111
 20
1440.798377260111
 30
0.0
 11
465.56918444580111
 21
1457.7017772601109
 31
0.0
  0
LINE
  5
7D33
  8
1
 10
487.569184445801
 20
1448.0958772601109
 30
0.0
 11
487.569184445801
 21
1445.1648772601111
 31
0.0
  0
LINE
  5
7D34
  8
1
 10
623.56918444580106
 20
1445.1648772601111
 30
0.0
 11
583.56918444580106
 21
1445.1648772601111
 31
0.0
  0
LINE
  5
7D35
  8
1
 10
583.56918444580106
 20
1448.1376772601111
 30
0.0
 11
583.56918444580106
 21
1445.1648772601111
 31
0.0
  0
LINE
  5
7D36
  8
1
 10
648.06918444580106
 20
1415.1648772601111
 30
0.0
 11
636.47305591448821
 21
1445.1648772601111
 31
0.0
  0
LINE
  5
7D37
  8
1
 10
623.56918444580106
 20
1445.1648772601111
 30
0.0
 11
623.56918444580106
 21
1453.1648772601111
 31
0.0
  0
LINE
  5
7D38
  8
1
 10
617.71568444580134
 20
1476.747577260111
 30
0.0
 11
623.56918444580106
 21
1453.1648772601111
 31
0.0
  0
LINE
  5
7D39
  8
1
 10
605.56918444580106
 20
1440.798377260111
 30
0.0
 11
605.56918444580106
 21
1457.7017772601109
 31
0.0
  0
LINE
  5
7D3A
  8
1
 10
835.5691844458014
 20
1425.1648772601111
 30
0.0
 11
865.56918444580151
 21
1425.1648772601111
 31
0.0
  0
LINE
  5
7D3B
  8
1
 10
835.5691844458014
 20
1390.1648772601111
 30
0.0
 11
865.56918444580151
 21
1390.1648772601111
 31
0.0
  0
LINE
  5
7D3C
  8
1
 10
760.24683564856923
 20
1528.3648772601121
 30
0.0
 11
865.56918444580151
 21
1528.3648772601109
 31
0.0
  0
LINE
  5
7D3D
  8
1
 10
762.65308834710356
 20
1523.8648772601109
 30
0.0
 11
865.56918444580151
 21
1523.8648772601109
 31
0.0
  0
LINE
  5
7D3E
  8
1
 10
685.56918444580106
 20
1385.1648772601111
 30
0.0
 11
685.56918444580106
 21
1415.1648772601111
 31
0.0
  0
LINE
  5
7D3F
  8
1
 10
835.5691844458014
 20
1425.1648772601111
 30
0.0
 11
835.5691844458014
 21
1385.1648772601111
 31
0.0
  0
LINE
  5
7D40
  8
1
 10
815.56918444580151
 20
1568.3648772601109
 30
0.0
 11
815.56918444580151
 21
1528.3648772601109
 31
0.0
  0
LINE
  5
7D41
  8
1
 10
865.56918444580151
 20
1568.3648772601109
 30
0.0
 11
865.56918444580151
 21
1385.1648772601111
 31
0.0
  0
LINE
  5
7D42
  8
1
 10
855.56918444580151
 20
1571.564877260111
 30
0.0
 11
855.56918444580151
 21
1568.3648772601109
 31
0.0
  0
LINE
  5
7D44
  8
1
 10
523.16550640468904
 20
1684.6511601460411
 30
0.0
 11
1007.300065751726
 21
1724.8223991840639
 31
0.0
  0
LINE
  5
7D45
  8
1
 10
1006.316771815701
 20
1687.9871890650929
 30
0.0
 11
523.53376266239411
 21
1616.8833489938349
 31
0.0
  0
LINE
  5
7D46
  8
1
 10
618.16918444580097
 20
2407.2607083991602
 30
0.0
 11
452.9691844458016
 21
2407.2607083991602
 31
0.0
  0
LINE
  5
7D47
  8
1
 10
618.16918444580097
 20
2357.2607083991588
 30
0.0
 11
452.9691844458016
 21
2357.2607083991588
 31
0.0
  0
LINE
  5
7D48
  8
1
 10
452.9691844458016
 20
2407.2607083991602
 30
0.0
 11
452.96918444580109
 21
2357.2607083991588
 31
0.0
  0
LINE
  5
7D49
  8
1
 10
547.56918444580106
 20
2357.2607083991588
 30
0.0
 11
523.56918444580106
 21
2357.2607083991588
 31
0.0
  0
LINE
  5
7D4A
  8
1
 10
548.06918444580106
 20
2407.2607083991602
 30
0.0
 11
523.06918444580106
 21
2407.2607083991602
 31
0.0
  0
LINE
  5
7D4B
  8
1
 10
618.16918444580097
 20
2407.2607083991602
 30
0.0
 11
618.16918444580097
 21
2357.2607083991588
 31
0.0
  0
LINE
  5
7D4C
  8
1
 10
952.06918444580151
 20
2407.2607083991602
 30
0.0
 11
952.06918444580151
 21
2357.2607083991588
 31
0.0
  0
DIMENSION
  5
7D4E
  8
3
  2
*D2
 10
1509.3838044620461
 20
1310.1648772601111
 30
0.0
 11
1471.883804462045
 21
1467.6648772601111
 31
0.0
 70
     0
 13
1272.0293107962871
 23
1625.1648772601111
 33
0.0
 14
1195.5691844458011
 24
1310.1648772601111
 34
0.0
 50
90.0
1001
ACAD
1000
DSTYLE
1002
{
1070
   287
1070
     3
1070
    40
1040
15.0
1070
   143
1040
0.039
1070
   172
1070
     1
1070
   271
1070
     0
1070
   279
1070
     0
1070
   288
1070
     1
1002
}
  0
ARC
  5
7D4F
  8
1
 10
997.06918444580106
 20
1606.6648772601111
 30
0.0
 40
218.11047620624919
 50
349.88647698484908
 51
359.99999999999989
  0
ARC
  5
7D52
  8
1
 10
1002.566240370576
 20
1601.0891681979031
 30
0.0
 40
201.58952384937541
 50
277.79780284392967
 51
1.5639777644250381
  0
LINE
  5
7D53
  8
2
 10
1015.5691844458011
 20
1719.3041924525869
 30
0.0
 11
1015.5691844458011
 21
1310.1648772601111
 31
0.0
  0
LINE
  5
7D56
  8
1
 10
1941.253979303963
 20
1725.16487726011
 30
0.0
 11
1941.253979303963
 21
1385.1648772601111
 31
0.0
  0
LINE
  5
7D57
  8
1
 10
1849.253979303963
 20
1725.16487726011
 30
0.0
 11
1849.253979303963
 21
1385.1648772601111
 31
0.0
  0
LINE
  5
7D58
  8
1
 10
1929.253979303963
 20
1688.6648772601111
 30
0.0
 11
1929.253979303963
 21
1561.6648772601111
 31
0.0
  0
LINE
  5
7D59
  8
1
 10
1944.253979303963
 20
1607.6648772601111
 30
0.0
 11
1944.253979303963
 21
1434.1648772601111
 31
0.0
  0
LINE
  5
7D5A
  8
1
 10
1879.253979303963
 20
1688.6648772601111
 30
0.0
 11
1879.253979303963
 21
1561.6648772601111
 31
0.0
  0
LINE
  5
7D5F
  8
1
 10
1195.5691844458011
 20
1425.1648772601111
 30
0.0
 11
1195.5691844458011
 21
1310.1648772601111
 31
0.0
  0
ARC
  5
7D61
  8
1
 10
997.06918444580106
 20
1606.6648772601111
 30
0.0
 40
218.11047620624919
 50
320.58291564581879
 51
337.68959758343522
  0
LINE
  5
7D62
  8
1
 10
1165.569184445802
 20
1523.8648772601109
 30
0.0
 11
1215.569184445802
 21
1523.8648772601109
 31
0.0
  0
LINE
  5
7D63
  8
1
 10
1165.569184445802
 20
1528.3648772601109
 30
0.0
 11
1215.569184445802
 21
1528.3648772601109
 31
0.0
  0
LINE
  5
7D64
  8
1
 10
1165.569184445802
 20
1425.1648772601111
 30
0.0
 11
1195.5691844458011
 21
1425.1648772601111
 31
0.0
  0
LINE
  5
7D65
  8
1
 10
1165.5691844458011
 20
1390.1648772601111
 30
0.0
 11
1195.5691844458011
 21
1390.1648772601111
 31
0.0
  0
LINE
  5
7D66
  8
1
 10
1165.569184445802
 20
1568.3648772601109
 30
0.0
 11
1165.5691844458011
 21
1385.1648772601111
 31
0.0
  0
LINE
  5
7D68
  8
1
 10
1175.5691844458011
 20
1571.564877260111
 30
0.0
 11
1175.5691844458011
 21
1568.3648772601109
 31
0.0
  0
LINE
  5
7D69
  8
1
 10
1215.569184445802
 20
1568.3648772601109
 30
0.0
 11
1215.569184445802
 21
1523.8648772601109
 31
0.0
  0
LINE
  5
7D6B
  8
1
 10
1849.253979303963
 20
1385.1648772601111
 30
0.0
 11
2049.7926177694399
 21
1385.1648772601111
 31
0.0
  0
LINE
  5
7D72
  8
1
 10
2364.2539793039618
 20
1568.3648772601109
 30
0.0
 11
1954.253979303963
 21
1568.36487726011
 31
0.0
  0
LINE
  5
7D73
  8
1
 10
2364.2539793039618
 20
1571.564877260111
 30
0.0
 11
1954.253979303963
 21
1571.564877260111
 31
0.0
  0
LINE
  5
7D74
  8
1
 10
1922.253979303963
 20
1385.16487726011
 30
0.0
 11
1922.253979303963
 21
1310.16487726011
 31
0.0
  0
LINE
  5
7D76
  8
1
 10
1929.253979303963
 20
1577.764877260111
 30
0.0
 11
1929.2539793039639
 21
1452.564877260111
 31
0.0
  0
LINE
  5
7D77
  8
1
 10
1879.253979303963
 20
1577.764877260111
 30
0.0
 11
1879.253979303963
 21
1452.564877260111
 31
0.0
  0
LINE
  5
7D78
  8
1
 10
1934.253979303963
 20
1498.6648772601111
 30
0.0
 11
1934.253979303963
 21
1571.6648772601111
 31
0.0
  0
LINE
  5
7D79
  8
1
 10
1961.053979303962
 20
1568.36487726011
 30
0.0
 11
1961.0539793039629
 21
1385.16487726011
 31
0.0
  0
LINE
  5
7D7A
  8
1
 10
1964.253979303963
 20
1568.36487726011
 30
0.0
 11
1964.253979303963
 21
1385.16487726011
 31
0.0
  0
LINE
  5
7D7B
  8
1
 10
1935.253979303963
 20
1497.6648772601111
 30
0.0
 11
1943.253979303963
 21
1497.6648772601111
 31
0.0
  0
LINE
  5
7D7C
  8
1
 10
1929.253979303963
 20
1452.564877260111
 30
0.0
 11
1879.253979303963
 21
1452.564877260111
 31
0.0
  0
ARC
  5
7D7D
  8
1
 10
1935.254079303963
 20
1498.6648772601111
 30
0.0
 40
1.0000999999999991
 50
180.0
 51
269.99650000000003
  0
LINE
  5
7D7E
  8
1
 10
1944.253979303963
 20
1434.1648772601111
 30
0.0
 11
1961.0539793039629
 21
1434.1648772601111
 31
0.0
  0
ARC
  5
7D7F
  8
1
 10
1943.253979303963
 20
1496.6648772601111
 30
0.0
 40
1.0000999999999991
 50
0.0
 51
89.996500000000054
  0
LINE
  5
7D80
  8
1
 10
1934.253979303963
 20
1571.6648772601111
 30
0.0
 11
1944.253979303963
 21
1571.6648772601111
 31
0.0
  0
LINE
  5
7D81
  8
2
 10
1973.551944701012
 20
1535.1648772601111
 30
0.0
 11
1826.414673254141
 21
1535.1648772601111
 31
0.0
  0
LINE
  5
7D82
  8
1
 10
1879.253979303963
 20
1507.1648772601111
 30
0.0
 11
1879.253979303963
 21
1483.1648772601111
 31
0.0
  0
LINE
  5
7D83
  8
1
 10
1934.253979303963
 20
1522.6648772601111
 30
0.0
 11
1929.253979303963
 21
1522.6648772601111
 31
0.0
  0
LINE
  5
7D84
  8
1
 10
1934.253979303963
 20
1547.6648772601111
 30
0.0
 11
1929.253979303963
 21
1547.6648772601111
 31
0.0
  0
LINE
  5
7D85
  8
1
 10
1929.253979303963
 20
1547.6648772601111
 30
0.0
 11
1929.253979303963
 21
1522.6648772601111
 31
0.0
  0
LINE
  5
7D86
  8
1
 10
1929.253979303963
 20
1561.6648772601111
 30
0.0
 11
1879.253979303963
 21
1561.6648772601111
 31
0.0
  0
LINE
  5
7D87
  8
1
 10
1929.253979303963
 20
1617.7648772601101
 30
0.0
 11
1879.253979303963
 21
1617.7648772601101
 31
0.0
  0
LINE
  5
7D8A
  8
1
 10
1954.253979303963
 20
1568.36487726011
 30
0.0
 11
1954.253979303963
 21
1571.564877260111
 31
0.0
  0
LINE
  5
7D8B
  8
1
 10
2354.2539793039618
 20
1567.064877260111
 30
0.0
 11
2354.2539793039618
 21
1385.16487726011
 31
0.0
  0
LINE
  5
7D8C
  8
1
 10
2354.2539793039618
 20
1567.064877260111
 30
0.0
 11
2354.2539793039618
 21
1517.064877260111
 31
0.0
  0
LINE
  5
7D8D
  8
1
 10
2354.2539793039618
 20
1567.064877260111
 30
0.0
 11
2354.2539793039618
 21
1527.064877260111
 31
0.0
  0
LINE
  5
7D96
  8
1
 10
2364.2539793039618
 20
1571.564877260111
 30
0.0
 11
2364.2539793039609
 21
1568.3648772601109
 31
0.0
  0
DIMENSION
  5
7D97
  8
3
  2
*D3
 10
1015.5691844458011
 20
2057.2044177978892
 30
0.0
 11
1138.0691844458011
 21
2094.7044177978892
 31
0.0
 70
     0
 13
1260.5691844458011
 23
2002.7760469351549
 33
0.0
 14
1015.5691844458011
 24
2009.2492643767339
 34
0.0
1001
ACAD
1000
DSTYLE
1002
{
1070
   287
1070
     3
1070
    40
1040
15.0
1070
   143
1040
0.039
1070
   172
1070
     1
1070
   271
1070
     0
1070
   279
1070
     0
1070
   288
1070
     1
1002
}
  0
DIMENSION
  5
7D98
  8
3
  2
*D4
 10
1509.3838044620461
 20
1625.1648772601111
 30
0.0
 11
1471.883804462045
 21
1800.6648772601111
 31
0.0
 70
     0
 13
1260.5691844458011
 23
1976.1648772601111
 33
0.0
 14
1272.0293107962871
 24
1625.1648772601111
 34
0.0
 50
90.0
1001
ACAD
1000
DSTYLE
1002
{
1070
   287
1070
     3
1070
    40
1040
15.0
1070
   143
1040
0.039
1070
   172
1070
     1
1070
   271
1070
     0
1070
   279
1070
     0
1070
   288
1070
     1
1002
}
  0
DIMENSION
  5
7D99
  8
3
  2
*D5
 10
1408.874274329758
 20
1651.1648772601111
 30
0.0
 11
1371.374274329758
 21
1813.6648772601111
 31
0.0
 70
     0
 13
1260.5691844458011
 23
1976.1648772601111
 33
0.0
 14
1260.5691844458011
 24
1651.1648772601111
 34
0.0
 50
90.0
1001
ACAD
1000
DSTYLE
1002
{
1070
   287
1070
     3
1070
    40
1040
15.0
1070
   143
1040
0.039
1070
   172
1070
     1
1070
   271
1070
     0
1070
   279
1070
     0
1070
   288
1070
     1
1002
}
  0
LINE
  5
7D9A
  8
2
 10
1015.5691844458011
 20
2009.2492643767339
 30
0.0
 11
1015.5691844458011
 21
1738.244119430776
 31
0.0
  0
LINE
  5
7D9B
  8
1
 10
1235.5691844458011
 20
1983.2755040556681
 30
0.0
 11
1235.5691844458011
 21
1646.7760469351549
 31
0.0
  0
LINE
  5
7D9C
  8
1
 10
1257.5691844458011
 20
1622.7760469351549
 30
0.0
 11
1257.5691844458011
 21
2002.7760469351549
 31
0.0
  0
LINE
  5
7D9D
  8
1
 10
1260.5691844458011
 20
1622.7760469351549
 30
0.0
 11
1260.5691844458011
 21
2002.7760469351549
 31
0.0
  0
LINE
  5
7D9E
  8
1
 10
1015.5691844458011
 20
1725.1648772601111
 30
0.0
 11
1015.5691844458011
 21
1725.1648772601111
 31
0.0
  0
LINE
  5
7D9F
  8
1
 10
1235.5691844458011
 20
1641.1648772601111
 30
0.0
 11
1211.8633198711691
 21
1641.1648772601111
 31
0.0
  0
LINE
  5
7DA1
  8
1
 10
1260.5691844458011
 20
1651.1648772601111
 30
0.0
 11
1198.152431670725
 21
1651.1648772601111
 31
0.0
  0
ARC
  5
7DA2
  8
1
 10
1034.0691844458031
 20
1606.66487726011
 30
0.0
 40
181.11047620624669
 50
0.0000000000002158
 51
10.98146693575638
  0
ARC
  5
7DA3
  8
1
 10
1034.0691844458011
 20
1606.6648772601111
 30
0.0
 40
170.010476206249
 50
359.9999999999996
 51
15.1738417687781
  0
LINE
  5
7DA4
  8
1
 10
1257.5691844458011
 20
1624.7760469351549
 30
0.0
 11
1257.5691844458011
 21
1640.7760469351549
 31
0.0
  0
LINE
  5
7DA5
  8
1
 10
1260.5691844458011
 20
1647.7760469351549
 30
0.0
 11
1260.5691844458011
 21
1622.7760469351549
 31
0.0
  0
ARC
  5
7DA6
  8
1
 10
1259.5691844458011
 20
1624.7760469351549
 30
0.0
 40
2.0
 50
180.0
 51
270.0
  0
LINE
  5
7DA7
  8
1
 10
1260.5691844458011
 20
1622.7760469351549
 30
0.0
 11
1259.5691844458011
 21
1622.7760469351549
 31
0.0
  0
ARC
  5
7DA8
  8
1
 10
1253.5691844458011
 20
1640.7760469351549
 30
0.0
 40
4.0
 50
0.0
 51
90.0
  0
ARC
  5
7DA9
  8
1
 10
1237.5691844458011
 20
1646.7760469351549
 30
0.0
 40
2.0
 50
180.0
 51
270.0
  0
LINE
  5
7DAA
  8
1
 10
1235.5691844458011
 20
1646.7760469351549
 30
0.0
 11
1235.5691844458011
 21
1647.7760469351549
 31
0.0
  0
LINE
  5
7DAB
  8
1
 10
1235.5691844458011
 20
1641.1648772601111
 30
0.0
 11
1235.5691844458011
 21
1647.7760469351549
 31
0.0
  0
LINE
  5
7DAC
  8
1
 10
1253.5691844458011
 20
1644.7760469351549
 30
0.0
 11
1237.5691844458011
 21
1644.7760469351549
 31
0.0
  0
LINE
  5
7DAD
  8
1
 10
1235.5691844458011
 20
1983.2755040556681
 30
0.0
 11
1014.578188345548
 21
1957.1173861499251
 31
0.0
  0
POLYLINE
  5
7DAE
  8
1
 66
     1
 10
0.0
 20
0.0
 30
0.0
  0
VERTEX
  5
877B
  8
1
 10
1260.5691844458011
 20
1977.7760469351549
 30
0.0
  0
VERTEX
  5
877C
  8
1
 10
1115.7998401445609
 20
1960.640083732151
 30
0.0
 42
0.3908380251735333
  0
SEQEND
  5
877D
  8
1
  0
LINE
  5
7DB2
  8
1
 10
1260.5691844458011
 20
1977.7760469351549
 30
0.0
 11
1015.4108302128139
 21
1948.7573029647201
 31
0.0
  0
LINE
  5
7DB3
  8
1
 10
1260.5691844458011
 20
1976.1648772601111
 30
0.0
 11
1252.9388727715029
 21
1976.1648772601111
 31
0.0
  0
ARC
  5
7DB4
  8
1
 10
1259.5691844457999
 20
2000.7760469351549
 30
0.0
 40
2.0
 50
90.0
 51
180.0
  0
LINE
  5
7DB5
  8
1
 10
1260.5691844457999
 20
2002.7760469351549
 30
0.0
 11
1259.5691844457999
 21
2002.7760469351549
 31
0.0
  0
ARC
  5
7DB6
  8
1
 10
1253.5691844457999
 20
1984.7760469351549
 30
0.0
 40
4.0
 50
270.0
 51
0.0
  0
LINE
  5
7DB7
  8
1
 10
1260.5691844457999
 20
1977.7760469351549
 30
0.0
 11
1260.5691844457999
 21
2002.7760469351549
 31
0.0
  0
LINE
  5
7DB8
  8
1
 10
1257.5691844457999
 20
2000.7760469351549
 30
0.0
 11
1257.5691844457999
 21
1984.7760469351549
 31
0.0
  0
LINE
  5
7DB9
  8
1
 10
1235.5691844457999
 20
1978.7760469351549
 30
0.0
 11
1235.5691844457999
 21
1977.7760469351549
 31
0.0
  0
ARC
  5
7DBA
  8
1
 10
1237.5691844457999
 20
1978.7760469351549
 30
0.0
 40
2.0
 50
90.0
 51
180.0
  0
LINE
  5
7DBB
  8
1
 10
1235.5691844458011
 20
1974.205693586641
 30
0.0
 11
1235.5691844458011
 21
1973.205693586641
 31
0.0
  0
LINE
  5
7DBC
  8
1
 10
1235.5691844457999
 20
1977.7760469351549
 30
0.0
 11
1260.5691844457999
 21
1977.7760469351549
 31
0.0
  0
LINE
  5
7DBD
  8
1
 10
1253.5691844457999
 20
1980.7760469351549
 30
0.0
 11
1237.5691844457999
 21
1980.7760469351549
 31
0.0
  0
LINE
  5
7DBE
  8
1
 10
1195.5691844458011
 20
2400.2607083991588
 30
0.0
 11
395.5691844458014
 21
2400.2607083991588
 31
0.0
  0
LINE
  5
7DBF
  8
1
 10
1079.0691844458011
 20
2407.2607083991579
 30
0.0
 11
1079.0691844458011
 21
2357.2607083991588
 31
0.0
  0
POINT
  5
7DC0
  8
1
 10
1195.5691844457999
 20
2400.2607083991588
 30
0.0
  0
LINE
  5
7DC3
  8
1
 10
1849.253979303963
 20
1725.1648772601111
 30
0.0
 11
1941.253979303963
 21
1725.1648772601111
 31
0.0
  0
LINE
  5
7DC6
  8
1
 10
1929.253979303963
 20
1688.6648772601111
 30
0.0
 11
1879.253979303963
 21
1688.6648772601111
 31
0.0
  0
LINE
  5
7DD5
  8
1
 10
2417.2539793039641
 20
1607.6648772601111
 30
0.0
 11
1929.253979303963
 21
1607.6648772601111
 31
0.0
  0
LINE
  5
7DD6
  8
1
 10
2392.2539793039632
 20
1642.66487726011
 30
0.0
 11
1929.253979303963
 21
1642.6648772601111
 31
0.0
  0
LINE
  5
7DE9
  8
1
 10
875.56918444580322
 20
3175.2607083991588
 30
0.0
 11
1155.5691844458011
 21
3175.2607083991588
 31
0.0
  0
LINE
  5
7DEC
  8
1
 10
1175.5691844458011
 20
2842.2607083991588
 30
0.0
 11
1033.0691844458011
 21
2842.2607083991588
 31
0.0
  0
LINE
  5
7DEE
  8
1
 10
739.0043035651197
 20
2897.2607083991588
 30
0.0
 11
1256.5691844457999
 21
2897.2607083991588
 31
0.0
  0
LINE
  5
7DEF
  8
1
 10
739.0043035651197
 20
3133.2607083991588
 30
0.0
 11
1256.5691844457999
 21
3133.2607083991588
 31
0.0
  0
LINE
  5
7DF0
  8
1
 10
875.56918444580288
 20
3135.2607083991588
 30
0.0
 11
1155.5691844458011
 21
3135.2607083991588
 31
0.0
  0
LINE
  5
7DF1
  8
2
 10
715.53792289843648
 20
3015.2607083991588
 30
0.0
 11
1265.1683044720171
 21
3015.2607083991588
 31
0.0
  0
LINE
  5
7DF4
  8
1
 10
1175.5691844458011
 20
2432.2607083991588
 30
0.0
 11
1033.0691844458011
 21
2432.2607083991588
 31
0.0
  0
LINE
  5
7DF6
  8
1
 10
1115.5691844458011
 20
2419.2607083991588
 30
0.0
 11
385.569184445801
 21
2419.2607083991588
 31
0.0
  0
LINE
  5
7DF7
  8
1
 10
875.56918444580242
 20
2842.2607083991588
 30
0.0
 11
875.56918444580288
 21
2897.2607083991588
 31
0.0
  0
LINE
  5
7DFA
  8
1
 10
835.56918444580231
 20
2780.2607083991588
 30
0.0
 11
835.56918444580197
 21
2897.2607083991588
 31
0.0
  0
LINE
  5
7DFC
  8
1
 10
835.5691844458014
 20
2780.2607083991588
 30
0.0
 11
395.56918444580151
 21
2780.2607083991588
 31
0.0
  0
LINE
  5
7DFE
  8
1
 10
636.56918444580106
 20
2684.2607083991588
 30
0.0
 11
636.56918444580106
 21
2422.2607083991588
 31
0.0
  0
LINE
  5
7DFF
  8
1
 10
434.569184445801
 20
2684.2607083991588
 30
0.0
 11
434.569184445801
 21
2422.2607083991588
 31
0.0
  0
LINE
  5
7E00
  8
1
 10
499.06918444580111
 20
2412.2607083991588
 30
0.0
 11
572.06918444580106
 21
2412.2607083991588
 31
0.0
  0
LINE
  5
7E02
  8
1
 10
636.56918444580106
 20
2422.2607083991588
 30
0.0
 11
434.569184445801
 21
2422.2607083991588
 31
0.0
  0
LINE
  5
7E04
  8
1
 10
395.56918444580049
 20
2419.2607083991588
 30
0.0
 11
395.56918444580049
 21
2440.2607083991588
 31
0.0
  0
ARC
  5
7E05
  8
1
 10
499.06918444580111
 20
2413.2608083991599
 30
0.0
 40
1.0000999999999991
 50
180.00349999999989
 51
270.0
  0
ARC
  5
7E06
  8
1
 10
497.069184445801
 20
2421.2607083991588
 30
0.0
 40
1.0000999999999991
 50
0.0034999999999464
 51
90.0
  0
LINE
  5
7E07
  8
1
 10
498.069184445801
 20
2413.2607083991588
 30
0.0
 11
498.069184445801
 21
2421.2607083991588
 31
0.0
  0
LINE
  5
7E08
  8
1
 10
572.06918444580106
 20
2412.2607083991588
 30
0.0
 11
572.06918444580106
 21
2422.2607083991588
 31
0.0
  0
LINE
  5
7E09
  8
1
 10
636.56918444580106
 20
2684.2607083991588
 30
0.0
 11
434.569184445801
 21
2684.2607083991588
 31
0.0
  0
LINE
  5
7E0A
  8
1
 10
395.56918444579969
 20
2740.2607083991588
 30
0.0
 11
395.56918444579969
 21
2780.2607083991588
 31
0.0
  0
POINT
  5
7E0B
  8
1
 10
395.56918444579969
 20
2780.2607083991588
 30
0.0
  0
LINE
  5
7E0D
  8
1
 10
855.56918444580151
 20
2432.2607083991579
 30
0.0
 11
855.56918444580151
 21
2842.2607083991588
 31
0.0
  0
LINE
  5
7E16
  8
1
 10
739.0043035651197
 20
2897.2607083991588
 30
0.0
 11
739.0043035651197
 21
3133.2607083991588
 31
0.0
  0
LINE
  5
7E17
  8
1
 10
835.5691844458014
 20
3180.2607083991588
 30
0.0
 11
875.56918444580322
 21
3180.2607083991588
 31
0.0
  0
LINE
  5
7E18
  8
1
 10
835.5691844458014
 20
3133.2607083991588
 30
0.0
 11
835.5691844458014
 21
3180.2607083991588
 31
0.0
  0
POINT
  5
7E19
  8
1
 10
835.5691844458014
 20
3180.2607083991588
 30
0.0
  0
LINE
  5
7E1A
  8
1
 10
875.56918444580288
 20
3133.2607083991588
 30
0.0
 11
875.56918444580322
 21
3180.2607083991579
 31
0.0
  0
LINE
  5
7E1B
  8
1
 10
1256.5691844457999
 20
2870.2607083991579
 30
0.0
 11
1256.5691844457999
 21
3160.2607083991588
 31
0.0
  0
LINE
  5
7E1C
  8
1
 10
1259.5691844457999
 20
2870.2607083991579
 30
0.0
 11
1259.5691844457999
 21
3160.2607083991588
 31
0.0
  0
LINE
  5
7E1E
  8
1
 10
1155.569184445802
 20
2897.2607083991602
 30
0.0
 11
1155.569184445802
 21
2842.2607083991588
 31
0.0
  0
LINE
  5
7E1F
  8
1
 10
1175.5691844458011
 20
2432.2607083991588
 30
0.0
 11
1175.5691844458011
 21
2842.2607083991588
 31
0.0
  0
LINE
  5
7E2A
  8
1
 10
1256.5691844457999
 20
2870.2607083991579
 30
0.0
 11
1259.5691844457999
 21
2870.2607083991579
 31
0.0
  0
LINE
  5
7E2B
  8
1
 10
1155.5691844458011
 20
3180.2607083991588
 30
0.0
 11
1195.5691844458011
 21
3180.2607083991588
 31
0.0
  0
LINE
  5
7E2C
  8
1
 10
1155.5691844458011
 20
3180.2607083991588
 30
0.0
 11
1155.5691844458011
 21
3133.2607083991588
 31
0.0
  0
LINE
  5
7E2D
  8
1
 10
1195.5691844458011
 20
3180.2607083991588
 30
0.0
 11
1195.5691844458011
 21
3133.2607083991588
 31
0.0
  0
LINE
  5
7E2E
  8
1
 10
1256.5691844457999
 20
3160.2607083991588
 30
0.0
 11
1259.5691844457999
 21
3160.2607083991579
 31
0.0
  0
POINT
  5
7E2F
  8
1
 10
1195.5691844458011
 20
3180.2607083991588
 30
0.0
  0
POINT
  5
7E30
  8
1
 10
1195.5691844458011
 20
3180.2607083991588
 30
0.0
  0
DIMENSION
  5
7E31
  8
3
  2
*D6
 10
2811.925162830476
 20
1467.6648772601111
 30
0.0
 11
2811.9251628304751
 21
1625.1648772601111
 31
0.0
 70
   128
 13
2683.2539793039632
 23
1782.6648772601111
 33
0.0
 14
2683.2539793039632
 24
1467.6648772601111
 34
0.0
 50
90.0
1001
ACAD
1000
DSTYLE
1002
{
1070
   287
1070
     3
1070
     3
1000
φ<>
1070
    40
1040
15.0
1070
   143
1040
0.039
1070
   172
1070
     1
1070
   271
1070
     0
1070
   279
1070
     0
1070
   288
1070
     1
1002
}
  0
LINE
  5
7E32
  8
1
 10
2657.2539793039641
 20
1622.7760469351549
 30
0.0
 11
2657.2539793039641
 21
1389.205973032281
 31
0.0
  0
LINE
  5
7E33
  8
1
 10
2417.2539793039632
 20
1622.7760469351549
 30
0.0
 11
2417.2539793039632
 21
1389.205973032281
 31
0.0
  0
LINE
  5
7E34
  8
1
 10
2655.2539793039641
 20
1622.7760469351549
 30
0.0
 11
2655.2539793039632
 21
1389.205973032281
 31
0.0
  0
LINE
  5
7E35
  8
1
 10
2419.2539793039632
 20
1622.7760469351549
 30
0.0
 11
2419.2539793039632
 21
1389.205973032281
 31
0.0
  0
LINE
  5
7E36
  8
1
 10
2661.2539793039632
 20
1622.7760469351549
 30
0.0
 11
2661.2539793039632
 21
1460.6648772601111
 31
0.0
  0
LINE
  5
7E37
  8
1
 10
2658.2539793039632
 20
1442.6648772601111
 30
0.0
 11
2658.2539793039632
 21
1622.7760469351549
 31
0.0
  0
LINE
  5
7E38
  8
1
 10
2683.2539793039632
 20
1467.6648772601111
 30
0.0
 11
2683.2539793039632
 21
1783.6649040243369
 31
0.0
  0
LINE
  5
7E39
  8
2
 10
2537.2539793039632
 20
2064.11567468463
 30
0.0
 11
2537.2539793039632
 21
1310.1648772601111
 31
0.0
  0
LINE
  5
7E3B
  8
1
 10
2702.2539793039618
 20
1385.16487726011
 30
0.0
 11
2702.2539793039618
 21
1310.16487726011
 31
0.0
  0
LINE
  5
7E3D
  8
1
 10
2417.2539793039632
 20
1399.205973032281
 30
0.0
 11
2655.2539793039632
 21
1399.205973032281
 31
0.0
  0
POLYLINE
  5
7E3E
  8
1
 66
     1
 10
0.0
 20
0.0
 30
0.0
 70
     1
  0
VERTEX
  5
8787
  8
1
 10
2417.2539793039632
 20
1385.2059730322831
 30
0.0
  0
VERTEX
  5
8788
  8
1
 10
2417.2539793039632
 20
1425.2059730322831
 30
0.0
  0
VERTEX
  5
8789
  8
1
 10
2415.2539793039632
 20
1425.2059730322831
 30
0.0
 42
0.4142135623730951
  0
VERTEX
  5
878A
  8
1
 10
2412.2539793039632
 20
1422.2059730322831
 30
0.0
  0
VERTEX
  5
878B
  8
1
 10
2412.2539793039632
 20
1394.7059730322831
 30
0.0
 42
-0.4142135623730951
  0
VERTEX
  5
878C
  8
1
 10
2407.7539793039632
 20
1390.2059730322831
 30
0.0
  0
VERTEX
  5
878D
  8
1
 10
2380.2539793039632
 20
1390.2059730322831
 30
0.0
 42
0.4142135623730951
  0
VERTEX
  5
878E
  8
1
 10
2377.2539793039632
 20
1387.2059730322831
 30
0.0
  0
VERTEX
  5
878F
  8
1
 10
2377.2539793039632
 20
1385.2059730322831
 30
0.0
  0
SEQEND
  5
8790
  8
1
  0
LINE
  5
7E49
  8
1
 10
2417.2539793039632
 20
1389.205973032281
 30
0.0
 11
2419.2539793039632
 21
1389.205973032281
 31
0.0
  0
LINE
  5
7E4A
  8
1
 10
2367.2539793039632
 20
1528.3648772601109
 30
0.0
 11
2417.2539793039632
 21
1528.3648772601109
 31
0.0
  0
LINE
  5
7E4B
  8
1
 10
2367.2539793039632
 20
1522.3648772601109
 30
0.0
 11
2417.2539793039632
 21
1522.3648772601109
 31
0.0
  0
LINE
  5
7E4C
  8
1
 10
2367.2539793039632
 20
1522.3648772601109
 30
0.0
 11
2367.2539793039632
 21
1527.064877260111
 31
0.0
  0
LINE
  5
7E4D
  8
1
 10
2367.2539793039632
 20
1528.3648772601109
 30
0.0
 11
2367.2539793039632
 21
1522.3648772601109
 31
0.0
  0
POLYLINE
  5
7E4E
  8
1
 66
     1
 10
0.0
 20
0.0
 30
0.0
  0
VERTEX
  5
8791
  8
1
 10
2657.2539793039632
 20
1400.2059730322831
 30
0.0
  0
VERTEX
  5
8792
  8
1
 10
2657.2539793039632
 20
1425.2059730322831
 30
0.0
  0
VERTEX
  5
8793
  8
1
 10
2659.2539793039632
 20
1425.2059730322831
 30
0.0
 42
-0.4142135623730951
  0
VERTEX
  5
8794
  8
1
 10
2662.2539793039632
 20
1422.2059730322831
 30
0.0
  0
VERTEX
  5
8795
  8
1
 10
2662.2539793039632
 20
1400.2059730322831
 30
0.0
 42
0.4142135623730951
  0
SEQEND
  5
8796
  8
1
  0
POLYLINE
  5
7E55
  8
1
 66
     1
 10
0.0
 20
0.0
 30
0.0
  0
VERTEX
  5
8797
  8
1
 10
2662.2539793039632
 20
1400.2059730322831
 30
0.0
  0
VERTEX
  5
8798
  8
1
 10
2662.2539793039632
 20
1394.7059730322831
 30
0.0
 42
0.4142135623730951
  0
VERTEX
  5
8799
  8
1
 10
2666.7539793039632
 20
1390.2059730322831
 30
0.0
  0
VERTEX
  5
879A
  8
1
 10
2694.2539793039632
 20
1390.2059730322831
 30
0.0
 42
-0.4142135623730951
  0
VERTEX
  5
879B
  8
1
 10
2697.2539793039632
 20
1387.2059730322831
 30
0.0
  0
VERTEX
  5
879C
  8
1
 10
2697.2539793039632
 20
1385.2059730322831
 30
0.0
  0
VERTEX
  5
879D
  8
1
 10
2657.2539793039632
 20
1385.2059730322831
 30
0.0
  0
SEQEND
  5
879E
  8
1
  0
POLYLINE
  5
7E5E
  8
1
 66
     1
 10
0.0
 20
0.0
 30
0.0
  0
VERTEX
  5
879F
  8
1
 10
2657.2539793039632
 20
1385.2059730322831
 30
0.0
  0
VERTEX
  5
87A0
  8
1
 10
2657.2539793039632
 20
1400.2059730322831
 30
0.0
  0
SEQEND
  5
87A1
  8
1
  0
LINE
  5
7E62
  8
1
 10
2655.2539793039632
 20
1389.205973032281
 30
0.0
 11
2657.2539793039641
 21
1389.205973032281
 31
0.0
  0
ARC
  5
7E63
  8
1
 10
2659.2539793039632
 20
1444.6648772601111
 30
0.0
 40
2.0
 50
270.0
 51
0.0
  0
ARC
  5
7E64
  8
1
 10
2665.2539793039632
 20
1460.6648772601111
 30
0.0
 40
4.0
 50
90.0
 51
180.0
  0
LINE
  5
7E65
  8
1
 10
2659.2539793039632
 20
1442.6648772601111
 30
0.0
 11
2658.2539793039632
 21
1442.6648772601111
 31
0.0
  0
LINE
  5
7E66
  8
1
 10
2661.2539793039632
 20
1460.6648772601111
 30
0.0
 11
2661.2539793039632
 21
1444.6648772601111
 31
0.0
  0
LINE
  5
7E67
  8
1
 10
2681.2539793039632
 20
1464.6648772601111
 30
0.0
 11
2665.2539793039632
 21
1464.6648772601111
 31
0.0
  0
ARC
  5
7E68
  8
1
 10
2681.2539793039632
 20
1466.6648772601111
 30
0.0
 40
2.0
 50
270.0
 51
0.0
  0
LINE
  5
7E69
  8
1
 10
2683.2539793039632
 20
1467.6648772601111
 30
0.0
 11
2683.2539793039632
 21
1466.6648772601111
 31
0.0
  0
DIMENSION
  5
7E6B
  8
3
  2
*D7
 10
2655.2539793039632
 20
2058.2207112976198
 30
0.0
 11
2537.2539793039632
 21
2095.7207112976198
 31
0.0
 70
     0
 13
2419.2539793039632
 23
1977.7760469351549
 33
0.0
 14
2655.2539793039632
 24
1977.7760469351549
 34
0.0
1001
ACAD
1000
DSTYLE
1002
{
1070
   287
1070
     3
1070
    40
1040
15.0
1070
   143
1040
0.039
1070
   172
1070
     1
1070
   271
1070
     0
1070
   279
1070
     0
1070
   288
1070
     1
1002
}
  0
LINE
  5
7E6C
  8
1
 10
2419.2539793039632
 20
1977.7760469351549
 30
0.0
 11
2655.2539793039632
 21
1647.7760469351549
 31
0.0
  0
LINE
  5
7E6D
  8
1
 10
2657.2539793039632
 20
1977.7760469351549
 30
0.0
 11
2419.2539793039632
 21
1647.7760469351549
 31
0.0
  0
LINE
  5
7E6E
  8
1
 10
2419.2539793039632
 20
1977.7760469351549
 30
0.0
 11
2419.2539793039632
 21
1647.7760469351549
 31
0.0
  0
LINE
  5
7E6F
  8
1
 10
2655.2539793039632
 20
1977.7760469351549
 30
0.0
 11
2655.2539793039632
 21
1647.7760469351549
 31
0.0
  0
LINE
  5
7E70
  8
1
 10
2417.2539793039632
 20
1977.7760469351549
 30
0.0
 11
2417.2539793039632
 21
1647.7760469351549
 31
0.0
  0
LINE
  5
7E71
  8
1
 10
2657.2539793039632
 20
1977.7760469351549
 30
0.0
 11
2657.2539793039632
 21
1647.7760469351549
 31
0.0
  0
LINE
  5
7E72
  8
1
 10
2682.2539793039632
 20
2002.7760469351549
 30
0.0
 11
2682.2539793039632
 21
1622.7760469351549
 31
0.0
  0
LINE
  5
7E73
  8
1
 10
2392.2539793039632
 20
2002.7760469351549
 30
0.0
 11
2392.2539793039632
 21
1622.7760469351549
 31
0.0
  0
LINE
  5
7E74
  8
1
 10
2417.2539793039632
 20
1647.7760469351549
 30
0.0
 11
2657.2539793039632
 21
1647.7760469351549
 31
0.0
  0
LINE
  5
7E75
  8
1
 10
2392.2539793039632
 20
1622.7760469351549
 30
0.0
 11
2682.2539793039632
 21
1622.7760469351549
 31
0.0
  0
LINE
  5
7E76
  8
1
 10
2683.2539793039632
 20
1783.6649040243369
 30
0.0
 11
2682.2539793039632
 21
1783.6649040243369
 31
0.0
  0
LINE
  5
7E77
  8
1
 10
2417.2539793039632
 20
1977.7760469351549
 30
0.0
 11
2657.2539793039632
 21
1977.7760469351549
 31
0.0
  0
LINE
  5
7E78
  8
1
 10
2392.2539793039632
 20
2002.7760469351549
 30
0.0
 11
2682.2539793039632
 21
2002.7760469351549
 31
0.0
  0
LINE
  5
8083
  8
4
 10
2775.0
 20
750.0
 30
0.0
 11
2775.0
 21
450.0
 31
0.0
  0
LINE
  5
8084
  8
4
 10
1725.0
 20
750.0
 30
0.0
 11
1725.0
 21
450.0
 31
0.0
  0
LINE
  5
8085
  8
4
 10
975.0
 20
750.0
 30
0.0
 11
975.0
 21
450.0
 31
0.0
  0
LINE
  5
8088
  8
4
 10
975.0
 20
450.0
 30
0.0
 11
2775.0
 21
450.0
 31
0.0
  0
LINE
  5
8089
  8
4
 10
975.0
 20
600.0
 30
0.0
 11
2775.0
 21
600.0
 31
0.0
  0
TEXT
  5
808A
  8
4
 10
1032.753121270352
 20
647.31453879991932
 30
0.0
 40
75.0
  1
機器名称
  0
TEXT
  5
808B
  8
4
 10
1029.3871590371959
 20
482.46773509801642
 30
0.0
 40
75.0
  1
機器型番
  0
TEXT
  5
808C
  8
4
 10
1733.8115101329511
 20
634.0913930483091
 30
0.0
 40
67.5
  1
ミツヤ多翼送風機
  0
TEXT
  5
808D
  8
4
 10
1779.9817433782209
 20
475.739376419915
 30
0.0
 40
75.0
  1
MF#2-1
  0
TEXT
  5
808F
  8
4
 10
1122.000583055938
 20
3575.1432619987731
 30
0.0
 40
80.999999999999986
  1
床置ベット
  0
TEXT
  5
8090
  8
4
 10
444.25138999416959
 20
3800.8214642989469
 30
0.0
 40
108.0
  1
遠心式片吸込片持多翼ファン
  0
LINE
  5
8091
  8
4
 10
375.0
 20
3704.1131313972069
 30
0.0
 11
2775.0
 21
3704.1131313972069
 31
0.0
  0
LINE
  5
8092
  8
4
 10
375.0
 20
4004.1131313972069
 30
0.0
 11
2775.0
 21
4004.1131313972069
 31
0.0
  0
LINE
  5
8093
  8
4
 10
975.0
 20
750.0
 30
0.0
 11
2775.0
 21
750.0
 31
0.0
  0
LINE
  5
8094
  8
4
 10
375.0
 20
4004.1131313972069
 30
0.0
 11
375.0
 21
3704.1131313972069
 31
0.0
  0
TEXT
  5
8095
  8
4
 10
468.21233469188508
 20
3573.4792163195152
 30
0.0
 40
80.999999999999986
  1
右回転右横向
  0
TEXT
  5
8096
  8
4
 10
2203.4543388739339
 20
4059.0916222429628
 30
0.0
 40
84.000000000000014
  1
No.
  0
TEXT
  5
8097
  8
4
 10
1966.944093900019
 20
3575.1432619987731
 30
0.0
 40
80.999999999999986
  1
縮尺：1/15
  0
LINE
  5
8098
  8
4
 10
2775.0
 20
4004.1131313972069
 30
0.0
 11
2775.0
 21
3704.1131313972069
 31
0.0
  0
LINE
  5
8099
  8
4
 10
3150.0
 20
4425.0
 30
0.0
 11
3150.0
 21
4425.0
 31
0.0
  0
LINE
  5
809A
  8
4
 10
2160.9261335397969
 20
4021.895374688102
 30
0.0
 11
2160.9261335397969
 21
4179.9783923246277
 31
0.0
  0
LINE
  5
809B
  8
4
 10
2160.9261335397969
 20
4179.9783923246277
 30
0.0
 11
2775.0
 21
4179.9783923246277
 31
0.0
  0
LINE
  5
809C
  8
4
 10
2775.0
 20
4179.9783923246277
 30
0.0
 11
2775.0
 21
4021.895374688102
 31
0.0
  0
LINE
  5
809D
  8
4
 10
2775.0
 20
4021.895374688102
 30
0.0
 11
2160.9261335397969
 21
4021.895374688102
 31
0.0
  0
LINE
  5
809E
  8
4
 10
0.0
 20
0.0
 30
0.0
 11
0.0
 21
4425.0
 31
0.0
  0
LINE
  5
809F
  8
4
 10
0.0
 20
4425.0
 30
0.0
 11
3150.0
 21
4425.0
 31
0.0
  0
LINE
  5
80A0
  8
4
 10
3150.0
 20
4425.0
 30
0.0
 11
3150.0
 21
0.0
 31
0.0
  0
LINE
  5
80A1
  8
4
 10
3150.0
 20
0.0
 30
0.0
 11
0.0
 21
0.0
 31
0.0
  0
DIMENSION
  5
85A3
  8
3
  2
*D9
 10
1849.253979303963
 20
2185.1718006459259
 30
0.0
 11
2238.9214845120769
 21
2185.1718006459259
 31
0.0
 70
   128
  1
MAX\P760
 13
2537.2539793039632
 23
2127.3266878674222
 33
0.0
 14
1849.253979303963
 24
1725.1648772601111
 34
0.0
1001
ACAD
1000
DSTYLE
1002
{
1070
   287
1070
     3
1070
    40
1040
15.0
1070
   143
1040
0.039
1070
   172
1070
     1
1070
   271
1070
     0
1070
   279
1070
     0
1070
   288
1070
     1
1002
}
  0
LINE
  5
85C7
  8
1
 10
835.5691844458014
 20
3180.2607083991588
 30
0.0
 11
1195.5691844458011
 21
3180.2607083991588
 31
0.0
  0
LINE
  5
85CA
  8
1
 10
395.56918444580151
 20
2780.2607083991588
 30
0.0
 11
395.5691844458014
 21
2400.2607083991588
 31
0.0
  0
DIMENSION
  5
85DC
  8
3
  2
*D10
 10
280.33299321772603
 20
2400.2607083991588
 30
0.0
 11
280.33299321772569
 21
2582.473992138378
 31
0.0
 70
   128
 13
395.56918444580151
 23
2780.2607083991588
 33
0.0
 14
395.56918444580151
 24
2400.2607083991588
 34
0.0
 50
90.0
1001
ACAD
1000
DSTYLE
1002
{
1070
   287
1070
     3
1070
    40
1040
15.0
1070
   143
1040
0.039
1070
   172
1070
     1
1070
   271
1070
     0
1070
   279
1070
     0
1070
   288
1070
     1
1002
}
  0
DIMENSION
  5
85E9
  8
3
  2
*D11
 10
835.5691844458014
 20
3282.269704866711
 30
0.0
 11
618.68919347426527
 21
3282.269704866711
 31
0.0
 70
   128
 13
395.56918444579958
 23
2780.2607083991588
 33
0.0
 14
835.5691844458014
 24
3180.2607083991588
 34
0.0
1001
ACAD
1000
DSTYLE
1002
{
1070
   287
1070
     3
1070
    40
1040
15.0
1070
   143
1040
0.039
1070
   172
1070
     1
1070
   271
1070
     0
1070
   279
1070
     0
1070
   288
1070
     1
1002
}
  0
DIMENSION
  5
85F5
  8
3
  2
*D12
 10
1195.5691844458011
 20
3282.269704866711
 30
0.0
 11
1015.5691844458011
 21
3319.769704866711
 31
0.0
 70
     0
 13
835.5691844458014
 23
3180.2607083991588
 33
0.0
 14
1195.5691844458011
 24
3180.2607083991588
 34
0.0
1001
ACAD
1000
DSTYLE
1002
{
1070
   287
1070
     4
1070
    40
1040
15.0
1070
    75
1070
     1
1070
   143
1040
0.039
1070
   172
1070
     1
1070
   271
1070
     0
1070
   279
1070
     1
1070
   288
1070
     1
1002
}
  0
DIMENSION
  5
8602
  8
3
  2
*D13
 10
1385.314428437141
 20
2400.2607083991588
 30
0.0
 11
1385.314428437141
 21
2840.1690388647112
 31
0.0
 70
   128
 13
1195.5691844458011
 23
3180.2607083991588
 33
0.0
 14
1195.5691844457999
 24
2400.2607083991588
 34
0.0
 50
90.0
1001
ACAD
1000
DSTYLE
1002
{
1070
   287
1070
     3
1070
    40
1040
15.0
1070
   143
1040
0.039
1070
   172
1070
     1
1070
   271
1070
     0
1070
   279
1070
     0
1070
   288
1070
     1
1002
}
  0
LINE
  5
8670
  8
1
 10
998.0691844458014
 20
2842.2607083991588
 30
0.0
 11
855.56918444580106
 21
2842.2607083991588
 31
0.0
  0
LINE
  5
8671
  8
1
 10
998.0691844458014
 20
2432.2607083991588
 30
0.0
 11
855.56918444580151
 21
2432.2607083991588
 31
0.0
  0
LINE
  5
8672
  8
1
 10
2206.2539793039632
 20
1607.6648772601111
 30
0.0
 11
2206.2539793039632
 21
1571.564877260111
 31
0.0
  0
DIMENSION
  5
868B
  8
3
  2
*D14
 10
2658.2539793039632
 20
2185.1718006459259
 30
0.0
 11
2597.7539793039632
 21
2221.742319073986
 31
0.0
 70
   128
 13
2537.2539793039632
 23
2127.3266878674222
 33
0.0
 14
2658.2539793039632
 24
1622.7760469351549
 34
0.0
1001
ACAD
1000
DSTYLE
1002
{
1070
   288
1070
     1
1070
   172
1070
     1
1070
    75
1070
     1
1070
    40
1040
15.0
1070
   271
1070
     0
1070
   143
1040
0.039
1002
}
  0
DIMENSION
  5
86D9
  8
3
  2
*D15
 10
395.56918444580151
 20
2164.8567439602748
 30
0.0
 11
828.06918444580151
 21
2202.3567439602762
 31
0.0
 70
     0
 13
1260.5691844458011
 23
2002.7760469351549
 33
0.0
 14
395.56918444580151
 24
1385.1648772601111
 34
0.0
1001
ACAD
1000
DSTYLE
1002
{
1070
   287
1070
     3
1070
    40
1040
15.0
1070
   143
1040
0.039
1070
   172
1070
     1
1070
   271
1070
     0
1070
   279
1070
     0
1002
}
  0
DIMENSION
  5
86E6
  8
3
  2
*D16
 10
1015.5691844458011
 20
1190.6811554072681
 30
0.0
 11
705.56918444580128
 21
1228.1811554072681
 31
0.0
 70
     0
 13
395.569184445801
 23
1310.1648772601111
 33
0.0
 14
1015.5691844458011
 24
1310.1648772601111
 34
0.0
1001
ACAD
1000
DSTYLE
1002
{
1070
   287
1070
     3
1070
    40
1040
15.0
1070
   143
1040
0.039
1070
   172
1070
     1
1070
   271
1070
     0
1070
   279
1070
     0
1002
}
  0
DIMENSION
  5
86F5
  8
3
  2
*D17
 10
1195.5691844458011
 20
1190.6811554072681
 30
0.0
 11
1105.5691844458011
 21
1228.1811554072681
 31
0.0
 70
     0
 13
1015.5691844458011
 23
1310.1648772601111
 33
0.0
 14
1195.5691844458011
 24
1310.1648772601111
 34
0.0
1001
ACAD
1000
DSTYLE
1002
{
1070
   287
1070
     3
1070
    40
1040
15.0
1070
   143
1040
0.039
1070
   172
1070
     1
1070
   271
1070
     0
1070
   279
1070
     0
1002
}
  0
DIMENSION
  5
8702
  8
3
  2
*D18
 10
2537.2539793039632
 20
1190.6811554072681
 30
0.0
 11
2229.7539793039632
 21
1228.1811554072681
 31
0.0
 70
     0
 13
1922.253979303963
 23
1310.16487726011
 33
0.0
 14
2537.2539793039632
 24
1310.1648772601111
 34
0.0
1001
ACAD
1000
DSTYLE
1002
{
1070
   287
1070
     3
1070
    40
1040
15.0
1070
   143
1040
0.039
1070
   172
1070
     1
1070
   271
1070
     0
1070
   279
1070
     0
1002
}
  0
DIMENSION
  5
8711
  8
3
  2
*D19
 10
2702.2539793039618
 20
1190.6811554072681
 30
0.0
 11
2619.7539793039632
 21
1228.1811554072681
 31
0.0
 70
     0
 13
2537.2539793039632
 23
1310.1648772601111
 33
0.0
 14
2702.2539793039618
 24
1310.16487726011
 34
0.0
1001
ACAD
1000
DSTYLE
1002
{
1070
   287
1070
     3
1070
    40
1040
15.0
1070
   143
1040
0.039
1070
   172
1070
     1
1070
   271
1070
     0
1070
   279
1070
     0
1002
}
  0
ENDSEC
  0
EOF
