  0
SECTION
  2
HEADER
  9
$ACADVER
  1
AC1009
  9
$INSBASE
 10
0.0
 20
0.0
 30
0.0
  9
$EXTMIN
 10
-5665.2949403355578
 20
96.092404061039815
 30
0.0
  9
$EXTMAX
 10
-3565.2949403355578
 20
3046.0924040610389
 30
0.0
  9
$LIMMIN
 10
0.0
 20
0.0
  9
$LIMMAX
 10
297.0
 20
210.0
  9
$ORTHOMODE
 70
     0
  9
$REGENMODE
 70
     1
  9
$FILLMODE
 70
     1
  9
$QTEXTMODE
 70
     0
  9
$MIRRTEXT
 70
     0
  9
$DRAGMODE
 70
     2
  9
$LTSCALE
 40
50.0
  9
$OSMODE
 70
   545
  9
$ATTMODE
 70
     1
  9
$TEXTSIZE
 40
3.5
  9
$TRACEWID
 40
0.05
  9
$TEXTSTYLE
  7
STANDARD
  9
$CLAYER
  8
SP
  9
$CELTYPE
  6
BYLAYER
  9
$CECOLOR
 62
   256
  9
$DIMSCALE
 40
10.0
  9
$DIMASZ
 40
2.5
  9
$DIMEXO
 40
1.0
  9
$DIMDLI
 40
7.0
  9
$DIMRND
 40
0.0
  9
$DIMDLE
 40
0.0
  9
$DIMEXE
 40
1.0
  9
$DIMTP
 40
0.0
  9
$DIMTM
 40
0.0
  9
$DIMTXT
 40
3.0
  9
$DIMCEN
 40
0.0
  9
$DIMTSZ
 40
0.0
  9
$DIMTOL
 70
     0
  9
$DIMLIM
 70
     0
  9
$DIMTIH
 70
     0
  9
$DIMTOH
 70
     0
  9
$DIMSE1
 70
     0
  9
$DIMSE2
 70
     0
  9
$DIMTAD
 70
     1
  9
$DIMZIN
 70
     8
  9
$DIMBLK
  1

  9
$DIMASO
 70
     1
  9
$DIMSHO
 70
     1
  9
$DIMPOST
  1

  9
$DIMAPOST
  1

  9
$DIMALT
 70
     0
  9
$DIMALTD
 70
     2
  9
$DIMALTF
 40
0.03937
  9
$DIMLFAC
 40
1.0
  9
$DIMTOFL
 70
     1
  9
$DIMTVP
 40
0.0
  9
$DIMTIX
 70
     0
  9
$DIMSOXD
 70
     0
  9
$DIMSAH
 70
     1
  9
$DIMBLK1
  1
OPEN
  9
$DIMBLK2
  1
OPEN
  9
$DIMSTYLE
  2
GOD
  9
$DIMCLRD
 70
   256
  9
$DIMCLRE
 70
   256
  9
$DIMCLRT
 70
   256
  9
$DIMTFAC
 40
1.0
  9
$DIMGAP
 40
1.0
  9
$LUNITS
 70
     2
  9
$LUPREC
 70
     3
  9
$SKETCHINC
 40
0.1
  9
$FILLETRAD
 40
0.0
  9
$AUNITS
 70
     0
  9
$AUPREC
 70
     2
  9
$MENU
  1
acad
  9
$ELEVATION
 40
0.0
  9
$PELEVATION
 40
0.0
  9
$THICKNESS
 40
0.0
  9
$LIMCHECK
 70
     0
  9
$BLIPMODE
 70
     0
  9
$CHAMFERA
 40
0.0
  9
$CHAMFERB
 40
0.0
  9
$SKPOLY
 70
     0
  9
$TDCREATE
 40
2454940.4140922911
  9
$TDUPDATE
 40
2454953.827165613
  9
$TDINDWG
 40
0.0812563542
  9
$TDUSRTIMER
 40
0.0812563542
  9
$USRTIMER
 70
     1
  9
$ANGBASE
 50
0.0
  9
$ANGDIR
 70
     0
  9
$PDMODE
 70
     0
  9
$PDSIZE
 40
1.0
  9
$PLINEWID
 40
0.0
  9
$COORDS
 70
     2
  9
$SPLFRAME
 70
     0
  9
$SPLINETYPE
 70
     6
  9
$SPLINESEGS
 70
     8
  9
$ATTDIA
 70
     0
  9
$ATTREQ
 70
     1
  9
$HANDLING
 70
 22529
  9
$HANDSEED
  5
7C5A
  9
$SURFTAB1
 70
     6
  9
$SURFTAB2
 70
     6
  9
$SURFTYPE
 70
     6
  9
$SURFU
 70
     6
  9
$SURFV
 70
     6
  9
$UCSNAME
  2

  9
$UCSORG
 10
0.0
 20
0.0
 30
0.0
  9
$UCSXDIR
 10
1.0
 20
0.0
 30
0.0
  9
$UCSYDIR
 10
0.0
 20
1.0
 30
0.0
  9
$PUCSNAME
  2

  9
$PUCSORG
 10
0.0
 20
0.0
 30
0.0
  9
$PUCSXDIR
 10
1.0
 20
0.0
 30
0.0
  9
$PUCSYDIR
 10
0.0
 20
1.0
 30
0.0
  9
$USERI1
 70
     0
  9
$USERI2
 70
     0
  9
$USERI3
 70
     0
  9
$USERI4
 70
     0
  9
$USERI5
 70
     0
  9
$USERR1
 40
0.0
  9
$USERR2
 40
0.0
  9
$USERR3
 40
0.0
  9
$USERR4
 40
0.0
  9
$USERR5
 40
0.0
  9
$WORLDVIEW
 70
     1
  9
$SHADEDGE
 70
     3
  9
$SHADEDIF
 70
    70
  9
$TILEMODE
 70
     1
  9
$MAXACTVP
 70
    16
  9
$PLIMCHECK
 70
     0
  9
$PEXTMIN
 10
1.0000000000000000E+020
 20
1.0000000000000000E+020
 30
1.0000000000000000E+020
  9
$PEXTMAX
 10
-1.0000000000000000E+020
 20
-1.0000000000000000E+020
 30
-1.0000000000000000E+020
  9
$PLIMMIN
 10
0.0
 20
0.0
  9
$PLIMMAX
 10
12.0
 20
9.0
  9
$UNITMODE
 70
     0
  9
$VISRETAIN
 70
     0
  9
$PLINEGEN
 70
     0
  9
$PSLTSCALE
 70
     0
  0
ENDSEC
  0
SECTION
  2
TABLES
  0
TABLE
  2
VPORT
 70
     2
  0
VPORT
  2
*ACTIVE
 70
     0
 10
0.0
 20
0.0
 11
1.0
 21
1.0
 12
-4428.7535810215477
 22
1571.0844409737331
 13
0.0
 23
0.0
 14
5.0
 24
5.0
 15
0.0
 25
0.0
 16
0.0
 26
0.0
 36
1.0
 17
0.0
 27
0.0
 37
0.0
 40
2974.0691971030319
 41
1.6307901907356941
 42
50.0
 43
0.0
 44
0.0
 50
0.0
 51
0.0
 71
     0
 72
   100
 73
     1
 74
     0
 75
     0
 76
     0
 77
     0
 78
     0
  0
ENDTAB
  0
TABLE
  2
LTYPE
 70
     4
  0
LTYPE
  2
CONTINUOUS
 70
     0
  3
Solid line
 72
    65
 73
     0
 40
0.0
  0
LTYPE
  2
CENTER
 70
     0
  3
____ _ ____ _ ____ _ ____ _ ____ _ ____ _ ____ 
 72
    65
 73
     4
 40
2.0
 49
1.25
 49
-0.25
 49
0.25
 49
-0.25
  0
LTYPE
  2
HIDDEN
 70
     0
  3
__ __ __ __ __ __ __ __ __ __ __ __ __ __ __ __
 72
    65
 73
     2
 40
0.375
 49
0.25
 49
-0.125
  0
LTYPE
  2
PHANTOM
 70
     0
  3
______  __  __  ______  __  __  ______  __  __ 
 72
    65
 73
     6
 40
2.5
 49
1.25
 49
-0.25
 49
0.25
 49
-0.25
 49
0.25
 49
-0.25
  0
ENDTAB
  0
TABLE
  2
LAYER
 70
    13
  0
LAYER
  2
0
 70
     0
 62
     7
  6
CONTINUOUS
  0
LAYER
  2
CT
 70
     0
 62
     3
  6
CENTER
  0
LAYER
  2
FUTO
 70
     0
 62
     4
  6
CONTINUOUS
  0
LAYER
  2
HOSO
 70
     0
 62
     7
  6
CONTINUOUS
  0
LAYER
  2
KL
 70
     0
 62
     7
  6
HIDDEN
  0
LAYER
  2
MOJI
 70
     0
 62
     3
  6
CONTINUOUS
  0
LAYER
  2
SL
 70
     0
 62
     1
  6
PHANTOM
  0
LAYER
  2
SP
 70
     0
 62
     2
  6
CONTINUOUS
  0
LAYER
  2
DEFPOINTS
 70
     0
 62
     7
  6
CONTINUOUS
  0
LAYER
  2
3
 70
     0
 62
     2
  6
CONTINUOUS
  0
LAYER
  2
2
 70
     0
 62
     3
  6
CENTER
  0
LAYER
  2
1
 70
     0
 62
     4
  6
CONTINUOUS
  0
LAYER
  2
4
 70
     0
 62
     7
  6
CONTINUOUS
  0
ENDTAB
  0
TABLE
  2
STYLE
 70
     2
  0
STYLE
  2
STANDARD
 70
     0
 40
0.0
 41
1.0
 50
15.0
 71
     0
 42
3.5
  3
C:\Program Files\AutoCAD LT\simplex.shx
  4
C:\Program Files\AutoCAD LT\extfont.shx
  0
STYLE
  2
SUNPOU
 70
     0
 40
0.0
 41
1.0
 50
15.0
 71
     0
 42
30.0
  3
simplex.shx
  4
extfont.shx
  0
ENDTAB
  0
TABLE
  2
VIEW
 70
     0
  0
ENDTAB
  0
TABLE
  2
UCS
 70
     0
  0
ENDTAB
  0
TABLE
  2
APPID
 70
     1
  0
APPID
  2
ACAD
 70
     0
  0
ENDTAB
  0
TABLE
  2
DIMSTYLE
 70
     4
  0
DIMSTYLE
  2
STANDARD
 70
     0
  3

  4

  5

  6

  7

 40
1.0
 41
0.18
 42
0.0625
 43
0.38
 44
0.18
 45
0.0
 46
0.0
 47
0.0
 48
0.0
140
0.18
141
0.09
142
0.0
143
25.399999999999999
144
1.0
145
0.0
146
1.0
147
0.09
 71
     0
 72
     0
 73
     1
 74
     1
 75
     0
 76
     0
 77
     0
 78
     0
170
     0
171
     2
172
     0
173
     0
174
     0
175
     0
176
     0
177
     0
178
     0
  0
DIMSTYLE
  2
GOD
 70
     0
  3

  4

  5

  6
OPEN
  7
OPEN
 40
10.0
 41
2.5
 42
1.0
 43
7.0
 44
1.0
 45
0.0
 46
0.0
 47
0.0
 48
0.0
140
3.0
141
0.0
142
0.0
143
0.03937
144
1.0
145
0.0
146
1.0
147
1.0
 71
     0
 72
     0
 73
     0
 74
     0
 75
     0
 76
     0
 77
     1
 78
     8
170
     0
171
     2
172
     1
173
     1
174
     0
175
     0
176
   256
177
   256
178
   256
  0
DIMSTYLE
  2
IGA
 70
     0
  3

  4

  5

  6
OPEN
  7
OPEN
 40
2.0
 41
2.0
 42
0.5
 43
10.0
 44
1.0
 45
0.0
 46
0.0
 47
1.0
 48
1.0
140
3.0
141
0.0
142
0.0
143
0.03937
144
1.0
145
0.0
146
10.0
147
1.0
 71
     0
 72
     0
 73
     0
 74
     0
 75
     0
 76
     0
 77
     1
 78
     8
170
     0
171
     2
172
     0
173
     1
174
     0
175
     0
176
     0
177
     0
178
     0
  0
DIMSTYLE
  2
MATSU
 70
     0
  3

  4

  5

  6
OPEN
  7
OPEN
 40
1.0
 41
2.0
 42
1.0
 43
10.0
 44
1.0
 45
0.0
 46
0.0
 47
0.0
 48
0.0
140
3.0
141
0.0
142
0.0
143
0.03937
144
1.0
145
0.0
146
1.0
147
0.5
 71
     0
 72
     0
 73
     0
 74
     0
 75
     0
 76
     0
 77
     1
 78
     8
170
     0
171
     2
172
     1
173
     1
174
     0
175
     0
176
   256
177
   256
178
   256
  0
ENDTAB
  0
ENDSEC
  0
SECTION
  2
BLOCKS
  0
BLOCK
  8
0
  2
$MODEL_SPACE
 70
     0
 10
0.0
 20
0.0
 30
0.0
  3
$MODEL_SPACE
  1

  0
ENDBLK
  5
1B
  8
0
  0
BLOCK
 67
     1
  8
0
  2
$PAPER_SPACE
 70
     0
 10
0.0
 20
0.0
 30
0.0
  3
$PAPER_SPACE
  1

  0
ENDBLK
  5
18
 67
     1
  8
0
  0
BLOCK
  8
0
  2
_OPEN
 70
     0
 10
0.0
 20
0.0
 30
0.0
  3
_OPEN
  1

  0
LINE
  5
1E81
  8
0
  6
BYBLOCK
 62
     0
 10
-1.0
 20
0.1666666666666666
 30
0.0
 11
0.0
 21
0.0
 31
0.0
  0
LINE
  5
1E82
  8
0
  6
BYBLOCK
 62
     0
 10
0.0
 20
0.0
 30
0.0
 11
-1.0
 21
-0.1666666666666666
 31
0.0
  0
LINE
  5
1E83
  8
0
  6
BYBLOCK
 62
     0
 10
0.0
 20
0.0
 30
0.0
 11
-1.0
 21
0.0
 31
0.0
  0
ENDBLK
  5
1E84
  8
0
  0
BLOCK
  8
0
  2
_DOT
 70
     0
 10
0.0
 20
0.0
 30
0.0
  3
_DOT
  1

  0
LINE
  5
1EC3
  8
0
  6
BYBLOCK
 62
     0
 10
0.0
 20
0.0
 30
0.0
 11
-1.0
 21
-0.0000000000000284
 31
0.0
  0
POLYLINE
  5
1EC4
  8
0
  6
BYBLOCK
 62
     0
 66
     1
 10
0.0
 20
0.0
 30
0.0
 70
     1
 40
0.1666666666666666
 41
0.1666666666666666
  0
VERTEX
  5
7C43
  8
0
  6
BYBLOCK
 62
     0
 10
-0.0833333333333286
 20
-0.0000000000000284
 30
0.0
 42
1.0
  0
VERTEX
  5
7C44
  8
0
  6
BYBLOCK
 62
     0
 10
0.0833333333333286
 20
-0.0000000000000284
 30
0.0
 42
1.0
  0
SEQEND
  5
7C45
  8
0
  6
BYBLOCK
 62
     0
  0
ENDBLK
  5
1EB8
  8
0
  0
BLOCK
  8
0
  2
*D2
 70
     1
 10
0.0
 20
0.0
 30
0.0
  3
*D2
  1

  0
LINE
  5
5685
  8
SP
 10
-1699.9142715201349
 20
823.03013774616693
 30
0.0
 11
-1699.9142715201349
 21
683.03013774616704
 31
0.0
  0
LINE
  5
5686
  8
SP
 10
-2079.914271520136
 20
823.03013774616522
 30
0.0
 11
-2079.914271520136
 21
683.03013774616704
 31
0.0
  0
LINE
  5
5687
  8
SP
 10
-1724.9142715201349
 20
693.03013774616704
 30
0.0
 11
-2054.914271520136
 21
693.03013774616704
 31
0.0
  0
INSERT
  5
5688
  8
SP
  2
_OPEN
 10
-1699.9142715201349
 20
693.03013774616704
 30
0.0
 41
25.0
 42
25.0
 43
25.0
  0
INSERT
  5
5689
  8
SP
  2
_OPEN
 10
-2079.914271520136
 20
693.03013774616704
 30
0.0
 41
25.0
 42
25.0
 43
25.0
 50
180.0
  0
TEXT
  5
568A
  8
SP
 10
-1931.790652263745
 20
703.03013774616704
 30
0.0
 40
30.0
  1
380
 51
15.0
  0
POINT
  5
568B
  8
DEFPOINTS
 62
     0
 10
-1699.9142715201349
 20
833.03013774616716
 30
0.0
  0
POINT
  5
568C
  8
DEFPOINTS
 62
     0
 10
-2079.914271520136
 20
833.03013774616511
 30
0.0
  0
POINT
  5
568D
  8
DEFPOINTS
 62
     0
 10
-2079.914271520136
 20
693.03013774616704
 30
0.0
  0
ENDBLK
  5
568F
  8
0
  0
BLOCK
  8
0
  2
*D3
 70
     1
 10
0.0
 20
0.0
 30
0.0
  3
*D3
  1

  0
LINE
  5
5691
  8
SP
 10
-2079.914271520136
 20
823.03013774616522
 30
0.0
 11
-2079.914271520136
 21
753.03013774616522
 31
0.0
  0
LINE
  5
5692
  8
SP
 10
-1889.9142715201349
 20
797.34538072303258
 30
0.0
 11
-1889.9142715201349
 21
753.03013774616522
 31
0.0
  0
LINE
  5
5693
  8
SP
 10
-2054.914271520136
 20
763.03013774616522
 30
0.0
 11
-1914.9142715201349
 21
763.03013774616522
 31
0.0
  0
INSERT
  5
5694
  8
SP
  2
_OPEN
 10
-2079.914271520136
 20
763.03013774616522
 30
0.0
 41
25.0
 42
25.0
 43
25.0
 50
180.0
  0
INSERT
  5
5695
  8
SP
  2
_OPEN
 10
-1889.9142715201349
 20
763.03013774616522
 30
0.0
 41
25.0
 42
25.0
 43
25.0
  0
TEXT
  5
5696
  8
SP
 10
-2026.421609050605
 20
773.03013774616522
 30
0.0
 40
30.0
  1
190
 51
15.0
  0
POINT
  5
5697
  8
DEFPOINTS
 62
     0
 10
-2079.914271520136
 20
833.03013774616511
 30
0.0
  0
POINT
  5
5698
  8
DEFPOINTS
 62
     0
 10
-1889.9142715201349
 20
807.34538072303246
 30
0.0
  0
POINT
  5
5699
  8
DEFPOINTS
 62
     0
 10
-1889.9142715201349
 20
763.03013774616522
 30
0.0
  0
ENDBLK
  5
569B
  8
0
  0
BLOCK
  8
0
  2
*D4
 70
     1
 10
0.0
 20
0.0
 30
0.0
  3
*D4
  1

  0
LINE
  5
569D
  8
SP
 10
-1889.9142715201349
 20
797.34538072303258
 30
0.0
 11
-1889.9142715201349
 21
753.03013774616704
 31
0.0
  0
LINE
  5
569E
  8
SP
 10
-1699.9142715201349
 20
823.03013774616693
 30
0.0
 11
-1699.9142715201349
 21
753.03013774616704
 31
0.0
  0
LINE
  5
569F
  8
SP
 10
-1864.9142715201349
 20
763.03013774616704
 30
0.0
 11
-1724.9142715201349
 21
763.03013774616704
 31
0.0
  0
INSERT
  5
56A0
  8
SP
  2
_OPEN
 10
-1889.9142715201349
 20
763.03013774616704
 30
0.0
 41
25.0
 42
25.0
 43
25.0
 50
180.0
  0
INSERT
  5
56A1
  8
SP
  2
_OPEN
 10
-1699.9142715201349
 20
763.03013774616704
 30
0.0
 41
25.0
 42
25.0
 43
25.0
  0
TEXT
  5
56A2
  8
SP
 10
-1836.4216090506061
 20
773.03013774616704
 30
0.0
 40
30.0
  1
190
 51
15.0
  0
POINT
  5
56A3
  8
DEFPOINTS
 62
     0
 10
-1889.9142715201349
 20
807.34538072303246
 30
0.0
  0
POINT
  5
56A4
  8
DEFPOINTS
 62
     0
 10
-1699.9142715201349
 20
833.03013774616716
 30
0.0
  0
POINT
  5
56A5
  8
DEFPOINTS
 62
     0
 10
-1699.9142715201349
 20
763.03013774616704
 30
0.0
  0
ENDBLK
  5
56A7
  8
0
  0
BLOCK
  8
0
  2
*D5
 70
     1
 10
0.0
 20
0.0
 30
0.0
  3
*D5
  1

  0
LINE
  5
56A9
  8
SP
 10
-2139.9142715201351
 20
1298.030137746166
 30
0.0
 11
-2139.9142715201351
 21
1368.030137746166
 31
0.0
  0
LINE
  5
56AA
  8
SP
 10
-1889.9142715201349
 20
1307.8065568904919
 30
0.0
 11
-1889.9142715201349
 21
1368.030137746166
 31
0.0
  0
LINE
  5
56AB
  8
SP
 10
-2114.9142715201351
 20
1358.030137746166
 30
0.0
 11
-1914.9142715201349
 21
1358.030137746166
 31
0.0
  0
INSERT
  5
56AC
  8
SP
  2
_OPEN
 10
-2139.9142715201351
 20
1358.030137746166
 30
0.0
 41
25.0
 42
25.0
 43
25.0
 50
180.0
  0
INSERT
  5
56AD
  8
SP
  2
_OPEN
 10
-1889.9142715201349
 20
1358.030137746166
 30
0.0
 41
25.0
 42
25.0
 43
25.0
  0
TEXT
  5
56AE
  8
SP
 10
-2056.0250831425128
 20
1368.030137746166
 30
0.0
 40
30.0
  1
250
 51
15.0
  0
POINT
  5
56AF
  8
DEFPOINTS
 62
     0
 10
-2139.9142715201351
 20
1288.030137746166
 30
0.0
  0
POINT
  5
56B0
  8
DEFPOINTS
 62
     0
 10
-1889.9142715201349
 20
1297.8065568904919
 30
0.0
  0
POINT
  5
56B1
  8
DEFPOINTS
 62
     0
 10
-1889.9142715201349
 20
1358.030137746166
 30
0.0
  0
ENDBLK
  5
56B3
  8
0
  0
BLOCK
  8
0
  2
*D6
 70
     1
 10
0.0
 20
0.0
 30
0.0
  3
*D6
  1

  0
LINE
  5
56B5
  8
SP
 10
-1889.9142715201349
 20
1307.8065568904919
 30
0.0
 11
-1889.9142715201349
 21
1368.030137746166
 31
0.0
  0
LINE
  5
56B6
  8
SP
 10
-1713.9142715201349
 20
1081.0301377461669
 30
0.0
 11
-1713.9142715201349
 21
1368.030137746166
 31
0.0
  0
LINE
  5
56B7
  8
SP
 10
-1864.9142715201349
 20
1358.030137746166
 30
0.0
 11
-1738.9142715201349
 21
1358.030137746166
 31
0.0
  0
INSERT
  5
56B8
  8
SP
  2
_OPEN
 10
-1889.9142715201349
 20
1358.030137746166
 30
0.0
 41
25.0
 42
25.0
 43
25.0
 50
180.0
  0
INSERT
  5
56B9
  8
SP
  2
_OPEN
 10
-1713.9142715201349
 20
1358.030137746166
 30
0.0
 41
25.0
 42
25.0
 43
25.0
  0
TEXT
  5
56BA
  8
SP
 10
-1842.8987156166279
 20
1368.030137746166
 30
0.0
 40
30.0
  1
176
 51
15.0
  0
POINT
  5
56BB
  8
DEFPOINTS
 62
     0
 10
-1889.9142715201349
 20
1297.8065568904919
 30
0.0
  0
POINT
  5
56BC
  8
DEFPOINTS
 62
     0
 10
-1713.9142715201349
 20
1071.0301377461669
 30
0.0
  0
POINT
  5
56BD
  8
DEFPOINTS
 62
     0
 10
-1713.9142715201349
 20
1358.030137746166
 30
0.0
  0
ENDBLK
  5
56BF
  8
0
  0
BLOCK
  8
0
  2
*D7
 70
     1
 10
0.0
 20
0.0
 30
0.0
  3
*D7
  1

  0
LINE
  5
56C1
  8
SP
 10
-2184.1007564974338
 20
1088.030137746166
 30
0.0
 11
-2249.3805561714089
 21
1088.030137746166
 31
0.0
  0
LINE
  5
56C2
  8
SP
 10
-2170.9142715201351
 20
1288.0301377461669
 30
0.0
 11
-2249.3805561714089
 21
1288.0301377461669
 31
0.0
  0
LINE
  5
56C3
  8
SP
 10
-2239.3805561714089
 20
1113.0301377461669
 30
0.0
 11
-2239.3805561714089
 21
1263.0301377461669
 31
0.0
  0
INSERT
  5
56C4
  8
SP
  2
_OPEN
 10
-2239.3805561714089
 20
1088.030137746166
 30
0.0
 41
25.0
 42
25.0
 43
25.0
 50
270.0
  0
INSERT
  5
56C5
  8
SP
  2
_OPEN
 10
-2239.3805561714089
 20
1288.0301377461669
 30
0.0
 41
25.0
 42
25.0
 43
25.0
 50
90.0
  0
TEXT
  5
56C6
  8
SP
 10
-2249.3805561714089
 20
1146.9193261237881
 30
0.0
 40
30.0
  1
200
 50
90.0
 51
15.0
  0
POINT
  5
56C7
  8
DEFPOINTS
 62
     0
 10
-2174.1007564974352
 20
1088.030137746166
 30
0.0
  0
POINT
  5
56C8
  8
DEFPOINTS
 62
     0
 10
-2160.9142715201351
 20
1288.0301377461669
 30
0.0
  0
POINT
  5
56C9
  8
DEFPOINTS
 62
     0
 10
-2239.3805561714089
 20
1288.0301377461669
 30
0.0
  0
ENDBLK
  5
56CB
  8
0
  0
BLOCK
  8
0
  2
*D8
 70
     1
 10
0.0
 20
0.0
 30
0.0
  3
*D8
  1

  0
LINE
  5
56CD
  8
SP
 10
-2184.1007564974338
 20
1088.030137746166
 30
0.0
 11
-2249.3805561714089
 21
1088.030137746166
 31
0.0
  0
LINE
  5
56CE
  8
SP
 10
-2089.914271520136
 20
833.03013774616511
 30
0.0
 11
-2249.3805561714089
 21
833.03013774616511
 31
0.0
  0
LINE
  5
56CF
  8
SP
 10
-2239.3805561714089
 20
1063.0301377461669
 30
0.0
 11
-2239.3805561714089
 21
858.03013774616511
 31
0.0
  0
INSERT
  5
56D0
  8
SP
  2
_OPEN
 10
-2239.3805561714089
 20
1088.030137746166
 30
0.0
 41
25.0
 42
25.0
 43
25.0
 50
90.0
  0
INSERT
  5
56D1
  8
SP
  2
_OPEN
 10
-2239.3805561714089
 20
833.03013774616511
 30
0.0
 41
25.0
 42
25.0
 43
25.0
 50
270.0
  0
TEXT
  5
56D2
  8
SP
 10
-2249.3805561714089
 20
919.36804271684161
 30
0.0
 40
30.0
  1
255
 50
90.0
 51
15.0
  0
POINT
  5
56D3
  8
DEFPOINTS
 62
     0
 10
-2174.1007564974352
 20
1088.030137746166
 30
0.0
  0
POINT
  5
56D4
  8
DEFPOINTS
 62
     0
 10
-2079.914271520136
 20
833.03013774616511
 30
0.0
  0
POINT
  5
56D5
  8
DEFPOINTS
 62
     0
 10
-2239.3805561714089
 20
833.03013774616511
 30
0.0
  0
ENDBLK
  5
56D7
  8
0
  0
BLOCK
  8
0
  2
A$C44EA23BE
 70
     0
 10
0.0
 20
0.0
 30
0.0
  3
A$C44EA23BE
  1

  0
DIMENSION
  5
56D9
  8
SP
  2
*D8
 10
-349.46628465127378
 20
-255.00000000000171
 30
0.0
 11
-374.46628465127378
 21
-127.50000000000119
 31
0.0
 12
1889.9142715201349
 22
-1088.030137746166
 32
0.0
  3
GOD
 13
-284.18648497729919
 23
0.0
 33
0.0
 14
-190.00000000000091
 24
-255.00000000000171
 34
0.0
 50
90.0
  0
ARC
  5
56DA
  8
FUTO
 10
-17.0
 20
-17.0
 30
0.0
 40
203.0
 50
269.572081032222
 51
0.4673217049947748
  0
ARC
  5
56DB
  8
FUTO
 10
-20.0
 20
20.0
 30
0.0
 40
240.0
 50
180.0
 51
270.39182689926031
  0
ARC
  5
56DC
  8
FUTO
 10
-17.0
 20
-17.0
 30
0.0
 40
193.0
 50
269.572081032222
 51
0.4673217049947748
  0
ARC
  5
56DD
  8
FUTO
 10
-20.0
 20
20.0
 30
0.0
 40
230.0
 50
180.0
 51
270.39182689926031
  0
LINE
  5
56DE
  8
2
 10
0.0
 20
-280.6847570231343
 30
0.0
 11
0.0
 21
209.77641914432559
 31
0.0
  0
LINE
  5
56DF
  8
1
 10
157.69999999999891
 20
66.099999999998545
 30
0.0
 11
157.69999999999891
 21
-255.00000000000179
 31
0.0
  0
LINE
  5
56E0
  8
1
 10
160.0
 20
66.099999999998545
 30
0.0
 11
160.0
 21
-252.7000000000007
 31
0.0
  0
LINE
  5
56E1
  8
1
 10
-157.69999999999979
 20
66.099999999998545
 30
0.0
 11
-157.69999999999979
 21
-255.00000000000179
 31
0.0
  0
LINE
  5
56E2
  8
1
 10
-160.0
 20
66.099999999998545
 30
0.0
 11
-159.99999999999901
 21
-252.69999999999891
 31
0.0
  0
ARC
  5
56E3
  8
1
 10
0.0
 20
0.0
 30
0.0
 40
85.0
 50
0.0
 51
244.12446600000609
  0
CIRCLE
  5
56E4
  8
2
 10
0.0
 20
0.0
 30
0.0
 40
136.0
  0
ARC
  5
56E5
  8
1
 10
0.0
 20
0.0
 30
0.0
 40
85.000007999999994
 50
295.91772599999888
 51
0.0
  0
DIMENSION
  5
56E6
  8
SP
  2
*D2
 10
-190.00000000000091
 20
-394.99999999999977
 30
0.0
 11
-0.0000000000004547
 21
-369.99999999999977
 31
0.0
 12
1889.9142715201349
 22
-1088.030137746166
 32
0.0
  3
GOD
 13
190.0
 23
-254.9999999999998
 33
0.0
 14
-190.00000000000091
 24
-255.00000000000171
 34
0.0
  0
DIMENSION
  5
56E7
  8
SP
  2
*D4
 10
190.0
 20
-324.99999999999989
 30
0.0
 11
95.0
 21
-299.99999999999989
 31
0.0
 12
1889.9142715201349
 22
-1088.030137746166
 32
0.0
  3
GOD
 13
0.0
 23
-280.6847570231343
 33
0.0
 14
190.0
 24
-254.9999999999998
 34
0.0
  0
DIMENSION
  5
56E8
  8
SP
  2
*D3
 10
0.0
 20
-325.00000000000171
 30
0.0
 11
-95.000000000000455
 21
-300.00000000000171
 31
0.0
 12
1889.9142715201349
 22
-1088.030137746166
 32
0.0
  3
GOD
 13
-190.00000000000091
 23
-255.00000000000171
 33
0.0
 14
0.0
 24
-280.6847570231343
 34
0.0
  0
LINE
  5
56E9
  8
FUTO
 10
-132.69999999999979
 20
-105.0
 30
0.0
 11
-157.69999999999891
 21
-80.0
 31
0.0
  0
LINE
  5
56EA
  8
1
 10
-157.69999999999891
 20
-203.9999999999998
 30
0.0
 11
-132.7000000000007
 21
-203.9999999999998
 31
0.0
  0
LINE
  5
56EB
  8
1
 10
-190.00000000000091
 20
-255.00000000000179
 30
0.0
 11
190.0
 21
-255.0
 31
0.0
  0
LINE
  5
56EC
  8
1
 10
-157.69999999999891
 20
-80.0
 30
0.0
 11
157.69999999999891
 21
-80.0
 31
0.0
  0
LINE
  5
56ED
  8
2
 10
-176.99999999999901
 20
-268.98279906584588
 30
0.0
 11
-176.99999999999901
 21
-242.69999999999879
 31
0.0
  0
LINE
  5
56EE
  8
1
 10
-190.00000000000091
 20
-255.00000000000179
 30
0.0
 11
-190.00000000000179
 21
-252.7000000000007
 31
0.0
  0
LINE
  5
56EF
  8
1
 10
-190.00000000000091
 20
-252.7000000000007
 30
0.0
 11
-159.99999999999901
 21
-252.69999999999891
 31
0.0
  0
LINE
  5
56F0
  8
1
 10
132.699999999997
 20
-105.0
 30
0.0
 11
132.699999999997
 21
-203.9999999999998
 31
0.0
  0
LINE
  5
56F1
  8
1
 10
-132.69999999999979
 20
-105.0
 30
0.0
 11
-132.69999999999979
 21
-203.9999999999998
 31
0.0
  0
LINE
  5
56F2
  8
1
 10
132.699999999997
 20
-203.9999999999998
 30
0.0
 11
157.69999999999891
 21
-203.9999999999998
 31
0.0
  0
LINE
  5
56F3
  8
1
 10
190.0
 20
-255.0
 30
0.0
 11
190.0
 21
-252.69999999999891
 31
0.0
  0
LINE
  5
56F4
  8
2
 10
176.9999999999981
 20
-267.91032669659847
 30
0.0
 11
177.0
 21
-242.7000000000007
 31
0.0
  0
LINE
  5
56F5
  8
1
 10
160.0
 20
-252.69999999999891
 30
0.0
 11
190.0
 21
-252.7000000000007
 31
0.0
  0
LINE
  5
56F6
  8
FUTO
 10
132.69999999999979
 20
-105.0
 30
0.0
 11
157.69999999999891
 21
-80.0
 31
0.0
  0
LINE
  5
56F7
  8
1
 10
-132.69999999999979
 20
-105.0
 30
0.0
 11
132.69999999999891
 21
-105.0
 31
0.0
  0
LINE
  5
56F8
  8
CT
 10
-57.086121054688192
 20
-137.8180876735004
 30
0.0
 11
-46.574035520656253
 21
-112.43966820841879
 31
0.0
  0
CIRCLE
  5
56F9
  8
1
 10
-52.044946801652252
 20
-125.64761642153459
 30
0.0
 40
4.0
  0
LINE
  5
56FA
  8
CT
 10
57.086121054688192
 20
-137.8180876735004
 30
0.0
 11
46.574035520658072
 21
-112.43966820841879
 31
0.0
  0
CIRCLE
  5
56FB
  8
1
 10
52.044946801652252
 20
-125.64761642153459
 30
0.0
 40
4.0
  0
LINE
  5
56FC
  8
1
 10
-37.095498999999108
 20
-76.450928000000204
 30
0.0
 11
37.151808999999041
 21
-76.450928000000204
 31
0.0
  0
LINE
  5
56FD
  8
1
 10
-82.5
 20
-78.34088200000042
 30
0.0
 11
82.500029999999242
 21
-78.34088200000042
 31
0.0
  0
LINE
  5
56FE
  8
CT
 10
-62.5
 20
-82.218586000000869
 30
0.0
 11
-62.5
 21
-73.631579000000784
 31
0.0
  0
LINE
  5
56FF
  8
CT
 10
-137.8180876735004
 20
-57.086121054690011
 30
0.0
 11
-112.439668208417
 21
-46.574035520658072
 31
0.0
  0
ARC
  5
5700
  8
1
 10
-52.365203999999721
 20
-70.5
 30
0.0
 40
5.0
 50
270.0
 51
324.46176099999479
  0
LINE
  5
5701
  8
1
 10
-46.623938000000628
 20
-71.064478000000236
 30
0.0
 11
-48.296539999999368
 21
-73.40625
 31
0.0
  0
LINE
  5
5702
  8
1
 10
-77.833160999999564
 20
-75.505370999999286
 30
0.0
 11
-62.323167999999889
 21
-57.818504000000758
 31
0.0
  0
LINE
  5
5703
  8
1
 10
-82.5
 20
-75.5
 30
0.0
 11
-52.36517399999866
 21
-75.5
 31
0.0
  0
CIRCLE
  5
5704
  8
1
 10
-125.64761642153459
 20
-52.044946801652252
 30
0.0
 40
4.0
  0
ARC
  5
5705
  8
1
 10
0.0
 20
0.0
 30
0.0
 40
85.0
 50
236.73178133170779
 51
244.12446600000609
  0
LINE
  5
5706
  8
1
 10
-42.5
 20
-78.34088200000042
 30
0.0
 11
-42.5
 21
-80.0
 31
0.0
  0
LINE
  5
5707
  8
1
 10
-77.5
 20
-78.34088200000042
 30
0.0
 11
-77.5
 21
-80.0
 31
0.0
  0
LINE
  5
5708
  8
1
 10
-82.5
 20
-78.34088200000042
 30
0.0
 11
-82.5
 21
-75.5
 31
0.0
  0
LINE
  5
5709
  8
CT
 10
137.8180876735004
 20
-57.086121054688192
 30
0.0
 11
112.439668208417
 21
-46.574035520658072
 31
0.0
  0
LINE
  5
570A
  8
CT
 10
62.5
 20
-82.218586000000869
 30
0.0
 11
62.5
 21
-73.631579000000784
 31
0.0
  0
LINE
  5
570B
  8
1
 10
82.500029999999242
 20
-75.5
 30
0.0
 11
52.365203999999721
 21
-75.5
 31
0.0
  0
LINE
  5
570C
  8
1
 10
77.834367999999813
 20
-75.506824000000051
 30
0.0
 11
62.32130799999868
 21
-57.816361999999572
 31
0.0
  0
LINE
  5
570D
  8
1
 10
47.508270000000259
 20
-72.302612999999837
 30
0.0
 11
48.296538999999029
 21
-73.40625
 31
0.0
  0
LINE
  5
570E
  8
1
 10
46.631551000000393
 20
-71.075138000000152
 30
0.0
 11
48.296538999999029
 21
-73.40625
 31
0.0
  0
ARC
  5
570F
  8
1
 10
52.365203999999721
 20
-70.5
 30
0.0
 40
5.000032
 50
215.53825399999309
 51
270.0
  0
LINE
  5
5710
  8
1
 10
77.5
 20
-78.34088200000042
 30
0.0
 11
77.5
 21
-80.0
 31
0.0
  0
LINE
  5
5711
  8
1
 10
42.5
 20
-78.34088200000042
 30
0.0
 11
42.5
 21
-80.0
 31
0.0
  0
LINE
  5
5712
  8
1
 10
82.500029999999242
 20
-75.5
 30
0.0
 11
82.500029999999242
 21
-78.34088200000042
 31
0.0
  0
CIRCLE
  5
5713
  8
1
 10
125.64761642153459
 20
-52.044946801652252
 30
0.0
 40
4.0
  0
DIMENSION
  5
5714
  8
SP
  2
*D7
 10
-349.46628465127333
 20
200.0
 30
0.0
 11
-374.46628465127378
 21
99.999999999999787
 31
0.0
 12
1889.9142715201349
 22
-1088.030137746166
 32
0.0
  3
GOD
 13
-284.18648497729919
 23
0.0
 33
0.0
 14
-271.0
 24
200.0
 34
0.0
 50
90.0
  0
DIMENSION
  5
5715
  8
SP
  2
*D6
 10
176.0
 20
269.99999999999898
 30
0.0
 11
88.0
 21
294.99999999999898
 31
0.0
 12
1889.9142715201349
 22
-1088.030137746166
 32
0.0
  3
GOD
 13
0.0
 23
209.77641914432559
 33
0.0
 14
176.0
 24
-17.0
 34
0.0
  0
LINE
  5
5716
  8
FUTO
 10
-250.99998456825821
 20
199.99444453017639
 30
0.0
 11
-249.99998456825821
 21
19.99444453017281
 31
0.0
  0
LINE
  5
5717
  8
FUTO
 10
-251.0
 20
200.0
 30
0.0
 11
-251.0
 21
180.0
 31
0.0
  0
LINE
  5
5718
  8
FUTO
 10
-252.0
 20
199.0
 30
0.0
 11
-252.0
 21
180.0
 31
0.0
  0
LINE
  5
5719
  8
FUTO
 10
-249.0
 20
198.0
 30
0.0
 11
-231.0
 21
180.0
 31
0.0
  0
LINE
  5
571A
  8
FUTO
 10
0.0
 20
180.0
 30
0.0
 11
0.0
 21
200.0
 31
0.0
  0
LINE
  5
571B
  8
FUTO
 10
1.0
 20
200.0
 30
0.0
 11
1.0
 21
180.0
 31
0.0
  0
LINE
  5
571C
  8
FUTO
 10
2.0
 20
199.0
 30
0.0
 11
2.0
 21
180.0
 31
0.0
  0
LINE
  5
571D
  8
FUTO
 10
-1.0
 20
198.0
 30
0.0
 11
-19.0
 21
180.0
 31
0.0
  0
LINE
  5
571E
  8
FUTO
 10
-231.0
 20
180.0
 30
0.0
 11
-19.0
 21
180.0
 31
0.0
  0
LINE
  5
571F
  8
1
 10
-60.0
 20
150.0
 30
0.0
 11
-158.39999999999961
 21
66.099999999998545
 31
0.0
  0
LINE
  5
5720
  8
2
 10
-284.18648497729919
 20
0.0
 30
0.0
 11
210.14761457335041
 21
-0.000000000001819
 31
0.0
  0
LINE
  5
5721
  8
FUTO
 10
-260.8890586406655
 20
180.0
 30
0.0
 11
-259.99983025084288
 21
19.938889831936191
 31
0.0
  0
LINE
  5
5722
  8
1
 10
-160.0
 20
66.099999999998545
 30
0.0
 11
-158.39999999999961
 21
66.099999999998545
 31
0.0
  0
LINE
  5
5723
  8
FUTO
 10
-260.8890586406655
 20
180.0
 30
0.0
 11
-250.88890432086819
 21
180.0
 31
0.0
  0
ARC
  5
5724
  8
FUTO
 10
14.0
 20
-14.0
 30
0.0
 40
172.0
 50
359.4896667551933
 51
78.450738176447032
  0
ARC
  5
5725
  8
FUTO
 10
14.0
 20
-14.0
 30
0.0
 40
162.0
 50
359.4896667551933
 51
78.450738176447032
  0
LINE
  5
5726
  8
1
 10
60.0
 20
150.0
 30
0.0
 11
158.39999999999961
 21
66.099999999998545
 31
0.0
  0
LINE
  5
5727
  8
CT
 10
-137.8180876735004
 20
57.086121054686373
 30
0.0
 11
-112.439668208417
 21
46.574035520658072
 31
0.0
  0
CIRCLE
  5
5728
  8
1
 10
-125.64761642153459
 20
52.044946801652252
 30
0.0
 40
4.0
  0
LINE
  5
5729
  8
CT
 10
137.8180876735004
 20
57.086121054686373
 30
0.0
 11
112.439668208417
 21
46.574035520658072
 31
0.0
  0
CIRCLE
  5
572A
  8
1
 10
125.64761642153459
 20
52.044946801652252
 30
0.0
 40
4.0
  0
LINE
  5
572B
  8
1
 10
158.39999999999961
 20
66.099999999998545
 30
0.0
 11
160.0
 21
66.099999999998545
 31
0.0
  0
LINE
  5
572C
  8
CT
 10
57.086121054688192
 20
137.81808767349861
 30
0.0
 11
46.574035520656253
 21
112.439668208417
 31
0.0
  0
LINE
  5
572D
  8
CT
 10
-57.086121054688192
 20
137.81808767349861
 30
0.0
 11
-46.574035520658072
 21
112.4396682084152
 31
0.0
  0
CIRCLE
  5
572E
  8
1
 10
-52.044946801652252
 20
125.64761642153459
 30
0.0
 40
4.0
  0
CIRCLE
  5
572F
  8
1
 10
52.044946801652252
 20
125.64761642153459
 30
0.0
 40
4.0
  0
ARC
  5
5730
  8
FUTO
 10
60.999999999996362
 20
216.0
 30
0.0
 40
72.753061747871584
 50
214.1996194554568
 51
258.45073817644709
  0
LINE
  5
5731
  8
FUTO
 10
0.0
 20
180.0
 30
0.0
 11
5.9318434102424362
 21
180.0
 31
0.0
  0
LINE
  5
5732
  8
1
 10
-60.0
 20
150.0
 30
0.0
 11
60.0
 21
150.0
 31
0.0
  0
LINE
  5
5733
  8
FUTO
 10
0.0
 20
180.0
 30
0.0
 11
1.0
 21
180.0
 31
0.0
  0
ARC
  5
5734
  8
FUTO
 10
59.528586099928361
 20
210.519969322142
 30
0.0
 40
57.203726762688042
 50
216.60350367361539
 51
261.67207569821369
  0
ARC
  5
5735
  8
FUTO
 10
5.9318434102424362
 20
170.0
 30
0.0
 40
10.0
 50
39.872968906140997
 51
90.0
  0
LINE
  5
5736
  8
FUTO
 10
-271.0
 20
200.0
 30
0.0
 11
21.0
 21
200.0
 31
0.0
  0
LINE
  5
5737
  8
FUTO
 10
-251.0
 20
199.0
 30
0.0
 11
1.0
 21
199.0
 31
0.0
  0
DIMENSION
  5
5738
  8
SP
  2
*D5
 10
0.0
 20
269.99999999999898
 30
0.0
 11
-125.0
 21
294.99999999999898
 31
0.0
 12
1889.9142715201349
 22
-1088.030137746166
 32
0.0
  3
GOD
 13
-250.0
 23
199.99999999999901
 33
0.0
 14
0.0
 24
209.77641914432559
 34
0.0
  0
LINE
  5
5739
  8
FUTO
 10
-271.0
 20
199.0
 30
0.0
 11
-252.0
 21
199.0
 31
0.0
  0
LINE
  5
573A
  8
FUTO
 10
-271.0
 20
200.0
 30
0.0
 11
-271.0
 21
199.0
 31
0.0
  0
LINE
  5
573B
  8
FUTO
 10
-251.0
 20
198.0
 30
0.0
 11
-249.0
 21
198.0
 31
0.0
  0
LINE
  5
573C
  8
FUTO
 10
2.0
 20
199.0
 30
0.0
 11
21.0
 21
199.0
 31
0.0
  0
LINE
  5
573D
  8
FUTO
 10
-1.0
 20
198.0
 30
0.0
 11
1.0
 21
198.0
 31
0.0
  0
LINE
  5
573E
  8
FUTO
 10
21.0
 20
200.0
 30
0.0
 11
21.0
 21
199.0
 31
0.0
  0
ENDBLK
  5
5740
  8
0
  0
BLOCK
  8
0
  2
*D10
 70
     1
 10
0.0
 20
0.0
 30
0.0
  3
*D10
  1

  0
LINE
  5
78D6
  8
SP
 10
-4754.3360025940929
 20
843.03013774616613
 30
0.0
 11
-4754.3360025940929
 21
703.03013774616613
 31
0.0
  0
LINE
  5
78D7
  8
SP
 10
-5134.3360025940938
 20
843.0301377461642
 30
0.0
 11
-5134.3360025940938
 21
703.03013774616613
 31
0.0
  0
LINE
  5
78D8
  8
SP
 10
-4779.336002594092
 20
713.03013774616613
 30
0.0
 11
-5109.3360025940938
 21
713.03013774616613
 31
0.0
  0
INSERT
  5
78D9
  8
SP
  2
_OPEN
 10
-4754.3360025940929
 20
713.03013774616613
 30
0.0
 41
25.0
 42
25.0
 43
25.0
  0
INSERT
  5
78DA
  8
SP
  2
_OPEN
 10
-5134.3360025940938
 20
713.03013774616613
 30
0.0
 41
25.0
 42
25.0
 43
25.0
 50
180.0
  0
TEXT
  5
78DB
  8
SP
 10
-4986.2123833377027
 20
723.03013774616613
 30
0.0
 40
30.0
  1
380
 51
15.0
  0
POINT
  5
78DC
  8
DEFPOINTS
 62
     0
 10
-4754.3360025940929
 20
853.03013774616613
 30
0.0
  0
POINT
  5
78DD
  8
DEFPOINTS
 62
     0
 10
-5134.3360025940938
 20
853.03013774616431
 30
0.0
  0
POINT
  5
78DE
  8
DEFPOINTS
 62
     0
 10
-5134.3360025940938
 20
713.03013774616613
 30
0.0
  0
ENDBLK
  5
57BF
  8
0
  0
BLOCK
  8
0
  2
*D11
 70
     1
 10
0.0
 20
0.0
 30
0.0
  3
*D11
  1

  0
LINE
  5
78EA
  8
SP
 10
-4944.3360025940929
 20
819.39249546468989
 30
0.0
 11
-4944.3360025940929
 21
773.03013774616613
 31
0.0
  0
LINE
  5
78EB
  8
SP
 10
-4754.3360025940929
 20
843.03013774616613
 30
0.0
 11
-4754.3360025940929
 21
773.03013774616613
 31
0.0
  0
LINE
  5
78EC
  8
SP
 10
-4919.3360025940929
 20
783.03013774616613
 30
0.0
 11
-4779.336002594092
 21
783.03013774616613
 31
0.0
  0
INSERT
  5
78ED
  8
SP
  2
_OPEN
 10
-4944.3360025940929
 20
783.03013774616613
 30
0.0
 41
25.0
 42
25.0
 43
25.0
 50
180.0
  0
INSERT
  5
78EE
  8
SP
  2
_OPEN
 10
-4754.3360025940929
 20
783.03013774616613
 30
0.0
 41
25.0
 42
25.0
 43
25.0
  0
TEXT
  5
78EF
  8
SP
 10
-4890.8433401245629
 20
793.03013774616613
 30
0.0
 40
30.0
  1
190
 51
15.0
  0
POINT
  5
78F0
  8
DEFPOINTS
 62
     0
 10
-4944.3360025940929
 20
829.39249546469
 30
0.0
  0
POINT
  5
78F1
  8
DEFPOINTS
 62
     0
 10
-4754.3360025940929
 20
853.03013774616613
 30
0.0
  0
POINT
  5
78F2
  8
DEFPOINTS
 62
     0
 10
-4754.3360025940929
 20
783.03013774616613
 30
0.0
  0
ENDBLK
  5
57CB
  8
0
  0
BLOCK
  8
0
  2
*D12
 70
     1
 10
0.0
 20
0.0
 30
0.0
  3
*D12
  1

  0
LINE
  5
78F3
  8
SP
 10
-5134.3360025940938
 20
843.0301377461642
 30
0.0
 11
-5134.3360025940938
 21
773.03013774616431
 31
0.0
  0
LINE
  5
78F4
  8
SP
 10
-4944.3360025940929
 20
819.39249546468989
 30
0.0
 11
-4944.3360025940929
 21
773.03013774616431
 31
0.0
  0
LINE
  5
78F5
  8
SP
 10
-5109.3360025940938
 20
783.03013774616431
 30
0.0
 11
-4969.3360025940938
 21
783.03013774616431
 31
0.0
  0
INSERT
  5
78F6
  8
SP
  2
_OPEN
 10
-5134.3360025940938
 20
783.03013774616431
 30
0.0
 41
25.0
 42
25.0
 43
25.0
 50
180.0
  0
INSERT
  5
78F7
  8
SP
  2
_OPEN
 10
-4944.3360025940929
 20
783.03013774616431
 30
0.0
 41
25.0
 42
25.0
 43
25.0
  0
TEXT
  5
78F8
  8
SP
 10
-5080.843340124562
 20
793.03013774616431
 30
0.0
 40
30.0
  1
190
 51
15.0
  0
POINT
  5
78F9
  8
DEFPOINTS
 62
     0
 10
-5134.3360025940938
 20
853.03013774616431
 30
0.0
  0
POINT
  5
78FA
  8
DEFPOINTS
 62
     0
 10
-4944.3360025940929
 20
829.39249546469
 30
0.0
  0
POINT
  5
78FB
  8
DEFPOINTS
 62
     0
 10
-4944.3360025940929
 20
783.03013774616431
 30
0.0
  0
ENDBLK
  5
57D7
  8
0
  0
BLOCK
  8
0
  2
*D13
 70
     1
 10
0.0
 20
0.0
 30
0.0
  3
*D13
  1

  0
LINE
  5
75CA
  8
SP
 10
-4734.3415580639139
 20
1488.030122314422
 30
0.0
 11
-4629.336002594091
 21
1488.030122314422
 31
0.0
  0
LINE
  5
75CB
  8
SP
 10
-4724.1883880207424
 20
1238.030137746164
 30
0.0
 11
-4629.336002594091
 21
1238.030137746164
 31
0.0
  0
LINE
  5
75CC
  8
SP
 10
-4639.336002594091
 20
1463.030122314422
 30
0.0
 11
-4639.336002594091
 21
1263.030137746164
 31
0.0
  0
INSERT
  5
75CD
  8
SP
  2
_OPEN
 10
-4639.336002594091
 20
1488.030122314422
 30
0.0
 41
25.0
 42
25.0
 43
25.0
 50
90.0
  0
INSERT
  5
75CE
  8
SP
  2
_OPEN
 10
-4639.336002594091
 20
1238.030137746164
 30
0.0
 41
25.0
 42
25.0
 43
25.0
 50
270.0
  0
TEXT
  5
75CF
  8
SP
 10
-4649.336002594091
 20
1321.919318407914
 30
0.0
 40
30.0
  1
250
 50
90.0
 51
15.0
  0
POINT
  5
75D0
  8
DEFPOINTS
 62
     0
 10
-4744.3415580639139
 20
1488.030122314422
 30
0.0
  0
POINT
  5
75D1
  8
DEFPOINTS
 62
     0
 10
-4734.1883880207433
 20
1238.030137746164
 30
0.0
  0
POINT
  5
75D2
  8
DEFPOINTS
 62
     0
 10
-4639.336002594091
 20
1238.030137746164
 30
0.0
  0
ENDBLK
  5
5D03
  8
0
  0
BLOCK
  8
0
  2
*D14
 70
     1
 10
0.0
 20
0.0
 30
0.0
  3
*D14
  1

  0
LINE
  5
7579
  8
SP
 10
-4724.1883880207424
 20
1238.030137746164
 30
0.0
 11
-4629.336002594091
 21
1238.030137746164
 31
0.0
  0
LINE
  5
757A
  8
SP
 10
-4744.336002594092
 20
983.03013774616602
 30
0.0
 11
-4629.336002594091
 21
983.03013774616602
 31
0.0
  0
LINE
  5
757B
  8
SP
 10
-4639.336002594091
 20
1213.030137746164
 30
0.0
 11
-4639.336002594091
 21
1008.030137746166
 31
0.0
  0
INSERT
  5
757C
  8
SP
  2
_OPEN
 10
-4639.336002594091
 20
1238.030137746164
 30
0.0
 41
25.0
 42
25.0
 43
25.0
 50
90.0
  0
INSERT
  5
757D
  8
SP
  2
_OPEN
 10
-4639.336002594091
 20
983.03013774616602
 30
0.0
 41
25.0
 42
25.0
 43
25.0
 50
270.0
  0
TEXT
  5
757E
  8
SP
 10
-4649.336002594091
 20
1069.3680427168399
 30
0.0
 40
30.0
  1
255
 50
90.0
 51
15.0
  0
POINT
  5
757F
  8
DEFPOINTS
 62
     0
 10
-4734.1883880207433
 20
1238.030137746164
 30
0.0
  0
POINT
  5
7580
  8
DEFPOINTS
 62
     0
 10
-4754.3360025940929
 20
983.03013774616602
 30
0.0
  0
POINT
  5
7581
  8
DEFPOINTS
 62
     0
 10
-4639.336002594091
 20
983.03013774616602
 30
0.0
  0
ENDBLK
  5
5D10
  8
0
  0
BLOCK
  8
0
  2
*D15
 70
     1
 10
0.0
 20
0.0
 30
0.0
  3
*D15
  1

  0
LINE
  5
75D3
  8
SP
 10
-4944.3360025940929
 20
1544.8458668319649
 30
0.0
 11
-4944.3360025940929
 21
1578.0288877750991
 31
0.0
  0
LINE
  5
75D4
  8
SP
 10
-4744.336002594091
 20
1519.030137746164
 30
0.0
 11
-4744.336002594091
 21
1578.0288877750991
 31
0.0
  0
LINE
  5
75D5
  8
SP
 10
-4919.3360025940929
 20
1568.0288877750991
 30
0.0
 11
-4769.336002594091
 21
1568.0288877750991
 31
0.0
  0
INSERT
  5
75D6
  8
SP
  2
_OPEN
 10
-4944.3360025940929
 20
1568.0288877750991
 30
0.0
 41
25.0
 42
25.0
 43
25.0
 50
180.0
  0
INSERT
  5
75D7
  8
SP
  2
_OPEN
 10
-4744.336002594091
 20
1568.0288877750991
 30
0.0
 41
25.0
 42
25.0
 43
25.0
  0
TEXT
  5
75D8
  8
SP
 10
-4885.4468142164696
 20
1578.0288877750991
 30
0.0
 40
30.0
  1
200
 51
15.0
  0
POINT
  5
75D9
  8
DEFPOINTS
 62
     0
 10
-4944.3360025940929
 20
1534.8458668319649
 30
0.0
  0
POINT
  5
75DA
  8
DEFPOINTS
 62
     0
 10
-4744.336002594091
 20
1509.030137746164
 30
0.0
  0
POINT
  5
75DB
  8
DEFPOINTS
 62
     0
 10
-4744.336002594091
 20
1568.0288877750991
 30
0.0
  0
ENDBLK
  5
5D1E
  8
0
  0
BLOCK
  8
0
  2
*D16
 70
     1
 10
0.0
 20
0.0
 30
0.0
  3
*D16
  1

  0
LINE
  5
75C1
  8
SP
 10
-4944.3360025940929
 20
1544.8458668319649
 30
0.0
 11
-4944.3360025940929
 21
1578.0288877750991
 31
0.0
  0
LINE
  5
75C2
  8
SP
 10
-5154.336002594091
 20
1265.030137746164
 30
0.0
 11
-5154.336002594091
 21
1578.0288877750991
 31
0.0
  0
LINE
  5
75C3
  8
SP
 10
-4969.3360025940938
 20
1568.0288877750991
 30
0.0
 11
-5129.336002594091
 21
1568.0288877750991
 31
0.0
  0
INSERT
  5
75C4
  8
SP
  2
_OPEN
 10
-4944.3360025940929
 20
1568.0288877750991
 30
0.0
 41
25.0
 42
25.0
 43
25.0
  0
INSERT
  5
75C5
  8
SP
  2
_OPEN
 10
-5154.336002594091
 20
1568.0288877750991
 30
0.0
 41
25.0
 42
25.0
 43
25.0
 50
180.0
  0
TEXT
  5
75C6
  8
SP
 10
-5087.5896713593283
 20
1578.0288877750991
 30
0.0
 40
30.0
  1
210
 51
15.0
  0
POINT
  5
75C7
  8
DEFPOINTS
 62
     0
 10
-4944.3360025940929
 20
1534.8458668319649
 30
0.0
  0
POINT
  5
75C8
  8
DEFPOINTS
 62
     0
 10
-5154.336002594091
 20
1255.030137746164
 30
0.0
  0
POINT
  5
75C9
  8
DEFPOINTS
 62
     0
 10
-5154.336002594091
 20
1568.0288877750991
 30
0.0
  0
ENDBLK
  5
5D3D
  8
0
  0
BLOCK
  8
0
  2
*D17
 70
     1
 10
0.0
 20
0.0
 30
0.0
  3
*D17
  1

  0
LINE
  5
790C
  8
SP
 10
-4193.3360025941329
 20
843.0301377461642
 30
0.0
 11
-4193.3360025941329
 21
773.03013774616613
 31
0.0
  0
LINE
  5
790D
  8
SP
 10
-4393.3360025941329
 20
843.0301377461642
 30
0.0
 11
-4393.3360025941329
 21
773.03013774616613
 31
0.0
  0
LINE
  5
790E
  8
SP
 10
-4218.3360025941329
 20
783.03013774616613
 30
0.0
 11
-4368.3360025941329
 21
783.03013774616613
 31
0.0
  0
INSERT
  5
790F
  8
SP
  2
_OPEN
 10
-4193.3360025941329
 20
783.03013774616613
 30
0.0
 41
25.0
 42
25.0
 43
25.0
  0
INSERT
  5
7910
  8
SP
  2
_OPEN
 10
-4393.3360025941329
 20
783.03013774616613
 30
0.0
 41
25.0
 42
25.0
 43
25.0
 50
180.0
  0
TEXT
  5
7911
  8
SP
 10
-4334.4468142165097
 20
793.03013774616613
 30
0.0
 40
30.0
  1
200
 51
15.0
  0
POINT
  5
7912
  8
DEFPOINTS
 62
     0
 10
-4193.3360025941329
 20
853.0301377461642
 30
0.0
  0
POINT
  5
7913
  8
DEFPOINTS
 62
     0
 10
-4393.3360025941329
 20
853.0301377461642
 30
0.0
  0
POINT
  5
7914
  8
DEFPOINTS
 62
     0
 10
-4393.3360025941329
 20
783.03013774616613
 30
0.0
  0
ENDBLK
  5
65C1
  8
0
  0
BLOCK
  8
0
  2
*D18
 70
     1
 10
0.0
 20
0.0
 30
0.0
  3
*D18
  1

  0
LINE
  5
7903
  8
SP
 10
-4193.3360025941329
 20
843.0301377461642
 30
0.0
 11
-4193.3360025941329
 21
773.03013774616613
 31
0.0
  0
LINE
  5
7904
  8
SP
 10
-4094.3360025940929
 20
1003.83458395176
 30
0.0
 11
-4094.3360025940929
 21
773.03013774616613
 31
0.0
  0
LINE
  5
7905
  8
SP
 10
-4168.3360025941329
 20
783.03013774616613
 30
0.0
 11
-4119.336002594092
 21
783.03013774616613
 31
0.0
  0
INSERT
  5
7906
  8
SP
  2
_OPEN
 10
-4193.3360025941329
 20
783.03013774616613
 30
0.0
 41
25.0
 42
25.0
 43
25.0
 50
180.0
  0
INSERT
  5
7907
  8
SP
  2
_OPEN
 10
-4094.3360025940929
 20
783.03013774616613
 30
0.0
 41
25.0
 42
25.0
 43
25.0
  0
TEXT
  5
7908
  8
SP
 10
-4171.4266690520089
 20
793.03013774616613
 30
0.0
 40
30.0
  1
99
 51
15.0
  0
POINT
  5
7909
  8
DEFPOINTS
 62
     0
 10
-4193.3360025941329
 20
853.0301377461642
 30
0.0
  0
POINT
  5
790A
  8
DEFPOINTS
 62
     0
 10
-4094.3360025940929
 20
1013.83458395176
 30
0.0
  0
POINT
  5
790B
  8
DEFPOINTS
 62
     0
 10
-4094.3360025940929
 20
783.03013774616613
 30
0.0
  0
ENDBLK
  5
65D7
  8
0
  0
BLOCK
  8
0
  2
*D19
 70
     1
 10
0.0
 20
0.0
 30
0.0
  3
*D19
  1

  0
LINE
  5
7570
  8
SP
 10
-3985.336002594091
 20
1363.0301377461669
 30
0.0
 11
-3884.9894306741039
 21
1363.0301377461669
 31
0.0
  0
LINE
  5
7571
  8
SP
 10
-3985.3360025940929
 20
1113.0301377461669
 30
0.0
 11
-3884.9894306741039
 21
1113.0301377461669
 31
0.0
  0
LINE
  5
7572
  8
SP
 10
-3894.9894306741039
 20
1338.0301377461681
 30
0.0
 11
-3894.9894306741039
 21
1138.0301377461669
 31
0.0
  0
INSERT
  5
7573
  8
SP
  2
_OPEN
 10
-3894.9894306741039
 20
1363.0301377461669
 30
0.0
 41
25.0
 42
25.0
 43
25.0
 50
90.0
  0
INSERT
  5
7574
  8
SP
  2
_OPEN
 10
-3894.9894306741039
 20
1113.0301377461669
 30
0.0
 41
25.0
 42
25.0
 43
25.0
 50
270.0
  0
TEXT
  5
7575
  8
SP
 10
-3904.9894306741048
 20
1183.2590720859439
 30
0.0
 40
30.0
  1
φ250
 50
90.0
 51
15.0
  0
POINT
  5
7576
  8
DEFPOINTS
 62
     0
 10
-3995.336002594092
 20
1363.0301377461669
 30
0.0
  0
POINT
  5
7577
  8
DEFPOINTS
 62
     0
 10
-3995.3360025940929
 20
1113.0301377461669
 30
0.0
  0
POINT
  5
7578
  8
DEFPOINTS
 62
     0
 10
-3894.9894306741039
 20
1113.0301377461669
 30
0.0
  0
ENDBLK
  5
65E4
  8
0
  0
BLOCK
  8
0
  2
*D20
 70
     1
 10
0.0
 20
0.0
 30
0.0
  3
*D20
  1

  0
LINE
  5
75DC
  8
SP
 10
-4184.3360025940929
 20
1498.0301377461651
 30
0.0
 11
-4184.3360025940929
 21
1589.0301377461631
 31
0.0
  0
LINE
  5
75DD
  8
SP
 10
-4004.336002594092
 20
1498.030137746164
 30
0.0
 11
-4004.336002594092
 21
1589.0301377461631
 31
0.0
  0
LINE
  5
75DE
  8
SP
 10
-4159.3360025940938
 20
1579.030137746164
 30
0.0
 11
-4029.336002594091
 21
1579.030137746164
 31
0.0
  0
INSERT
  5
75DF
  8
SP
  2
_OPEN
 10
-4184.3360025940929
 20
1579.030137746164
 30
0.0
 41
25.0
 42
25.0
 43
25.0
 50
180.0
  0
INSERT
  5
75E0
  8
SP
  2
_OPEN
 10
-4004.336002594092
 20
1579.030137746164
 30
0.0
 41
25.0
 42
25.0
 43
25.0
  0
TEXT
  5
75E1
  8
SP
 10
-4135.843340124562
 20
1589.0301377461631
 30
0.0
 40
30.0
  1
180
 51
15.0
  0
POINT
  5
75E2
  8
DEFPOINTS
 62
     0
 10
-4184.3360025940929
 20
1488.0301377461651
 30
0.0
  0
POINT
  5
75E3
  8
DEFPOINTS
 62
     0
 10
-4004.336002594092
 20
1488.030137746164
 30
0.0
  0
POINT
  5
75E4
  8
DEFPOINTS
 62
     0
 10
-4004.336002594092
 20
1579.030137746164
 30
0.0
  0
ENDBLK
  5
65FA
  8
0
  0
BLOCK
  8
0
  2
*D21
 70
     1
 10
0.0
 20
0.0
 30
0.0
  3
*D21
  1

  0
LINE
  5
7567
  8
SP
 10
-4094.3360025940929
 20
1629.030137746164
 30
0.0
 11
-4094.3360025940929
 21
1659.030137746164
 31
0.0
  0
LINE
  5
7568
  8
SP
 10
-3995.336002594091
 20
1392.0301377461669
 30
0.0
 11
-3995.336002594091
 21
1659.030137746164
 31
0.0
  0
LINE
  5
7569
  8
SP
 10
-4069.336002594092
 20
1649.0301377461631
 30
0.0
 11
-4020.336002594091
 21
1649.0301377461631
 31
0.0
  0
INSERT
  5
756A
  8
SP
  2
_OPEN
 10
-4094.3360025940929
 20
1649.0301377461631
 30
0.0
 41
25.0
 42
25.0
 43
25.0
 50
180.0
  0
INSERT
  5
756B
  8
SP
  2
_OPEN
 10
-3995.336002594091
 20
1649.0301377461631
 30
0.0
 41
25.0
 42
25.0
 43
25.0
  0
TEXT
  5
756C
  8
SP
 10
-4072.426669051988
 20
1659.030137746164
 30
0.0
 40
30.0
  1
99
 51
15.0
  0
POINT
  5
756D
  8
DEFPOINTS
 62
     0
 10
-4094.3360025940929
 20
1619.030137746164
 30
0.0
  0
POINT
  5
756E
  8
DEFPOINTS
 62
     0
 10
-3995.336002594091
 20
1382.0301377461669
 30
0.0
  0
POINT
  5
756F
  8
DEFPOINTS
 62
     0
 10
-3995.336002594091
 20
1649.0301377461631
 30
0.0
  0
ENDBLK
  5
6612
  8
0
  0
BLOCK
  8
0
  2
*D22
 70
     1
 10
0.0
 20
0.0
 30
0.0
  3
*D22
  1

  0
LINE
  5
755E
  8
SP
 10
-4094.3360025940929
 20
1629.030137746164
 30
0.0
 11
-4094.3360025940929
 21
1659.0301377461651
 31
0.0
  0
LINE
  5
755F
  8
SP
 10
-4446.1360025940921
 20
1320.807481746167
 30
0.0
 11
-4446.1360025940921
 21
1659.0301377461651
 31
0.0
  0
LINE
  5
7560
  8
SP
 10
-4119.336002594092
 20
1649.0301377461651
 30
0.0
 11
-4421.1360025940912
 21
1649.0301377461651
 31
0.0
  0
INSERT
  5
7561
  8
SP
  2
_OPEN
 10
-4094.3360025940929
 20
1649.0301377461651
 30
0.0
 41
25.0
 42
25.0
 43
25.0
  0
INSERT
  5
7562
  8
SP
  2
_OPEN
 10
-4446.1360025940921
 20
1649.0301377461651
 30
0.0
 41
25.0
 42
25.0
 43
25.0
 50
180.0
  0
TEXT
  5
7563
  8
SP
 10
-4337.1457043344917
 20
1659.0301377461651
 30
0.0
 40
30.0
  1
（400）
 51
15.0
  0
POINT
  5
7564
  8
DEFPOINTS
 62
     0
 10
-4094.3360025940929
 20
1619.030137746164
 30
0.0
  0
POINT
  5
7565
  8
DEFPOINTS
 62
     0
 10
-4446.1360025940921
 20
1310.807481746167
 30
0.0
  0
POINT
  5
7566
  8
DEFPOINTS
 62
     0
 10
-4446.1360025940921
 20
1649.0301377461651
 30
0.0
  0
ENDBLK
  5
6628
  8
0
  0
BLOCK
  8
0
  2
A$C40AB6E05
 70
     0
 10
0.0
 20
0.0
 30
0.0
  3
A$C40AB6E05
  1

  0
LINE
  5
6751
  8
1
 10
-160.00000000000361
 20
-307.99999999999181
 30
0.0
 11
-160.00000000000591
 21
-99.000000000001606
 31
0.0
  0
LINE
  5
6752
  8
1
 10
-190.00000000000361
 20
-298.9999999999954
 30
0.0
 11
-190.00000000000591
 21
-99.000000000001364
 31
0.0
  0
LINE
  5
6753
  8
1
 10
-33.5
 20
-124.79999999999831
 30
0.0
 11
-33.5
 21
-133.79999999999831
 31
0.0
  0
LINE
  5
6754
  8
1
 10
-75.5
 20
-156.29999999999831
 30
0.0
 11
-75.5
 21
-135.79999999999831
 31
0.0
  0
ARC
  5
6755
  8
1
 10
-73.5
 20
-135.79999999999831
 30
0.0
 40
2.0
 50
90.0
 51
180.0
  0
LINE
  5
6756
  8
1
 10
-72.815002999999706
 20
-133.79999999999831
 30
0.0
 11
-64.184998000000633
 21
-133.79999999999831
 31
0.0
  0
LINE
  5
6757
  8
1
 10
-64.065796000000773
 20
-133.79999999999831
 30
0.0
 11
-73.065796000000773
 21
-133.79999999999831
 31
0.0
  0
LINE
  5
6758
  8
1
 10
-160.0000000000054
 20
-132.9999999999915
 30
0.0
 11
-33.5
 21
-132.99999999999361
 31
0.0
  0
CIRCLE
  5
6759
  8
FUTO
 10
-177.000000000005
 20
-119.00000000000109
 30
0.0
 40
6.0
  0
LINE
  5
675A
  8
CT
 10
-164.8129139847405
 20
-119.00000000000109
 30
0.0
 11
-189.18708601526981
 21
-119.00000000000109
 31
0.0
  0
LINE
  5
675B
  8
CT
 10
-177.000000000005
 20
-131.18708601526569
 30
0.0
 11
-177.000000000005
 21
-106.8129139847364
 31
0.0
  0
ARC
  5
675C
  8
1
 10
-143.99999999999631
 20
-95.999999999999091
 30
0.0
 40
3.0
 50
180.0
 51
270.0
  0
LINE
  5
675D
  8
1
 10
-146.99999999999631
 20
-93.999999999999091
 30
0.0
 11
-146.99999999999631
 21
-95.999999999999091
 31
0.0
  0
LINE
  5
675E
  8
1
 10
-146.99999999999631
 20
-93.999999999999091
 30
0.0
 11
-146.99999999999631
 21
-95.999999999999091
 31
0.0
  0
ARC
  5
675F
  8
1
 10
-149.99999999999631
 20
-93.999999999999091
 30
0.0
 40
3.0
 50
0.0
 51
90.0
  0
LINE
  5
6760
  8
1
 10
-22.5
 20
-110.9999999999972
 30
0.0
 11
-22.5
 21
-113.8000000000001
 31
0.0
  0
ARC
  5
6761
  8
1
 10
-32.5
 20
-124.79999999999831
 30
0.0
 40
1.0
 50
90.0
 51
180.0
  0
LINE
  5
6762
  8
FUTO
 10
190.00000000000179
 20
-99.000000000001137
 30
0.0
 11
-189.9999999999981
 21
-99.000000000001137
 31
0.0
  0
ARC
  5
6763
  8
1
 10
150.0
 20
-93.999999999999091
 30
0.0
 40
3.0
 50
90.0
 51
180.0
  0
LINE
  5
6764
  8
1
 10
147.0
 20
-93.999999999999091
 30
0.0
 11
147.0
 21
-95.999999999999091
 31
0.0
  0
LINE
  5
6765
  8
1
 10
147.0
 20
-93.999999999999091
 30
0.0
 11
147.0
 21
-95.999999999999091
 31
0.0
  0
ARC
  5
6766
  8
1
 10
144.0
 20
-95.999999999999091
 30
0.0
 40
3.0
 50
270.0
 51
0.0
  0
LINE
  5
6767
  8
1
 10
160.0
 20
-307.99999999999932
 30
0.0
 11
160.00000000000179
 21
-99.000000000001137
 31
0.0
  0
LINE
  5
6768
  8
FUTO
 10
190.0
 20
-298.9999999999954
 30
0.0
 11
190.00000000000179
 21
-99.000000000001137
 31
0.0
  0
LINE
  5
6769
  8
1
 10
33.499999999998181
 20
-132.99999999999719
 30
0.0
 11
160.00000000000151
 21
-132.99999999999719
 31
0.0
  0
LINE
  5
676A
  8
CT
 10
177.00000000000159
 20
-131.18708601526569
 30
0.0
 11
177.00000000000159
 21
-106.8129139847364
 31
0.0
  0
CIRCLE
  5
676B
  8
FUTO
 10
177.00000000000159
 20
-119.00000000000109
 30
0.0
 40
6.0
  0
CIRCLE
  5
676C
  8
FUTO
 10
177.00000000000159
 20
-279.00000000000108
 30
0.0
 40
6.0
  0
LINE
  5
676D
  8
CT
 10
164.81291398473689
 20
-279.00000000000108
 30
0.0
 11
189.1870860152662
 21
-279.00000000000108
 31
0.0
  0
LINE
  5
676E
  8
CT
 10
177.00000000000159
 20
-291.18708601526572
 30
0.0
 11
177.00000000000159
 21
-266.8129139847365
 31
0.0
  0
LINE
  5
676F
  8
FUTO
 10
159.99999999999969
 20
-298.9999999999954
 30
0.0
 11
190.00000000000179
 21
-298.9999999999954
 31
0.0
  0
LINE
  5
6770
  8
FUTO
 10
190.0
 20
-299.00000000000108
 30
0.0
 11
160.0
 21
-299.00000000000108
 31
0.0
  0
LINE
  5
6771
  8
1
 10
74.799988000000667
 20
-277.79999999999831
 30
0.0
 11
74.799988000000667
 21
-156.29999999999831
 31
0.0
  0
LINE
  5
6772
  8
1
 10
85.0
 20
-307.99999999999721
 30
0.0
 11
160.0
 21
-307.99999999999932
 31
0.0
  0
LINE
  5
6773
  8
1
 10
85.0
 20
-316.29999999999831
 30
0.0
 11
85.0
 21
-277.79999999999831
 31
0.0
  0
LINE
  5
6774
  8
1
 10
0.000000000001819
 20
-317.79999999999831
 30
0.0
 11
83.499999999999986
 21
-317.79999999999831
 31
0.0
  0
LINE
  5
6775
  8
1
 10
-72.777344000000085
 20
-351.79999999999831
 30
0.0
 11
72.626524999999674
 21
-351.79999999999831
 31
0.0
  0
ARC
  5
6776
  8
1
 10
83.499999999999986
 20
-316.29999999999831
 30
0.0
 40
1.4999849999999999
 50
270.0
 51
0.0005800000062725
  0
ARC
  5
6777
  8
1
 10
81.815002999999706
 20
-318.79993899999948
 30
0.0
 40
0.999898
 50
89.99650299999503
 51
168.37008699999251
  0
LINE
  5
6778
  8
1
 10
74.246521000000939
 20
-350.60248999999828
 30
0.0
 11
80.835633000000598
 21
-318.59833899999921
 31
0.0
  0
LINE
  5
6779
  8
1
 10
85.0
 20
-277.79999999999831
 30
0.0
 11
-85.0
 21
-277.79999999999831
 31
0.0
  0
LINE
  5
677A
  8
1
 10
-160.00000000000361
 20
-307.99999999999181
 30
0.0
 11
-84.999999999999091
 21
-307.9999999999954
 31
0.0
  0
LINE
  5
677B
  8
1
 10
-74.799988000000667
 20
-277.79999999999831
 30
0.0
 11
-74.799988000000667
 21
-156.29999999999831
 31
0.0
  0
LINE
  5
677C
  8
1
 10
-85.0
 20
-316.29999999999831
 30
0.0
 11
-85.0
 21
-277.79999999999831
 31
0.0
  0
ARC
  5
677D
  8
1
 10
-81.815002999999706
 20
-318.79993899999948
 30
0.0
 40
0.999898
 50
11.629913000007431
 51
90.003497000004955
  0
LINE
  5
677E
  8
1
 10
-74.246521000000939
 20
-350.60248999999828
 30
0.0
 11
-80.835633000000598
 21
-318.59833899999921
 31
0.0
  0
ARC
  5
677F
  8
1
 10
-83.499999999999986
 20
-316.29999999999831
 30
0.0
 40
1.4999849999999999
 50
179.99941999999371
 51
270.0
  0
LINE
  5
6780
  8
1
 10
-0.000000000001819
 20
-317.79999999999831
 30
0.0
 11
-83.499999999999986
 21
-317.79999999999831
 31
0.0
  0
LINE
  5
6781
  8
CT
 10
-177.000000000005
 20
-291.18708601526572
 30
0.0
 11
-177.000000000005
 21
-266.8129139847365
 31
0.0
  0
LINE
  5
6782
  8
CT
 10
-164.8129139847405
 20
-279.00000000000108
 30
0.0
 11
-189.18708601526981
 21
-279.00000000000108
 31
0.0
  0
CIRCLE
  5
6783
  8
FUTO
 10
-177.000000000005
 20
-279.00000000000108
 30
0.0
 40
6.0
  0
LINE
  5
6784
  8
1
 10
-189.99999999999909
 20
-298.9999999999954
 30
0.0
 11
-160.00000000000361
 21
-298.9999999999954
 31
0.0
  0
LINE
  5
6785
  8
1
 10
33.499999999998181
 20
-133.79999999999831
 30
0.0
 11
33.5
 21
-124.79999999999831
 31
0.0
  0
LINE
  5
6786
  8
1
 10
0.0
 20
-133.79999999999831
 30
0.0
 11
73.5
 21
-133.79999999999831
 31
0.0
  0
LINE
  5
6787
  8
1
 10
75.5
 20
-156.29999999999831
 30
0.0
 11
0.000000000001819
 21
-156.29999999999831
 31
0.0
  0
LINE
  5
6788
  8
1
 10
-75.5
 20
-156.29999999999831
 30
0.0
 11
-0.000000000001819
 21
-156.29999999999831
 31
0.0
  0
LINE
  5
6789
  8
1
 10
0.0
 20
-133.79999999999831
 30
0.0
 11
-73.5
 21
-133.79999999999831
 31
0.0
  0
LINE
  5
678A
  8
1
 10
75.5
 20
-156.29999999999831
 30
0.0
 11
75.5
 21
-135.79999999999831
 31
0.0
  0
ARC
  5
678B
  8
1
 10
73.5
 20
-135.79999999999831
 30
0.0
 40
2.0
 50
0.0
 51
90.0
  0
LINE
  5
678C
  8
1
 10
64.065796000000773
 20
-133.79999999999831
 30
0.0
 11
73.065796000000773
 21
-133.79999999999831
 31
0.0
  0
LINE
  5
678D
  8
1
 10
72.815002999999706
 20
-133.79999999999831
 30
0.0
 11
64.184998000000633
 21
-133.79999999999831
 31
0.0
  0
LINE
  5
678E
  8
1
 10
-17.5
 20
-118.8000000000001
 30
0.0
 11
17.5
 21
-118.8000000000001
 31
0.0
  0
LINE
  5
678F
  8
1
 10
32.5
 20
-123.79999999999831
 30
0.0
 11
-32.5
 21
-123.79999999999831
 31
0.0
  0
LINE
  5
6790
  8
1
 10
-10.5
 20
-118.79999999999831
 30
0.0
 11
-10.5
 21
-123.79999999999831
 31
0.0
  0
ARC
  5
6791
  8
1
 10
32.5
 20
-124.79999999999831
 30
0.0
 40
1.0
 50
0.0
 51
90.0
  0
LINE
  5
6792
  8
1
 10
10.5
 20
-118.79999999999831
 30
0.0
 11
10.5
 21
-123.79999999999831
 31
0.0
  0
LINE
  5
6793
  8
1
 10
22.5
 20
-113.8000000000001
 30
0.0
 11
17.5
 21
-118.8000000000001
 31
0.0
  0
LINE
  5
6794
  8
1
 10
22.5
 20
-101.2999999999965
 30
0.0
 11
22.5
 21
-113.8000000000001
 31
0.0
  0
LINE
  5
6795
  8
1
 10
-17.5
 20
-118.8000000000001
 30
0.0
 11
-22.5
 21
-113.8000000000001
 31
0.0
  0
ENDBLK
  5
6797
  8
0
  0
BLOCK
  8
0
  2
*D24
 70
     1
 10
0.0
 20
0.0
 30
0.0
  3
*D24
  1

  0
LINE
  5
7707
  8
SP
 10
-5134.3360025940956
 20
1973.121728488446
 30
0.0
 11
-5134.3360025940956
 21
1815.553532158425
 31
0.0
  0
LINE
  5
7708
  8
SP
 10
-4754.3360025940929
 20
1973.121728488446
 30
0.0
 11
-4754.3360025940929
 21
1815.553532158425
 31
0.0
  0
LINE
  5
7709
  8
SP
 10
-5109.3360025940974
 20
1825.5535321584241
 30
0.0
 11
-4779.336002594092
 21
1825.5535321584241
 31
0.0
  0
INSERT
  5
770A
  8
SP
  2
_OPEN
 10
-5134.3360025940956
 20
1825.5535321584241
 30
0.0
 41
25.0
 42
25.0
 43
25.0
 50
180.0
  0
INSERT
  5
770B
  8
SP
  2
_OPEN
 10
-4754.3360025940929
 20
1825.5535321584241
 30
0.0
 41
25.0
 42
25.0
 43
25.0
  0
TEXT
  5
770C
  8
SP
 10
-4986.2123833377036
 20
1835.5535321584241
 30
0.0
 40
30.0
  1
380
 51
15.0
  0
POINT
  5
770D
  8
DEFPOINTS
 62
     0
 10
-5134.3360025940956
 20
1983.121728488446
 30
0.0
  0
POINT
  5
770E
  8
DEFPOINTS
 62
     0
 10
-4754.3360025940929
 20
1983.121728488446
 30
0.0
  0
POINT
  5
770F
  8
DEFPOINTS
 62
     0
 10
-4754.3360025940929
 20
1825.5535321584241
 30
0.0
  0
ENDBLK
  5
6889
  8
0
  0
BLOCK
  8
0
  2
*D25
 70
     1
 10
0.0
 20
0.0
 30
0.0
  3
*D25
  1

  0
LINE
  5
76FE
  8
SP
 10
-4744.336002594091
 20
2183.1217284884401
 30
0.0
 11
-4633.9624268393809
 21
2183.1217284884401
 31
0.0
  0
LINE
  5
76FF
  8
SP
 10
-4744.336002594092
 20
1983.121728488446
 30
0.0
 11
-4633.9624268393809
 21
1983.121728488446
 31
0.0
  0
LINE
  5
7700
  8
SP
 10
-4643.96242683938
 20
2158.1217284884401
 30
0.0
 11
-4643.9624268393818
 21
2008.121728488446
 31
0.0
  0
INSERT
  5
7701
  8
SP
  2
_OPEN
 10
-4643.96242683938
 20
2183.1217284884401
 30
0.0
 41
25.0
 42
25.0
 43
25.0
 50
90.0
  0
INSERT
  5
7702
  8
SP
  2
_OPEN
 10
-4643.9624268393818
 20
1983.121728488446
 30
0.0
 41
25.0
 42
25.0
 43
25.0
 50
270.0
  0
TEXT
  5
7703
  8
SP
 10
-4653.9624268393809
 20
2042.010916866064
 30
0.0
 40
30.0
  1
200
 50
90.0
 51
15.0
  0
POINT
  5
7704
  8
DEFPOINTS
 62
     0
 10
-4754.336002594091
 20
2183.1217284884401
 30
0.0
  0
POINT
  5
7705
  8
DEFPOINTS
 62
     0
 10
-4754.3360025940929
 20
1983.121728488446
 30
0.0
  0
POINT
  5
7706
  8
DEFPOINTS
 62
     0
 10
-4643.9624268393818
 20
1983.121728488446
 30
0.0
  0
ENDBLK
  5
6896
  8
0
  0
BLOCK
  8
0
  2
*D26
 70
     1
 10
0.0
 20
0.0
 30
0.0
  3
*D26
  1

  0
LINE
  5
7710
  8
SP
 10
-4744.336002594091
 20
2183.1217284884401
 30
0.0
 11
-4633.9624268393809
 21
2183.1217284884401
 31
0.0
  0
LINE
  5
7711
  8
SP
 10
-4724.1883880207424
 20
2282.121728488441
 30
0.0
 11
-4633.9624268393809
 21
2282.121728488441
 31
0.0
  0
LINE
  5
7712
  8
SP
 10
-4643.96242683938
 20
2208.1217284884401
 30
0.0
 11
-4643.96242683938
 21
2257.121728488441
 31
0.0
  0
INSERT
  5
7713
  8
SP
  2
_OPEN
 10
-4643.96242683938
 20
2183.1217284884401
 30
0.0
 41
25.0
 42
25.0
 43
25.0
 50
270.0
  0
INSERT
  5
7714
  8
SP
  2
_OPEN
 10
-4643.96242683938
 20
2282.121728488441
 30
0.0
 41
25.0
 42
25.0
 43
25.0
 50
90.0
  0
TEXT
  5
7715
  8
SP
 10
-4653.9624268393809
 20
2205.031062030544
 30
0.0
 40
30.0
  1
99
 50
90.0
 51
15.0
  0
POINT
  5
7716
  8
DEFPOINTS
 62
     0
 10
-4754.336002594091
 20
2183.1217284884401
 30
0.0
  0
POINT
  5
7717
  8
DEFPOINTS
 62
     0
 10
-4734.1883880207433
 20
2282.121728488441
 30
0.0
  0
POINT
  5
7718
  8
DEFPOINTS
 62
     0
 10
-4643.96242683938
 20
2282.121728488441
 30
0.0
  0
ENDBLK
  5
68A3
  8
0
  0
BLOCK
  8
0
  2
_NONE
 70
     0
 10
0.0
 20
0.0
 30
0.0
  3
_NONE
  1

  0
ENDBLK
  5
6F53
  8
0
  0
BLOCK
  8
0
  2
*D28
 70
     1
 10
0.0
 20
0.0
 30
0.0
  3
*D28
  1

  0
LINE
  5
7C46
  8
SP
 10
-4744.336002594091
 20
913.03013774616409
 30
0.0
 11
-4629.336002594091
 21
913.03013774616409
 31
0.0
  0
LINE
  5
7C47
  8
SP
 10
-4744.336002594091
 20
853.0301377461642
 30
0.0
 11
-4629.336002594091
 21
853.0301377461642
 31
0.0
  0
LINE
  5
7C48
  8
SP
 10
-4639.336002594091
 20
938.03013774616409
 30
0.0
 11
-4639.336002594091
 21
963.03013774616409
 31
0.0
  0
LINE
  5
7C49
  8
SP
 10
-4639.336002594091
 20
828.0301377461642
 30
0.0
 11
-4639.336002594091
 21
731.95686818325601
 31
0.0
  0
LINE
  5
7C4A
  8
SP
 10
-4639.336002594091
 20
913.03013774616409
 30
0.0
 11
-4639.336002594091
 21
853.0301377461642
 31
0.0
  0
INSERT
  5
7C4B
  8
SP
  2
_DOT
 10
-4639.336002594091
 20
913.03013774616409
 30
0.0
 41
25.0
 42
25.0
 43
25.0
 50
270.0
  0
INSERT
  5
7C4C
  8
SP
  2
_OPEN
 10
-4639.336002594091
 20
853.0301377461642
 30
0.0
 41
25.0
 42
25.0
 43
25.0
 50
90.0
  0
TEXT
  8
0
  40
30
  5
7C58
  72
0
  71
0
 10
-4724.34
 20
714.394
 30
0.000000
  1
60
  0
POINT
  5
7C4E
  8
DEFPOINTS
 62
     0
 10
-4754.336002594092
 20
913.03013774616409
 30
0.0
  0
POINT
  5
7C4F
  8
DEFPOINTS
 62
     0
 10
-4754.336002594092
 20
853.0301377461642
 30
0.0
  0
POINT
  5
7C50
  8
DEFPOINTS
 62
     0
 10
-4639.336002594091
 20
853.0301377461642
 30
0.0
  0
ENDBLK
  5
6FA0
  8
0
  0
BLOCK
  8
0
  2
*D29
 70
     1
 10
0.0
 20
0.0
 30
0.0
  3
*D29
  1

  0
LINE
  5
7C51
  8
SP
 10
-4744.336002594092
 20
983.03013774616602
 30
0.0
 11
-4629.336002594092
 21
983.03013774616602
 31
0.0
  0
LINE
  5
7C52
  8
SP
 10
-4744.336002594092
 20
913.03013774616409
 30
0.0
 11
-4629.336002594092
 21
913.03013774616409
 31
0.0
  0
LINE
  5
7C53
  8
SP
 10
-4639.336002594092
 20
983.03013774616602
 30
0.0
 11
-4639.336002594092
 21
913.03013774616409
 31
0.0
  0
TEXT
  8
0
  40
30
  5
7C59
  72
0
  71
0
 10
-4661.51
 20
875.026
 30
0.000000
  1
（70）
  0
POINT
  5
7C55
  8
DEFPOINTS
 62
     0
 10
-4754.3360025940929
 20
983.03013774616602
 30
0.0
  0
POINT
  5
7C56
  8
DEFPOINTS
 62
     0
 10
-4754.3360025940929
 20
913.03013774616409
 30
0.0
  0
POINT
  5
7C57
  8
DEFPOINTS
 62
     0
 10
-4639.336002594092
 20
913.03013774616409
 30
0.0
  0
ENDBLK
  5
6FAF
  8
0
  0
BLOCK
  8
0
  2
A$C4A8B4324
 70
     0
 10
0.0
 20
0.0
 30
0.0
  3
A$C4A8B4324
  1

  0
TEXT
  5
7C1C
  8
4
 10
-667.83345405869113
 20
20.71854450645332
 30
0.0
 40
50.0
  1
MF157P10.dxf
  0
ENDBLK
  5
7C1E
  8
0
  0
ENDSEC
  0
SECTION
  2
ENTITIES
  0
LINE
  5
276D
  8
4
 10
-3565.2949403355578
 20
96.092404061039815
 30
0.0
 11
-5665.2949403355578
 21
96.092404061039815
 31
0.0
  0
LINE
  5
276E
  8
4
 10
-5665.2949403355578
 20
3046.0924040610389
 30
0.0
 11
-3565.2949403355578
 21
3046.0924040610389
 31
0.0
  0
LINE
  5
276F
  8
4
 10
-5215.2949403355569
 20
513.62952889758606
 30
0.0
 11
-4015.2949403355569
 21
513.62952889758606
 31
0.0
  0
LINE
  5
2770
  8
4
 10
-5415.2949403355578
 20
2831.5186316473701
 30
0.0
 11
-3815.2949403355578
 21
2831.5186316473701
 31
0.0
  0
LINE
  5
2771
  8
4
 10
-5415.2949403355578
 20
2631.5186316473701
 30
0.0
 11
-3815.2949403355578
 21
2631.5186316473701
 31
0.0
  0
TEXT
  5
2772
  8
4
 10
-5205.6949403355584
 20
2695.5186316473701
 30
0.0
 40
72.0
  1
遠心式片吸込直動形多翼ファン
 72
     4
 11
-4615.2949403355578
 21
2731.5186316473701
 31
0.0
  0
TEXT
  5
2773
  8
4
 10
-4887.0027716547966
 20
2545.5387187150809
 30
0.0
 40
53.999999999999993
  1
床置防振ベッド型
  0
LINE
  5
2774
  8
4
 10
-5215.2949403355569
 20
413.62952889758611
 30
0.0
 11
-4015.2949403355569
 21
413.62952889758611
 31
0.0
  0
LINE
  5
2775
  8
4
 10
-5215.2949403355569
 20
313.62952889758611
 30
0.0
 11
-4015.2949403355569
 21
313.62952889758611
 31
0.0
  0
LINE
  5
2777
  8
4
 10
-5665.2949403355578
 20
96.092404061039815
 30
0.0
 11
-5665.2949403355578
 21
3046.0924040610389
 31
0.0
  0
TEXT
  5
277B
  8
4
 10
-5179.0368343107602
 20
335.27468562959712
 30
0.0
 40
50.0
  1
機器型番
  0
TEXT
  5
277C
  8
4
 10
-5176.7928594886562
 20
445.17255476419911
 30
0.0
 40
50.0
  1
機器名称
  0
LINE
  5
277E
  8
4
 10
-5215.2949403355569
 20
513.62952889758606
 30
0.0
 11
-5215.2949403355569
 21
313.62952889758611
 31
0.0
  0
TEXT
  5
27EF
  8
4
 10
-5385.5321462678094
 20
2544.4293549289091
 30
0.0
 40
53.999999999999993
  1
右回転右横向
  0
LINE
  5
27F0
  8
4
 10
-5415.2949403355578
 20
2831.5186316473701
 30
0.0
 11
-5415.2949403355578
 21
2631.5186316473701
 31
0.0
  0
LINE
  5
27FE
  8
1
 10
-5142.3360025940929
 20
2372.1217284884419
 30
0.0
 11
-4764.3360025940892
 21
2372.121728488441
 31
0.0
  0
LINE
  5
27FF
  8
1
 10
-5142.3360025940929
 20
2192.121728488441
 30
0.0
 11
-4764.3360025940892
 21
2192.1217284884401
 31
0.0
  0
LINE
  5
2800
  8
2
 10
-5187.5457150866587
 20
2282.1217284884419
 30
0.0
 11
-4734.1883880207433
 21
2282.121728488441
 31
0.0
  0
LINE
  5
2809
  8
2
 10
-4944.3360025940929
 20
1886.636834393265
 30
0.0
 11
-4944.3360025940929
 21
2402.3691039297701
 31
0.0
  0
LINE
  5
284B
  8
1
 10
-4745.3360025940892
 20
2191.121728488441
 30
0.0
 11
-4745.3360025940892
 21
2172.1217284884428
 31
0.0
  0
LINE
  5
284C
  8
1
 10
-4744.3360025940892
 20
2392.121728488441
 30
0.0
 11
-4744.3360025940892
 21
2172.1217284884428
 31
0.0
  0
LINE
  5
2868
  8
1
 10
-4744.3360025940892
 20
2172.1217284884428
 30
0.0
 11
-4745.3360025940892
 21
2172.1217284884428
 31
0.0
  0
LINE
  5
286F
  8
1
 10
-4764.3360025940892
 20
2352.1217284884419
 30
0.0
 11
-4764.3360025940892
 21
2212.1217284884401
 31
0.0
  0
LINE
  5
2870
  8
1
 10
-4745.3360025940892
 20
2372.121728488441
 30
0.0
 11
-4745.3360025940892
 21
2192.1217284884401
 31
0.0
  0
LINE
  5
2877
  8
1
 10
-4745.3360025940892
 20
2191.121728488441
 30
0.0
 11
-4764.3360025940892
 21
2191.121728488441
 31
0.0
  0
LINE
  5
2878
  8
1
 10
-4744.3360025940892
 20
2192.1217284884401
 30
0.0
 11
-4764.3360025940892
 21
2192.1217284884401
 31
0.0
  0
LINE
  5
2879
  8
1
 10
-4746.3360025940892
 20
2194.121728488441
 30
0.0
 11
-4764.3360025940892
 21
2212.1217284884401
 31
0.0
  0
LINE
  5
287A
  8
1
 10
-4746.3360025940892
 20
2194.121728488441
 30
0.0
 11
-4746.3360025940892
 21
2192.1217284884401
 31
0.0
  0
LINE
  5
2880
  8
1
 10
-4746.3360025940892
 20
2370.121728488441
 30
0.0
 11
-4764.3360025940892
 21
2352.121728488441
 31
0.0
  0
LINE
  5
2882
  8
1
 10
-4745.3360025940892
 20
2373.121728488441
 30
0.0
 11
-4764.3360025940892
 21
2373.121728488441
 31
0.0
  0
LINE
  5
2883
  8
1
 10
-4744.3360025940892
 20
2372.121728488441
 30
0.0
 11
-4764.3360025940892
 21
2372.121728488441
 31
0.0
  0
LINE
  5
2884
  8
1
 10
-4744.3360025940892
 20
2392.121728488441
 30
0.0
 11
-4745.3360025940892
 21
2392.121728488441
 31
0.0
  0
LINE
  5
2885
  8
1
 10
-4746.3360025940892
 20
2372.121728488441
 30
0.0
 11
-4746.3360025940892
 21
2370.121728488441
 31
0.0
  0
LINE
  5
2886
  8
1
 10
-4745.3360025940892
 20
2392.121728488441
 30
0.0
 11
-4745.3360025940892
 21
2373.121728488441
 31
0.0
  0
LINE
  5
2889
  8
4
 10
-3565.2949403355578
 20
3046.0924040610389
 30
0.0
 11
-3565.2949403355578
 21
96.092404061039815
 31
0.0
  0
LINE
  5
288F
  8
1
 10
-4193.3360025940892
 20
1217.030137746169
 30
0.0
 11
-3995.3360025940929
 21
1217.0301377461651
 31
0.0
  0
LINE
  5
2890
  8
1
 10
-4004.3360025940929
 20
1238.0301377461669
 30
0.0
 11
-4184.336002594092
 21
1238.0301377461669
 31
0.0
  0
LINE
  5
2891
  8
1
 10
-4003.336002594096
 20
1237.0301377461669
 30
0.0
 11
-4185.3360025940929
 21
1237.0301377461669
 31
0.0
  0
LINE
  5
2892
  8
1
 10
-4193.3360025940929
 20
1509.030137746166
 30
0.0
 11
-3995.336002594097
 21
1509.0301377461631
 31
0.0
  0
LINE
  5
2893
  8
1
 10
-4184.336002594092
 20
1488.0301377461651
 30
0.0
 11
-4004.3360025940929
 21
1488.0301377461651
 31
0.0
  0
LINE
  5
2894
  8
1
 10
-4185.3360025940929
 20
1489.0301377461651
 30
0.0
 11
-4003.3360025940892
 21
1489.030137746164
 31
0.0
  0
LINE
  5
2895
  8
HOSO
 10
-4184.336002594092
 20
1488.0301377461651
 30
0.0
 11
-4004.3360025940929
 21
1238.0301377461669
 31
0.0
  0
LINE
  5
2896
  8
HOSO
 10
-4004.3360025940929
 20
1488.0301377461651
 30
0.0
 11
-4184.336002594092
 21
1238.0301377461669
 31
0.0
  0
LINE
  5
2899
  8
1
 10
-4173.3360025940929
 20
1062.0301377461669
 30
0.0
 11
-4015.336002594092
 21
1062.0301377461669
 31
0.0
  0
LINE
  5
289A
  8
1
 10
-4173.3360025940929
 20
1061.0301377461669
 30
0.0
 11
-4015.336002594092
 21
1061.0301377461669
 31
0.0
  0
LINE
  5
289B
  8
2
 10
-4470.0932271021284
 20
1238.0301377461669
 30
0.0
 11
-3962.5606600310689
 21
1238.0301377461669
 31
0.0
  0
TEXT
  5
289D
  8
4
 10
-4678.6404447500772
 20
330.78911317752949
 30
0.0
 40
50.0
  1
MF＃1 1/2-7
  0
TEXT
  5
289E
  8
4
 10
-4687.616194847893
 20
436.20129785515468
 30
0.0
 40
50.0
  1
ミツヤ多翼送風機
  0
LINE
  5
289F
  8
4
 10
-4715.2949403355569
 20
513.62952889758606
 30
0.0
 11
-4715.2949403355569
 21
313.62952889758611
 31
0.0
  0
LINE
  5
28CE
  8
1
 10
-4205.3360025940929
 20
1497.030137746166
 30
0.0
 11
-4205.3360025940892
 21
1229.030137746169
 31
0.0
  0
LINE
  5
28CF
  8
1
 10
-4184.336002594092
 20
1488.0301377461651
 30
0.0
 11
-4184.336002594092
 21
1238.0301377461669
 31
0.0
  0
LINE
  5
28D0
  8
1
 10
-4185.3360025940929
 20
1489.0301377461651
 30
0.0
 11
-4185.3360025940929
 21
1237.0301377461669
 31
0.0
  0
LINE
  5
28D3
  8
2
 10
-4094.3360025940929
 20
1565.453374938111
 30
0.0
 11
-4094.3360025940929
 21
1013.83458395176
 31
0.0
  0
ARC
  5
28D5
  8
1
 10
-4173.3360025940929
 20
1073.0301377461669
 30
0.0
 40
12.0
 50
180.0
 51
270.0
  0
ARC
  5
28E5
  8
1
 10
-4193.3360025940892
 20
1229.030137746169
 30
0.0
 40
12.0
 50
180.0
 51
270.0
  0
LINE
  5
28E7
  8
1
 10
-4184.336002594092
 20
1073.0301377461669
 30
0.0
 11
-4184.336002594092
 21
1217.030137746169
 31
0.0
  0
LINE
  5
28E8
  8
1
 10
-4185.3360025940929
 20
1073.0301377461669
 30
0.0
 11
-4185.3360025940929
 21
1217.030137746169
 31
0.0
  0
LINE
  5
28E9
  8
1
 10
-4185.3360025940929
 20
1088.0301377461669
 30
0.0
 11
-4185.3360025940929
 21
1073.0301377461669
 31
0.0
  0
ARC
  5
28EA
  8
1
 10
-4173.3360025940929
 20
1073.0301377461669
 30
0.0
 40
11.0
 50
180.0
 51
270.0
  0
ARC
  5
28F4
  8
1
 10
-4193.3360025940929
 20
1497.030137746166
 30
0.0
 40
12.0
 50
90.0
 51
180.0
  0
LINE
  5
28F5
  8
4
 10
-4015.2949403355569
 20
513.62952889758606
 30
0.0
 11
-4015.2949403355569
 21
313.62952889758611
 31
0.0
  0
LINE
  5
28F7
  8
1
 10
-3983.336002594096
 20
1497.0301377461631
 30
0.0
 11
-3983.3360025940929
 21
1229.0301377461651
 31
0.0
  0
LINE
  5
28F8
  8
1
 10
-4004.3360025940929
 20
1488.030137746164
 30
0.0
 11
-4004.3360025940929
 21
1238.0301377461669
 31
0.0
  0
LINE
  5
28F9
  8
1
 10
-4003.3360025940892
 20
1489.030137746164
 30
0.0
 11
-4003.336002594096
 21
1237.0301377461669
 31
0.0
  0
LINE
  5
28FB
  8
1
 10
-4003.336002594092
 20
1388.0301377461669
 30
0.0
 11
-4003.336002594091
 21
1238.0301377461669
 31
0.0
  0
LINE
  5
2906
  8
1
 10
-4004.3360025940951
 20
1217.0301377461651
 30
0.0
 11
-4004.3360025940929
 21
1073.0301377461669
 31
0.0
  0
LINE
  5
2908
  8
1
 10
-4003.3360025940951
 20
1217.0301377461651
 30
0.0
 11
-4003.336002594092
 21
1073.0301377461669
 31
0.0
  0
LINE
  5
290C
  8
1
 10
-4003.336002594092
 20
1088.0301377461669
 30
0.0
 11
-4003.336002594092
 21
1073.0301377461669
 31
0.0
  0
ARC
  5
290D
  8
1
 10
-4015.336002594092
 20
1073.0301377461669
 30
0.0
 40
11.0
 50
270.0
 51
0.0
  0
ARC
  5
290E
  8
1
 10
-4015.336002594092
 20
1073.0301377461669
 30
0.0
 40
12.0
 50
270.0
 51
0.0
  0
ARC
  5
290F
  8
1
 10
-4000.336002594092
 20
1088.0301377461669
 30
0.0
 40
3.0
 50
90.0
 51
180.0
  0
ARC
  5
2914
  8
1
 10
-3995.3360025940929
 20
1229.0301377461651
 30
0.0
 40
12.0
 50
270.0
 51
0.0
  0
ARC
  5
2917
  8
1
 10
-3995.336002594097
 20
1497.0301377461631
 30
0.0
 40
12.0
 50
0.0
 51
90.0
  0
LINE
  5
2918
  8
4
 10
-3815.2949403355578
 20
2843.3734605079671
 30
0.0
 11
-4224.6775179756933
 21
2843.3734605079671
 31
0.0
  0
LINE
  5
2919
  8
4
 10
-4224.6775179756933
 20
2948.7621389323181
 30
0.0
 11
-3815.2949403355578
 21
2948.7621389323181
 31
0.0
  0
TEXT
  5
291A
  8
4
 10
-4224.1813230104945
 20
2545.5387187150809
 30
0.0
 40
53.999999999999993
  1
縮尺：1/10
  0
TEXT
  5
291B
  8
4
 10
-4196.325381086268
 20
2868.170958877874
 30
0.0
 40
56.000000000000007
  1
No.
  0
LINE
  5
291C
  8
4
 10
-4224.6775179756933
 20
2843.3734605079671
 30
0.0
 11
-4224.6775179756933
 21
2948.7621389323181
 31
0.0
  0
LINE
  5
291D
  8
4
 10
-3815.2949403355578
 20
2831.5186316473701
 30
0.0
 11
-3815.2949403355578
 21
2631.5186316473701
 31
0.0
  0
LINE
  5
291E
  8
4
 10
-3815.2949403355578
 20
2948.7621389323181
 30
0.0
 11
-3815.2949403355578
 21
2843.3734605079671
 31
0.0
  0
LINE
  5
291F
  8
4
 10
-3565.2949403355578
 20
3046.0924040610389
 30
0.0
 11
-3565.2949403355578
 21
3046.0924040610389
 31
0.0
  0
ARC
  5
5743
  8
FUTO
 10
-4961.336002594091
 20
1255.030137746164
 30
0.0
 40
203.0
 50
179.572081032222
 51
270.46732170499479
  0
ARC
  5
5744
  8
FUTO
 10
-4924.336002594091
 20
1258.030137746164
 30
0.0
 40
240.0
 50
89.999999999999986
 51
180.39182689926031
  0
ARC
  5
5745
  8
FUTO
 10
-4961.336002594091
 20
1255.030137746164
 30
0.0
 40
193.0
 50
179.572081032222
 51
270.46732170499479
  0
ARC
  5
5746
  8
FUTO
 10
-4924.336002594091
 20
1258.030137746164
 30
0.0
 40
230.0
 50
89.999999999999986
 51
180.39182689926031
  0
LINE
  5
5747
  8
2
 10
-4944.3360025940929
 20
829.39249546469
 30
0.0
 11
-4944.3360025940929
 21
1534.8458668319649
 31
0.0
  0
LINE
  5
5748
  8
1
 10
-4786.636002594094
 20
1304.1301377461641
 30
0.0
 11
-4786.636002594094
 21
983.0301377461642
 31
0.0
  0
LINE
  5
5749
  8
1
 10
-4784.3360025940929
 20
1304.1301377461641
 30
0.0
 11
-4784.3360025940929
 21
985.33013774616529
 31
0.0
  0
LINE
  5
574A
  8
1
 10
-5102.0360025940927
 20
1304.1301377461641
 30
0.0
 11
-5102.0360025940927
 21
983.0301377461642
 31
0.0
  0
LINE
  5
574B
  8
1
 10
-5104.336002594092
 20
1304.1301377461641
 30
0.0
 11
-5104.336002594092
 21
985.330137746167
 31
0.0
  0
ARC
  5
574C
  8
1
 10
-4944.3360025940929
 20
1238.030137746166
 30
0.0
 40
85.0
 50
0.0
 51
244.12446600000609
  0
CIRCLE
  5
574D
  8
2
 10
-4944.3360025940929
 20
1238.030137746166
 30
0.0
 40
136.0
  0
ARC
  5
574E
  8
1
 10
-4944.3360025940929
 20
1238.030137746166
 30
0.0
 40
85.000007999999994
 50
295.9177259999754
 51
0.0
  0
DIMENSION
  5
574F
  8
SP
  2
*D10
 10
-5134.3360025940938
 20
713.03013774616613
 30
0.0
 11
-4944.3360025940929
 21
738.03013774616613
 31
0.0
 70
     0
 13
-4754.3360025940929
 23
853.03013774616613
 33
0.0
 14
-5134.3360025940938
 24
853.03013774616431
 34
0.0
  0
DIMENSION
  5
5750
  8
SP
  2
*D11
 10
-4754.3360025940929
 20
783.03013774616613
 30
0.0
 11
-4849.3360025940929
 21
808.03013774616625
 31
0.0
 70
     0
 13
-4944.3360025940929
 23
829.39249546469
 33
0.0
 14
-4754.3360025940929
 24
853.03013774616613
 34
0.0
  0
DIMENSION
  5
5751
  8
SP
  2
*D12
 10
-4944.3360025940929
 20
783.03013774616431
 30
0.0
 11
-5039.3360025940929
 21
808.0301377461642
 31
0.0
 70
     0
 13
-5134.3360025940938
 23
853.03013774616431
 33
0.0
 14
-4944.3360025940929
 24
829.39249546469
 34
0.0
  0
LINE
  5
5752
  8
FUTO
 10
-5077.0360025940936
 20
1133.030137746166
 30
0.0
 11
-5102.0360025940918
 21
1158.030137746166
 31
0.0
  0
LINE
  5
5753
  8
1
 10
-5102.0360025940918
 20
1034.030137746166
 30
0.0
 11
-5077.0360025940936
 21
1034.030137746166
 31
0.0
  0
LINE
  5
5754
  8
1
 10
-5134.3360025940929
 20
983.0301377461642
 30
0.0
 11
-4754.3360025940929
 21
983.03013774616602
 31
0.0
  0
LINE
  5
5755
  8
1
 10
-5102.0360025940918
 20
1158.030137746166
 30
0.0
 11
-4786.636002594094
 21
1158.030137746166
 31
0.0
  0
LINE
  5
5756
  8
2
 10
-5121.3360025940929
 20
902.41419796009347
 30
0.0
 11
-5121.3360025940929
 21
995.330137746167
 31
0.0
  0
LINE
  5
5757
  8
1
 10
-5134.3360025940929
 20
983.0301377461642
 30
0.0
 11
-5134.3360025940938
 21
985.33013774616529
 31
0.0
  0
LINE
  5
5758
  8
1
 10
-5134.3360025940929
 20
985.33013774616529
 30
0.0
 11
-5104.336002594092
 21
985.330137746167
 31
0.0
  0
LINE
  5
5759
  8
1
 10
-4811.6360025940949
 20
1133.030137746166
 30
0.0
 11
-4811.6360025940949
 21
1034.030137746166
 31
0.0
  0
LINE
  5
575A
  8
1
 10
-5077.0360025940936
 20
1133.030137746166
 30
0.0
 11
-5077.0360025940936
 21
1034.030137746166
 31
0.0
  0
LINE
  5
575B
  8
1
 10
-4811.6360025940949
 20
1034.030137746166
 30
0.0
 11
-4786.636002594094
 21
1034.030137746166
 31
0.0
  0
LINE
  5
575C
  8
1
 10
-4754.3360025940929
 20
983.03013774616602
 30
0.0
 11
-4754.3360025940929
 21
985.330137746167
 31
0.0
  0
LINE
  5
575D
  8
2
 10
-4767.3360025940938
 20
902.86877234373958
 30
0.0
 11
-4767.3360025940929
 21
995.33013774616518
 31
0.0
  0
LINE
  5
575E
  8
1
 10
-4784.3360025940929
 20
985.330137746167
 30
0.0
 11
-4754.3360025940929
 21
985.33013774616529
 31
0.0
  0
LINE
  5
575F
  8
FUTO
 10
-4811.6360025940921
 20
1133.030137746166
 30
0.0
 11
-4786.636002594094
 21
1158.030137746166
 31
0.0
  0
LINE
  5
5760
  8
1
 10
-5077.0360025940936
 20
1133.030137746166
 30
0.0
 11
-4811.636002594094
 21
1133.030137746166
 31
0.0
  0
LINE
  5
5761
  8
CT
 10
-5001.4221236487811
 20
1100.2120500726651
 30
0.0
 11
-4990.9100381147491
 21
1125.5904695377469
 31
0.0
  0
CIRCLE
  5
5762
  8
1
 10
-4996.380949395746
 20
1112.3825213246309
 30
0.0
 40
4.0
  0
LINE
  5
5763
  8
CT
 10
-4887.2498815394038
 20
1100.2120500726651
 30
0.0
 11
-4897.7619670734348
 21
1125.5904695377469
 31
0.0
  0
CIRCLE
  5
5764
  8
1
 10
-4892.2910557924406
 20
1112.3825213246309
 30
0.0
 40
4.0
  0
LINE
  5
5765
  8
1
 10
-4981.431501594092
 20
1161.5792097461649
 30
0.0
 11
-4907.1841935940938
 21
1161.5792097461649
 31
0.0
  0
LINE
  5
5766
  8
1
 10
-5026.8360025940929
 20
1159.6892557461649
 30
0.0
 11
-4861.8359725940927
 21
1159.6892557461649
 31
0.0
  0
LINE
  5
5767
  8
CT
 10
-5006.8360025940929
 20
1155.8115517461649
 30
0.0
 11
-5006.8360025940929
 21
1164.398558746165
 31
0.0
  0
LINE
  5
5768
  8
CT
 10
-5082.1540902675933
 20
1180.9440166914751
 30
0.0
 11
-5056.7756708025099
 21
1191.4561022255079
 31
0.0
  0
ARC
  5
5769
  8
1
 10
-4996.7012065940917
 20
1167.530137746166
 30
0.0
 40
5.0
 50
270.0
 51
324.46176099999479
  0
LINE
  5
576A
  8
1
 10
-4990.9599405940944
 20
1166.9656597461651
 30
0.0
 11
-4992.6325425940922
 21
1164.623887746166
 31
0.0
  0
LINE
  5
576B
  8
1
 10
-5022.1691635940906
 20
1162.5247667461661
 30
0.0
 11
-5006.6591705940918
 21
1180.211633746165
 31
0.0
  0
LINE
  5
576C
  8
1
 10
-5026.8360025940929
 20
1162.530137746166
 30
0.0
 11
-4996.7011765940924
 21
1162.530137746166
 31
0.0
  0
CIRCLE
  5
576D
  8
1
 10
-5069.9836190156266
 20
1185.9851909445131
 30
0.0
 40
4.0
  0
ARC
  5
576E
  8
1
 10
-4944.3360025940929
 20
1238.030137746166
 30
0.0
 40
85.0
 50
236.73178133168611
 51
244.12446600000609
  0
LINE
  5
576F
  8
1
 10
-4986.8360025940929
 20
1159.6892557461649
 30
0.0
 11
-4986.8360025940929
 21
1158.030137746166
 31
0.0
  0
LINE
  5
5770
  8
1
 10
-5021.8360025940929
 20
1159.6892557461649
 30
0.0
 11
-5021.8360025940929
 21
1158.030137746166
 31
0.0
  0
LINE
  5
5771
  8
1
 10
-5026.8360025940929
 20
1159.6892557461649
 30
0.0
 11
-5026.8360025940929
 21
1162.530137746166
 31
0.0
  0
LINE
  5
5772
  8
CT
 10
-4806.5179149205924
 20
1180.9440166914769
 30
0.0
 11
-4831.8963343856758
 21
1191.4561022255079
 31
0.0
  0
LINE
  5
5773
  8
CT
 10
-4881.8360025940929
 20
1155.8115517461649
 30
0.0
 11
-4881.8360025940929
 21
1164.398558746165
 31
0.0
  0
LINE
  5
5774
  8
1
 10
-4861.8359725940927
 20
1162.530137746166
 30
0.0
 11
-4891.9707985940931
 21
1162.530137746166
 31
0.0
  0
LINE
  5
5775
  8
1
 10
-4866.501634594094
 20
1162.5233137461651
 30
0.0
 11
-4882.0146945940942
 21
1180.213775746166
 31
0.0
  0
LINE
  5
5776
  8
1
 10
-4896.8277325940917
 20
1165.727524746166
 30
0.0
 11
-4896.0394635940929
 21
1164.623887746166
 31
0.0
  0
LINE
  5
5777
  8
1
 10
-4897.7044515940916
 20
1166.954999746165
 30
0.0
 11
-4896.0394635940929
 21
1164.623887746166
 31
0.0
  0
ARC
  5
5778
  8
1
 10
-4891.9707985940931
 20
1167.530137746166
 30
0.0
 40
5.000032
 50
215.53825399997791
 51
270.0
  0
LINE
  5
5779
  8
1
 10
-4866.8360025940929
 20
1159.6892557461649
 30
0.0
 11
-4866.8360025940929
 21
1158.030137746166
 31
0.0
  0
LINE
  5
577A
  8
1
 10
-4901.8360025940929
 20
1159.6892557461649
 30
0.0
 11
-4901.8360025940929
 21
1158.030137746166
 31
0.0
  0
LINE
  5
577B
  8
1
 10
-4861.8359725940927
 20
1162.530137746166
 30
0.0
 11
-4861.8359725940927
 21
1159.6892557461649
 31
0.0
  0
CIRCLE
  5
577C
  8
1
 10
-4818.6883861725582
 20
1185.9851909445131
 30
0.0
 40
4.0
  0
LINE
  5
577F
  8
FUTO
 10
-4744.3415580639157
 20
1488.030122314422
 30
0.0
 11
-4924.3415580639194
 21
1488.030122314422
 31
0.0
  0
LINE
  5
5780
  8
FUTO
 10
-4744.336002594091
 20
1489.030137746164
 30
0.0
 11
-4764.336002594091
 21
1489.030137746164
 31
0.0
  0
LINE
  5
5781
  8
FUTO
 10
-4745.336002594091
 20
1490.030137746164
 30
0.0
 11
-4764.336002594091
 21
1490.030137746164
 31
0.0
  0
LINE
  5
5782
  8
FUTO
 10
-4746.3360025940901
 20
1487.030137746164
 30
0.0
 11
-4764.336002594091
 21
1469.030137746164
 31
0.0
  0
LINE
  5
5783
  8
FUTO
 10
-4764.336002594091
 20
1238.030137746164
 30
0.0
 11
-4744.336002594091
 21
1238.030137746164
 31
0.0
  0
LINE
  5
5784
  8
FUTO
 10
-4744.336002594091
 20
1237.030137746164
 30
0.0
 11
-4764.336002594091
 21
1237.030137746164
 31
0.0
  0
LINE
  5
5785
  8
FUTO
 10
-4745.336002594091
 20
1236.030137746164
 30
0.0
 11
-4764.336002594091
 21
1236.030137746164
 31
0.0
  0
LINE
  5
5786
  8
FUTO
 10
-4746.3360025940901
 20
1239.030137746164
 30
0.0
 11
-4764.336002594091
 21
1257.030137746164
 31
0.0
  0
LINE
  5
5787
  8
FUTO
 10
-4764.336002594091
 20
1469.030137746164
 30
0.0
 11
-4764.336002594091
 21
1257.030137746164
 31
0.0
  0
LINE
  5
5788
  8
1
 10
-5004.3360025940929
 20
1388.030137746166
 30
0.0
 11
-5102.7360025940934
 21
1304.1301377461641
 31
0.0
  0
LINE
  5
5789
  8
2
 10
-5228.522487571392
 20
1238.030137746166
 30
0.0
 11
-4734.1883880207433
 21
1238.030137746164
 31
0.0
  0
LINE
  5
578A
  8
FUTO
 10
-4764.336002594091
 20
1498.9191963868291
 30
0.0
 11
-4924.3971127621553
 21
1498.0299679970069
 31
0.0
  0
LINE
  5
578B
  8
1
 10
-5104.336002594092
 20
1304.1301377461641
 30
0.0
 11
-5102.7360025940934
 21
1304.1301377461641
 31
0.0
  0
LINE
  5
578C
  8
FUTO
 10
-4764.336002594091
 20
1498.9191963868291
 30
0.0
 11
-4764.336002594091
 21
1488.9190420670329
 31
0.0
  0
ARC
  5
578D
  8
FUTO
 10
-4958.336002594091
 20
1224.030137746164
 30
0.0
 40
172.0
 50
269.48966675519341
 51
348.4507381764214
  0
ARC
  5
578E
  8
FUTO
 10
-4958.336002594091
 20
1224.030137746164
 30
0.0
 40
162.0
 50
269.48966675519341
 51
348.4507381764214
  0
LINE
  5
578F
  8
1
 10
-4884.3360025940929
 20
1388.030137746166
 30
0.0
 11
-4785.9360025940932
 21
1304.1301377461641
 31
0.0
  0
LINE
  5
5790
  8
CT
 10
-5082.1540902675933
 20
1295.1162588008519
 30
0.0
 11
-5056.7756708025099
 21
1284.6041732668241
 31
0.0
  0
CIRCLE
  5
5791
  8
1
 10
-5069.9836190156266
 20
1290.0750845478181
 30
0.0
 40
4.0
  0
LINE
  5
5792
  8
CT
 10
-4806.5179149205924
 20
1295.1162588008519
 30
0.0
 11
-4831.8963343856758
 21
1284.6041732668241
 31
0.0
  0
CIRCLE
  5
5793
  8
1
 10
-4818.6883861725582
 20
1290.0750845478181
 30
0.0
 40
4.0
  0
LINE
  5
5794
  8
1
 10
-4785.9360025940932
 20
1304.1301377461641
 30
0.0
 11
-4784.3360025940929
 21
1304.1301377461641
 31
0.0
  0
LINE
  5
5795
  8
CT
 10
-4887.2498815394038
 20
1375.848225419664
 30
0.0
 11
-4897.7619670734366
 21
1350.4698059545831
 31
0.0
  0
LINE
  5
5796
  8
CT
 10
-5001.4221236487811
 20
1375.848225419664
 30
0.0
 11
-4990.9100381147509
 21
1350.469805954581
 31
0.0
  0
CIRCLE
  5
5797
  8
1
 10
-4996.380949395746
 20
1363.6777541677
 30
0.0
 40
4.0
  0
CIRCLE
  5
5798
  8
1
 10
-4892.2910557924406
 20
1363.6777541677
 30
0.0
 40
4.0
  0
ARC
  5
5799
  8
FUTO
 10
-4728.3360025940901
 20
1177.0301377461681
 30
0.0
 40
72.753061747871584
 50
124.1996194554422
 51
168.45073817642151
  0
LINE
  5
579A
  8
FUTO
 10
-4764.336002594091
 20
1238.030137746164
 30
0.0
 11
-4764.336002594091
 21
1232.098294335922
 31
0.0
  0
LINE
  5
579B
  8
1
 10
-5004.3360025940929
 20
1388.030137746166
 30
0.0
 11
-4884.3360025940929
 21
1388.030137746166
 31
0.0
  0
LINE
  5
579C
  8
FUTO
 10
-4764.336002594091
 20
1238.030137746164
 30
0.0
 11
-4764.336002594091
 21
1237.030137746164
 31
0.0
  0
ARC
  5
579D
  8
FUTO
 10
-4733.8160332719481
 20
1178.5015516462361
 30
0.0
 40
57.203726762688042
 50
126.6035036735999
 51
171.67207569821369
  0
ARC
  5
579E
  8
FUTO
 10
-4774.336002594091
 20
1232.098294335922
 30
0.0
 40
10.0
 50
309.87296890615761
 51
0.0
  0
LINE
  5
579F
  8
FUTO
 10
-4744.336002594091
 20
1509.030137746164
 30
0.0
 11
-4744.336002594091
 21
1217.030137746164
 31
0.0
  0
LINE
  5
57A0
  8
FUTO
 10
-4745.336002594091
 20
1489.030137746164
 30
0.0
 11
-4745.336002594091
 21
1237.030137746164
 31
0.0
  0
LINE
  5
57A2
  8
FUTO
 10
-4745.336002594091
 20
1509.030137746164
 30
0.0
 11
-4745.336002594091
 21
1490.030137746164
 31
0.0
  0
LINE
  5
57A3
  8
FUTO
 10
-4744.336002594091
 20
1509.030137746164
 30
0.0
 11
-4745.336002594091
 21
1509.030137746164
 31
0.0
  0
LINE
  5
57A4
  8
FUTO
 10
-4746.3360025940901
 20
1489.030137746164
 30
0.0
 11
-4746.3360025940901
 21
1487.030137746164
 31
0.0
  0
LINE
  5
57A5
  8
FUTO
 10
-4745.336002594091
 20
1236.030137746164
 30
0.0
 11
-4745.336002594091
 21
1217.030137746164
 31
0.0
  0
LINE
  5
57A6
  8
FUTO
 10
-4746.3360025940901
 20
1239.030137746164
 30
0.0
 11
-4746.3360025940901
 21
1237.030137746164
 31
0.0
  0
LINE
  5
57A7
  8
FUTO
 10
-4744.336002594091
 20
1217.030137746164
 30
0.0
 11
-4745.336002594091
 21
1217.030137746164
 31
0.0
  0
DIMENSION
  5
5CF7
  8
SP
  2
*D13
 10
-4639.336002594091
 20
1238.030137746164
 30
0.0
 11
-4664.336002594091
 21
1363.030130030292
 31
0.0
 70
     0
 13
-4744.3415580639139
 23
1488.030122314422
 33
0.0
 14
-4734.1883880207433
 24
1238.030137746164
 34
0.0
 50
90.0
  0
DIMENSION
  5
5D04
  8
SP
  2
*D14
 10
-4639.336002594091
 20
983.03013774616602
 30
0.0
 11
-4664.336002594091
 21
1110.530137746164
 31
0.0
 70
     0
 13
-4734.1883880207433
 23
1238.030137746164
 33
0.0
 14
-4754.3360025940929
 24
983.03013774616602
 34
0.0
 50
90.0
  0
DIMENSION
  5
5D12
  8
SP
  2
*D15
 10
-4744.336002594091
 20
1568.0288877750991
 30
0.0
 11
-4844.336002594092
 21
1593.0288877750991
 31
0.0
 70
     0
 13
-4944.3360025940929
 23
1534.8458668319649
 33
0.0
 14
-4744.336002594091
 24
1509.030137746164
 34
0.0
  0
DIMENSION
  5
5D31
  8
SP
  2
*D16
 10
-5154.336002594091
 20
1568.0288877750991
 30
0.0
 11
-5049.336002594092
 21
1593.0288877750991
 31
0.0
 70
     0
 13
-4944.3360025940929
 23
1534.8458668319649
 33
0.0
 14
-5154.336002594091
 24
1255.030137746164
 34
0.0
  0
LINE
  5
6163
  8
1
 10
-4393.336002594092
 20
983.03013774616784
 30
0.0
 11
-4163.3360025940929
 21
983.03013774616784
 31
0.0
  0
LINE
  5
6164
  8
1
 10
-4393.336002594092
 20
985.330137746167
 30
0.0
 11
-4195.6360025940921
 21
985.33013774616529
 31
0.0
  0
LINE
  5
6166
  8
1
 10
-4393.336002594091
 20
985.330137746167
 30
0.0
 11
-4393.336002594092
 21
983.03013774616784
 31
0.0
  0
LINE
  5
6168
  8
1
 10
-4193.3360025940929
 20
985.33013774616529
 30
0.0
 11
-4163.3360025940929
 21
985.330137746167
 31
0.0
  0
LINE
  5
6169
  8
1
 10
-4163.3360025940929
 20
985.33013774616529
 30
0.0
 11
-4163.3360025940929
 21
983.03013774616784
 31
0.0
  0
LINE
  5
616A
  8
1
 10
-4193.3360025940929
 20
1388.0301377461669
 30
0.0
 11
-4193.3360025940929
 21
983.03013774616784
 31
0.0
  0
LINE
  5
616B
  8
1
 10
-4195.636002594094
 20
1388.030137746166
 30
0.0
 11
-4195.6360025940921
 21
985.33013774616529
 31
0.0
  0
LINE
  5
616C
  8
2
 10
-4313.1360025940921
 20
1318.3140127461679
 30
0.0
 11
-4313.1360025940921
 21
1154.0140247461679
 31
0.0
  0
LINE
  5
616D
  8
1
 10
-4412.1360025940921
 20
1161.0301377461681
 30
0.0
 11
-4412.1360025940921
 21
1321.5301377461669
 31
0.0
  0
LINE
  5
616E
  8
1
 10
-4393.336002594091
 20
985.330137746167
 30
0.0
 11
-4221.9360025940914
 21
1282.8301377461671
 31
0.0
  0
LINE
  5
616F
  8
1
 10
-4402.336002594092
 20
1106.030137746169
 30
0.0
 11
-4369.0360025940936
 21
1034.030137746166
 31
0.0
  0
LINE
  5
6170
  8
1
 10
-4402.336002594092
 20
1158.0301377461669
 30
0.0
 11
-4402.336002594092
 21
1106.030137746171
 31
0.0
  0
LINE
  5
6171
  8
1
 10
-4292.6853135184592
 20
1160.0301377461669
 30
0.0
 11
-4378.1360025940921
 21
1160.0301377461669
 31
0.0
  0
LINE
  5
6172
  8
1
 10
-4291.2449773840071
 20
1162.5301377461669
 30
0.0
 11
-4378.1360025940921
 21
1162.5301377461669
 31
0.0
  0
LINE
  5
6173
  8
1
 10
-4313.1360025940921
 20
1160.0301377461669
 30
0.0
 11
-4347.1360025940921
 21
1160.0301377461669
 31
0.0
  0
LINE
  5
6174
  8
1
 10
-4402.336002594092
 20
1158.030137746169
 30
0.0
 11
-4293.8375824260211
 21
1158.030137746171
 31
0.0
  0
LINE
  5
6175
  8
1
 10
-4344.0079505940921
 20
1170.3615587461679
 30
0.0
 11
-4372.1360025940921
 21
1170.3615587461679
 31
0.0
  0
LINE
  5
6176
  8
1
 10
-4378.1360025940921
 20
1160.0301377461669
 30
0.0
 11
-4378.1360025940921
 21
1164.3615587461679
 31
0.0
  0
LINE
  5
6177
  8
1
 10
-4373.1360025940921
 20
1160.0301377461669
 30
0.0
 11
-4373.1360025940921
 21
1158.0301377461669
 31
0.0
  0
LINE
  5
6178
  8
1
 10
-4375.6360025940921
 20
1195.4762427461681
 30
0.0
 11
-4375.6360025940921
 21
1169.234955746168
 31
0.0
  0
ARC
  5
6179
  8
1
 10
-4372.1360025940921
 20
1164.3615587461679
 30
0.0
 40
6.0
 50
90.0
 51
180.0
  0
LINE
  5
617A
  8
1
 10
-4378.4592445940916
 20
1163.230089746168
 30
0.0
 11
-4378.149002594093
 21
1163.230089746168
 31
0.0
  0
LINE
  5
617B
  8
CT
 10
-4363.1360025940912
 20
1166.2420517461669
 30
0.0
 11
-4363.1360025940912
 21
1150.7301377461661
 31
0.0
  0
LINE
  5
617C
  8
1
 10
-4343.1360025940921
 20
1160.0301377461669
 30
0.0
 11
-4343.1360025940921
 21
1158.0301377461669
 31
0.0
  0
ARC
  5
617D
  8
1
 10
-4336.0890045940923
 20
1175.1874867461679
 30
0.0
 40
6.0001220000000002
 50
90.001167000002894
 51
161.67526200000961
  0
LINE
  5
617E
  8
1
 10
-4341.7849885940923
 20
1177.0739617461679
 30
0.0
 11
-4345.4662025940916
 21
1165.9582387461669
 31
0.0
  0
ARC
  5
617F
  8
1
 10
-4350.2127235940934
 20
1167.5301377461669
 30
0.0
 40
5.0
 50
270.0
 51
341.6765140000021
  0
ARC
  5
6180
  8
1
 10
-4411.1360025940921
 20
1161.0301377461681
 30
0.0
 40
1.000030999999999
 50
180.0
 51
269.99826000000689
  0
LINE
  5
6181
  8
1
 10
-4390.1931305940916
 20
1187.9467027461669
 30
0.0
 11
-4390.1931305940916
 21
1160.026536746167
 31
0.0
  0
LINE
  5
6182
  8
1
 10
-4390.1931305940916
 20
1160.0301377461669
 30
0.0
 11
-4411.1360025940921
 21
1160.0301377461669
 31
0.0
  0
LINE
  5
6183
  8
1
 10
-4412.1360025940921
 20
1161.0301377461681
 30
0.0
 11
-4444.7678385940917
 21
1163.9094107461681
 31
0.0
  0
LINE
  5
6184
  8
1
 10
-4390.1931305940916
 20
1163.2301507461671
 30
0.0
 11
-4378.149002594093
 21
1163.2301507461671
 31
0.0
  0
LINE
  5
6185
  8
1
 10
-4446.1360025940921
 20
1310.807481746167
 30
0.0
 11
-4446.1360025940921
 21
1165.4036127461679
 31
0.0
  0
LINE
  5
6186
  8
1
 10
-4390.1931305940916
 20
1187.9467027461669
 30
0.0
 11
-4372.1359705940922
 21
1197.2866007461671
 31
0.0
  0
LINE
  5
6187
  8
1
 10
-4313.1360025940921
 20
1181.1876087461681
 30
0.0
 11
-4336.0891885940928
 21
1181.1876087461681
 31
0.0
  0
ARC
  5
6188
  8
1
 10
-4444.6360025940921
 20
1165.4036127461679
 30
0.0
 40
1.4999849999999999
 50
180.0
 51
264.95834399999211
  0
LINE
  5
6189
  8
1
 10
-4313.1360025940921
 20
1181.1876087461681
 30
0.0
 11
-4290.1828165940933
 21
1181.1876087461681
 31
0.0
  0
LINE
  5
618A
  8
1
 10
-4284.4870155940944
 20
1177.0739617461679
 30
0.0
 11
-4283.8952553763547
 21
1175.2870939729819
 31
0.0
  0
ARC
  5
618B
  8
1
 10
-4290.1828775940921
 20
1175.1874867461679
 30
0.0
 40
6.0001939999999996
 50
18.324733999998202
 51
89.99883299999712
  0
LINE
  5
618C
  8
1
 10
-4372.1360025940921
 20
1197.286584194464
 30
0.0
 11
-4372.1360025940921
 21
1323.0301377461669
 31
0.0
  0
LINE
  5
618D
  8
1
 10
-4444.9384925940931
 20
1312.2766587461681
 30
0.0
 11
-4412.934341594093
 21
1318.865770746168
 31
0.0
  0
LINE
  5
618E
  8
1
 10
-4250.6360025940921
 20
1313.5301377461669
 30
0.0
 11
-4250.6360025940912
 21
1233.0153769526989
 31
0.0
  0
LINE
  5
618F
  8
1
 10
-4372.1360025940921
 20
1312.8301257461681
 30
0.0
 11
-4250.6360025940921
 21
1312.8301257461681
 31
0.0
  0
ARC
  5
6190
  8
1
 10
-4444.6360025940921
 20
1310.807481746167
 30
0.0
 40
1.499994
 50
101.6341019999994
 51
180.0
  0
LINE
  5
6191
  8
1
 10
-4221.9360025940914
 20
1282.8301377461671
 30
0.0
 11
-4195.636002594094
 21
1304.1301377461659
 31
0.0
  0
LINE
  5
6192
  8
1
 10
-4228.1360025940921
 20
1272.0687608500159
 30
0.0
 11
-4228.1360025940921
 21
1311.5301377461669
 31
0.0
  0
ARC
  5
6193
  8
1
 10
-4230.1360025940921
 20
1311.5301377461669
 30
0.0
 40
2.0
 50
0.0
 51
90.0
  0
LINE
  5
6194
  8
1
 10
-4250.6360025940921
 20
1313.5301377461669
 30
0.0
 11
-4230.1360025940921
 21
1313.5301377461669
 31
0.0
  0
LINE
  5
6195
  8
1
 10
-4228.1360025940921
 20
1302.0959337461679
 30
0.0
 11
-4228.1360025940921
 21
1311.0959337461679
 31
0.0
  0
LINE
  5
6196
  8
1
 10
-4228.1360025940921
 20
1310.8451407461671
 30
0.0
 11
-4228.1360025940921
 21
1302.215135746168
 31
0.0
  0
ARC
  5
6197
  8
1
 10
-4410.6360025940921
 20
1321.5301377461669
 30
0.0
 40
1.4999849999999999
 50
89.999419999993734
 51
180.0
  0
ARC
  5
6198
  8
1
 10
-4413.1359415940933
 20
1319.8451407461671
 30
0.0
 40
0.999898
 50
281.62991300000999
 51
0.0034970000049811
  0
LINE
  5
6199
  8
1
 10
-4410.6360025940921
 20
1323.0301377461669
 30
0.0
 11
-4372.1360025940921
 21
1323.0301377461669
 31
0.0
  0
LINE
  5
619A
  8
1
 10
-4195.636002594094
 20
1388.0301377461669
 30
0.0
 11
-4193.3360025940929
 21
1388.0301377461669
 31
0.0
  0
ARC
  5
619B
  8
1
 10
-4188.3360025940929
 20
1388.0301377461669
 30
0.0
 40
3.0
 50
270.0
 51
0.0
  0
ARC
  5
619C
  8
1
 10
-4190.3360025940929
 20
1382.0301377461669
 30
0.0
 40
3.0
 50
90.0
 51
180.0
  0
LINE
  5
619D
  8
1
 10
-4188.3360025940929
 20
1385.0301377461669
 30
0.0
 11
-4190.3360025940929
 21
1385.0301377461669
 31
0.0
  0
ARC
  5
619E
  8
1
 10
-4190.3360025940929
 20
1094.0301377461669
 30
0.0
 40
3.0
 50
180.0
 51
270.0
  0
LINE
  5
619F
  8
1
 10
-4188.3360025940929
 20
1091.0301377461669
 30
0.0
 11
-4190.3360025940929
 21
1091.0301377461669
 31
0.0
  0
ARC
  5
61A0
  8
1
 10
-4188.3360025940929
 20
1088.0301377461669
 30
0.0
 40
3.0
 50
0.0
 51
90.0
  0
LINE
  5
61A1
  8
1
 10
-3995.336002594091
 20
1382.0301377461669
 30
0.0
 11
-3995.3360025940929
 21
1094.0301377461669
 31
0.0
  0
ARC
  5
61A2
  8
1
 10
-4000.336002594092
 20
1088.0301377461669
 30
0.0
 40
3.0
 50
90.0
 51
180.0
  0
LINE
  5
61A3
  8
1
 10
-4000.336002594092
 20
1091.0301377461669
 30
0.0
 11
-3998.3360025940929
 21
1091.0301377461669
 31
0.0
  0
ARC
  5
61A4
  8
1
 10
-3998.3360025940929
 20
1094.0301377461669
 30
0.0
 40
3.0
 50
270.0
 51
0.0
  0
LINE
  5
61A5
  8
FUTO
 10
-4004.3360025940929
 20
1113.0301377461669
 30
0.0
 11
-3995.3360025940929
 21
1113.0301377461669
 31
0.0
  0
LINE
  5
61A6
  8
1
 10
-4003.336002594092
 20
1388.0301377461669
 30
0.0
 11
-4003.336002594091
 21
1238.0301377461669
 31
0.0
  0
LINE
  5
61A7
  8
FUTO
 10
-4004.3360025940929
 20
1363.0301377461669
 30
0.0
 11
-3995.336002594091
 21
1363.0301377461669
 31
0.0
  0
LINE
  5
61A8
  8
1
 10
-4000.336002594092
 20
1385.0301377461669
 30
0.0
 11
-3998.3360025940929
 21
1385.0301377461669
 31
0.0
  0
ARC
  5
61A9
  8
1
 10
-3998.3360025940929
 20
1382.0301377461669
 30
0.0
 40
3.0
 50
0.0
 51
90.0
  0
ARC
  5
61AA
  8
1
 10
-4000.336002594092
 20
1388.0301377461669
 30
0.0
 40
3.0
 50
180.0
 51
270.0
  0
DIMENSION
  5
65B5
  8
SP
  2
*D17
 10
-4393.3360025941329
 20
783.03013774616613
 30
0.0
 11
-4293.3360025941329
 21
808.03013774616625
 31
0.0
 70
     0
 13
-4193.3360025941329
 23
853.0301377461642
 33
0.0
 14
-4393.3360025941329
 24
853.0301377461642
 34
0.0
  0
DIMENSION
  5
65CB
  8
SP
  2
*D18
 10
-4094.3360025940929
 20
783.03013774616613
 30
0.0
 11
-4143.836002594112
 21
808.03013774616625
 31
0.0
 70
     0
 13
-4193.3360025941329
 23
853.0301377461642
 33
0.0
 14
-4094.3360025940929
 24
1013.83458395176
 34
0.0
  0
DIMENSION
  5
65D8
  8
SP
  2
*D19
 10
-3894.9894306741039
 20
1113.0301377461669
 30
0.0
 11
-3919.9894306741048
 21
1238.0301377461669
 31
0.0
 70
     0
 13
-3995.336002594092
 23
1363.0301377461669
 33
0.0
 14
-3995.3360025940929
 24
1113.0301377461669
 34
0.0
 50
90.0
1001
ACAD
1000
DSTYLE
1002
{
1070
     3
1000
φ<>
1002
}
  0
DIMENSION
  5
65EE
  8
SP
  2
*D20
 10
-4004.336002594092
 20
1579.030137746164
 30
0.0
 11
-4094.3360025940929
 21
1604.0301377461631
 31
0.0
 70
     0
 13
-4184.3360025940929
 23
1488.0301377461651
 33
0.0
 14
-4004.336002594092
 24
1488.030137746164
 34
0.0
  0
DIMENSION
  5
6606
  8
SP
  2
*D21
 10
-3995.336002594091
 20
1649.0301377461631
 30
0.0
 11
-4044.836002594092
 21
1674.0301377461631
 31
0.0
 70
     0
 13
-4094.3360025940929
 23
1619.030137746164
 33
0.0
 14
-3995.336002594091
 24
1382.0301377461669
 34
0.0
  0
DIMENSION
  5
661C
  8
SP
  2
*D22
 10
-4446.1360025940921
 20
1649.0301377461651
 30
0.0
 11
-4270.2360025940916
 21
1674.0301377461651
 31
0.0
 70
     0
  1
（400）
 13
-4094.3360025940929
 23
1619.030137746164
 33
0.0
 14
-4446.1360025940921
 24
1310.807481746167
 34
0.0
  0
LINE
  5
6799
  8
1
 10
-5104.3360025940956
 20
1974.1217284884499
 30
0.0
 11
-5104.3360025940992
 21
2183.1217284884401
 31
0.0
  0
LINE
  5
679A
  8
1
 10
-5134.3360025940956
 20
1983.121728488446
 30
0.0
 11
-5134.3360025940983
 21
2183.1217284884401
 31
0.0
  0
LINE
  5
679B
  8
1
 10
-4977.836002594092
 20
2157.3217284884431
 30
0.0
 11
-4977.836002594092
 21
2148.3217284884431
 31
0.0
  0
LINE
  5
679C
  8
1
 10
-5019.8360025940929
 20
2125.8217284884431
 30
0.0
 11
-5019.8360025940929
 21
2146.3217284884431
 31
0.0
  0
ARC
  5
679D
  8
1
 10
-5017.8360025940929
 20
2146.3217284884431
 30
0.0
 40
2.0
 50
90.0
 51
180.0
  0
LINE
  5
679E
  8
1
 10
-5017.1510055940926
 20
2148.3217284884431
 30
0.0
 11
-5008.5210005940926
 21
2148.3217284884431
 31
0.0
  0
LINE
  5
679F
  8
1
 10
-5008.4017985940936
 20
2148.3217284884431
 30
0.0
 11
-5017.4017985940927
 21
2148.3217284884431
 31
0.0
  0
LINE
  5
67A0
  8
1
 10
-5104.3360025940992
 20
2149.1217284884501
 30
0.0
 11
-4977.836002594092
 21
2149.1217284884478
 31
0.0
  0
CIRCLE
  5
67A1
  8
FUTO
 10
-5121.3360025940983
 20
2163.1217284884401
 30
0.0
 40
6.0
  0
LINE
  5
67A2
  8
CT
 10
-5109.1489165788344
 20
2163.1217284884401
 30
0.0
 11
-5133.5230886093632
 21
2163.1217284884401
 31
0.0
  0
LINE
  5
67A3
  8
CT
 10
-5121.3360025940983
 20
2150.9346424731762
 30
0.0
 11
-5121.3360025940983
 21
2175.308814503705
 31
0.0
  0
ARC
  5
67A4
  8
1
 10
-5088.3360025940901
 20
2186.1217284884419
 30
0.0
 40
3.0
 50
180.0
 51
270.0
  0
LINE
  5
67A5
  8
1
 10
-5091.3360025940901
 20
2188.1217284884428
 30
0.0
 11
-5091.3360025940901
 21
2186.1217284884419
 31
0.0
  0
LINE
  5
67A6
  8
1
 10
-5091.3360025940901
 20
2188.1217284884428
 30
0.0
 11
-5091.3360025940901
 21
2186.1217284884419
 31
0.0
  0
ARC
  5
67A7
  8
1
 10
-5094.3360025940892
 20
2188.1217284884428
 30
0.0
 40
3.0
 50
0.0
 51
90.0
  0
LINE
  5
67A8
  8
1
 10
-4966.836002594092
 20
2171.1217284884442
 30
0.0
 11
-4966.836002594092
 21
2168.3217284884408
 31
0.0
  0
ARC
  5
67A9
  8
1
 10
-4976.8360025940929
 20
2157.3217284884431
 30
0.0
 40
1.0
 50
90.0
 51
180.0
  0
LINE
  5
67AA
  8
FUTO
 10
-4754.336002594091
 20
2183.1217284884401
 30
0.0
 11
-5134.336002594091
 21
2183.1217284884401
 31
0.0
  0
ARC
  5
67AB
  8
1
 10
-4794.3360025940929
 20
2188.1217284884428
 30
0.0
 40
3.0
 50
90.0
 51
180.0
  0
LINE
  5
67AC
  8
1
 10
-4797.336002594092
 20
2188.1217284884428
 30
0.0
 11
-4797.336002594092
 21
2186.1217284884419
 31
0.0
  0
LINE
  5
67AD
  8
1
 10
-4797.336002594092
 20
2188.1217284884428
 30
0.0
 11
-4797.336002594092
 21
2186.1217284884419
 31
0.0
  0
ARC
  5
67AE
  8
1
 10
-4800.3360025940929
 20
2186.1217284884419
 30
0.0
 40
3.0
 50
270.0
 51
0.0
  0
LINE
  5
67AF
  8
1
 10
-4784.3360025940929
 20
1974.1217284884419
 30
0.0
 11
-4784.3360025940901
 21
2183.1217284884401
 31
0.0
  0
LINE
  5
67B0
  8
FUTO
 10
-4754.3360025940929
 20
1983.121728488446
 30
0.0
 11
-4754.336002594091
 21
2183.1217284884401
 31
0.0
  0
LINE
  5
67B1
  8
1
 10
-4910.8360025940947
 20
2149.1217284884442
 30
0.0
 11
-4784.3360025940901
 21
2149.1217284884442
 31
0.0
  0
LINE
  5
67B2
  8
CT
 10
-4767.336002594091
 20
2150.9346424731762
 30
0.0
 11
-4767.336002594091
 21
2175.308814503705
 31
0.0
  0
CIRCLE
  5
67B3
  8
FUTO
 10
-4767.336002594091
 20
2163.1217284884401
 30
0.0
 40
6.0
  0
CIRCLE
  5
67B4
  8
FUTO
 10
-4767.336002594091
 20
2003.1217284884401
 30
0.0
 40
6.0
  0
LINE
  5
67B5
  8
CT
 10
-4779.5230886093559
 20
2003.1217284884401
 30
0.0
 11
-4755.1489165788262
 21
2003.1217284884401
 31
0.0
  0
LINE
  5
67B6
  8
CT
 10
-4767.336002594091
 20
1990.9346424731759
 30
0.0
 11
-4767.336002594091
 21
2015.308814503705
 31
0.0
  0
LINE
  5
67B7
  8
FUTO
 10
-4784.3360025940929
 20
1983.121728488446
 30
0.0
 11
-4754.336002594091
 21
1983.121728488446
 31
0.0
  0
LINE
  5
67B8
  8
FUTO
 10
-4754.3360025940929
 20
1983.1217284884401
 30
0.0
 11
-4784.3360025940929
 21
1983.1217284884401
 31
0.0
  0
LINE
  5
67B9
  8
1
 10
-4869.5360145940931
 20
2004.3217284884429
 30
0.0
 11
-4869.5360145940931
 21
2125.8217284884431
 31
0.0
  0
LINE
  5
67BA
  8
1
 10
-4859.3360025940929
 20
1974.121728488444
 30
0.0
 11
-4784.3360025940929
 21
1974.1217284884419
 31
0.0
  0
LINE
  5
67BB
  8
1
 10
-4859.3360025940929
 20
1965.8217284884429
 30
0.0
 11
-4859.3360025940929
 21
2004.3217284884429
 31
0.0
  0
LINE
  5
67BC
  8
1
 10
-4944.336002594091
 20
1964.3217284884429
 30
0.0
 11
-4860.8360025940929
 21
1964.3217284884429
 31
0.0
  0
LINE
  5
67BD
  8
1
 10
-5017.1133465940939
 20
1930.3217284884429
 30
0.0
 11
-4871.7094775940941
 21
1930.3217284884429
 31
0.0
  0
ARC
  5
67BE
  8
1
 10
-4860.8360025940929
 20
1965.8217284884429
 30
0.0
 40
1.4999849999999999
 50
270.0
 51
0.0005800000062724
  0
ARC
  5
67BF
  8
1
 10
-4862.5209995940932
 20
1963.3217894884419
 30
0.0
 40
0.999898
 50
89.99650299999503
 51
168.3700869999951
  0
LINE
  5
67C0
  8
1
 10
-4870.0894815940919
 20
1931.5192384884431
 30
0.0
 11
-4863.5003695940923
 21
1963.523389488442
 31
0.0
  0
LINE
  5
67C1
  8
1
 10
-4859.3360025940929
 20
2004.3217284884429
 30
0.0
 11
-5029.336002594092
 21
2004.3217284884429
 31
0.0
  0
LINE
  5
67C2
  8
1
 10
-5104.3360025940956
 20
1974.1217284884499
 30
0.0
 11
-5029.336002594092
 21
1974.121728488446
 31
0.0
  0
LINE
  5
67C3
  8
1
 10
-5019.1359905940944
 20
2004.3217284884429
 30
0.0
 11
-5019.1359905940944
 21
2125.8217284884431
 31
0.0
  0
LINE
  5
67C4
  8
1
 10
-5029.336002594092
 20
1965.8217284884429
 30
0.0
 11
-5029.336002594092
 21
2004.3217284884429
 31
0.0
  0
ARC
  5
67C5
  8
1
 10
-5026.1510055940917
 20
1963.3217894884419
 30
0.0
 40
0.999898
 50
11.6299130000048
 51
90.003497000004955
  0
LINE
  5
67C6
  8
1
 10
-5018.5825235940938
 20
1931.5192384884431
 30
0.0
 11
-5025.1716355940944
 21
1963.523389488442
 31
0.0
  0
ARC
  5
67C7
  8
1
 10
-5027.836002594092
 20
1965.8217284884429
 30
0.0
 40
1.4999849999999999
 50
179.99941999999371
 51
270.0
  0
LINE
  5
67C8
  8
1
 10
-4944.3360025940947
 20
1964.3217284884429
 30
0.0
 11
-5027.836002594092
 21
1964.3217284884429
 31
0.0
  0
LINE
  5
67C9
  8
CT
 10
-5121.3360025940983
 20
1990.9346424731759
 30
0.0
 11
-5121.3360025940983
 21
2015.308814503705
 31
0.0
  0
LINE
  5
67CA
  8
CT
 10
-5109.1489165788344
 20
2003.1217284884401
 30
0.0
 11
-5133.5230886093632
 21
2003.1217284884401
 31
0.0
  0
CIRCLE
  5
67CB
  8
FUTO
 10
-5121.3360025940983
 20
2003.1217284884401
 30
0.0
 40
6.0
  0
LINE
  5
67CC
  8
1
 10
-5134.3360025940929
 20
1983.121728488446
 30
0.0
 11
-5104.3360025940956
 21
1983.121728488446
 31
0.0
  0
LINE
  5
67CD
  8
1
 10
-4910.8360025940947
 20
2148.3217284884431
 30
0.0
 11
-4910.8360025940929
 21
2157.3217284884431
 31
0.0
  0
LINE
  5
67CE
  8
1
 10
-4944.3360025940929
 20
2148.3217284884431
 30
0.0
 11
-4870.836002594092
 21
2148.3217284884431
 31
0.0
  0
LINE
  5
67CF
  8
1
 10
-4868.8360025940929
 20
2125.8217284884431
 30
0.0
 11
-4944.336002594091
 21
2125.8217284884431
 31
0.0
  0
LINE
  5
67D0
  8
1
 10
-5019.8360025940929
 20
2125.8217284884431
 30
0.0
 11
-4944.3360025940947
 21
2125.8217284884431
 31
0.0
  0
LINE
  5
67D1
  8
1
 10
-4944.3360025940929
 20
2148.3217284884431
 30
0.0
 11
-5017.8360025940929
 21
2148.3217284884431
 31
0.0
  0
LINE
  5
67D2
  8
1
 10
-4868.8360025940929
 20
2125.8217284884431
 30
0.0
 11
-4868.8360025940929
 21
2146.3217284884431
 31
0.0
  0
ARC
  5
67D3
  8
1
 10
-4870.836002594092
 20
2146.3217284884431
 30
0.0
 40
2.0
 50
0.0
 51
90.0
  0
LINE
  5
67D4
  8
1
 10
-4880.2702065940921
 20
2148.3217284884431
 30
0.0
 11
-4871.2702065940921
 21
2148.3217284884431
 31
0.0
  0
LINE
  5
67D5
  8
1
 10
-4871.5209995940932
 20
2148.3217284884431
 30
0.0
 11
-4880.1510045940922
 21
2148.3217284884431
 31
0.0
  0
LINE
  5
67D6
  8
1
 10
-4961.8360025940929
 20
2163.3217284884408
 30
0.0
 11
-4926.8360025940929
 21
2163.3217284884408
 31
0.0
  0
LINE
  5
67D7
  8
1
 10
-4911.8360025940929
 20
2158.3217284884431
 30
0.0
 11
-4976.8360025940929
 21
2158.3217284884431
 31
0.0
  0
LINE
  5
67D8
  8
1
 10
-4954.8360025940929
 20
2163.3217284884431
 30
0.0
 11
-4954.8360025940929
 21
2158.3217284884431
 31
0.0
  0
ARC
  5
67D9
  8
1
 10
-4911.8360025940929
 20
2157.3217284884431
 30
0.0
 40
1.0
 50
0.0
 51
90.0
  0
LINE
  5
67DA
  8
1
 10
-4933.8360025940929
 20
2163.3217284884431
 30
0.0
 11
-4933.8360025940929
 21
2158.3217284884431
 31
0.0
  0
LINE
  5
67DB
  8
1
 10
-4921.8360025940929
 20
2168.3217284884408
 30
0.0
 11
-4926.8360025940929
 21
2163.3217284884408
 31
0.0
  0
LINE
  5
67DC
  8
1
 10
-4921.8360025940929
 20
2183.1217284884401
 30
0.0
 11
-4921.8360025940929
 21
2168.3217284884408
 31
0.0
  0
LINE
  5
67DD
  8
1
 10
-4961.8360025940929
 20
2163.3217284884408
 30
0.0
 11
-4966.836002594092
 21
2168.3217284884408
 31
0.0
  0
LINE
  5
67DE
  8
1
 10
-4966.836002594092
 20
2183.1217284884401
 30
0.0
 11
-4966.836002594092
 21
2168.3217284884408
 31
0.0
  0
LINE
  5
67DF
  8
CT
 10
-4777.5230886093523
 20
2163.1217284884401
 30
0.0
 11
-4753.1489165788216
 21
2163.1217284884401
 31
0.0
  0
ARC
  5
67E0
  8
1
 10
-5094.3360025940892
 20
2376.121728488441
 30
0.0
 40
3.0
 50
270.0
 51
0.0
  0
LINE
  5
67E1
  8
1
 10
-5091.3360025940901
 20
2376.121728488441
 30
0.0
 11
-5091.3360025940901
 21
2378.1217284884401
 31
0.0
  0
LINE
  5
67E2
  8
1
 10
-5091.3360025940901
 20
2376.121728488441
 30
0.0
 11
-5091.3360025940901
 21
2378.1217284884401
 31
0.0
  0
ARC
  5
67E3
  8
1
 10
-5088.3360025940901
 20
2378.1217284884401
 30
0.0
 40
3.0
 50
90.000000000000028
 51
180.0
  0
ARC
  5
67E4
  8
1
 10
-4800.3360025940929
 20
2378.1217284884401
 30
0.0
 40
3.0
 50
0.0
 51
90.000000000000028
  0
LINE
  5
67E5
  8
1
 10
-4797.336002594092
 20
2376.121728488441
 30
0.0
 11
-4797.336002594092
 21
2378.1217284884401
 31
0.0
  0
LINE
  5
67E6
  8
1
 10
-4797.336002594092
 20
2376.121728488441
 30
0.0
 11
-4797.336002594092
 21
2378.1217284884401
 31
0.0
  0
ARC
  5
67E7
  8
1
 10
-4794.3360025940929
 20
2376.121728488441
 30
0.0
 40
3.0
 50
180.0
 51
270.0
  0
LINE
  5
67E8
  8
FUTO
 10
-4800.3360025940929
 20
2381.1217284884428
 30
0.0
 11
-5088.3360025940901
 21
2381.1217284884428
 31
0.0
  0
DIMENSION
  5
687D
  8
SP
  2
*D24
 10
-4754.3360025940929
 20
1825.5535321584241
 30
0.0
 11
-4944.3360025940947
 21
1850.5535321584241
 31
0.0
 70
     0
 13
-5134.3360025940956
 23
1983.121728488446
 33
0.0
 14
-4754.3360025940929
 24
1983.121728488446
 34
0.0
  0
DIMENSION
  5
688A
  8
SP
  2
*D25
 10
-4643.9624268393818
 20
1983.121728488446
 30
0.0
 11
-4668.9624268393818
 21
2083.1217284884419
 31
0.0
 70
     0
 13
-4754.336002594091
 23
2183.1217284884401
 33
0.0
 14
-4754.3360025940929
 24
1983.121728488446
 34
0.0
 50
90.0
  0
DIMENSION
  5
6897
  8
SP
  2
*D26
 10
-4643.96242683938
 20
2282.121728488441
 30
0.0
 11
-4668.9624268393818
 21
2232.6217284884401
 31
0.0
 70
     0
 13
-4754.336002594091
 23
2183.1217284884401
 33
0.0
 14
-4734.1883880207433
 24
2282.121728488441
 34
0.0
 50
90.0
  0
LINE
  5
6A4D
  8
FUTO
 10
-5153.3360025940929
 20
2203.121728488441
 30
0.0
 11
-5153.3360025940929
 21
2361.121728488441
 31
0.0
  0
ARC
  5
6A50
  8
FUTO
 10
-5142.3360025940929
 20
2203.121728488441
 30
0.0
 40
11.0
 50
180.0
 51
269.99999999999977
  0
ARC
  5
6A51
  8
FUTO
 10
-5142.3360025940929
 20
2361.121728488441
 30
0.0
 40
11.0
 50
89.999999999999844
 51
180.0
  0
LINE
  5
6A52
  8
1
 10
-5142.3360025940929
 20
2373.121728488441
 30
0.0
 11
-4764.3360025940892
 21
2373.121728488441
 31
0.0
  0
LINE
  5
6A53
  8
FUTO
 10
-5154.336002594092
 20
2203.121728488441
 30
0.0
 11
-5154.336002594092
 21
2361.121728488441
 31
0.0
  0
ARC
  5
6A54
  8
FUTO
 10
-5142.3360025940929
 20
2361.121728488441
 30
0.0
 40
12.0
 50
89.999999999999844
 51
180.0
  0
ARC
  5
6A55
  8
FUTO
 10
-5142.3360025940929
 20
2203.121728488441
 30
0.0
 40
12.0
 50
180.0
 51
269.99999999999977
  0
LINE
  5
6A56
  8
1
 10
-5142.3360025940929
 20
2191.121728488441
 30
0.0
 11
-4764.3360025940892
 21
2191.121728488441
 31
0.0
  0
LINE
  5
6D65
  8
FUTO
 10
-5134.3360025940929
 20
913.03013774616409
 30
0.0
 11
-5104.336002594092
 21
913.03013774616409
 31
0.0
  0
LINE
  5
6D66
  8
FUTO
 10
-5134.3360025940929
 20
853.0301377461642
 30
0.0
 11
-5104.336002594092
 21
853.0301377461642
 31
0.0
  0
LINE
  5
6D67
  8
FUTO
 10
-5134.3360025940929
 20
910.73013774616447
 30
0.0
 11
-5106.636002594093
 21
910.73013774616447
 31
0.0
  0
LINE
  5
6D68
  8
FUTO
 10
-5134.3360025940929
 20
855.33013774616393
 30
0.0
 11
-5106.6360025940921
 21
855.33013774616393
 31
0.0
  0
LINE
  5
6D69
  8
FUTO
 10
-5134.3360025940929
 20
913.03013774616409
 30
0.0
 11
-5134.3360025940929
 21
910.73013774616447
 31
0.0
  0
LINE
  5
6D6A
  8
FUTO
 10
-5104.336002594092
 20
913.03013774616409
 30
0.0
 11
-5104.336002594092
 21
853.0301377461642
 31
0.0
  0
LINE
  5
6D6B
  8
FUTO
 10
-5106.636002594093
 20
910.73013774616447
 30
0.0
 11
-5106.6360025940921
 21
855.33013774616393
 31
0.0
  0
LINE
  5
6D89
  8
FUTO
 10
-5134.3360025940929
 20
855.33013774616393
 30
0.0
 11
-5134.3360025940929
 21
853.0301377461642
 31
0.0
  0
LINE
  5
6DB7
  8
FUTO
 10
-4784.3360025940929
 20
913.03013774616409
 30
0.0
 11
-4784.3360025940929
 21
853.0301377461642
 31
0.0
  0
LINE
  5
6DB8
  8
FUTO
 10
-4754.3360025940929
 20
913.03013774616409
 30
0.0
 11
-4754.3360025940929
 21
910.73013774616447
 31
0.0
  0
LINE
  5
6DB9
  8
FUTO
 10
-4782.0360025940918
 20
910.73013774616447
 30
0.0
 11
-4782.0360025940927
 21
855.33013774616393
 31
0.0
  0
LINE
  5
6DBA
  8
FUTO
 10
-4754.3360025940929
 20
855.33013774616393
 30
0.0
 11
-4782.0360025940927
 21
855.33013774616393
 31
0.0
  0
LINE
  5
6DBB
  8
FUTO
 10
-4754.3360025940929
 20
910.73013774616447
 30
0.0
 11
-4782.0360025940918
 21
910.73013774616447
 31
0.0
  0
LINE
  5
6DBC
  8
FUTO
 10
-4754.3360025940929
 20
855.33013774616393
 30
0.0
 11
-4754.3360025940929
 21
853.0301377461642
 31
0.0
  0
LINE
  5
6DBD
  8
FUTO
 10
-4754.3360025940929
 20
853.0301377461642
 30
0.0
 11
-4784.3360025940929
 21
853.0301377461642
 31
0.0
  0
LINE
  5
6DBE
  8
FUTO
 10
-4754.3360025940929
 20
913.03013774616409
 30
0.0
 11
-4784.3360025940929
 21
913.03013774616409
 31
0.0
  0
LINE
  5
6DBF
  8
FUTO
 10
-5104.336002594092
 20
913.03013774616409
 30
0.0
 11
-4784.3360025940929
 21
913.03013774616409
 31
0.0
  0
LINE
  5
6DC0
  8
FUTO
 10
-5104.336002594092
 20
873.03013774616409
 30
0.0
 11
-4784.3360025940929
 21
873.03013774616409
 31
0.0
  0
LINE
  5
6DC1
  8
FUTO
 10
-4193.3360025940829
 20
913.03013774616409
 30
0.0
 11
-4393.3360025940847
 21
913.03013774616409
 31
0.0
  0
LINE
  5
6DC2
  8
FUTO
 10
-4193.3360025941329
 20
853.0301377461642
 30
0.0
 11
-4393.3360025941329
 21
853.0301377461642
 31
0.0
  0
LINE
  5
6DC3
  8
FUTO
 10
-4193.3360025941311
 20
855.33013774616393
 30
0.0
 11
-4393.3360025941329
 21
855.33013774616393
 31
0.0
  0
LINE
  5
6DC4
  8
FUTO
 10
-4193.3360025940856
 20
910.73013774616447
 30
0.0
 11
-4393.3360025940883
 21
910.73013774616402
 31
0.0
  0
LINE
  5
6DC6
  8
1
 10
-4393.3360025940847
 20
913.03013774616409
 30
0.0
 11
-4393.3360025941329
 21
853.0301377461642
 31
0.0
  0
LINE
  5
6DE2
  8
1
 10
-4193.3360025940856
 20
913.03013774616409
 30
0.0
 11
-4193.3360025941329
 21
853.0301377461642
 31
0.0
  0
DIMENSION
  5
6F92
  8
SP
  2
*D28
 10
-4639.336002594091
 20
853.0301377461642
 30
0.0
 11
-4664.336002594091
 21
767.49350296470948
 31
0.0
 70
     0
 13
-4754.336002594092
 23
913.03013774616409
 33
0.0
 14
-4754.336002594092
 24
853.0301377461642
 34
0.0
 50
90.0
1001
ACAD
1000
DSTYLE
1002
{
1070
     6
1000
DOT
1002
}
  0
DIMENSION
  5
6FA1
  8
SP
  2
*D29
 10
-4639.336002594092
 20
913.03013774616409
 30
0.0
 11
-4601.5111213928703
 21
928.12581029557305
 31
0.0
 70
   128
 13
-4754.3360025940929
 23
983.03013774616602
 33
0.0
 14
-4754.3360025940929
 24
913.03013774616409
 34
0.0
 50
90.0
1001
ACAD
1000
DSTYLE
1002
{
1070
   287
1070
     5
1070
   279
1070
     2
1070
     3
1000
（<>）
1070
     6
1000
NONE
1070
     7
1000
NONE
1002
}
  0
ENDSEC
  0
EOF
