  0
SECTION
  2
HEADER
  9
$ACADVER
  1
AC1009
  9
$INSBASE
 10
0.0
 20
0.0
 30
0.0
  9
$EXTMIN
 10
5767.4991666319765
 20
96.09240406103936
 30
0.0
  9
$EXTMAX
 10
7867.4991666319765
 20
3046.0924040610389
 30
0.0
  9
$LIMMIN
 10
0.0
 20
0.0
  9
$LIMMAX
 10
297.0
 20
210.0
  9
$ORTHOMODE
 70
     0
  9
$REGENMODE
 70
     1
  9
$FILLMODE
 70
     1
  9
$QTEXTMODE
 70
     0
  9
$MIRRTEXT
 70
     0
  9
$DRAGMODE
 70
     2
  9
$LTSCALE
 40
50.0
  9
$OSMODE
 70
   545
  9
$ATTMODE
 70
     1
  9
$TEXTSIZE
 40
3.5
  9
$TRACEWID
 40
0.05
  9
$TEXTSTYLE
  7
STANDARD
  9
$CLAYER
  8
SP
  9
$CELTYPE
  6
BYLAYER
  9
$CECOLOR
 62
   256
  9
$DIMSCALE
 40
10.0
  9
$DIMASZ
 40
2.5
  9
$DIMEXO
 40
1.0
  9
$DIMDLI
 40
7.0
  9
$DIMRND
 40
0.0
  9
$DIMDLE
 40
0.0
  9
$DIMEXE
 40
1.0
  9
$DIMTP
 40
0.0
  9
$DIMTM
 40
0.0
  9
$DIMTXT
 40
3.0
  9
$DIMCEN
 40
0.0
  9
$DIMTSZ
 40
0.0
  9
$DIMTOL
 70
     0
  9
$DIMLIM
 70
     0
  9
$DIMTIH
 70
     0
  9
$DIMTOH
 70
     0
  9
$DIMSE1
 70
     0
  9
$DIMSE2
 70
     0
  9
$DIMTAD
 70
     1
  9
$DIMZIN
 70
     8
  9
$DIMBLK
  1

  9
$DIMASO
 70
     1
  9
$DIMSHO
 70
     1
  9
$DIMPOST
  1

  9
$DIMAPOST
  1

  9
$DIMALT
 70
     0
  9
$DIMALTD
 70
     2
  9
$DIMALTF
 40
0.03937
  9
$DIMLFAC
 40
1.0
  9
$DIMTOFL
 70
     1
  9
$DIMTVP
 40
0.0
  9
$DIMTIX
 70
     0
  9
$DIMSOXD
 70
     0
  9
$DIMSAH
 70
     1
  9
$DIMBLK1
  1
OPEN
  9
$DIMBLK2
  1
OPEN
  9
$DIMSTYLE
  2
GOD
  9
$DIMCLRD
 70
   256
  9
$DIMCLRE
 70
   256
  9
$DIMCLRT
 70
   256
  9
$DIMTFAC
 40
1.0
  9
$DIMGAP
 40
1.0
  9
$LUNITS
 70
     2
  9
$LUPREC
 70
     3
  9
$SKETCHINC
 40
0.1
  9
$FILLETRAD
 40
0.0
  9
$AUNITS
 70
     0
  9
$AUPREC
 70
     2
  9
$MENU
  1
acad
  9
$ELEVATION
 40
0.0
  9
$PELEVATION
 40
0.0
  9
$THICKNESS
 40
0.0
  9
$LIMCHECK
 70
     0
  9
$BLIPMODE
 70
     0
  9
$CHAMFERA
 40
0.0
  9
$CHAMFERB
 40
0.0
  9
$SKPOLY
 70
     0
  9
$TDCREATE
 40
2454940.4140922911
  9
$TDUPDATE
 40
2454953.827317337
  9
$TDINDWG
 40
0.0843521991
  9
$TDUSRTIMER
 40
0.0843521991
  9
$USRTIMER
 70
     1
  9
$ANGBASE
 50
0.0
  9
$ANGDIR
 70
     0
  9
$PDMODE
 70
     0
  9
$PDSIZE
 40
1.0
  9
$PLINEWID
 40
0.0
  9
$COORDS
 70
     2
  9
$SPLFRAME
 70
     0
  9
$SPLINETYPE
 70
     6
  9
$SPLINESEGS
 70
     8
  9
$ATTDIA
 70
     0
  9
$ATTREQ
 70
     1
  9
$HANDLING
 70
 22529
  9
$HANDSEED
  5
7C5A
  9
$SURFTAB1
 70
     6
  9
$SURFTAB2
 70
     6
  9
$SURFTYPE
 70
     6
  9
$SURFU
 70
     6
  9
$SURFV
 70
     6
  9
$UCSNAME
  2

  9
$UCSORG
 10
0.0
 20
0.0
 30
0.0
  9
$UCSXDIR
 10
1.0
 20
0.0
 30
0.0
  9
$UCSYDIR
 10
0.0
 20
1.0
 30
0.0
  9
$PUCSNAME
  2

  9
$PUCSORG
 10
0.0
 20
0.0
 30
0.0
  9
$PUCSXDIR
 10
1.0
 20
0.0
 30
0.0
  9
$PUCSYDIR
 10
0.0
 20
1.0
 30
0.0
  9
$USERI1
 70
     0
  9
$USERI2
 70
     0
  9
$USERI3
 70
     0
  9
$USERI4
 70
     0
  9
$USERI5
 70
     0
  9
$USERR1
 40
0.0
  9
$USERR2
 40
0.0
  9
$USERR3
 40
0.0
  9
$USERR4
 40
0.0
  9
$USERR5
 40
0.0
  9
$WORLDVIEW
 70
     1
  9
$SHADEDGE
 70
     3
  9
$SHADEDIF
 70
    70
  9
$TILEMODE
 70
     1
  9
$MAXACTVP
 70
    16
  9
$PLIMCHECK
 70
     0
  9
$PEXTMIN
 10
1.0000000000000000E+020
 20
1.0000000000000000E+020
 30
1.0000000000000000E+020
  9
$PEXTMAX
 10
-1.0000000000000000E+020
 20
-1.0000000000000000E+020
 30
-1.0000000000000000E+020
  9
$PLIMMIN
 10
0.0
 20
0.0
  9
$PLIMMAX
 10
12.0
 20
9.0
  9
$UNITMODE
 70
     0
  9
$VISRETAIN
 70
     0
  9
$PLINEGEN
 70
     0
  9
$PSLTSCALE
 70
     0
  0
ENDSEC
  0
SECTION
  2
TABLES
  0
TABLE
  2
VPORT
 70
     2
  0
VPORT
  2
*ACTIVE
 70
     0
 10
0.0
 20
0.0
 11
1.0
 21
1.0
 12
7004.1369381722889
 22
1571.0844409737331
 13
0.0
 23
0.0
 14
5.0
 24
5.0
 15
0.0
 25
0.0
 16
0.0
 26
0.0
 36
1.0
 17
0.0
 27
0.0
 37
0.0
 40
2973.1769020509801
 41
1.6307901907356941
 42
50.0
 43
0.0
 44
0.0
 50
0.0
 51
0.0
 71
     0
 72
   100
 73
     1
 74
     0
 75
     0
 76
     0
 77
     0
 78
     0
  0
ENDTAB
  0
TABLE
  2
LTYPE
 70
     4
  0
LTYPE
  2
CONTINUOUS
 70
     0
  3
Solid line
 72
    65
 73
     0
 40
0.0
  0
LTYPE
  2
CENTER
 70
     0
  3
____ _ ____ _ ____ _ ____ _ ____ _ ____ _ ____ 
 72
    65
 73
     4
 40
2.0
 49
1.25
 49
-0.25
 49
0.25
 49
-0.25
  0
LTYPE
  2
HIDDEN
 70
     0
  3
__ __ __ __ __ __ __ __ __ __ __ __ __ __ __ __
 72
    65
 73
     2
 40
0.375
 49
0.25
 49
-0.125
  0
LTYPE
  2
PHANTOM
 70
     0
  3
______  __  __  ______  __  __  ______  __  __ 
 72
    65
 73
     6
 40
2.5
 49
1.25
 49
-0.25
 49
0.25
 49
-0.25
 49
0.25
 49
-0.25
  0
ENDTAB
  0
TABLE
  2
LAYER
 70
    13
  0
LAYER
  2
0
 70
     0
 62
     7
  6
CONTINUOUS
  0
LAYER
  2
CT
 70
     0
 62
     3
  6
CENTER
  0
LAYER
  2
FUTO
 70
     0
 62
     4
  6
CONTINUOUS
  0
LAYER
  2
HOSO
 70
     0
 62
     7
  6
CONTINUOUS
  0
LAYER
  2
KL
 70
     0
 62
     7
  6
HIDDEN
  0
LAYER
  2
MOJI
 70
     0
 62
     3
  6
CONTINUOUS
  0
LAYER
  2
SL
 70
     0
 62
     1
  6
PHANTOM
  0
LAYER
  2
SP
 70
     0
 62
     2
  6
CONTINUOUS
  0
LAYER
  2
DEFPOINTS
 70
     0
 62
     7
  6
CONTINUOUS
  0
LAYER
  2
3
 70
     0
 62
     2
  6
CONTINUOUS
  0
LAYER
  2
2
 70
     0
 62
     3
  6
CENTER
  0
LAYER
  2
1
 70
     0
 62
     4
  6
CONTINUOUS
  0
LAYER
  2
4
 70
     0
 62
     7
  6
CONTINUOUS
  0
ENDTAB
  0
TABLE
  2
STYLE
 70
     2
  0
STYLE
  2
STANDARD
 70
     0
 40
0.0
 41
1.0
 50
15.0
 71
     0
 42
3.5
  3
C:\Program Files\AutoCAD LT\simplex.shx
  4
C:\Program Files\AutoCAD LT\extfont.shx
  0
STYLE
  2
SUNPOU
 70
     0
 40
0.0
 41
1.0
 50
15.0
 71
     0
 42
30.0
  3
simplex.shx
  4
extfont.shx
  0
ENDTAB
  0
TABLE
  2
VIEW
 70
     0
  0
ENDTAB
  0
TABLE
  2
UCS
 70
     0
  0
ENDTAB
  0
TABLE
  2
APPID
 70
     1
  0
APPID
  2
ACAD
 70
     0
  0
ENDTAB
  0
TABLE
  2
DIMSTYLE
 70
     4
  0
DIMSTYLE
  2
STANDARD
 70
     0
  3

  4

  5

  6

  7

 40
1.0
 41
0.18
 42
0.0625
 43
0.38
 44
0.18
 45
0.0
 46
0.0
 47
0.0
 48
0.0
140
0.18
141
0.09
142
0.0
143
25.399999999999999
144
1.0
145
0.0
146
1.0
147
0.09
 71
     0
 72
     0
 73
     1
 74
     1
 75
     0
 76
     0
 77
     0
 78
     0
170
     0
171
     2
172
     0
173
     0
174
     0
175
     0
176
     0
177
     0
178
     0
  0
DIMSTYLE
  2
GOD
 70
     0
  3

  4

  5

  6
OPEN
  7
OPEN
 40
10.0
 41
2.5
 42
1.0
 43
7.0
 44
1.0
 45
0.0
 46
0.0
 47
0.0
 48
0.0
140
3.0
141
0.0
142
0.0
143
0.03937
144
1.0
145
0.0
146
1.0
147
1.0
 71
     0
 72
     0
 73
     0
 74
     0
 75
     0
 76
     0
 77
     1
 78
     8
170
     0
171
     2
172
     1
173
     1
174
     0
175
     0
176
   256
177
   256
178
   256
  0
DIMSTYLE
  2
IGA
 70
     0
  3

  4

  5

  6
OPEN
  7
OPEN
 40
2.0
 41
2.0
 42
0.5
 43
10.0
 44
1.0
 45
0.0
 46
0.0
 47
1.0
 48
1.0
140
3.0
141
0.0
142
0.0
143
0.03937
144
1.0
145
0.0
146
10.0
147
1.0
 71
     0
 72
     0
 73
     0
 74
     0
 75
     0
 76
     0
 77
     1
 78
     8
170
     0
171
     2
172
     0
173
     1
174
     0
175
     0
176
     0
177
     0
178
     0
  0
DIMSTYLE
  2
MATSU
 70
     0
  3

  4

  5

  6
OPEN
  7
OPEN
 40
1.0
 41
2.0
 42
1.0
 43
10.0
 44
1.0
 45
0.0
 46
0.0
 47
0.0
 48
0.0
140
3.0
141
0.0
142
0.0
143
0.03937
144
1.0
145
0.0
146
1.0
147
0.5
 71
     0
 72
     0
 73
     0
 74
     0
 75
     0
 76
     0
 77
     1
 78
     8
170
     0
171
     2
172
     1
173
     1
174
     0
175
     0
176
   256
177
   256
178
   256
  0
ENDTAB
  0
ENDSEC
  0
SECTION
  2
BLOCKS
  0
BLOCK
  8
0
  2
$MODEL_SPACE
 70
     0
 10
0.0
 20
0.0
 30
0.0
  3
$MODEL_SPACE
  1

  0
ENDBLK
  5
1B
  8
0
  0
BLOCK
 67
     1
  8
0
  2
$PAPER_SPACE
 70
     0
 10
0.0
 20
0.0
 30
0.0
  3
$PAPER_SPACE
  1

  0
ENDBLK
  5
18
 67
     1
  8
0
  0
BLOCK
  8
0
  2
_OPEN
 70
     0
 10
0.0
 20
0.0
 30
0.0
  3
_OPEN
  1

  0
LINE
  5
1E81
  8
0
  6
BYBLOCK
 62
     0
 10
-1.0
 20
0.1666666666666666
 30
0.0
 11
0.0
 21
0.0
 31
0.0
  0
LINE
  5
1E82
  8
0
  6
BYBLOCK
 62
     0
 10
0.0
 20
0.0
 30
0.0
 11
-1.0
 21
-0.1666666666666666
 31
0.0
  0
LINE
  5
1E83
  8
0
  6
BYBLOCK
 62
     0
 10
0.0
 20
0.0
 30
0.0
 11
-1.0
 21
0.0
 31
0.0
  0
ENDBLK
  5
1E84
  8
0
  0
BLOCK
  8
0
  2
_DOT
 70
     0
 10
0.0
 20
0.0
 30
0.0
  3
_DOT
  1

  0
LINE
  5
1EC3
  8
0
  6
BYBLOCK
 62
     0
 10
0.0
 20
0.0
 30
0.0
 11
-1.0
 21
-0.0000000000000284
 31
0.0
  0
POLYLINE
  5
1EC4
  8
0
  6
BYBLOCK
 62
     0
 66
     1
 10
0.0
 20
0.0
 30
0.0
 70
     1
 40
0.1666666666666666
 41
0.1666666666666666
  0
VERTEX
  5
7C43
  8
0
  6
BYBLOCK
 62
     0
 10
-0.0833333333333286
 20
-0.0000000000000284
 30
0.0
 42
1.0
  0
VERTEX
  5
7C44
  8
0
  6
BYBLOCK
 62
     0
 10
0.0833333333333286
 20
-0.0000000000000284
 30
0.0
 42
1.0
  0
SEQEND
  5
7C45
  8
0
  6
BYBLOCK
 62
     0
  0
ENDBLK
  5
1EB8
  8
0
  0
BLOCK
  8
0
  2
*D2
 70
     1
 10
0.0
 20
0.0
 30
0.0
  3
*D2
  1

  0
LINE
  5
5685
  8
SP
 10
-1699.9142715201349
 20
823.03013774616693
 30
0.0
 11
-1699.9142715201349
 21
683.03013774616704
 31
0.0
  0
LINE
  5
5686
  8
SP
 10
-2079.914271520136
 20
823.03013774616522
 30
0.0
 11
-2079.914271520136
 21
683.03013774616704
 31
0.0
  0
LINE
  5
5687
  8
SP
 10
-1724.9142715201349
 20
693.03013774616704
 30
0.0
 11
-2054.914271520136
 21
693.03013774616704
 31
0.0
  0
INSERT
  5
5688
  8
SP
  2
_OPEN
 10
-1699.9142715201349
 20
693.03013774616704
 30
0.0
 41
25.0
 42
25.0
 43
25.0
  0
INSERT
  5
5689
  8
SP
  2
_OPEN
 10
-2079.914271520136
 20
693.03013774616704
 30
0.0
 41
25.0
 42
25.0
 43
25.0
 50
180.0
  0
TEXT
  5
568A
  8
SP
 10
-1931.790652263745
 20
703.03013774616704
 30
0.0
 40
30.0
  1
380
 51
15.0
  0
POINT
  5
568B
  8
DEFPOINTS
 62
     0
 10
-1699.9142715201349
 20
833.03013774616716
 30
0.0
  0
POINT
  5
568C
  8
DEFPOINTS
 62
     0
 10
-2079.914271520136
 20
833.03013774616511
 30
0.0
  0
POINT
  5
568D
  8
DEFPOINTS
 62
     0
 10
-2079.914271520136
 20
693.03013774616704
 30
0.0
  0
ENDBLK
  5
568F
  8
0
  0
BLOCK
  8
0
  2
*D3
 70
     1
 10
0.0
 20
0.0
 30
0.0
  3
*D3
  1

  0
LINE
  5
5691
  8
SP
 10
-2079.914271520136
 20
823.03013774616522
 30
0.0
 11
-2079.914271520136
 21
753.03013774616522
 31
0.0
  0
LINE
  5
5692
  8
SP
 10
-1889.9142715201349
 20
797.34538072303258
 30
0.0
 11
-1889.9142715201349
 21
753.03013774616522
 31
0.0
  0
LINE
  5
5693
  8
SP
 10
-2054.914271520136
 20
763.03013774616522
 30
0.0
 11
-1914.9142715201349
 21
763.03013774616522
 31
0.0
  0
INSERT
  5
5694
  8
SP
  2
_OPEN
 10
-2079.914271520136
 20
763.03013774616522
 30
0.0
 41
25.0
 42
25.0
 43
25.0
 50
180.0
  0
INSERT
  5
5695
  8
SP
  2
_OPEN
 10
-1889.9142715201349
 20
763.03013774616522
 30
0.0
 41
25.0
 42
25.0
 43
25.0
  0
TEXT
  5
5696
  8
SP
 10
-2026.421609050605
 20
773.03013774616522
 30
0.0
 40
30.0
  1
190
 51
15.0
  0
POINT
  5
5697
  8
DEFPOINTS
 62
     0
 10
-2079.914271520136
 20
833.03013774616511
 30
0.0
  0
POINT
  5
5698
  8
DEFPOINTS
 62
     0
 10
-1889.9142715201349
 20
807.34538072303246
 30
0.0
  0
POINT
  5
5699
  8
DEFPOINTS
 62
     0
 10
-1889.9142715201349
 20
763.03013774616522
 30
0.0
  0
ENDBLK
  5
569B
  8
0
  0
BLOCK
  8
0
  2
*D4
 70
     1
 10
0.0
 20
0.0
 30
0.0
  3
*D4
  1

  0
LINE
  5
569D
  8
SP
 10
-1889.9142715201349
 20
797.34538072303258
 30
0.0
 11
-1889.9142715201349
 21
753.03013774616704
 31
0.0
  0
LINE
  5
569E
  8
SP
 10
-1699.9142715201349
 20
823.03013774616693
 30
0.0
 11
-1699.9142715201349
 21
753.03013774616704
 31
0.0
  0
LINE
  5
569F
  8
SP
 10
-1864.9142715201349
 20
763.03013774616704
 30
0.0
 11
-1724.9142715201349
 21
763.03013774616704
 31
0.0
  0
INSERT
  5
56A0
  8
SP
  2
_OPEN
 10
-1889.9142715201349
 20
763.03013774616704
 30
0.0
 41
25.0
 42
25.0
 43
25.0
 50
180.0
  0
INSERT
  5
56A1
  8
SP
  2
_OPEN
 10
-1699.9142715201349
 20
763.03013774616704
 30
0.0
 41
25.0
 42
25.0
 43
25.0
  0
TEXT
  5
56A2
  8
SP
 10
-1836.4216090506061
 20
773.03013774616704
 30
0.0
 40
30.0
  1
190
 51
15.0
  0
POINT
  5
56A3
  8
DEFPOINTS
 62
     0
 10
-1889.9142715201349
 20
807.34538072303246
 30
0.0
  0
POINT
  5
56A4
  8
DEFPOINTS
 62
     0
 10
-1699.9142715201349
 20
833.03013774616716
 30
0.0
  0
POINT
  5
56A5
  8
DEFPOINTS
 62
     0
 10
-1699.9142715201349
 20
763.03013774616704
 30
0.0
  0
ENDBLK
  5
56A7
  8
0
  0
BLOCK
  8
0
  2
*D5
 70
     1
 10
0.0
 20
0.0
 30
0.0
  3
*D5
  1

  0
LINE
  5
56A9
  8
SP
 10
-2139.9142715201351
 20
1298.030137746166
 30
0.0
 11
-2139.9142715201351
 21
1368.030137746166
 31
0.0
  0
LINE
  5
56AA
  8
SP
 10
-1889.9142715201349
 20
1307.8065568904919
 30
0.0
 11
-1889.9142715201349
 21
1368.030137746166
 31
0.0
  0
LINE
  5
56AB
  8
SP
 10
-2114.9142715201351
 20
1358.030137746166
 30
0.0
 11
-1914.9142715201349
 21
1358.030137746166
 31
0.0
  0
INSERT
  5
56AC
  8
SP
  2
_OPEN
 10
-2139.9142715201351
 20
1358.030137746166
 30
0.0
 41
25.0
 42
25.0
 43
25.0
 50
180.0
  0
INSERT
  5
56AD
  8
SP
  2
_OPEN
 10
-1889.9142715201349
 20
1358.030137746166
 30
0.0
 41
25.0
 42
25.0
 43
25.0
  0
TEXT
  5
56AE
  8
SP
 10
-2056.0250831425128
 20
1368.030137746166
 30
0.0
 40
30.0
  1
250
 51
15.0
  0
POINT
  5
56AF
  8
DEFPOINTS
 62
     0
 10
-2139.9142715201351
 20
1288.030137746166
 30
0.0
  0
POINT
  5
56B0
  8
DEFPOINTS
 62
     0
 10
-1889.9142715201349
 20
1297.8065568904919
 30
0.0
  0
POINT
  5
56B1
  8
DEFPOINTS
 62
     0
 10
-1889.9142715201349
 20
1358.030137746166
 30
0.0
  0
ENDBLK
  5
56B3
  8
0
  0
BLOCK
  8
0
  2
*D6
 70
     1
 10
0.0
 20
0.0
 30
0.0
  3
*D6
  1

  0
LINE
  5
56B5
  8
SP
 10
-1889.9142715201349
 20
1307.8065568904919
 30
0.0
 11
-1889.9142715201349
 21
1368.030137746166
 31
0.0
  0
LINE
  5
56B6
  8
SP
 10
-1713.9142715201349
 20
1081.0301377461669
 30
0.0
 11
-1713.9142715201349
 21
1368.030137746166
 31
0.0
  0
LINE
  5
56B7
  8
SP
 10
-1864.9142715201349
 20
1358.030137746166
 30
0.0
 11
-1738.9142715201349
 21
1358.030137746166
 31
0.0
  0
INSERT
  5
56B8
  8
SP
  2
_OPEN
 10
-1889.9142715201349
 20
1358.030137746166
 30
0.0
 41
25.0
 42
25.0
 43
25.0
 50
180.0
  0
INSERT
  5
56B9
  8
SP
  2
_OPEN
 10
-1713.9142715201349
 20
1358.030137746166
 30
0.0
 41
25.0
 42
25.0
 43
25.0
  0
TEXT
  5
56BA
  8
SP
 10
-1842.8987156166279
 20
1368.030137746166
 30
0.0
 40
30.0
  1
176
 51
15.0
  0
POINT
  5
56BB
  8
DEFPOINTS
 62
     0
 10
-1889.9142715201349
 20
1297.8065568904919
 30
0.0
  0
POINT
  5
56BC
  8
DEFPOINTS
 62
     0
 10
-1713.9142715201349
 20
1071.0301377461669
 30
0.0
  0
POINT
  5
56BD
  8
DEFPOINTS
 62
     0
 10
-1713.9142715201349
 20
1358.030137746166
 30
0.0
  0
ENDBLK
  5
56BF
  8
0
  0
BLOCK
  8
0
  2
*D7
 70
     1
 10
0.0
 20
0.0
 30
0.0
  3
*D7
  1

  0
LINE
  5
56C1
  8
SP
 10
-2184.1007564974338
 20
1088.030137746166
 30
0.0
 11
-2249.3805561714089
 21
1088.030137746166
 31
0.0
  0
LINE
  5
56C2
  8
SP
 10
-2170.9142715201351
 20
1288.0301377461669
 30
0.0
 11
-2249.3805561714089
 21
1288.0301377461669
 31
0.0
  0
LINE
  5
56C3
  8
SP
 10
-2239.3805561714089
 20
1113.0301377461669
 30
0.0
 11
-2239.3805561714089
 21
1263.0301377461669
 31
0.0
  0
INSERT
  5
56C4
  8
SP
  2
_OPEN
 10
-2239.3805561714089
 20
1088.030137746166
 30
0.0
 41
25.0
 42
25.0
 43
25.0
 50
270.0
  0
INSERT
  5
56C5
  8
SP
  2
_OPEN
 10
-2239.3805561714089
 20
1288.0301377461669
 30
0.0
 41
25.0
 42
25.0
 43
25.0
 50
90.0
  0
TEXT
  5
56C6
  8
SP
 10
-2249.3805561714089
 20
1146.9193261237881
 30
0.0
 40
30.0
  1
200
 50
90.0
 51
15.0
  0
POINT
  5
56C7
  8
DEFPOINTS
 62
     0
 10
-2174.1007564974352
 20
1088.030137746166
 30
0.0
  0
POINT
  5
56C8
  8
DEFPOINTS
 62
     0
 10
-2160.9142715201351
 20
1288.0301377461669
 30
0.0
  0
POINT
  5
56C9
  8
DEFPOINTS
 62
     0
 10
-2239.3805561714089
 20
1288.0301377461669
 30
0.0
  0
ENDBLK
  5
56CB
  8
0
  0
BLOCK
  8
0
  2
*D8
 70
     1
 10
0.0
 20
0.0
 30
0.0
  3
*D8
  1

  0
LINE
  5
56CD
  8
SP
 10
-2184.1007564974338
 20
1088.030137746166
 30
0.0
 11
-2249.3805561714089
 21
1088.030137746166
 31
0.0
  0
LINE
  5
56CE
  8
SP
 10
-2089.914271520136
 20
833.03013774616511
 30
0.0
 11
-2249.3805561714089
 21
833.03013774616511
 31
0.0
  0
LINE
  5
56CF
  8
SP
 10
-2239.3805561714089
 20
1063.0301377461669
 30
0.0
 11
-2239.3805561714089
 21
858.03013774616511
 31
0.0
  0
INSERT
  5
56D0
  8
SP
  2
_OPEN
 10
-2239.3805561714089
 20
1088.030137746166
 30
0.0
 41
25.0
 42
25.0
 43
25.0
 50
90.0
  0
INSERT
  5
56D1
  8
SP
  2
_OPEN
 10
-2239.3805561714089
 20
833.03013774616511
 30
0.0
 41
25.0
 42
25.0
 43
25.0
 50
270.0
  0
TEXT
  5
56D2
  8
SP
 10
-2249.3805561714089
 20
919.36804271684161
 30
0.0
 40
30.0
  1
255
 50
90.0
 51
15.0
  0
POINT
  5
56D3
  8
DEFPOINTS
 62
     0
 10
-2174.1007564974352
 20
1088.030137746166
 30
0.0
  0
POINT
  5
56D4
  8
DEFPOINTS
 62
     0
 10
-2079.914271520136
 20
833.03013774616511
 30
0.0
  0
POINT
  5
56D5
  8
DEFPOINTS
 62
     0
 10
-2239.3805561714089
 20
833.03013774616511
 30
0.0
  0
ENDBLK
  5
56D7
  8
0
  0
BLOCK
  8
0
  2
A$C44EA23BE
 70
     0
 10
0.0
 20
0.0
 30
0.0
  3
A$C44EA23BE
  1

  0
DIMENSION
  5
56D9
  8
SP
  2
*D8
 10
-349.46628465127378
 20
-255.00000000000171
 30
0.0
 11
-374.46628465127378
 21
-127.50000000000119
 31
0.0
 12
1889.9142715201349
 22
-1088.030137746166
 32
0.0
  3
GOD
 13
-284.18648497729919
 23
0.0
 33
0.0
 14
-190.00000000000091
 24
-255.00000000000171
 34
0.0
 50
90.0
  0
ARC
  5
56DA
  8
FUTO
 10
-17.0
 20
-17.0
 30
0.0
 40
203.0
 50
269.572081032222
 51
0.4673217049947748
  0
ARC
  5
56DB
  8
FUTO
 10
-20.0
 20
20.0
 30
0.0
 40
240.0
 50
180.0
 51
270.39182689926031
  0
ARC
  5
56DC
  8
FUTO
 10
-17.0
 20
-17.0
 30
0.0
 40
193.0
 50
269.572081032222
 51
0.4673217049947748
  0
ARC
  5
56DD
  8
FUTO
 10
-20.0
 20
20.0
 30
0.0
 40
230.0
 50
180.0
 51
270.39182689926031
  0
LINE
  5
56DE
  8
2
 10
0.0
 20
-280.6847570231343
 30
0.0
 11
0.0
 21
209.77641914432559
 31
0.0
  0
LINE
  5
56DF
  8
1
 10
157.69999999999891
 20
66.099999999998545
 30
0.0
 11
157.69999999999891
 21
-255.00000000000179
 31
0.0
  0
LINE
  5
56E0
  8
1
 10
160.0
 20
66.099999999998545
 30
0.0
 11
160.0
 21
-252.7000000000007
 31
0.0
  0
LINE
  5
56E1
  8
1
 10
-157.69999999999979
 20
66.099999999998545
 30
0.0
 11
-157.69999999999979
 21
-255.00000000000179
 31
0.0
  0
LINE
  5
56E2
  8
1
 10
-160.0
 20
66.099999999998545
 30
0.0
 11
-159.99999999999901
 21
-252.69999999999891
 31
0.0
  0
ARC
  5
56E3
  8
1
 10
0.0
 20
0.0
 30
0.0
 40
85.0
 50
0.0
 51
244.12446600000609
  0
CIRCLE
  5
56E4
  8
2
 10
0.0
 20
0.0
 30
0.0
 40
136.0
  0
ARC
  5
56E5
  8
1
 10
0.0
 20
0.0
 30
0.0
 40
85.000007999999994
 50
295.91772599999888
 51
0.0
  0
DIMENSION
  5
56E6
  8
SP
  2
*D2
 10
-190.00000000000091
 20
-394.99999999999977
 30
0.0
 11
-0.0000000000004547
 21
-369.99999999999977
 31
0.0
 12
1889.9142715201349
 22
-1088.030137746166
 32
0.0
  3
GOD
 13
190.0
 23
-254.9999999999998
 33
0.0
 14
-190.00000000000091
 24
-255.00000000000171
 34
0.0
  0
DIMENSION
  5
56E7
  8
SP
  2
*D4
 10
190.0
 20
-324.99999999999989
 30
0.0
 11
95.0
 21
-299.99999999999989
 31
0.0
 12
1889.9142715201349
 22
-1088.030137746166
 32
0.0
  3
GOD
 13
0.0
 23
-280.6847570231343
 33
0.0
 14
190.0
 24
-254.9999999999998
 34
0.0
  0
DIMENSION
  5
56E8
  8
SP
  2
*D3
 10
0.0
 20
-325.00000000000171
 30
0.0
 11
-95.000000000000455
 21
-300.00000000000171
 31
0.0
 12
1889.9142715201349
 22
-1088.030137746166
 32
0.0
  3
GOD
 13
-190.00000000000091
 23
-255.00000000000171
 33
0.0
 14
0.0
 24
-280.6847570231343
 34
0.0
  0
LINE
  5
56E9
  8
FUTO
 10
-132.69999999999979
 20
-105.0
 30
0.0
 11
-157.69999999999891
 21
-80.0
 31
0.0
  0
LINE
  5
56EA
  8
1
 10
-157.69999999999891
 20
-203.9999999999998
 30
0.0
 11
-132.7000000000007
 21
-203.9999999999998
 31
0.0
  0
LINE
  5
56EB
  8
1
 10
-190.00000000000091
 20
-255.00000000000179
 30
0.0
 11
190.0
 21
-255.0
 31
0.0
  0
LINE
  5
56EC
  8
1
 10
-157.69999999999891
 20
-80.0
 30
0.0
 11
157.69999999999891
 21
-80.0
 31
0.0
  0
LINE
  5
56ED
  8
2
 10
-176.99999999999901
 20
-268.98279906584588
 30
0.0
 11
-176.99999999999901
 21
-242.69999999999879
 31
0.0
  0
LINE
  5
56EE
  8
1
 10
-190.00000000000091
 20
-255.00000000000179
 30
0.0
 11
-190.00000000000179
 21
-252.7000000000007
 31
0.0
  0
LINE
  5
56EF
  8
1
 10
-190.00000000000091
 20
-252.7000000000007
 30
0.0
 11
-159.99999999999901
 21
-252.69999999999891
 31
0.0
  0
LINE
  5
56F0
  8
1
 10
132.699999999997
 20
-105.0
 30
0.0
 11
132.699999999997
 21
-203.9999999999998
 31
0.0
  0
LINE
  5
56F1
  8
1
 10
-132.69999999999979
 20
-105.0
 30
0.0
 11
-132.69999999999979
 21
-203.9999999999998
 31
0.0
  0
LINE
  5
56F2
  8
1
 10
132.699999999997
 20
-203.9999999999998
 30
0.0
 11
157.69999999999891
 21
-203.9999999999998
 31
0.0
  0
LINE
  5
56F3
  8
1
 10
190.0
 20
-255.0
 30
0.0
 11
190.0
 21
-252.69999999999891
 31
0.0
  0
LINE
  5
56F4
  8
2
 10
176.9999999999981
 20
-267.91032669659847
 30
0.0
 11
177.0
 21
-242.7000000000007
 31
0.0
  0
LINE
  5
56F5
  8
1
 10
160.0
 20
-252.69999999999891
 30
0.0
 11
190.0
 21
-252.7000000000007
 31
0.0
  0
LINE
  5
56F6
  8
FUTO
 10
132.69999999999979
 20
-105.0
 30
0.0
 11
157.69999999999891
 21
-80.0
 31
0.0
  0
LINE
  5
56F7
  8
1
 10
-132.69999999999979
 20
-105.0
 30
0.0
 11
132.69999999999891
 21
-105.0
 31
0.0
  0
LINE
  5
56F8
  8
CT
 10
-57.086121054688192
 20
-137.8180876735004
 30
0.0
 11
-46.574035520656253
 21
-112.43966820841879
 31
0.0
  0
CIRCLE
  5
56F9
  8
1
 10
-52.044946801652252
 20
-125.64761642153459
 30
0.0
 40
4.0
  0
LINE
  5
56FA
  8
CT
 10
57.086121054688192
 20
-137.8180876735004
 30
0.0
 11
46.574035520658072
 21
-112.43966820841879
 31
0.0
  0
CIRCLE
  5
56FB
  8
1
 10
52.044946801652252
 20
-125.64761642153459
 30
0.0
 40
4.0
  0
LINE
  5
56FC
  8
1
 10
-37.095498999999108
 20
-76.450928000000204
 30
0.0
 11
37.151808999999041
 21
-76.450928000000204
 31
0.0
  0
LINE
  5
56FD
  8
1
 10
-82.5
 20
-78.34088200000042
 30
0.0
 11
82.500029999999242
 21
-78.34088200000042
 31
0.0
  0
LINE
  5
56FE
  8
CT
 10
-62.5
 20
-82.218586000000869
 30
0.0
 11
-62.5
 21
-73.631579000000784
 31
0.0
  0
LINE
  5
56FF
  8
CT
 10
-137.8180876735004
 20
-57.086121054690011
 30
0.0
 11
-112.439668208417
 21
-46.574035520658072
 31
0.0
  0
ARC
  5
5700
  8
1
 10
-52.365203999999721
 20
-70.5
 30
0.0
 40
5.0
 50
270.0
 51
324.46176099999479
  0
LINE
  5
5701
  8
1
 10
-46.623938000000628
 20
-71.064478000000236
 30
0.0
 11
-48.296539999999368
 21
-73.40625
 31
0.0
  0
LINE
  5
5702
  8
1
 10
-77.833160999999564
 20
-75.505370999999286
 30
0.0
 11
-62.323167999999889
 21
-57.818504000000758
 31
0.0
  0
LINE
  5
5703
  8
1
 10
-82.5
 20
-75.5
 30
0.0
 11
-52.36517399999866
 21
-75.5
 31
0.0
  0
CIRCLE
  5
5704
  8
1
 10
-125.64761642153459
 20
-52.044946801652252
 30
0.0
 40
4.0
  0
ARC
  5
5705
  8
1
 10
0.0
 20
0.0
 30
0.0
 40
85.0
 50
236.73178133170779
 51
244.12446600000609
  0
LINE
  5
5706
  8
1
 10
-42.5
 20
-78.34088200000042
 30
0.0
 11
-42.5
 21
-80.0
 31
0.0
  0
LINE
  5
5707
  8
1
 10
-77.5
 20
-78.34088200000042
 30
0.0
 11
-77.5
 21
-80.0
 31
0.0
  0
LINE
  5
5708
  8
1
 10
-82.5
 20
-78.34088200000042
 30
0.0
 11
-82.5
 21
-75.5
 31
0.0
  0
LINE
  5
5709
  8
CT
 10
137.8180876735004
 20
-57.086121054688192
 30
0.0
 11
112.439668208417
 21
-46.574035520658072
 31
0.0
  0
LINE
  5
570A
  8
CT
 10
62.5
 20
-82.218586000000869
 30
0.0
 11
62.5
 21
-73.631579000000784
 31
0.0
  0
LINE
  5
570B
  8
1
 10
82.500029999999242
 20
-75.5
 30
0.0
 11
52.365203999999721
 21
-75.5
 31
0.0
  0
LINE
  5
570C
  8
1
 10
77.834367999999813
 20
-75.506824000000051
 30
0.0
 11
62.32130799999868
 21
-57.816361999999572
 31
0.0
  0
LINE
  5
570D
  8
1
 10
47.508270000000259
 20
-72.302612999999837
 30
0.0
 11
48.296538999999029
 21
-73.40625
 31
0.0
  0
LINE
  5
570E
  8
1
 10
46.631551000000393
 20
-71.075138000000152
 30
0.0
 11
48.296538999999029
 21
-73.40625
 31
0.0
  0
ARC
  5
570F
  8
1
 10
52.365203999999721
 20
-70.5
 30
0.0
 40
5.000032
 50
215.53825399999309
 51
270.0
  0
LINE
  5
5710
  8
1
 10
77.5
 20
-78.34088200000042
 30
0.0
 11
77.5
 21
-80.0
 31
0.0
  0
LINE
  5
5711
  8
1
 10
42.5
 20
-78.34088200000042
 30
0.0
 11
42.5
 21
-80.0
 31
0.0
  0
LINE
  5
5712
  8
1
 10
82.500029999999242
 20
-75.5
 30
0.0
 11
82.500029999999242
 21
-78.34088200000042
 31
0.0
  0
CIRCLE
  5
5713
  8
1
 10
125.64761642153459
 20
-52.044946801652252
 30
0.0
 40
4.0
  0
DIMENSION
  5
5714
  8
SP
  2
*D7
 10
-349.46628465127333
 20
200.0
 30
0.0
 11
-374.46628465127378
 21
99.999999999999787
 31
0.0
 12
1889.9142715201349
 22
-1088.030137746166
 32
0.0
  3
GOD
 13
-284.18648497729919
 23
0.0
 33
0.0
 14
-271.0
 24
200.0
 34
0.0
 50
90.0
  0
DIMENSION
  5
5715
  8
SP
  2
*D6
 10
176.0
 20
269.99999999999898
 30
0.0
 11
88.0
 21
294.99999999999898
 31
0.0
 12
1889.9142715201349
 22
-1088.030137746166
 32
0.0
  3
GOD
 13
0.0
 23
209.77641914432559
 33
0.0
 14
176.0
 24
-17.0
 34
0.0
  0
LINE
  5
5716
  8
FUTO
 10
-250.99998456825821
 20
199.99444453017639
 30
0.0
 11
-249.99998456825821
 21
19.99444453017281
 31
0.0
  0
LINE
  5
5717
  8
FUTO
 10
-251.0
 20
200.0
 30
0.0
 11
-251.0
 21
180.0
 31
0.0
  0
LINE
  5
5718
  8
FUTO
 10
-252.0
 20
199.0
 30
0.0
 11
-252.0
 21
180.0
 31
0.0
  0
LINE
  5
5719
  8
FUTO
 10
-249.0
 20
198.0
 30
0.0
 11
-231.0
 21
180.0
 31
0.0
  0
LINE
  5
571A
  8
FUTO
 10
0.0
 20
180.0
 30
0.0
 11
0.0
 21
200.0
 31
0.0
  0
LINE
  5
571B
  8
FUTO
 10
1.0
 20
200.0
 30
0.0
 11
1.0
 21
180.0
 31
0.0
  0
LINE
  5
571C
  8
FUTO
 10
2.0
 20
199.0
 30
0.0
 11
2.0
 21
180.0
 31
0.0
  0
LINE
  5
571D
  8
FUTO
 10
-1.0
 20
198.0
 30
0.0
 11
-19.0
 21
180.0
 31
0.0
  0
LINE
  5
571E
  8
FUTO
 10
-231.0
 20
180.0
 30
0.0
 11
-19.0
 21
180.0
 31
0.0
  0
LINE
  5
571F
  8
1
 10
-60.0
 20
150.0
 30
0.0
 11
-158.39999999999961
 21
66.099999999998545
 31
0.0
  0
LINE
  5
5720
  8
2
 10
-284.18648497729919
 20
0.0
 30
0.0
 11
210.14761457335041
 21
-0.000000000001819
 31
0.0
  0
LINE
  5
5721
  8
FUTO
 10
-260.8890586406655
 20
180.0
 30
0.0
 11
-259.99983025084288
 21
19.938889831936191
 31
0.0
  0
LINE
  5
5722
  8
1
 10
-160.0
 20
66.099999999998545
 30
0.0
 11
-158.39999999999961
 21
66.099999999998545
 31
0.0
  0
LINE
  5
5723
  8
FUTO
 10
-260.8890586406655
 20
180.0
 30
0.0
 11
-250.88890432086819
 21
180.0
 31
0.0
  0
ARC
  5
5724
  8
FUTO
 10
14.0
 20
-14.0
 30
0.0
 40
172.0
 50
359.4896667551933
 51
78.450738176447032
  0
ARC
  5
5725
  8
FUTO
 10
14.0
 20
-14.0
 30
0.0
 40
162.0
 50
359.4896667551933
 51
78.450738176447032
  0
LINE
  5
5726
  8
1
 10
60.0
 20
150.0
 30
0.0
 11
158.39999999999961
 21
66.099999999998545
 31
0.0
  0
LINE
  5
5727
  8
CT
 10
-137.8180876735004
 20
57.086121054686373
 30
0.0
 11
-112.439668208417
 21
46.574035520658072
 31
0.0
  0
CIRCLE
  5
5728
  8
1
 10
-125.64761642153459
 20
52.044946801652252
 30
0.0
 40
4.0
  0
LINE
  5
5729
  8
CT
 10
137.8180876735004
 20
57.086121054686373
 30
0.0
 11
112.439668208417
 21
46.574035520658072
 31
0.0
  0
CIRCLE
  5
572A
  8
1
 10
125.64761642153459
 20
52.044946801652252
 30
0.0
 40
4.0
  0
LINE
  5
572B
  8
1
 10
158.39999999999961
 20
66.099999999998545
 30
0.0
 11
160.0
 21
66.099999999998545
 31
0.0
  0
LINE
  5
572C
  8
CT
 10
57.086121054688192
 20
137.81808767349861
 30
0.0
 11
46.574035520656253
 21
112.439668208417
 31
0.0
  0
LINE
  5
572D
  8
CT
 10
-57.086121054688192
 20
137.81808767349861
 30
0.0
 11
-46.574035520658072
 21
112.4396682084152
 31
0.0
  0
CIRCLE
  5
572E
  8
1
 10
-52.044946801652252
 20
125.64761642153459
 30
0.0
 40
4.0
  0
CIRCLE
  5
572F
  8
1
 10
52.044946801652252
 20
125.64761642153459
 30
0.0
 40
4.0
  0
ARC
  5
5730
  8
FUTO
 10
60.999999999996362
 20
216.0
 30
0.0
 40
72.753061747871584
 50
214.1996194554568
 51
258.45073817644709
  0
LINE
  5
5731
  8
FUTO
 10
0.0
 20
180.0
 30
0.0
 11
5.9318434102424362
 21
180.0
 31
0.0
  0
LINE
  5
5732
  8
1
 10
-60.0
 20
150.0
 30
0.0
 11
60.0
 21
150.0
 31
0.0
  0
LINE
  5
5733
  8
FUTO
 10
0.0
 20
180.0
 30
0.0
 11
1.0
 21
180.0
 31
0.0
  0
ARC
  5
5734
  8
FUTO
 10
59.528586099928361
 20
210.519969322142
 30
0.0
 40
57.203726762688042
 50
216.60350367361539
 51
261.67207569821369
  0
ARC
  5
5735
  8
FUTO
 10
5.9318434102424362
 20
170.0
 30
0.0
 40
10.0
 50
39.872968906140997
 51
90.0
  0
LINE
  5
5736
  8
FUTO
 10
-271.0
 20
200.0
 30
0.0
 11
21.0
 21
200.0
 31
0.0
  0
LINE
  5
5737
  8
FUTO
 10
-251.0
 20
199.0
 30
0.0
 11
1.0
 21
199.0
 31
0.0
  0
DIMENSION
  5
5738
  8
SP
  2
*D5
 10
0.0
 20
269.99999999999898
 30
0.0
 11
-125.0
 21
294.99999999999898
 31
0.0
 12
1889.9142715201349
 22
-1088.030137746166
 32
0.0
  3
GOD
 13
-250.0
 23
199.99999999999901
 33
0.0
 14
0.0
 24
209.77641914432559
 34
0.0
  0
LINE
  5
5739
  8
FUTO
 10
-271.0
 20
199.0
 30
0.0
 11
-252.0
 21
199.0
 31
0.0
  0
LINE
  5
573A
  8
FUTO
 10
-271.0
 20
200.0
 30
0.0
 11
-271.0
 21
199.0
 31
0.0
  0
LINE
  5
573B
  8
FUTO
 10
-251.0
 20
198.0
 30
0.0
 11
-249.0
 21
198.0
 31
0.0
  0
LINE
  5
573C
  8
FUTO
 10
2.0
 20
199.0
 30
0.0
 11
21.0
 21
199.0
 31
0.0
  0
LINE
  5
573D
  8
FUTO
 10
-1.0
 20
198.0
 30
0.0
 11
1.0
 21
198.0
 31
0.0
  0
LINE
  5
573E
  8
FUTO
 10
21.0
 20
200.0
 30
0.0
 11
21.0
 21
199.0
 31
0.0
  0
ENDBLK
  5
5740
  8
0
  0
BLOCK
  8
0
  2
*D10
 70
     1
 10
0.0
 20
0.0
 30
0.0
  3
*D10
  1

  0
LINE
  5
7846
  8
SP
 10
6738.4581043734406
 20
1448.030137746166
 30
0.0
 11
6738.4581043734406
 21
1518.030137746166
 31
0.0
  0
LINE
  5
7847
  8
SP
 10
6488.4581043734406
 20
1457.8065568904919
 30
0.0
 11
6488.4581043734406
 21
1518.030137746166
 31
0.0
  0
LINE
  5
7848
  8
SP
 10
6713.4581043734406
 20
1508.030137746166
 30
0.0
 11
6513.4581043734406
 21
1508.030137746166
 31
0.0
  0
INSERT
  5
7849
  8
SP
  2
_OPEN
 10
6738.4581043734406
 20
1508.030137746166
 30
0.0
 41
25.0
 42
25.0
 43
25.0
  0
INSERT
  5
784A
  8
SP
  2
_OPEN
 10
6488.4581043734406
 20
1508.030137746166
 30
0.0
 41
25.0
 42
25.0
 43
25.0
 50
180.0
  0
TEXT
  5
784B
  8
SP
 10
6572.3472927510638
 20
1518.030137746166
 30
0.0
 40
30.0
  1
250
 51
15.0
  0
POINT
  5
784C
  8
DEFPOINTS
 62
     0
 10
6738.4581043734406
 20
1438.030137746166
 30
0.0
  0
POINT
  5
784D
  8
DEFPOINTS
 62
     0
 10
6488.4581043734406
 20
1447.8065568904919
 30
0.0
  0
POINT
  5
784E
  8
DEFPOINTS
 62
     0
 10
6488.4581043734406
 20
1508.030137746166
 30
0.0
  0
ENDBLK
  5
5EB0
  8
0
  0
BLOCK
  8
0
  2
*D11
 70
     1
 10
0.0
 20
0.0
 30
0.0
  3
*D11
  1

  0
LINE
  5
7834
  8
SP
 10
6488.4581043734406
 20
1457.8065568904919
 30
0.0
 11
6488.4581043734406
 21
1518.030137746166
 31
0.0
  0
LINE
  5
7835
  8
SP
 10
6312.4581043734406
 20
1231.030137746166
 30
0.0
 11
6312.4581043734406
 21
1518.030137746166
 31
0.0
  0
LINE
  5
7836
  8
SP
 10
6463.4581043734406
 20
1508.030137746166
 30
0.0
 11
6337.4581043734424
 21
1508.030137746166
 31
0.0
  0
INSERT
  5
7837
  8
SP
  2
_OPEN
 10
6488.4581043734406
 20
1508.030137746166
 30
0.0
 41
25.0
 42
25.0
 43
25.0
  0
INSERT
  5
7838
  8
SP
  2
_OPEN
 10
6312.4581043734406
 20
1508.030137746166
 30
0.0
 41
25.0
 42
25.0
 43
25.0
 50
180.0
  0
TEXT
  5
7839
  8
SP
 10
6359.473660276949
 20
1518.030137746166
 30
0.0
 40
30.0
  1
176
 51
15.0
  0
POINT
  5
783A
  8
DEFPOINTS
 62
     0
 10
6488.4581043734406
 20
1447.8065568904919
 30
0.0
  0
POINT
  5
783B
  8
DEFPOINTS
 62
     0
 10
6312.4581043734406
 20
1221.0301377461669
 30
0.0
  0
POINT
  5
783C
  8
DEFPOINTS
 62
     0
 10
6312.4581043734406
 20
1508.030137746166
 30
0.0
  0
ENDBLK
  5
5EBC
  8
0
  0
BLOCK
  8
0
  2
*D12
 70
     1
 10
0.0
 20
0.0
 30
0.0
  3
*D12
  1

  0
LINE
  5
783D
  8
SP
 10
6782.6445893507407
 20
1238.0301377461669
 30
0.0
 11
6847.9243890247153
 21
1238.0301377461669
 31
0.0
  0
LINE
  5
783E
  8
SP
 10
6769.4581043734406
 20
1438.0301377461669
 30
0.0
 11
6847.9243890247153
 21
1438.0301377461669
 31
0.0
  0
LINE
  5
783F
  8
SP
 10
6837.9243890247126
 20
1263.0301377461669
 30
0.0
 11
6837.9243890247126
 21
1413.0301377461669
 31
0.0
  0
INSERT
  5
7840
  8
SP
  2
_OPEN
 10
6837.9243890247126
 20
1238.0301377461669
 30
0.0
 41
25.0
 42
25.0
 43
25.0
 50
270.0
  0
INSERT
  5
7841
  8
SP
  2
_OPEN
 10
6837.9243890247126
 20
1438.0301377461669
 30
0.0
 41
25.0
 42
25.0
 43
25.0
 50
90.0
  0
TEXT
  5
7842
  8
SP
 10
6827.9243890247144
 20
1296.9193261237899
 30
0.0
 40
30.0
  1
200
 50
90.0
 51
15.0
  0
POINT
  5
7843
  8
DEFPOINTS
 62
     0
 10
6772.6445893507398
 20
1238.0301377461669
 30
0.0
  0
POINT
  5
7844
  8
DEFPOINTS
 62
     0
 10
6759.4581043734424
 20
1438.0301377461669
 30
0.0
  0
POINT
  5
7845
  8
DEFPOINTS
 62
     0
 10
6837.9243890247126
 20
1438.0301377461669
 30
0.0
  0
ENDBLK
  5
5EC8
  8
0
  0
BLOCK
  8
0
  2
*D13
 70
     1
 10
0.0
 20
0.0
 30
0.0
  3
*D13
  1

  0
LINE
  5
77F3
  8
SP
 10
6782.6445893507407
 20
1238.0301377461669
 30
0.0
 11
6847.9243890247153
 21
1238.0301377461669
 31
0.0
  0
LINE
  5
77F4
  8
SP
 10
6688.4581043734424
 20
983.03013774616511
 30
0.0
 11
6847.9243890247153
 21
983.03013774616511
 31
0.0
  0
LINE
  5
77F5
  8
SP
 10
6837.9243890247126
 20
1213.0301377461669
 30
0.0
 11
6837.9243890247126
 21
1008.030137746165
 31
0.0
  0
INSERT
  5
77F6
  8
SP
  2
_OPEN
 10
6837.9243890247126
 20
1238.0301377461669
 30
0.0
 41
25.0
 42
25.0
 43
25.0
 50
90.0
  0
INSERT
  5
77F7
  8
SP
  2
_OPEN
 10
6837.9243890247126
 20
983.03013774616511
 30
0.0
 41
25.0
 42
25.0
 43
25.0
 50
270.0
  0
TEXT
  5
77F8
  8
SP
 10
6827.9243890247144
 20
1069.3680427168431
 30
0.0
 40
30.0
  1
255
 50
90.0
 51
15.0
  0
POINT
  5
77F9
  8
DEFPOINTS
 62
     0
 10
6772.6445893507398
 20
1238.0301377461669
 30
0.0
  0
POINT
  5
77FA
  8
DEFPOINTS
 62
     0
 10
6678.4581043734424
 20
983.03013774616511
 30
0.0
  0
POINT
  5
77FB
  8
DEFPOINTS
 62
     0
 10
6837.9243890247126
 20
983.03013774616511
 30
0.0
  0
ENDBLK
  5
5ED4
  8
0
  0
BLOCK
  8
0
  2
*D14
 70
     1
 10
0.0
 20
0.0
 30
0.0
  3
*D14
  1

  0
LINE
  5
776A
  8
SP
 10
7248.4581043734443
 20
1448.0301377461669
 30
0.0
 11
7248.4581043734443
 21
1518.0301377461651
 31
0.0
  0
LINE
  5
776B
  8
SP
 10
7428.4581043734424
 20
1448.0301377461669
 30
0.0
 11
7428.4581043734424
 21
1518.0301377461651
 31
0.0
  0
LINE
  5
776C
  8
SP
 10
7273.4581043734433
 20
1508.0301377461651
 30
0.0
 11
7403.4581043734406
 21
1508.0301377461651
 31
0.0
  0
INSERT
  5
776D
  8
SP
  2
_OPEN
 10
7248.4581043734443
 20
1508.0301377461651
 30
0.0
 41
25.0
 42
25.0
 43
25.0
 50
180.0
  0
INSERT
  5
776E
  8
SP
  2
_OPEN
 10
7428.4581043734424
 20
1508.0301377461651
 30
0.0
 41
25.0
 42
25.0
 43
25.0
  0
TEXT
  5
776F
  8
SP
 10
7296.9507668429724
 20
1518.0301377461651
 30
0.0
 40
30.0
  1
180
 51
15.0
  0
POINT
  5
7770
  8
DEFPOINTS
 62
     0
 10
7248.4581043734443
 20
1438.0301377461669
 30
0.0
  0
POINT
  5
7771
  8
DEFPOINTS
 62
     0
 10
7428.4581043734424
 20
1438.0301377461669
 30
0.0
  0
POINT
  5
7772
  8
DEFPOINTS
 62
     0
 10
7428.4581043734424
 20
1508.0301377461651
 30
0.0
  0
ENDBLK
  5
6478
  8
0
  0
BLOCK
  8
0
  2
*D15
 70
     1
 10
0.0
 20
0.0
 30
0.0
  3
*D15
  1

  0
LINE
  5
784F
  8
SP
 10
7447.4581043734433
 20
1363.0301377461669
 30
0.0
 11
7518.4581043734433
 21
1363.0301377461669
 31
0.0
  0
LINE
  5
7850
  8
SP
 10
7447.4581043734433
 20
1113.0301377461669
 30
0.0
 11
7518.4581043734433
 21
1113.0301377461669
 31
0.0
  0
LINE
  5
7851
  8
SP
 10
7508.4581043734433
 20
1338.0301377461669
 30
0.0
 11
7508.4581043734433
 21
1138.0301377461669
 31
0.0
  0
INSERT
  5
7852
  8
SP
  2
_OPEN
 10
7508.4581043734433
 20
1363.0301377461669
 30
0.0
 41
25.0
 42
25.0
 43
25.0
 50
90.0
  0
INSERT
  5
7853
  8
SP
  2
_OPEN
 10
7508.4581043734433
 20
1113.0301377461669
 30
0.0
 41
25.0
 42
25.0
 43
25.0
 50
270.0
  0
TEXT
  5
7854
  8
SP
 10
7498.4581043734443
 20
1183.259072085945
 30
0.0
 40
30.0
  1
φ250
 50
90.0
 51
15.0
  0
POINT
  5
7855
  8
DEFPOINTS
 62
     0
 10
7437.4581043734443
 20
1363.0301377461669
 30
0.0
  0
POINT
  5
7856
  8
DEFPOINTS
 62
     0
 10
7437.4581043734443
 20
1113.0301377461669
 30
0.0
  0
POINT
  5
7857
  8
DEFPOINTS
 62
     0
 10
7508.4581043734433
 20
1113.0301377461669
 30
0.0
  0
ENDBLK
  5
6484
  8
0
  0
BLOCK
  8
0
  2
*D16
 70
     1
 10
0.0
 20
0.0
 30
0.0
  3
*D16
  1

  0
LINE
  5
7858
  8
SP
 10
7338.4581043734406
 20
1558.0301377461651
 30
0.0
 11
7338.4581043734406
 21
1588.0301377461651
 31
0.0
  0
LINE
  5
7859
  8
SP
 10
7437.4581043734424
 20
1392.0301377461669
 30
0.0
 11
7437.4581043734424
 21
1588.0301377461651
 31
0.0
  0
LINE
  5
785A
  8
SP
 10
7363.4581043734406
 20
1578.0301377461651
 30
0.0
 11
7412.4581043734424
 21
1578.0301377461651
 31
0.0
  0
INSERT
  5
785B
  8
SP
  2
_OPEN
 10
7338.4581043734406
 20
1578.0301377461651
 30
0.0
 41
25.0
 42
25.0
 43
25.0
 50
180.0
  0
INSERT
  5
785C
  8
SP
  2
_OPEN
 10
7437.4581043734424
 20
1578.0301377461651
 30
0.0
 41
25.0
 42
25.0
 43
25.0
  0
TEXT
  5
785D
  8
SP
 10
7360.3674379155455
 20
1588.0301377461651
 30
0.0
 40
30.0
  1
99
 51
15.0
  0
POINT
  5
785E
  8
DEFPOINTS
 62
     0
 10
7338.4581043734406
 20
1548.0301377461651
 30
0.0
  0
POINT
  5
785F
  8
DEFPOINTS
 62
     0
 10
7437.4581043734424
 20
1382.0301377461669
 30
0.0
  0
POINT
  5
7860
  8
DEFPOINTS
 62
     0
 10
7437.4581043734424
 20
1578.0301377461651
 30
0.0
  0
ENDBLK
  5
6490
  8
0
  0
BLOCK
  8
0
  2
*D17
 70
     1
 10
0.0
 20
0.0
 30
0.0
  3
*D17
  1

  0
LINE
  5
7773
  8
SP
 10
7338.4581043734406
 20
1558.0301377461651
 30
0.0
 11
7338.4581043734406
 21
1588.0301377461651
 31
0.0
  0
LINE
  5
7774
  8
SP
 10
6986.6581043734432
 20
1320.807481746167
 30
0.0
 11
6986.6581043734432
 21
1588.0301377461651
 31
0.0
  0
LINE
  5
7775
  8
SP
 10
7313.4581043734424
 20
1578.0301377461651
 30
0.0
 11
7011.6581043734423
 21
1578.0301377461651
 31
0.0
  0
INSERT
  5
7776
  8
SP
  2
_OPEN
 10
7338.4581043734406
 20
1578.0301377461651
 30
0.0
 41
25.0
 42
25.0
 43
25.0
  0
INSERT
  5
7777
  8
SP
  2
_OPEN
 10
6986.6581043734432
 20
1578.0301377461651
 30
0.0
 41
25.0
 42
25.0
 43
25.0
 50
180.0
  0
TEXT
  5
7778
  8
SP
 10
7095.6484026330418
 20
1588.0301377461651
 30
0.0
 40
30.0
  1
（400）
 51
15.0
  0
POINT
  5
7779
  8
DEFPOINTS
 62
     0
 10
7338.4581043734406
 20
1548.0301377461651
 30
0.0
  0
POINT
  5
777A
  8
DEFPOINTS
 62
     0
 10
6986.6581043734432
 20
1310.807481746167
 30
0.0
  0
POINT
  5
777B
  8
DEFPOINTS
 62
     0
 10
6986.6581043734432
 20
1578.0301377461651
 30
0.0
  0
ENDBLK
  5
649C
  8
0
  0
BLOCK
  8
0
  2
A$C40AB6E05
 70
     0
 10
0.0
 20
0.0
 30
0.0
  3
A$C40AB6E05
  1

  0
LINE
  5
6751
  8
1
 10
-160.00000000000361
 20
-307.99999999999181
 30
0.0
 11
-160.00000000000591
 21
-99.000000000001606
 31
0.0
  0
LINE
  5
6752
  8
1
 10
-190.00000000000361
 20
-298.9999999999954
 30
0.0
 11
-190.00000000000591
 21
-99.000000000001364
 31
0.0
  0
LINE
  5
6753
  8
1
 10
-33.5
 20
-124.79999999999831
 30
0.0
 11
-33.5
 21
-133.79999999999831
 31
0.0
  0
LINE
  5
6754
  8
1
 10
-75.5
 20
-156.29999999999831
 30
0.0
 11
-75.5
 21
-135.79999999999831
 31
0.0
  0
ARC
  5
6755
  8
1
 10
-73.5
 20
-135.79999999999831
 30
0.0
 40
2.0
 50
90.0
 51
180.0
  0
LINE
  5
6756
  8
1
 10
-72.815002999999706
 20
-133.79999999999831
 30
0.0
 11
-64.184998000000633
 21
-133.79999999999831
 31
0.0
  0
LINE
  5
6757
  8
1
 10
-64.065796000000773
 20
-133.79999999999831
 30
0.0
 11
-73.065796000000773
 21
-133.79999999999831
 31
0.0
  0
LINE
  5
6758
  8
1
 10
-160.0000000000054
 20
-132.9999999999915
 30
0.0
 11
-33.5
 21
-132.99999999999361
 31
0.0
  0
CIRCLE
  5
6759
  8
FUTO
 10
-177.000000000005
 20
-119.00000000000109
 30
0.0
 40
6.0
  0
LINE
  5
675A
  8
CT
 10
-164.8129139847405
 20
-119.00000000000109
 30
0.0
 11
-189.18708601526981
 21
-119.00000000000109
 31
0.0
  0
LINE
  5
675B
  8
CT
 10
-177.000000000005
 20
-131.18708601526569
 30
0.0
 11
-177.000000000005
 21
-106.8129139847364
 31
0.0
  0
ARC
  5
675C
  8
1
 10
-143.99999999999631
 20
-95.999999999999091
 30
0.0
 40
3.0
 50
180.0
 51
270.0
  0
LINE
  5
675D
  8
1
 10
-146.99999999999631
 20
-93.999999999999091
 30
0.0
 11
-146.99999999999631
 21
-95.999999999999091
 31
0.0
  0
LINE
  5
675E
  8
1
 10
-146.99999999999631
 20
-93.999999999999091
 30
0.0
 11
-146.99999999999631
 21
-95.999999999999091
 31
0.0
  0
ARC
  5
675F
  8
1
 10
-149.99999999999631
 20
-93.999999999999091
 30
0.0
 40
3.0
 50
0.0
 51
90.0
  0
LINE
  5
6760
  8
1
 10
-22.5
 20
-110.9999999999972
 30
0.0
 11
-22.5
 21
-113.8000000000001
 31
0.0
  0
ARC
  5
6761
  8
1
 10
-32.5
 20
-124.79999999999831
 30
0.0
 40
1.0
 50
90.0
 51
180.0
  0
LINE
  5
6762
  8
FUTO
 10
190.00000000000179
 20
-99.000000000001137
 30
0.0
 11
-189.9999999999981
 21
-99.000000000001137
 31
0.0
  0
ARC
  5
6763
  8
1
 10
150.0
 20
-93.999999999999091
 30
0.0
 40
3.0
 50
90.0
 51
180.0
  0
LINE
  5
6764
  8
1
 10
147.0
 20
-93.999999999999091
 30
0.0
 11
147.0
 21
-95.999999999999091
 31
0.0
  0
LINE
  5
6765
  8
1
 10
147.0
 20
-93.999999999999091
 30
0.0
 11
147.0
 21
-95.999999999999091
 31
0.0
  0
ARC
  5
6766
  8
1
 10
144.0
 20
-95.999999999999091
 30
0.0
 40
3.0
 50
270.0
 51
0.0
  0
LINE
  5
6767
  8
1
 10
160.0
 20
-307.99999999999932
 30
0.0
 11
160.00000000000179
 21
-99.000000000001137
 31
0.0
  0
LINE
  5
6768
  8
FUTO
 10
190.0
 20
-298.9999999999954
 30
0.0
 11
190.00000000000179
 21
-99.000000000001137
 31
0.0
  0
LINE
  5
6769
  8
1
 10
33.499999999998181
 20
-132.99999999999719
 30
0.0
 11
160.00000000000151
 21
-132.99999999999719
 31
0.0
  0
LINE
  5
676A
  8
CT
 10
177.00000000000159
 20
-131.18708601526569
 30
0.0
 11
177.00000000000159
 21
-106.8129139847364
 31
0.0
  0
CIRCLE
  5
676B
  8
FUTO
 10
177.00000000000159
 20
-119.00000000000109
 30
0.0
 40
6.0
  0
CIRCLE
  5
676C
  8
FUTO
 10
177.00000000000159
 20
-279.00000000000108
 30
0.0
 40
6.0
  0
LINE
  5
676D
  8
CT
 10
164.81291398473689
 20
-279.00000000000108
 30
0.0
 11
189.1870860152662
 21
-279.00000000000108
 31
0.0
  0
LINE
  5
676E
  8
CT
 10
177.00000000000159
 20
-291.18708601526572
 30
0.0
 11
177.00000000000159
 21
-266.8129139847365
 31
0.0
  0
LINE
  5
676F
  8
FUTO
 10
159.99999999999969
 20
-298.9999999999954
 30
0.0
 11
190.00000000000179
 21
-298.9999999999954
 31
0.0
  0
LINE
  5
6770
  8
FUTO
 10
190.0
 20
-299.00000000000108
 30
0.0
 11
160.0
 21
-299.00000000000108
 31
0.0
  0
LINE
  5
6771
  8
1
 10
74.799988000000667
 20
-277.79999999999831
 30
0.0
 11
74.799988000000667
 21
-156.29999999999831
 31
0.0
  0
LINE
  5
6772
  8
1
 10
85.0
 20
-307.99999999999721
 30
0.0
 11
160.0
 21
-307.99999999999932
 31
0.0
  0
LINE
  5
6773
  8
1
 10
85.0
 20
-316.29999999999831
 30
0.0
 11
85.0
 21
-277.79999999999831
 31
0.0
  0
LINE
  5
6774
  8
1
 10
0.000000000001819
 20
-317.79999999999831
 30
0.0
 11
83.499999999999986
 21
-317.79999999999831
 31
0.0
  0
LINE
  5
6775
  8
1
 10
-72.777344000000085
 20
-351.79999999999831
 30
0.0
 11
72.626524999999674
 21
-351.79999999999831
 31
0.0
  0
ARC
  5
6776
  8
1
 10
83.499999999999986
 20
-316.29999999999831
 30
0.0
 40
1.4999849999999999
 50
270.0
 51
0.0005800000062725
  0
ARC
  5
6777
  8
1
 10
81.815002999999706
 20
-318.79993899999948
 30
0.0
 40
0.999898
 50
89.99650299999503
 51
168.37008699999251
  0
LINE
  5
6778
  8
1
 10
74.246521000000939
 20
-350.60248999999828
 30
0.0
 11
80.835633000000598
 21
-318.59833899999921
 31
0.0
  0
LINE
  5
6779
  8
1
 10
85.0
 20
-277.79999999999831
 30
0.0
 11
-85.0
 21
-277.79999999999831
 31
0.0
  0
LINE
  5
677A
  8
1
 10
-160.00000000000361
 20
-307.99999999999181
 30
0.0
 11
-84.999999999999091
 21
-307.9999999999954
 31
0.0
  0
LINE
  5
677B
  8
1
 10
-74.799988000000667
 20
-277.79999999999831
 30
0.0
 11
-74.799988000000667
 21
-156.29999999999831
 31
0.0
  0
LINE
  5
677C
  8
1
 10
-85.0
 20
-316.29999999999831
 30
0.0
 11
-85.0
 21
-277.79999999999831
 31
0.0
  0
ARC
  5
677D
  8
1
 10
-81.815002999999706
 20
-318.79993899999948
 30
0.0
 40
0.999898
 50
11.629913000007431
 51
90.003497000004955
  0
LINE
  5
677E
  8
1
 10
-74.246521000000939
 20
-350.60248999999828
 30
0.0
 11
-80.835633000000598
 21
-318.59833899999921
 31
0.0
  0
ARC
  5
677F
  8
1
 10
-83.499999999999986
 20
-316.29999999999831
 30
0.0
 40
1.4999849999999999
 50
179.99941999999371
 51
270.0
  0
LINE
  5
6780
  8
1
 10
-0.000000000001819
 20
-317.79999999999831
 30
0.0
 11
-83.499999999999986
 21
-317.79999999999831
 31
0.0
  0
LINE
  5
6781
  8
CT
 10
-177.000000000005
 20
-291.18708601526572
 30
0.0
 11
-177.000000000005
 21
-266.8129139847365
 31
0.0
  0
LINE
  5
6782
  8
CT
 10
-164.8129139847405
 20
-279.00000000000108
 30
0.0
 11
-189.18708601526981
 21
-279.00000000000108
 31
0.0
  0
CIRCLE
  5
6783
  8
FUTO
 10
-177.000000000005
 20
-279.00000000000108
 30
0.0
 40
6.0
  0
LINE
  5
6784
  8
1
 10
-189.99999999999909
 20
-298.9999999999954
 30
0.0
 11
-160.00000000000361
 21
-298.9999999999954
 31
0.0
  0
LINE
  5
6785
  8
1
 10
33.499999999998181
 20
-133.79999999999831
 30
0.0
 11
33.5
 21
-124.79999999999831
 31
0.0
  0
LINE
  5
6786
  8
1
 10
0.0
 20
-133.79999999999831
 30
0.0
 11
73.5
 21
-133.79999999999831
 31
0.0
  0
LINE
  5
6787
  8
1
 10
75.5
 20
-156.29999999999831
 30
0.0
 11
0.000000000001819
 21
-156.29999999999831
 31
0.0
  0
LINE
  5
6788
  8
1
 10
-75.5
 20
-156.29999999999831
 30
0.0
 11
-0.000000000001819
 21
-156.29999999999831
 31
0.0
  0
LINE
  5
6789
  8
1
 10
0.0
 20
-133.79999999999831
 30
0.0
 11
-73.5
 21
-133.79999999999831
 31
0.0
  0
LINE
  5
678A
  8
1
 10
75.5
 20
-156.29999999999831
 30
0.0
 11
75.5
 21
-135.79999999999831
 31
0.0
  0
ARC
  5
678B
  8
1
 10
73.5
 20
-135.79999999999831
 30
0.0
 40
2.0
 50
0.0
 51
90.0
  0
LINE
  5
678C
  8
1
 10
64.065796000000773
 20
-133.79999999999831
 30
0.0
 11
73.065796000000773
 21
-133.79999999999831
 31
0.0
  0
LINE
  5
678D
  8
1
 10
72.815002999999706
 20
-133.79999999999831
 30
0.0
 11
64.184998000000633
 21
-133.79999999999831
 31
0.0
  0
LINE
  5
678E
  8
1
 10
-17.5
 20
-118.8000000000001
 30
0.0
 11
17.5
 21
-118.8000000000001
 31
0.0
  0
LINE
  5
678F
  8
1
 10
32.5
 20
-123.79999999999831
 30
0.0
 11
-32.5
 21
-123.79999999999831
 31
0.0
  0
LINE
  5
6790
  8
1
 10
-10.5
 20
-118.79999999999831
 30
0.0
 11
-10.5
 21
-123.79999999999831
 31
0.0
  0
ARC
  5
6791
  8
1
 10
32.5
 20
-124.79999999999831
 30
0.0
 40
1.0
 50
0.0
 51
90.0
  0
LINE
  5
6792
  8
1
 10
10.5
 20
-118.79999999999831
 30
0.0
 11
10.5
 21
-123.79999999999831
 31
0.0
  0
LINE
  5
6793
  8
1
 10
22.5
 20
-113.8000000000001
 30
0.0
 11
17.5
 21
-118.8000000000001
 31
0.0
  0
LINE
  5
6794
  8
1
 10
22.5
 20
-101.2999999999965
 30
0.0
 11
22.5
 21
-113.8000000000001
 31
0.0
  0
LINE
  5
6795
  8
1
 10
-17.5
 20
-118.8000000000001
 30
0.0
 11
-22.5
 21
-113.8000000000001
 31
0.0
  0
ENDBLK
  5
6797
  8
0
  0
BLOCK
  8
0
  2
*D19
 70
     1
 10
0.0
 20
0.0
 30
0.0
  3
*D19
  1

  0
LINE
  5
7885
  8
SP
 10
6678.4581043734443
 20
1973.121728488444
 30
0.0
 11
6678.4581043734443
 21
1835.467894803518
 31
0.0
  0
LINE
  5
7886
  8
SP
 10
6298.4581043734397
 20
1973.121728488439
 30
0.0
 11
6298.4581043734397
 21
1835.467894803518
 31
0.0
  0
LINE
  5
7887
  8
SP
 10
6653.4581043734433
 20
1845.467894803518
 30
0.0
 11
6323.4581043734397
 21
1845.467894803518
 31
0.0
  0
INSERT
  5
7888
  8
SP
  2
_OPEN
 10
6678.4581043734443
 20
1845.467894803518
 30
0.0
 41
25.0
 42
25.0
 43
25.0
  0
INSERT
  5
7889
  8
SP
  2
_OPEN
 10
6298.4581043734397
 20
1845.467894803518
 30
0.0
 41
25.0
 42
25.0
 43
25.0
 50
180.0
  0
TEXT
  5
788A
  8
SP
 10
6446.5817236298317
 20
1855.467894803518
 30
0.0
 40
30.0
  1
380
 51
15.0
  0
POINT
  5
788B
  8
DEFPOINTS
 62
     0
 10
6678.4581043734443
 20
1983.121728488444
 30
0.0
  0
POINT
  5
788C
  8
DEFPOINTS
 62
     0
 10
6298.4581043734397
 20
1983.121728488439
 30
0.0
  0
POINT
  5
788D
  8
DEFPOINTS
 62
     0
 10
6298.4581043734397
 20
1845.467894803518
 30
0.0
  0
ENDBLK
  5
6CF1
  8
0
  0
BLOCK
  8
0
  2
*D20
 70
     1
 10
0.0
 20
0.0
 30
0.0
  3
*D20
  1

  0
LINE
  5
788E
  8
SP
 10
6288.4581043734379
 20
2183.1217284884392
 30
0.0
 11
6176.6514789400871
 21
2183.1217284884392
 31
0.0
  0
LINE
  5
788F
  8
SP
 10
6268.3104898000893
 20
2282.1217284884392
 30
0.0
 11
6176.6514789400871
 21
2282.1217284884392
 31
0.0
  0
LINE
  5
7890
  8
SP
 10
6186.6514789400871
 20
2208.1217284884392
 30
0.0
 11
6186.6514789400871
 21
2257.1217284884392
 31
0.0
  0
INSERT
  5
7891
  8
SP
  2
_OPEN
 10
6186.6514789400871
 20
2183.1217284884392
 30
0.0
 41
25.0
 42
25.0
 43
25.0
 50
270.0
  0
INSERT
  5
7892
  8
SP
  2
_OPEN
 10
6186.6514789400871
 20
2282.1217284884392
 30
0.0
 41
25.0
 42
25.0
 43
25.0
 50
90.0
  0
TEXT
  5
7893
  8
SP
 10
6176.6514789400853
 20
2205.031062030544
 30
0.0
 40
30.0
  1
99
 50
90.0
 51
15.0
  0
POINT
  5
7894
  8
DEFPOINTS
 62
     0
 10
6298.4581043734379
 20
2183.1217284884392
 30
0.0
  0
POINT
  5
7895
  8
DEFPOINTS
 62
     0
 10
6278.3104898000893
 20
2282.1217284884392
 30
0.0
  0
POINT
  5
7896
  8
DEFPOINTS
 62
     0
 10
6186.6514789400871
 20
2282.1217284884392
 30
0.0
  0
ENDBLK
  5
6CFD
  8
0
  0
BLOCK
  8
0
  2
*D21
 70
     1
 10
0.0
 20
0.0
 30
0.0
  3
*D21
  1

  0
LINE
  5
787C
  8
SP
 10
6288.4581043734379
 20
2183.1217284884392
 30
0.0
 11
6176.6514789400871
 21
2183.1217284884392
 31
0.0
  0
LINE
  5
787D
  8
SP
 10
6288.4581043734388
 20
1983.1217284884449
 30
0.0
 11
6176.6514789400871
 21
1983.1217284884449
 31
0.0
  0
LINE
  5
787E
  8
SP
 10
6186.6514789400871
 20
2158.1217284884392
 30
0.0
 11
6186.6514789400871
 21
2008.1217284884449
 31
0.0
  0
INSERT
  5
787F
  8
SP
  2
_OPEN
 10
6186.6514789400871
 20
2183.1217284884392
 30
0.0
 41
25.0
 42
25.0
 43
25.0
 50
90.0
  0
INSERT
  5
7880
  8
SP
  2
_OPEN
 10
6186.6514789400871
 20
1983.1217284884449
 30
0.0
 41
25.0
 42
25.0
 43
25.0
 50
270.0
  0
TEXT
  5
7881
  8
SP
 10
6176.6514789400871
 20
2042.010916866064
 30
0.0
 40
30.0
  1
200
 50
90.0
 51
15.0
  0
POINT
  5
7882
  8
DEFPOINTS
 62
     0
 10
6298.4581043734379
 20
2183.1217284884392
 30
0.0
  0
POINT
  5
7883
  8
DEFPOINTS
 62
     0
 10
6298.4581043734397
 20
1983.1217284884449
 30
0.0
  0
POINT
  5
7884
  8
DEFPOINTS
 62
     0
 10
6186.6514789400871
 20
1983.1217284884449
 30
0.0
  0
ENDBLK
  5
6D09
  8
0
  0
BLOCK
  8
0
  2
_NONE
 70
     0
 10
0.0
 20
0.0
 30
0.0
  3
_NONE
  1

  0
ENDBLK
  5
6F53
  8
0
  0
BLOCK
  8
0
  2
*D23
 70
     1
 10
0.0
 20
0.0
 30
0.0
  3
*D23
  1

  0
LINE
  5
7A3A
  8
SP
 10
6678.4581043734424
 20
843.03013774616613
 30
0.0
 11
6678.4581043734424
 21
773.03013774616613
 31
0.0
  0
LINE
  5
7A3B
  8
SP
 10
6488.4581043734406
 20
840.53182892377117
 30
0.0
 11
6488.4581043734406
 21
773.03013774616613
 31
0.0
  0
LINE
  5
7A3C
  8
SP
 10
6653.4581043734406
 20
783.03013774616613
 30
0.0
 11
6513.4581043734406
 21
783.03013774616613
 31
0.0
  0
INSERT
  5
7A3D
  8
SP
  2
_OPEN
 10
6678.4581043734424
 20
783.03013774616613
 30
0.0
 41
25.0
 42
25.0
 43
25.0
  0
INSERT
  5
7A3E
  8
SP
  2
_OPEN
 10
6488.4581043734406
 20
783.03013774616613
 30
0.0
 41
25.0
 42
25.0
 43
25.0
 50
180.0
  0
TEXT
  5
7A3F
  8
SP
 10
6541.9507668429724
 20
793.03013774616613
 30
0.0
 40
30.0
  1
190
 51
15.0
  0
POINT
  5
7A40
  8
DEFPOINTS
 62
     0
 10
6678.4581043734424
 20
853.03013774616613
 30
0.0
  0
POINT
  5
7A41
  8
DEFPOINTS
 62
     0
 10
6488.4581043734406
 20
850.53182892377106
 30
0.0
  0
POINT
  5
7A42
  8
DEFPOINTS
 62
     0
 10
6488.4581043734406
 20
783.03013774616613
 30
0.0
  0
ENDBLK
  5
7228
  8
0
  0
BLOCK
  8
0
  2
*D24
 70
     1
 10
0.0
 20
0.0
 30
0.0
  3
*D24
  1

  0
LINE
  5
7A04
  8
SP
 10
6298.4581043734406
 20
843.03013774616795
 30
0.0
 11
6298.4581043734406
 21
703.03013774616795
 31
0.0
  0
LINE
  5
7A05
  8
SP
 10
6678.4581043734424
 20
843.03013774616613
 30
0.0
 11
6678.4581043734424
 21
703.03013774616795
 31
0.0
  0
LINE
  5
7A06
  8
SP
 10
6323.4581043734406
 20
713.03013774616795
 30
0.0
 11
6653.4581043734406
 21
713.03013774616795
 31
0.0
  0
INSERT
  5
7A07
  8
SP
  2
_OPEN
 10
6298.4581043734406
 20
713.03013774616795
 30
0.0
 41
25.0
 42
25.0
 43
25.0
 50
180.0
  0
INSERT
  5
7A08
  8
SP
  2
_OPEN
 10
6678.4581043734424
 20
713.03013774616795
 30
0.0
 41
25.0
 42
25.0
 43
25.0
  0
TEXT
  5
7A09
  8
SP
 10
6446.5817236298317
 20
723.03013774616795
 30
0.0
 40
30.0
  1
380
 51
15.0
  0
POINT
  5
7A0A
  8
DEFPOINTS
 62
     0
 10
6298.4581043734406
 20
853.03013774616795
 30
0.0
  0
POINT
  5
7A0B
  8
DEFPOINTS
 62
     0
 10
6678.4581043734424
 20
853.03013774616613
 30
0.0
  0
POINT
  5
7A0C
  8
DEFPOINTS
 62
     0
 10
6678.4581043734424
 20
713.03013774616795
 30
0.0
  0
ENDBLK
  5
7234
  8
0
  0
BLOCK
  8
0
  2
*D25
 70
     1
 10
0.0
 20
0.0
 30
0.0
  3
*D25
  1

  0
LINE
  5
7A43
  8
SP
 10
6488.4581043734406
 20
840.53182892377117
 30
0.0
 11
6488.4581043734406
 21
773.03013774616795
 31
0.0
  0
LINE
  5
7A44
  8
SP
 10
6298.4581043734406
 20
843.03013774616795
 30
0.0
 11
6298.4581043734406
 21
773.03013774616795
 31
0.0
  0
LINE
  5
7A45
  8
SP
 10
6463.4581043734406
 20
783.03013774616795
 30
0.0
 11
6323.4581043734406
 21
783.03013774616795
 31
0.0
  0
INSERT
  5
7A46
  8
SP
  2
_OPEN
 10
6488.4581043734406
 20
783.03013774616795
 30
0.0
 41
25.0
 42
25.0
 43
25.0
  0
INSERT
  5
7A47
  8
SP
  2
_OPEN
 10
6298.4581043734406
 20
783.03013774616795
 30
0.0
 41
25.0
 42
25.0
 43
25.0
 50
180.0
  0
TEXT
  5
7A48
  8
SP
 10
6351.9507668429706
 20
793.03013774616795
 30
0.0
 40
30.0
  1
190
 51
15.0
  0
POINT
  5
7A49
  8
DEFPOINTS
 62
     0
 10
6488.4581043734406
 20
850.53182892377106
 30
0.0
  0
POINT
  5
7A4A
  8
DEFPOINTS
 62
     0
 10
6298.4581043734406
 20
853.03013774616795
 30
0.0
  0
POINT
  5
7A4B
  8
DEFPOINTS
 62
     0
 10
6298.4581043734406
 20
783.03013774616795
 30
0.0
  0
ENDBLK
  5
7240
  8
0
  0
BLOCK
  8
0
  2
*D26
 70
     1
 10
0.0
 20
0.0
 30
0.0
  3
*D26
  1

  0
LINE
  5
7C46
  8
SP
 10
6688.4581043734433
 20
983.03013774616602
 30
0.0
 11
6847.9243890247153
 21
983.03013774616602
 31
0.0
  0
LINE
  5
7C47
  8
SP
 10
6688.4581043734424
 20
913.03013774616795
 30
0.0
 11
6847.9243890247153
 21
913.03013774616795
 31
0.0
  0
LINE
  5
7C48
  8
SP
 10
6837.9243890247126
 20
983.03013774616602
 30
0.0
 11
6837.9243890247126
 21
913.03013774616795
 31
0.0
  0
TEXT
  8
0
  40
30
  5
7C58
  72
0
  71
0
 10
6817.50
 20
905.731
 30
0.000000
  1
（70）
  0
POINT
  5
7C4A
  8
DEFPOINTS
 62
     0
 10
6678.4581043734424
 20
983.03013774616602
 30
0.0
  0
POINT
  5
7C4B
  8
DEFPOINTS
 62
     0
 10
6678.4581043734424
 20
913.03013774616795
 30
0.0
  0
POINT
  5
7C4C
  8
DEFPOINTS
 62
     0
 10
6837.9243890247126
 20
913.03013774616795
 30
0.0
  0
ENDBLK
  5
724C
  8
0
  0
BLOCK
  8
0
  2
*D27
 70
     1
 10
0.0
 20
0.0
 30
0.0
  3
*D27
  1

  0
LINE
  5
7C4D
  8
SP
 10
6688.4581043734424
 20
913.03013774616795
 30
0.0
 11
6847.9243890247153
 21
913.03013774616795
 31
0.0
  0
LINE
  5
7C4E
  8
SP
 10
6688.4581043734424
 20
853.03013774616591
 30
0.0
 11
6847.9243890247153
 21
853.03013774616591
 31
0.0
  0
LINE
  5
7C4F
  8
SP
 10
6837.9243890247126
 20
938.03013774616795
 30
0.0
 11
6837.9243890247126
 21
963.03013774616795
 31
0.0
  0
LINE
  5
7C50
  8
SP
 10
6837.9243890247126
 20
828.03013774616591
 30
0.0
 11
6837.9243890247126
 21
731.95686818325782
 31
0.0
  0
LINE
  5
7C51
  8
SP
 10
6837.9243890247126
 20
913.03013774616795
 30
0.0
 11
6837.9243890247126
 21
853.03013774616591
 31
0.0
  0
INSERT
  5
7C52
  8
SP
  2
_DOT
 10
6837.9243890247126
 20
913.03013774616795
 30
0.0
 41
25.0
 42
25.0
 43
25.0
 50
270.0
  0
INSERT
  5
7C53
  8
SP
  2
_OPEN
 10
6837.9243890247126
 20
853.03013774616591
 30
0.0
 41
25.0
 42
25.0
 43
25.0
 50
90.0
  0
TEXT
  8
0
  40
30
  5
7C59
  72
0
  71
0
 10
6752.92
 20
714.394
 30
0.000000
  1
60
  0
POINT
  5
7C55
  8
DEFPOINTS
 62
     0
 10
6678.4581043734424
 20
913.03013774616795
 30
0.0
  0
POINT
  5
7C56
  8
DEFPOINTS
 62
     0
 10
6678.4581043734424
 20
853.03013774616591
 30
0.0
  0
POINT
  5
7C57
  8
DEFPOINTS
 62
     0
 10
6837.9243890247126
 20
853.03013774616591
 30
0.0
  0
ENDBLK
  5
725A
  8
0
  0
BLOCK
  8
0
  2
*D28
 70
     1
 10
0.0
 20
0.0
 30
0.0
  3
*D28
  1

  0
LINE
  5
7A31
  8
SP
 10
7239.4581043734424
 20
843.03013774616795
 30
0.0
 11
7239.4581043734424
 21
725.03013774616795
 31
0.0
  0
LINE
  5
7A32
  8
SP
 10
7338.4581043734406
 20
972.47319462932501
 30
0.0
 11
7338.4581043734406
 21
725.03013774616795
 31
0.0
  0
LINE
  5
7A33
  8
SP
 10
7264.4581043734424
 20
735.03013774616795
 30
0.0
 11
7313.4581043734424
 21
735.03013774616795
 31
0.0
  0
INSERT
  5
7A34
  8
SP
  2
_OPEN
 10
7239.4581043734424
 20
735.03013774616795
 30
0.0
 41
25.0
 42
25.0
 43
25.0
 50
180.0
  0
INSERT
  5
7A35
  8
SP
  2
_OPEN
 10
7338.4581043734406
 20
735.03013774616795
 30
0.0
 41
25.0
 42
25.0
 43
25.0
  0
TEXT
  5
7A36
  8
SP
 10
7261.3674379155455
 20
745.03013774616795
 30
0.0
 40
30.0
  1
99
 51
15.0
  0
POINT
  5
7A37
  8
DEFPOINTS
 62
     0
 10
7239.4581043734424
 20
853.03013774616795
 30
0.0
  0
POINT
  5
7A38
  8
DEFPOINTS
 62
     0
 10
7338.4581043734406
 20
982.47319462932489
 30
0.0
  0
POINT
  5
7A39
  8
DEFPOINTS
 62
     0
 10
7338.4581043734406
 20
735.03013774616795
 30
0.0
  0
ENDBLK
  5
7266
  8
0
  0
BLOCK
  8
0
  2
*D29
 70
     1
 10
0.0
 20
0.0
 30
0.0
  3
*D29
  1

  0
LINE
  5
79FB
  8
SP
 10
7039.4581043734424
 20
843.03013774616795
 30
0.0
 11
7039.4581043734424
 21
725.03013774616795
 31
0.0
  0
LINE
  5
79FC
  8
SP
 10
7239.4581043734424
 20
843.03013774616795
 30
0.0
 11
7239.4581043734424
 21
725.03013774616795
 31
0.0
  0
LINE
  5
79FD
  8
SP
 10
7064.4581043734424
 20
735.03013774616795
 30
0.0
 11
7214.4581043734406
 21
735.03013774616795
 31
0.0
  0
INSERT
  5
79FE
  8
SP
  2
_OPEN
 10
7039.4581043734424
 20
735.03013774616795
 30
0.0
 41
25.0
 42
25.0
 43
25.0
 50
180.0
  0
INSERT
  5
79FF
  8
SP
  2
_OPEN
 10
7239.4581043734424
 20
735.03013774616795
 30
0.0
 41
25.0
 42
25.0
 43
25.0
  0
TEXT
  5
7A00
  8
SP
 10
7098.3472927510638
 20
745.03013774616795
 30
0.0
 40
30.0
  1
200
 51
15.0
  0
POINT
  5
7A01
  8
DEFPOINTS
 62
     0
 10
7039.4581043734424
 20
853.03013774616795
 30
0.0
  0
POINT
  5
7A02
  8
DEFPOINTS
 62
     0
 10
7239.4581043734424
 20
853.03013774616795
 30
0.0
  0
POINT
  5
7A03
  8
DEFPOINTS
 62
     0
 10
7239.4581043734424
 20
735.03013774616795
 30
0.0
  0
ENDBLK
  5
7272
  8
0
  0
BLOCK
  8
0
  2
A$C4A8B4324
 70
     0
 10
0.0
 20
0.0
 30
0.0
  3
A$C4A8B4324
  1

  0
TEXT
  5
7C1C
  8
4
 10
-667.83345405869113
 20
20.71854450645332
 30
0.0
 40
50.0
  1
MF157P10.dxf
  0
ENDBLK
  5
7C1E
  8
0
  0
ENDSEC
  0
SECTION
  2
ENTITIES
  0
LINE
  5
3B88
  8
4
 10
7867.4991666319765
 20
96.09240406103936
 30
0.0
 11
5767.4991666319765
 21
96.09240406103936
 31
0.0
  0
LINE
  5
3B89
  8
4
 10
5767.4991666319765
 20
3046.0924040610389
 30
0.0
 11
7867.4991666319765
 21
3046.0924040610389
 31
0.0
  0
LINE
  5
3B95
  8
4
 10
5767.4991666319765
 20
96.09240406103936
 30
0.0
 11
5767.4991666319765
 21
3046.0924040610389
 31
0.0
  0
LINE
  5
3C9B
  8
4
 10
7867.4991666319765
 20
3046.0924040610389
 30
0.0
 11
7867.4991666319765
 21
96.09240406103936
 31
0.0
  0
LINE
  5
3D3A
  8
4
 10
7867.4991666319765
 20
3046.0924040610389
 30
0.0
 11
7867.4991666319765
 21
3046.0924040610389
 31
0.0
  0
TEXT
  5
54F2
  8
4
 10
6059.173672898818
 20
2544.4293549289091
 30
0.0
 40
53.999999999999993
  1
左回転上横向
  0
TEXT
  5
54F3
  8
4
 10
6227.0991666319769
 20
2695.5186316473701
 30
0.0
 40
72.0
  1
遠心式片吸込直動形多翼ファン
 72
     4
 11
6817.4991666319765
 21
2731.5186316473701
 31
0.0
  0
LINE
  5
54F4
  8
4
 10
6017.4991666319765
 20
2631.5186316473701
 30
0.0
 11
7617.4991666319765
 21
2631.5186316473701
 31
0.0
  0
LINE
  5
54F5
  8
4
 10
6017.4991666319765
 20
2831.5186316473701
 30
0.0
 11
7617.4991666319765
 21
2831.5186316473701
 31
0.0
  0
LINE
  5
54F6
  8
4
 10
6017.4991666319765
 20
2831.5186316473701
 30
0.0
 11
6017.4991666319765
 21
2631.5186316473701
 31
0.0
  0
LINE
  5
54F7
  8
4
 10
7208.1165889918411
 20
2948.7621389323181
 30
0.0
 11
7617.4991666319765
 21
2948.7621389323181
 31
0.0
  0
LINE
  5
54F8
  8
4
 10
7617.4991666319765
 20
2843.3734605079671
 30
0.0
 11
7208.1165889918411
 21
2843.3734605079671
 31
0.0
  0
TEXT
  5
54FA
  8
4
 10
7178.7952292319897
 20
2545.5387187150809
 30
0.0
 40
53.999999999999993
  1
縮尺：1/10
  0
LINE
  5
54FB
  8
4
 10
7208.1165889918411
 20
2843.3734605079671
 30
0.0
 11
7208.1165889918411
 21
2948.7621389323181
 31
0.0
  0
TEXT
  5
54FC
  8
4
 10
7236.4687258812664
 20
2868.170958877874
 30
0.0
 40
56.000000000000007
  1
No.
  0
LINE
  5
54FD
  8
4
 10
7617.4991666319765
 20
2831.5186316473701
 30
0.0
 11
7617.4991666319765
 21
2631.5186316473701
 31
0.0
  0
LINE
  5
54FE
  8
4
 10
7617.4991666319765
 20
2948.7621389323181
 30
0.0
 11
7617.4991666319765
 21
2843.3734605079671
 31
0.0
  0
TEXT
  5
5502
  8
4
 10
6253.7572726567741
 20
335.27468562959712
 30
0.0
 40
50.0
  1
機器型番
  0
TEXT
  5
5503
  8
4
 10
6256.0012474788782
 20
445.17255476419911
 30
0.0
 40
50.0
  1
機器名称
  0
LINE
  5
5506
  8
4
 10
6217.4991666319765
 20
513.62952889758606
 30
0.0
 11
7417.4991666319756
 21
513.62952889758606
 31
0.0
  0
LINE
  5
5507
  8
4
 10
6217.4991666319765
 20
413.62952889758611
 30
0.0
 11
7417.4991666319756
 21
413.62952889758611
 31
0.0
  0
LINE
  5
5508
  8
4
 10
6217.4991666319765
 20
313.62952889758611
 30
0.0
 11
7417.4991666319756
 21
313.62952889758611
 31
0.0
  0
LINE
  5
5509
  8
4
 10
6217.4991666319765
 20
513.62952889758606
 30
0.0
 11
6217.4991666319765
 21
313.62952889758611
 31
0.0
  0
LINE
  5
550A
  8
4
 10
7417.4991666319756
 20
513.62952889758606
 30
0.0
 11
7417.4991666319756
 21
313.62952889758611
 31
0.0
  0
LINE
  5
550B
  8
4
 10
6717.4991666319765
 20
513.62952889758606
 30
0.0
 11
6717.4991666319765
 21
313.62952889758611
 31
0.0
  0
TEXT
  5
550E
  8
4
 10
6745.1779121196414
 20
436.20129785515468
 30
0.0
 40
50.0
  1
ミツヤ多翼送風機
  0
TEXT
  5
5678
  8
4
 10
6754.1536622174581
 20
330.78911317752949
 30
0.0
 40
50.0
  1
MF＃1 1/2-7
  0
LINE
  5
5A35
  8
2
 10
6488.4581043734406
 20
850.53182892377106
 30
0.0
 11
6488.4581043734406
 21
1447.8065568904919
 31
0.0
  0
DIMENSION
  5
5DB5
  8
SP
  2
*D13
 10
6837.9243890247126
 20
983.03013774616511
 30
0.0
 11
6812.9243890247144
 21
1110.5301377461669
 31
0.0
 70
     0
 13
6772.6445893507398
 23
1238.0301377461669
 33
0.0
 14
6678.4581043734424
 24
983.03013774616511
 34
0.0
 50
90.0
  0
ARC
  5
5DB6
  8
FUTO
 10
6505.4581043734424
 20
1221.0301377461669
 30
0.0
 40
203.0
 50
179.5326782950084
 51
270.42791896778192
  0
ARC
  5
5DB7
  8
FUTO
 10
6508.4581043734424
 20
1258.0301377461669
 30
0.0
 40
240.0
 50
269.60817310073332
 51
0.000000000000007
  0
ARC
  5
5DB8
  8
FUTO
 10
6505.4581043734424
 20
1221.0301377461669
 30
0.0
 40
193.0
 50
179.5326782950084
 51
270.42791896778192
  0
ARC
  5
5DB9
  8
FUTO
 10
6508.4581043734424
 20
1258.0301377461669
 30
0.0
 40
230.0
 50
269.60817310073332
 51
0.000000000000007
  0
LINE
  5
5DBA
  8
2
 10
6488.4581043734406
 20
850.53182892377106
 30
0.0
 11
6488.4581043734406
 21
1447.8065568904919
 31
0.0
  0
LINE
  5
5DBB
  8
1
 10
6330.7581043734426
 20
1304.130137746165
 30
0.0
 11
6330.7581043734426
 21
983.03013774616511
 31
0.0
  0
LINE
  5
5DBC
  8
1
 10
6328.4581043734424
 20
1304.130137746165
 30
0.0
 11
6328.4581043734424
 21
985.3301377461662
 31
0.0
  0
LINE
  5
5DBD
  8
1
 10
6646.1581043734413
 20
1304.130137746165
 30
0.0
 11
6646.1581043734413
 21
983.03013774616511
 31
0.0
  0
LINE
  5
5DBE
  8
1
 10
6648.4581043734424
 20
1304.130137746165
 30
0.0
 11
6648.4581043734388
 21
985.33013774616791
 31
0.0
  0
ARC
  5
5DBF
  8
1
 10
6488.4581043734406
 20
1238.0301377461669
 30
0.0
 40
85.0
 50
295.87553399999689
 51
180.0
  0
CIRCLE
  5
5DC0
  8
2
 10
6488.4581043734406
 20
1238.0301377461669
 30
0.0
 40
136.0
  0
ARC
  5
5DC1
  8
1
 10
6488.4581043734406
 20
1238.0301377461669
 30
0.0
 40
85.000007999999994
 50
180.0
 51
244.0822739999997
  0
LINE
  5
5DC5
  8
FUTO
 10
6621.1581043734413
 20
1133.030137746166
 30
0.0
 11
6646.1581043734413
 21
1158.0301377461669
 31
0.0
  0
LINE
  5
5DC6
  8
1
 10
6646.1581043734413
 20
1034.030137746166
 30
0.0
 11
6621.1581043734423
 21
1034.030137746166
 31
0.0
  0
LINE
  5
5DC7
  8
1
 10
6678.4581043734424
 20
983.03013774616511
 30
0.0
 11
6298.4581043734406
 21
983.03013774616693
 31
0.0
  0
LINE
  5
5DC8
  8
1
 10
6646.1581043734413
 20
1158.0301377461669
 30
0.0
 11
6330.7581043734426
 21
1158.0301377461669
 31
0.0
  0
LINE
  5
5DCA
  8
1
 10
6678.4581043734424
 20
983.03013774616511
 30
0.0
 11
6678.4581043734443
 21
985.3301377461662
 31
0.0
  0
LINE
  5
5DCB
  8
1
 10
6678.4581043734424
 20
985.3301377461662
 30
0.0
 11
6648.4581043734388
 21
985.33013774616791
 31
0.0
  0
LINE
  5
5DCC
  8
1
 10
6355.7581043734444
 20
1133.030137746166
 30
0.0
 11
6355.7581043734444
 21
1034.030137746166
 31
0.0
  0
LINE
  5
5DCD
  8
1
 10
6621.1581043734413
 20
1133.030137746166
 30
0.0
 11
6621.1581043734413
 21
1034.030137746166
 31
0.0
  0
LINE
  5
5DCE
  8
1
 10
6355.7581043734444
 20
1034.030137746166
 30
0.0
 11
6330.7581043734426
 21
1034.030137746166
 31
0.0
  0
LINE
  5
5DCF
  8
1
 10
6298.4581043734406
 20
983.03013774616693
 30
0.0
 11
6298.4581043734406
 21
985.33013774616791
 31
0.0
  0
LINE
  5
5DD1
  8
1
 10
6328.4581043734424
 20
985.33013774616791
 30
0.0
 11
6298.4581043734406
 21
985.3301377461662
 31
0.0
  0
LINE
  5
5DD2
  8
FUTO
 10
6355.7581043734408
 20
1133.030137746166
 30
0.0
 11
6330.7581043734426
 21
1158.0301377461669
 31
0.0
  0
LINE
  5
5DD3
  8
1
 10
6621.1581043734413
 20
1133.030137746166
 30
0.0
 11
6355.7581043734426
 21
1133.030137746166
 31
0.0
  0
LINE
  5
5DD4
  8
CT
 10
6545.5442254281288
 20
1100.212050072666
 30
0.0
 11
6535.0321398940978
 21
1125.590469537748
 31
0.0
  0
CIRCLE
  5
5DD5
  8
1
 10
6540.5030511750929
 20
1112.3825213246321
 30
0.0
 40
4.0
  0
LINE
  5
5DD6
  8
CT
 10
6431.3719833187533
 20
1100.212050072666
 30
0.0
 11
6441.8840688527825
 21
1125.590469537748
 31
0.0
  0
CIRCLE
  5
5DD7
  8
1
 10
6436.4131575717893
 20
1112.3825213246321
 30
0.0
 40
4.0
  0
LINE
  5
5DD8
  8
1
 10
6525.5536033734397
 20
1161.579209746166
 30
0.0
 11
6451.3062953734407
 21
1161.579209746166
 31
0.0
  0
LINE
  5
5DD9
  8
1
 10
6570.9581043734424
 20
1159.6892557461661
 30
0.0
 11
6405.9580743734432
 21
1159.6892557461661
 31
0.0
  0
LINE
  5
5DDA
  8
CT
 10
6550.9581043734406
 20
1155.8115517461661
 30
0.0
 11
6550.9581043734406
 21
1164.3985587461659
 31
0.0
  0
LINE
  5
5DDB
  8
CT
 10
6626.2761920469411
 20
1180.944016691476
 30
0.0
 11
6600.8977725818577
 21
1191.4561022255091
 31
0.0
  0
ARC
  5
5DDC
  8
1
 10
6540.8233083734413
 20
1167.5301377461669
 30
0.0
 40
5.0
 50
215.53823900000091
 51
270.0
  0
LINE
  5
5DDD
  8
1
 10
6535.0820423734422
 20
1166.965659746166
 30
0.0
 11
6536.7546443734409
 21
1164.623887746166
 31
0.0
  0
LINE
  5
5DDE
  8
1
 10
6566.2912653734411
 20
1162.524766746167
 30
0.0
 11
6550.7812723734396
 21
1180.2116337461659
 31
0.0
  0
LINE
  5
5DDF
  8
1
 10
6570.9581043734424
 20
1162.530137746166
 30
0.0
 11
6540.8232783734411
 21
1162.530137746166
 31
0.0
  0
CIRCLE
  5
5DE0
  8
1
 10
6614.1057207949762
 20
1185.985190944514
 30
0.0
 40
4.0
  0
ARC
  5
5DE1
  8
1
 10
6488.4581043734406
 20
1238.0301377461669
 30
0.0
 40
85.0
 50
295.87553399999689
 51
303.26821866828919
  0
LINE
  5
5DE2
  8
1
 10
6530.9581043734406
 20
1159.6892557461661
 30
0.0
 11
6530.9581043734406
 21
1158.0301377461669
 31
0.0
  0
LINE
  5
5DE3
  8
1
 10
6565.9581043734424
 20
1159.6892557461661
 30
0.0
 11
6565.9581043734424
 21
1158.0301377461669
 31
0.0
  0
LINE
  5
5DE4
  8
1
 10
6570.9581043734424
 20
1159.6892557461661
 30
0.0
 11
6570.9581043734424
 21
1162.530137746166
 31
0.0
  0
LINE
  5
5DE5
  8
CT
 10
6350.640016699941
 20
1180.9440166914781
 30
0.0
 11
6376.0184361650254
 21
1191.4561022255091
 31
0.0
  0
LINE
  5
5DE6
  8
CT
 10
6425.9581043734406
 20
1155.8115517461661
 30
0.0
 11
6425.9581043734406
 21
1164.3985587461659
 31
0.0
  0
LINE
  5
5DE7
  8
1
 10
6405.9580743734432
 20
1162.530137746166
 30
0.0
 11
6436.0929003734409
 21
1162.530137746166
 31
0.0
  0
LINE
  5
5DE8
  8
1
 10
6410.6237363734417
 20
1162.523313746166
 30
0.0
 11
6426.1367963734428
 21
1180.2137757461669
 31
0.0
  0
LINE
  5
5DE9
  8
1
 10
6440.9498343734413
 20
1165.7275247461671
 30
0.0
 11
6440.1615653734416
 21
1164.623887746166
 31
0.0
  0
LINE
  5
5DEA
  8
1
 10
6441.826553373442
 20
1166.954999746167
 30
0.0
 11
6440.1615653734416
 21
1164.623887746166
 31
0.0
  0
ARC
  5
5DEB
  8
1
 10
6436.0929003734409
 20
1167.5301377461669
 30
0.0
 40
5.000032
 50
270.0
 51
324.46174600000199
  0
LINE
  5
5DEC
  8
1
 10
6410.9581043734424
 20
1159.6892557461661
 30
0.0
 11
6410.9581043734424
 21
1158.0301377461669
 31
0.0
  0
LINE
  5
5DED
  8
1
 10
6445.9581043734424
 20
1159.6892557461661
 30
0.0
 11
6445.9581043734424
 21
1158.0301377461669
 31
0.0
  0
LINE
  5
5DEE
  8
1
 10
6405.9580743734432
 20
1162.530137746166
 30
0.0
 11
6405.9580743734432
 21
1159.6892557461661
 31
0.0
  0
CIRCLE
  5
5DEF
  8
1
 10
6362.8104879519069
 20
1185.985190944514
 30
0.0
 40
4.0
  0
LINE
  5
5DF0
  8
FUTO
 10
6738.4580889416993
 20
1438.0245822763429
 30
0.0
 11
6738.4580889416993
 21
1258.02458227634
 31
0.0
  0
DIMENSION
  5
5DF1
  8
SP
  2
*D12
 10
6837.9243890247126
 20
1438.0301377461669
 30
0.0
 11
6812.9243890247144
 21
1338.0301377461681
 31
0.0
 70
     0
 13
6772.6445893507398
 23
1238.0301377461669
 33
0.0
 14
6759.4581043734424
 24
1438.0301377461669
 34
0.0
 50
90.0
  0
DIMENSION
  5
5DF2
  8
SP
  2
*D11
 10
6312.4581043734406
 20
1508.030137746166
 30
0.0
 11
6400.4581043734406
 21
1533.030137746166
 31
0.0
 70
     0
 13
6488.4581043734406
 23
1447.8065568904919
 33
0.0
 14
6312.4581043734406
 24
1221.0301377461669
 34
0.0
 50
180.0
  0
LINE
  5
5DF3
  8
FUTO
 10
6739.4581043734424
 20
1438.0301377461669
 30
0.0
 11
6739.4581043734424
 21
1418.0301377461669
 31
0.0
  0
LINE
  5
5DF4
  8
FUTO
 10
6740.4581043734406
 20
1437.0301377461669
 30
0.0
 11
6740.4581043734406
 21
1418.0301377461669
 31
0.0
  0
LINE
  5
5DF5
  8
FUTO
 10
6737.4581043734424
 20
1436.0301377461669
 30
0.0
 11
6719.4581043734406
 21
1418.0301377461669
 31
0.0
  0
LINE
  5
5DF6
  8
FUTO
 10
6488.4581043734406
 20
1418.0301377461669
 30
0.0
 11
6488.4581043734406
 21
1438.0301377461669
 31
0.0
  0
LINE
  5
5DF7
  8
FUTO
 10
6487.4581043734424
 20
1438.0301377461669
 30
0.0
 11
6487.4581043734424
 21
1418.0301377461669
 31
0.0
  0
LINE
  5
5DF8
  8
FUTO
 10
6486.4581043734424
 20
1437.0301377461669
 30
0.0
 11
6486.4581043734424
 21
1418.0301377461669
 31
0.0
  0
LINE
  5
5DF9
  8
FUTO
 10
6489.4581043734424
 20
1436.0301377461669
 30
0.0
 11
6507.4581043734406
 21
1418.0301377461669
 31
0.0
  0
LINE
  5
5DFA
  8
FUTO
 10
6719.4581043734406
 20
1418.0301377461669
 30
0.0
 11
6507.4581043734406
 21
1418.0301377461669
 31
0.0
  0
LINE
  5
5DFB
  8
1
 10
6548.4581043734424
 20
1388.0301377461669
 30
0.0
 11
6646.8581043734421
 21
1304.130137746165
 31
0.0
  0
LINE
  5
5DFC
  8
2
 10
6772.6445893507398
 20
1238.0301377461669
 30
0.0
 11
6278.3104898000911
 21
1238.0301377461651
 31
0.0
  0
LINE
  5
5DFD
  8
FUTO
 10
6749.3471630141066
 20
1418.0301377461669
 30
0.0
 11
6748.4579346242826
 21
1257.9690275781029
 31
0.0
  0
LINE
  5
5DFE
  8
1
 10
6648.4581043734424
 20
1304.130137746165
 30
0.0
 11
6646.8581043734421
 21
1304.130137746165
 31
0.0
  0
LINE
  5
5DFF
  8
FUTO
 10
6749.3471630141066
 20
1418.0301377461669
 30
0.0
 11
6739.3470086943089
 21
1418.0301377461669
 31
0.0
  0
ARC
  5
5E00
  8
FUTO
 10
6474.4581043734406
 20
1224.0301377461669
 30
0.0
 40
172.0
 50
101.5492618235584
 51
180.51033324481159
  0
ARC
  5
5E01
  8
FUTO
 10
6474.4581043734406
 20
1224.0301377461669
 30
0.0
 40
162.0
 50
101.5492618235584
 51
180.51033324481159
  0
LINE
  5
5E02
  8
1
 10
6428.4581043734424
 20
1388.0301377461669
 30
0.0
 11
6330.0581043734419
 21
1304.130137746165
 31
0.0
  0
LINE
  5
5E03
  8
CT
 10
6626.2761920469411
 20
1295.1162588008531
 30
0.0
 11
6600.8977725818577
 21
1284.604173266825
 31
0.0
  0
CIRCLE
  5
5E04
  8
1
 10
6614.1057207949762
 20
1290.075084547819
 30
0.0
 40
4.0
  0
LINE
  5
5E05
  8
CT
 10
6350.640016699941
 20
1295.1162588008531
 30
0.0
 11
6376.0184361650254
 21
1284.604173266825
 31
0.0
  0
CIRCLE
  5
5E06
  8
1
 10
6362.8104879519069
 20
1290.075084547819
 30
0.0
 40
4.0
  0
LINE
  5
5E07
  8
1
 10
6330.0581043734419
 20
1304.130137746165
 30
0.0
 11
6328.4581043734424
 21
1304.130137746165
 31
0.0
  0
LINE
  5
5E08
  8
CT
 10
6431.3719833187533
 20
1375.8482254196649
 30
0.0
 11
6441.8840688527853
 21
1350.469805954584
 31
0.0
  0
LINE
  5
5E09
  8
CT
 10
6545.5442254281288
 20
1375.8482254196649
 30
0.0
 11
6535.0321398940987
 21
1350.4698059545819
 31
0.0
  0
CIRCLE
  5
5E0A
  8
1
 10
6540.5030511750929
 20
1363.6777541677011
 30
0.0
 40
4.0
  0
CIRCLE
  5
5E0B
  8
1
 10
6436.4131575717893
 20
1363.6777541677011
 30
0.0
 40
4.0
  0
ARC
  5
5E0C
  8
FUTO
 10
6427.4581043734461
 20
1454.0301377461669
 30
0.0
 40
72.753061747871584
 50
281.54926182355842
 51
325.80038054454297
  0
LINE
  5
5E0D
  8
FUTO
 10
6488.4581043734406
 20
1418.0301377461669
 30
0.0
 11
6482.5262609631991
 21
1418.0301377461669
 31
0.0
  0
LINE
  5
5E0E
  8
1
 10
6548.4581043734424
 20
1388.0301377461669
 30
0.0
 11
6428.4581043734424
 21
1388.0301377461669
 31
0.0
  0
LINE
  5
5E0F
  8
FUTO
 10
6488.4581043734406
 20
1418.0301377461669
 30
0.0
 11
6487.4581043734424
 21
1418.0301377461669
 31
0.0
  0
ARC
  5
5E10
  8
FUTO
 10
6428.9295182735132
 20
1448.550107068309
 30
0.0
 40
57.203726762688042
 50
278.3279243017862
 51
323.39649632638441
  0
ARC
  5
5E11
  8
FUTO
 10
6482.5262609631991
 20
1408.0301377461669
 30
0.0
 40
10.0
 50
90.0
 51
140.1270310938539
  0
LINE
  5
5E12
  8
FUTO
 10
6759.4581043734424
 20
1438.0301377461669
 30
0.0
 11
6467.4581043734424
 21
1438.0301377461669
 31
0.0
  0
LINE
  5
5E13
  8
FUTO
 10
6739.4581043734424
 20
1437.0301377461669
 30
0.0
 11
6487.4581043734424
 21
1437.0301377461669
 31
0.0
  0
DIMENSION
  5
5E14
  8
SP
  2
*D10
 10
6488.4581043734406
 20
1508.030137746166
 30
0.0
 11
6613.4581043734406
 21
1533.030137746166
 31
0.0
 70
     0
 13
6738.4581043734406
 23
1438.030137746166
 33
0.0
 14
6488.4581043734406
 24
1447.8065568904919
 34
0.0
 50
180.0
  0
LINE
  5
5E15
  8
FUTO
 10
6759.4581043734424
 20
1437.0301377461669
 30
0.0
 11
6740.4581043734406
 21
1437.0301377461669
 31
0.0
  0
LINE
  5
5E16
  8
FUTO
 10
6759.4581043734424
 20
1438.0301377461669
 30
0.0
 11
6759.4581043734424
 21
1437.0301377461669
 31
0.0
  0
LINE
  5
5E17
  8
FUTO
 10
6739.4581043734424
 20
1436.0301377461669
 30
0.0
 11
6737.4581043734424
 21
1436.0301377461669
 31
0.0
  0
LINE
  5
5E18
  8
FUTO
 10
6486.4581043734424
 20
1437.0301377461669
 30
0.0
 11
6467.4581043734424
 21
1437.0301377461669
 31
0.0
  0
LINE
  5
5E19
  8
FUTO
 10
6489.4581043734424
 20
1436.0301377461669
 30
0.0
 11
6487.4581043734424
 21
1436.0301377461669
 31
0.0
  0
LINE
  5
5E1A
  8
FUTO
 10
6467.4581043734424
 20
1438.0301377461669
 30
0.0
 11
6467.4581043734424
 21
1437.0301377461669
 31
0.0
  0
LINE
  5
63FE
  8
1
 10
7247.4581043734424
 20
1228.030137746166
 30
0.0
 11
7247.4581043734424
 21
1088.030137746166
 31
0.0
  0
LINE
  5
63FF
  8
1
 10
6986.6581043734432
 20
1310.807481746167
 30
0.0
 11
6986.6581043734432
 21
1165.403612746167
 31
0.0
  0
LINE
  5
6400
  8
1
 10
7042.6009763734419
 20
1187.946702746166
 30
0.0
 11
7060.6581363734422
 21
1197.286600746166
 31
0.0
  0
LINE
  5
6401
  8
2
 10
7119.6581043734423
 20
1318.3140127461679
 30
0.0
 11
7119.6581043734423
 21
1154.014024746167
 31
0.0
  0
LINE
  5
6402
  8
1
 10
7020.6581043734432
 20
1161.030137746166
 30
0.0
 11
7020.6581043734432
 21
1321.5301377461669
 31
0.0
  0
LINE
  5
6403
  8
1
 10
7437.4581043734443
 20
1382.0301377461669
 30
0.0
 11
7437.4581043734424
 21
1094.030137746166
 31
0.0
  0
LINE
  5
6404
  8
1
 10
7239.4581043734397
 20
1382.0301377461669
 30
0.0
 11
7239.4581043734424
 21
1094.030137746166
 31
0.0
  0
DIMENSION
  5
6405
  8
SP
  2
*D15
 10
7508.4581043734433
 20
1113.0301377461669
 30
0.0
 11
7483.4581043734433
 21
1238.0301377461681
 31
0.0
 70
     0
 13
7437.4581043734443
 23
1363.0301377461669
 33
0.0
 14
7437.4581043734443
 24
1113.0301377461669
 34
0.0
 50
90.0
1001
ACAD
1000
DSTYLE
1002
{
1070
     3
1000
φ<>
1002
}
  0
LINE
  5
6406
  8
1
 10
7039.4581043734433
 20
985.3301377461662
 30
0.0
 11
7210.858104373443
 21
1282.830137746166
 31
0.0
  0
LINE
  5
6407
  8
1
 10
7247.4581043734424
 20
1041.0301377461669
 30
0.0
 11
7247.4581043734424
 21
1238.0301377461669
 31
0.0
  0
LINE
  5
6408
  8
1
 10
7239.4581043734424
 20
1388.0301377461669
 30
0.0
 11
7239.4581043734424
 21
983.03013774616693
 31
0.0
  0
LINE
  5
6409
  8
1
 10
7248.4581043734424
 20
1041.0301377461669
 30
0.0
 11
7248.4581043734424
 21
1238.0301377461669
 31
0.0
  0
LINE
  5
640A
  8
1
 10
7237.1581043734413
 20
1388.0301377461651
 30
0.0
 11
7237.1581043734423
 21
985.33013774616438
 31
0.0
  0
LINE
  5
640B
  8
1
 10
7429.4581043734397
 20
1238.0301377461669
 30
0.0
 11
7429.4581043734406
 21
1041.0301377461669
 31
0.0
  0
LINE
  5
640C
  8
1
 10
7428.4581043734397
 20
1238.0301377461669
 30
0.0
 11
7428.4581043734424
 21
1041.0301377461669
 31
0.0
  0
LINE
  5
640D
  8
2
 10
7338.4581043734406
 20
1490.2415637339091
 30
0.0
 11
7338.4581043734406
 21
982.47319462932489
 31
0.0
  0
LINE
  5
6410
  8
1
 10
7030.4581043734406
 20
1106.0301377461681
 30
0.0
 11
7063.7581043734408
 21
1034.0301377461651
 31
0.0
  0
LINE
  5
6411
  8
1
 10
7247.4581043734424
 20
1088.030137746166
 30
0.0
 11
7247.4581043734424
 21
1041.0301377461669
 31
0.0
  0
LINE
  5
6412
  8
1
 10
7429.4581043734406
 20
1088.030137746166
 30
0.0
 11
7429.4581043734406
 21
1041.0301377461669
 31
0.0
  0
LINE
  5
6413
  8
1
 10
7259.4581043734424
 20
1029.0301377461669
 30
0.0
 11
7417.4581043734424
 21
1029.0301377461669
 31
0.0
  0
LINE
  5
6414
  8
1
 10
7259.4581043734424
 20
1030.0301377461669
 30
0.0
 11
7417.4581043734424
 21
1030.0301377461669
 31
0.0
  0
LINE
  5
6415
  8
1
 10
7039.4581043734424
 20
983.03013774616693
 30
0.0
 11
7269.4581043734406
 21
983.03013774616693
 31
0.0
  0
LINE
  5
6416
  8
1
 10
7039.4581043734424
 20
985.3301377461662
 30
0.0
 11
7237.1581043734423
 21
985.33013774616438
 31
0.0
  0
LINE
  5
6418
  8
1
 10
7039.4581043734433
 20
985.3301377461662
 30
0.0
 11
7039.4581043734424
 21
983.03013774616693
 31
0.0
  0
LINE
  5
641A
  8
1
 10
7239.4581043734424
 20
985.33013774616438
 30
0.0
 11
7269.4581043734406
 21
985.3301377461662
 31
0.0
  0
LINE
  5
641B
  8
1
 10
7269.4581043734406
 20
985.33013774616438
 30
0.0
 11
7269.4581043734406
 21
983.03013774616693
 31
0.0
  0
LINE
  5
641C
  8
1
 10
7063.7581043734381
 20
1034.0301377461681
 30
0.0
 11
7067.5158522726051
 21
1034.0301377461681
 31
0.0
  0
ARC
  5
641D
  8
1
 10
7259.4581043734424
 20
1041.0301377461669
 30
0.0
 40
11.0
 50
180.0
 51
270.0
  0
ARC
  5
641E
  8
1
 10
7259.4581043734424
 20
1041.0301377461669
 30
0.0
 40
12.0
 50
180.0
 51
270.0
  0
ARC
  5
6420
  8
1
 10
7417.4581043734424
 20
1041.0301377461669
 30
0.0
 40
12.0
 50
270.0
 51
0.0
  0
ARC
  5
6421
  8
1
 10
7417.4581043734424
 20
1041.0301377461669
 30
0.0
 40
11.0
 50
270.0
 51
0.0
  0
LINE
  5
6424
  8
1
 10
7030.4581043734406
 20
1158.0301377461669
 30
0.0
 11
7030.4581043734406
 21
1106.0301377461701
 31
0.0
  0
ARC
  5
6425
  8
1
 10
7242.4581043734424
 20
1094.030137746166
 30
0.0
 40
3.0
 50
180.0
 51
270.0
  0
LINE
  5
6426
  8
1
 10
7244.4581043734424
 20
1091.0301377461669
 30
0.0
 11
7242.4581043734424
 21
1091.0301377461669
 31
0.0
  0
ARC
  5
6427
  8
1
 10
7244.4581043734424
 20
1088.030137746166
 30
0.0
 40
3.0
 50
0.000000000000007
 51
90.0
  0
LINE
  5
6428
  8
1
 10
7140.1087934490752
 20
1160.0301377461669
 30
0.0
 11
7054.6581043734423
 21
1160.0301377461669
 31
0.0
  0
LINE
  5
6429
  8
1
 10
7141.5491295835282
 20
1162.530137746166
 30
0.0
 11
7054.6581043734423
 21
1162.530137746166
 31
0.0
  0
LINE
  5
642A
  8
1
 10
7119.6581043734423
 20
1160.0301377461669
 30
0.0
 11
7085.6581043734423
 21
1160.0301377461669
 31
0.0
  0
LINE
  5
642B
  8
1
 10
7119.6581043734423
 20
1181.1876087461669
 30
0.0
 11
7096.7049183734416
 21
1181.1876087461669
 31
0.0
  0
LINE
  5
642C
  8
1
 10
7030.4581043734406
 20
1158.0301377461681
 30
0.0
 11
7138.9565245415124
 21
1158.0301377461701
 31
0.0
  0
LINE
  5
642D
  8
1
 10
7088.7861563734423
 20
1170.361558746167
 30
0.0
 11
7060.6581043734423
 21
1170.361558746167
 31
0.0
  0
LINE
  5
642E
  8
1
 10
7054.6581043734423
 20
1160.0301377461669
 30
0.0
 11
7054.6581043734423
 21
1164.361558746167
 31
0.0
  0
LINE
  5
642F
  8
1
 10
7059.6581043734423
 20
1160.0301377461669
 30
0.0
 11
7059.6581043734423
 21
1158.0301377461669
 31
0.0
  0
LINE
  5
6430
  8
1
 10
7057.1581043734423
 20
1195.4762427461681
 30
0.0
 11
7057.1581043734423
 21
1169.2349557461671
 31
0.0
  0
ARC
  5
6431
  8
1
 10
7060.6581043734423
 20
1164.361558746167
 30
0.0
 40
6.0
 50
90.0
 51
180.0
  0
LINE
  5
6432
  8
1
 10
7054.334862373441
 20
1163.2300897461671
 30
0.0
 11
7054.6451043734423
 21
1163.2300897461671
 31
0.0
  0
LINE
  5
6433
  8
CT
 10
7069.6581043734423
 20
1166.242051746166
 30
0.0
 11
7069.6581043734423
 21
1150.7301377461649
 31
0.0
  0
LINE
  5
6434
  8
1
 10
7089.6581043734432
 20
1160.0301377461669
 30
0.0
 11
7089.6581043734432
 21
1158.0301377461669
 31
0.0
  0
ARC
  5
6435
  8
1
 10
7096.705102373443
 20
1175.187486746167
 30
0.0
 40
6.0001220000000002
 50
90.001167000002894
 51
161.67526200000361
  0
LINE
  5
6436
  8
1
 10
7091.0091183734421
 20
1177.073961746167
 30
0.0
 11
7087.3279043734419
 21
1165.958238746166
 31
0.0
  0
ARC
  5
6437
  8
1
 10
7082.581383373441
 20
1167.5301377461669
 30
0.0
 40
5.0
 50
270.0
 51
341.67651400000278
  0
ARC
  5
6438
  8
1
 10
7021.6581043734423
 20
1161.030137746166
 30
0.0
 40
1.000030999999999
 50
180.0
 51
269.99826000000689
  0
LINE
  5
6439
  8
1
 10
7042.6009763734419
 20
1187.946702746166
 30
0.0
 11
7042.6009763734419
 21
1160.0265367461659
 31
0.0
  0
LINE
  5
643A
  8
1
 10
7042.6009763734419
 20
1160.0301377461669
 30
0.0
 11
7021.6581043734423
 21
1160.0301377461669
 31
0.0
  0
LINE
  5
643B
  8
1
 10
7020.6581043734432
 20
1161.030137746166
 30
0.0
 11
6988.0262683734418
 21
1163.9094107461669
 31
0.0
  0
ARC
  5
643C
  8
1
 10
6988.1581043734432
 20
1165.403612746167
 30
0.0
 40
1.4999849999999999
 50
180.0
 51
264.95834399999262
  0
LINE
  5
643D
  8
1
 10
7042.6009763734419
 20
1163.2301507461659
 30
0.0
 11
7054.6451043734423
 21
1163.2301507461659
 31
0.0
  0
LINE
  5
643E
  8
1
 10
7119.6581043734423
 20
1181.1876087461669
 30
0.0
 11
7142.6112903734411
 21
1181.1876087461669
 31
0.0
  0
LINE
  5
643F
  8
1
 10
7148.3070913734409
 20
1177.073961746167
 30
0.0
 11
7148.8988515911778
 21
1175.287093972981
 31
0.0
  0
ARC
  5
6440
  8
1
 10
7142.6112293734423
 20
1175.187486746167
 30
0.0
 40
6.0001939999999996
 50
18.324733999998731
 51
89.99883299999712
  0
ARC
  5
6441
  8
1
 10
7432.4581043734406
 20
1088.030137746166
 30
0.0
 40
3.0
 50
90.0
 51
180.0
  0
LINE
  5
6442
  8
1
 10
7432.4581043734406
 20
1091.0301377461669
 30
0.0
 11
7434.4581043734424
 21
1091.0301377461669
 31
0.0
  0
ARC
  5
6443
  8
1
 10
7434.4581043734424
 20
1094.030137746166
 30
0.0
 40
3.0
 50
270.0
 51
0.0
  0
LINE
  5
6444
  8
FUTO
 10
7428.4581043734424
 20
1113.0301377461669
 30
0.0
 11
7437.4581043734424
 21
1113.0301377461669
 31
0.0
  0
LINE
  5
6445
  8
1
 10
7250.4581043734433
 20
1436.0301377461669
 30
0.0
 11
7268.4581043734433
 21
1418.0301377461669
 31
0.0
  0
LINE
  5
6446
  8
1
 10
7429.4581043734397
 20
1438.0301377461651
 30
0.0
 11
7429.4581043734406
 21
1388.0301377461681
 31
0.0
  0
LINE
  5
6447
  8
1
 10
7426.4581043734388
 20
1436.0301377461669
 30
0.0
 11
7408.4581043734397
 21
1418.0301377461669
 31
0.0
  0
LINE
  5
6448
  8
1
 10
7247.4581043734424
 20
1438.0301377461669
 30
0.0
 11
7247.4581043734424
 21
1238.0301377461669
 31
0.0
  0
LINE
  5
6449
  8
1
 10
7248.4581043734443
 20
1438.0301377461669
 30
0.0
 11
7248.4581043734443
 21
1238.0301377461669
 31
0.0
  0
LINE
  5
644A
  8
1
 10
7428.4581043734424
 20
1438.0301377461669
 30
0.0
 11
7428.4581043734424
 21
1238.0301377461669
 31
0.0
  0
DIMENSION
  5
644B
  8
SP
  2
*D16
 10
7437.4581043734424
 20
1578.0301377461651
 30
0.0
 11
7387.9581043734424
 21
1603.0301377461651
 31
0.0
 70
     0
 13
7338.4581043734406
 23
1548.0301377461651
 33
0.0
 14
7437.4581043734424
 24
1382.0301377461669
 34
0.0
  0
DIMENSION
  5
644C
  8
SP
  2
*D17
 10
6986.6581043734432
 20
1578.0301377461651
 30
0.0
 11
7162.5581043734419
 21
1603.0301377461651
 31
0.0
 70
     0
  1
（400）
 13
7338.4581043734406
 23
1548.0301377461651
 33
0.0
 14
6986.6581043734432
 24
1310.807481746167
 34
0.0
  0
LINE
  5
644D
  8
1
 10
7060.6581043734423
 20
1197.2865841944631
 30
0.0
 11
7060.6581043734423
 21
1323.0301377461669
 31
0.0
  0
LINE
  5
644E
  8
1
 10
7429.4581043734406
 20
1388.0301377461669
 30
0.0
 11
7429.4581043734443
 21
1238.0301377461669
 31
0.0
  0
LINE
  5
644F
  8
1
 10
6987.8556143734431
 20
1312.2766587461681
 30
0.0
 11
7019.8597653734414
 21
1318.8657707461671
 31
0.0
  0
LINE
  5
6450
  8
2
 10
6970.36965974554
 20
1238.0301377461669
 30
0.0
 11
7451.9746930676874
 21
1238.0301377461669
 31
0.0
  0
LINE
  5
6451
  8
1
 10
7182.1581043734423
 20
1313.5301377461669
 30
0.0
 11
7182.1581043734441
 21
1233.015376952698
 31
0.0
  0
LINE
  5
6452
  8
1
 10
7060.6581043734423
 20
1312.8301257461669
 30
0.0
 11
7182.1581043734423
 21
1312.8301257461669
 31
0.0
  0
ARC
  5
6453
  8
1
 10
6988.1581043734432
 20
1310.807481746167
 30
0.0
 40
1.499994
 50
101.6341019999993
 51
180.0
  0
LINE
  5
6454
  8
1
 10
7210.858104373443
 20
1282.830137746166
 30
0.0
 11
7237.1581043734413
 21
1304.130137746165
 31
0.0
  0
LINE
  5
6455
  8
1
 10
7204.6581043734423
 20
1272.068760850015
 30
0.0
 11
7204.6581043734423
 21
1311.5301377461669
 31
0.0
  0
ARC
  5
6456
  8
1
 10
7202.6581043734423
 20
1311.5301377461669
 30
0.0
 40
2.0
 50
0.0
 51
90.0
  0
LINE
  5
6457
  8
1
 10
7182.1581043734423
 20
1313.5301377461669
 30
0.0
 11
7202.6581043734423
 21
1313.5301377461669
 31
0.0
  0
LINE
  5
6458
  8
1
 10
7204.6581043734423
 20
1302.095933746167
 30
0.0
 11
7204.6581043734423
 21
1311.095933746167
 31
0.0
  0
LINE
  5
6459
  8
1
 10
7204.6581043734423
 20
1310.845140746166
 30
0.0
 11
7204.6581043734423
 21
1302.2151357461671
 31
0.0
  0
LINE
  5
645A
  8
1
 10
7268.4581043734406
 20
1418.030137746169
 30
0.0
 11
7408.4581043734406
 21
1418.030137746169
 31
0.0
  0
ARC
  5
645B
  8
1
 10
7022.1581043734423
 20
1321.5301377461669
 30
0.0
 40
1.4999849999999999
 50
89.999419999993705
 51
180.0
  0
ARC
  5
645C
  8
1
 10
7019.6581653734411
 20
1319.845140746166
 30
0.0
 40
0.999898
 50
281.62991300000863
 51
0.0034970000000449
  0
LINE
  5
645D
  8
1
 10
7022.1581043734423
 20
1323.0301377461669
 30
0.0
 11
7060.6581043734423
 21
1323.0301377461669
 31
0.0
  0
LINE
  5
645E
  8
1
 10
7237.1581043734413
 20
1388.0301377461669
 30
0.0
 11
7239.4581043734424
 21
1388.0301377461669
 31
0.0
  0
ARC
  5
645F
  8
1
 10
7244.4581043734424
 20
1388.0301377461669
 30
0.0
 40
3.0
 50
270.0
 51
0.000000000000007
  0
ARC
  5
6460
  8
1
 10
7242.4581043734424
 20
1382.0301377461669
 30
0.0
 40
3.0
 50
90.0
 51
180.0
  0
LINE
  5
6461
  8
1
 10
7244.4581043734424
 20
1385.030137746166
 30
0.0
 11
7242.4581043734424
 21
1385.030137746166
 31
0.0
  0
LINE
  5
6462
  8
FUTO
 10
7428.4581043734424
 20
1363.0301377461669
 30
0.0
 11
7437.4581043734443
 21
1363.0301377461669
 31
0.0
  0
LINE
  5
6463
  8
1
 10
7432.4581043734406
 20
1385.030137746166
 30
0.0
 11
7434.4581043734424
 21
1385.030137746166
 31
0.0
  0
ARC
  5
6464
  8
1
 10
7434.4581043734424
 20
1382.0301377461669
 30
0.0
 40
3.0
 50
0.0
 51
90.0
  0
ARC
  5
6465
  8
1
 10
7432.4581043734406
 20
1388.0301377461669
 30
0.0
 40
3.0
 50
180.0
 51
270.0
  0
LINE
  5
6466
  8
1
 10
7227.4581043734433
 20
1438.0301377461669
 30
0.0
 11
7449.4581043734406
 21
1438.0301377461651
 31
0.0
  0
LINE
  5
6467
  8
1
 10
7227.4581043734406
 20
1437.0301377461669
 30
0.0
 11
7449.4581043734406
 21
1437.0301377461669
 31
0.0
  0
DIMENSION
  5
6468
  8
SP
  2
*D14
 10
7428.4581043734424
 20
1508.0301377461651
 30
0.0
 11
7338.4581043734433
 21
1533.0301377461651
 31
0.0
 70
     0
 13
7248.4581043734443
 23
1438.0301377461669
 33
0.0
 14
7428.4581043734424
 24
1438.0301377461669
 34
0.0
  0
LINE
  5
6469
  8
1
 10
7227.4581043734406
 20
1438.0301377461669
 30
0.0
 11
7227.4581043734433
 21
1437.0301377461669
 31
0.0
  0
LINE
  5
646A
  8
1
 10
7248.4581043734443
 20
1436.0301377461669
 30
0.0
 11
7250.4581043734433
 21
1436.0301377461669
 31
0.0
  0
LINE
  5
646B
  8
1
 10
7428.4581043734397
 20
1436.0301377461669
 30
0.0
 11
7426.4581043734388
 21
1436.0301377461669
 31
0.0
  0
LINE
  5
646C
  8
1
 10
7449.4581043734406
 20
1438.0301377461669
 30
0.0
 11
7449.4581043734406
 21
1437.0301377461669
 31
0.0
  0
ARC
  5
6C7A
  8
1
 10
6479.4581043734406
 20
2183.1217284884451
 30
0.0
 40
12.0
 50
180.00000000000131
 51
270.0
  0
LINE
  5
6C7B
  8
1
 10
6505.9581043734397
 20
2163.3217284884399
 30
0.0
 11
6470.9581043734397
 21
2163.3217284884399
 31
0.0
  0
LINE
  5
6C7C
  8
1
 10
6455.9581043734397
 20
2158.3217284884422
 30
0.0
 11
6520.9581043734397
 21
2158.3217284884422
 31
0.0
  0
LINE
  5
6C7D
  8
FUTO
 10
6298.4581043734379
 20
2183.1217284884392
 30
0.0
 11
6678.458104373437
 21
2183.1217284884378
 31
0.0
  0
LINE
  5
6C7E
  8
2
 10
6772.6445893507389
 20
2282.121728488441
 30
0.0
 11
6278.3104898000893
 21
2282.1217284884392
 31
0.0
  0
ARC
  5
6C7F
  8
1
 10
6479.4581043734379
 20
2381.1217284884401
 30
0.0
 40
12.0
 50
89.999999999999986
 51
180.00000000000091
  0
LINE
  5
6C80
  8
1
 10
6488.4581043734397
 20
2148.3217284884422
 30
0.0
 11
6414.9581043734397
 21
2148.3217284884422
 31
0.0
  0
LINE
  5
6C81
  8
1
 10
6412.9581043734406
 20
2125.8217284884422
 30
0.0
 11
6488.4581043734388
 21
2125.8217284884422
 31
0.0
  0
LINE
  5
6C82
  8
1
 10
6403.4581043734388
 20
2004.321728488442
 30
0.0
 11
6573.4581043734397
 21
2004.321728488442
 31
0.0
  0
LINE
  5
6C83
  8
1
 10
6488.4581043734388
 20
1964.321728488442
 30
0.0
 11
6404.9581043734388
 21
1964.321728488442
 31
0.0
  0
LINE
  5
6C84
  8
1
 10
6561.2354483734389
 20
1930.321728488442
 30
0.0
 11
6415.83157937344
 21
1930.321728488442
 31
0.0
  0
DIMENSION
  5
6C85
  8
SP
  2
*D19
 10
6298.4581043734397
 20
1845.467894803518
 30
0.0
 11
6488.4581043734406
 21
1870.467894803518
 31
0.0
 70
     0
 13
6678.4581043734443
 23
1983.121728488444
 33
0.0
 14
6298.4581043734397
 24
1983.121728488439
 34
0.0
 50
180.0
  0
LINE
  5
6C86
  8
2
 10
6488.4581043734397
 20
1914.03328386054
 30
0.0
 11
6488.4581043734397
 21
2418.3418936860089
 31
0.0
  0
LINE
  5
6C87
  8
1
 10
6648.4581043734433
 20
1974.1217284884481
 30
0.0
 11
6648.4581043734452
 21
2183.1217284884378
 31
0.0
  0
LINE
  5
6C88
  8
1
 10
6678.4581043734443
 20
1983.121728488444
 30
0.0
 11
6678.4581043734452
 21
2183.1217284884378
 31
0.0
  0
LINE
  5
6C89
  8
1
 10
6521.9581043734388
 20
2157.3217284884422
 30
0.0
 11
6521.9581043734388
 21
2148.3217284884422
 31
0.0
  0
LINE
  5
6C8A
  8
1
 10
6563.2580923734413
 20
2004.321728488442
 30
0.0
 11
6563.2580923734413
 21
2125.8217284884422
 31
0.0
  0
LINE
  5
6C8B
  8
1
 10
6573.4581043734397
 20
1965.821728488442
 30
0.0
 11
6573.4581043734397
 21
2004.321728488442
 31
0.0
  0
ARC
  5
6C8C
  8
1
 10
6570.2731073734403
 20
1963.321789488441
 30
0.0
 40
0.999898
 50
89.996502999995016
 51
168.37008699999851
  0
LINE
  5
6C8D
  8
1
 10
6562.7046253734406
 20
1931.5192384884419
 30
0.0
 11
6569.2937373734412
 21
1963.5233894884409
 31
0.0
  0
ARC
  5
6C8E
  8
1
 10
6571.9581043734397
 20
1965.821728488442
 30
0.0
 40
1.4999849999999999
 50
270.0
 51
0.0005799999999884
  0
LINE
  5
6C8F
  8
1
 10
6488.4581043734406
 20
1964.321728488442
 30
0.0
 11
6571.9581043734397
 21
1964.321728488442
 31
0.0
  0
LINE
  5
6C90
  8
CT
 10
6665.4581043734443
 20
1990.9346424731741
 30
0.0
 11
6665.4581043734443
 21
2015.3088145037029
 31
0.0
  0
LINE
  5
6C91
  8
CT
 10
6653.2710183581803
 20
2003.121728488439
 30
0.0
 11
6677.6451903887091
 21
2003.121728488439
 31
0.0
  0
CIRCLE
  5
6C92
  8
FUTO
 10
6665.4581043734443
 20
2003.121728488439
 30
0.0
 40
6.0
  0
LINE
  5
6C93
  8
1
 10
6678.4581043734388
 20
1983.121728488444
 30
0.0
 11
6648.4581043734433
 21
1983.1217284884449
 31
0.0
  0
LINE
  5
6C94
  8
1
 10
6648.4581043734433
 20
1974.1217284884481
 30
0.0
 11
6573.4581043734379
 21
1974.1217284884449
 31
0.0
  0
LINE
  5
6C95
  8
1
 10
6563.9581043734397
 20
2125.8217284884422
 30
0.0
 11
6563.9581043734397
 21
2146.3217284884422
 31
0.0
  0
ARC
  5
6C96
  8
1
 10
6561.9581043734397
 20
2146.3217284884422
 30
0.0
 40
2.0
 50
0.0
 51
89.999999999999986
  0
LINE
  5
6C97
  8
1
 10
6561.2731073734394
 20
2148.3217284884422
 30
0.0
 11
6552.6431023734413
 21
2148.3217284884422
 31
0.0
  0
LINE
  5
6C98
  8
1
 10
6552.5239003734414
 20
2148.3217284884422
 30
0.0
 11
6561.5239003734396
 21
2148.3217284884422
 31
0.0
  0
LINE
  5
6C99
  8
1
 10
6563.9581043734397
 20
2125.8217284884422
 30
0.0
 11
6488.4581043734406
 21
2125.8217284884422
 31
0.0
  0
LINE
  5
6C9A
  8
1
 10
6488.4581043734397
 20
2148.3217284884422
 30
0.0
 11
6561.9581043734397
 21
2148.3217284884422
 31
0.0
  0
ARC
  5
6C9B
  8
1
 10
6747.4581043734361
 20
2381.1217284884369
 30
0.0
 40
12.0
 50
0.0000000000005958
 51
89.999999999999986
  0
LINE
  5
6C9C
  8
1
 10
6487.4581043734388
 20
2373.1217284884369
 30
0.0
 11
6487.4581043734388
 21
2191.121728488441
 31
0.0
  0
LINE
  5
6C9D
  8
1
 10
6488.4581043734397
 20
2372.121728488441
 30
0.0
 11
6488.4581043734397
 21
2192.121728488441
 31
0.0
  0
LINE
  5
6C9E
  8
1
 10
6739.458104373437
 20
2191.121728488441
 30
0.0
 11
6739.458104373437
 21
2373.1217284884428
 31
0.0
  0
LINE
  5
6C9F
  8
1
 10
6738.4581043734388
 20
2192.1217284884392
 30
0.0
 11
6738.4581043734388
 21
2372.121728488441
 31
0.0
  0
LINE
  5
6CA0
  8
1
 10
6759.4581043734397
 20
2183.1217284884401
 30
0.0
 11
6759.4581043734361
 21
2381.1217284884369
 31
0.0
  0
LINE
  5
6CA1
  8
HOSO
 10
6738.4581043734388
 20
2192.1217284884392
 30
0.0
 11
6488.4581043734397
 21
2372.121728488441
 31
0.0
  0
LINE
  5
6CA2
  8
HOSO
 10
6738.4581043734388
 20
2372.121728488441
 30
0.0
 11
6488.4581043734397
 21
2192.121728488441
 31
0.0
  0
LINE
  5
6CA3
  8
1
 10
6739.458104373437
 20
2191.121728488441
 30
0.0
 11
6487.4581043734388
 21
2191.121728488441
 31
0.0
  0
LINE
  5
6CA4
  8
1
 10
6738.4581043734388
 20
2192.1217284884392
 30
0.0
 11
6488.4581043734397
 21
2192.121728488441
 31
0.0
  0
LINE
  5
6CA5
  8
1
 10
6747.4581043734388
 20
2171.1217284884401
 30
0.0
 11
6479.4581043734406
 21
2171.1217284884451
 31
0.0
  0
ARC
  5
6CA6
  8
1
 10
6747.4581043734388
 20
2183.1217284884401
 30
0.0
 40
12.0
 50
270.0
 51
0.0000000000006466
  0
LINE
  5
6CA7
  8
1
 10
6477.9581043734388
 20
2163.3217284884422
 30
0.0
 11
6477.9581043734388
 21
2158.3217284884422
 31
0.0
  0
ARC
  5
6CA8
  8
1
 10
6632.4581043734352
 20
2186.121728488441
 30
0.0
 40
3.0
 50
270.0
 51
0.0
  0
LINE
  5
6CA9
  8
1
 10
6635.4581043734352
 20
2188.121728488441
 30
0.0
 11
6635.4581043734352
 21
2186.121728488441
 31
0.0
  0
LINE
  5
6CAA
  8
1
 10
6635.4581043734352
 20
2188.121728488441
 30
0.0
 11
6635.4581043734352
 21
2186.121728488441
 31
0.0
  0
ARC
  5
6CAB
  8
1
 10
6638.4581043734361
 20
2188.121728488441
 30
0.0
 40
3.0
 50
89.999999999999986
 51
179.99999999999989
  0
LINE
  5
6CAC
  8
1
 10
6498.9581043734397
 20
2163.3217284884422
 30
0.0
 11
6498.9581043734397
 21
2158.3217284884422
 31
0.0
  0
LINE
  5
6CAD
  8
1
 10
6510.9581043734397
 20
2171.1217284884428
 30
0.0
 11
6510.9581043734397
 21
2168.3217284884399
 31
0.0
  0
ARC
  5
6CAE
  8
1
 10
6520.9581043734397
 20
2157.3217284884422
 30
0.0
 40
1.0
 50
0.0
 51
89.999999999999986
  0
LINE
  5
6CAF
  8
1
 10
6505.9581043734397
 20
2163.3217284884399
 30
0.0
 11
6510.9581043734397
 21
2168.3217284884399
 31
0.0
  0
CIRCLE
  5
6CB0
  8
FUTO
 10
6665.4581043734443
 20
2163.1217284884392
 30
0.0
 40
6.0
  0
LINE
  5
6CB1
  8
CT
 10
6653.2710183581803
 20
2163.1217284884392
 30
0.0
 11
6677.6451903887091
 21
2163.1217284884392
 31
0.0
  0
LINE
  5
6CB2
  8
CT
 10
6665.4581043734443
 20
2150.9346424731748
 30
0.0
 11
6665.4581043734443
 21
2175.3088145037032
 31
0.0
  0
LINE
  5
6CB3
  8
1
 10
6648.4581043734452
 20
2149.1217284884478
 30
0.0
 11
6521.9581043734388
 21
2149.121728488446
 31
0.0
  0
LINE
  5
6CB4
  8
1
 10
6739.458104373437
 20
2373.1217284884428
 30
0.0
 11
6487.4581043734388
 21
2373.1217284884369
 31
0.0
  0
LINE
  5
6CB5
  8
1
 10
6738.458104373437
 20
2372.121728488441
 30
0.0
 11
6488.4581043734397
 21
2372.121728488441
 31
0.0
  0
LINE
  5
6CB6
  8
1
 10
6747.4581043734361
 20
2393.1217284884369
 30
0.0
 11
6479.4581043734379
 21
2393.121728488441
 31
0.0
  0
DIMENSION
  5
6CB7
  8
SP
  2
*D21
 10
6186.6514789400871
 20
1983.1217284884449
 30
0.0
 11
6161.6514789400862
 21
2083.1217284884419
 31
0.0
 70
     0
 13
6298.4581043734379
 23
2183.1217284884392
 33
0.0
 14
6298.4581043734397
 24
1983.1217284884449
 34
0.0
 50
90.0
  0
LINE
  5
6CB8
  8
1
 10
6328.4581043734397
 20
1974.121728488441
 30
0.0
 11
6328.4581043734379
 21
2183.1217284884392
 31
0.0
  0
LINE
  5
6CB9
  8
FUTO
 10
6298.4581043734397
 20
1983.1217284884449
 30
0.0
 11
6298.4581043734379
 21
2183.1217284884392
 31
0.0
  0
LINE
  5
6CBA
  8
1
 10
6454.9581043734424
 20
2148.3217284884422
 30
0.0
 11
6454.9581043734388
 21
2157.3217284884422
 31
0.0
  0
LINE
  5
6CBB
  8
1
 10
6413.658116373439
 20
2004.321728488442
 30
0.0
 11
6413.658116373439
 21
2125.8217284884422
 31
0.0
  0
LINE
  5
6CBC
  8
1
 10
6403.4581043734388
 20
1965.821728488442
 30
0.0
 11
6403.4581043734388
 21
2004.321728488442
 31
0.0
  0
ARC
  5
6CBD
  8
1
 10
6404.9581043734388
 20
1965.821728488442
 30
0.0
 40
1.4999849999999999
 50
179.9994199999999
 51
270.0
  0
ARC
  5
6CBE
  8
1
 10
6406.64310137344
 20
1963.321789488441
 30
0.0
 40
0.999898
 50
11.62991300000143
 51
90.003497000004941
  0
LINE
  5
6CBF
  8
1
 10
6414.2115833734397
 20
1931.5192384884419
 30
0.0
 11
6407.6224713734391
 21
1963.5233894884409
 31
0.0
  0
CIRCLE
  5
6CC0
  8
FUTO
 10
6311.4581043734379
 20
2003.121728488439
 30
0.0
 40
6.0
  0
LINE
  5
6CC1
  8
CT
 10
6323.6451903887018
 20
2003.121728488439
 30
0.0
 11
6299.2710183581721
 21
2003.121728488439
 31
0.0
  0
LINE
  5
6CC2
  8
CT
 10
6311.4581043734379
 20
1990.9346424731741
 30
0.0
 11
6311.4581043734379
 21
2015.3088145037029
 31
0.0
  0
LINE
  5
6CC3
  8
FUTO
 10
6328.4581043734397
 20
1983.1217284884449
 30
0.0
 11
6298.4581043734379
 21
1983.1217284884449
 31
0.0
  0
LINE
  5
6CC4
  8
FUTO
 10
6298.4581043734397
 20
1983.121728488439
 30
0.0
 11
6328.4581043734397
 21
1983.121728488439
 31
0.0
  0
LINE
  5
6CC5
  8
1
 10
6403.4581043734388
 20
1974.1217284884431
 30
0.0
 11
6328.4581043734397
 21
1974.121728488441
 31
0.0
  0
LINE
  5
6CC6
  8
1
 10
6412.9581043734406
 20
2125.8217284884422
 30
0.0
 11
6412.9581043734406
 21
2146.3217284884422
 31
0.0
  0
ARC
  5
6CC7
  8
1
 10
6414.9581043734397
 20
2146.3217284884422
 30
0.0
 40
2.0
 50
89.999999999999986
 51
179.99999999999989
  0
LINE
  5
6CC8
  8
1
 10
6424.392308373438
 20
2148.3217284884422
 30
0.0
 11
6415.392308373438
 21
2148.3217284884422
 31
0.0
  0
LINE
  5
6CC9
  8
1
 10
6415.64310137344
 20
2148.3217284884422
 30
0.0
 11
6424.27310637344
 21
2148.3217284884422
 31
0.0
  0
DIMENSION
  5
6CCA
  8
SP
  2
*D20
 10
6186.6514789400871
 20
2282.1217284884392
 30
0.0
 11
6161.6514789400853
 21
2232.6217284884401
 31
0.0
 70
     0
 13
6298.4581043734379
 23
2183.1217284884392
 33
0.0
 14
6278.3104898000893
 24
2282.1217284884392
 34
0.0
 50
90.0
  0
LINE
  5
6CCB
  8
1
 10
6311.4581043734388
 20
2204.1217284884392
 30
0.0
 11
6311.4581043734388
 21
2360.1217284884392
 31
0.0
  0
LINE
  5
6CCC
  8
1
 10
6312.4581043734397
 20
2204.1217284884392
 30
0.0
 11
6312.4581043734397
 21
2360.1217284884392
 31
0.0
  0
LINE
  5
6CCD
  8
1
 10
6467.4581043734424
 20
2183.1217284884451
 30
0.0
 11
6467.4581043734379
 21
2381.1217284884401
 31
0.0
  0
LINE
  5
6CCE
  8
CT
 10
6311.4581043734379
 20
2150.9346424731748
 30
0.0
 11
6311.4581043734379
 21
2175.3088145037032
 31
0.0
  0
LINE
  5
6CCF
  8
CT
 10
6323.6451903887018
 20
2163.1217284884392
 30
0.0
 11
6299.2710183581721
 21
2163.1217284884392
 31
0.0
  0
CIRCLE
  5
6CD0
  8
FUTO
 10
6311.4581043734379
 20
2163.1217284884392
 30
0.0
 40
6.0
  0
ARC
  5
6CD1
  8
1
 10
6324.4581043734397
 20
2204.1217284884392
 30
0.0
 40
12.0
 50
179.99999999999989
 51
270.0
  0
ARC
  5
6CD2
  8
1
 10
6324.4581043734397
 20
2204.1217284884392
 30
0.0
 40
13.0
 50
179.99999999999989
 51
270.0
  0
ARC
  5
6CD3
  8
1
 10
6455.9581043734397
 20
2157.3217284884422
 30
0.0
 40
1.0
 50
89.999999999999986
 51
179.99999999999989
  0
LINE
  5
6CD4
  8
1
 10
6465.9581043734388
 20
2168.3217284884399
 30
0.0
 11
6470.9581043734397
 21
2163.3217284884399
 31
0.0
  0
LINE
  5
6CD5
  8
1
 10
6465.9581043734388
 20
2180.821728488444
 30
0.0
 11
6465.9581043734388
 21
2168.3217284884399
 31
0.0
  0
ARC
  5
6CD6
  8
1
 10
6338.4581043734397
 20
2188.121728488441
 30
0.0
 40
3.0
 50
0.0
 51
89.999999999999986
  0
LINE
  5
6CD7
  8
1
 10
6341.4581043734397
 20
2188.121728488441
 30
0.0
 11
6341.4581043734397
 21
2186.121728488441
 31
0.0
  0
LINE
  5
6CD8
  8
1
 10
6341.4581043734397
 20
2188.121728488441
 30
0.0
 11
6341.4581043734397
 21
2186.121728488441
 31
0.0
  0
ARC
  5
6CD9
  8
1
 10
6344.4581043734397
 20
2186.121728488441
 30
0.0
 40
3.0
 50
179.99999999999989
 51
270.0
  0
LINE
  5
6CDA
  8
1
 10
6454.9581043734424
 20
2149.1217284884428
 30
0.0
 11
6328.4581043734379
 21
2149.1217284884428
 31
0.0
  0
LINE
  5
6CDB
  8
1
 10
6467.4581043734424
 20
2191.1217284884392
 30
0.0
 11
6324.4581043734397
 21
2191.1217284884392
 31
0.0
  0
LINE
  5
6CDC
  8
1
 10
6467.4581043734424
 20
2192.1217284884392
 30
0.0
 11
6324.4581043734397
 21
2192.1217284884392
 31
0.0
  0
ARC
  5
6CDD
  8
1
 10
6324.4581043734397
 20
2360.1217284884392
 30
0.0
 40
13.0
 50
89.999999999999986
 51
179.9999999999994
  0
ARC
  5
6CDE
  8
1
 10
6324.4581043734397
 20
2360.1217284884392
 30
0.0
 40
12.0
 50
89.999999999999986
 51
179.9999999999994
  0
LINE
  5
6CDF
  8
1
 10
6467.4581043734379
 20
2381.1217284884369
 30
0.0
 11
6344.4581043734397
 21
2381.1217284884369
 31
0.0
  0
ARC
  5
6CE0
  8
1
 10
6338.4581043734397
 20
2376.1217284884369
 30
0.0
 40
3.0
 50
270.0
 51
0.0
  0
ARC
  5
6CE1
  8
1
 10
6344.4581043734397
 20
2378.1217284884369
 30
0.0
 40
3.0
 50
89.999999999999986
 51
179.99999999999989
  0
LINE
  5
6CE2
  8
1
 10
6341.4581043734397
 20
2376.1217284884369
 30
0.0
 11
6341.4581043734397
 21
2378.1217284884369
 31
0.0
  0
LINE
  5
6CE3
  8
1
 10
6341.4581043734397
 20
2376.1217284884369
 30
0.0
 11
6341.4581043734397
 21
2378.1217284884369
 31
0.0
  0
LINE
  5
6CE4
  8
1
 10
6467.4581043734388
 20
2373.1217284884392
 30
0.0
 11
6324.4581043734397
 21
2373.1217284884401
 31
0.0
  0
LINE
  5
6CE5
  8
1
 10
6467.4581043734388
 20
2372.1217284884392
 30
0.0
 11
6324.4581043734397
 21
2372.1217284884392
 31
0.0
  0
LINE
  5
71FC
  8
FUTO
 10
6298.4581043734406
 20
913.03013774616795
 30
0.0
 11
6298.4581043734406
 21
910.73013774616766
 31
0.0
  0
LINE
  5
71FD
  8
FUTO
 10
6328.4581043734424
 20
913.03013774616795
 30
0.0
 11
6328.4581043734433
 21
853.03013774616738
 31
0.0
  0
LINE
  5
71FE
  8
1
 10
6326.1581043734413
 20
910.73013774616766
 30
0.0
 11
6298.4581043734406
 21
910.73013774616811
 31
0.0
  0
LINE
  5
71FF
  8
FUTO
 10
6298.4581043734406
 20
855.33013774616745
 30
0.0
 11
6298.4581043734406
 21
853.03013774616795
 31
0.0
  0
LINE
  5
7200
  8
1
 10
6326.1581043734432
 20
855.33013774616745
 30
0.0
 11
6298.4581043734406
 21
855.33013774616745
 31
0.0
  0
LINE
  5
7201
  8
1
 10
6328.4581043734433
 20
853.03013774616795
 30
0.0
 11
6298.4581043734406
 21
853.03013774616795
 31
0.0
  0
LINE
  5
7202
  8
FUTO
 10
6326.1581043734413
 20
910.73013774616766
 30
0.0
 11
6326.1581043734432
 21
855.33013774616745
 31
0.0
  0
LINE
  5
7203
  8
FUTO
 10
6298.4581043734406
 20
913.03013774616795
 30
0.0
 11
6678.4581043734424
 21
913.03013774616795
 31
0.0
  0
LINE
  5
7204
  8
FUTO
 10
6328.4581043734433
 20
873.03013774616784
 30
0.0
 11
6648.4581043734388
 21
873.03013774616784
 31
0.0
  0
LINE
  5
7205
  8
1
 10
6650.7581043734417
 20
910.73013774616766
 30
0.0
 11
6678.4581043734424
 21
910.73013774616811
 31
0.0
  0
LINE
  5
7206
  8
1
 10
6678.4581043734424
 20
853.03013774616591
 30
0.0
 11
6648.4581043734388
 21
853.03013774616591
 31
0.0
  0
LINE
  5
7207
  8
1
 10
6650.758104373439
 20
855.33013774616745
 30
0.0
 11
6678.4581043734424
 21
855.33013774616745
 31
0.0
  0
LINE
  5
7208
  8
FUTO
 10
6648.4581043734424
 20
913.03013774616795
 30
0.0
 11
6648.4581043734388
 21
853.03013774616738
 31
0.0
  0
LINE
  5
7209
  8
FUTO
 10
6650.7581043734417
 20
910.73013774616766
 30
0.0
 11
6650.758104373439
 21
855.33013774616745
 31
0.0
  0
LINE
  5
720A
  8
FUTO
 10
6678.4581043734424
 20
913.03013774616795
 30
0.0
 11
6678.4581043734424
 21
910.73013774616766
 31
0.0
  0
LINE
  5
720B
  8
FUTO
 10
6678.4581043734424
 20
855.33013774616745
 30
0.0
 11
6678.4581043734424
 21
853.03013774616795
 31
0.0
  0
DIMENSION
  5
720C
  8
SP
  2
*D23
 10
6488.4581043734406
 20
783.03013774616613
 30
0.0
 11
6583.4581043734406
 21
808.03013774616625
 31
0.0
 70
     0
 13
6678.4581043734424
 23
853.03013774616613
 33
0.0
 14
6488.4581043734406
 24
850.53182892377106
 34
0.0
 50
180.0
  0
DIMENSION
  5
720D
  8
SP
  2
*D24
 10
6678.4581043734424
 20
713.03013774616795
 30
0.0
 11
6488.4581043734406
 21
738.03013774616795
 31
0.0
 70
     0
 13
6298.4581043734406
 23
853.03013774616795
 33
0.0
 14
6678.4581043734424
 24
853.03013774616613
 34
0.0
 50
180.0
  0
DIMENSION
  5
720E
  8
SP
  2
*D25
 10
6298.4581043734406
 20
783.03013774616795
 30
0.0
 11
6393.4581043734424
 21
808.03013774616795
 31
0.0
 70
     0
 13
6488.4581043734406
 23
850.53182892377106
 33
0.0
 14
6298.4581043734406
 24
853.03013774616795
 34
0.0
 50
180.0
  0
LINE
  5
720F
  8
2
 10
6311.4581043734433
 20
898.60917572428855
 30
0.0
 11
6311.4581043734424
 21
995.330137746167
 31
0.0
  0
LINE
  5
7210
  8
2
 10
6665.4581043734406
 20
900.48576158617107
 30
0.0
 11
6665.4581043734406
 21
995.33013774616904
 31
0.0
  0
DIMENSION
  5
7211
  8
SP
  2
*D26
 10
6837.9243890247126
 20
913.03013774616795
 30
0.0
 11
6877.4979161688952
 21
958.83094526924185
 31
0.0
 70
   128
 13
6678.4581043734424
 23
983.03013774616602
 33
0.0
 14
6678.4581043734424
 24
913.03013774616795
 34
0.0
 50
90.0
1001
ACAD
1000
DSTYLE
1002
{
1070
   287
1070
     5
1070
   279
1070
     2
1070
     3
1000
（<>）
1070
     6
1000
NONE
1070
     7
1000
NONE
1002
}
  0
DIMENSION
  5
7212
  8
SP
  2
*D27
 10
6837.9243890247126
 20
853.03013774616591
 30
0.0
 11
6812.9243890247144
 21
767.493502964713
 31
0.0
 70
     0
 13
6678.4581043734424
 23
913.03013774616795
 33
0.0
 14
6678.4581043734424
 24
853.03013774616591
 34
0.0
 50
90.0
1001
ACAD
1000
DSTYLE
1002
{
1070
     6
1000
DOT
1002
}
  0
DIMENSION
  5
7213
  8
SP
  2
*D28
 10
7338.4581043734406
 20
735.03013774616795
 30
0.0
 11
7288.9581043734424
 21
760.03013774616795
 31
0.0
 70
     0
 13
7239.4581043734424
 23
853.03013774616795
 33
0.0
 14
7338.4581043734406
 24
982.47319462932489
 34
0.0
  0
DIMENSION
  5
7214
  8
SP
  2
*D29
 10
7239.4581043734424
 20
735.03013774616795
 30
0.0
 11
7139.4581043734424
 21
760.03013774616795
 31
0.0
 70
     0
 13
7039.4581043734424
 23
853.03013774616795
 33
0.0
 14
7239.4581043734424
 24
853.03013774616795
 34
0.0
  0
LINE
  5
7215
  8
FUTO
 10
7239.4581043734424
 20
913.03013774616795
 30
0.0
 11
7239.4581043734424
 21
853.03013774616795
 31
0.0
  0
LINE
  5
7216
  8
FUTO
 10
7039.4581043734424
 20
913.03013774616795
 30
0.0
 11
7039.4581043734424
 21
853.03013774616795
 31
0.0
  0
LINE
  5
7219
  8
FUTO
 10
7039.4581043734424
 20
853.03013774616795
 30
0.0
 11
7239.4581043734424
 21
853.03013774616795
 31
0.0
  0
LINE
  5
721A
  8
FUTO
 10
7039.4581043734424
 20
855.33013774616802
 30
0.0
 11
7239.4581043734424
 21
855.33013774616802
 31
0.0
  0
LINE
  5
721B
  8
1
 10
7039.4581043734424
 20
910.73013774616811
 30
0.0
 11
7239.4581043734424
 21
910.73013774616811
 31
0.0
  0
LINE
  5
721C
  8
1
 10
7039.4581043734424
 20
913.03013774616795
 30
0.0
 11
7239.4581043734424
 21
913.03013774616795
 31
0.0
  0
TEXT
  5
74B1
  8
4
 10
6545.7913353127369
 20
2545.5387187150809
 30
0.0
 40
53.999999999999993
  1
床置防振ベッド型
  0
ENDSEC
  0
EOF
