  0
SECTION
  2
HEADER
  9
$ACADVER
  1
AC1009
  9
$INSBASE
 10
0.0
 20
0.0
 30
0.0
  9
$EXTMIN
 10
-2610.8732092616001
 20
96.092404061039474
 30
0.0
  9
$EXTMAX
 10
-510.87320926160049
 20
3046.0924040610389
 30
0.0
  9
$LIMMIN
 10
0.0
 20
0.0
  9
$LIMMAX
 10
297.0
 20
210.0
  9
$ORTHOMODE
 70
     0
  9
$REGENMODE
 70
     1
  9
$FILLMODE
 70
     1
  9
$QTEXTMODE
 70
     0
  9
$MIRRTEXT
 70
     0
  9
$DRAGMODE
 70
     2
  9
$LTSCALE
 40
50.0
  9
$OSMODE
 70
   545
  9
$ATTMODE
 70
     1
  9
$TEXTSIZE
 40
3.5
  9
$TRACEWID
 40
0.05
  9
$TEXTSTYLE
  7
STANDARD
  9
$CLAYER
  8
SP
  9
$CELTYPE
  6
BYLAYER
  9
$CECOLOR
 62
   256
  9
$DIMSCALE
 40
10.0
  9
$DIMASZ
 40
2.5
  9
$DIMEXO
 40
1.0
  9
$DIMDLI
 40
7.0
  9
$DIMRND
 40
0.0
  9
$DIMDLE
 40
0.0
  9
$DIMEXE
 40
1.0
  9
$DIMTP
 40
0.0
  9
$DIMTM
 40
0.0
  9
$DIMTXT
 40
3.0
  9
$DIMCEN
 40
0.0
  9
$DIMTSZ
 40
0.0
  9
$DIMTOL
 70
     0
  9
$DIMLIM
 70
     0
  9
$DIMTIH
 70
     0
  9
$DIMTOH
 70
     0
  9
$DIMSE1
 70
     0
  9
$DIMSE2
 70
     0
  9
$DIMTAD
 70
     1
  9
$DIMZIN
 70
     8
  9
$DIMBLK
  1

  9
$DIMASO
 70
     1
  9
$DIMSHO
 70
     1
  9
$DIMPOST
  1

  9
$DIMAPOST
  1

  9
$DIMALT
 70
     0
  9
$DIMALTD
 70
     2
  9
$DIMALTF
 40
0.03937
  9
$DIMLFAC
 40
1.0
  9
$DIMTOFL
 70
     1
  9
$DIMTVP
 40
0.0
  9
$DIMTIX
 70
     0
  9
$DIMSOXD
 70
     0
  9
$DIMSAH
 70
     1
  9
$DIMBLK1
  1
OPEN
  9
$DIMBLK2
  1
OPEN
  9
$DIMSTYLE
  2
GOD
  9
$DIMCLRD
 70
   256
  9
$DIMCLRE
 70
   256
  9
$DIMCLRT
 70
   256
  9
$DIMTFAC
 40
1.0
  9
$DIMGAP
 40
1.0
  9
$LUNITS
 70
     2
  9
$LUPREC
 70
     3
  9
$SKETCHINC
 40
0.1
  9
$FILLETRAD
 40
0.0
  9
$AUNITS
 70
     0
  9
$AUPREC
 70
     2
  9
$MENU
  1
acad
  9
$ELEVATION
 40
0.0
  9
$PELEVATION
 40
0.0
  9
$THICKNESS
 40
0.0
  9
$LIMCHECK
 70
     0
  9
$BLIPMODE
 70
     0
  9
$CHAMFERA
 40
0.0
  9
$CHAMFERB
 40
0.0
  9
$SKPOLY
 70
     0
  9
$TDCREATE
 40
2454940.4140922911
  9
$TDUPDATE
 40
2454953.8274735878
  9
$TDINDWG
 40
0.0823354745
  9
$TDUSRTIMER
 40
0.0823354745
  9
$USRTIMER
 70
     1
  9
$ANGBASE
 50
0.0
  9
$ANGDIR
 70
     0
  9
$PDMODE
 70
     0
  9
$PDSIZE
 40
1.0
  9
$PLINEWID
 40
0.0
  9
$COORDS
 70
     2
  9
$SPLFRAME
 70
     0
  9
$SPLINETYPE
 70
     6
  9
$SPLINESEGS
 70
     8
  9
$ATTDIA
 70
     0
  9
$ATTREQ
 70
     1
  9
$HANDLING
 70
 22529
  9
$HANDSEED
  5
768C
  9
$SURFTAB1
 70
     6
  9
$SURFTAB2
 70
     6
  9
$SURFTYPE
 70
     6
  9
$SURFU
 70
     6
  9
$SURFV
 70
     6
  9
$UCSNAME
  2

  9
$UCSORG
 10
0.0
 20
0.0
 30
0.0
  9
$UCSXDIR
 10
1.0
 20
0.0
 30
0.0
  9
$UCSYDIR
 10
0.0
 20
1.0
 30
0.0
  9
$PUCSNAME
  2

  9
$PUCSORG
 10
0.0
 20
0.0
 30
0.0
  9
$PUCSXDIR
 10
1.0
 20
0.0
 30
0.0
  9
$PUCSYDIR
 10
0.0
 20
1.0
 30
0.0
  9
$USERI1
 70
     0
  9
$USERI2
 70
     0
  9
$USERI3
 70
     0
  9
$USERI4
 70
     0
  9
$USERI5
 70
     0
  9
$USERR1
 40
0.0
  9
$USERR2
 40
0.0
  9
$USERR3
 40
0.0
  9
$USERR4
 40
0.0
  9
$USERR5
 40
0.0
  9
$WORLDVIEW
 70
     1
  9
$SHADEDGE
 70
     3
  9
$SHADEDIF
 70
    70
  9
$TILEMODE
 70
     1
  9
$MAXACTVP
 70
    16
  9
$PLIMCHECK
 70
     0
  9
$PEXTMIN
 10
1.0000000000000000E+020
 20
1.0000000000000000E+020
 30
1.0000000000000000E+020
  9
$PEXTMAX
 10
-1.0000000000000000E+020
 20
-1.0000000000000000E+020
 30
-1.0000000000000000E+020
  9
$PLIMMIN
 10
0.0
 20
0.0
  9
$PLIMMAX
 10
12.0
 20
9.0
  9
$UNITMODE
 70
     0
  9
$VISRETAIN
 70
     0
  9
$PLINEGEN
 70
     0
  9
$PSLTSCALE
 70
     0
  0
ENDSEC
  0
SECTION
  2
TABLES
  0
TABLE
  2
VPORT
 70
     2
  0
VPORT
  2
*ACTIVE
 70
     0
 10
0.0
 20
0.0
 11
1.0
 21
1.0
 12
-1373.673875185623
 22
1571.036493086908
 13
0.0
 23
0.0
 14
5.0
 24
5.0
 15
0.0
 25
0.0
 16
0.0
 26
0.0
 36
1.0
 17
0.0
 27
0.0
 37
0.0
 40
2974.7266528122882
 41
1.6307901907356941
 42
50.0
 43
0.0
 44
0.0
 50
0.0
 51
0.0
 71
     0
 72
   100
 73
     1
 74
     0
 75
     0
 76
     0
 77
     0
 78
     0
  0
ENDTAB
  0
TABLE
  2
LTYPE
 70
     4
  0
LTYPE
  2
CONTINUOUS
 70
     0
  3
Solid line
 72
    65
 73
     0
 40
0.0
  0
LTYPE
  2
CENTER
 70
     0
  3
____ _ ____ _ ____ _ ____ _ ____ _ ____ _ ____ 
 72
    65
 73
     4
 40
2.0
 49
1.25
 49
-0.25
 49
0.25
 49
-0.25
  0
LTYPE
  2
HIDDEN
 70
     0
  3
__ __ __ __ __ __ __ __ __ __ __ __ __ __ __ __
 72
    65
 73
     2
 40
0.375
 49
0.25
 49
-0.125
  0
LTYPE
  2
PHANTOM
 70
     0
  3
______  __  __  ______  __  __  ______  __  __ 
 72
    65
 73
     6
 40
2.5
 49
1.25
 49
-0.25
 49
0.25
 49
-0.25
 49
0.25
 49
-0.25
  0
ENDTAB
  0
TABLE
  2
LAYER
 70
    13
  0
LAYER
  2
0
 70
     0
 62
     7
  6
CONTINUOUS
  0
LAYER
  2
CT
 70
     0
 62
     3
  6
CENTER
  0
LAYER
  2
FUTO
 70
     0
 62
     4
  6
CONTINUOUS
  0
LAYER
  2
HOSO
 70
     0
 62
     7
  6
CONTINUOUS
  0
LAYER
  2
KL
 70
     0
 62
     7
  6
HIDDEN
  0
LAYER
  2
MOJI
 70
     0
 62
     3
  6
CONTINUOUS
  0
LAYER
  2
SL
 70
     0
 62
     1
  6
PHANTOM
  0
LAYER
  2
SP
 70
     0
 62
     2
  6
CONTINUOUS
  0
LAYER
  2
DEFPOINTS
 70
     0
 62
     7
  6
CONTINUOUS
  0
LAYER
  2
3
 70
     0
 62
     2
  6
CONTINUOUS
  0
LAYER
  2
2
 70
     0
 62
     3
  6
CENTER
  0
LAYER
  2
1
 70
     0
 62
     4
  6
CONTINUOUS
  0
LAYER
  2
4
 70
     0
 62
     7
  6
CONTINUOUS
  0
ENDTAB
  0
TABLE
  2
STYLE
 70
     2
  0
STYLE
  2
STANDARD
 70
     0
 40
0.0
 41
1.0
 50
15.0
 71
     0
 42
3.5
  3
C:\Program Files\AutoCAD LT\simplex.shx
  4
C:\Program Files\AutoCAD LT\extfont.shx
  0
STYLE
  2
SUNPOU
 70
     0
 40
0.0
 41
1.0
 50
15.0
 71
     0
 42
30.0
  3
simplex.shx
  4
extfont.shx
  0
ENDTAB
  0
TABLE
  2
VIEW
 70
     0
  0
ENDTAB
  0
TABLE
  2
UCS
 70
     0
  0
ENDTAB
  0
TABLE
  2
APPID
 70
     1
  0
APPID
  2
ACAD
 70
     0
  0
ENDTAB
  0
TABLE
  2
DIMSTYLE
 70
     4
  0
DIMSTYLE
  2
STANDARD
 70
     0
  3

  4

  5

  6

  7

 40
1.0
 41
0.18
 42
0.0625
 43
0.38
 44
0.18
 45
0.0
 46
0.0
 47
0.0
 48
0.0
140
0.18
141
0.09
142
0.0
143
25.399999999999999
144
1.0
145
0.0
146
1.0
147
0.09
 71
     0
 72
     0
 73
     1
 74
     1
 75
     0
 76
     0
 77
     0
 78
     0
170
     0
171
     2
172
     0
173
     0
174
     0
175
     0
176
     0
177
     0
178
     0
  0
DIMSTYLE
  2
GOD
 70
     0
  3

  4

  5

  6
OPEN
  7
OPEN
 40
10.0
 41
2.5
 42
1.0
 43
7.0
 44
1.0
 45
0.0
 46
0.0
 47
0.0
 48
0.0
140
3.0
141
0.0
142
0.0
143
0.03937
144
1.0
145
0.0
146
1.0
147
1.0
 71
     0
 72
     0
 73
     0
 74
     0
 75
     0
 76
     0
 77
     1
 78
     8
170
     0
171
     2
172
     1
173
     1
174
     0
175
     0
176
   256
177
   256
178
   256
  0
DIMSTYLE
  2
IGA
 70
     0
  3

  4

  5

  6
OPEN
  7
OPEN
 40
2.0
 41
2.0
 42
0.5
 43
10.0
 44
1.0
 45
0.0
 46
0.0
 47
1.0
 48
1.0
140
3.0
141
0.0
142
0.0
143
0.03937
144
1.0
145
0.0
146
10.0
147
1.0
 71
     0
 72
     0
 73
     0
 74
     0
 75
     0
 76
     0
 77
     1
 78
     8
170
     0
171
     2
172
     0
173
     1
174
     0
175
     0
176
     0
177
     0
178
     0
  0
DIMSTYLE
  2
MATSU
 70
     0
  3

  4

  5

  6
OPEN
  7
OPEN
 40
1.0
 41
2.0
 42
1.0
 43
10.0
 44
1.0
 45
0.0
 46
0.0
 47
0.0
 48
0.0
140
3.0
141
0.0
142
0.0
143
0.03937
144
1.0
145
0.0
146
1.0
147
0.5
 71
     0
 72
     0
 73
     0
 74
     0
 75
     0
 76
     0
 77
     1
 78
     8
170
     0
171
     2
172
     1
173
     1
174
     0
175
     0
176
   256
177
   256
178
   256
  0
ENDTAB
  0
ENDSEC
  0
SECTION
  2
BLOCKS
  0
BLOCK
  8
0
  2
$MODEL_SPACE
 70
     0
 10
0.0
 20
0.0
 30
0.0
  3
$MODEL_SPACE
  1

  0
ENDBLK
  5
1B
  8
0
  0
BLOCK
 67
     1
  8
0
  2
$PAPER_SPACE
 70
     0
 10
0.0
 20
0.0
 30
0.0
  3
$PAPER_SPACE
  1

  0
ENDBLK
  5
18
 67
     1
  8
0
  0
BLOCK
  8
0
  2
_OPEN
 70
     0
 10
0.0
 20
0.0
 30
0.0
  3
_OPEN
  1

  0
LINE
  5
1E81
  8
0
  6
BYBLOCK
 62
     0
 10
-1.0
 20
0.1666666666666666
 30
0.0
 11
0.0
 21
0.0
 31
0.0
  0
LINE
  5
1E82
  8
0
  6
BYBLOCK
 62
     0
 10
0.0
 20
0.0
 30
0.0
 11
-1.0
 21
-0.1666666666666666
 31
0.0
  0
LINE
  5
1E83
  8
0
  6
BYBLOCK
 62
     0
 10
0.0
 20
0.0
 30
0.0
 11
-1.0
 21
0.0
 31
0.0
  0
ENDBLK
  5
1E84
  8
0
  0
BLOCK
  8
0
  2
_DOT
 70
     0
 10
0.0
 20
0.0
 30
0.0
  3
_DOT
  1

  0
LINE
  5
1EC3
  8
0
  6
BYBLOCK
 62
     0
 10
0.0
 20
0.0
 30
0.0
 11
-1.0
 21
-0.0000000000000284
 31
0.0
  0
POLYLINE
  5
1EC4
  8
0
  6
BYBLOCK
 62
     0
 66
     1
 10
0.0
 20
0.0
 30
0.0
 70
     1
 40
0.1666666666666666
 41
0.1666666666666666
  0
VERTEX
  5
7675
  8
0
  6
BYBLOCK
 62
     0
 10
-0.0833333333333286
 20
-0.0000000000000284
 30
0.0
 42
1.0
  0
VERTEX
  5
7676
  8
0
  6
BYBLOCK
 62
     0
 10
0.0833333333333286
 20
-0.0000000000000284
 30
0.0
 42
1.0
  0
SEQEND
  5
7677
  8
0
  6
BYBLOCK
 62
     0
  0
ENDBLK
  5
1EB8
  8
0
  0
BLOCK
  8
0
  2
*D2
 70
     1
 10
0.0
 20
0.0
 30
0.0
  3
*D2
  1

  0
LINE
  5
55BA
  8
SP
 10
-1129.9142715201331
 20
1298.030137746166
 30
0.0
 11
-1129.9142715201331
 21
1368.030137746164
 31
0.0
  0
LINE
  5
55BB
  8
SP
 10
-949.91427152013557
 20
1298.030137746166
 30
0.0
 11
-949.91427152013557
 21
1368.030137746164
 31
0.0
  0
LINE
  5
55BC
  8
SP
 10
-1104.9142715201331
 20
1358.030137746164
 30
0.0
 11
-974.91427152013557
 21
1358.030137746164
 31
0.0
  0
INSERT
  5
55BD
  8
SP
  2
_OPEN
 10
-1129.9142715201331
 20
1358.030137746164
 30
0.0
 41
25.0
 42
25.0
 43
25.0
 50
180.0
  0
INSERT
  5
55BE
  8
SP
  2
_OPEN
 10
-949.91427152013557
 20
1358.030137746164
 30
0.0
 41
25.0
 42
25.0
 43
25.0
  0
TEXT
  5
55BF
  8
SP
 10
-1081.421609050604
 20
1368.030137746164
 30
0.0
 40
30.0
  1
180
 51
15.0
  0
POINT
  5
55C0
  8
DEFPOINTS
 62
     0
 10
-1129.9142715201331
 20
1288.030137746166
 30
0.0
  0
POINT
  5
55C1
  8
DEFPOINTS
 62
     0
 10
-949.91427152013557
 20
1288.030137746166
 30
0.0
  0
POINT
  5
55C2
  8
DEFPOINTS
 62
     0
 10
-949.91427152013557
 20
1358.030137746164
 30
0.0
  0
ENDBLK
  5
4FC7
  8
0
  0
BLOCK
  8
0
  2
*D3
 70
     1
 10
0.0
 20
0.0
 30
0.0
  3
*D3
  1

  0
LINE
  5
55B1
  8
SP
 10
-930.91427152013387
 20
1213.030137746166
 30
0.0
 11
-859.91427152013364
 21
1213.030137746166
 31
0.0
  0
LINE
  5
55B2
  8
SP
 10
-930.91427152013387
 20
963.03013774616613
 30
0.0
 11
-859.91427152013364
 21
963.03013774616613
 31
0.0
  0
LINE
  5
55B3
  8
SP
 10
-869.91427152013375
 20
1188.030137746166
 30
0.0
 11
-869.91427152013375
 21
988.03013774616613
 31
0.0
  0
INSERT
  5
55B4
  8
SP
  2
_OPEN
 10
-869.91427152013375
 20
1213.030137746166
 30
0.0
 41
25.0
 42
25.0
 43
25.0
 50
90.0
  0
INSERT
  5
55B5
  8
SP
  2
_OPEN
 10
-869.91427152013375
 20
963.03013774616613
 30
0.0
 41
25.0
 42
25.0
 43
25.0
 50
270.0
  0
TEXT
  5
55B6
  8
SP
 10
-879.91427152013387
 20
1033.259072085943
 30
0.0
 40
30.0
  1
φ250
 50
90.0
 51
15.0
  0
POINT
  5
55B7
  8
DEFPOINTS
 62
     0
 10
-940.91427152013387
 20
1213.030137746166
 30
0.0
  0
POINT
  5
55B8
  8
DEFPOINTS
 62
     0
 10
-940.91427152013387
 20
963.03013774616613
 30
0.0
  0
POINT
  5
55B9
  8
DEFPOINTS
 62
     0
 10
-869.91427152013375
 20
963.03013774616613
 30
0.0
  0
ENDBLK
  5
4FF5
  8
0
  0
BLOCK
  8
0
  2
*D4
 70
     1
 10
0.0
 20
0.0
 30
0.0
  3
*D4
  1

  0
LINE
  5
5596
  8
SP
 10
-1039.9142715201349
 20
1408.030137746164
 30
0.0
 11
-1039.9142715201349
 21
1438.030137746164
 31
0.0
  0
LINE
  5
5597
  8
SP
 10
-940.91427152013546
 20
1242.030137746166
 30
0.0
 11
-940.91427152013546
 21
1438.030137746164
 31
0.0
  0
LINE
  5
5598
  8
SP
 10
-1014.914271520135
 20
1428.030137746164
 30
0.0
 11
-965.91427152013546
 21
1428.030137746164
 31
0.0
  0
INSERT
  5
5599
  8
SP
  2
_OPEN
 10
-1039.9142715201349
 20
1428.030137746164
 30
0.0
 41
25.0
 42
25.0
 43
25.0
 50
180.0
  0
INSERT
  5
559A
  8
SP
  2
_OPEN
 10
-940.91427152013546
 20
1428.030137746164
 30
0.0
 41
25.0
 42
25.0
 43
25.0
  0
TEXT
  5
559B
  8
SP
 10
-1018.004937978031
 20
1438.030137746164
 30
0.0
 40
30.0
  1
99
 51
15.0
  0
POINT
  5
559C
  8
DEFPOINTS
 62
     0
 10
-1039.9142715201349
 20
1398.030137746164
 30
0.0
  0
POINT
  5
559D
  8
DEFPOINTS
 62
     0
 10
-940.91427152013546
 20
1232.030137746166
 30
0.0
  0
POINT
  5
559E
  8
DEFPOINTS
 62
     0
 10
-940.91427152013546
 20
1428.030137746164
 30
0.0
  0
ENDBLK
  5
500B
  8
0
  0
BLOCK
  8
0
  2
*D5
 70
     1
 10
0.0
 20
0.0
 30
0.0
  3
*D5
  1

  0
LINE
  5
558D
  8
SP
 10
-1039.9142715201349
 20
1408.030137746164
 30
0.0
 11
-1039.9142715201349
 21
1438.030137746164
 31
0.0
  0
LINE
  5
558E
  8
SP
 10
-1391.7142715201339
 20
1170.8074817461661
 30
0.0
 11
-1391.7142715201339
 21
1438.030137746164
 31
0.0
  0
LINE
  5
558F
  8
SP
 10
-1064.9142715201349
 20
1428.030137746164
 30
0.0
 11
-1366.7142715201351
 21
1428.030137746164
 31
0.0
  0
INSERT
  5
5590
  8
SP
  2
_OPEN
 10
-1039.9142715201349
 20
1428.030137746164
 30
0.0
 41
25.0
 42
25.0
 43
25.0
  0
INSERT
  5
5591
  8
SP
  2
_OPEN
 10
-1391.7142715201339
 20
1428.030137746164
 30
0.0
 41
25.0
 42
25.0
 43
25.0
 50
180.0
  0
TEXT
  5
5592
  8
SP
 10
-1282.7239732605351
 20
1438.030137746164
 30
0.0
 40
30.0
  1
（400）
 51
15.0
  0
POINT
  5
5593
  8
DEFPOINTS
 62
     0
 10
-1039.9142715201349
 20
1398.030137746164
 30
0.0
  0
POINT
  5
5594
  8
DEFPOINTS
 62
     0
 10
-1391.7142715201339
 20
1160.8074817461661
 30
0.0
  0
POINT
  5
5595
  8
DEFPOINTS
 62
     0
 10
-1391.7142715201339
 20
1428.030137746164
 30
0.0
  0
ENDBLK
  5
5021
  8
0
  0
BLOCK
  8
0
  2
*D6
 70
     1
 10
0.0
 20
0.0
 30
0.0
  3
*D6
  1

  0
LINE
  5
5614
  8
SP
 10
-2139.9142715201351
 20
1298.030137746166
 30
0.0
 11
-2139.9142715201351
 21
1368.030137746166
 31
0.0
  0
LINE
  5
5615
  8
SP
 10
-1889.9142715201349
 20
1307.8065568904919
 30
0.0
 11
-1889.9142715201349
 21
1368.030137746166
 31
0.0
  0
LINE
  5
5616
  8
SP
 10
-2114.9142715201351
 20
1358.030137746166
 30
0.0
 11
-1914.9142715201349
 21
1358.030137746166
 31
0.0
  0
INSERT
  5
5617
  8
SP
  2
_OPEN
 10
-2139.9142715201351
 20
1358.030137746166
 30
0.0
 41
25.0
 42
25.0
 43
25.0
 50
180.0
  0
INSERT
  5
5618
  8
SP
  2
_OPEN
 10
-1889.9142715201349
 20
1358.030137746166
 30
0.0
 41
25.0
 42
25.0
 43
25.0
  0
TEXT
  5
5619
  8
SP
 10
-2056.0250831425128
 20
1368.030137746166
 30
0.0
 40
30.0
  1
250
 51
15.0
  0
POINT
  5
561A
  8
DEFPOINTS
 62
     0
 10
-2139.9142715201351
 20
1288.030137746166
 30
0.0
  0
POINT
  5
561B
  8
DEFPOINTS
 62
     0
 10
-1889.9142715201349
 20
1297.8065568904919
 30
0.0
  0
POINT
  5
561C
  8
DEFPOINTS
 62
     0
 10
-1889.9142715201349
 20
1358.030137746166
 30
0.0
  0
ENDBLK
  5
52A6
  8
0
  0
BLOCK
  8
0
  2
*D7
 70
     1
 10
0.0
 20
0.0
 30
0.0
  3
*D7
  1

  0
LINE
  5
5602
  8
SP
 10
-1889.9142715201349
 20
1307.8065568904919
 30
0.0
 11
-1889.9142715201349
 21
1368.030137746166
 31
0.0
  0
LINE
  5
5603
  8
SP
 10
-1713.9142715201349
 20
1081.0301377461669
 30
0.0
 11
-1713.9142715201349
 21
1368.030137746166
 31
0.0
  0
LINE
  5
5604
  8
SP
 10
-1864.9142715201349
 20
1358.030137746166
 30
0.0
 11
-1738.9142715201349
 21
1358.030137746166
 31
0.0
  0
INSERT
  5
5605
  8
SP
  2
_OPEN
 10
-1889.9142715201349
 20
1358.030137746166
 30
0.0
 41
25.0
 42
25.0
 43
25.0
 50
180.0
  0
INSERT
  5
5606
  8
SP
  2
_OPEN
 10
-1713.9142715201349
 20
1358.030137746166
 30
0.0
 41
25.0
 42
25.0
 43
25.0
  0
TEXT
  5
5607
  8
SP
 10
-1842.8987156166279
 20
1368.030137746166
 30
0.0
 40
30.0
  1
176
 51
15.0
  0
POINT
  5
5608
  8
DEFPOINTS
 62
     0
 10
-1889.9142715201349
 20
1297.8065568904919
 30
0.0
  0
POINT
  5
5609
  8
DEFPOINTS
 62
     0
 10
-1713.9142715201349
 20
1071.0301377461669
 30
0.0
  0
POINT
  5
560A
  8
DEFPOINTS
 62
     0
 10
-1713.9142715201349
 20
1358.030137746166
 30
0.0
  0
ENDBLK
  5
5391
  8
0
  0
BLOCK
  8
0
  2
*D8
 70
     1
 10
0.0
 20
0.0
 30
0.0
  3
*D8
  1

  0
LINE
  5
560B
  8
SP
 10
-2184.1007564974338
 20
1088.030137746166
 30
0.0
 11
-2249.3805561714089
 21
1088.030137746166
 31
0.0
  0
LINE
  5
560C
  8
SP
 10
-2170.9142715201351
 20
1288.0301377461669
 30
0.0
 11
-2249.3805561714089
 21
1288.0301377461669
 31
0.0
  0
LINE
  5
560D
  8
SP
 10
-2239.3805561714089
 20
1113.0301377461669
 30
0.0
 11
-2239.3805561714089
 21
1263.0301377461669
 31
0.0
  0
INSERT
  5
560E
  8
SP
  2
_OPEN
 10
-2239.3805561714089
 20
1088.030137746166
 30
0.0
 41
25.0
 42
25.0
 43
25.0
 50
270.0
  0
INSERT
  5
560F
  8
SP
  2
_OPEN
 10
-2239.3805561714089
 20
1288.0301377461669
 30
0.0
 41
25.0
 42
25.0
 43
25.0
 50
90.0
  0
TEXT
  5
5610
  8
SP
 10
-2249.3805561714089
 20
1146.9193261237881
 30
0.0
 40
30.0
  1
200
 50
90.0
 51
15.0
  0
POINT
  5
5611
  8
DEFPOINTS
 62
     0
 10
-2174.1007564974352
 20
1088.030137746166
 30
0.0
  0
POINT
  5
5612
  8
DEFPOINTS
 62
     0
 10
-2160.9142715201351
 20
1288.0301377461669
 30
0.0
  0
POINT
  5
5613
  8
DEFPOINTS
 62
     0
 10
-2239.3805561714089
 20
1288.0301377461669
 30
0.0
  0
ENDBLK
  5
53B9
  8
0
  0
BLOCK
  8
0
  2
*D9
 70
     1
 10
0.0
 20
0.0
 30
0.0
  3
*D9
  1

  0
LINE
  5
55DE
  8
SP
 10
-2184.1007564974338
 20
1088.030137746166
 30
0.0
 11
-2249.3805561714089
 21
1088.030137746166
 31
0.0
  0
LINE
  5
55DF
  8
SP
 10
-2089.914271520136
 20
833.03013774616511
 30
0.0
 11
-2249.3805561714089
 21
833.03013774616511
 31
0.0
  0
LINE
  5
55E0
  8
SP
 10
-2239.3805561714089
 20
1063.0301377461669
 30
0.0
 11
-2239.3805561714089
 21
858.03013774616511
 31
0.0
  0
INSERT
  5
55E1
  8
SP
  2
_OPEN
 10
-2239.3805561714089
 20
1088.030137746166
 30
0.0
 41
25.0
 42
25.0
 43
25.0
 50
90.0
  0
INSERT
  5
55E2
  8
SP
  2
_OPEN
 10
-2239.3805561714089
 20
833.03013774616511
 30
0.0
 41
25.0
 42
25.0
 43
25.0
 50
270.0
  0
TEXT
  5
55E3
  8
SP
 10
-2249.3805561714089
 20
919.36804271684161
 30
0.0
 40
30.0
  1
255
 50
90.0
 51
15.0
  0
POINT
  5
55E4
  8
DEFPOINTS
 62
     0
 10
-2174.1007564974352
 20
1088.030137746166
 30
0.0
  0
POINT
  5
55E5
  8
DEFPOINTS
 62
     0
 10
-2079.914271520136
 20
833.03013774616511
 30
0.0
  0
POINT
  5
55E6
  8
DEFPOINTS
 62
     0
 10
-2239.3805561714089
 20
833.03013774616511
 30
0.0
  0
ENDBLK
  5
53C6
  8
0
  0
BLOCK
  8
0
  2
*D10
 70
     1
 10
0.0
 20
0.0
 30
0.0
  3
*D10
  1

  0
LINE
  5
5626
  8
SP
 10
-2079.9142715201392
 20
1823.1217284884449
 30
0.0
 11
-2079.9142715201392
 21
1685.4678948035189
 31
0.0
  0
LINE
  5
5627
  8
SP
 10
-1699.9142715201349
 20
1823.121728488439
 30
0.0
 11
-1699.9142715201349
 21
1685.4678948035189
 31
0.0
  0
LINE
  5
5628
  8
SP
 10
-2054.9142715201392
 20
1695.467894803518
 30
0.0
 11
-1724.9142715201349
 21
1695.467894803518
 31
0.0
  0
INSERT
  5
5629
  8
SP
  2
_OPEN
 10
-2079.9142715201392
 20
1695.467894803518
 30
0.0
 41
25.0
 42
25.0
 43
25.0
 50
180.0
  0
INSERT
  5
562A
  8
SP
  2
_OPEN
 10
-1699.9142715201349
 20
1695.467894803518
 30
0.0
 41
25.0
 42
25.0
 43
25.0
  0
TEXT
  5
562B
  8
SP
 10
-1931.790652263747
 20
1705.467894803518
 30
0.0
 40
30.0
  1
380
 51
15.0
  0
POINT
  5
562C
  8
DEFPOINTS
 62
     0
 10
-2079.9142715201392
 20
1833.1217284884449
 30
0.0
  0
POINT
  5
562D
  8
DEFPOINTS
 62
     0
 10
-1699.9142715201349
 20
1833.121728488439
 30
0.0
  0
POINT
  5
562E
  8
DEFPOINTS
 62
     0
 10
-1699.9142715201349
 20
1695.467894803518
 30
0.0
  0
ENDBLK
  5
53D3
  8
0
  0
BLOCK
  8
0
  2
*D11
 70
     1
 10
0.0
 20
0.0
 30
0.0
  3
*D11
  1

  0
LINE
  5
562F
  8
SP
 10
-1689.914271520134
 20
2033.1217284884401
 30
0.0
 11
-1578.1076460867821
 21
2033.1217284884401
 31
0.0
  0
LINE
  5
5630
  8
SP
 10
-1669.7666569467849
 20
2132.1217284884401
 30
0.0
 11
-1578.1076460867821
 21
2132.1217284884401
 31
0.0
  0
LINE
  5
5631
  8
SP
 10
-1588.1076460867821
 20
2058.1217284884401
 30
0.0
 11
-1588.1076460867821
 21
2107.1217284884401
 31
0.0
  0
INSERT
  5
5632
  8
SP
  2
_OPEN
 10
-1588.1076460867821
 20
2033.1217284884401
 30
0.0
 41
25.0
 42
25.0
 43
25.0
 50
270.0
  0
INSERT
  5
5633
  8
SP
  2
_OPEN
 10
-1588.1076460867821
 20
2132.1217284884401
 30
0.0
 41
25.0
 42
25.0
 43
25.0
 50
90.0
  0
TEXT
  5
5634
  8
SP
 10
-1598.1076460867821
 20
2055.031062030544
 30
0.0
 40
30.0
  1
99
 50
90.0
 51
15.0
  0
POINT
  5
5635
  8
DEFPOINTS
 62
     0
 10
-1699.9142715201331
 20
2033.1217284884401
 30
0.0
  0
POINT
  5
5636
  8
DEFPOINTS
 62
     0
 10
-1679.7666569467849
 20
2132.1217284884401
 30
0.0
  0
POINT
  5
5637
  8
DEFPOINTS
 62
     0
 10
-1588.1076460867821
 20
2132.1217284884401
 30
0.0
  0
ENDBLK
  5
53E0
  8
0
  0
BLOCK
  8
0
  2
*D12
 70
     1
 10
0.0
 20
0.0
 30
0.0
  3
*D12
  1

  0
LINE
  5
561D
  8
SP
 10
-1689.914271520134
 20
2033.1217284884401
 30
0.0
 11
-1578.1076460867821
 21
2033.1217284884401
 31
0.0
  0
LINE
  5
561E
  8
SP
 10
-1689.9142715201349
 20
1833.1217284884449
 30
0.0
 11
-1578.1076460867821
 21
1833.1217284884449
 31
0.0
  0
LINE
  5
561F
  8
SP
 10
-1588.1076460867821
 20
2008.121728488439
 30
0.0
 11
-1588.1076460867821
 21
1858.1217284884449
 31
0.0
  0
INSERT
  5
5620
  8
SP
  2
_OPEN
 10
-1588.1076460867821
 20
2033.1217284884401
 30
0.0
 41
25.0
 42
25.0
 43
25.0
 50
90.0
  0
INSERT
  5
5621
  8
SP
  2
_OPEN
 10
-1588.1076460867821
 20
1833.1217284884449
 30
0.0
 41
25.0
 42
25.0
 43
25.0
 50
270.0
  0
TEXT
  5
5622
  8
SP
 10
-1598.1076460867821
 20
1892.010916866064
 30
0.0
 40
30.0
  1
200
 50
90.0
 51
15.0
  0
POINT
  5
5623
  8
DEFPOINTS
 62
     0
 10
-1699.9142715201331
 20
2033.1217284884401
 30
0.0
  0
POINT
  5
5624
  8
DEFPOINTS
 62
     0
 10
-1699.9142715201349
 20
1833.1217284884449
 30
0.0
  0
POINT
  5
5625
  8
DEFPOINTS
 62
     0
 10
-1588.1076460867821
 20
1833.1217284884449
 30
0.0
  0
ENDBLK
  5
53ED
  8
0
  0
BLOCK
  8
0
  2
*D13
 70
     1
 10
0.0
 20
0.0
 30
0.0
  3
*D13
  1

  0
LINE
  5
5685
  8
SP
 10
-1699.9142715201349
 20
823.03013774616693
 30
0.0
 11
-1699.9142715201349
 21
683.03013774616704
 31
0.0
  0
LINE
  5
5686
  8
SP
 10
-2079.914271520136
 20
823.03013774616522
 30
0.0
 11
-2079.914271520136
 21
683.03013774616704
 31
0.0
  0
LINE
  5
5687
  8
SP
 10
-1724.9142715201349
 20
693.03013774616704
 30
0.0
 11
-2054.914271520136
 21
693.03013774616704
 31
0.0
  0
INSERT
  5
5688
  8
SP
  2
_OPEN
 10
-1699.9142715201349
 20
693.03013774616704
 30
0.0
 41
25.0
 42
25.0
 43
25.0
  0
INSERT
  5
5689
  8
SP
  2
_OPEN
 10
-2079.914271520136
 20
693.03013774616704
 30
0.0
 41
25.0
 42
25.0
 43
25.0
 50
180.0
  0
TEXT
  5
568A
  8
SP
 10
-1931.790652263745
 20
703.03013774616704
 30
0.0
 40
30.0
  1
380
 51
15.0
  0
POINT
  5
568B
  8
DEFPOINTS
 62
     0
 10
-1699.9142715201349
 20
833.03013774616716
 30
0.0
  0
POINT
  5
568C
  8
DEFPOINTS
 62
     0
 10
-2079.914271520136
 20
833.03013774616511
 30
0.0
  0
POINT
  5
568D
  8
DEFPOINTS
 62
     0
 10
-2079.914271520136
 20
693.03013774616704
 30
0.0
  0
ENDBLK
  5
568F
  8
0
  0
BLOCK
  8
0
  2
*D14
 70
     1
 10
0.0
 20
0.0
 30
0.0
  3
*D14
  1

  0
LINE
  5
5691
  8
SP
 10
-2079.914271520136
 20
823.03013774616522
 30
0.0
 11
-2079.914271520136
 21
753.03013774616522
 31
0.0
  0
LINE
  5
5692
  8
SP
 10
-1889.9142715201349
 20
797.34538072303258
 30
0.0
 11
-1889.9142715201349
 21
753.03013774616522
 31
0.0
  0
LINE
  5
5693
  8
SP
 10
-2054.914271520136
 20
763.03013774616522
 30
0.0
 11
-1914.9142715201349
 21
763.03013774616522
 31
0.0
  0
INSERT
  5
5694
  8
SP
  2
_OPEN
 10
-2079.914271520136
 20
763.03013774616522
 30
0.0
 41
25.0
 42
25.0
 43
25.0
 50
180.0
  0
INSERT
  5
5695
  8
SP
  2
_OPEN
 10
-1889.9142715201349
 20
763.03013774616522
 30
0.0
 41
25.0
 42
25.0
 43
25.0
  0
TEXT
  5
5696
  8
SP
 10
-2026.421609050605
 20
773.03013774616522
 30
0.0
 40
30.0
  1
190
 51
15.0
  0
POINT
  5
5697
  8
DEFPOINTS
 62
     0
 10
-2079.914271520136
 20
833.03013774616511
 30
0.0
  0
POINT
  5
5698
  8
DEFPOINTS
 62
     0
 10
-1889.9142715201349
 20
807.34538072303246
 30
0.0
  0
POINT
  5
5699
  8
DEFPOINTS
 62
     0
 10
-1889.9142715201349
 20
763.03013774616522
 30
0.0
  0
ENDBLK
  5
569B
  8
0
  0
BLOCK
  8
0
  2
*D15
 70
     1
 10
0.0
 20
0.0
 30
0.0
  3
*D15
  1

  0
LINE
  5
569D
  8
SP
 10
-1889.9142715201349
 20
797.34538072303258
 30
0.0
 11
-1889.9142715201349
 21
753.03013774616704
 31
0.0
  0
LINE
  5
569E
  8
SP
 10
-1699.9142715201349
 20
823.03013774616693
 30
0.0
 11
-1699.9142715201349
 21
753.03013774616704
 31
0.0
  0
LINE
  5
569F
  8
SP
 10
-1864.9142715201349
 20
763.03013774616704
 30
0.0
 11
-1724.9142715201349
 21
763.03013774616704
 31
0.0
  0
INSERT
  5
56A0
  8
SP
  2
_OPEN
 10
-1889.9142715201349
 20
763.03013774616704
 30
0.0
 41
25.0
 42
25.0
 43
25.0
 50
180.0
  0
INSERT
  5
56A1
  8
SP
  2
_OPEN
 10
-1699.9142715201349
 20
763.03013774616704
 30
0.0
 41
25.0
 42
25.0
 43
25.0
  0
TEXT
  5
56A2
  8
SP
 10
-1836.4216090506061
 20
773.03013774616704
 30
0.0
 40
30.0
  1
190
 51
15.0
  0
POINT
  5
56A3
  8
DEFPOINTS
 62
     0
 10
-1889.9142715201349
 20
807.34538072303246
 30
0.0
  0
POINT
  5
56A4
  8
DEFPOINTS
 62
     0
 10
-1699.9142715201349
 20
833.03013774616716
 30
0.0
  0
POINT
  5
56A5
  8
DEFPOINTS
 62
     0
 10
-1699.9142715201349
 20
763.03013774616704
 30
0.0
  0
ENDBLK
  5
56A7
  8
0
  0
BLOCK
  8
0
  2
*D16
 70
     1
 10
0.0
 20
0.0
 30
0.0
  3
*D16
  1

  0
LINE
  5
56A9
  8
SP
 10
-2139.9142715201351
 20
1298.030137746166
 30
0.0
 11
-2139.9142715201351
 21
1368.030137746166
 31
0.0
  0
LINE
  5
56AA
  8
SP
 10
-1889.9142715201349
 20
1307.8065568904919
 30
0.0
 11
-1889.9142715201349
 21
1368.030137746166
 31
0.0
  0
LINE
  5
56AB
  8
SP
 10
-2114.9142715201351
 20
1358.030137746166
 30
0.0
 11
-1914.9142715201349
 21
1358.030137746166
 31
0.0
  0
INSERT
  5
56AC
  8
SP
  2
_OPEN
 10
-2139.9142715201351
 20
1358.030137746166
 30
0.0
 41
25.0
 42
25.0
 43
25.0
 50
180.0
  0
INSERT
  5
56AD
  8
SP
  2
_OPEN
 10
-1889.9142715201349
 20
1358.030137746166
 30
0.0
 41
25.0
 42
25.0
 43
25.0
  0
TEXT
  5
56AE
  8
SP
 10
-2056.0250831425128
 20
1368.030137746166
 30
0.0
 40
30.0
  1
250
 51
15.0
  0
POINT
  5
56AF
  8
DEFPOINTS
 62
     0
 10
-2139.9142715201351
 20
1288.030137746166
 30
0.0
  0
POINT
  5
56B0
  8
DEFPOINTS
 62
     0
 10
-1889.9142715201349
 20
1297.8065568904919
 30
0.0
  0
POINT
  5
56B1
  8
DEFPOINTS
 62
     0
 10
-1889.9142715201349
 20
1358.030137746166
 30
0.0
  0
ENDBLK
  5
56B3
  8
0
  0
BLOCK
  8
0
  2
*D17
 70
     1
 10
0.0
 20
0.0
 30
0.0
  3
*D17
  1

  0
LINE
  5
56B5
  8
SP
 10
-1889.9142715201349
 20
1307.8065568904919
 30
0.0
 11
-1889.9142715201349
 21
1368.030137746166
 31
0.0
  0
LINE
  5
56B6
  8
SP
 10
-1713.9142715201349
 20
1081.0301377461669
 30
0.0
 11
-1713.9142715201349
 21
1368.030137746166
 31
0.0
  0
LINE
  5
56B7
  8
SP
 10
-1864.9142715201349
 20
1358.030137746166
 30
0.0
 11
-1738.9142715201349
 21
1358.030137746166
 31
0.0
  0
INSERT
  5
56B8
  8
SP
  2
_OPEN
 10
-1889.9142715201349
 20
1358.030137746166
 30
0.0
 41
25.0
 42
25.0
 43
25.0
 50
180.0
  0
INSERT
  5
56B9
  8
SP
  2
_OPEN
 10
-1713.9142715201349
 20
1358.030137746166
 30
0.0
 41
25.0
 42
25.0
 43
25.0
  0
TEXT
  5
56BA
  8
SP
 10
-1842.8987156166279
 20
1368.030137746166
 30
0.0
 40
30.0
  1
176
 51
15.0
  0
POINT
  5
56BB
  8
DEFPOINTS
 62
     0
 10
-1889.9142715201349
 20
1297.8065568904919
 30
0.0
  0
POINT
  5
56BC
  8
DEFPOINTS
 62
     0
 10
-1713.9142715201349
 20
1071.0301377461669
 30
0.0
  0
POINT
  5
56BD
  8
DEFPOINTS
 62
     0
 10
-1713.9142715201349
 20
1358.030137746166
 30
0.0
  0
ENDBLK
  5
56BF
  8
0
  0
BLOCK
  8
0
  2
*D18
 70
     1
 10
0.0
 20
0.0
 30
0.0
  3
*D18
  1

  0
LINE
  5
56C1
  8
SP
 10
-2184.1007564974338
 20
1088.030137746166
 30
0.0
 11
-2249.3805561714089
 21
1088.030137746166
 31
0.0
  0
LINE
  5
56C2
  8
SP
 10
-2170.9142715201351
 20
1288.0301377461669
 30
0.0
 11
-2249.3805561714089
 21
1288.0301377461669
 31
0.0
  0
LINE
  5
56C3
  8
SP
 10
-2239.3805561714089
 20
1113.0301377461669
 30
0.0
 11
-2239.3805561714089
 21
1263.0301377461669
 31
0.0
  0
INSERT
  5
56C4
  8
SP
  2
_OPEN
 10
-2239.3805561714089
 20
1088.030137746166
 30
0.0
 41
25.0
 42
25.0
 43
25.0
 50
270.0
  0
INSERT
  5
56C5
  8
SP
  2
_OPEN
 10
-2239.3805561714089
 20
1288.0301377461669
 30
0.0
 41
25.0
 42
25.0
 43
25.0
 50
90.0
  0
TEXT
  5
56C6
  8
SP
 10
-2249.3805561714089
 20
1146.9193261237881
 30
0.0
 40
30.0
  1
200
 50
90.0
 51
15.0
  0
POINT
  5
56C7
  8
DEFPOINTS
 62
     0
 10
-2174.1007564974352
 20
1088.030137746166
 30
0.0
  0
POINT
  5
56C8
  8
DEFPOINTS
 62
     0
 10
-2160.9142715201351
 20
1288.0301377461669
 30
0.0
  0
POINT
  5
56C9
  8
DEFPOINTS
 62
     0
 10
-2239.3805561714089
 20
1288.0301377461669
 30
0.0
  0
ENDBLK
  5
56CB
  8
0
  0
BLOCK
  8
0
  2
*D19
 70
     1
 10
0.0
 20
0.0
 30
0.0
  3
*D19
  1

  0
LINE
  5
56CD
  8
SP
 10
-2184.1007564974338
 20
1088.030137746166
 30
0.0
 11
-2249.3805561714089
 21
1088.030137746166
 31
0.0
  0
LINE
  5
56CE
  8
SP
 10
-2089.914271520136
 20
833.03013774616511
 30
0.0
 11
-2249.3805561714089
 21
833.03013774616511
 31
0.0
  0
LINE
  5
56CF
  8
SP
 10
-2239.3805561714089
 20
1063.0301377461669
 30
0.0
 11
-2239.3805561714089
 21
858.03013774616511
 31
0.0
  0
INSERT
  5
56D0
  8
SP
  2
_OPEN
 10
-2239.3805561714089
 20
1088.030137746166
 30
0.0
 41
25.0
 42
25.0
 43
25.0
 50
90.0
  0
INSERT
  5
56D1
  8
SP
  2
_OPEN
 10
-2239.3805561714089
 20
833.03013774616511
 30
0.0
 41
25.0
 42
25.0
 43
25.0
 50
270.0
  0
TEXT
  5
56D2
  8
SP
 10
-2249.3805561714089
 20
919.36804271684161
 30
0.0
 40
30.0
  1
255
 50
90.0
 51
15.0
  0
POINT
  5
56D3
  8
DEFPOINTS
 62
     0
 10
-2174.1007564974352
 20
1088.030137746166
 30
0.0
  0
POINT
  5
56D4
  8
DEFPOINTS
 62
     0
 10
-2079.914271520136
 20
833.03013774616511
 30
0.0
  0
POINT
  5
56D5
  8
DEFPOINTS
 62
     0
 10
-2239.3805561714089
 20
833.03013774616511
 30
0.0
  0
ENDBLK
  5
56D7
  8
0
  0
BLOCK
  8
0
  2
A$C44EA23BE
 70
     0
 10
0.0
 20
0.0
 30
0.0
  3
A$C44EA23BE
  1

  0
DIMENSION
  5
56D9
  8
SP
  2
*D19
 10
-349.46628465127378
 20
-255.00000000000171
 30
0.0
 11
-374.46628465127378
 21
-127.50000000000119
 31
0.0
 12
1889.9142715201349
 22
-1088.030137746166
 32
0.0
  3
GOD
 13
-284.18648497729919
 23
0.0
 33
0.0
 14
-190.00000000000091
 24
-255.00000000000171
 34
0.0
 50
90.0
  0
ARC
  5
56DA
  8
FUTO
 10
-17.0
 20
-17.0
 30
0.0
 40
203.0
 50
269.572081032222
 51
0.4673217049947748
  0
ARC
  5
56DB
  8
FUTO
 10
-20.0
 20
20.0
 30
0.0
 40
240.0
 50
180.0
 51
270.39182689926031
  0
ARC
  5
56DC
  8
FUTO
 10
-17.0
 20
-17.0
 30
0.0
 40
193.0
 50
269.572081032222
 51
0.4673217049947748
  0
ARC
  5
56DD
  8
FUTO
 10
-20.0
 20
20.0
 30
0.0
 40
230.0
 50
180.0
 51
270.39182689926031
  0
LINE
  5
56DE
  8
2
 10
0.0
 20
-280.6847570231343
 30
0.0
 11
0.0
 21
209.77641914432559
 31
0.0
  0
LINE
  5
56DF
  8
1
 10
157.69999999999891
 20
66.099999999998545
 30
0.0
 11
157.69999999999891
 21
-255.00000000000179
 31
0.0
  0
LINE
  5
56E0
  8
1
 10
160.0
 20
66.099999999998545
 30
0.0
 11
160.0
 21
-252.7000000000007
 31
0.0
  0
LINE
  5
56E1
  8
1
 10
-157.69999999999979
 20
66.099999999998545
 30
0.0
 11
-157.69999999999979
 21
-255.00000000000179
 31
0.0
  0
LINE
  5
56E2
  8
1
 10
-160.0
 20
66.099999999998545
 30
0.0
 11
-159.99999999999901
 21
-252.69999999999891
 31
0.0
  0
ARC
  5
56E3
  8
1
 10
0.0
 20
0.0
 30
0.0
 40
85.0
 50
0.0
 51
244.12446600000609
  0
CIRCLE
  5
56E4
  8
2
 10
0.0
 20
0.0
 30
0.0
 40
136.0
  0
ARC
  5
56E5
  8
1
 10
0.0
 20
0.0
 30
0.0
 40
85.000007999999994
 50
295.91772599999888
 51
0.0
  0
DIMENSION
  5
56E6
  8
SP
  2
*D13
 10
-190.00000000000091
 20
-394.99999999999977
 30
0.0
 11
-0.0000000000004547
 21
-369.99999999999977
 31
0.0
 12
1889.9142715201349
 22
-1088.030137746166
 32
0.0
  3
GOD
 13
190.0
 23
-254.9999999999998
 33
0.0
 14
-190.00000000000091
 24
-255.00000000000171
 34
0.0
  0
DIMENSION
  5
56E7
  8
SP
  2
*D15
 10
190.0
 20
-324.99999999999989
 30
0.0
 11
95.0
 21
-299.99999999999989
 31
0.0
 12
1889.9142715201349
 22
-1088.030137746166
 32
0.0
  3
GOD
 13
0.0
 23
-280.6847570231343
 33
0.0
 14
190.0
 24
-254.9999999999998
 34
0.0
  0
DIMENSION
  5
56E8
  8
SP
  2
*D14
 10
0.0
 20
-325.00000000000171
 30
0.0
 11
-95.000000000000455
 21
-300.00000000000171
 31
0.0
 12
1889.9142715201349
 22
-1088.030137746166
 32
0.0
  3
GOD
 13
-190.00000000000091
 23
-255.00000000000171
 33
0.0
 14
0.0
 24
-280.6847570231343
 34
0.0
  0
LINE
  5
56E9
  8
FUTO
 10
-132.69999999999979
 20
-105.0
 30
0.0
 11
-157.69999999999891
 21
-80.0
 31
0.0
  0
LINE
  5
56EA
  8
1
 10
-157.69999999999891
 20
-203.9999999999998
 30
0.0
 11
-132.7000000000007
 21
-203.9999999999998
 31
0.0
  0
LINE
  5
56EB
  8
1
 10
-190.00000000000091
 20
-255.00000000000179
 30
0.0
 11
190.0
 21
-255.0
 31
0.0
  0
LINE
  5
56EC
  8
1
 10
-157.69999999999891
 20
-80.0
 30
0.0
 11
157.69999999999891
 21
-80.0
 31
0.0
  0
LINE
  5
56ED
  8
2
 10
-176.99999999999901
 20
-268.98279906584588
 30
0.0
 11
-176.99999999999901
 21
-242.69999999999879
 31
0.0
  0
LINE
  5
56EE
  8
1
 10
-190.00000000000091
 20
-255.00000000000179
 30
0.0
 11
-190.00000000000179
 21
-252.7000000000007
 31
0.0
  0
LINE
  5
56EF
  8
1
 10
-190.00000000000091
 20
-252.7000000000007
 30
0.0
 11
-159.99999999999901
 21
-252.69999999999891
 31
0.0
  0
LINE
  5
56F0
  8
1
 10
132.699999999997
 20
-105.0
 30
0.0
 11
132.699999999997
 21
-203.9999999999998
 31
0.0
  0
LINE
  5
56F1
  8
1
 10
-132.69999999999979
 20
-105.0
 30
0.0
 11
-132.69999999999979
 21
-203.9999999999998
 31
0.0
  0
LINE
  5
56F2
  8
1
 10
132.699999999997
 20
-203.9999999999998
 30
0.0
 11
157.69999999999891
 21
-203.9999999999998
 31
0.0
  0
LINE
  5
56F3
  8
1
 10
190.0
 20
-255.0
 30
0.0
 11
190.0
 21
-252.69999999999891
 31
0.0
  0
LINE
  5
56F4
  8
2
 10
176.9999999999981
 20
-267.91032669659847
 30
0.0
 11
177.0
 21
-242.7000000000007
 31
0.0
  0
LINE
  5
56F5
  8
1
 10
160.0
 20
-252.69999999999891
 30
0.0
 11
190.0
 21
-252.7000000000007
 31
0.0
  0
LINE
  5
56F6
  8
FUTO
 10
132.69999999999979
 20
-105.0
 30
0.0
 11
157.69999999999891
 21
-80.0
 31
0.0
  0
LINE
  5
56F7
  8
1
 10
-132.69999999999979
 20
-105.0
 30
0.0
 11
132.69999999999891
 21
-105.0
 31
0.0
  0
LINE
  5
56F8
  8
CT
 10
-57.086121054688192
 20
-137.8180876735004
 30
0.0
 11
-46.574035520656253
 21
-112.43966820841879
 31
0.0
  0
CIRCLE
  5
56F9
  8
1
 10
-52.044946801652252
 20
-125.64761642153459
 30
0.0
 40
4.0
  0
LINE
  5
56FA
  8
CT
 10
57.086121054688192
 20
-137.8180876735004
 30
0.0
 11
46.574035520658072
 21
-112.43966820841879
 31
0.0
  0
CIRCLE
  5
56FB
  8
1
 10
52.044946801652252
 20
-125.64761642153459
 30
0.0
 40
4.0
  0
LINE
  5
56FC
  8
1
 10
-37.095498999999108
 20
-76.450928000000204
 30
0.0
 11
37.151808999999041
 21
-76.450928000000204
 31
0.0
  0
LINE
  5
56FD
  8
1
 10
-82.5
 20
-78.34088200000042
 30
0.0
 11
82.500029999999242
 21
-78.34088200000042
 31
0.0
  0
LINE
  5
56FE
  8
CT
 10
-62.5
 20
-82.218586000000869
 30
0.0
 11
-62.5
 21
-73.631579000000784
 31
0.0
  0
LINE
  5
56FF
  8
CT
 10
-137.8180876735004
 20
-57.086121054690011
 30
0.0
 11
-112.439668208417
 21
-46.574035520658072
 31
0.0
  0
ARC
  5
5700
  8
1
 10
-52.365203999999721
 20
-70.5
 30
0.0
 40
5.0
 50
270.0
 51
324.46176099999479
  0
LINE
  5
5701
  8
1
 10
-46.623938000000628
 20
-71.064478000000236
 30
0.0
 11
-48.296539999999368
 21
-73.40625
 31
0.0
  0
LINE
  5
5702
  8
1
 10
-77.833160999999564
 20
-75.505370999999286
 30
0.0
 11
-62.323167999999889
 21
-57.818504000000758
 31
0.0
  0
LINE
  5
5703
  8
1
 10
-82.5
 20
-75.5
 30
0.0
 11
-52.36517399999866
 21
-75.5
 31
0.0
  0
CIRCLE
  5
5704
  8
1
 10
-125.64761642153459
 20
-52.044946801652252
 30
0.0
 40
4.0
  0
ARC
  5
5705
  8
1
 10
0.0
 20
0.0
 30
0.0
 40
85.0
 50
236.73178133170779
 51
244.12446600000609
  0
LINE
  5
5706
  8
1
 10
-42.5
 20
-78.34088200000042
 30
0.0
 11
-42.5
 21
-80.0
 31
0.0
  0
LINE
  5
5707
  8
1
 10
-77.5
 20
-78.34088200000042
 30
0.0
 11
-77.5
 21
-80.0
 31
0.0
  0
LINE
  5
5708
  8
1
 10
-82.5
 20
-78.34088200000042
 30
0.0
 11
-82.5
 21
-75.5
 31
0.0
  0
LINE
  5
5709
  8
CT
 10
137.8180876735004
 20
-57.086121054688192
 30
0.0
 11
112.439668208417
 21
-46.574035520658072
 31
0.0
  0
LINE
  5
570A
  8
CT
 10
62.5
 20
-82.218586000000869
 30
0.0
 11
62.5
 21
-73.631579000000784
 31
0.0
  0
LINE
  5
570B
  8
1
 10
82.500029999999242
 20
-75.5
 30
0.0
 11
52.365203999999721
 21
-75.5
 31
0.0
  0
LINE
  5
570C
  8
1
 10
77.834367999999813
 20
-75.506824000000051
 30
0.0
 11
62.32130799999868
 21
-57.816361999999572
 31
0.0
  0
LINE
  5
570D
  8
1
 10
47.508270000000259
 20
-72.302612999999837
 30
0.0
 11
48.296538999999029
 21
-73.40625
 31
0.0
  0
LINE
  5
570E
  8
1
 10
46.631551000000393
 20
-71.075138000000152
 30
0.0
 11
48.296538999999029
 21
-73.40625
 31
0.0
  0
ARC
  5
570F
  8
1
 10
52.365203999999721
 20
-70.5
 30
0.0
 40
5.000032
 50
215.53825399999309
 51
270.0
  0
LINE
  5
5710
  8
1
 10
77.5
 20
-78.34088200000042
 30
0.0
 11
77.5
 21
-80.0
 31
0.0
  0
LINE
  5
5711
  8
1
 10
42.5
 20
-78.34088200000042
 30
0.0
 11
42.5
 21
-80.0
 31
0.0
  0
LINE
  5
5712
  8
1
 10
82.500029999999242
 20
-75.5
 30
0.0
 11
82.500029999999242
 21
-78.34088200000042
 31
0.0
  0
CIRCLE
  5
5713
  8
1
 10
125.64761642153459
 20
-52.044946801652252
 30
0.0
 40
4.0
  0
DIMENSION
  5
5714
  8
SP
  2
*D18
 10
-349.46628465127333
 20
200.0
 30
0.0
 11
-374.46628465127378
 21
99.999999999999787
 31
0.0
 12
1889.9142715201349
 22
-1088.030137746166
 32
0.0
  3
GOD
 13
-284.18648497729919
 23
0.0
 33
0.0
 14
-271.0
 24
200.0
 34
0.0
 50
90.0
  0
DIMENSION
  5
5715
  8
SP
  2
*D17
 10
176.0
 20
269.99999999999898
 30
0.0
 11
88.0
 21
294.99999999999898
 31
0.0
 12
1889.9142715201349
 22
-1088.030137746166
 32
0.0
  3
GOD
 13
0.0
 23
209.77641914432559
 33
0.0
 14
176.0
 24
-17.0
 34
0.0
  0
LINE
  5
5716
  8
FUTO
 10
-250.99998456825821
 20
199.99444453017639
 30
0.0
 11
-249.99998456825821
 21
19.99444453017281
 31
0.0
  0
LINE
  5
5717
  8
FUTO
 10
-251.0
 20
200.0
 30
0.0
 11
-251.0
 21
180.0
 31
0.0
  0
LINE
  5
5718
  8
FUTO
 10
-252.0
 20
199.0
 30
0.0
 11
-252.0
 21
180.0
 31
0.0
  0
LINE
  5
5719
  8
FUTO
 10
-249.0
 20
198.0
 30
0.0
 11
-231.0
 21
180.0
 31
0.0
  0
LINE
  5
571A
  8
FUTO
 10
0.0
 20
180.0
 30
0.0
 11
0.0
 21
200.0
 31
0.0
  0
LINE
  5
571B
  8
FUTO
 10
1.0
 20
200.0
 30
0.0
 11
1.0
 21
180.0
 31
0.0
  0
LINE
  5
571C
  8
FUTO
 10
2.0
 20
199.0
 30
0.0
 11
2.0
 21
180.0
 31
0.0
  0
LINE
  5
571D
  8
FUTO
 10
-1.0
 20
198.0
 30
0.0
 11
-19.0
 21
180.0
 31
0.0
  0
LINE
  5
571E
  8
FUTO
 10
-231.0
 20
180.0
 30
0.0
 11
-19.0
 21
180.0
 31
0.0
  0
LINE
  5
571F
  8
1
 10
-60.0
 20
150.0
 30
0.0
 11
-158.39999999999961
 21
66.099999999998545
 31
0.0
  0
LINE
  5
5720
  8
2
 10
-284.18648497729919
 20
0.0
 30
0.0
 11
210.14761457335041
 21
-0.000000000001819
 31
0.0
  0
LINE
  5
5721
  8
FUTO
 10
-260.8890586406655
 20
180.0
 30
0.0
 11
-259.99983025084288
 21
19.938889831936191
 31
0.0
  0
LINE
  5
5722
  8
1
 10
-160.0
 20
66.099999999998545
 30
0.0
 11
-158.39999999999961
 21
66.099999999998545
 31
0.0
  0
LINE
  5
5723
  8
FUTO
 10
-260.8890586406655
 20
180.0
 30
0.0
 11
-250.88890432086819
 21
180.0
 31
0.0
  0
ARC
  5
5724
  8
FUTO
 10
14.0
 20
-14.0
 30
0.0
 40
172.0
 50
359.4896667551933
 51
78.450738176447032
  0
ARC
  5
5725
  8
FUTO
 10
14.0
 20
-14.0
 30
0.0
 40
162.0
 50
359.4896667551933
 51
78.450738176447032
  0
LINE
  5
5726
  8
1
 10
60.0
 20
150.0
 30
0.0
 11
158.39999999999961
 21
66.099999999998545
 31
0.0
  0
LINE
  5
5727
  8
CT
 10
-137.8180876735004
 20
57.086121054686373
 30
0.0
 11
-112.439668208417
 21
46.574035520658072
 31
0.0
  0
CIRCLE
  5
5728
  8
1
 10
-125.64761642153459
 20
52.044946801652252
 30
0.0
 40
4.0
  0
LINE
  5
5729
  8
CT
 10
137.8180876735004
 20
57.086121054686373
 30
0.0
 11
112.439668208417
 21
46.574035520658072
 31
0.0
  0
CIRCLE
  5
572A
  8
1
 10
125.64761642153459
 20
52.044946801652252
 30
0.0
 40
4.0
  0
LINE
  5
572B
  8
1
 10
158.39999999999961
 20
66.099999999998545
 30
0.0
 11
160.0
 21
66.099999999998545
 31
0.0
  0
LINE
  5
572C
  8
CT
 10
57.086121054688192
 20
137.81808767349861
 30
0.0
 11
46.574035520656253
 21
112.439668208417
 31
0.0
  0
LINE
  5
572D
  8
CT
 10
-57.086121054688192
 20
137.81808767349861
 30
0.0
 11
-46.574035520658072
 21
112.4396682084152
 31
0.0
  0
CIRCLE
  5
572E
  8
1
 10
-52.044946801652252
 20
125.64761642153459
 30
0.0
 40
4.0
  0
CIRCLE
  5
572F
  8
1
 10
52.044946801652252
 20
125.64761642153459
 30
0.0
 40
4.0
  0
ARC
  5
5730
  8
FUTO
 10
60.999999999996362
 20
216.0
 30
0.0
 40
72.753061747871584
 50
214.1996194554568
 51
258.45073817644709
  0
LINE
  5
5731
  8
FUTO
 10
0.0
 20
180.0
 30
0.0
 11
5.9318434102424362
 21
180.0
 31
0.0
  0
LINE
  5
5732
  8
1
 10
-60.0
 20
150.0
 30
0.0
 11
60.0
 21
150.0
 31
0.0
  0
LINE
  5
5733
  8
FUTO
 10
0.0
 20
180.0
 30
0.0
 11
1.0
 21
180.0
 31
0.0
  0
ARC
  5
5734
  8
FUTO
 10
59.528586099928361
 20
210.519969322142
 30
0.0
 40
57.203726762688042
 50
216.60350367361539
 51
261.67207569821369
  0
ARC
  5
5735
  8
FUTO
 10
5.9318434102424362
 20
170.0
 30
0.0
 40
10.0
 50
39.872968906140997
 51
90.0
  0
LINE
  5
5736
  8
FUTO
 10
-271.0
 20
200.0
 30
0.0
 11
21.0
 21
200.0
 31
0.0
  0
LINE
  5
5737
  8
FUTO
 10
-251.0
 20
199.0
 30
0.0
 11
1.0
 21
199.0
 31
0.0
  0
DIMENSION
  5
5738
  8
SP
  2
*D16
 10
0.0
 20
269.99999999999898
 30
0.0
 11
-125.0
 21
294.99999999999898
 31
0.0
 12
1889.9142715201349
 22
-1088.030137746166
 32
0.0
  3
GOD
 13
-250.0
 23
199.99999999999901
 33
0.0
 14
0.0
 24
209.77641914432559
 34
0.0
  0
LINE
  5
5739
  8
FUTO
 10
-271.0
 20
199.0
 30
0.0
 11
-252.0
 21
199.0
 31
0.0
  0
LINE
  5
573A
  8
FUTO
 10
-271.0
 20
200.0
 30
0.0
 11
-271.0
 21
199.0
 31
0.0
  0
LINE
  5
573B
  8
FUTO
 10
-251.0
 20
198.0
 30
0.0
 11
-249.0
 21
198.0
 31
0.0
  0
LINE
  5
573C
  8
FUTO
 10
2.0
 20
199.0
 30
0.0
 11
21.0
 21
199.0
 31
0.0
  0
LINE
  5
573D
  8
FUTO
 10
-1.0
 20
198.0
 30
0.0
 11
1.0
 21
198.0
 31
0.0
  0
LINE
  5
573E
  8
FUTO
 10
21.0
 20
200.0
 30
0.0
 11
21.0
 21
199.0
 31
0.0
  0
ENDBLK
  5
5740
  8
0
  0
BLOCK
  8
0
  2
A$C40AB6E05
 70
     0
 10
0.0
 20
0.0
 30
0.0
  3
A$C40AB6E05
  1

  0
LINE
  5
6751
  8
1
 10
-160.00000000000361
 20
-307.99999999999181
 30
0.0
 11
-160.00000000000591
 21
-99.000000000001606
 31
0.0
  0
LINE
  5
6752
  8
1
 10
-190.00000000000361
 20
-298.9999999999954
 30
0.0
 11
-190.00000000000591
 21
-99.000000000001364
 31
0.0
  0
LINE
  5
6753
  8
1
 10
-33.5
 20
-124.79999999999831
 30
0.0
 11
-33.5
 21
-133.79999999999831
 31
0.0
  0
LINE
  5
6754
  8
1
 10
-75.5
 20
-156.29999999999831
 30
0.0
 11
-75.5
 21
-135.79999999999831
 31
0.0
  0
ARC
  5
6755
  8
1
 10
-73.5
 20
-135.79999999999831
 30
0.0
 40
2.0
 50
90.0
 51
180.0
  0
LINE
  5
6756
  8
1
 10
-72.815002999999706
 20
-133.79999999999831
 30
0.0
 11
-64.184998000000633
 21
-133.79999999999831
 31
0.0
  0
LINE
  5
6757
  8
1
 10
-64.065796000000773
 20
-133.79999999999831
 30
0.0
 11
-73.065796000000773
 21
-133.79999999999831
 31
0.0
  0
LINE
  5
6758
  8
1
 10
-160.0000000000054
 20
-132.9999999999915
 30
0.0
 11
-33.5
 21
-132.99999999999361
 31
0.0
  0
CIRCLE
  5
6759
  8
FUTO
 10
-177.000000000005
 20
-119.00000000000109
 30
0.0
 40
6.0
  0
LINE
  5
675A
  8
CT
 10
-164.8129139847405
 20
-119.00000000000109
 30
0.0
 11
-189.18708601526981
 21
-119.00000000000109
 31
0.0
  0
LINE
  5
675B
  8
CT
 10
-177.000000000005
 20
-131.18708601526569
 30
0.0
 11
-177.000000000005
 21
-106.8129139847364
 31
0.0
  0
ARC
  5
675C
  8
1
 10
-143.99999999999631
 20
-95.999999999999091
 30
0.0
 40
3.0
 50
180.0
 51
270.0
  0
LINE
  5
675D
  8
1
 10
-146.99999999999631
 20
-93.999999999999091
 30
0.0
 11
-146.99999999999631
 21
-95.999999999999091
 31
0.0
  0
LINE
  5
675E
  8
1
 10
-146.99999999999631
 20
-93.999999999999091
 30
0.0
 11
-146.99999999999631
 21
-95.999999999999091
 31
0.0
  0
ARC
  5
675F
  8
1
 10
-149.99999999999631
 20
-93.999999999999091
 30
0.0
 40
3.0
 50
0.0
 51
90.0
  0
LINE
  5
6760
  8
1
 10
-22.5
 20
-110.9999999999972
 30
0.0
 11
-22.5
 21
-113.8000000000001
 31
0.0
  0
ARC
  5
6761
  8
1
 10
-32.5
 20
-124.79999999999831
 30
0.0
 40
1.0
 50
90.0
 51
180.0
  0
LINE
  5
6762
  8
FUTO
 10
190.00000000000179
 20
-99.000000000001137
 30
0.0
 11
-189.9999999999981
 21
-99.000000000001137
 31
0.0
  0
ARC
  5
6763
  8
1
 10
150.0
 20
-93.999999999999091
 30
0.0
 40
3.0
 50
90.0
 51
180.0
  0
LINE
  5
6764
  8
1
 10
147.0
 20
-93.999999999999091
 30
0.0
 11
147.0
 21
-95.999999999999091
 31
0.0
  0
LINE
  5
6765
  8
1
 10
147.0
 20
-93.999999999999091
 30
0.0
 11
147.0
 21
-95.999999999999091
 31
0.0
  0
ARC
  5
6766
  8
1
 10
144.0
 20
-95.999999999999091
 30
0.0
 40
3.0
 50
270.0
 51
0.0
  0
LINE
  5
6767
  8
1
 10
160.0
 20
-307.99999999999932
 30
0.0
 11
160.00000000000179
 21
-99.000000000001137
 31
0.0
  0
LINE
  5
6768
  8
FUTO
 10
190.0
 20
-298.9999999999954
 30
0.0
 11
190.00000000000179
 21
-99.000000000001137
 31
0.0
  0
LINE
  5
6769
  8
1
 10
33.499999999998181
 20
-132.99999999999719
 30
0.0
 11
160.00000000000151
 21
-132.99999999999719
 31
0.0
  0
LINE
  5
676A
  8
CT
 10
177.00000000000159
 20
-131.18708601526569
 30
0.0
 11
177.00000000000159
 21
-106.8129139847364
 31
0.0
  0
CIRCLE
  5
676B
  8
FUTO
 10
177.00000000000159
 20
-119.00000000000109
 30
0.0
 40
6.0
  0
CIRCLE
  5
676C
  8
FUTO
 10
177.00000000000159
 20
-279.00000000000108
 30
0.0
 40
6.0
  0
LINE
  5
676D
  8
CT
 10
164.81291398473689
 20
-279.00000000000108
 30
0.0
 11
189.1870860152662
 21
-279.00000000000108
 31
0.0
  0
LINE
  5
676E
  8
CT
 10
177.00000000000159
 20
-291.18708601526572
 30
0.0
 11
177.00000000000159
 21
-266.8129139847365
 31
0.0
  0
LINE
  5
676F
  8
FUTO
 10
159.99999999999969
 20
-298.9999999999954
 30
0.0
 11
190.00000000000179
 21
-298.9999999999954
 31
0.0
  0
LINE
  5
6770
  8
FUTO
 10
190.0
 20
-299.00000000000108
 30
0.0
 11
160.0
 21
-299.00000000000108
 31
0.0
  0
LINE
  5
6771
  8
1
 10
74.799988000000667
 20
-277.79999999999831
 30
0.0
 11
74.799988000000667
 21
-156.29999999999831
 31
0.0
  0
LINE
  5
6772
  8
1
 10
85.0
 20
-307.99999999999721
 30
0.0
 11
160.0
 21
-307.99999999999932
 31
0.0
  0
LINE
  5
6773
  8
1
 10
85.0
 20
-316.29999999999831
 30
0.0
 11
85.0
 21
-277.79999999999831
 31
0.0
  0
LINE
  5
6774
  8
1
 10
0.000000000001819
 20
-317.79999999999831
 30
0.0
 11
83.499999999999986
 21
-317.79999999999831
 31
0.0
  0
LINE
  5
6775
  8
1
 10
-72.777344000000085
 20
-351.79999999999831
 30
0.0
 11
72.626524999999674
 21
-351.79999999999831
 31
0.0
  0
ARC
  5
6776
  8
1
 10
83.499999999999986
 20
-316.29999999999831
 30
0.0
 40
1.4999849999999999
 50
270.0
 51
0.0005800000062725
  0
ARC
  5
6777
  8
1
 10
81.815002999999706
 20
-318.79993899999948
 30
0.0
 40
0.999898
 50
89.99650299999503
 51
168.37008699999251
  0
LINE
  5
6778
  8
1
 10
74.246521000000939
 20
-350.60248999999828
 30
0.0
 11
80.835633000000598
 21
-318.59833899999921
 31
0.0
  0
LINE
  5
6779
  8
1
 10
85.0
 20
-277.79999999999831
 30
0.0
 11
-85.0
 21
-277.79999999999831
 31
0.0
  0
LINE
  5
677A
  8
1
 10
-160.00000000000361
 20
-307.99999999999181
 30
0.0
 11
-84.999999999999091
 21
-307.9999999999954
 31
0.0
  0
LINE
  5
677B
  8
1
 10
-74.799988000000667
 20
-277.79999999999831
 30
0.0
 11
-74.799988000000667
 21
-156.29999999999831
 31
0.0
  0
LINE
  5
677C
  8
1
 10
-85.0
 20
-316.29999999999831
 30
0.0
 11
-85.0
 21
-277.79999999999831
 31
0.0
  0
ARC
  5
677D
  8
1
 10
-81.815002999999706
 20
-318.79993899999948
 30
0.0
 40
0.999898
 50
11.629913000007431
 51
90.003497000004955
  0
LINE
  5
677E
  8
1
 10
-74.246521000000939
 20
-350.60248999999828
 30
0.0
 11
-80.835633000000598
 21
-318.59833899999921
 31
0.0
  0
ARC
  5
677F
  8
1
 10
-83.499999999999986
 20
-316.29999999999831
 30
0.0
 40
1.4999849999999999
 50
179.99941999999371
 51
270.0
  0
LINE
  5
6780
  8
1
 10
-0.000000000001819
 20
-317.79999999999831
 30
0.0
 11
-83.499999999999986
 21
-317.79999999999831
 31
0.0
  0
LINE
  5
6781
  8
CT
 10
-177.000000000005
 20
-291.18708601526572
 30
0.0
 11
-177.000000000005
 21
-266.8129139847365
 31
0.0
  0
LINE
  5
6782
  8
CT
 10
-164.8129139847405
 20
-279.00000000000108
 30
0.0
 11
-189.18708601526981
 21
-279.00000000000108
 31
0.0
  0
CIRCLE
  5
6783
  8
FUTO
 10
-177.000000000005
 20
-279.00000000000108
 30
0.0
 40
6.0
  0
LINE
  5
6784
  8
1
 10
-189.99999999999909
 20
-298.9999999999954
 30
0.0
 11
-160.00000000000361
 21
-298.9999999999954
 31
0.0
  0
LINE
  5
6785
  8
1
 10
33.499999999998181
 20
-133.79999999999831
 30
0.0
 11
33.5
 21
-124.79999999999831
 31
0.0
  0
LINE
  5
6786
  8
1
 10
0.0
 20
-133.79999999999831
 30
0.0
 11
73.5
 21
-133.79999999999831
 31
0.0
  0
LINE
  5
6787
  8
1
 10
75.5
 20
-156.29999999999831
 30
0.0
 11
0.000000000001819
 21
-156.29999999999831
 31
0.0
  0
LINE
  5
6788
  8
1
 10
-75.5
 20
-156.29999999999831
 30
0.0
 11
-0.000000000001819
 21
-156.29999999999831
 31
0.0
  0
LINE
  5
6789
  8
1
 10
0.0
 20
-133.79999999999831
 30
0.0
 11
-73.5
 21
-133.79999999999831
 31
0.0
  0
LINE
  5
678A
  8
1
 10
75.5
 20
-156.29999999999831
 30
0.0
 11
75.5
 21
-135.79999999999831
 31
0.0
  0
ARC
  5
678B
  8
1
 10
73.5
 20
-135.79999999999831
 30
0.0
 40
2.0
 50
0.0
 51
90.0
  0
LINE
  5
678C
  8
1
 10
64.065796000000773
 20
-133.79999999999831
 30
0.0
 11
73.065796000000773
 21
-133.79999999999831
 31
0.0
  0
LINE
  5
678D
  8
1
 10
72.815002999999706
 20
-133.79999999999831
 30
0.0
 11
64.184998000000633
 21
-133.79999999999831
 31
0.0
  0
LINE
  5
678E
  8
1
 10
-17.5
 20
-118.8000000000001
 30
0.0
 11
17.5
 21
-118.8000000000001
 31
0.0
  0
LINE
  5
678F
  8
1
 10
32.5
 20
-123.79999999999831
 30
0.0
 11
-32.5
 21
-123.79999999999831
 31
0.0
  0
LINE
  5
6790
  8
1
 10
-10.5
 20
-118.79999999999831
 30
0.0
 11
-10.5
 21
-123.79999999999831
 31
0.0
  0
ARC
  5
6791
  8
1
 10
32.5
 20
-124.79999999999831
 30
0.0
 40
1.0
 50
0.0
 51
90.0
  0
LINE
  5
6792
  8
1
 10
10.5
 20
-118.79999999999831
 30
0.0
 11
10.5
 21
-123.79999999999831
 31
0.0
  0
LINE
  5
6793
  8
1
 10
22.5
 20
-113.8000000000001
 30
0.0
 11
17.5
 21
-118.8000000000001
 31
0.0
  0
LINE
  5
6794
  8
1
 10
22.5
 20
-101.2999999999965
 30
0.0
 11
22.5
 21
-113.8000000000001
 31
0.0
  0
LINE
  5
6795
  8
1
 10
-17.5
 20
-118.8000000000001
 30
0.0
 11
-22.5
 21
-113.8000000000001
 31
0.0
  0
ENDBLK
  5
6797
  8
0
  0
BLOCK
  8
0
  2
*D22
 70
     1
 10
0.0
 20
0.0
 30
0.0
  3
*D22
  1

  0
LINE
  5
6E6B
  8
SP
 10
-1699.9142715201349
 20
741.03013774616613
 30
0.0
 11
-1699.9142715201349
 21
601.03013774616613
 31
0.0
  0
LINE
  5
6E6C
  8
SP
 10
-2079.914271520136
 20
741.0301377461642
 30
0.0
 11
-2079.914271520136
 21
601.03013774616613
 31
0.0
  0
LINE
  5
6E6D
  8
SP
 10
-1724.9142715201349
 20
611.03013774616613
 30
0.0
 11
-2054.914271520136
 21
611.03013774616613
 31
0.0
  0
INSERT
  5
6E6E
  8
SP
  2
_OPEN
 10
-1699.9142715201349
 20
611.03013774616613
 30
0.0
 41
25.0
 42
25.0
 43
25.0
  0
INSERT
  5
6E6F
  8
SP
  2
_OPEN
 10
-2079.914271520136
 20
611.03013774616613
 30
0.0
 41
25.0
 42
25.0
 43
25.0
 50
180.0
  0
TEXT
  5
6E70
  8
SP
 10
-1931.790652263745
 20
621.03013774616613
 30
0.0
 40
30.0
  1
380
 51
15.0
  0
POINT
  5
6E71
  8
DEFPOINTS
 62
     0
 10
-1699.9142715201349
 20
751.03013774616613
 30
0.0
  0
POINT
  5
6E72
  8
DEFPOINTS
 62
     0
 10
-2079.914271520136
 20
751.03013774616431
 30
0.0
  0
POINT
  5
6E73
  8
DEFPOINTS
 62
     0
 10
-2079.914271520136
 20
611.03013774616613
 30
0.0
  0
ENDBLK
  5
6E3A
  8
0
  0
BLOCK
  8
0
  2
*D23
 70
     1
 10
0.0
 20
0.0
 30
0.0
  3
*D23
  1

  0
LINE
  5
6EA1
  8
SP
 10
-1889.9142715201349
 20
715.18748159913946
 30
0.0
 11
-1889.9142715201349
 21
671.03013774616613
 31
0.0
  0
LINE
  5
6EA2
  8
SP
 10
-1699.9142715201349
 20
741.03013774616613
 30
0.0
 11
-1699.9142715201349
 21
671.03013774616613
 31
0.0
  0
LINE
  5
6EA3
  8
SP
 10
-1864.9142715201349
 20
681.03013774616613
 30
0.0
 11
-1724.9142715201349
 21
681.03013774616613
 31
0.0
  0
INSERT
  5
6EA4
  8
SP
  2
_OPEN
 10
-1889.9142715201349
 20
681.03013774616613
 30
0.0
 41
25.0
 42
25.0
 43
25.0
 50
180.0
  0
INSERT
  5
6EA5
  8
SP
  2
_OPEN
 10
-1699.9142715201349
 20
681.03013774616613
 30
0.0
 41
25.0
 42
25.0
 43
25.0
  0
TEXT
  5
6EA6
  8
SP
 10
-1836.4216090506061
 20
691.03013774616613
 30
0.0
 40
30.0
  1
190
 51
15.0
  0
POINT
  5
6EA7
  8
DEFPOINTS
 62
     0
 10
-1889.9142715201349
 20
725.18748159913957
 30
0.0
  0
POINT
  5
6EA8
  8
DEFPOINTS
 62
     0
 10
-1699.9142715201349
 20
751.03013774616613
 30
0.0
  0
POINT
  5
6EA9
  8
DEFPOINTS
 62
     0
 10
-1699.9142715201349
 20
681.03013774616613
 30
0.0
  0
ENDBLK
  5
6E46
  8
0
  0
BLOCK
  8
0
  2
*D24
 70
     1
 10
0.0
 20
0.0
 30
0.0
  3
*D24
  1

  0
LINE
  5
6EAA
  8
SP
 10
-2079.914271520136
 20
741.0301377461642
 30
0.0
 11
-2079.914271520136
 21
671.03013774616431
 31
0.0
  0
LINE
  5
6EAB
  8
SP
 10
-1889.9142715201349
 20
715.18748159913946
 30
0.0
 11
-1889.9142715201349
 21
671.03013774616431
 31
0.0
  0
LINE
  5
6EAC
  8
SP
 10
-2054.914271520136
 20
681.03013774616431
 30
0.0
 11
-1914.9142715201349
 21
681.03013774616431
 31
0.0
  0
INSERT
  5
6EAD
  8
SP
  2
_OPEN
 10
-2079.914271520136
 20
681.03013774616431
 30
0.0
 41
25.0
 42
25.0
 43
25.0
 50
180.0
  0
INSERT
  5
6EAE
  8
SP
  2
_OPEN
 10
-1889.9142715201349
 20
681.03013774616431
 30
0.0
 41
25.0
 42
25.0
 43
25.0
  0
TEXT
  5
6EAF
  8
SP
 10
-2026.421609050605
 20
691.0301377461642
 30
0.0
 40
30.0
  1
190
 51
15.0
  0
POINT
  5
6EB0
  8
DEFPOINTS
 62
     0
 10
-2079.914271520136
 20
751.03013774616431
 30
0.0
  0
POINT
  5
6EB1
  8
DEFPOINTS
 62
     0
 10
-1889.9142715201349
 20
725.18748159913957
 30
0.0
  0
POINT
  5
6EB2
  8
DEFPOINTS
 62
     0
 10
-1889.9142715201349
 20
681.03013774616431
 30
0.0
  0
ENDBLK
  5
6E52
  8
0
  0
BLOCK
  8
0
  2
*D25
 70
     1
 10
0.0
 20
0.0
 30
0.0
  3
*D25
  1

  0
LINE
  5
6E86
  8
SP
 10
-1138.9142715201749
 20
741.03013774616409
 30
0.0
 11
-1138.9142715201749
 21
671.03013774616613
 31
0.0
  0
LINE
  5
6E87
  8
SP
 10
-1338.9142715201749
 20
741.03013774616409
 30
0.0
 11
-1338.9142715201749
 21
671.03013774616613
 31
0.0
  0
LINE
  5
6E88
  8
SP
 10
-1163.9142715201749
 20
681.03013774616613
 30
0.0
 11
-1313.9142715201749
 21
681.03013774616613
 31
0.0
  0
INSERT
  5
6E89
  8
SP
  2
_OPEN
 10
-1138.9142715201749
 20
681.03013774616613
 30
0.0
 41
25.0
 42
25.0
 43
25.0
  0
INSERT
  5
6E8A
  8
SP
  2
_OPEN
 10
-1338.9142715201749
 20
681.03013774616613
 30
0.0
 41
25.0
 42
25.0
 43
25.0
 50
180.0
  0
TEXT
  5
6E8B
  8
SP
 10
-1280.0250831425531
 20
691.03013774616613
 30
0.0
 40
30.0
  1
200
 51
15.0
  0
POINT
  5
6E8C
  8
DEFPOINTS
 62
     0
 10
-1138.9142715201749
 20
751.0301377461642
 30
0.0
  0
POINT
  5
6E8D
  8
DEFPOINTS
 62
     0
 10
-1338.9142715201749
 20
751.0301377461642
 30
0.0
  0
POINT
  5
6E8E
  8
DEFPOINTS
 62
     0
 10
-1338.9142715201749
 20
681.03013774616613
 30
0.0
  0
ENDBLK
  5
6E5E
  8
0
  0
BLOCK
  8
0
  2
*D26
 70
     1
 10
0.0
 20
0.0
 30
0.0
  3
*D26
  1

  0
LINE
  5
6E98
  8
SP
 10
-1138.9142715201749
 20
741.03013774616409
 30
0.0
 11
-1138.9142715201749
 21
671.03013774616613
 31
0.0
  0
LINE
  5
6E99
  8
SP
 10
-1039.9142715201349
 20
822.4731946293241
 30
0.0
 11
-1039.9142715201349
 21
671.03013774616613
 31
0.0
  0
LINE
  5
6E9A
  8
SP
 10
-1113.9142715201749
 20
681.03013774616613
 30
0.0
 11
-1064.9142715201349
 21
681.03013774616613
 31
0.0
  0
INSERT
  5
6E9B
  8
SP
  2
_OPEN
 10
-1138.9142715201749
 20
681.03013774616613
 30
0.0
 41
25.0
 42
25.0
 43
25.0
 50
180.0
  0
INSERT
  5
6E9C
  8
SP
  2
_OPEN
 10
-1039.9142715201349
 20
681.03013774616613
 30
0.0
 41
25.0
 42
25.0
 43
25.0
  0
TEXT
  5
6E9D
  8
SP
 10
-1117.004937978051
 20
691.03013774616613
 30
0.0
 40
30.0
  1
99
 51
15.0
  0
POINT
  5
6E9E
  8
DEFPOINTS
 62
     0
 10
-1138.9142715201749
 20
751.0301377461642
 30
0.0
  0
POINT
  5
6E9F
  8
DEFPOINTS
 62
     0
 10
-1039.9142715201349
 20
832.47319462932398
 30
0.0
  0
POINT
  5
6EA0
  8
DEFPOINTS
 62
     0
 10
-1039.9142715201349
 20
681.03013774616613
 30
0.0
  0
ENDBLK
  5
6E6A
  8
0
  0
BLOCK
  8
0
  2
*D27
 70
     1
 10
0.0
 20
0.0
 30
0.0
  3
*D27
  1

  0
LINE
  5
7678
  8
SP
 10
-2089.914271520136
 20
811.0301377461642
 30
0.0
 11
-2249.3805561714089
 21
811.0301377461642
 31
0.0
  0
LINE
  5
7679
  8
SP
 10
-2089.914271520136
 20
751.0301377461642
 30
0.0
 11
-2249.3805561714089
 21
751.0301377461642
 31
0.0
  0
LINE
  5
767A
  8
SP
 10
-2239.3805561714089
 20
836.0301377461642
 30
0.0
 11
-2239.3805561714089
 21
861.0301377461642
 31
0.0
  0
LINE
  5
767B
  8
SP
 10
-2239.3805561714089
 20
726.0301377461642
 30
0.0
 11
-2239.3805561714089
 21
629.95686818325601
 31
0.0
  0
LINE
  5
767C
  8
SP
 10
-2239.3805561714089
 20
811.0301377461642
 30
0.0
 11
-2239.3805561714089
 21
751.0301377461642
 31
0.0
  0
INSERT
  5
767D
  8
SP
  2
_DOT
 10
-2239.3805561714089
 20
811.0301377461642
 30
0.0
 41
25.0
 42
25.0
 43
25.0
 50
270.0
  0
INSERT
  5
767E
  8
SP
  2
_OPEN
 10
-2239.3805561714089
 20
751.0301377461642
 30
0.0
 41
25.0
 42
25.0
 43
25.0
 50
90.0
  0
TEXT
  8
0
  40
30
  5
768A
  72
0
  71
0
 10
-2324.38
 20
612.394
 30
0.000000
  1
60
  0
POINT
  5
7680
  8
DEFPOINTS
 62
     0
 10
-2079.914271520136
 20
811.0301377461642
 30
0.0
  0
POINT
  5
7681
  8
DEFPOINTS
 62
     0
 10
-2079.914271520136
 20
751.0301377461642
 30
0.0
  0
POINT
  5
7682
  8
DEFPOINTS
 62
     0
 10
-2239.3805561714089
 20
751.0301377461642
 30
0.0
  0
ENDBLK
  5
6F36
  8
0
  0
BLOCK
  8
0
  2
*D28
 70
     1
 10
0.0
 20
0.0
 30
0.0
  3
*D28
  1

  0
LINE
  5
7683
  8
SP
 10
-2089.914271520136
 20
833.03013774616511
 30
0.0
 11
-2249.3805561714089
 21
833.03013774616511
 31
0.0
  0
LINE
  5
7684
  8
SP
 10
-2089.914271520136
 20
811.0301377461642
 30
0.0
 11
-2249.3805561714089
 21
811.0301377461642
 31
0.0
  0
LINE
  5
7685
  8
SP
 10
-2239.3805561714089
 20
833.03013774616511
 30
0.0
 11
-2239.3805561714089
 21
811.0301377461642
 31
0.0
  0
TEXT
  8
0
  40
30
  5
768B
  72
0
  71
0
 10
-2324.38
 20
768.930
 30
0.000000
  1
（22）
  0
POINT
  5
7687
  8
DEFPOINTS
 62
     0
 10
-2079.914271520136
 20
833.03013774616511
 30
0.0
  0
POINT
  5
7688
  8
DEFPOINTS
 62
     0
 10
-2079.914271520136
 20
811.0301377461642
 30
0.0
  0
POINT
  5
7689
  8
DEFPOINTS
 62
     0
 10
-2239.3805561714089
 20
811.0301377461642
 30
0.0
  0
ENDBLK
  5
6F50
  8
0
  0
BLOCK
  8
0
  2
_NONE
 70
     0
 10
0.0
 20
0.0
 30
0.0
  3
_NONE
  1

  0
ENDBLK
  5
6F53
  8
0
  0
ENDSEC
  0
SECTION
  2
ENTITIES
  0
LINE
  5
2E2D
  8
4
 10
-510.87320926160049
 20
96.092404061039474
 30
0.0
 11
-2610.8732092616001
 21
96.092404061039474
 31
0.0
  0
LINE
  5
2E2E
  8
4
 10
-2610.8732092616001
 20
3046.0924040610389
 30
0.0
 11
-510.87320926160049
 21
3046.0924040610389
 31
0.0
  0
LINE
  5
2E37
  8
4
 10
-2610.8732092616001
 20
96.092404061039474
 30
0.0
 11
-2610.8732092616001
 21
3046.0924040610389
 31
0.0
  0
LINE
  5
2E42
  8
1
 10
-2022.6142715201349
 20
983.03013774616693
 30
0.0
 11
-1757.214271520136
 21
983.03013774616693
 31
0.0
  0
LINE
  5
2E43
  8
1
 10
-2047.614271520134
 20
1008.030137746166
 30
0.0
 11
-1732.214271520136
 21
1008.030137746166
 31
0.0
  0
LINE
  5
2E44
  8
1
 10
-1972.4142715201349
 20
1009.6892557461661
 30
0.0
 11
-1807.4142415201361
 21
1009.6892557461661
 31
0.0
  0
ARC
  5
2E45
  8
1
 10
-1889.9142715201349
 20
1088.030137746166
 30
0.0
 40
85.0
 50
236.73178133171069
 51
244.12446600000291
  0
ARC
  5
2E46
  8
1
 10
-1889.9142715201349
 20
1088.030137746166
 30
0.0
 40
85.0
 50
0.0
 51
244.12446600000291
  0
LINE
  5
2E47
  8
1
 10
-2079.914271520136
 20
833.03013774616511
 30
0.0
 11
-1699.9142715201349
 21
833.03013774616693
 31
0.0
  0
CIRCLE
  5
2E4B
  8
2
 10
-1889.9142715201349
 20
1088.030137746166
 30
0.0
 40
136.0
  0
LINE
  5
2E4C
  8
2
 10
-2174.1007564974352
 20
1088.030137746166
 30
0.0
 11
-1679.7666569467849
 21
1088.0301377461651
 31
0.0
  0
LINE
  5
2E4D
  8
1
 10
-1949.9142715201349
 20
1238.0301377461669
 30
0.0
 11
-1829.9142715201349
 21
1238.0301377461669
 31
0.0
  0
LINE
  5
2E50
  8
1
 10
-2047.6142715201349
 20
1154.130137746165
 30
0.0
 11
-2047.6142715201349
 21
833.03013774616511
 31
0.0
  0
LINE
  5
2E51
  8
1
 10
-2049.9142715201351
 20
1154.130137746165
 30
0.0
 11
-2049.9142715201351
 21
835.33013774616791
 31
0.0
  0
LINE
  5
2E54
  8
1
 10
-2079.914271520136
 20
835.3301377461662
 30
0.0
 11
-2049.9142715201351
 21
835.33013774616791
 31
0.0
  0
LINE
  5
2E55
  8
1
 10
-2079.914271520136
 20
833.03013774616511
 30
0.0
 11
-2079.9142715201369
 21
835.3301377461662
 31
0.0
  0
LINE
  5
2E56
  8
2
 10
-2066.9142715201342
 20
800.11394772633184
 30
0.0
 11
-2066.9142715201342
 21
845.33013774616813
 31
0.0
  0
LINE
  5
2E58
  8
1
 10
-2022.6142715201349
 20
983.03013774616693
 30
0.0
 11
-2022.6142715201349
 21
884.03013774616704
 31
0.0
  0
LINE
  5
2E59
  8
1
 10
-2047.614271520134
 20
884.03013774616704
 30
0.0
 11
-2022.6142715201361
 21
884.03013774616704
 31
0.0
  0
LINE
  5
2E5A
  8
CT
 10
-1947.0003925748231
 20
950.21205007266644
 30
0.0
 11
-1936.4883070407921
 21
975.59046953774805
 31
0.0
  0
CIRCLE
  5
2E5B
  8
1
 10
-1941.9592183217869
 20
962.38252132463231
 30
0.0
 40
4.0
  0
LINE
  5
2E67
  8
CT
 10
-1947.0003925748231
 20
1225.8482254196649
 30
0.0
 11
-1936.488307040793
 21
1200.4698059545819
 31
0.0
  0
LINE
  5
2E68
  8
1
 10
-1949.9142715201349
 20
1238.0301377461669
 30
0.0
 11
-2048.3142715201352
 21
1154.130137746165
 31
0.0
  0
LINE
  5
2E69
  8
CT
 10
-2027.7323591936361
 20
1145.1162588008531
 30
0.0
 11
-2002.3539397285531
 21
1134.604173266825
 31
0.0
  0
LINE
  5
2E6A
  8
CT
 10
-2027.7323591936361
 20
1030.944016691476
 30
0.0
 11
-2002.3539397285531
 21
1041.4561022255079
 31
0.0
  0
CIRCLE
  5
2E6C
  8
1
 10
-2015.56188794167
 20
1035.985190944514
 30
0.0
 40
4.0
  0
LINE
  5
2E6D
  8
1
 10
-2049.9142715201351
 20
1154.130137746165
 30
0.0
 11
-2048.3142715201352
 21
1154.130137746165
 31
0.0
  0
CIRCLE
  5
2E6E
  8
1
 10
-2015.56188794167
 20
1140.075084547819
 30
0.0
 40
4.0
  0
LINE
  5
2E6F
  8
1
 10
-1972.4142715201349
 20
1012.530137746167
 30
0.0
 11
-1942.279445520134
 21
1012.530137746167
 31
0.0
  0
LINE
  5
2E70
  8
1
 10
-1972.4142715201349
 20
1009.6892557461661
 30
0.0
 11
-1972.4142715201349
 21
1012.530137746167
 31
0.0
  0
LINE
  5
2E71
  8
CT
 10
-1952.4142715201349
 20
1005.8115517461659
 30
0.0
 11
-1952.4142715201349
 21
1014.398558746166
 31
0.0
  0
LINE
  5
2E72
  8
1
 10
-1967.4142715201349
 20
1009.6892557461661
 30
0.0
 11
-1967.4142715201349
 21
1008.030137746166
 31
0.0
  0
LINE
  5
2E73
  8
1
 10
-1967.7474325201349
 20
1012.524766746167
 30
0.0
 11
-1952.237439520135
 21
1030.2116337461659
 31
0.0
  0
LINE
  5
2E74
  8
1
 10
-1932.4142715201349
 20
1009.6892557461661
 30
0.0
 11
-1932.4142715201349
 21
1008.030137746166
 31
0.0
  0
ARC
  5
2E75
  8
1
 10
-1942.2794755201351
 20
1017.530137746166
 30
0.0
 40
5.0
 50
270.0
 51
324.46176099999911
  0
LINE
  5
2E76
  8
1
 10
-1936.538209520136
 20
1016.965659746166
 30
0.0
 11
-1938.2108115201349
 21
1014.623887746167
 31
0.0
  0
CIRCLE
  5
2E77
  8
1
 10
-1941.9592183217869
 20
1213.6777541677011
 30
0.0
 40
4.0
  0
LINE
  5
2E7B
  8
1
 10
-1732.214271520136
 20
1154.130137746165
 30
0.0
 11
-1732.214271520136
 21
833.03013774616511
 31
0.0
  0
LINE
  5
2E7C
  8
1
 10
-1729.9142715201349
 20
1154.130137746165
 30
0.0
 11
-1729.9142715201349
 21
835.3301377461662
 31
0.0
  0
LINE
  5
2E7D
  8
2
 10
-1889.9142715201349
 20
725.18748159913957
 30
0.0
 11
-1889.9142715201349
 21
1297.8065568904919
 31
0.0
  0
LINE
  5
2E7F
  8
CT
 10
-1832.8281504654469
 20
950.21205007266644
 30
0.0
 11
-1843.340235999477
 21
975.59046953774805
 31
0.0
  0
CIRCLE
  5
2E80
  8
1
 10
-1837.8693247184831
 20
962.38252132463231
 30
0.0
 40
4.0
  0
LINE
  5
2E81
  8
1
 10
-1729.9142715201349
 20
835.33013774616791
 30
0.0
 11
-1699.9142715201349
 21
835.3301377461662
 31
0.0
  0
LINE
  5
2E82
  8
2
 10
-1712.9142715201369
 20
801.18642009557925
 30
0.0
 11
-1712.9142715201349
 21
845.33013774616609
 31
0.0
  0
LINE
  5
2E83
  8
1
 10
-1699.9142715201349
 20
833.03013774616693
 30
0.0
 11
-1699.9142715201349
 21
835.33013774616791
 31
0.0
  0
LINE
  5
2E85
  8
1
 10
-1757.214271520138
 20
983.03013774616693
 30
0.0
 11
-1757.214271520138
 21
884.03013774616704
 31
0.0
  0
LINE
  5
2E86
  8
1
 10
-1757.214271520138
 20
884.03013774616704
 30
0.0
 11
-1732.214271520136
 21
884.03013774616704
 31
0.0
  0
LINE
  5
2E89
  8
CT
 10
-1752.0961838466351
 20
1145.1162588008531
 30
0.0
 11
-1777.4746033117181
 21
1134.604173266825
 31
0.0
  0
LINE
  5
2E8A
  8
CT
 10
-1752.0961838466351
 20
1030.9440166914781
 30
0.0
 11
-1777.4746033117181
 21
1041.4561022255079
 31
0.0
  0
CIRCLE
  5
2E8B
  8
1
 10
-1764.2666550986009
 20
1035.985190944514
 30
0.0
 40
4.0
  0
CIRCLE
  5
2E8C
  8
1
 10
-1764.2666550986009
 20
1140.075084547819
 30
0.0
 40
4.0
  0
LINE
  5
2E8D
  8
1
 10
-1829.9142715201349
 20
1238.0301377461669
 30
0.0
 11
-1731.5142715201359
 21
1154.130137746165
 31
0.0
  0
LINE
  5
2E90
  8
CT
 10
-1832.8281504654469
 20
1225.8482254196649
 30
0.0
 11
-1843.3402359994791
 21
1200.4698059545831
 31
0.0
  0
ARC
  5
2E91
  8
1
 10
-1889.9142715201349
 20
1088.030137746166
 30
0.0
 40
85.000007999999994
 50
295.9177260000003
 51
0.0
  0
LINE
  5
2E92
  8
1
 10
-1927.009770520134
 20
1011.579209746166
 30
0.0
 11
-1852.7624625201361
 21
1011.579209746166
 31
0.0
  0
LINE
  5
2E93
  8
1
 10
-1847.4142715201349
 20
1009.6892557461661
 30
0.0
 11
-1847.4142715201349
 21
1008.030137746166
 31
0.0
  0
LINE
  5
2E94
  8
1
 10
-1807.4142415201361
 20
1012.530137746167
 30
0.0
 11
-1837.5490675201361
 21
1012.530137746167
 31
0.0
  0
LINE
  5
2E95
  8
1
 10
-1812.0799035201351
 20
1012.523313746166
 30
0.0
 11
-1827.592963520136
 21
1030.2137757461669
 31
0.0
  0
LINE
  5
2E96
  8
CT
 10
-1827.4142715201349
 20
1005.8115517461659
 30
0.0
 11
-1827.4142715201349
 21
1014.398558746166
 31
0.0
  0
LINE
  5
2E97
  8
1
 10
-1842.4060015201351
 20
1015.727524746167
 30
0.0
 11
-1841.6177325201361
 21
1014.623887746167
 31
0.0
  0
LINE
  5
2E98
  8
1
 10
-1843.2827205201349
 20
1016.954999746166
 30
0.0
 11
-1841.6177325201361
 21
1014.623887746167
 31
0.0
  0
ARC
  5
2E99
  8
1
 10
-1837.5490675201361
 20
1017.530137746166
 30
0.0
 40
5.000032
 50
215.53825399999789
 51
270.0
  0
LINE
  5
2E9A
  8
1
 10
-1807.4142415201361
 20
1012.530137746167
 30
0.0
 11
-1807.4142415201361
 21
1009.6892557461661
 31
0.0
  0
LINE
  5
2E9B
  8
1
 10
-1812.4142715201349
 20
1009.6892557461661
 30
0.0
 11
-1812.4142715201349
 21
1008.030137746166
 31
0.0
  0
CIRCLE
  5
2E9C
  8
1
 10
-1837.8693247184831
 20
1213.6777541677011
 30
0.0
 40
4.0
  0
LINE
  5
2EAB
  8
1
 10
-1731.5142715201359
 20
1154.130137746165
 30
0.0
 11
-1729.9142715201349
 21
1154.130137746165
 31
0.0
  0
LINE
  5
2EB3
  8
1
 10
-2049.914271520141
 20
1999.121728488449
 30
0.0
 11
-1923.4142715201349
 21
1999.1217284884469
 31
0.0
  0
LINE
  5
2EB4
  8
1
 10
-1962.691615520135
 20
1780.321728488442
 30
0.0
 11
-1817.287746520135
 21
1780.321728488442
 31
0.0
  0
LINE
  5
2EB5
  8
1
 10
-1804.9142715201349
 20
1854.321728488442
 30
0.0
 11
-1974.9142715201349
 21
1854.321728488442
 31
0.0
  0
LINE
  5
2EB6
  8
1
 10
-1889.9142715201369
 20
1814.321728488442
 30
0.0
 11
-1973.4142715201349
 21
1814.321728488442
 31
0.0
  0
LINE
  5
2EB7
  8
1
 10
-1965.4142715201349
 20
1975.821728488442
 30
0.0
 11
-1889.9142715201369
 21
1975.821728488442
 31
0.0
  0
LINE
  5
2EB8
  8
1
 10
-1889.9142715201349
 20
1998.321728488442
 30
0.0
 11
-1963.4142715201349
 21
1998.321728488442
 31
0.0
  0
LINE
  5
2EB9
  8
1
 10
-2140.9142715201328
 20
2223.1217284884428
 30
0.0
 11
-1888.9142715201349
 21
2223.1217284884378
 31
0.0
  0
LINE
  5
2EBA
  8
1
 10
-2140.9142715201328
 20
2041.121728488441
 30
0.0
 11
-1888.9142715201349
 21
2041.121728488441
 31
0.0
  0
LINE
  5
2EBB
  8
HOSO
 10
-2139.9142715201342
 20
2222.1217284884419
 30
0.0
 11
-1889.9142715201349
 21
2042.1217284884419
 31
0.0
  0
LINE
  5
2EBC
  8
HOSO
 10
-2139.9142715201342
 20
2042.1217284884401
 30
0.0
 11
-1889.9142715201349
 21
2222.1217284884419
 31
0.0
  0
LINE
  5
2EBD
  8
1
 10
-2139.9142715201342
 20
2042.1217284884401
 30
0.0
 11
-1889.9142715201349
 21
2042.1217284884419
 31
0.0
  0
LINE
  5
2EBE
  8
1
 10
-2139.9142715201328
 20
2222.1217284884419
 30
0.0
 11
-1889.9142715201349
 21
2222.1217284884419
 31
0.0
  0
LINE
  5
2EBF
  8
1
 10
-2148.9142715201342
 20
2021.121728488441
 30
0.0
 11
-1880.9142715201369
 21
2021.1217284884449
 31
0.0
  0
LINE
  5
2EC0
  8
1
 10
-2148.9142715201319
 20
2243.1217284884378
 30
0.0
 11
-1880.914271520134
 21
2243.121728488441
 31
0.0
  0
LINE
  5
2EC1
  8
2
 10
-2174.1007564974352
 20
2132.1217284884419
 30
0.0
 11
-1679.7666569467849
 21
2132.1217284884401
 31
0.0
  0
LINE
  5
2EC2
  8
1
 10
-2140.9142715201328
 20
2041.121728488441
 30
0.0
 11
-2140.9142715201328
 21
2223.1217284884428
 31
0.0
  0
LINE
  5
2EC3
  8
1
 10
-2139.9142715201342
 20
2042.1217284884401
 30
0.0
 11
-2139.9142715201342
 21
2222.1217284884419
 31
0.0
  0
LINE
  5
2EC4
  8
1
 10
-2160.9142715201342
 20
2033.121728488441
 30
0.0
 11
-2160.9142715201319
 21
2231.1217284884378
 31
0.0
  0
ARC
  5
2EC9
  8
1
 10
-2148.9142715201342
 20
2033.121728488441
 30
0.0
 40
12.0
 50
179.99999999999929
 51
270.0
  0
LINE
  5
2ECD
  8
1
 10
-1964.714259520136
 20
1854.321728488442
 30
0.0
 11
-1964.714259520136
 21
1975.821728488442
 31
0.0
  0
LINE
  5
2ED1
  8
1
 10
-2049.9142715201392
 20
1824.121728488449
 30
0.0
 11
-1974.914271520134
 21
1824.1217284884449
 31
0.0
  0
LINE
  5
2ED2
  8
1
 10
-2079.9142715201342
 20
1833.1217284884449
 30
0.0
 11
-2049.9142715201392
 21
1833.1217284884449
 31
0.0
  0
LINE
  5
2ED5
  8
1
 10
-1964.1607925201361
 20
1781.5192384884419
 30
0.0
 11
-1970.7499045201359
 21
1813.5233894884409
 31
0.0
  0
ARC
  5
2ED6
  8
1
 10
-1971.729274520135
 20
1813.321789488441
 30
0.0
 40
0.999898
 50
11.62991300000146
 51
90.003497000004955
  0
ARC
  5
2ED7
  8
1
 10
-1973.4142715201349
 20
1815.821728488442
 30
0.0
 40
1.4999849999999999
 50
179.9994199999999
 51
270.0
  0
LINE
  5
2ED8
  8
1
 10
-1974.9142715201349
 20
1815.821728488442
 30
0.0
 11
-1974.9142715201349
 21
1854.321728488442
 31
0.0
  0
LINE
  5
2EDE
  8
1
 10
-1965.4142715201349
 20
1975.821728488442
 30
0.0
 11
-1965.4142715201349
 21
1996.321728488442
 31
0.0
  0
ARC
  5
2EDF
  8
1
 10
-1963.4142715201349
 20
1996.321728488442
 30
0.0
 40
2.0
 50
90.0
 51
180.0
  0
LINE
  5
2EE0
  8
1
 10
-1962.729274520135
 20
1998.321728488442
 30
0.0
 11
-1954.099269520136
 21
1998.321728488442
 31
0.0
  0
LINE
  5
2EE1
  8
1
 10
-1953.9800675201359
 20
1998.321728488442
 30
0.0
 11
-1962.9800675201359
 21
1998.321728488442
 31
0.0
  0
ARC
  5
2EE5
  8
1
 10
-2148.9142715201319
 20
2231.1217284884378
 30
0.0
 40
12.0
 50
90.0
 51
179.99999999999929
  0
LINE
  5
2EEA
  8
1
 10
-1712.9142715201349
 20
2054.1217284884401
 30
0.0
 11
-1712.9142715201349
 21
2210.1217284884401
 31
0.0
  0
LINE
  5
2EEB
  8
1
 10
-1888.9142715201349
 20
2223.1217284884378
 30
0.0
 11
-1888.9142715201349
 21
2041.121728488441
 31
0.0
  0
LINE
  5
2EEC
  8
1
 10
-1713.9142715201349
 20
2054.1217284884401
 30
0.0
 11
-1713.9142715201349
 21
2210.1217284884401
 31
0.0
  0
LINE
  5
2EED
  8
1
 10
-1889.9142715201349
 20
2222.1217284884419
 30
0.0
 11
-1889.9142715201349
 21
2042.1217284884419
 31
0.0
  0
LINE
  5
2EEE
  8
1
 10
-1868.9142715201369
 20
2033.1217284884449
 30
0.0
 11
-1868.9142715201331
 21
2231.1217284884419
 31
0.0
  0
LINE
  5
2EEF
  8
2
 10
-1889.9142715201349
 20
1764.03328386054
 30
0.0
 11
-1889.9142715201349
 21
2268.3418936860098
 31
0.0
  0
LINE
  5
2EF0
  8
1
 10
-1856.4142715201369
 20
1999.1217284884431
 30
0.0
 11
-1729.914271520134
 21
1999.1217284884431
 31
0.0
  0
LINE
  5
2EF1
  8
1
 10
-1804.9142715201349
 20
1824.1217284884431
 30
0.0
 11
-1729.9142715201349
 21
1824.121728488441
 31
0.0
  0
LINE
  5
2EF2
  8
FUTO
 10
-1729.914271520136
 20
1833.1217284884449
 30
0.0
 11
-1699.9142715201331
 21
1833.1217284884449
 31
0.0
  0
LINE
  5
2EF4
  8
1
 10
-1868.9142715201369
 20
2041.1217284884401
 30
0.0
 11
-1725.9142715201349
 21
2041.1217284884401
 31
0.0
  0
LINE
  5
2EF6
  8
1
 10
-1868.9142715201369
 20
2042.1217284884401
 30
0.0
 11
-1725.9142715201349
 21
2042.1217284884401
 31
0.0
  0
LINE
  5
2EF7
  8
1
 10
-1815.114283520134
 20
1854.321728488442
 30
0.0
 11
-1815.114283520134
 21
1975.821728488442
 31
0.0
  0
LINE
  5
2EF8
  8
1
 10
-1889.9142715201331
 20
1814.321728488442
 30
0.0
 11
-1806.4142715201349
 21
1814.321728488442
 31
0.0
  0
LINE
  5
2EF9
  8
1
 10
-1815.6677505201339
 20
1781.5192384884419
 30
0.0
 11
-1809.078638520135
 21
1813.5233894884409
 31
0.0
  0
LINE
  5
2EFA
  8
1
 10
-1804.9142715201349
 20
1815.821728488442
 30
0.0
 11
-1804.9142715201349
 21
1854.321728488442
 31
0.0
  0
ARC
  5
2EFB
  8
1
 10
-1806.4142715201349
 20
1815.821728488442
 30
0.0
 40
1.4999849999999999
 50
270.0
 51
0.0005800000000133
  0
ARC
  5
2EFC
  8
1
 10
-1808.0992685201361
 20
1813.321789488441
 30
0.0
 40
0.999898
 50
89.99650299999503
 51
168.37008699999851
  0
LINE
  5
2EFD
  8
1
 10
-1889.9142715201349
 20
1998.321728488442
 30
0.0
 11
-1816.4142715201349
 21
1998.321728488442
 31
0.0
  0
LINE
  5
2EFE
  8
1
 10
-1814.4142715201349
 20
1975.821728488442
 30
0.0
 11
-1889.9142715201331
 21
1975.821728488442
 31
0.0
  0
LINE
  5
2EFF
  8
1
 10
-1907.4142715201349
 20
2013.3217284884411
 30
0.0
 11
-1872.4142715201349
 21
2013.3217284884411
 31
0.0
  0
LINE
  5
2F00
  8
1
 10
-1857.4142715201349
 20
2008.321728488442
 30
0.0
 11
-1922.4142715201349
 21
2008.321728488442
 31
0.0
  0
LINE
  5
2F01
  8
1
 10
-1912.4142715201349
 20
2021.1217284884431
 30
0.0
 11
-1912.4142715201349
 21
2018.3217284884399
 31
0.0
  0
ARC
  5
2F02
  8
1
 10
-1922.4142715201349
 20
2007.3217284884429
 30
0.0
 40
1.0
 50
90.0
 51
180.0
  0
LINE
  5
2F03
  8
1
 10
-1923.4142715201349
 20
2007.3217284884429
 30
0.0
 11
-1923.4142715201349
 21
1998.321728488442
 31
0.0
  0
LINE
  5
2F04
  8
1
 10
-1907.4142715201349
 20
2013.3217284884411
 30
0.0
 11
-1912.4142715201349
 21
2018.3217284884399
 31
0.0
  0
LINE
  5
2F05
  8
1
 10
-1900.4142715201349
 20
2013.321728488442
 30
0.0
 11
-1900.4142715201349
 21
2008.321728488442
 31
0.0
  0
LINE
  5
2F06
  8
1
 10
-1867.4142715201349
 20
2030.821728488444
 30
0.0
 11
-1867.4142715201349
 21
2018.3217284884399
 31
0.0
  0
LINE
  5
2F07
  8
1
 10
-1879.4142715201349
 20
2013.321728488442
 30
0.0
 11
-1879.4142715201349
 21
2008.321728488442
 31
0.0
  0
LINE
  5
2F08
  8
1
 10
-1867.4142715201349
 20
2018.3217284884399
 30
0.0
 11
-1872.4142715201349
 21
2013.3217284884411
 31
0.0
  0
ARC
  5
2F09
  8
1
 10
-1880.9142715201369
 20
2033.1217284884449
 30
0.0
 40
12.0
 50
270.0
 51
359.99999999999869
  0
ARC
  5
2F0A
  8
1
 10
-1857.4142715201349
 20
2007.3217284884429
 30
0.0
 40
1.0
 50
0.0
 51
90.0
  0
LINE
  5
2F0B
  8
1
 10
-1856.4142715201369
 20
1998.321728488442
 30
0.0
 11
-1856.4142715201349
 21
2007.3217284884429
 31
0.0
  0
LINE
  5
2F0C
  8
1
 10
-1814.4142715201349
 20
1975.821728488442
 30
0.0
 11
-1814.4142715201349
 21
1996.321728488442
 31
0.0
  0
LINE
  5
2F0D
  8
1
 10
-1825.8484755201339
 20
1998.321728488442
 30
0.0
 11
-1816.8484755201339
 21
1998.321728488442
 31
0.0
  0
LINE
  5
2F0E
  8
1
 10
-1817.099268520135
 20
1998.321728488442
 30
0.0
 11
-1825.7292735201349
 21
1998.321728488442
 31
0.0
  0
ARC
  5
2F0F
  8
1
 10
-1816.4142715201349
 20
1996.321728488442
 30
0.0
 40
2.0
 50
0.0
 51
90.0
  0
LINE
  5
2F13
  8
FUTO
 10
-1699.9142715201349
 20
1833.1217284884449
 30
0.0
 11
-1699.9142715201331
 21
2033.1217284884401
 31
0.0
  0
ARC
  5
2F1E
  8
1
 10
-1725.9142715201349
 20
2054.1217284884401
 30
0.0
 40
13.0
 50
270.0
 51
0.0
  0
ARC
  5
2F1F
  8
1
 10
-1725.9142715201349
 20
2054.1217284884401
 30
0.0
 40
12.0
 50
270.0
 51
0.0
  0
ARC
  5
2F21
  8
1
 10
-1745.9142715201349
 20
2036.1217284884419
 30
0.0
 40
3.0
 50
270.0
 51
0.0
  0
ARC
  5
2F23
  8
1
 10
-1739.9142715201349
 20
2038.1217284884419
 30
0.0
 40
3.0
 50
90.0
 51
180.0
  0
LINE
  5
2F24
  8
1
 10
-1742.9142715201349
 20
2038.1217284884419
 30
0.0
 11
-1742.9142715201349
 21
2036.1217284884419
 31
0.0
  0
LINE
  5
2F25
  8
1
 10
-1742.9142715201349
 20
2038.1217284884419
 30
0.0
 11
-1742.9142715201349
 21
2036.1217284884419
 31
0.0
  0
LINE
  5
2F28
  8
1
 10
-1868.9142715201331
 20
2231.1217284884378
 30
0.0
 11
-1745.9142715201349
 21
2231.1217284884378
 31
0.0
  0
LINE
  5
2F29
  8
1
 10
-1868.9142715201349
 20
2223.1217284884401
 30
0.0
 11
-1725.9142715201349
 21
2223.1217284884401
 31
0.0
  0
LINE
  5
2F2A
  8
1
 10
-1868.9142715201349
 20
2222.1217284884401
 30
0.0
 11
-1725.9142715201349
 21
2222.1217284884401
 31
0.0
  0
ARC
  5
2F2B
  8
1
 10
-1880.914271520134
 20
2231.1217284884419
 30
0.0
 40
12.0
 50
359.99999999999892
 51
90.0
  0
ARC
  5
2F32
  8
1
 10
-1725.9142715201349
 20
2210.1217284884401
 30
0.0
 40
13.0
 50
0.0000000000005089
 51
90.0
  0
ARC
  5
2F33
  8
1
 10
-1725.9142715201349
 20
2210.1217284884401
 30
0.0
 40
12.0
 50
0.0000000000005089
 51
90.0
  0
ARC
  5
2F35
  8
1
 10
-1739.9142715201349
 20
2226.1217284884378
 30
0.0
 40
3.0
 50
180.0
 51
270.0
  0
ARC
  5
2F36
  8
1
 10
-1745.9142715201349
 20
2228.1217284884378
 30
0.0
 40
3.0
 50
0.0
 51
90.0
  0
LINE
  5
2F37
  8
1
 10
-1742.9142715201349
 20
2226.1217284884378
 30
0.0
 11
-1742.9142715201349
 21
2228.1217284884378
 31
0.0
  0
LINE
  5
2F38
  8
1
 10
-1742.9142715201349
 20
2226.1217284884378
 30
0.0
 11
-1742.9142715201349
 21
2228.1217284884378
 31
0.0
  0
LINE
  5
2F3D
  8
4
 10
-510.87320926160049
 20
3046.0924040610389
 30
0.0
 11
-510.87320926160049
 21
96.092404061039474
 31
0.0
  0
LINE
  5
2F44
  8
1
 10
-1150.9142715201349
 20
1287.030137746166
 30
0.0
 11
-928.91427152013546
 21
1287.030137746166
 31
0.0
  0
LINE
  5
2F45
  8
1
 10
-951.91427152013739
 20
1286.030137746166
 30
0.0
 11
-969.91427152013728
 21
1268.030137746166
 31
0.0
  0
LINE
  5
2F46
  8
1
 10
-1118.9142715201349
 20
880.03013774616613
 30
0.0
 11
-960.91427152013557
 21
880.03013774616613
 31
0.0
  0
LINE
  5
2F47
  8
1
 10
-1150.9142715201331
 20
1288.030137746166
 30
0.0
 11
-928.91427152013546
 21
1288.030137746164
 31
0.0
  0
LINE
  5
2F48
  8
1
 10
-1118.9142715201349
 20
879.03013774616613
 30
0.0
 11
-960.91427152013557
 21
879.03013774616613
 31
0.0
  0
LINE
  5
2F49
  8
2
 10
-1408.0027161480371
 20
1088.030137746166
 30
0.0
 11
-926.39768282589091
 21
1088.030137746166
 31
0.0
  0
LINE
  5
2F4F
  8
1
 10
-1238.2635824445019
 20
1010.030137746166
 30
0.0
 11
-1323.7142715201351
 21
1010.030137746166
 31
0.0
  0
LINE
  5
2F50
  8
1
 10
-1347.9142715201349
 20
1008.030137746167
 30
0.0
 11
-1239.415851352064
 21
1008.030137746169
 31
0.0
  0
LINE
  5
2F51
  8
1
 10
-1338.9142715201331
 20
835.33013774616541
 30
0.0
 11
-1167.5142715201339
 21
1132.8301377461651
 31
0.0
  0
LINE
  5
2F52
  8
1
 10
-1338.9142715201349
 20
835.33013774616541
 30
0.0
 11
-1141.2142715201339
 21
835.33013774616347
 31
0.0
  0
LINE
  5
2F53
  8
1
 10
-1338.9142715201349
 20
833.03013774616625
 30
0.0
 11
-1108.9142715201349
 21
833.03013774616625
 31
0.0
  0
LINE
  5
2F54
  8
1
 10
-1317.7142715201339
 20
1162.830125746166
 30
0.0
 11
-1196.2142715201339
 21
1162.830125746166
 31
0.0
  0
LINE
  5
2F55
  8
1
 10
-1236.8232463100489
 20
1012.530137746166
 30
0.0
 11
-1323.7142715201351
 21
1012.530137746166
 31
0.0
  0
LINE
  5
2F56
  8
1
 10
-1289.5862195201339
 20
1020.361558746166
 30
0.0
 11
-1317.7142715201339
 21
1020.361558746166
 31
0.0
  0
LINE
  5
2F57
  8
1
 10
-1347.9142715201349
 20
1008.030137746166
 30
0.0
 11
-1347.9142715201349
 21
956.03013774616954
 31
0.0
  0
LINE
  5
2F62
  8
1
 10
-1338.9142715201331
 20
835.33013774616541
 30
0.0
 11
-1338.9142715201349
 21
833.03013774616625
 31
0.0
  0
LINE
  5
2F64
  8
1
 10
-1347.9142715201349
 20
956.03013774616784
 30
0.0
 11
-1314.6142715201361
 21
884.0301377461642
 31
0.0
  0
LINE
  5
2F65
  8
1
 10
-1314.6142715201379
 20
884.03013774616795
 30
0.0
 11
-1310.856523620972
 21
884.03013774616795
 31
0.0
  0
LINE
  5
2F66
  8
1
 10
-1390.5167615201351
 20
1162.276658746167
 30
0.0
 11
-1358.512610520135
 21
1168.8657707461659
 31
0.0
  0
LINE
  5
2F67
  8
1
 10
-1357.7142715201339
 20
1011.030137746166
 30
0.0
 11
-1390.3461075201351
 21
1013.909410746166
 31
0.0
  0
LINE
  5
2F68
  8
1
 10
-1391.7142715201339
 20
1160.8074817461661
 30
0.0
 11
-1391.7142715201339
 21
1015.403612746166
 31
0.0
  0
ARC
  5
2F69
  8
1
 10
-1390.2142715201339
 20
1015.403612746166
 30
0.0
 40
1.4999849999999999
 50
180.0
 51
264.95834399999262
  0
ARC
  5
2F6A
  8
1
 10
-1390.2142715201339
 20
1160.8074817461661
 30
0.0
 40
1.499994
 50
101.6341019999993
 51
180.0
  0
LINE
  5
2F6B
  8
1
 10
-1317.7142715201339
 20
1047.286584194462
 30
0.0
 11
-1317.7142715201339
 21
1173.030137746166
 31
0.0
  0
LINE
  5
2F6C
  8
1
 10
-1357.7142715201339
 20
1011.030137746166
 30
0.0
 11
-1357.7142715201339
 21
1171.5301377461651
 31
0.0
  0
LINE
  5
2F6D
  8
1
 10
-1335.771399520135
 20
1010.030137746166
 30
0.0
 11
-1356.7142715201351
 21
1010.030137746166
 31
0.0
  0
ARC
  5
2F6E
  8
1
 10
-1356.7142715201351
 20
1011.030137746166
 30
0.0
 40
1.000030999999999
 50
180.0
 51
269.99826000000689
  0
LINE
  5
2F6F
  8
1
 10
-1335.771399520135
 20
1037.9467027461651
 30
0.0
 11
-1317.714239520134
 21
1047.286600746165
 31
0.0
  0
LINE
  5
2F70
  8
1
 10
-1324.037513520135
 20
1013.230089746166
 30
0.0
 11
-1323.727271520135
 21
1013.230089746166
 31
0.0
  0
LINE
  5
2F71
  8
1
 10
-1323.7142715201351
 20
1010.030137746166
 30
0.0
 11
-1323.7142715201351
 21
1014.361558746166
 31
0.0
  0
LINE
  5
2F72
  8
1
 10
-1335.771399520135
 20
1013.230150746165
 30
0.0
 11
-1323.727271520135
 21
1013.230150746165
 31
0.0
  0
ARC
  5
2F73
  8
1
 10
-1317.7142715201339
 20
1014.361558746166
 30
0.0
 40
6.0
 50
90.0
 51
180.0
  0
LINE
  5
2F74
  8
1
 10
-1318.7142715201339
 20
1010.030137746166
 30
0.0
 11
-1318.7142715201339
 21
1008.030137746166
 31
0.0
  0
LINE
  5
2F75
  8
1
 10
-1321.2142715201339
 20
1045.4762427461669
 30
0.0
 11
-1321.2142715201339
 21
1019.234955746166
 31
0.0
  0
LINE
  5
2F76
  8
1
 10
-1335.771399520135
 20
1037.9467027461651
 30
0.0
 11
-1335.771399520135
 21
1010.026536746165
 31
0.0
  0
LINE
  5
2F77
  8
CT
 10
-1308.7142715201339
 20
1016.242051746165
 30
0.0
 11
-1308.7142715201339
 21
1000.730137746165
 31
0.0
  0
LINE
  5
2F78
  8
1
 10
-1356.2142715201339
 20
1173.030137746166
 30
0.0
 11
-1317.7142715201339
 21
1173.030137746166
 31
0.0
  0
ARC
  5
2F79
  8
1
 10
-1358.714210520136
 20
1169.845140746165
 30
0.0
 40
0.999898
 50
281.62991300000863
 51
0.0034970000000449
  0
ARC
  5
2F7A
  8
1
 10
-1356.2142715201339
 20
1171.5301377461651
 30
0.0
 40
1.4999849999999999
 50
89.999419999993705
 51
180.0
  0
LINE
  5
2F7B
  8
1
 10
-1141.214271520136
 20
1238.030137746164
 30
0.0
 11
-1141.2142715201339
 21
835.33013774616347
 31
0.0
  0
LINE
  5
2F7C
  8
1
 10
-1129.9142715201349
 20
891.03013774616625
 30
0.0
 11
-1129.9142715201349
 21
1088.030137746166
 31
0.0
  0
LINE
  5
2F7D
  8
1
 10
-1130.9142715201349
 20
1078.030137746166
 30
0.0
 11
-1130.9142715201349
 21
938.03013774616613
 31
0.0
  0
LINE
  5
2F7E
  8
1
 10
-1138.9142715201349
 20
1238.030137746166
 30
0.0
 11
-1138.9142715201349
 21
833.03013774616625
 31
0.0
  0
LINE
  5
2F7F
  8
1
 10
-1130.9142715201349
 20
891.03013774616625
 30
0.0
 11
-1130.9142715201349
 21
1088.030137746166
 31
0.0
  0
LINE
  5
2F80
  8
2
 10
-1039.9142715201349
 20
1340.2415637339079
 30
0.0
 11
-1039.9142715201349
 21
832.47319462932398
 31
0.0
  0
LINE
  5
2F81
  8
1
 10
-1138.9142715201349
 20
835.33013774616347
 30
0.0
 11
-1108.9142715201349
 21
835.33013774616541
 31
0.0
  0
ARC
  5
2F82
  8
1
 10
-1118.9142715201349
 20
891.03013774616625
 30
0.0
 40
12.0
 50
180.0
 51
270.0
  0
LINE
  5
2F87
  8
1
 10
-1108.9142715201349
 20
835.33013774616347
 30
0.0
 11
-1108.9142715201349
 21
833.03013774616625
 31
0.0
  0
LINE
  5
2F88
  8
1
 10
-1130.9142715201349
 20
938.03013774616613
 30
0.0
 11
-1130.9142715201349
 21
891.03013774616625
 31
0.0
  0
ARC
  5
2F89
  8
1
 10
-1118.9142715201349
 20
891.03013774616625
 30
0.0
 40
11.0
 50
180.0
 51
270.0
  0
LINE
  5
2F8E
  8
2
 10
-1258.7142715201339
 20
1168.314012746167
 30
0.0
 11
-1258.7142715201339
 21
1004.014024746166
 31
0.0
  0
LINE
  5
2F8F
  8
1
 10
-1258.7142715201339
 20
1031.187608746166
 30
0.0
 11
-1235.7610855201351
 21
1031.187608746166
 31
0.0
  0
LINE
  5
2F90
  8
1
 10
-1258.7142715201339
 20
1031.187608746166
 30
0.0
 11
-1281.667457520135
 21
1031.187608746166
 31
0.0
  0
LINE
  5
2F91
  8
1
 10
-1258.7142715201339
 20
1010.030137746166
 30
0.0
 11
-1292.7142715201339
 21
1010.030137746166
 31
0.0
  0
ARC
  5
2F92
  8
1
 10
-1281.667273520135
 20
1025.1874867461661
 30
0.0
 40
6.0001220000000002
 50
90.001167000002894
 51
161.67526200000361
  0
ARC
  5
2F93
  8
1
 10
-1295.7909925201359
 20
1017.530137746166
 30
0.0
 40
5.0
 50
270.0
 51
341.67651400000278
  0
LINE
  5
2F94
  8
1
 10
-1288.7142715201339
 20
1010.030137746166
 30
0.0
 11
-1288.7142715201339
 21
1008.030137746166
 31
0.0
  0
LINE
  5
2F95
  8
1
 10
-1287.363257520135
 20
1027.0739617461661
 30
0.0
 11
-1291.0444715201349
 21
1015.958238746165
 31
0.0
  0
ARC
  5
2F96
  8
1
 10
-1235.7611465201339
 20
1025.1874867461661
 30
0.0
 40
6.0001939999999996
 50
18.324733999998731
 51
89.99883299999712
  0
LINE
  5
2F97
  8
1
 10
-1230.0652845201359
 20
1027.0739617461661
 30
0.0
 11
-1229.4735243023979
 21
1025.2870939729801
 31
0.0
  0
LINE
  5
2F98
  8
1
 10
-1196.2142715201339
 20
1163.5301377461651
 30
0.0
 11
-1196.214271520133
 21
1083.0153769526969
 31
0.0
  0
ARC
  5
2F99
  8
1
 10
-1175.7142715201339
 20
1161.530137746166
 30
0.0
 40
2.0
 50
0.0
 51
90.0
  0
LINE
  5
2F9A
  8
1
 10
-1196.2142715201339
 20
1163.5301377461651
 30
0.0
 11
-1175.7142715201339
 21
1163.5301377461651
 31
0.0
  0
LINE
  5
2F9B
  8
1
 10
-1173.7142715201339
 20
1122.0687608500141
 30
0.0
 11
-1173.7142715201339
 21
1161.530137746166
 31
0.0
  0
LINE
  5
2F9C
  8
1
 10
-1173.7142715201339
 20
1160.845140746165
 30
0.0
 11
-1173.7142715201339
 21
1152.215135746166
 31
0.0
  0
LINE
  5
2F9D
  8
1
 10
-1173.7142715201339
 20
1152.0959337461661
 30
0.0
 11
-1173.7142715201339
 21
1161.0959337461661
 31
0.0
  0
LINE
  5
2F9E
  8
1
 10
-1167.5142715201339
 20
1132.8301377461651
 30
0.0
 11
-1141.214271520136
 21
1154.1301377461641
 31
0.0
  0
LINE
  5
2F9F
  8
1
 10
-1141.214271520136
 20
1238.030137746166
 30
0.0
 11
-1138.9142715201349
 21
1238.030137746166
 31
0.0
  0
LINE
  5
2FA5
  8
1
 10
-1150.9142715201349
 20
1288.030137746166
 30
0.0
 11
-1150.9142715201331
 21
1287.030137746166
 31
0.0
  0
LINE
  5
2FA6
  8
1
 10
-1129.9142715201331
 20
1288.030137746166
 30
0.0
 11
-1129.9142715201331
 21
1088.030137746166
 31
0.0
  0
LINE
  5
2FA7
  8
1
 10
-1130.9142715201349
 20
1288.030137746166
 30
0.0
 11
-1130.9142715201349
 21
1088.030137746166
 31
0.0
  0
LINE
  5
2FA8
  8
1
 10
-1109.9142715201349
 20
1268.0301377461669
 30
0.0
 11
-969.91427152013557
 21
1268.0301377461669
 31
0.0
  0
LINE
  5
2FA9
  8
1
 10
-1127.9142715201331
 20
1286.030137746166
 30
0.0
 11
-1109.9142715201331
 21
1268.030137746166
 31
0.0
  0
LINE
  5
2FAA
  8
1
 10
-1129.9142715201331
 20
1286.030137746166
 30
0.0
 11
-1127.9142715201331
 21
1286.030137746166
 31
0.0
  0
LINE
  5
2FAE
  8
1
 10
-949.91427152013739
 20
1088.030137746166
 30
0.0
 11
-949.91427152013557
 21
891.03013774616625
 31
0.0
  0
LINE
  5
2FB1
  8
1
 10
-948.91427152013739
 20
1088.030137746166
 30
0.0
 11
-948.91427152013546
 21
891.03013774616625
 31
0.0
  0
LINE
  5
2FB2
  8
1
 10
-940.91427152013387
 20
1232.030137746166
 30
0.0
 11
-940.91427152013546
 21
944.03013774616591
 31
0.0
  0
LINE
  5
2FB5
  8
1
 10
-948.91427152013546
 20
938.03013774616613
 30
0.0
 11
-948.91427152013546
 21
891.03013774616625
 31
0.0
  0
ARC
  5
2FB6
  8
1
 10
-960.91427152013557
 20
891.03013774616625
 30
0.0
 40
11.0
 50
270.0
 51
0.0
  0
ARC
  5
2FB7
  8
1
 10
-960.91427152013557
 20
891.03013774616625
 30
0.0
 40
12.0
 50
270.0
 51
0.0
  0
ARC
  5
2FB8
  8
1
 10
-945.91427152013546
 20
938.03013774616613
 30
0.0
 40
3.0
 50
90.0
 51
180.0
  0
ARC
  5
2FBA
  8
1
 10
-943.91427152013557
 20
944.03013774616591
 30
0.0
 40
3.0
 50
270.0
 51
0.0
  0
LINE
  5
2FBB
  8
1
 10
-945.91427152013546
 20
941.03013774616602
 30
0.0
 11
-943.91427152013557
 21
941.03013774616602
 31
0.0
  0
LINE
  5
2FC6
  8
1
 10
-948.91427152013546
 20
1238.030137746166
 30
0.0
 11
-948.91427152013375
 21
1088.030137746166
 31
0.0
  0
LINE
  5
2FC7
  8
1
 10
-949.91427152013557
 20
1288.030137746166
 30
0.0
 11
-949.91427152013557
 21
1088.030137746166
 31
0.0
  0
LINE
  5
2FCA
  8
1
 10
-948.91427152013739
 20
1288.030137746164
 30
0.0
 11
-948.91427152013546
 21
1238.0301377461669
 31
0.0
  0
ARC
  5
2FCB
  8
1
 10
-945.91427152013546
 20
1238.030137746166
 30
0.0
 40
3.0
 50
180.0
 51
270.0
  0
ARC
  5
2FCD
  8
1
 10
-943.91427152013557
 20
1232.030137746166
 30
0.0
 40
3.0
 50
0.0
 51
90.0
  0
LINE
  5
2FCE
  8
1
 10
-945.91427152013546
 20
1235.030137746166
 30
0.0
 11
-943.91427152013557
 21
1235.030137746166
 31
0.0
  0
LINE
  5
2FD0
  8
1
 10
-949.91427152013739
 20
1286.030137746166
 30
0.0
 11
-951.91427152013739
 21
1286.030137746166
 31
0.0
  0
LINE
  5
2FD2
  8
1
 10
-928.91427152013546
 20
1288.030137746166
 30
0.0
 11
-928.91427152013546
 21
1287.030137746166
 31
0.0
  0
LINE
  5
2FDA
  8
4
 10
-510.87320926160049
 20
3046.0924040610389
 30
0.0
 11
-510.87320926160049
 21
3046.0924040610389
 31
0.0
  0
DIMENSION
  5
4FBB
  8
SP
  2
*D2
 10
-949.91427152013557
 20
1358.030137746164
 30
0.0
 11
-1039.914271520134
 21
1383.030137746164
 31
0.0
 70
     0
 13
-1129.9142715201331
 23
1288.030137746166
 33
0.0
 14
-949.91427152013557
 24
1288.030137746166
 34
0.0
  0
ARC
  5
4FDE
  8
1
 10
-1133.9142715201349
 20
1238.030137746166
 30
0.0
 40
3.0
 50
270.0
 51
0.000000000000007
  0
ARC
  5
4FDF
  8
1
 10
-1135.9142715201349
 20
1232.030137746166
 30
0.0
 40
3.0
 50
90.0
 51
180.0
  0
LINE
  5
4FE0
  8
1
 10
-1133.9142715201349
 20
1235.030137746166
 30
0.0
 11
-1135.9142715201349
 21
1235.030137746166
 31
0.0
  0
ARC
  5
4FE1
  8
1
 10
-1135.9142715201349
 20
944.03013774616591
 30
0.0
 40
3.0
 50
180.0
 51
270.0
  0
LINE
  5
4FE2
  8
1
 10
-1133.9142715201349
 20
941.03013774616602
 30
0.0
 11
-1135.9142715201349
 21
941.03013774616602
 31
0.0
  0
ARC
  5
4FE3
  8
1
 10
-1133.9142715201349
 20
938.03013774616613
 30
0.0
 40
3.0
 50
0.000000000000007
 51
90.0
  0
LINE
  5
4FE4
  8
1
 10
-1138.9142715201369
 20
1232.030137746166
 30
0.0
 11
-1138.9142715201349
 21
944.03013774616591
 31
0.0
  0
LINE
  5
4FE7
  8
FUTO
 10
-949.91427152013648
 20
963.03013774616613
 30
0.0
 11
-940.91427152013546
 21
963.03013774616613
 31
0.0
  0
LINE
  5
4FE8
  8
FUTO
 10
-949.91427152013557
 20
1213.030137746166
 30
0.0
 11
-940.91427152013398
 21
1213.030137746166
 31
0.0
  0
DIMENSION
  5
4FE9
  8
SP
  2
*D3
 10
-869.91427152013375
 20
963.03013774616613
 30
0.0
 11
-894.91427152013375
 21
1088.0301377461651
 31
0.0
 70
     0
 13
-940.91427152013387
 23
1213.030137746166
 33
0.0
 14
-940.91427152013387
 24
963.03013774616613
 34
0.0
 50
90.0
1001
ACAD
1000
DSTYLE
1002
{
1070
     3
1000
φ<>
1002
}
  0
DIMENSION
  5
4FFF
  8
SP
  2
*D4
 10
-940.91427152013546
 20
1428.030137746164
 30
0.0
 11
-990.41427152013557
 21
1453.030137746164
 31
0.0
 70
     0
 13
-1039.9142715201349
 23
1398.030137746164
 33
0.0
 14
-940.91427152013546
 24
1232.030137746166
 34
0.0
  0
DIMENSION
  5
5015
  8
SP
  2
*D5
 10
-1391.7142715201339
 20
1428.030137746164
 30
0.0
 11
-1215.814271520135
 21
1453.030137746164
 31
0.0
 70
     0
  1
（400）
 13
-1039.9142715201349
 23
1398.030137746164
 33
0.0
 14
-1391.7142715201339
 24
1160.8074817461661
 34
0.0
  0
LINE
  5
507D
  8
FUTO
 10
-2022.6142715201349
 20
983.03013774616693
 30
0.0
 11
-2047.614271520134
 21
1008.030137746166
 31
0.0
  0
LINE
  5
507E
  8
FUTO
 10
-1757.2142715201351
 20
983.03013774616693
 30
0.0
 11
-1732.214271520136
 21
1008.030137746166
 31
0.0
  0
LINE
  5
5235
  8
FUTO
 10
-1699.9142715201331
 20
2033.1217284884401
 30
0.0
 11
-2079.9142715201328
 21
2033.1217284884401
 31
0.0
  0
LINE
  5
5236
  8
FUTO
 10
-1699.9142715201349
 20
1833.121728488439
 30
0.0
 11
-1729.9142715201349
 21
1833.121728488439
 31
0.0
  0
LINE
  5
525A
  8
1
 10
-2079.9142715201392
 20
1833.1217284884449
 30
0.0
 11
-2079.914271520141
 21
2033.121728488439
 31
0.0
  0
LINE
  5
525B
  8
1
 10
-1729.9142715201349
 20
1824.121728488441
 30
0.0
 11
-1729.9142715201331
 21
2033.1217284884401
 31
0.0
  0
LINE
  5
525C
  8
1
 10
-2049.9142715201392
 20
1824.121728488449
 30
0.0
 11
-2049.914271520141
 21
2033.121728488439
 31
0.0
  0
LINE
  5
5260
  8
CT
 10
-1725.1013575353979
 20
2013.1217284884401
 30
0.0
 11
-1700.7271855048691
 21
2013.1217284884401
 31
0.0
  0
LINE
  5
5262
  8
CT
 10
-1712.9142715201331
 20
2000.934642473175
 30
0.0
 11
-1712.9142715201331
 21
2025.3088145037041
 31
0.0
  0
CIRCLE
  5
5263
  8
FUTO
 10
-1712.9142715201331
 20
2013.1217284884401
 30
0.0
 40
6.0
  0
LINE
  5
5265
  8
CT
 10
-1712.9142715201331
 20
1840.934642473175
 30
0.0
 11
-1712.9142715201331
 21
1865.3088145037041
 31
0.0
  0
LINE
  5
5266
  8
CT
 10
-1725.1013575353979
 20
1853.1217284884401
 30
0.0
 11
-1700.7271855048691
 21
1853.1217284884401
 31
0.0
  0
CIRCLE
  5
5267
  8
FUTO
 10
-1712.9142715201331
 20
1853.1217284884401
 30
0.0
 40
6.0
  0
LINE
  5
5268
  8
CT
 10
-2066.9142715201401
 20
2000.934642473175
 30
0.0
 11
-2066.9142715201401
 21
2025.3088145037041
 31
0.0
  0
LINE
  5
5269
  8
CT
 10
-2054.7271855048762
 20
2013.1217284884401
 30
0.0
 11
-2079.101357535405
 21
2013.1217284884401
 31
0.0
  0
CIRCLE
  5
526A
  8
FUTO
 10
-2066.9142715201401
 20
2013.1217284884401
 30
0.0
 40
6.0
  0
CIRCLE
  5
526B
  8
FUTO
 10
-2066.9142715201401
 20
1853.1217284884401
 30
0.0
 40
6.0
  0
LINE
  5
526C
  8
CT
 10
-2054.7271855048762
 20
1853.1217284884401
 30
0.0
 11
-2079.101357535405
 21
1853.1217284884401
 31
0.0
  0
LINE
  5
526D
  8
CT
 10
-2066.9142715201401
 20
1840.934642473175
 30
0.0
 11
-2066.9142715201401
 21
1865.3088145037041
 31
0.0
  0
DIMENSION
  5
529A
  8
SP
  2
*D6
 10
-1889.9142715201349
 20
1358.030137746166
 30
0.0
 11
-2014.9142715201349
 21
1383.030137746166
 31
0.0
 70
     0
 13
-2139.9142715201351
 23
1288.030137746166
 33
0.0
 14
-1889.9142715201349
 24
1297.8065568904919
 34
0.0
  0
LINE
  5
5343
  8
FUTO
 10
-2120.9142715201351
 20
1268.030137746166
 30
0.0
 11
-1908.9142715201349
 21
1268.030137746166
 31
0.0
  0
LINE
  5
5344
  8
FUTO
 10
-2140.9142715201351
 20
1287.0301377461669
 30
0.0
 11
-1888.9142715201349
 21
1287.0301377461669
 31
0.0
  0
LINE
  5
5345
  8
FUTO
 10
-2160.9142715201351
 20
1288.0301377461669
 30
0.0
 11
-1868.9142715201349
 21
1288.0301377461669
 31
0.0
  0
LINE
  5
5346
  8
FUTO
 10
-2150.8033301608011
 20
1268.030137746166
 30
0.0
 11
-2140.8031758410029
 21
1268.030137746166
 31
0.0
  0
LINE
  5
5348
  8
FUTO
 10
-2140.9142715201351
 20
1286.030137746166
 30
0.0
 11
-2138.9142715201351
 21
1286.030137746166
 31
0.0
  0
LINE
  5
5349
  8
FUTO
 10
-2138.9142715201351
 20
1286.030137746166
 30
0.0
 11
-2120.9142715201351
 21
1268.030137746166
 31
0.0
  0
LINE
  5
534A
  8
FUTO
 10
-2141.9142715201351
 20
1287.0301377461669
 30
0.0
 11
-2141.9142715201351
 21
1268.030137746166
 31
0.0
  0
LINE
  5
534B
  8
FUTO
 10
-2140.9142715201351
 20
1288.0301377461669
 30
0.0
 11
-2140.9142715201351
 21
1268.030137746166
 31
0.0
  0
LINE
  5
534C
  8
FUTO
 10
-2160.9142715201351
 20
1288.0301377461669
 30
0.0
 11
-2160.9142715201351
 21
1287.0301377461669
 31
0.0
  0
LINE
  5
534D
  8
FUTO
 10
-2160.9142715201351
 20
1287.0301377461669
 30
0.0
 11
-2141.9142715201351
 21
1287.0301377461669
 31
0.0
  0
ARC
  5
535A
  8
FUTO
 10
-1883.9824281098929
 20
1258.0301377461669
 30
0.0
 40
10.0
 50
39.872968906145999
 51
90.0
  0
ARC
  5
535B
  8
FUTO
 10
-1830.385685420207
 20
1298.550107068309
 30
0.0
 40
57.203726762688042
 50
216.60350367361551
 51
261.67207569821369
  0
LINE
  5
535C
  8
FUTO
 10
-1890.9142715201349
 20
1286.030137746166
 30
0.0
 11
-1908.9142715201349
 21
1268.030137746166
 31
0.0
  0
LINE
  5
535D
  8
FUTO
 10
-1887.9142715201349
 20
1287.0301377461669
 30
0.0
 11
-1887.9142715201349
 21
1268.030137746166
 31
0.0
  0
LINE
  5
535E
  8
FUTO
 10
-1888.9142715201349
 20
1288.0301377461669
 30
0.0
 11
-1888.9142715201349
 21
1268.030137746166
 31
0.0
  0
LINE
  5
535F
  8
FUTO
 10
-1889.9142715201349
 20
1268.030137746166
 30
0.0
 11
-1889.9142715201349
 21
1288.0301377461669
 31
0.0
  0
LINE
  5
5360
  8
FUTO
 10
-1889.9142715201349
 20
1268.030137746166
 30
0.0
 11
-1888.9142715201349
 21
1268.030137746166
 31
0.0
  0
LINE
  5
5361
  8
FUTO
 10
-1889.9142715201349
 20
1268.030137746166
 30
0.0
 11
-1883.9824281098929
 21
1268.030137746166
 31
0.0
  0
LINE
  5
5362
  8
FUTO
 10
-1890.9142715201349
 20
1286.030137746166
 30
0.0
 11
-1888.9142715201349
 21
1286.030137746166
 31
0.0
  0
LINE
  5
5363
  8
FUTO
 10
-1887.9142715201349
 20
1287.0301377461669
 30
0.0
 11
-1868.9142715201349
 21
1287.0301377461669
 31
0.0
  0
LINE
  5
5364
  8
FUTO
 10
-1868.9142715201349
 20
1288.0301377461669
 30
0.0
 11
-1868.9142715201349
 21
1287.0301377461669
 31
0.0
  0
DIMENSION
  5
5385
  8
SP
  2
*D7
 10
-1713.9142715201349
 20
1358.030137746166
 30
0.0
 11
-1801.9142715201349
 21
1383.030137746166
 31
0.0
 70
     0
 13
-1889.9142715201349
 23
1297.8065568904919
 33
0.0
 14
-1713.9142715201349
 24
1071.0301377461669
 34
0.0
  0
LINE
  5
539B
  8
FUTO
 10
-2139.9142560883929
 20
1288.0245822763429
 30
0.0
 11
-2139.9142560883929
 21
1108.0245822763391
 31
0.0
  0
ARC
  5
539C
  8
FUTO
 10
-1909.9142715201349
 20
1108.030137746166
 30
0.0
 40
230.0
 50
180.0
 51
270.39182689926662
  0
ARC
  5
539D
  8
FUTO
 10
-1906.9142715201349
 20
1071.0301377461669
 30
0.0
 40
193.0
 50
269.57208103221808
 51
0.4673217049916192
  0
ARC
  5
539E
  8
FUTO
 10
-1875.9142715201349
 20
1074.030137746166
 30
0.0
 40
162.0
 50
359.4896667551883
 51
78.450738176441575
  0
ARC
  5
539F
  8
FUTO
 10
-1828.914271520139
 20
1304.0301377461669
 30
0.0
 40
72.753061747871584
 50
214.19961945545691
 51
258.45073817644152
  0
LINE
  5
53A0
  8
FUTO
 10
-2150.8033301608011
 20
1268.030137746166
 30
0.0
 11
-2149.914101770978
 21
1107.9690275781029
 31
0.0
  0
ARC
  5
53A1
  8
FUTO
 10
-1909.9142715201349
 20
1108.030137746166
 30
0.0
 40
240.0
 50
180.0
 51
270.39182689926662
  0
ARC
  5
53A2
  8
FUTO
 10
-1906.9142715201349
 20
1071.0301377461669
 30
0.0
 40
203.0
 50
269.57208103221808
 51
0.4673217049916192
  0
ARC
  5
53A3
  8
FUTO
 10
-1875.9142715201349
 20
1074.030137746166
 30
0.0
 40
172.0
 50
359.4896667551883
 51
78.450738176441575
  0
DIMENSION
  5
53AD
  8
SP
  2
*D8
 10
-2239.3805561714089
 20
1288.0301377461669
 30
0.0
 11
-2264.3805561714089
 21
1188.030137746166
 31
0.0
 70
     0
 13
-2174.1007564974352
 23
1088.030137746166
 33
0.0
 14
-2160.9142715201351
 24
1288.0301377461669
 34
0.0
 50
90.0
  0
DIMENSION
  5
53BA
  8
SP
  2
*D9
 10
-2239.3805561714089
 20
833.03013774616511
 30
0.0
 11
-2264.3805561714089
 21
960.53013774616568
 31
0.0
 70
     0
 13
-2174.1007564974352
 23
1088.030137746166
 33
0.0
 14
-2079.914271520136
 24
833.03013774616511
 34
0.0
 50
90.0
  0
DIMENSION
  5
53C7
  8
SP
  2
*D10
 10
-1699.9142715201349
 20
1695.467894803518
 30
0.0
 11
-1889.9142715201369
 21
1720.4678948035189
 31
0.0
 70
     0
 13
-2079.9142715201392
 23
1833.1217284884449
 33
0.0
 14
-1699.9142715201349
 24
1833.121728488439
 34
0.0
  0
DIMENSION
  5
53D4
  8
SP
  2
*D11
 10
-1588.1076460867821
 20
2132.1217284884401
 30
0.0
 11
-1613.1076460867821
 21
2082.6217284884392
 31
0.0
 70
     0
 13
-1699.9142715201331
 23
2033.1217284884401
 33
0.0
 14
-1679.7666569467849
 24
2132.1217284884401
 34
0.0
 50
90.0
  0
DIMENSION
  5
53E1
  8
SP
  2
*D12
 10
-1588.1076460867821
 20
1833.1217284884449
 30
0.0
 11
-1613.1076460867821
 21
1933.1217284884419
 31
0.0
 70
     0
 13
-1699.9142715201331
 23
2033.1217284884401
 33
0.0
 14
-1699.9142715201349
 24
1833.1217284884449
 34
0.0
 50
90.0
  0
TEXT
  5
53F8
  8
4
 10
-2319.1987029947582
 20
2544.4293549289091
 30
0.0
 40
53.999999999999993
  1
右回転上向
  0
TEXT
  5
53F9
  8
4
 10
-2151.2732092616002
 20
2695.5186316473701
 30
0.0
 40
72.0
  1
遠心式片吸込直動形多翼ファン
 72
     4
 11
-1560.8732092616001
 21
2731.5186316473701
 31
0.0
  0
LINE
  5
53FA
  8
4
 10
-2360.8732092616001
 20
2631.5186316473701
 30
0.0
 11
-760.87320926160055
 21
2631.5186316473701
 31
0.0
  0
LINE
  5
53FB
  8
4
 10
-2360.8732092616001
 20
2831.5186316473701
 30
0.0
 11
-760.87320926160055
 21
2831.5186316473701
 31
0.0
  0
LINE
  5
53FC
  8
4
 10
-2360.8732092616001
 20
2831.5186316473701
 30
0.0
 11
-2360.8732092616001
 21
2631.5186316473701
 31
0.0
  0
LINE
  5
53FD
  8
4
 10
-1170.255786901736
 20
2948.7621389323181
 30
0.0
 11
-760.87320926160055
 21
2948.7621389323181
 31
0.0
  0
LINE
  5
53FE
  8
4
 10
-760.87320926160055
 20
2843.3734605079671
 30
0.0
 11
-1170.255786901736
 21
2843.3734605079671
 31
0.0
  0
TEXT
  5
5400
  8
4
 10
-1199.577146661587
 20
2545.5387187150809
 30
0.0
 40
53.999999999999993
  1
縮尺：1/10
  0
LINE
  5
5401
  8
4
 10
-1170.255786901736
 20
2843.3734605079671
 30
0.0
 11
-1170.255786901736
 21
2948.7621389323181
 31
0.0
  0
TEXT
  5
5402
  8
4
 10
-1141.90365001231
 20
2868.170958877874
 30
0.0
 40
56.000000000000007
  1
No.
  0
LINE
  5
5403
  8
4
 10
-760.87320926160055
 20
2831.5186316473701
 30
0.0
 11
-760.87320926160055
 21
2631.5186316473701
 31
0.0
  0
LINE
  5
5404
  8
4
 10
-760.87320926160055
 20
2948.7621389323181
 30
0.0
 11
-760.87320926160055
 21
2843.3734605079671
 31
0.0
  0
TEXT
  5
5405
  8
4
 10
-2124.615103236803
 20
335.27468562959712
 30
0.0
 40
50.0
  1
機器型番
  0
TEXT
  5
5406
  8
4
 10
-2122.3711284146989
 20
445.17255476419911
 30
0.0
 40
50.0
  1
機器名称
  0
LINE
  5
5409
  8
4
 10
-2160.8732092616001
 20
513.62952889758606
 30
0.0
 11
-960.87320926160055
 21
513.62952889758606
 31
0.0
  0
LINE
  5
540A
  8
4
 10
-2160.8732092616001
 20
413.62952889758611
 30
0.0
 11
-960.87320926160055
 21
413.62952889758611
 31
0.0
  0
LINE
  5
540B
  8
4
 10
-2160.8732092616001
 20
313.62952889758611
 30
0.0
 11
-960.87320926160055
 21
313.62952889758611
 31
0.0
  0
LINE
  5
540C
  8
4
 10
-2160.8732092616001
 20
513.62952889758606
 30
0.0
 11
-2160.8732092616001
 21
313.62952889758611
 31
0.0
  0
LINE
  5
540D
  8
4
 10
-960.87320926160055
 20
513.62952889758606
 30
0.0
 11
-960.87320926160055
 21
313.62952889758611
 31
0.0
  0
LINE
  5
540E
  8
4
 10
-1660.8732092616001
 20
513.62952889758606
 30
0.0
 11
-1660.8732092616001
 21
313.62952889758611
 31
0.0
  0
TEXT
  5
5411
  8
4
 10
-1633.1944637739359
 20
436.20129785515468
 30
0.0
 40
50.0
  1
ミツヤ多翼送風機
  0
TEXT
  5
5660
  8
4
 10
-1624.218713676119
 20
330.78911317752949
 30
0.0
 40
50.0
  1
MF＃1 1/2-7
  0
ARC
  5
674A
  8
1
 10
-2039.914271520131
 20
2038.1217284884419
 30
0.0
 40
3.0
 50
0.000000000000007
 51
90.0
  0
LINE
  5
674B
  8
1
 10
-2036.9142715201319
 20
2038.1217284884419
 30
0.0
 11
-2036.9142715201319
 21
2036.1217284884419
 31
0.0
  0
LINE
  5
674C
  8
1
 10
-2036.9142715201319
 20
2038.1217284884419
 30
0.0
 11
-2036.9142715201319
 21
2036.1217284884419
 31
0.0
  0
ARC
  5
674D
  8
1
 10
-2033.914271520131
 20
2036.1217284884419
 30
0.0
 40
3.0
 50
180.0
 51
270.0
  0
LINE
  5
6E10
  8
1
 10
-1138.9142715201269
 20
811.0301377461642
 30
0.0
 11
-1138.9142715201749
 21
751.0301377461642
 31
0.0
  0
LINE
  5
6E11
  8
1
 10
-1338.9142715201269
 20
811.0301377461642
 30
0.0
 11
-1338.9142715201749
 21
751.0301377461642
 31
0.0
  0
DIMENSION
  5
6E12
  8
SP
  2
*D25
 10
-1338.9142715201749
 20
681.03013774616613
 30
0.0
 11
-1238.9142715201749
 21
706.03013774616613
 31
0.0
 70
     0
 13
-1138.9142715201749
 23
751.0301377461642
 33
0.0
 14
-1338.9142715201749
 24
751.0301377461642
 34
0.0
  0
LINE
  5
6E13
  8
FUTO
 10
-1138.914271520129
 20
808.73013774616425
 30
0.0
 11
-1338.9142715201299
 21
808.73013774616402
 31
0.0
  0
LINE
  5
6E14
  8
FUTO
 10
-1138.9142715201749
 20
751.0301377461642
 30
0.0
 11
-1338.9142715201749
 21
751.0301377461642
 31
0.0
  0
LINE
  5
6E15
  8
FUTO
 10
-1138.9142715201731
 20
753.33013774616416
 30
0.0
 11
-1338.914271520174
 21
753.33013774616404
 31
0.0
  0
LINE
  5
6E18
  8
FUTO
 10
-1138.914271520126
 20
811.0301377461642
 30
0.0
 11
-1338.9142715201269
 21
811.0301377461642
 31
0.0
  0
DIMENSION
  5
6E19
  8
SP
  2
*D26
 10
-1039.9142715201349
 20
681.03013774616613
 30
0.0
 11
-1089.4142715201549
 21
706.03013774616613
 31
0.0
 70
     0
 13
-1138.9142715201749
 23
751.0301377461642
 33
0.0
 14
-1039.9142715201349
 24
832.47319462932398
 34
0.0
  0
DIMENSION
  5
6E1A
  8
SP
  2
*D23
 10
-1699.9142715201349
 20
681.03013774616613
 30
0.0
 11
-1794.9142715201349
 21
706.03013774616613
 31
0.0
 70
     0
 13
-1889.9142715201349
 23
725.18748159913957
 33
0.0
 14
-1699.9142715201349
 24
751.03013774616613
 34
0.0
  0
DIMENSION
  5
6E1B
  8
SP
  2
*D24
 10
-1889.9142715201349
 20
681.03013774616431
 30
0.0
 11
-1984.9142715201349
 21
706.03013774616431
 31
0.0
 70
     0
 13
-2079.914271520136
 23
751.03013774616431
 33
0.0
 14
-1889.9142715201349
 24
725.18748159913957
 34
0.0
  0
DIMENSION
  5
6E1C
  8
SP
  2
*D22
 10
-2079.914271520136
 20
611.03013774616613
 30
0.0
 11
-1889.914271520136
 21
636.03013774616613
 31
0.0
 70
     0
 13
-1699.9142715201349
 23
751.03013774616613
 33
0.0
 14
-2079.914271520136
 24
751.03013774616431
 34
0.0
  0
LINE
  5
6E1D
  8
FUTO
 10
-2049.914271520136
 20
811.0301377461642
 30
0.0
 11
-2049.914271520136
 21
751.0301377461642
 31
0.0
  0
LINE
  5
6E1E
  8
FUTO
 10
-2049.914271520136
 20
771.03013774616409
 30
0.0
 11
-1729.9142715201349
 21
771.03013774616409
 31
0.0
  0
LINE
  5
6E1F
  8
FUTO
 10
-2052.2142715201362
 20
808.73013774616425
 30
0.0
 11
-2052.2142715201348
 21
753.33013774616416
 31
0.0
  0
LINE
  5
6E20
  8
FUTO
 10
-1699.914271520134
 20
811.0301377461642
 30
0.0
 11
-1699.914271520134
 21
808.73013774616425
 31
0.0
  0
LINE
  5
6E21
  8
FUTO
 10
-1729.9142715201349
 20
811.0301377461642
 30
0.0
 11
-1729.9142715201349
 21
751.0301377461642
 31
0.0
  0
LINE
  5
6E22
  8
FUTO
 10
-2079.914271520136
 20
811.0301377461642
 30
0.0
 11
-2079.914271520136
 21
808.73013774616425
 31
0.0
  0
LINE
  5
6E23
  8
FUTO
 10
-2079.914271520136
 20
753.33013774616416
 30
0.0
 11
-2052.2142715201348
 21
753.33013774616416
 31
0.0
  0
LINE
  5
6E24
  8
FUTO
 10
-2079.914271520136
 20
808.73013774616425
 30
0.0
 11
-2052.2142715201362
 21
808.73013774616425
 31
0.0
  0
LINE
  5
6E25
  8
FUTO
 10
-2079.914271520136
 20
753.33013774616416
 30
0.0
 11
-2079.914271520136
 21
751.0301377461642
 31
0.0
  0
LINE
  5
6E26
  8
FUTO
 10
-2079.914271520136
 20
751.0301377461642
 30
0.0
 11
-2049.914271520136
 21
751.0301377461642
 31
0.0
  0
LINE
  5
6E27
  8
FUTO
 10
-1699.914271520134
 20
751.0301377461642
 30
0.0
 11
-1729.9142715201349
 21
751.0301377461642
 31
0.0
  0
LINE
  5
6E28
  8
FUTO
 10
-1699.914271520134
 20
753.33013774616416
 30
0.0
 11
-1699.914271520134
 21
751.0301377461642
 31
0.0
  0
LINE
  5
6E29
  8
FUTO
 10
-1699.914271520134
 20
808.73013774616425
 30
0.0
 11
-1727.614271520134
 21
808.73013774616425
 31
0.0
  0
LINE
  5
6E2A
  8
FUTO
 10
-1699.914271520134
 20
753.33013774616416
 30
0.0
 11
-1727.6142715201349
 21
753.33013774616416
 31
0.0
  0
LINE
  5
6E2B
  8
FUTO
 10
-1727.614271520134
 20
808.73013774616425
 30
0.0
 11
-1727.6142715201349
 21
753.33013774616416
 31
0.0
  0
LINE
  5
6E2C
  8
FUTO
 10
-2049.914271520136
 20
811.0301377461642
 30
0.0
 11
-1729.9142715201349
 21
811.0301377461642
 31
0.0
  0
LINE
  5
6E2D
  8
FUTO
 10
-2079.914271520136
 20
811.0301377461642
 30
0.0
 11
-2049.914271520136
 21
811.0301377461642
 31
0.0
  0
LINE
  5
6E2E
  8
FUTO
 10
-1699.914271520134
 20
811.0301377461642
 30
0.0
 11
-1729.9142715201349
 21
811.0301377461642
 31
0.0
  0
DIMENSION
  5
6F28
  8
SP
  2
*D27
 10
-2239.3805561714089
 20
751.0301377461642
 30
0.0
 11
-2264.3805561714089
 21
665.49350296470982
 31
0.0
 70
     0
 13
-2079.914271520136
 23
811.0301377461642
 33
0.0
 14
-2079.914271520136
 24
751.0301377461642
 34
0.0
 50
90.0
1001
ACAD
1000
DSTYLE
1002
{
1070
     6
1000
DOT
1002
}
  0
DIMENSION
  5
6F42
  8
SP
  2
*D28
 10
-2239.3805561714089
 20
811.0301377461642
 30
0.0
 11
-2239.3805561714089
 21
822.03013774616431
 31
0.0
 70
   128
 13
-2079.914271520136
 23
833.03013774616511
 33
0.0
 14
-2079.914271520136
 24
811.0301377461642
 34
0.0
 50
90.0
1001
ACAD
1000
DSTYLE
1002
{
1070
     3
1000
（<>）
1070
     7
1000
NONE
1070
     6
1000
NONE
1002
}
  0
TEXT
  5
74AE
  8
4
 10
-1832.58104058084
 20
2545.5387187150809
 30
0.0
 40
53.999999999999993
  1
床置防振ベッド型
  0
ENDSEC
  0
EOF
